0
SECTION
2
HEADER
9
$ACADVER
1
AC1015
9
$DWGCODEPAGE
3
ANSI_1252
9
$HANDSEED
5
217
9
$ANGBASE
50
0
9
$ANGDIR
70
0
9
$ATTMODE
70
1
9
$AUNITS
70
0
9
$AUPREC
70
0
9
$CECOLOR
62
256
9
$CELTSCALE
40
1
9
$CELTYPE
6
ByLayer
9
$CELWEIGHT
370
18
9
$CLAYER
8
0
9
$CMLJUST
70
0
9
$CMLSCALE
40
1
9
$CMLSTYLE
2
Standard
9
$DIMSTYLE
2
Standard
9
$TEXTSIZE
40
0.2
9
$TEXTSTYLE
7
Standard
9
$LUNITS
70
2
9
$LUPREC
70
4
9
$EXTNAMES
290
1
9
$INSUNITS
70
4
9
$LTSCALE
40
1
9
$LWDISPLAY
290
1
9
$PDMODE
70
0
9
$PDSIZE
40
0
9
$PLINEGEN
70
0
0
ENDSEC
0
SECTION
2
CLASSES
0
CLASS
1
RASTERVARIABLES
2
AcDbRasterVariables
3
ISM
90
0
280
0
281
0
0
ENDSEC
0
SECTION
2
TABLES
0
TABLE
2
VPORT
5
20d
100
AcDbSymbolTable
0
VPORT
5
1
100
AcDbSymbolTableRecord
100
AcDbViewportTableRecord
2
*Active
70
0
10
0
20
0
11
1
21
1
12
-1
22
1
13
0
23
0
14
0.5
24
0.5
15
10
25
10
16
0
26
0
36
1
17
0
27
0
37
0
0
ENDTAB
0
TABLE
2
LTYPE
5
20e
100
AcDbSymbolTable
0
LTYPE
5
14
100
AcDbSymbolTableRecord
100
AcDbLinetypeTableRecord
70
0
2
ByBlock
3

72
65
73
0
40
0
0
LTYPE
5
15
100
AcDbSymbolTableRecord
100
AcDbLinetypeTableRecord
70
0
2
ByLayer
3

72
65
73
0
40
0
0
LTYPE
5
16
100
AcDbSymbolTableRecord
100
AcDbLinetypeTableRecord
70
0
2
Continuous
3
Solid line
72
65
73
0
40
0
0
LTYPE
5
6E
100
AcDbSymbolTableRecord
100
AcDbLinetypeTableRecord
70
0
2
CENTER
3
____ _ ____ _ ____ _ ____
72
65
73
4
40
47.5
49
22
74
0
49
-8.5
74
0
49
8.5
74
0
49
-8.5
74
0
0
LTYPE
5
6F
100
AcDbSymbolTableRecord
100
AcDbLinetypeTableRecord
70
0
2
DASHED
3
__ __ __ __ __ __ __ __ __
72
65
73
2
40
25.72
49
12.86
74
0
49
-12.86
74
0
0
ENDTAB
0
TABLE
2
LAYER
5
20f
100
AcDbSymbolTable
0
LAYER
5
10
100
AcDbSymbolTableRecord
100
AcDbLayerTableRecord
2
0
70
0
62
7
6
Continuous
290
1
370
-3
390
0
0
LAYER
5
71
100
AcDbSymbolTableRecord
100
AcDbLayerTableRecord
2
81
70
0
62
-3
6
Continuous
290
1
370
-3
390
0
0
LAYER
5
73
100
AcDbSymbolTableRecord
100
AcDbLayerTableRecord
2
80
70
0
62
-6
6
Continuous
290
1
370
-3
390
0
0
LAYER
5
75
100
AcDbSymbolTableRecord
100
AcDbLayerTableRecord
2
1
70
0
62
4
6
Continuous
290
1
370
-3
390
0
0
LAYER
5
81
100
AcDbSymbolTableRecord
100
AcDbLayerTableRecord
2
4
70
0
62
-2
6
CENTER
290
1
370
-3
390
0
0
LAYER
5
AF
100
AcDbSymbolTableRecord
100
AcDbLayerTableRecord
2
2
70
0
62
7
6
Continuous
290
1
370
-3
390
0
0
LAYER
5
13C
100
AcDbSymbolTableRecord
100
AcDbLayerTableRecord
2
Defpoints
70
0
62
7
6
Continuous
290
0
370
-3
390
0
0
LAYER
5
1f9
100
AcDbSymbolTableRecord
100
AcDbLayerTableRecord
2
SK4
70
0
62
2
6
CENTER
290
1
370
-3
390
0
0
LAYER
5
1fa
100
AcDbSymbolTableRecord
100
AcDbLayerTableRecord
2
SK1
70
0
62
4
6
Continuous
290
1
370
-3
390
0
0
LAYER
5
1fb
100
AcDbSymbolTableRecord
100
AcDbLayerTableRecord
2
SK2
70
0
62
7
6
Continuous
290
1
370
-3
390
0
0
LAYER
5
1fc
100
AcDbSymbolTableRecord
100
AcDbLayerTableRecord
2
SK6
70
0
62
5
6
Continuous
290
1
370
-3
390
0
0
ENDTAB
0
TABLE
2
STYLE
5
210
100
AcDbSymbolTable
0
STYLE
5
11
100
AcDbSymbolTableRecord
100
AcDbTextStyleTableRecord
2
Standard
3
txt
70
0
71
0
40
0
41
1
42
0
50
0
0
STYLE
5
118
100
AcDbSymbolTableRecord
100
AcDbTextStyleTableRecord
2
iso_b_vert
3
simplex.shx
70
0
71
0
40
0
41
1
42
0
50
0
0
STYLE
5
119
100
AcDbSymbolTableRecord
100
AcDbTextStyleTableRecord
2
DWGDirectTextStyle
3
simplex
70
0
71
0
40
0
41
1
42
0
50
0
0
ENDTAB
0
TABLE
2
DIMSTYLE
5
211
100
AcDbSymbolTable
100
AcDbDimStyleTable
0
DIMSTYLE
105
27
100
AcDbSymbolTableRecord
100
AcDbDimStyleTableRecord
2
Standard
70
0
3
<>
41
0.18
42
0.0625
44
0.18
140
0.18
147
0.09
73
0
74
0
77
1
271
2
275
0
278
52
280
0
340
11
0
ENDTAB
0
TABLE
2
VIEW
5
212
100
AcDbSymbolTable
0
ENDTAB
0
TABLE
2
UCS
5
213
100
AcDbSymbolTable
0
ENDTAB
0
TABLE
2
APPID
5
214
100
AcDbSymbolTable
0
APPID
5
12
100
AcDbSymbolTableRecord
100
AcDbRegAppTableRecord
2
ACAD
70
0
0
APPID
5
138
100
AcDbSymbolTableRecord
100
AcDbRegAppTableRecord
2
ACAD_DSTYLE_DIMBREAK
70
0
0
APPID
5
1B8
100
AcDbSymbolTableRecord
100
AcDbRegAppTableRecord
2
ACAD_DSTYLE_DIM_LINETYPE
70
0
0
APPID
5
1B9
100
AcDbSymbolTableRecord
100
AcDbRegAppTableRecord
2
ACAD_DSTYLE_DIM_EXT1_LINETYPE
70
0
0
APPID
5
1BA
100
AcDbSymbolTableRecord
100
AcDbRegAppTableRecord
2
ACAD_DSTYLE_DIM_EXT2_LINETYPE
70
0
0
APPID
5
1F5
100
AcDbSymbolTableRecord
100
AcDbRegAppTableRecord
2
ACAD_MLEADERVER
70
0
0
ENDTAB
0
TABLE
2
BLOCK_RECORD
5
215
100
AcDbSymbolTable
0
BLOCK_RECORD
5
1F
100
AcDbSymbolTableRecord
100
AcDbBlockTableRecord
2
*Model_Space
340
0
70
0
0
BLOCK_RECORD
5
1B
100
AcDbSymbolTableRecord
100
AcDbBlockTableRecord
2
*Paper_Space
340
0
70
0
0
BLOCK_RECORD
5
23
100
AcDbSymbolTableRecord
100
AcDbBlockTableRecord
2
*Paper_Space0
340
0
70
0
0
BLOCK_RECORD
5
13D
100
AcDbSymbolTableRecord
100
AcDbBlockTableRecord
2
*D1
340
0
70
0
0
BLOCK_RECORD
5
149
100
AcDbSymbolTableRecord
100
AcDbBlockTableRecord
2
_U0
340
0
70
0
0
BLOCK_RECORD
5
155
100
AcDbSymbolTableRecord
100
AcDbBlockTableRecord
2
*D3
340
0
70
0
0
BLOCK_RECORD
5
161
100
AcDbSymbolTableRecord
100
AcDbBlockTableRecord
2
_U1
340
0
70
0
0
BLOCK_RECORD
5
16D
100
AcDbSymbolTableRecord
100
AcDbBlockTableRecord
2
*D5
340
0
70
0
0
BLOCK_RECORD
5
179
100
AcDbSymbolTableRecord
100
AcDbBlockTableRecord
2
_U2
340
0
70
0
0
BLOCK_RECORD
5
185
100
AcDbSymbolTableRecord
100
AcDbBlockTableRecord
2
*D7
340
0
70
0
0
BLOCK_RECORD
5
191
100
AcDbSymbolTableRecord
100
AcDbBlockTableRecord
2
_U3
340
0
70
0
0
ENDTAB
0
ENDSEC
0
SECTION
2
BLOCKS
0
BLOCK
5
20
100
AcDbEntity
8
0
100
AcDbBlockBegin
2
*Model_Space
70
0
10
0
20
0
30
0
3
*Model_Space
0
ENDBLK
5
21
100
AcDbEntity
8
0
100
AcDbBlockEnd
0
BLOCK
5
1C
100
AcDbEntity
8
0
100
AcDbBlockBegin
2
*Paper_Space
70
0
10
0
20
0
30
0
3
*Paper_Space
0
ENDBLK
5
1D
100
AcDbEntity
8
0
100
AcDbBlockEnd
0
BLOCK
5
24
100
AcDbEntity
8
0
100
AcDbBlockBegin
2
*Paper_Space0
70
0
10
0
20
0
30
0
3
*Paper_Space0
0
ENDBLK
5
25
100
AcDbEntity
8
0
100
AcDbBlockEnd
0
BLOCK
5
13E
100
AcDbEntity
8
0
100
AcDbBlockBegin
2
*D1
70
1
10
0
20
0
30
0
3
*D1
0
LINE
5
140
100
AcDbEntity
8
0
62
256
6
ByLayer
370
-2
48
1
60
0
100
AcDbLine
10
-48
20
-9.5875
30
0
11
-48
21
-47.952229
31
0
39
0
210
0
220
0
230
1
0
LINE
5
141
100
AcDbEntity
8
0
62
256
6
ByLayer
370
-2
48
1
60
0
100
AcDbLine
10
92
20
-1.5875
30
0
11
92
21
-47.952229
31
0
39
0
210
0
220
0
230
1
0
LINE
5
142
100
AcDbEntity
8
0
62
256
6
ByLayer
370
-2
48
1
60
0
100
AcDbLine
10
-44.5
20
-45.952229
30
0
11
88.5
21
-45.952229
31
0
39
0
210
0
220
0
230
1
0
SOLID
5
143
100
AcDbEntity
8
0
62
256
6
ByLayer
370
-1
48
1
60
0
100
AcDbTrace
10
-44.5
20
-45.368896
30
0
11
-44.5
21
-46.535563
31
0
12
-48
22
-45.952229
32
0
13
-48
23
-45.952229
33
0
39
0
210
0
220
0
230
1
0
SOLID
5
144
100
AcDbEntity
8
0
62
256
6
ByLayer
370
-1
48
1
60
0
100
AcDbTrace
10
88.5
20
-46.535563
30
0
11
88.5
21
-45.368896
31
0
12
92
22
-45.952229
32
0
13
92
23
-45.952229
33
0
39
0
210
0
220
0
230
1
0
MTEXT
5
145
100
AcDbEntity
8
0
62
256
6
ByLayer
370
18
48
1
60
0
100
AcDbMText
10
22
20
-39.952229
30
0
210
0
220
0
230
1
1
\A1;140
40
3
41
0
44
1
50
0
71
5
72
5
7
iso_b_vert
0
POINT
5
146
100
AcDbEntity
8
Defpoints
62
0
6
ByLayer
370
-1
48
1
60
0
100
AcDbPoint
10
-48
20
-8
30
0
39
0
210
0
220
0
230
1
50
360
0
POINT
5
147
100
AcDbEntity
8
Defpoints
62
0
6
ByLayer
370
-1
48
1
60
0
100
AcDbPoint
10
92
20
0
30
0
39
0
210
0
220
0
230
1
50
360
0
POINT
5
148
100
AcDbEntity
8
Defpoints
62
0
6
ByLayer
370
-1
48
1
60
0
100
AcDbPoint
10
92
20
-45.952229
30
0
39
0
210
0
220
0
230
1
50
360
0
ENDBLK
5
13F
100
AcDbEntity
8
0
100
AcDbBlockEnd
0
BLOCK
5
150
100
AcDbEntity
8
0
100
AcDbBlockBegin
2
_U0
70
0
10
0
20
0
30
0
3
_U0
0
MTEXT
5
14A
100
AcDbEntity
8
SK2
62
256
6
ByLayer
370
18
48
1
60
0
100
AcDbMText
10
16.613715
20
-45.067115
30
0
210
0
220
0
230
1
1
\W0.7237;140.00
40
3
41
0
44
1.084337
50
0
71
7
72
5
7
iso_b_vert
0
LINE
5
14B
100
AcDbEntity
8
SK2
62
256
6
ByLayer
370
13
48
1
60
0
100
AcDbLine
10
-48
20
-9.5875
30
0
11
-48
21
-47.952229
31
0
39
0
210
0
220
0
230
1
0
LINE
5
14C
100
AcDbEntity
8
SK2
62
256
6
ByLayer
370
13
48
1
60
0
100
AcDbLine
10
92
20
-1.5875
30
0
11
92
21
-47.952229
31
0
39
0
210
0
220
0
230
1
0
LINE
5
14D
100
AcDbEntity
8
SK2
62
256
6
ByLayer
370
13
48
1
60
0
100
AcDbLine
10
-48
20
-45.952229
30
0
11
92
21
-45.952229
31
0
39
0
210
0
220
0
230
1
0
SOLID
5
14E
100
AcDbEntity
8
SK2
62
256
6
ByLayer
370
18
48
1
60
0
100
AcDbTrace
10
-48
20
-45.952229
30
0
11
-44.500002
21
-45.491446
31
0
12
-44.499998
22
-46.413013
32
0
13
-44.499998
23
-46.413013
33
0
39
0
210
0
220
0
230
1
0
SOLID
5
14F
100
AcDbEntity
8
SK2
62
256
6
ByLayer
370
18
48
1
60
0
100
AcDbTrace
10
92
20
-45.952229
30
0
11
88.500002
21
-46.413013
31
0
12
88.499998
22
-45.491446
32
0
13
88.499998
23
-45.491446
33
0
39
0
210
0
220
0
230
1
0
ENDBLK
5
151
100
AcDbEntity
8
0
100
AcDbBlockEnd
0
BLOCK
5
156
100
AcDbEntity
8
0
100
AcDbBlockBegin
2
*D3
70
1
10
0
20
0
30
0
3
*D3
0
LINE
5
158
100
AcDbEntity
8
0
62
256
6
ByLayer
370
-2
48
1
60
0
100
AcDbLine
10
92
20
-1.5875
30
0
11
92
21
-37.952229
31
0
39
0
210
0
220
0
230
1
0
LINE
5
159
100
AcDbEntity
8
0
62
256
6
ByLayer
370
-2
48
1
60
0
100
AcDbLine
10
3
20
-8.0875
30
0
11
3
21
-37.952229
31
0
39
0
210
0
220
0
230
1
0
LINE
5
15A
100
AcDbEntity
8
0
62
256
6
ByLayer
370
-2
48
1
60
0
100
AcDbLine
10
88.5
20
-35.952229
30
0
11
6.5
21
-35.952229
31
0
39
0
210
0
220
0
230
1
0
SOLID
5
15B
100
AcDbEntity
8
0
62
256
6
ByLayer
370
-1
48
1
60
0
100
AcDbTrace
10
88.5
20
-36.535563
30
0
11
88.5
21
-35.368896
31
0
12
92
22
-35.952229
32
0
13
92
23
-35.952229
33
0
39
0
210
0
220
0
230
1
0
SOLID
5
15C
100
AcDbEntity
8
0
62
256
6
ByLayer
370
-1
48
1
60
0
100
AcDbTrace
10
6.5
20
-35.368896
30
0
11
6.5
21
-36.535563
31
0
12
3
22
-35.952229
32
0
13
3
23
-35.952229
33
0
39
0
210
0
220
0
230
1
0
MTEXT
5
15D
100
AcDbEntity
8
0
62
256
6
ByLayer
370
18
48
1
60
0
100
AcDbMText
10
47.5
20
-29.952229
30
0
210
0
220
0
230
1
1
\A1;89
40
3
41
0
44
1
50
0
71
5
72
5
7
iso_b_vert
0
POINT
5
15E
100
AcDbEntity
8
Defpoints
62
0
6
ByLayer
370
-1
48
1
60
0
100
AcDbPoint
10
92
20
0
30
0
39
0
210
0
220
0
230
1
50
360
0
POINT
5
15F
100
AcDbEntity
8
Defpoints
62
0
6
ByLayer
370
-1
48
1
60
0
100
AcDbPoint
10
3
20
-6.5
30
0
39
0
210
0
220
0
230
1
50
360
0
POINT
5
160
100
AcDbEntity
8
Defpoints
62
0
6
ByLayer
370
-1
48
1
60
0
100
AcDbPoint
10
3
20
-35.952229
30
0
39
0
210
0
220
0
230
1
50
360
0
ENDBLK
5
157
100
AcDbEntity
8
0
100
AcDbBlockEnd
0
BLOCK
5
168
100
AcDbEntity
8
0
100
AcDbBlockBegin
2
_U1
70
0
10
0
20
0
30
0
3
_U1
0
MTEXT
5
162
100
AcDbEntity
8
SK2
62
256
6
ByLayer
370
18
48
1
60
0
100
AcDbMText
10
43.01763
20
-35.067115
30
0
210
0
220
0
230
1
1
\W0.7468;89.00
40
3
41
0
44
1.084337
50
0
71
7
72
5
7
iso_b_vert
0
LINE
5
163
100
AcDbEntity
8
SK2
62
256
6
ByLayer
370
13
48
1
60
0
100
AcDbLine
10
92
20
-1.5875
30
0
11
92
21
-37.952229
31
0
39
0
210
0
220
0
230
1
0
LINE
5
164
100
AcDbEntity
8
SK2
62
256
6
ByLayer
370
13
48
1
60
0
100
AcDbLine
10
3
20
-8.0875
30
0
11
3
21
-37.952229
31
0
39
0
210
0
220
0
230
1
0
LINE
5
165
100
AcDbEntity
8
SK2
62
256
6
ByLayer
370
13
48
1
60
0
100
AcDbLine
10
92
20
-35.952229
30
0
11
3
21
-35.952229
31
0
39
0
210
0
220
0
230
1
0
SOLID
5
166
100
AcDbEntity
8
SK2
62
256
6
ByLayer
370
18
48
1
60
0
100
AcDbTrace
10
92
20
-35.952229
30
0
11
88.500002
21
-36.413013
31
0
12
88.499998
22
-35.491446
32
0
13
88.499998
23
-35.491446
33
0
39
0
210
0
220
0
230
1
0
SOLID
5
167
100
AcDbEntity
8
SK2
62
256
6
ByLayer
370
18
48
1
60
0
100
AcDbTrace
10
3
20
-35.952229
30
0
11
6.499998
21
-35.491446
31
0
12
6.500002
22
-36.413013
32
0
13
6.500002
23
-36.413013
33
0
39
0
210
0
220
0
230
1
0
ENDBLK
5
169
100
AcDbEntity
8
0
100
AcDbBlockEnd
0
BLOCK
5
16E
100
AcDbEntity
8
0
100
AcDbBlockBegin
2
*D5
70
1
10
0
20
0
30
0
3
*D5
0
LINE
5
170
100
AcDbEntity
8
0
62
256
6
ByLayer
370
-2
48
1
60
0
100
AcDbLine
10
-48
20
-9.5875
30
0
11
-48
21
-37.952229
31
0
39
0
210
0
220
0
230
1
0
LINE
5
171
100
AcDbEntity
8
0
62
256
6
ByLayer
370
-2
48
1
60
0
100
AcDbLine
10
0
20
-9.5875
30
0
11
0
21
-37.952229
31
0
39
0
210
0
220
0
230
1
0
LINE
5
172
100
AcDbEntity
8
0
62
256
6
ByLayer
370
-2
48
1
60
0
100
AcDbLine
10
-44.5
20
-35.952229
30
0
11
-3.5
21
-35.952229
31
0
39
0
210
0
220
0
230
1
0
SOLID
5
173
100
AcDbEntity
8
0
62
256
6
ByLayer
370
-1
48
1
60
0
100
AcDbTrace
10
-44.5
20
-35.368896
30
0
11
-44.5
21
-36.535563
31
0
12
-48
22
-35.952229
32
0
13
-48
23
-35.952229
33
0
39
0
210
0
220
0
230
1
0
SOLID
5
174
100
AcDbEntity
8
0
62
256
6
ByLayer
370
-1
48
1
60
0
100
AcDbTrace
10
-3.5
20
-36.535563
30
0
11
-3.5
21
-35.368896
31
0
12
0
22
-35.952229
32
0
13
0
23
-35.952229
33
0
39
0
210
0
220
0
230
1
0
MTEXT
5
175
100
AcDbEntity
8
0
62
256
6
ByLayer
370
18
48
1
60
0
100
AcDbMText
10
-24
20
-29.952229
30
0
210
0
220
0
230
1
1
\A1;48
40
3
41
0
44
1
50
0
71
5
72
5
7
iso_b_vert
0
POINT
5
176
100
AcDbEntity
8
Defpoints
62
0
6
ByLayer
370
-1
48
1
60
0
100
AcDbPoint
10
-48
20
-8
30
0
39
0
210
0
220
0
230
1
50
360
0
POINT
5
177
100
AcDbEntity
8
Defpoints
62
0
6
ByLayer
370
-1
48
1
60
0
100
AcDbPoint
10
0
20
-8
30
0
39
0
210
0
220
0
230
1
50
360
0
POINT
5
178
100
AcDbEntity
8
Defpoints
62
0
6
ByLayer
370
-1
48
1
60
0
100
AcDbPoint
10
0
20
-35.952229
30
0
39
0
210
0
220
0
230
1
50
360
0
ENDBLK
5
16F
100
AcDbEntity
8
0
100
AcDbBlockEnd
0
BLOCK
5
180
100
AcDbEntity
8
0
100
AcDbBlockBegin
2
_U2
70
0
10
0
20
0
30
0
3
_U2
0
MTEXT
5
17A
100
AcDbEntity
8
SK2
62
256
6
ByLayer
370
18
48
1
60
0
100
AcDbMText
10
-28.640313
20
-35.067115
30
0
210
0
220
0
230
1
1
\W0.7694;48.00
40
3
41
0
44
1.084337
50
0
71
7
72
5
7
iso_b_vert
0
LINE
5
17B
100
AcDbEntity
8
SK2
62
256
6
ByLayer
370
13
48
1
60
0
100
AcDbLine
10
-48
20
-9.5875
30
0
11
-48
21
-37.952229
31
0
39
0
210
0
220
0
230
1
0
LINE
5
17C
100
AcDbEntity
8
SK2
62
256
6
ByLayer
370
13
48
1
60
0
100
AcDbLine
10
0
20
-9.5875
30
0
11
0
21
-37.952229
31
0
39
0
210
0
220
0
230
1
0
LINE
5
17D
100
AcDbEntity
8
SK2
62
256
6
ByLayer
370
13
48
1
60
0
100
AcDbLine
10
-48
20
-35.952229
30
0
11
0
21
-35.952229
31
0
39
0
210
0
220
0
230
1
0
SOLID
5
17E
100
AcDbEntity
8
SK2
62
256
6
ByLayer
370
18
48
1
60
0
100
AcDbTrace
10
-48
20
-35.952229
30
0
11
-44.500002
21
-35.491446
31
0
12
-44.499998
22
-36.413013
32
0
13
-44.499998
23
-36.413013
33
0
39
0
210
0
220
0
230
1
0
SOLID
5
17F
100
AcDbEntity
8
SK2
62
256
6
ByLayer
370
18
48
1
60
0
100
AcDbTrace
10
0
20
-35.952229
30
0
11
-3.499998
21
-36.413013
31
0
12
-3.500002
22
-35.491446
32
0
13
-3.500002
23
-35.491446
33
0
39
0
210
0
220
0
230
1
0
ENDBLK
5
181
100
AcDbEntity
8
0
100
AcDbBlockEnd
0
BLOCK
5
186
100
AcDbEntity
8
0
100
AcDbBlockBegin
2
*D7
70
1
10
0
20
0
30
0
3
*D7
0
LINE
5
188
100
AcDbEntity
8
0
62
256
6
ByLayer
370
-2
48
1
60
0
100
AcDbLine
10
92
20
1.5875
30
0
11
92
21
34.952229
31
0
39
0
210
0
220
0
230
1
0
LINE
5
189
100
AcDbEntity
8
0
62
256
6
ByLayer
370
-2
48
1
60
0
100
AcDbLine
10
18
20
8.0875
30
0
11
18
21
34.952229
31
0
39
0
210
0
220
0
230
1
0
LINE
5
18A
100
AcDbEntity
8
0
62
256
6
ByLayer
370
-2
48
1
60
0
100
AcDbLine
10
88.5
20
32.952229
30
0
11
21.5
21
32.952229
31
0
39
0
210
0
220
0
230
1
0
SOLID
5
18B
100
AcDbEntity
8
0
62
256
6
ByLayer
370
-1
48
1
60
0
100
AcDbTrace
10
88.5
20
32.368896
30
0
11
88.5
21
33.535563
31
0
12
92
22
32.952229
32
0
13
92
23
32.952229
33
0
39
0
210
0
220
0
230
1
0
SOLID
5
18C
100
AcDbEntity
8
0
62
256
6
ByLayer
370
-1
48
1
60
0
100
AcDbTrace
10
21.5
20
33.535563
30
0
11
21.5
21
32.368896
31
0
12
18
22
32.952229
32
0
13
18
23
32.952229
33
0
39
0
210
0
220
0
230
1
0
MTEXT
5
18D
100
AcDbEntity
8
0
62
256
6
ByLayer
370
18
48
1
60
0
100
AcDbMText
10
55
20
38.952229
30
0
210
0
220
0
230
1
1
\A1;74
40
3
41
0
44
1
50
0
71
5
72
5
7
iso_b_vert
0
POINT
5
18E
100
AcDbEntity
8
Defpoints
62
0
6
ByLayer
370
-1
48
1
60
0
100
AcDbPoint
10
92
20
0
30
0
39
0
210
0
220
0
230
1
50
360
0
POINT
5
18F
100
AcDbEntity
8
Defpoints
62
0
6
ByLayer
370
-1
48
1
60
0
100
AcDbPoint
10
18
20
6.5
30
0
39
0
210
0
220
0
230
1
50
360
0
POINT
5
190
100
AcDbEntity
8
Defpoints
62
0
6
ByLayer
370
-1
48
1
60
0
100
AcDbPoint
10
18
20
32.952229
30
0
39
0
210
0
220
0
230
1
50
360
0
ENDBLK
5
187
100
AcDbEntity
8
0
100
AcDbBlockEnd
0
BLOCK
5
198
100
AcDbEntity
8
0
100
AcDbBlockBegin
2
_U3
70
0
10
0
20
0
30
0
3
_U3
0
MTEXT
5
192
100
AcDbEntity
8
SK2
62
256
6
ByLayer
370
18
48
1
60
0
100
AcDbMText
10
50.359687
20
33.837344
30
0
210
0
220
0
230
1
1
\W0.7694;74.00
40
3
41
0
44
1.084337
50
0
71
7
72
5
7
iso_b_vert
0
LINE
5
193
100
AcDbEntity
8
SK2
62
256
6
ByLayer
370
13
48
1
60
0
100
AcDbLine
10
92
20
1.5875
30
0
11
92
21
34.952229
31
0
39
0
210
0
220
0
230
1
0
LINE
5
194
100
AcDbEntity
8
SK2
62
256
6
ByLayer
370
13
48
1
60
0
100
AcDbLine
10
18
20
8.0875
30
0
11
18
21
34.952229
31
0
39
0
210
0
220
0
230
1
0
LINE
5
195
100
AcDbEntity
8
SK2
62
256
6
ByLayer
370
13
48
1
60
0
100
AcDbLine
10
92
20
32.952229
30
0
11
18
21
32.952229
31
0
39
0
210
0
220
0
230
1
0
SOLID
5
196
100
AcDbEntity
8
SK2
62
256
6
ByLayer
370
18
48
1
60
0
100
AcDbTrace
10
92
20
32.952229
30
0
11
88.500002
21
32.491446
31
0
12
88.499998
22
33.413013
32
0
13
88.499998
23
33.413013
33
0
39
0
210
0
220
0
230
1
0
SOLID
5
197
100
AcDbEntity
8
SK2
62
256
6
ByLayer
370
18
48
1
60
0
100
AcDbTrace
10
18
20
32.952229
30
0
11
21.499998
21
33.413013
31
0
12
21.500002
22
32.491446
32
0
13
21.500002
23
32.491446
33
0
39
0
210
0
220
0
230
1
0
ENDBLK
5
199
100
AcDbEntity
8
0
100
AcDbBlockEnd
0
ENDSEC
0
SECTION
2
ENTITIES
0
ARC
5
C0
100
AcDbEntity
8
SK2
62
256
6
ByLayer
370
13
48
1
60
0
100
AcDbCircle
39
0
10
92
20
0
30
0
40
18.9999999999999
210
0
220
0
230
1
100
AcDbArc
50
290
51
70
0
ELLIPSE
5
C1
100
AcDbEntity
8
SK1
62
256
6
ByLayer
370
18
48
1
60
0
100
AcDbEllipse
10
153.54477
20
0
30
0
11
229.090026261202
21
-2.59581837845095E-13
31
0
210
0
220
0
230
1
40
0.034921
41
2.39723378988983
42
2.57876881051445
0
ELLIPSE
5
C2
100
AcDbEntity
8
SK1
62
256
6
ByLayer
370
18
48
1
60
0
100
AcDbEllipse
10
-20.57895
20
0
30
0
11
8.57894968019762
21
-9.72080522714331E-15
31
0
210
0
220
0
230
1
40
0.932515
41
-0.661405283579246
42
0.661405283579253
0
ELLIPSE
5
C3
100
AcDbEntity
8
SK1
62
256
6
ByLayer
370
18
48
1
60
0
100
AcDbEllipse
10
153.54477
20
0
30
0
11
229.090026264126
21
-2.59581837848408E-13
31
0
210
0
220
0
230
1
40
0.034921
41
-2.57876881051488
42
-2.39723378989224
0
ELLIPSE
5
C4
100
AcDbEntity
8
SK1
62
256
6
ByLayer
370
18
48
1
60
0
100
AcDbEllipse
10
-34.539879
20
0
30
0
11
-1.46952762458688E-15
21
-8.00000000000015
31
0
210
0
220
0
230
1
40
0.932515
41
-2.00016141679846
42
-1.14143123679134
0
POINT
5
70
100
AcDbEntity
8
81
62
256
6
ByLayer
370
18
48
1
60
0
100
AcDbPoint
10
92
20
0
30
0
39
0
210
0
220
0
230
1
50
360
0
POINT
5
72
100
AcDbEntity
8
80
62
256
6
ByLayer
370
18
48
1
60
0
100
AcDbPoint
10
0
20
0
30
0
39
0
210
0
220
0
230
1
50
360
0
POINT
5
74
100
AcDbEntity
8
1
62
256
6
ByLayer
370
18
48
1
60
1
100
AcDbPoint
10
-48
20
-8
30
0
39
0
210
0
220
0
230
1
50
360
0
POINT
5
76
100
AcDbEntity
8
1
62
256
6
ByLayer
370
18
48
1
60
1
100
AcDbPoint
10
92
20
0
30
0
39
0
210
0
220
0
230
1
50
360
0
POINT
5
77
100
AcDbEntity
8
1
62
256
6
ByLayer
370
18
48
1
60
1
100
AcDbPoint
10
92
20
0
30
0
39
0
210
0
220
0
230
1
50
360
0
POINT
5
78
100
AcDbEntity
8
1
62
256
6
ByLayer
370
18
48
1
60
1
100
AcDbPoint
10
3
20
-6.5
30
0
39
0
210
0
220
0
230
1
50
360
0
POINT
5
79
100
AcDbEntity
8
1
62
256
6
ByLayer
370
18
48
1
60
1
100
AcDbPoint
10
-48
20
-8
30
0
39
0
210
0
220
0
230
1
50
360
0
POINT
5
7A
100
AcDbEntity
8
1
62
256
6
ByLayer
370
18
48
1
60
1
100
AcDbPoint
10
0
20
-8
30
0
39
0
210
0
220
0
230
1
50
360
0
POINT
5
7B
100
AcDbEntity
8
1
62
256
6
ByLayer
370
18
48
1
60
1
100
AcDbPoint
10
92
20
0
30
0
39
0
210
0
220
0
230
1
50
360
0
POINT
5
7C
100
AcDbEntity
8
1
62
256
6
ByLayer
370
18
48
1
60
1
100
AcDbPoint
10
18
20
6.5
30
0
39
0
210
0
220
0
230
1
50
360
0
SPLINE
5
C5
100
AcDbEntity
8
1
62
256
6
ByLayer
370
18
48
1
60
0
100
AcDbSpline
70
4
71
3
72
14
73
10
40
0
40
0
40
0
40
0
40
0.25
40
0.25
40
0.5
40
0.5
40
0.75
40
0.75
40
1
40
1
40
1
40
1
41
1
10
12.4476339589679
20
5.49124232151226
30
0
41
1
10
12.241391381227
20
5.5305151117422
30
0
41
1
10
12.0359683759378
20
5.56960451370006
30
0
41
1
10
11.6263169860465
20
5.64653235032634
30
0
41
1
10
11.422087354343
20
5.68437064019921
30
0
41
1
10
11.0144900552331
20
5.75815877346028
30
0
41
1
10
10.8111215897667
20
5.79410972530204
30
0
41
1
10
10.405060330882
20
5.86372065547064
30
0
41
1
10
10.2023673057405
20
5.89738279436148
30
0
41
1
10
9.99999999999997
20
5.92979062048303
30
0
0
SPLINE
5
C6
100
AcDbEntity
8
1
62
256
6
ByLayer
370
18
48
1
60
0
100
AcDbSpline
70
4
71
3
72
22
73
18
40
0
40
0
40
0
40
0
40
0.249999999999995
40
0.249999999999995
40
0.374999999999997
40
0.374999999999997
40
0.437500000000004
40
0.437500000000004
40
0.50000000000001
40
0.50000000000001
40
0.750000000000015
40
0.750000000000015
40
0.875000000000013
40
0.875000000000013
40
0.937500000000006
40
0.937500000000006
40
1
40
1
40
1
40
1
41
1
10
89.6341934772398
20
-0.926641684193299
30
0
41
1
10
89.0219223252309
20
-0.706436479475059
30
0
41
1
10
88.4101375280579
20
-0.485598305486576
30
0
41
1
10
87.4934536120679
20
-0.15265118737392
30
0
41
1
10
87.1880641461829
20
-0.0413702577713195
30
0
41
1
10
86.7302579105936
20
0.126051064260253
30
0
41
1
10
86.5776935456794
20
0.181917471277472
30
0
41
1
10
86.2724838693686
20
0.293336139444961
30
0
41
1
10
86.1198516616465
20
0.348924780699946
30
0
41
1
10
85.3565685384528
20
0.62630729421241
30
0
41
1
10
84.7455571064538
20
0.846437519664732
30
0
41
1
10
83.828692119684
20
1.17460920921323
30
0
41
1
10
83.5230161197968
20
1.28367197775705
30
0
41
1
10
83.0644564059075
20
1.44686889317995
30
0
41
1
10
82.9115957321504
20
1.50120211853658
30
0
41
1
10
82.6058590647024
20
1.60973487226451
30
0
41
1
10
82.4529758279721
20
1.66391449803678
30
0
41
1
10
82.3000000000005
20
1.71779542758875
30
0
0
SPLINE
5
C7
100
AcDbEntity
8
1
62
256
6
ByLayer
370
18
48
1
60
0
100
AcDbSpline
70
4
71
3
72
81
73
77
40
0
40
0
40
0
40
0
40
0.0312499999999959
40
0.0624999999999917
40
0.0624999999999917
40
0.124999999999986
40
0.124999999999986
40
0.140624999999985
40
0.140624999999985
40
0.156249999999984
40
0.156249999999984
40
0.187499999999985
40
0.187499999999985
40
0.249999999999984
40
0.249999999999984
40
0.281249999999984
40
0.281249999999984
40
0.296874999999982
40
0.296874999999982
40
0.312499999999981
40
0.312499999999981
40
0.343749999999978
40
0.343749999999978
40
0.374999999999976
40
0.374999999999976
40
0.406249999999973
40
0.406249999999973
40
0.43749999999997
40
0.43749999999997
40
0.453124999999969
40
0.453124999999969
40
0.468749999999968
40
0.468749999999968
40
0.499999999999965
40
0.499999999999965
40
0.531249999999963
40
0.531249999999963
40
0.539062499999962
40
0.539062499999962
40
0.546874999999961
40
0.562499999999959
40
0.562499999999959
40
0.593749999999956
40
0.593749999999956
40
0.624999999999952
40
0.624999999999952
40
0.632812499999951
40
0.632812499999951
40
0.640624999999951
40
0.656249999999952
40
0.656249999999952
40
0.687499999999954
40
0.687499999999954
40
0.718749999999956
40
0.718749999999956
40
0.726562499999957
40
0.726562499999957
40
0.734374999999959
40
0.734374999999959
40
0.749999999999961
40
0.749999999999961
40
0.781249999999966
40
0.781249999999966
40
0.81249999999997
40
0.843749999999975
40
0.843749999999975
40
0.851562499999978
40
0.851562499999978
40
0.859374999999981
40
0.874999999999984
40
0.874999999999984
40
0.937499999999992
40
0.937499999999992
40
0.968749999999996
40
0.968749999999996
40
1
40
1
40
1
40
1
41
1
10
89.634193477243
20
6.29361471573685
30
0
41
1
10
89.6748038247131
20
6.19287674877253
30
0
41
1
10
89.7561512129835
20
5.98838237733733
30
0
41
1
10
89.8378862744487
20
5.7783521837805
30
0
41
1
10
89.9608512462666
20
5.45941561628823
30
0
41
1
10
90.0433221812425
20
5.24162510044923
30
0
41
1
10
90.1471142048496
20
4.96341509199621
30
0
41
1
10
90.1679068872356
20
4.9074726950758
30
0
41
1
10
90.2095589735567
20
4.79499214102646
30
0
41
1
10
90.2304260517399
20
4.73843241873811
30
0
41
1
10
90.2927531374641
20
4.56886938693617
30
0
41
1
10
90.3340636210442
20
4.45565190611646
30
0
41
1
10
90.4572213774227
20
4.11546929599709
30
0
41
1
10
90.5383364387018
20
3.88798998409095
30
0
41
1
10
90.6577289312787
20
3.54548466319531
30
0
41
1
10
90.6971376920102
20
3.43109841692697
30
0
41
1
10
90.7554485782383
20
3.25911563573536
30
0
41
1
10
90.7747507747299
20
3.20172041090035
30
0
41
1
10
90.8130332858902
20
3.08677602515132
30
0
41
1
10
90.8320248585128
20
3.02919108016195
30
0
41
1
10
90.8881501521765
20
2.85699910483996
30
0
41
1
10
90.9245305642951
20
2.74269970469098
30
0
41
1
10
90.9945530068202
20
2.51490391802088
30
0
41
1
10
91.0281996621845
20
2.40140824969279
30
0
41
1
10
91.0917319036075
20
2.17498368905865
30
0
41
1
10
91.1216228594212
20
2.06205527867954
30
0
41
1
10
91.1761031760041
20
1.8364589612174
30
0
41
1
10
91.2006949727628
20
1.72379012771861
30
0
41
1
10
91.2319603203131
20
1.55470072333316
30
0
41
1
10
91.2414432875248
20
1.49825882878739
30
0
41
1
10
91.2580468397595
20
1.3864274708007
30
0
41
1
10
91.2651926102382
20
1.33091020670645
30
0
41
1
10
91.2828128181887
20
1.16559913299415
30
0
41
1
10
91.2894326261583
20
1.05704026007797
30
0
41
1
10
91.2911755820725
20
0.843602059598652
30
0
41
1
10
91.2862882784566
20
0.738724507890566
30
0
41
1
10
91.2730368386699
20
0.610268893454133
30
0
41
1
10
91.2700278976029
20
0.584673545735967
30
0
41
1
10
91.263340767602
20
0.533933950226526
30
0
41
1
10
91.2523272790021
20
0.458631986588131
30
0
41
1
10
91.2385354745927
20
0.385722740941702
30
0
41
1
10
91.2077090596921
20
0.243018036516162
30
0
41
1
10
91.1828521048403
20
0.152027502748837
30
0
41
1
10
91.1267617688127
20
-0.0219809362739625
30
0
41
1
10
91.0955331193724
20
-0.105001185736597
30
0
41
1
10
91.0535468560403
20
-0.203866422510373
30
0
41
1
10
91.0449911932143
20
-0.22341391902512
30
0
41
1
10
91.0276487676022
20
-0.261911869334057
30
0
41
1
10
91.0013103389358
20
-0.318717477011518
30
0
41
1
10
90.9740981149954
20
-0.372754135827904
30
0
41
1
10
90.9187194112892
20
-0.477245340431125
30
0
41
1
10
90.8805405124975
20
-0.542139929153961
30
0
41
1
10
90.8024020504255
20
-0.662710108620502
30
0
41
1
10
90.7624372308831
20
-0.718383996935273
30
0
41
1
10
90.7116079727527
20
-0.78222059455419
30
0
41
1
10
90.7013978139069
20
-0.79469945107968
30
0
41
1
10
90.6808926618082
20
-0.819077778686847
30
0
41
1
10
90.6705954208257
20
-0.83097887395067
30
0
41
1
10
90.6397183891073
20
-0.865658819852911
30
0
41
1
10
90.6191084408698
20
-0.887469829448833
30
0
41
1
10
90.5572350129447
20
-0.949063175237455
30
0
41
1
10
90.5159310208132
20
-0.985013728536472
30
0
41
1
10
90.4332878474229
20
-1.04694506698834
30
0
41
1
10
90.3506075053808
20
-1.09890459496304
30
0
41
1
10
90.2678291788342
20
-1.13094168407727
30
0
41
1
10
90.2160191980474
20
-1.14460272551932
30
0
41
1
10
90.2056528514527
20
-1.14701540294843
30
0
41
1
10
90.1850068890323
20
-1.15118221908443
30
0
41
1
10
90.1541318777312
20
-1.15645472118621
30
0
41
1
10
90.123528601614
20
-1.15882633014004
30
0
41
1
10
90.0220770310346
20
-1.16039334964017
30
0
41
1
10
89.9427043545049
20
-1.14149161552936
30
0
41
1
10
89.8254906684945
20
-1.0833725504549
30
0
41
1
10
89.786727339222
20
-1.05901354861376
30
0
41
1
10
89.7096768517325
20
-1.00010025814336
30
0
41
1
10
89.6716888727801
20
-0.965771151091644
30
0
41
1
10
89.6341934772431
20
-0.926641684194436
30
0
0
SPLINE
5
C8
100
AcDbEntity
8
1
62
256
6
ByLayer
370
18
48
1
60
0
100
AcDbSpline
70
4
71
3
72
18
73
14
40
0
40
0
40
0
40
0
40
0.0856910117191079
40
0.0856910117191079
40
0.187280899305883
40
0.187280899305883
40
0.593640449652933
40
0.593640449652933
40
0.796820224826459
40
0.796820224826459
40
0.89841011241323
40
0.89841011241323
40
1
40
1
40
1
40
1
41
1
10
85.1232401437704
20
6.49918792897017
30
0
41
1
10
85.2519539376068
20
6.49921634950795
30
0
41
1
10
85.3806270478267
20
6.49873286904753
30
0
41
1
10
85.6618241152119
20
6.49655066015424
30
0
41
1
10
85.8143820243407
20
6.49464585740301
30
0
41
1
10
86.5774455398187
20
6.48157689556103
30
0
41
1
10
87.1885237280018
20
6.45982223033624
30
0
41
1
10
88.1054884332809
20
6.41035883696077
30
0
41
1
10
88.4112044120974
20
6.39105431580555
30
0
41
1
10
88.8698072485548
20
6.3577827656153
30
0
41
1
10
89.0226800647981
20
6.3459725542545
30
0
41
1
10
89.3284292677528
20
6.32089131734159
30
0
41
1
10
89.4812924642135
20
6.30761065002986
30
0
41
1
10
89.6341934772398
20
6.29361471573716
30
0
0
SPLINE
5
C9
100
AcDbEntity
8
1
62
256
6
ByLayer
370
18
48
1
60
0
100
AcDbSpline
70
4
71
3
72
40
73
36
40
0
40
0
40
0
40
0
40
0.151343174689404
40
0.151343174689404
40
0.227014762034105
40
0.227014762034105
40
0.264850555706457
40
0.264850555706457
40
0.302686349378808
40
0.302686349378808
40
0.34052214305116
40
0.34052214305116
40
0.378357936723512
40
0.378357936723512
40
0.454029524068215
40
0.454029524068215
40
0.529701111412919
40
0.529701111412919
40
0.567536905085272
40
0.567536905085272
40
0.605372698757625
40
0.605372698757625
40
0.681044286102331
40
0.681044286102331
40
0.756715873447037
40
0.756715873447037
40
0.832387460791743
40
0.832387460791743
40
0.870223254464096
40
0.870223254464096
40
0.90805904813645
40
0.90805904813645
40
0.983730635481158
40
0.983730635481158
40
1
40
1
40
1
40
1
41
1
10
15.2928167151676
20
-4.57457301391284
30
0
41
1
10
15.9914047896258
20
-4.75118577291943
30
0
41
1
10
16.6899832897329
20
-4.91479706270931
30
0
41
1
10
17.7370114609987
20
-5.14304788784457
30
0
41
1
10
18.0858831164682
20
-5.21624739603618
30
0
41
1
10
18.6088880332781
20
-5.32183982075591
30
0
41
1
10
18.7831728258182
20
-5.35633466138421
30
0
41
1
10
19.1316297828315
20
-5.42392092818307
30
0
41
1
10
19.3057821676307
20
-5.45704053955376
30
0
41
1
10
19.654079079944
20
-5.52170302582599
30
0
41
1
10
19.8282794842103
20
-5.55316628359987
30
0
41
1
10
20.1768223614911
20
-5.61432629256385
30
0
41
1
10
20.3511539714811
20
-5.64403880065501
30
0
41
1
10
20.8742835689323
20
-5.7306584425607
30
0
41
1
10
21.2232187606188
20
-5.78504777676494
30
0
41
1
10
21.9213378598343
20
-5.88728315378873
30
0
41
1
10
22.2705197444988
20
-5.93513203171594
30
0
41
1
10
22.794380841224
20
-6.00203796817982
30
0
41
1
10
22.9690164424943
20
-6.02352701644543
30
0
41
1
10
23.3183080183307
20
-6.06486672765388
30
0
41
1
10
23.4929840445098
20
-6.08474248713162
30
0
41
1
10
24.0168649765005
20
-6.14162310522266
30
0
41
1
10
24.366132103847
20
-6.17573828676001
30
0
41
1
10
25.0645060179426
20
-6.23672289376685
30
0
41
1
10
25.413610896454
20
-6.26359105267628
30
0
41
1
10
26.1115442261289
20
-6.31020673082742
30
0
41
1
10
26.4603697502497
20
-6.32995617868969
30
0
41
1
10
26.9832979655033
20
-6.35422735168882
30
0
41
1
10
27.1575562096349
20
-6.36142407634688
30
0
41
1
10
27.505958734624
20
-6.37401185510458
30
0
41
1
10
27.680076039911
20
-6.37940664829938
30
0
41
1
10
28.2025816274179
20
-6.39278360455396
30
0
41
1
10
28.5512123944541
20
-6.3979645296109
30
0
41
1
10
28.9750077542921
20
-6.39984106479073
30
0
41
1
10
29.0500085595742
20
-6.40000485686429
30
0
41
1
10
29.1250171013452
20
-6.40000043901946
30
0
0
SPLINE
5
CA
100
AcDbEntity
8
1
62
256
6
ByLayer
370
18
48
1
60
0
100
AcDbSpline
70
4
71
3
72
28
73
24
40
0
40
0
40
0
40
0
40
0.0760701752962655
40
0.0760701752962655
40
0.127399610002028
40
0.127399610002028
40
0.178729044707789
40
0.178729044707789
40
0.384046783530837
40
0.384046783530837
40
0.486705652942361
40
0.486705652942361
40
0.538035087648122
40
0.538035087648122
40
0.589364522353884
40
0.589364522353884
40
0.794682261176938
40
0.794682261176938
40
0.897341130588466
40
0.897341130588466
40
0.948670565294233
40
0.948670565294233
40
1
40
1
40
1
40
1
41
1
10
72.0898901358781
20
4.74384534533016
30
0
41
1
10
72.3486542971139
20
4.80606365416051
30
0
41
1
10
72.6074611209923
20
4.86696419424004
30
0
41
1
10
73.0409442173857
20
4.96676444503728
30
0
41
1
10
73.2155919902573
20
5.00637947087512
30
0
41
1
10
73.5649289084184
20
5.08380285947337
30
0
41
1
10
73.7396296036907
20
5.12166575715551
30
0
41
1
10
74.6132143167665
20
5.30693021527571
30
0
41
1
10
75.312310097479
20
5.44231654271366
30
0
41
1
10
76.3605249633587
20
5.62742967025821
30
0
41
1
10
76.709852959859
20
5.68612936269568
30
0
41
1
10
77.2336694981848
20
5.7696332018181
30
0
41
1
10
77.40826792445
20
5.79667848375811
30
0
41
1
10
77.757720189406
20
5.84887536711386
30
0
41
1
10
77.932499090103
20
5.87405888293441
30
0
41
1
10
78.8063510710543
20
5.99551976117678
30
0
41
1
10
79.5055048514554
20
6.07857418708869
30
0
41
1
10
80.5535809913756
20
6.18277836257346
30
0
41
1
10
80.902815046258
20
6.21410721530293
30
0
41
1
10
81.426467390443
20
6.25586910049347
30
0
41
1
10
81.6010319995405
20
6.26888531239274
30
0
41
1
10
81.9503931344916
20
6.29300781397973
30
0
41
1
10
82.1251610576464
20
6.30413268792773
30
0
41
1
10
82.3000000000001
20
6.31433920366118
30
0
0
SPLINE
5
CB
100
AcDbEntity
8
1
62
256
6
ByLayer
370
18
48
1
60
0
100
AcDbSpline
70
4
71
3
72
48
73
44
40
0
40
0
40
0
40
0
40
0.0933488911423955
40
0.0933488911423955
40
0.140023336713593
40
0.140023336713593
40
0.163360559499192
40
0.163360559499192
40
0.186697782284791
40
0.186697782284791
40
0.280046673427177
40
0.280046673427177
40
0.326721118998369
40
0.326721118998369
40
0.350058341783965
40
0.350058341783965
40
0.373395564569562
40
0.373395564569562
40
0.466744455711945
40
0.466744455711945
40
0.513418901283137
40
0.513418901283137
40
0.536756124068734
40
0.536756124068734
40
0.560093346854331
40
0.560093346854331
40
0.653442237996718
40
0.653442237996718
40
0.676779460782314
40
0.676779460782314
40
0.70011668356791
40
0.70011668356791
40
0.746791129139101
40
0.746791129139101
40
0.840140020281482
40
0.840140020281482
40
0.863477243067077
40
0.863477243067077
40
0.886814465852672
40
0.886814465852672
40
0.933488911423862
40
0.933488911423862
40
1
40
1
40
1
40
1
41
1
10
82.3000000000001
20
1.65544894094055
30
0
41
1
10
81.5712770698785
20
1.90867264485863
30
0
41
1
10
80.8430136532883
20
2.15542490738997
30
0
41
1
10
79.751650103091
20
2.51705454992055
30
0
41
1
10
79.3880380594251
20
2.63618380424197
30
0
41
1
10
78.8429437106462
20
2.81287966217084
30
0
41
1
10
78.6613098506376
20
2.87147040477112
30
0
41
1
10
78.2980983210437
20
2.98784503063516
30
0
41
1
10
78.1164761803892
20
3.04551755230227
30
0
41
1
10
77.2080859462308
20
3.33083755711675
30
0
41
1
10
76.4806893320962
20
3.54992264716733
30
0
41
1
10
75.3889437876195
20
3.86578477997603
30
0
41
1
10
75.0249266956754
20
3.96895190523205
30
0
41
1
10
74.4787913438912
20
4.12056359041409
30
0
41
1
10
74.2967460126413
20
4.17061539184598
30
0
41
1
10
73.9324106454102
20
4.26920830786597
30
0
41
1
10
73.750263604141
20
4.31772355124266
30
0
41
1
10
72.8396966045362
20
4.55647296813419
30
0
41
1
10
72.1117292421751
20
4.73530310991529
30
0
41
1
10
71.0208816396211
20
4.98623862085597
30
0
41
1
10
70.6574714758036
20
5.0670226547964
30
0
41
1
10
70.1126443654038
20
5.1837872853304
30
0
41
1
10
69.9310407724868
20
5.22190025683977
30
0
41
1
10
69.5677052569568
20
5.29629324362392
30
0
41
1
10
69.3859923339514
20
5.3326054861071
30
0
41
1
10
68.4772275755232
20
5.50981930884276
30
0
41
1
10
67.7495619063902
20
5.63772715116738
30
0
41
1
10
66.839504328543
20
5.7806729921183
30
0
41
1
10
66.6574697619365
20
5.80841170471638
30
0
41
1
10
66.2933600895981
20
5.86217633751329
30
0
41
1
10
66.1113062379602
20
5.88822476824365
30
0
41
1
10
65.5648434070897
20
5.96350357630601
30
0
41
1
10
65.2006108408255
20
6.00972097662853
30
0
41
1
10
64.1083467043541
20
6.13681139935392
30
0
41
1
10
63.3806761138779
20
6.2061766140381
30
0
41
1
10
62.4720868100783
20
6.27389996418728
30
0
41
1
10
62.2904205863486
20
6.28649092617266
30
0
41
1
10
61.9271885833413
20
6.30974359074321
30
0
41
1
10
61.7456007760276
20
6.32039154742347
30
0
41
1
10
61.2006297732041
20
6.34928248427101
30
0
41
1
10
60.8371294978823
20
6.36452589217816
30
0
41
1
10
59.9552758484765
20
6.39190764916765
30
0
41
1
10
59.4367581054434
20
6.40000650161036
30
0
41
1
10
58.9180289909587
20
6.40001186867173
30
0
0
SPLINE
5
CC
100
AcDbEntity
8
1
62
256
6
ByLayer
370
18
48
1
60
0
100
AcDbSpline
70
4
71
3
72
12
73
8
40
0
40
0
40
0
40
0
40
0.0686122592505505
40
0.0686122592505505
40
0.379074839500366
40
0.379074839500366
40
1
40
1
40
1
40
1
41
1
10
15.9623435163838
20
-4.74297322037535
30
0
41
1
10
15.8821018855497
20
-4.76231241232193
30
0
41
1
10
15.8018486922849
20
-4.78149489490343
30
0
41
1
10
15.3583972958115
20
-4.88661716815486
30
0
41
1
10
14.9949829860329
20
-4.96953560141927
30
0
41
1
10
13.9041513348427
20
-5.20898331775965
30
0
41
1
10
13.1761307333624
20
-5.35623583365594
30
0
41
1
10
12.447633958968
20
-5.49124232151223
30
0
0
SPLINE
5
CD
100
AcDbEntity
8
1
62
256
6
ByLayer
370
18
48
1
60
0
100
AcDbSpline
70
4
71
3
72
12
73
8
40
0
40
0
40
0
40
0
40
0.64971986252338
40
0.64971986252338
40
0.974579793785069
40
0.974579793785069
40
1
40
1
40
1
40
1
41
1
10
82.3000000000001
20
-6.41780764389998
30
0
41
1
10
82.9122254340272
20
-6.45292705252945
30
0
41
1
10
83.5241084184292
20
-6.47659187146849
30
0
41
1
10
84.440928695342
20
-6.49521678437219
30
0
41
1
10
84.746363871555
20
-6.4986017361183
30
0
41
1
10
85.0754761667796
20
-6.4991597608317
30
0
41
1
10
85.0993586062626
20
-6.49918265558276
30
0
41
1
10
85.1232396452679
20
-6.4991879288601
30
0
0
SPLINE
5
CE
100
AcDbEntity
8
1
62
256
6
ByLayer
370
18
48
1
60
0
100
AcDbSpline
70
4
71
3
72
154
73
150
40
0
40
0
40
0
40
0
40
0.0214955395863545
40
0.0214955395863545
40
0.0372778695930268
40
0.0372778695930268
40
0.0451690345963632
40
0.0451690345963632
40
0.0530601995996996
40
0.0530601995996996
40
0.060951364603036
40
0.060951364603036
40
0.0688425296063725
40
0.0688425296063725
40
0.0846248596130453
40
0.0846248596130453
40
0.100407189619718
40
0.100407189619718
40
0.108298354623054
40
0.108298354623054
40
0.11618951962639
40
0.11618951962639
40
0.131971849633063
40
0.131971849633063
40
0.147754179639735
40
0.147754179639735
40
0.163536509646407
40
0.163536509646407
40
0.171427674649743
40
0.171427674649743
40
0.179318839653079
40
0.179318839653079
40
0.195101169659752
40
0.195101169659752
40
0.210883499666424
40
0.210883499666424
40
0.226665829673096
40
0.226665829673096
40
0.234556994676433
40
0.234556994676433
40
0.242448159679769
40
0.242448159679769
40
0.258230489686442
40
0.258230489686442
40
0.274012819693115
40
0.274012819693115
40
0.289795149699788
40
0.289795149699788
40
0.297686314703124
40
0.297686314703124
40
0.30557747970646
40
0.30557747970646
40
0.321359809713132
40
0.321359809713132
40
0.337142139719804
40
0.337142139719804
40
0.352924469726477
40
0.352924469726477
40
0.360815634729812
40
0.360815634729812
40
0.368706799733148
40
0.368706799733148
40
0.38448912973982
40
0.38448912973982
40
0.400271459746492
40
0.400271459746492
40
0.416053789753163
40
0.416053789753163
40
0.4239449547565
40
0.4239449547565
40
0.431836119759836
40
0.431836119759836
40
0.447618449766509
40
0.447618449766509
40
0.463400779773181
40
0.463400779773181
40
0.479183109779854
40
0.479183109779854
40
0.487074274783191
40
0.487074274783191
40
0.494965439786528
40
0.494965439786528
40
0.510747769793202
40
0.510747769793202
40
0.526530099799875
40
0.526530099799875
40
0.542312429806549
40
0.542312429806549
40
0.550203594809886
40
0.550203594809886
40
0.558094759813223
40
0.558094759813223
40
0.573877089819895
40
0.573877089819895
40
0.589659419826568
40
0.589659419826568
40
0.605441749833241
40
0.605441749833241
40
0.613332914836577
40
0.613332914836577
40
0.621224079839913
40
0.621224079839913
40
0.652788739853256
40
0.652788739853256
40
0.668571069859928
40
0.668571069859928
40
0.676462234863263
40
0.676462234863263
40
0.684353399866599
40
0.684353399866599
40
0.715918059879941
40
0.715918059879941
40
0.731700389886612
40
0.731700389886612
40
0.739591554889948
40
0.739591554889948
40
0.747482719893283
40
0.747482719893283
40
0.779047379906624
40
0.779047379906624
40
0.794829709913295
40
0.794829709913295
40
0.80272087491663
40
0.80272087491663
40
0.810612039919965
40
0.810612039919965
40
0.842176699933305
40
0.842176699933305
40
0.857959029939975
40
0.857959029939975
40
0.865850194943309
40
0.865850194943309
40
0.873741359946644
40
0.873741359946644
40
0.905306019959984
40
0.905306019959984
40
0.921088349966654
40
0.921088349966654
40
0.928979514969989
40
0.928979514969989
40
0.936870679973324
40
0.936870679973324
40
0.968435339986662
40
0.968435339986662
40
0.98421766999333
40
0.98421766999333
40
0.992108834996665
40
0.992108834996665
40
1
40
1
40
1
40
1
41
1
10
15.9613443147406
20
4.73967275462215
30
0
41
1
10
16.4370406444008
20
4.85440515348833
30
0
41
1
10
16.9126511455453
20
4.96333837536457
30
0
41
1
10
17.7370114609988
20
5.14304788784457
30
0
41
1
10
18.0858831164682
20
5.21624739603621
30
0
41
1
10
18.6088880332781
20
5.32183982075591
30
0
41
1
10
18.7831728258182
20
5.35633466138421
30
0
41
1
10
19.1316297828315
20
5.42392092818307
30
0
41
1
10
19.3057821676307
20
5.45704053955376
30
0
41
1
10
19.654079079944
20
5.52170302582599
30
0
41
1
10
19.8282794842103
20
5.55316628359987
30
0
41
1
10
20.1768223614911
20
5.61432629256387
30
0
41
1
10
20.3511539714812
20
5.64403880065504
30
0
41
1
10
20.8742835689324
20
5.7306584425607
30
0
41
1
10
21.2232187606188
20
5.78504777676494
30
0
41
1
10
21.9213378598343
20
5.88728315378873
30
0
41
1
10
22.2705197444988
20
5.93513203171594
30
0
41
1
10
22.794380841224
20
6.00203796817985
30
0
41
1
10
22.9690164424943
20
6.02352701644543
30
0
41
1
10
23.3183080183306
20
6.06486672765388
30
0
41
1
10
23.4929840445098
20
6.08474248713162
30
0
41
1
10
24.0168649765005
20
6.14162310522264
30
0
41
1
10
24.3661321038469
20
6.17573828676001
30
0
41
1
10
25.0645060179426
20
6.23672289376685
30
0
41
1
10
25.4136108964539
20
6.26359105267628
30
0
41
1
10
26.1115442261288
20
6.31020673082742
30
0
41
1
10
26.4603697502497
20
6.32995617868969
30
0
41
1
10
26.9832979655034
20
6.35422735168882
30
0
41
1
10
27.1575562096349
20
6.36142407634691
30
0
41
1
10
27.5059587346241
20
6.37401185510458
30
0
41
1
10
27.6800760399111
20
6.37940664829941
30
0
41
1
10
28.202581627418
20
6.39278360455396
30
0
41
1
10
28.5512123944542
20
6.3979645296109
30
0
41
1
10
29.2488181280962
20
6.40105347730801
30
0
41
1
10
29.5978008173626
20
6.3989577172735
30
0
41
1
10
30.2960099709053
20
6.3874976709524
30
0
41
1
10
30.6452328461227
20
6.37813333074175
30
0
41
1
10
31.1691541463232
20
6.35852413618716
30
0
41
1
10
31.3438097179215
20
6.35105948134705
30
0
41
1
10
31.6931415577917
20
6.33424230364236
30
0
41
1
10
31.867785795057
20
6.32487631923149
30
0
41
1
10
32.3916171061078
20
6.29413360423319
30
0
41
1
10
32.7408563354082
20
6.27011906910852
30
0
41
1
10
33.4391486431635
20
6.215115746067
30
0
41
1
10
33.7882108986144
20
6.18412947059053
30
0
41
1
10
34.4860524447863
20
6.1151465647105
30
0
41
1
10
34.834827636856
20
6.07714689752498
30
0
41
1
10
35.3576778506165
20
6.01473731745838
30
0
41
1
10
35.5319097429768
20
5.99303179583953
30
0
41
1
10
35.8802592439873
20
5.94778276821003
30
0
41
1
10
36.0543683434256
20
5.92422638098449
30
0
41
1
10
36.5769770993861
20
5.85127247175691
30
0
41
1
10
36.9256642311447
20
5.7995120776244
30
0
41
1
10
37.6233736757792
20
5.68961804461134
30
0
41
1
10
37.9724061284451
20
5.6314942566386
30
0
41
1
10
38.6707081674639
20
5.50873817920777
30
0
41
1
10
39.0199733578331
20
5.44409990747755
30
0
41
1
10
39.5439573302161
20
5.34202882714411
30
0
41
1
10
39.7186456895234
20
5.3071494799004
30
0
41
1
10
40.0679934018581
20
5.23565651876675
30
0
41
1
10
40.2425595280646
20
5.19908631517171
30
0
41
1
10
40.7663529032161
20
5.08761895928191
30
0
41
1
10
41.1155548917248
20
5.0107775469537
30
0
41
1
10
41.8137671636617
20
4.85179615075569
30
0
41
1
10
42.1627878231837
20
4.76967309877369
30
0
41
1
10
42.8605385708735
20
4.59995703369637
30
0
41
1
10
43.2092640897433
20
4.51235518007448
30
0
41
1
10
43.7320380566732
20
4.37660313433918
30
0
41
1
10
43.9062406011585
20
4.33062029057487
30
0
41
1
10
44.2545471482018
20
4.23719910725259
30
0
41
1
10
44.42868603624
20
4.18983174727904
30
0
41
1
10
44.9513970278585
20
4.04649219686809
30
0
41
1
10
45.3001391817821
20
3.94902942074549
30
0
41
1
10
45.9979540297329
20
3.74993266883692
30
0
41
1
10
46.3470372812554
20
3.64832102857392
30
0
41
1
10
47.0454334928836
20
3.44067921074111
30
0
41
1
10
47.3947419069859
20
3.33463819127016
30
0
41
1
10
47.9187906712339
20
3.1719749331651
30
0
41
1
10
48.0935225863653
20
3.11711800528434
30
0
41
1
10
48.4427500636784
20
3.00636491878782
30
0
41
1
10
48.617309826681
20
2.95058614938884
30
0
41
1
10
49.141064199353
20
2.78265730076089
30
0
41
1
10
49.4902284416066
20
2.66964985334474
30
0
41
1
10
50.1883625617572
20
2.4410949339939
30
0
41
1
10
50.537342588322
20
2.32557332608741
30
0
41
1
10
51.2350037326345
20
2.09171703814377
30
0
41
1
10
51.5836804110646
20
1.97337050023623
30
0
41
1
10
52.106379959433
20
1.79347060567719
30
0
41
1
10
52.2805461674351
20
1.73306774563636
30
0
41
1
10
52.6288428044581
20
1.61164928127832
30
0
41
1
10
52.8030298683994
20
1.55078762723093
30
0
41
1
10
53.3258415826831
20
1.36812241069569
30
0
41
1
10
53.6746383438341
20
1.2460270963808
30
0
41
1
10
54.3725603208619
20
1.00072518613516
30
0
41
1
10
54.7216952417649
20
0.877545229415716
30
0
41
1
10
55.420187009763
20
0.629764947135527
30
0
41
1
10
55.7695397070787
20
0.50515275818492
30
0
41
1
10
56.2936554697914
20
0.316905513404038
30
0
41
1
10
56.4683300518621
20
0.253885302662212
30
0
41
1
10
56.8174729703665
20
0.127857231551673
30
0
41
1
10
56.9920372429211
20
0.0649904665897054
30
0
41
1
10
57.8648944323715
20
-0.248415548979437
30
0
41
1
10
58.5630897346476
20
-0.496778256147763
30
0
41
1
10
59.6094489505495
20
-0.868107228483041
30
0
41
1
10
59.9580777547856
20
-0.991682797504694
30
0
41
1
10
60.480704777838
20
-1.17694856192807
30
0
41
1
10
60.65483601258
20
-1.23875629494745
30
0
41
1
10
61.0031628706588
20
-1.36186629084602
30
0
41
1
10
61.1774002543397
20
-1.42305397578218
30
0
41
1
10
62.0489185647174
20
-1.72727375565125
30
0
41
1
10
62.7470865446686
20
-1.96546174434766
30
0
41
1
10
63.794969787974
20
-2.31715357900259
30
0
41
1
10
64.1444187013372
20
-2.43346935994163
30
0
41
1
10
64.6685214664591
20
-2.60664955491219
30
0
41
1
10
64.8430744348387
20
-2.66419164794857
30
0
41
1
10
65.1921626634472
20
-2.77817264420227
30
0
41
1
10
65.3667146707768
20
-2.8345706404381
30
0
41
1
10
66.2394373138984
20
-3.11384546303185
30
0
41
1
10
66.9374493234907
20
-3.32875487313714
30
0
41
1
10
67.9834497261957
20
-3.6404165067047
30
0
41
1
10
68.3319433930633
20
-3.74251564927062
30
0
41
1
10
68.8543487097101
20
-3.89308587614167
30
0
41
1
10
69.0284070494772
20
-3.94288985102691
30
0
41
1
10
69.3766893100517
20
-4.04101452168581
30
0
41
1
10
69.5509045083887
20
-4.0893573605847
30
0
41
1
10
70.4222686942779
20
-4.32769216494941
30
0
41
1
10
71.1202371002446
20
-4.50770110671326
30
0
41
1
10
72.1677366896934
20
-4.76333067318663
30
0
41
1
10
72.5169918530412
20
-4.84613557207211
30
0
41
1
10
73.0409442173857
20
-4.96676444503728
30
0
41
1
10
73.2155919902573
20
-5.00637947087512
30
0
41
1
10
73.5649289084184
20
-5.08380285947337
30
0
41
1
10
73.7396296036907
20
-5.12166575715554
30
0
41
1
10
74.6132143167665
20
-5.30693021527574
30
0
41
1
10
75.312310097479
20
-5.44231654271368
30
0
41
1
10
76.3605249633587
20
-5.62742967025821
30
0
41
1
10
76.709852959859
20
-5.68612936269571
30
0
41
1
10
77.2336694981847
20
-5.7696332018181
30
0
41
1
10
77.4082679244499
20
-5.79667848375811
30
0
41
1
10
77.757720189406
20
-5.84887536711383
30
0
41
1
10
77.932499090103
20
-5.87405888293441
30
0
41
1
10
78.8063510710542
20
-5.99551976117678
30
0
41
1
10
79.5055048514556
20
-6.07857418708872
30
0
41
1
10
80.5535809913756
20
-6.18277836257346
30
0
41
1
10
80.902815046258
20
-6.21410721530296
30
0
41
1
10
81.426467390443
20
-6.25586910049347
30
0
41
1
10
81.6010319995404
20
-6.26888531239274
30
0
41
1
10
81.9503931344916
20
-6.29300781397973
30
0
41
1
10
82.1251610576466
20
-6.30413268792776
30
0
41
1
10
82.3000000000002
20
-6.31433920366118
30
0
0
SPLINE
5
CF
100
AcDbEntity
8
1
62
256
6
ByLayer
370
18
48
1
60
0
100
AcDbSpline
70
4
71
3
72
125
73
121
40
0
40
0
40
0
40
0
40
0.0118215412896387
40
0.0118215412896387
40
0.0301211423768666
40
0.0301211423768666
40
0.0392709429204809
40
0.0392709429204809
40
0.0484207434640952
40
0.0484207434640952
40
0.0850199456385523
40
0.0850199456385523
40
0.0941697461821667
40
0.0941697461821667
40
0.103319546725781
40
0.103319546725781
40
0.12161914781301
40
0.12161914781301
40
0.158218349987467
40
0.158218349987467
40
0.167368150531081
40
0.167368150531081
40
0.176517951074696
40
0.176517951074696
40
0.194817552161925
40
0.194817552161925
40
0.231416754336385
40
0.231416754336385
40
0.24056655488
40
0.24056655488
40
0.249716355423614
40
0.249716355423614
40
0.268015956510844
40
0.268015956510844
40
0.304615158685305
40
0.304615158685305
40
0.31376495922892
40
0.31376495922892
40
0.322914759772535
40
0.322914759772535
40
0.341214360859764
40
0.341214360859764
40
0.359513961946993
40
0.359513961946993
40
0.368663762490608
40
0.368663762490608
40
0.377813563034223
40
0.377813563034223
40
0.386963363577838
40
0.386963363577838
40
0.396113164121452
40
0.396113164121452
40
0.414412765208682
40
0.432712366295912
40
0.432712366295912
40
0.441862166839528
40
0.441862166839528
40
0.451011967383142
40
0.451011967383142
40
0.487611169557602
40
0.487611169557602
40
0.505910770644832
40
0.505910770644832
40
0.515060571188447
40
0.515060571188447
40
0.524210371732062
40
0.524210371732062
40
0.560809573906522
40
0.560809573906522
40
0.579109174993752
40
0.579109174993752
40
0.588258975537366
40
0.588258975537366
40
0.597408776080981
40
0.597408776080981
40
0.634007978255439
40
0.634007978255439
40
0.652307579342668
40
0.652307579342668
40
0.661457379886283
40
0.661457379886283
40
0.670607180429898
40
0.670607180429898
40
0.707206382604356
40
0.707206382604356
40
0.71635618314797
40
0.71635618314797
40
0.725505983691583
40
0.725505983691583
40
0.743805584778812
40
0.743805584778812
40
0.780404786953267
40
0.780404786953267
40
0.789554587496881
40
0.789554587496881
40
0.798704388040495
40
0.798704388040495
40
0.817003989127723
40
0.817003989127723
40
0.835303590214951
40
0.835303590214951
40
0.844453390758565
40
0.844453390758565
40
0.853603191302179
40
0.853603191302179
40
0.862752991845793
40
0.862752991845793
40
0.871902792389407
40
0.871902792389407
40
0.890202393476634
40
0.890202393476634
40
0.926801595651089
40
0.926801595651089
40
0.935951396194702
40
0.935951396194702
40
0.945101196738316
40
0.945101196738316
40
0.963400797825544
40
0.963400797825544
40
1
40
1
40
1
40
1
41
1
10
72.0894068357623
20
-4.73685610113068
30
0
41
1
10
71.8543659149771
20
-4.7933199640469
30
0
41
1
10
71.6193933374331
20
-4.84855867514878
30
0
41
1
10
71.0208816396212
20
-4.98623862085597
30
0
41
1
10
70.6574714758036
20
-5.06702265479638
30
0
41
1
10
70.1126443654039
20
-5.18378728533037
30
0
41
1
10
69.9310407724868
20
-5.22190025683975
30
0
41
1
10
69.5677052569568
20
-5.29629324362389
30
0
41
1
10
69.3859923339514
20
-5.33260548610707
30
0
41
1
10
68.4772275755233
20
-5.50981930884276
30
0
41
1
10
67.7495619063902
20
-5.63772715116735
30
0
41
1
10
66.839504328543
20
-5.7806729921183
30
0
41
1
10
66.6574697619366
20
-5.80841170471638
30
0
41
1
10
66.2933600895981
20
-5.86217633751326
30
0
41
1
10
66.1113062379602
20
-5.88822476824365
30
0
41
1
10
65.5648434070897
20
-5.96350357630598
30
0
41
1
10
65.2006108408256
20
-6.00972097662853
30
0
41
1
10
64.1083467043541
20
-6.13681139935395
30
0
41
1
10
63.380676113878
20
-6.2061766140381
30
0
41
1
10
62.4720868100782
20
-6.27389996418728
30
0
41
1
10
62.2904205863486
20
-6.28649092617266
30
0
41
1
10
61.9271885833413
20
-6.30974359074318
30
0
41
1
10
61.7456007760276
20
-6.32039154742344
30
0
41
1
10
61.2006297732041
20
-6.34928248427101
30
0
41
1
10
60.8371294978822
20
-6.36452589217816
30
0
41
1
10
59.7461765646027
20
-6.39840022963327
30
0
41
1
10
59.018253969915
20
-6.40524125292043
30
0
41
1
10
58.1079332993902
20
-6.39376260741682
30
0
41
1
10
57.925865464433
20
-6.39045580052883
30
0
41
1
10
57.5615771881226
20
-6.38182204910183
30
0
41
1
10
57.3794456658252
20
-6.3765071372458
30
0
41
1
10
56.8331494889133
20
-6.35761322566265
30
0
41
1
10
56.4690628495688
20
-6.34108515030937
30
0
41
1
10
55.3772186782612
20
-6.27984704704841
30
0
41
1
10
54.6498654483379
20
-6.22355676266867
30
0
41
1
10
53.7417324727712
20
-6.13331074831092
30
0
41
1
10
53.5601560391146
20
-6.11426086204875
30
0
41
1
10
53.1968644786865
20
-6.07436030144831
30
0
41
1
10
53.0151701294239
20
-6.05349518271203
30
0
41
1
10
52.4699558716352
20
-5.98816874262633
30
0
41
1
10
52.106306733146
20
-5.94097809580384
30
0
41
1
10
51.378718607428
20
-5.83931256555582
30
0
41
1
10
51.014777563431
20
-5.78484080694679
30
0
41
1
10
50.4687065812489
20
-5.69755325497729
30
0
41
1
10
50.2866568804831
20
-5.66752557676705
30
0
41
1
10
49.9225108586792
20
-5.60557917495569
30
0
41
1
10
49.7404274020211
20
-5.57364158884462
30
0
41
1
10
49.3761491389634
20
-5.50794254447248
30
0
41
1
10
49.1940307635414
20
-5.47426737240309
30
0
41
1
10
48.8298493901639
20
-5.40538315510071
30
0
41
1
10
48.6477842477368
20
-5.37015818048502
30
0
41
1
10
48.1016789388604
20
-5.26213561914417
30
0
41
1
10
47.3737761421511
20
-5.1118543389523
30
0
41
1
10
46.6464531980268
20
-4.94899891688632
30
0
41
1
10
46.1012455701341
20
-4.82199088257957
30
0
41
1
10
45.9195565690521
20
-4.77884391825359
30
0
41
1
10
45.5562794042219
20
-4.69090084286785
30
0
41
1
10
45.3747064224854
20
-4.6460732442419
30
0
41
1
10
44.4665359184922
20
-4.41887347979426
30
0
41
1
10
43.7392065650199
20
-4.22705794085991
30
0
41
1
10
42.6474041123993
20
-3.92373369645898
30
0
41
1
10
42.2833370465307
20
-3.8200098452055
30
0
41
1
10
41.7370926452343
20
-3.66030456805444
30
0
41
1
10
41.5549939042996
20
-3.60636579844706
30
0
41
1
10
41.190715716722
20
-3.4971719732111
30
0
41
1
10
41.0086117337971
20
-3.44204563210968
30
0
41
1
10
40.0982007906787
20
-3.16455428745226
30
0
41
1
10
39.3702588284776
20
-2.93592474437227
30
0
41
1
10
38.2792790292437
20
-2.58229809436688
30
0
41
1
10
37.9157816785513
20
-2.46261835158418
30
0
41
1
10
37.3708312992553
20
-2.28022782927078
30
0
41
1
10
37.1892517853414
20
-2.21889503725617
30
0
41
1
10
36.826007849271
20
-2.09575109871909
30
0
41
1
10
36.644333991963
20
-2.03396614416346
30
0
41
1
10
35.7357278319821
20
-1.723934101266
30
0
41
1
10
35.008090259876
20
-1.47237974823398
30
0
41
1
10
33.9158870558098
20
-1.08872601959999
30
0
41
1
10
33.5517084858091
20
-0.959743246356169
30
0
41
1
10
33.0052798039843
20
-0.764558712793814
30
0
41
1
10
32.8231628091903
20
-0.699329559198588
30
0
41
1
10
32.4588859872441
20
-0.569056632210959
30
0
41
1
10
32.2767346960049
20
-0.503947820115258
30
0
41
1
10
31.3659379816008
20
-0.178474945019843
30
0
41
1
10
30.6371589765197
20
0.0816390610760607
30
0
41
1
10
29.7263547211774
20
0.40742031022171
30
0
41
1
10
29.5442034425166
20
0.472611611778632
30
0
41
1
10
29.1799263814457
20
0.603082256918384
30
0
41
1
10
28.9978026247574
20
0.668425581142372
30
0
41
1
10
28.4513892051072
20
0.863977850977079
30
0
41
1
10
28.0871614962165
20
0.993258310584679
30
0
41
1
10
26.9946971522786
20
1.37812498920502
30
0
41
1
10
26.2666676565718
20
1.63072526558409
30
0
41
1
10
25.3573476616037
20
1.94248594009298
30
0
41
1
10
25.1755200210305
20
2.00463833555881
30
0
41
1
10
24.8119422286742
20
2.12855003291651
30
0
41
1
10
24.630179506566
20
2.19027494905603
30
0
41
1
10
24.0846410784837
20
2.37389012964527
30
0
41
1
10
23.7207053826106
20
2.49446374008355
30
0
41
1
10
22.9924207431381
20
2.73216116985913
30
0
41
1
10
22.6280689299334
20
2.84927751069969
30
0
41
1
10
22.0812735151349
20
3.02246887486311
30
0
41
1
10
21.8989438356481
20
3.07979204591544
30
0
41
1
10
21.5345836489885
20
3.19351941353921
30
0
41
1
10
21.3525082138564
20
3.24993781211251
30
0
41
1
10
20.9885739037973
20
3.3618931386707
30
0
41
1
10
20.8067309767564
20
3.41746827820819
30
0
41
1
10
20.4431761204067
20
3.52751772151709
30
0
41
1
10
20.2614217381338
20
3.58189041641174
30
0
41
1
10
19.7161798238798
20
3.74296392217082
30
0
41
1
10
19.3527394840032
20
3.84768572124602
30
0
41
1
10
18.2626683845161
20
4.15418997379808
30
0
41
1
10
17.5362748206068
20
4.34833197974777
30
0
41
1
10
16.6290598646116
20
4.57882546511701
30
0
41
1
10
16.4476634075396
20
4.62432391526616
30
0
41
1
10
16.084714157702
20
4.71363113119708
30
0
41
1
10
15.9031778394608
20
4.75747433620754
30
0
41
1
10
15.3583972958115
20
4.88661716815486
30
0
41
1
10
14.9949829860329
20
4.96953560141927
30
0
41
1
10
13.9041513348427
20
5.20898331775962
30
0
41
1
10
13.1761307333624
20
5.35623583365594
30
0
41
1
10
12.447633958968
20
5.49124232151223
30
0
0
SPLINE
5
D0
100
AcDbEntity
8
1
62
256
6
ByLayer
370
18
48
1
60
0
100
AcDbSpline
70
4
71
3
72
14
73
10
40
0
40
0
40
0
40
0
40
0.25
40
0.25
40
0.5
40
0.5
40
0.75
40
0.75
40
1
40
1
40
1
40
1
41
1
10
12.447633958968
20
-5.49124232151229
30
0
41
1
10
12.241391381227
20
-5.5305151117422
30
0
41
1
10
12.0359683759379
20
-5.56960451370003
30
0
41
1
10
11.6263169860465
20
-5.64653235032634
30
0
41
1
10
11.4220873543431
20
-5.68437064019921
30
0
41
1
10
11.0144900552331
20
-5.75815877346028
30
0
41
1
10
10.8111215897667
20
-5.79410972530204
30
0
41
1
10
10.405060330882
20
-5.86372065547064
30
0
41
1
10
10.2023673057405
20
-5.89738279436148
30
0
41
1
10
9.99999999999997
20
-5.92979062048306
30
0
0
SPLINE
5
D1
100
AcDbEntity
8
1
62
256
6
ByLayer
370
18
48
1
60
0
100
AcDbSpline
70
4
71
4
72
10
73
5
40
0
40
0
40
0
40
0
40
0
40
1
40
1
40
1
40
1
40
1
41
0.99607312098797
10
12.6989507971421
20
-3.98047400344839
30
0
41
0.995323828279686
10
12.6137871180251
20
-4.3268508651609
30
0
41
0.995170134996292
10
12.5417698516086
20
-4.7020652462968
30
0
41
0.996007544255542
10
12.4862564584802
20
-5.09503012788419
30
0
41
0.997137491136724
10
12.447633958968
20
-5.4912423215123
30
0
0
SPLINE
5
D2
100
AcDbEntity
8
1
62
256
6
ByLayer
370
18
48
1
60
0
100
AcDbSpline
70
4
71
3
72
20
73
16
40
0
40
0
40
0
40
0
40
0.125
40
0.125
40
0.25
40
0.25
40
0.500000000000004
40
0.500000000000004
40
0.625000000000006
40
0.625000000000006
40
0.687500000000005
40
0.687500000000005
40
0.750000000000004
40
0.750000000000004
40
1
40
1
40
1
40
1
41
1
10
10
20
-3.73524586109289
30
0
41
1
10
10.2284571260583
20
-3.7343044269868
30
0
41
1
10
10.455715829651
20
-3.73947391828207
30
0
41
1
10
10.9080286216981
20
-3.76097904880231
30
0
41
1
10
11.1330819301728
20
-3.77731716100863
30
0
41
1
10
11.8051951037118
20
-3.8414103792384
30
0
41
1
10
12.2491976526277
20
-3.90432551553485
30
0
41
1
10
12.9102083995349
20
-4.02108337668164
30
0
41
1
10
13.1297152532506
20
-4.06371360656641
30
0
41
1
10
13.4578958506574
20
-4.13207338943607
30
0
41
1
10
13.5671096502389
20
-4.15559466853171
30
0
41
1
10
13.7852077811933
20
-4.20390468422551
30
0
41
1
10
13.8941250669348
20
-4.22870148274276
30
0
41
1
10
14.4369307153511
20
-4.35509430021096
30
0
41
1
10
14.8662790572312
20
-4.4639847098999
30
0
41
1
10
15.2928167151676
20
-4.57457301391281
30
0
0
SPLINE
5
D3
100
AcDbEntity
8
1
62
256
6
ByLayer
370
18
48
1
60
0
100
AcDbSpline
70
4
71
3
72
110
73
106
40
0
40
0
40
0
40
0
40
0.0624999999999986
40
0.0624999999999986
40
0.124999999999997
40
0.124999999999997
40
0.156249999999996
40
0.156249999999996
40
0.187499999999995
40
0.187499999999995
40
0.218749999999994
40
0.218749999999994
40
0.226562499999994
40
0.226562499999994
40
0.234374999999994
40
0.234374999999994
40
0.249999999999993
40
0.249999999999993
40
0.281249999999992
40
0.281249999999992
40
0.296874999999991
40
0.296874999999991
40
0.304687499999991
40
0.304687499999991
40
0.31249999999999
40
0.31249999999999
40
0.343749999999988
40
0.343749999999988
40
0.359374999999987
40
0.359374999999987
40
0.374999999999987
40
0.374999999999987
40
0.390624999999986
40
0.390624999999986
40
0.394531249999986
40
0.394531249999986
40
0.398437499999986
40
0.406249999999986
40
0.406249999999986
40
0.421874999999986
40
0.421874999999986
40
0.437499999999985
40
0.437499999999985
40
0.445312499999985
40
0.445312499999985
40
0.453124999999984
40
0.453124999999984
40
0.468749999999983
40
0.468749999999983
40
0.476562499999983
40
0.480468749999982
40
0.480468749999982
40
0.484374999999982
40
0.484374999999982
40
0.499999999999981
40
0.499999999999981
40
0.515624999999981
40
0.515624999999981
40
0.51953124999998
40
0.51953124999998
40
0.52343749999998
40
0.52343749999998
40
0.53124999999998
40
0.53124999999998
40
0.54687499999998
40
0.54687499999998
40
0.56249999999998
40
0.56249999999998
40
0.56640624999998
40
0.56640624999998
40
0.570312499999981
40
0.570312499999981
40
0.578124999999981
40
0.578124999999981
40
0.593749999999983
40
0.593749999999983
40
0.624999999999987
40
0.624999999999987
40
0.632812499999987
40
0.632812499999987
40
0.640624999999988
40
0.640624999999988
40
0.656249999999989
40
0.656249999999989
40
0.68749999999999
40
0.68749999999999
40
0.718749999999991
40
0.718749999999991
40
0.749999999999992
40
0.749999999999992
40
0.781249999999993
40
0.781249999999993
40
0.812499999999994
40
0.812499999999994
40
0.843749999999995
40
0.843749999999995
40
0.874999999999996
40
0.874999999999996
40
0.906249999999997
40
0.906249999999997
40
0.937499999999998
40
0.937499999999998
40
0.968749999999999
40
0.968749999999999
40
1
40
1
40
1
40
1
41
1
10
10
20
-3.73524586109289
30
0
41
1
10
9.62424026655867
20
-3.77841270474838
30
0
41
1
10
9.25168708924286
20
-3.83423003201264
30
0
41
1
10
8.51328393490888
20
-3.97231023279727
30
0
41
1
10
8.14742825882098
20
-4.05455062103698
30
0
41
1
10
7.6038824942857
20
-4.19857545664502
30
0
41
1
10
7.42357402521844
20
-4.25002972847784
30
0
41
1
10
7.06475628211206
20
-4.36003661304585
30
0
41
1
10
6.8862466218601
20
-4.41858770187551
30
0
41
1
10
6.53110030010532
20
-4.54307947009153
30
0
41
1
10
6.35446300719059
20
-4.60901765803359
30
0
41
1
10
6.13490609108572
20
-4.69633147265134
30
0
41
1
10
6.09105681275736
20
-4.71403926264256
30
0
41
1
10
6.00348475142084
20
-4.74995391575675
30
0
41
1
10
5.95978332342293
20
-4.76815259461736
30
0
41
1
10
5.82933906400257
20
-4.8233100533958
30
0
41
1
10
5.74310883219025
20
-4.86088991575005
30
0
41
1
10
5.48669852882699
20
-4.97605921174588
30
0
41
1
10
5.31878889658503
20
-5.05607241080719
30
0
41
1
10
5.07194683308836
20
-5.18105037369935
30
0
41
1
10
4.99050541651596
20
-5.22353737495263
30
0
41
1
10
4.86968826823787
20
-5.2885386516557
30
0
41
1
10
4.82964026841807
20
-5.31041767071548
30
0
41
1
10
4.75001045536087
20
-5.35460626696565
30
0
41
1
10
4.71038428200865
20
-5.37694142101631
30
0
41
1
10
4.5140676934258
20
-5.48936912545042
30
0
41
1
10
4.3630624773549
20
-5.58153792479547
30
0
41
1
10
4.14691470053111
20
-5.72291471944464
30
0
41
1
10
4.07659886077664
20
-5.77056184556747
30
0
41
1
10
3.93976311532427
20
-5.86687769261678
30
0
41
1
10
3.87324166785231
20
-5.91554624444984
30
0
41
1
10
3.74444075606596
20
-6.01389754604716
30
0
41
1
10
3.68215863619838
20
-6.06357999377207
30
0
41
1
10
3.60734810304808
20
-6.12632544822264
30
0
41
1
10
3.59252051039311
20
-6.13892248394663
30
0
41
1
10
3.56328835105094
20
-6.16409027094934
30
0
41
1
10
3.52008006379205
20
-6.20179645586532
30
0
41
1
10
3.47882797663084
20
-6.23935323284962
30
0
41
1
10
3.39904726089785
20
-6.31423120825502
30
0
41
1
10
3.34948205646305
20
-6.36383684346893
30
0
41
1
10
3.25840148075781
20
-6.46220665433339
30
0
41
1
10
3.21688082036275
20
-6.51097155305249
30
0
41
1
10
3.16150634691115
20
-6.58329454751069
30
0
41
1
10
3.1443760465115
20
-6.6070412256752
30
0
41
1
10
3.11290052156352
20
-6.65366937174446
30
0
41
1
10
3.09854070884788
20
-6.67656980436052
30
0
41
1
10
3.05968033395968
20
-6.74398472136784
30
0
41
1
10
3.03938850592721
20
-6.78721503788637
30
0
41
1
10
3.01788316860177
20
-6.84927473871096
30
0
41
1
10
3.00936727838985
20
-6.87960737428298
30
0
41
1
10
3.00433999436157
20
-6.9088453213524
30
0
41
1
10
3.0017815816351
20
-6.92808789938073
30
0
41
1
10
3.00089846753804
20
-6.93760594165701
30
0
41
1
10
2.99852287443488
20
-6.98420852744275
30
0
41
1
10
3.00309081075619
20
-7.01842134414298
30
0
41
1
10
3.02442956289732
20
-7.08105717784966
30
0
41
1
10
3.04120311141139
20
-7.10947922303595
30
0
41
1
10
3.06952690965875
20
-7.14153997614724
30
0
41
1
10
3.07556013266824
20
-7.14777857013559
30
0
41
1
10
3.08835903510573
20
-7.15991164724679
30
0
41
1
10
3.09513698655314
20
-7.16581487047301
30
0
41
1
10
3.11641336396573
20
-7.18289808455194
30
0
41
1
10
3.13187926129774
20
-7.19348374941461
30
0
41
1
10
3.18185377575151
20
-7.2230129016383
30
0
41
1
10
3.2199287843529
20
-7.23973509136769
30
0
41
1
10
3.30448365245985
20
-7.26802298988062
30
0
41
1
10
3.3509677008575
20
-7.27958619758263
30
0
41
1
10
3.41381661464726
20
-7.29118204689672
30
0
41
1
10
3.42662413901246
20
-7.29335795624604
30
0
41
1
10
3.45270383252802
20
-7.29743114150327
30
0
41
1
10
3.46597217484393
20
-7.29932730176321
30
0
41
1
10
3.50625541882073
20
-7.30458613034241
30
0
41
1
10
3.53381253162408
20
-7.30753018176048
30
0
41
1
10
3.61842068890627
20
-7.31482740642431
30
0
41
1
10
3.67740248848105
20
-7.3176511245795
30
0
41
1
10
3.86100885943182
20
-7.32095708449268
30
0
41
1
10
3.99224649210694
20
-7.3163196742791
30
0
41
1
10
4.16490929465564
20
-7.30412580992109
30
0
41
1
10
4.19987679420794
20
-7.30136327522226
30
0
41
1
10
4.27063536681192
20
-7.29523085645152
30
0
41
1
10
4.30647424973392
20
-7.29185583459045
30
0
41
1
10
4.41468399802994
20
-7.28092406427839
30
0
41
1
10
4.48779970781942
20
-7.27256189150566
30
0
41
1
10
4.70968534058085
20
-7.24472942355158
30
0
41
1
10
4.86097820270629
20
-7.22253635197833
30
0
41
1
10
5.16876860170441
20
-7.1726370959083
30
0
41
1
10
5.32527450197341
20
-7.1449195274366
30
0
41
1
10
5.64239489242161
20
-7.08507627556079
30
0
41
1
10
5.80301328814846
20
-7.05294493979562
30
0
41
1
10
6.12749746790698
20
-6.98500130275195
30
0
41
1
10
6.29136508487088
20
-6.94918584485052
30
0
41
1
10
6.62164278888662
20
-6.87434519260719
30
0
41
1
10
6.78808268017556
20
-6.83531095119298
30
0
41
1
10
7.12280150140396
20
-6.75435003679411
30
0
41
1
10
7.29070798803923
20
-6.71251280921413
30
0
41
1
10
7.62727239243569
20
-6.6262849024998
30
0
41
1
10
7.79593013490455
20
-6.5818926912558
30
0
41
1
10
8.133737493985
20
-6.49062205020914
30
0
41
1
10
8.30288675540675
20
-6.44374218688401
30
0
41
1
10
8.64150900534096
20
-6.3475180507306
30
0
41
1
10
8.81098160695234
20
-6.2981723449947
30
0
41
1
10
9.15018550428252
20
-6.19703563653113
30
0
41
1
10
9.31991651880315
20
-6.14524321315216
30
0
41
1
10
9.65968586934895
20
-6.03927242373322
30
0
41
1
10
9.82972414340838
20
-5.98509274206043
30
0
41
1
10
10
20
-5.92979062048312
30
0
0
SPLINE
5
D4
100
AcDbEntity
8
1
62
256
6
ByLayer
370
18
48
1
60
0
100
AcDbSpline
70
4
71
3
72
28
73
24
40
0
40
0
40
0
40
0
40
0.0059147489150735
40
0.0059147489150735
40
0.105323274023566
40
0.105323274023566
40
0.204731799132058
40
0.204731799132058
40
0.304140324240551
40
0.304140324240551
40
0.403548849349044
40
0.403548849349044
40
0.502957374457537
40
0.502957374457537
40
0.602365899566029
40
0.602365899566029
40
0.701774424674522
40
0.701774424674522
40
0.801182949783015
40
0.801182949783015
40
0.900591474891507
40
0.900591474891507
40
1
40
1
40
1
40
1
41
1
10
4.98743117973396
20
7.20201072682403
30
0
41
1
10
4.99656926680703
20
7.20054594169409
30
0
41
1
10
5.00571672813459
20
7.19907121217199
30
0
41
1
10
5.16876860170441
20
7.1726370959083
30
0
41
1
10
5.32527450197341
20
7.14491952743663
30
0
41
1
10
5.64239489242161
20
7.08507627556082
30
0
41
1
10
5.80301328814846
20
7.05294493979562
30
0
41
1
10
6.12749746790695
20
6.98500130275195
30
0
41
1
10
6.2913650848709
20
6.94918584485055
30
0
41
1
10
6.62164278888662
20
6.87434519260719
30
0
41
1
10
6.78808268017553
20
6.83531095119298
30
0
41
1
10
7.1228015014039
20
6.75435003679411
30
0
41
1
10
7.29070798803923
20
6.71251280921416
30
0
41
1
10
7.62727239243566
20
6.62628490249983
30
0
41
1
10
7.79593013490455
20
6.58189269125583
30
0
41
1
10
8.133737493985
20
6.49062205020917
30
0
41
1
10
8.30288675540675
20
6.44374218688401
30
0
41
1
10
8.64150900534094
20
6.3475180507306
30
0
41
1
10
8.81098160695234
20
6.2981723449947
30
0
41
1
10
9.15018550428252
20
6.19703563653113
30
0
41
1
10
9.31991651880315
20
6.14524321315213
30
0
41
1
10
9.65968586934895
20
6.03927242373319
30
0
41
1
10
9.82972414340838
20
5.98509274206043
30
0
41
1
10
10
20
5.92979062048312
30
0
0
SPLINE
5
D5
100
AcDbEntity
8
SK1
62
256
6
ByLayer
370
18
48
1
60
0
100
AcDbSpline
70
4
71
3
72
31
73
27
40
0
40
0
40
0
40
0
40
0.125000000000001
40
0.125000000000001
40
0.250000000000003
40
0.250000000000003
40
0.375000000000004
40
0.375000000000004
40
0.500000000000005
40
0.500000000000005
40
0.562500000000006
40
0.562500000000006
40
0.625000000000007
40
0.687500000000007
40
0.687500000000007
40
0.718750000000008
40
0.718750000000008
40
0.750000000000008
40
0.750000000000008
40
0.875000000000003
40
0.875000000000003
40
0.937500000000001
40
0.937500000000001
40
0.96875
40
0.96875
40
1
40
1
40
1
40
1
41
1
10
-41.322846649578
20
-3.33034885603652
30
0
41
1
10
-41.2982183123488
20
-3.38803258877206
30
0
41
1
10
-41.2717267680571
20
-3.44436940557552
30
0
41
1
10
-41.2144104214618
20
-3.55410223850021
30
0
41
1
10
-41.1835888583784
20
-3.60749982049498
30
0
41
1
10
-41.1168132306847
20
-3.71101722712197
30
0
41
1
10
-41.0808655609651
20
-3.76114016706765
30
0
41
1
10
-41.0027064087883
20
-3.85761356828161
30
0
41
1
10
-40.9605092263353
20
-3.90397104557275
30
0
41
1
10
-40.8912034928284
20
-3.97008360471079
30
0
41
1
10
-40.8672955191393
20
-3.99134752800094
30
0
41
1
10
-40.8179396702517
20
-4.0320451182069
30
0
41
1
10
-40.7669822244289
20
-4.07097190163014
30
0
41
1
10
-40.7125214515213
20
-4.10609739988001
30
0
41
1
10
-40.670214663531
20
-4.13088316998613
30
0
41
1
10
-40.655868463324
20
-4.13888495820467
30
0
41
1
10
-40.6266576666279
20
-4.15434007152678
30
0
41
1
10
-40.6118286726114
20
-4.16177231338193
30
0
41
1
10
-40.5371050103957
20
-4.19714033207811
30
0
41
1
10
-40.4749740708276
20
-4.22001118907693
30
0
41
1
10
-40.3778268407505
20
-4.24538536593542
30
0
41
1
10
-40.3447830766741
20
-4.25234770684881
30
0
41
1
10
-40.2941359057272
20
-4.26035999417425
30
0
41
1
10
-40.2770624559109
20
-4.2626233218524
30
0
41
1
10
-40.2428795071773
20
-4.26626974627274
30
0
41
1
10
-40.22572940542
20
-4.26766016692457
30
0
41
1
10
-40.2085199217113
20
-4.26861273885882
30
0
0
SPLINE
5
D6
100
AcDbEntity
8
SK1
62
256
6
ByLayer
370
18
48
1
60
0
100
AcDbSpline
70
4
71
3
72
28
73
24
40
0
40
0
40
0
40
0
40
0.125000000000001
40
0.125000000000001
40
0.187500000000002
40
0.187500000000002
40
0.250000000000004
40
0.250000000000004
40
0.375000000000006
40
0.375000000000006
40
0.437500000000007
40
0.437500000000007
40
0.500000000000008
40
0.500000000000008
40
0.625000000000008
40
0.625000000000008
40
0.687500000000007
40
0.687500000000007
40
0.750000000000006
40
0.750000000000006
40
0.875000000000003
40
0.875000000000003
40
1
40
1
40
1
40
1
41
1
10
-40.2085199217113
20
4.26861273885839
30
0
41
1
10
-40.2770078954797
20
4.26482182201573
30
0
41
1
10
-40.3435159701705
20
4.25421034005257
30
0
41
1
10
-40.4406186748427
20
4.22904991330012
30
0
41
1
10
-40.4725401749683
20
4.21911183367274
30
0
41
1
10
-40.5355147747093
20
4.19619029939315
30
0
41
1
10
-40.566119882014
20
4.18336793011164
30
0
41
1
10
-40.6552476470727
20
4.1412976123425
30
0
41
1
10
-40.7112423032074
20
4.10841569067671
30
0
41
1
10
-40.7908488886551
20
4.05271054233145
30
0
41
1
10
-40.8163780326975
20
4.03326066129199
30
0
41
1
10
-40.8655003190458
20
3.99289517941517
30
0
41
1
10
-40.8891220708721
20
3.97195852720529
30
0
41
1
10
-40.9574656057434
20
3.90707900711414
30
0
41
1
10
-40.9996786915665
20
3.86107582099058
30
0
41
1
10
-41.0588219892095
20
3.78847288665983
30
0
41
1
10
-41.0778365663648
20
3.76366951078927
30
0
41
1
10
-41.1145716668491
20
3.71292056409152
30
0
41
1
10
-41.1321793223817
20
3.68713127494576
30
0
41
1
10
-41.1829286385602
20
3.60864716973444
30
0
41
1
10
-41.2140187173667
20
3.55482217194611
30
0
41
1
10
-41.2716651020537
20
3.44451721966016
30
0
41
1
10
-41.2982170704349
20
3.38803549754442
30
0
41
1
10
-41.322846649578
20
3.33034885603652
30
0
0
SPLINE
5
D7
100
AcDbEntity
8
SK1
62
256
6
ByLayer
370
18
48
1
60
0
100
AcDbSpline
70
4
71
3
72
28
73
24
40
0
40
0
40
0
40
0
40
0.250000000000005
40
0.250000000000005
40
0.312500000000006
40
0.312500000000006
40
0.375000000000007
40
0.375000000000007
40
0.5
40
0.5
40
0.624999999999992
40
0.624999999999992
40
0.65624999999999
40
0.65624999999999
40
0.687499999999989
40
0.687499999999989
40
0.749999999999985
40
0.749999999999985
40
0.874999999999993
40
0.874999999999993
40
0.937499999999996
40
0.937499999999996
40
1
40
1
40
1
40
1
41
1
10
-13.8090444171455
20
4.91381127456395
30
0
41
1
10
-13.8730250304025
20
4.99046340860016
30
0
41
1
10
-13.9444892601168
20
5.06075108627354
30
0
41
1
10
-14.0453442110783
20
5.13975030164355
30
0
41
1
10
-14.0660970839937
20
5.15510348386371
30
0
41
1
10
-14.108849096648
20
5.18487572838717
30
0
41
1
10
-14.1308767716723
20
5.19931243837365
30
0
41
1
10
-14.1987969608565
20
5.24103142381006
30
0
41
1
10
-14.2458698834865
20
5.2663349057469
30
0
41
1
10
-14.3438356225248
20
5.3117780788902
30
0
41
1
10
-14.3947259977568
20
5.33192086270162
30
0
41
1
10
-14.4609718435402
20
5.35364247707062
30
0
41
1
10
-14.4743531694453
20
5.35781325453198
30
0
41
1
10
-14.5013886431665
20
5.36579875975136
30
0
41
1
10
-14.5150720561229
20
5.36962082906823
30
0
41
1
10
-14.5562656757263
20
5.38046558406404
30
0
41
1
10
-14.5839366053628
20
5.38687714356516
30
0
41
1
10
-14.6675758493674
20
5.40367498823224
30
0
41
1
10
-14.7241681343673
20
5.41163572791979
30
0
41
1
10
-14.8103509838265
20
5.4186001914598
30
0
41
1
10
-14.839294928931
20
5.42008953290443
30
0
41
1
10
-14.8976311188396
20
5.42134736085288
30
0
41
1
10
-14.9268902583505
20
5.42110969918963
30
0
41
1
10
-14.9560809879695
20
5.42000303685279
30
0
0
SPLINE
5
D8
100
AcDbEntity
8
SK1
62
256
6
ByLayer
370
18
48
1
60
0
100
AcDbSpline
70
4
71
3
72
29
73
25
40
0
40
0
40
0
40
0
40
0.125000000000023
40
0.125000000000023
40
0.250000000000046
40
0.250000000000046
40
0.312500000000058
40
0.312500000000058
40
0.375000000000069
40
0.375000000000069
40
0.500000000000078
40
0.500000000000078
40
0.562500000000082
40
0.562500000000082
40
0.593750000000078
40
0.593750000000078
40
0.625000000000073
40
0.750000000000046
40
0.750000000000046
40
0.875000000000019
40
0.875000000000019
40
0.937500000000009
40
0.937500000000009
40
1
40
1
40
1
40
1
41
1
10
-14.9560809879695
20
-5.42000303685279
30
0
41
1
10
-14.8976517734494
20
-5.42221817199751
30
0
41
1
10
-14.8398504554356
20
-5.42094359808488
30
0
41
1
10
-14.7254362798095
20
-5.41177794727187
30
0
41
1
10
-14.6688237697278
20
-5.40388482792244
30
0
41
1
10
-14.5847891358201
20
-5.38706822462967
30
0
41
1
10
-14.5568094402394
20
-5.38059638684285
30
0
41
1
10
-14.5019506989544
20
-5.36617855475819
30
0
41
1
10
-14.4750261228712
20
-5.35823183005425
30
0
41
1
10
-14.395685497739
20
-5.33227249172961
30
0
41
1
10
-14.3446977675387
20
-5.31214836042813
30
0
41
1
10
-14.2708592175646
20
-5.27794120061839
30
0
41
1
10
-14.2466881934933
20
-5.26586656540695
30
0
41
1
10
-14.2110774186189
20
-5.24675579357759
30
0
41
1
10
-14.1993109081088
20
-5.24021577958535
30
0
41
1
10
-14.1761490644524
20
-5.22689762154863
30
0
41
1
10
-14.1190707984856
20
-5.19295097150575
30
0
41
1
10
-14.0659423088902
20
-5.15585567198329
30
0
41
1
10
-13.9853722790436
20
-5.09280324282167
30
0
41
1
10
-13.9473081932622
20
-5.05942484453377
30
0
41
1
10
-13.8932201680201
20
-5.0067258138026
30
0
41
1
10
-13.8756933478446
20
-4.98872006168716
30
0
41
1
10
-13.8416025059636
20
-4.95184585609991
30
0
41
1
10
-13.8250535884703
20
-4.9329911023857
30
0
41
1
10
-13.8090444171455
20
-4.91381127456395
30
0
0
SPLINE
5
D9
100
AcDbEntity
8
1
62
256
6
ByLayer
370
13
48
1
60
0
100
AcDbSpline
70
4
71
3
72
85
73
81
40
0
40
0
40
0
40
0
40
0.0312500000000055
40
0.0312500000000055
40
0.046875000000008
40
0.046875000000008
40
0.0546875000000093
40
0.0546875000000093
40
0.0585937500000096
40
0.0585937500000096
40
0.06250000000001
40
0.06250000000001
40
0.0937500000000101
40
0.0937500000000101
40
0.12500000000001
40
0.12500000000001
40
0.15625000000001
40
0.15625000000001
40
0.18750000000001
40
0.18750000000001
40
0.21875000000001
40
0.21875000000001
40
0.250000000000011
40
0.250000000000011
40
0.281250000000011
40
0.281250000000011
40
0.312500000000011
40
0.312500000000011
40
0.343750000000011
40
0.343750000000011
40
0.359375000000011
40
0.359375000000011
40
0.367187500000011
40
0.367187500000011
40
0.375000000000012
40
0.375000000000012
40
0.406250000000013
40
0.406250000000013
40
0.437500000000014
40
0.437500000000014
40
0.468750000000015
40
0.468750000000015
40
0.500000000000016
40
0.500000000000016
40
0.531250000000017
40
0.531250000000017
40
0.562500000000018
40
0.562500000000018
40
0.593750000000019
40
0.593750000000019
40
0.62500000000002
40
0.62500000000002
40
0.656250000000021
40
0.656250000000021
40
0.671875000000022
40
0.671875000000022
40
0.679687500000023
40
0.683593750000023
40
0.683593750000023
40
0.687500000000023
40
0.687500000000023
40
0.718750000000021
40
0.718750000000021
40
0.750000000000018
40
0.750000000000018
40
0.781250000000016
40
0.781250000000016
40
0.812500000000014
40
0.812500000000014
40
0.843750000000012
40
0.843750000000012
40
0.875000000000009
40
0.875000000000009
40
0.906250000000007
40
0.906250000000007
40
0.937500000000005
40
0.937500000000005
40
0.968750000000002
40
0.968750000000002
40
1
40
1
40
1
40
1
41
1
10
82.3000000000001
20
1.7271193819281
30
0
41
1
10
82.3607586770347
20
1.40551117871564
30
0
41
1
10
82.4215173540691
20
1.08371658457486
30
0
41
1
10
82.512655369621
20
0.609124553213434
30
0
41
1
10
82.5430347081383
20
0.452258387711538
30
0
41
1
10
82.5886037159143
20
0.219815175416727
30
0
41
1
10
82.6037933851728
20
0.1428087067398
30
0
41
1
10
82.6265778890609
20
0.0281054555639173
30
0
41
1
10
82.6341727236902
20
-0.0099085768121085
30
0
41
1
10
82.6493623929488
20
-0.0862915670201403
30
0
41
1
10
82.656957227578
20
-0.124618571649933
30
0
41
1
10
82.7253107392419
20
-0.470712435763034
30
0
41
1
10
82.7860694162765
20
-0.786652701540675
30
0
41
1
10
82.9075867703455
20
-1.42567684736278
30
0
41
1
10
82.9683454473802
20
-1.74873649661586
30
0
41
1
10
83.0898628014493
20
-2.38996955504271
30
0
41
1
10
83.1506214784839
20
-2.70809714473469
30
0
41
1
10
83.272138832553
20
-3.32592699607602
30
0
41
1
10
83.3328975095876
20
-3.62556916475964
30
0
41
1
10
83.4544148636567
20
-4.19300561493955
30
0
41
1
10
83.5151735406911
20
-4.46074029788929
30
0
41
1
10
83.6366908947604
20
-4.95291374959669
30
0
41
1
10
83.6974495717949
20
-5.17731018009036
30
0
41
1
10
83.8189669258639
20
-5.57492575528178
30
0
41
1
10
83.8797256028985
20
-5.74813098582072
30
0
41
1
10
84.0012429569676
20
-6.03992778976453
30
0
41
1
10
84.0620016340022
20
-6.15853460136606
30
0
41
1
10
84.1835189880713
20
-6.3421156597756
30
0
41
1
10
84.2442776651059
20
-6.40712555476867
30
0
41
1
10
84.3354156806578
20
-6.46786195944961
30
0
41
1
10
84.365795019175
20
-6.48200223001913
30
0
41
1
10
84.4113640269509
20
-6.49465889193681
30
0
41
1
10
84.4265536962096
20
-6.49745318216415
30
0
41
1
10
84.4569330347268
20
-6.50030385690647
30
0
41
1
10
84.4721227039855
20
-6.50037407713509
30
0
41
1
10
84.5480710502786
20
-6.49397248608472
30
0
41
1
10
84.6088297273132
20
-6.46692160161706
30
0
41
1
10
84.7303470813823
20
-6.36251496957263
30
0
41
1
10
84.7911057584168
20
-6.28511664459057
30
0
41
1
10
84.9126231124859
20
-6.07615259851713
30
0
41
1
10
84.9733817895205
20
-5.94455494801505
30
0
41
1
10
85.0948991435897
20
-5.62716237237271
30
0
41
1
10
85.1556578206242
20
-5.44135860530338
30
0
41
1
10
85.2771751746933
20
-5.02001391033545
30
0
41
1
10
85.3379338517278
20
-4.7844941093482
30
0
41
1
10
85.459451205797
20
-4.27250131865606
30
0
41
1
10
85.5202098828315
20
-3.99607608685628
30
0
41
1
10
85.6417272369005
20
-3.41432315853072
30
0
41
1
10
85.7024859139351
20
-3.10905674266573
30
0
41
1
10
85.8240032680043
20
-2.48324530685218
30
0
41
1
10
85.8847619450388
20
-2.16275811460403
30
0
41
1
10
86.006279299108
20
-1.51984989244613
30
0
41
1
10
86.0670379761425
20
-1.19746990439293
30
0
41
1
10
86.1581759916944
20
-0.721102538037968
30
0
41
1
10
86.1885553302117
20
-0.563495913181072
30
0
41
1
10
86.2341243379876
20
-0.329750721527006
30
0
41
1
10
86.2569088418755
20
-0.213542240420736
30
0
41
1
10
86.2796933457634
20
-0.0984778156623065
30
0
41
1
10
86.294883015022
20
-0.0220375118996401
30
0
41
1
10
86.3024778496514
20
0.0159718834511295
30
0
41
1
10
86.3708313613153
20
0.359824484194292
30
0
41
1
10
86.4315900383499
20
0.674237614283129
30
0
41
1
10
86.553107392419
20
1.31147532777581
30
0
41
1
10
86.6138660694536
20
1.63427831729871
30
0
41
1
10
86.7353834235226
20
2.2765273479225
30
0
41
1
10
86.7961421005571
20
2.59592991432711
30
0
41
1
10
86.9176594546262
20
3.21794176516991
30
0
41
1
10
86.9784181316609
20
3.52049198756134
30
0
41
1
10
87.0999354857299
20
4.09526609931015
30
0
41
1
10
87.1606941627645
20
4.36742942567403
30
0
41
1
10
87.2822115168336
20
4.86965499982892
30
0
41
1
10
87.3429701938682
20
5.09967211081621
30
0
41
1
10
87.4644875479373
20
5.50923895226705
30
0
41
1
10
87.5252462249719
20
5.68877114821163
30
0
41
1
10
87.646763579041
20
5.99338945815967
30
0
41
1
10
87.7075222560755
20
6.11848767048235
30
0
41
1
10
87.8290396101447
20
6.31472571345748
30
0
41
1
10
87.8897982871792
20
6.38589942543308
30
0
41
1
10
88.0113156412483
20
6.47851507664208
30
0
41
1
10
88.0720743182828
20
6.5
30
0
41
1
10
88.1328329953174
20
6.5
30
0
0
SPLINE
5
DA
100
AcDbEntity
8
1
62
256
6
ByLayer
370
13
48
1
60
0
100
AcDbSpline
70
4
71
3
72
70
73
66
40
0
40
0
40
0
40
0
40
0.0312500000000001
40
0.0312500000000001
40
0.0625000000000002
40
0.0625000000000002
40
0.0937500000000003
40
0.0937500000000003
40
0.125
40
0.125
40
0.156250000000001
40
0.156250000000001
40
0.187500000000001
40
0.187500000000001
40
0.218750000000001
40
0.218750000000001
40
0.250000000000001
40
0.250000000000001
40
0.281250000000001
40
0.281250000000001
40
0.312500000000001
40
0.312500000000001
40
0.343750000000001
40
0.343750000000001
40
0.375000000000001
40
0.375000000000001
40
0.406250000000001
40
0.406250000000001
40
0.437500000000001
40
0.437500000000001
40
0.468750000000001
40
0.468750000000001
40
0.500000000000001
40
0.500000000000001
40
0.531250000000001
40
0.531250000000001
40
0.562500000000001
40
0.562500000000001
40
0.593750000000001
40
0.593750000000001
40
0.625000000000001
40
0.625000000000001
40
0.656250000000001
40
0.656250000000001
40
0.687500000000001
40
0.687500000000001
40
0.71875
40
0.71875
40
0.75
40
0.75
40
0.78125
40
0.78125
40
0.8125
40
0.8125
40
0.84375
40
0.84375
40
0.875
40
0.875
40
0.90625
40
0.90625
40
0.9375
40
0.9375
40
0.96875
40
0.96875
40
1
40
1
40
1
40
1
41
1
10
82.3000000000001
20
-0.863053816380415
30
0
41
1
10
82.3555456185323
20
-1.15323064521866
30
0
41
1
10
82.4110912370646
20
-1.44748321065964
30
0
41
1
10
82.5221824741291
20
-2.03549403649029
30
0
41
1
10
82.5777280926613
20
-2.32922746411123
30
0
41
1
10
82.6888193297259
20
-2.9061741874271
30
0
41
1
10
82.7443649482581
20
-3.18935200672317
30
0
41
1
10
82.8554561853226
20
-3.73472329701636
30
0
41
1
10
82.9110018038549
20
-3.99687709300522
30
0
41
1
10
83.0220930409193
20
-4.49045371075101
30
0
41
1
10
83.0776386594516
20
-4.72184163836121
30
0
41
1
10
83.1887298965161
20
-5.14601195395079
30
0
41
1
10
83.2442755150485
20
-5.33877252512443
30
0
41
1
10
83.355366752113
20
-5.68056605120751
30
0
41
1
10
83.4109123706452
20
-5.82959464354957
30
0
41
1
10
83.5220036077097
20
-6.08195940882266
30
0
41
1
10
83.577549226242
20
-6.18530770636221
30
0
41
1
10
83.6886404633065
20
-6.34737920695335
30
0
41
1
10
83.7441860818387
20
-6.40612576036474
30
0
41
1
10
83.8552773189033
20
-6.48253775997748
30
0
41
1
10
83.9108229374356
20
-6.50023108138348
30
0
41
1
10
84.0219141745001
20
-6.49976435718369
30
0
41
1
10
84.0774597930323
20
-6.48156709903037
30
0
41
1
10
84.1885510300968
20
-6.40408785614875
30
0
41
1
10
84.2440966486292
20
-6.34477825022742
30
0
41
1
10
84.3551878856937
20
-6.18154904472286
30
0
41
1
10
84.4107335042258
20
-6.07760619696523
30
0
41
1
10
84.5218247412904
20
-5.82405725411957
30
0
41
1
10
84.5773703598227
20
-5.67443922230743
30
0
41
1
10
84.6884615968872
20
-5.33151309738449
30
0
41
1
10
84.7440072154194
20
-5.13820959958537
30
0
41
1
10
84.8550984524839
20
-4.71303939880835
30
0
41
1
10
84.9106440710161
20
-4.48119472236664
30
0
41
1
10
85.0217353080807
20
-3.98682167943636
30
0
41
1
10
85.077280926613
20
-3.72432832818092
30
0
41
1
10
85.1883721636775
20
-3.17841232390092
30
0
41
1
10
85.2439177822098
20
-2.89502934643178
30
0
41
1
10
85.3550090192742
20
-2.31780834235869
30
0
41
1
10
85.4105546378065
20
-2.02400568672579
30
0
41
1
10
85.5216458748711
20
-1.43598006576522
30
0
41
1
10
85.5771914934033
20
-1.14178176985595
30
0
41
1
10
85.6882827304679
20
-0.561638160686243
30
0
41
1
10
85.7438283490001
20
-0.275800681605119
30
0
41
1
10
85.8549195860645
20
0.281245327853611
30
0
41
1
10
85.9104652045968
20
0.567256896333589
30
0
41
1
10
86.0215564416613
20
1.14750585870624
30
0
41
1
10
86.0771020601936
20
1.44173147447742
30
0
41
1
10
86.1881932972581
20
2.02975009765356
30
0
41
1
10
86.2437389157904
20
2.32351835391708
30
0
41
1
10
86.3548301528548
20
2.90060265679267
30
0
41
1
10
86.4103757713872
20
3.18388327958056
30
0
41
1
10
86.5214670084516
20
3.7295273606168
30
0
41
1
10
86.5770126269839
20
3.99185114338667
30
0
41
1
10
86.6881038640485
20
4.4858263519171
30
0
41
1
10
86.7436494825806
20
4.71744282280497
30
0
41
1
10
86.8547407196452
20
5.14211335948195
30
0
41
1
10
86.9102863381775
20
5.33514550350372
30
0
41
1
10
87.0213775752419
20
5.67750548007965
30
0
41
1
10
87.0769231937742
20
5.82682883371609
30
0
41
1
10
87.1880144308387
20
6.07978570567454
30
0
41
1
10
87.2435600493709
20
6.18343125477918
30
0
41
1
10
87.3546512864355
20
6.34608150763066
30
0
41
1
10
87.4101969049678
20
6.40510951079676
30
0
41
1
10
87.5212881420322
20
6.48205494310972
30
0
41
1
10
87.5768337605646
20
6.5
30
0
41
1
10
87.6323793790967
20
6.5
30
0
0
SPLINE
5
DB
100
AcDbEntity
8
1
62
256
6
ByLayer
370
13
48
1
60
0
100
AcDbSpline
70
4
71
3
72
78
73
74
40
0
40
0
40
0
40
0
40
0.03125
40
0.03125
40
0.0624999999999999
40
0.0624999999999999
40
0.0937499999999999
40
0.0937499999999999
40
0.125
40
0.125
40
0.15625
40
0.15625
40
0.1875
40
0.1875
40
0.21875
40
0.21875
40
0.234375
40
0.234375
40
0.2421875
40
0.2421875
40
0.25
40
0.25
40
0.28125
40
0.28125
40
0.3125
40
0.3125
40
0.34375
40
0.34375
40
0.375
40
0.375
40
0.40625
40
0.40625
40
0.4375
40
0.4375
40
0.46875
40
0.46875
40
0.499999999999999
40
0.499999999999999
40
0.531249999999999
40
0.531249999999999
40
0.562499999999999
40
0.562499999999999
40
0.593749999999999
40
0.593749999999999
40
0.609374999999999
40
0.609374999999999
40
0.617187499999999
40
0.617187499999999
40
0.624999999999999
40
0.624999999999999
40
0.656249999999999
40
0.656249999999999
40
0.687499999999999
40
0.687499999999999
40
0.718749999999999
40
0.718749999999999
40
0.749999999999999
40
0.749999999999999
40
0.781249999999999
40
0.781249999999999
40
0.8125
40
0.8125
40
0.84375
40
0.84375
40
0.875
40
0.875
40
0.90625
40
0.90625
40
0.9375
40
0.9375
40
0.96875
40
0.96875
40
1
40
1
40
1
40
1
41
1
10
82.3000000000001
20
-3.4647032667001
30
0
41
1
10
82.35033256003
20
-3.71173490730348
30
0
41
1
10
82.40066512006
20
-3.95011361989299
30
0
41
1
10
82.5013302401198
20
-4.40232643430247
30
0
41
1
10
82.5516628001498
20
-4.61613867641631
30
0
41
1
10
82.6523279202098
20
-5.01312947116045
30
0
41
1
10
82.7026604802397
20
-5.19629290015894
30
0
41
1
10
82.8033256002997
20
-5.52766577433641
30
0
41
1
10
82.8536581603296
20
-5.67586950357625
30
0
41
1
10
82.9543232803895
20
-5.93509234065132
30
0
41
1
10
83.0046558404195
20
-6.04611539343716
30
0
41
1
10
83.1053209604794
20
-6.23086105767976
30
0
41
1
10
83.1556535205094
20
-6.30459528103896
30
0
41
1
10
83.2563186405693
20
-6.41651941033703
30
0
41
1
10
83.3066512005993
20
-6.45472529074618
30
0
41
1
10
83.3821500406441
20
-6.4877764392767
30
0
41
1
10
83.4073163206592
20
-6.49476024726329
30
0
41
1
10
83.4450657406817
20
-6.49955435875327
30
0
41
1
10
83.4576488806891
20
-6.5002070358465
30
0
41
1
10
83.4828151607041
20
-6.49967988668618
30
0
41
1
10
83.4953983007116
20
-6.49849307117083
30
0
41
1
10
83.558314000749
20
-6.48778056580591
30
0
41
1
10
83.608646560779
20
-6.46388294743289
30
0
41
1
10
83.7093116808389
20
-6.38180022423217
30
0
41
1
10
83.7596442408689
20
-6.3235983584745
30
0
41
1
10
83.8603093609287
20
-6.17046705531868
30
0
41
1
10
83.9106419209587
20
-6.07552369854255
30
0
41
1
10
84.0113070410187
20
-5.84816771423482
30
0
41
1
10
84.0616396010486
20
-5.71574750948866
30
0
41
1
10
84.1623047211085
20
-5.41473038202594
30
0
41
1
10
84.2126372811385
20
-5.24613492168152
30
0
41
1
10
84.3133024011984
20
-4.87619490317098
30
0
41
1
10
84.3636349612283
20
-4.67486163184049
30
0
41
1
10
84.4643000812883
20
-4.24481819228285
30
0
41
1
10
84.5146326413183
20
-4.01612745786733
30
0
41
1
10
84.6152977613782
20
-3.53821615461732
30
0
41
1
10
84.6656303214081
20
-3.2890194106171
30
0
41
1
10
84.7662954414681
20
-2.77775300225906
30
0
41
1
10
84.816628001498
20
-2.51570692460621
30
0
41
1
10
84.9172931215579
20
-1.98647932565982
30
0
41
1
10
84.9676256815879
20
-1.71931710930826
30
0
41
1
10
85.0682908016478
20
-1.18701733980873
30
0
41
1
10
85.1186233616778
20
-0.921892402685984
30
0
41
1
10
85.1941222017227
20
-0.530295765018565
30
0
41
1
10
85.2192884817377
20
-0.400769222836061
30
0
41
1
10
85.2570379017601
20
-0.208465718335248
30
0
41
1
10
85.2696210417677
20
-0.14469493508102
30
0
41
1
10
85.2947873217826
20
-0.0178856694093099
30
0
41
1
10
85.3073704617901
20
0.0450289385940152
30
0
41
1
10
85.3702861618276
20
0.362572303906205
30
0
41
1
10
85.4206187218575
20
0.622439667197369
30
0
41
1
10
85.5212838419175
20
1.14869654956573
30
0
41
1
10
85.5716164019474
20
1.41507862747656
30
0
41
1
10
85.6722815220072
20
1.94794171360326
30
0
41
1
10
85.7226140820372
20
2.21440806339987
30
0
41
1
10
85.8232792020971
20
2.74006850830423
30
0
41
1
10
85.8736117621272
20
2.99924174521485
30
0
41
1
10
85.974276882187
20
3.50253545731775
30
0
41
1
10
86.0246094422171
20
3.74663181408099
30
0
41
1
10
86.1252745622769
20
4.21226982362208
30
0
41
1
10
86.1756071223069
20
4.43378844424421
30
0
41
1
10
86.2762722423668
20
4.84777264769866
30
0
41
1
10
86.3266048023968
20
5.04022081543988
30
0
41
1
10
86.4272699224567
20
5.3911931620151
30
0
41
1
10
86.4776024824868
20
5.5497087995717
30
0
41
1
10
86.5782676025466
20
5.82997267042691
30
0
41
1
10
86.6286001625765
20
5.95172220569535
30
0
41
1
10
86.7292652826363
20
6.15774794223316
30
0
41
1
10
86.7795978426665
20
6.24203386650689
30
0
41
1
10
86.8802629627264
20
6.37439101388424
30
0
41
1
10
86.9305955227563
20
6.42247733073015
30
0
41
1
10
87.0312606428162
20
6.48527334876141
30
0
41
1
10
87.0815932028461
20
6.5
30
0
41
1
10
87.1319257628761
20
6.5
30
0
0
SPLINE
5
DC
100
AcDbEntity
8
1
62
256
6
ByLayer
370
13
48
1
60
0
100
AcDbSpline
70
4
71
3
72
78
73
74
40
0
40
0
40
0
40
0
40
0.0312500000000012
40
0.0312500000000012
40
0.0625000000000025
40
0.0625000000000025
40
0.0937500000000038
40
0.0937500000000038
40
0.125000000000005
40
0.125000000000005
40
0.140625000000005
40
0.140625000000005
40
0.148437500000005
40
0.148437500000005
40
0.156250000000005
40
0.156250000000005
40
0.187500000000005
40
0.187500000000005
40
0.218750000000005
40
0.218750000000005
40
0.250000000000005
40
0.250000000000005
40
0.281250000000005
40
0.281250000000005
40
0.312500000000004
40
0.312500000000004
40
0.343750000000004
40
0.343750000000004
40
0.375000000000004
40
0.375000000000004
40
0.406250000000004
40
0.406250000000004
40
0.437500000000004
40
0.437500000000004
40
0.468750000000004
40
0.468750000000004
40
0.500000000000004
40
0.500000000000004
40
0.531250000000004
40
0.531250000000004
40
0.562500000000003
40
0.562500000000003
40
0.570312500000003
40
0.570312500000003
40
0.578125000000003
40
0.578125000000003
40
0.593750000000003
40
0.593750000000003
40
0.625000000000002
40
0.625000000000002
40
0.656250000000002
40
0.656250000000002
40
0.687500000000002
40
0.687500000000002
40
0.718750000000002
40
0.718750000000002
40
0.750000000000002
40
0.750000000000002
40
0.781250000000001
40
0.781250000000001
40
0.812500000000001
40
0.812500000000001
40
0.843750000000001
40
0.843750000000001
40
0.875000000000001
40
0.875000000000001
40
0.906250000000001
40
0.906250000000001
40
0.9375
40
0.9375
40
0.96875
40
0.96875
40
1
40
1
40
1
40
1
41
1
10
82.3000000000001
20
-5.51300810921475
30
0
41
1
10
82.3451195015277
20
-5.65159669723081
30
0
41
1
10
82.3902390030554
20
-5.77577790940535
30
0
41
1
10
82.4804780061107
20
-5.99413019611296
30
0
41
1
10
82.5255975076384
20
-6.08830463446785
30
0
41
1
10
82.6158365106937
20
-6.24679030236251
30
0
41
1
10
82.6609560122213
20
-6.31110864159021
30
0
41
1
10
82.7511950152767
20
-6.41121225082071
30
0
41
1
10
82.7963145168044
20
-6.44700679231514
30
0
41
1
10
82.8639937690958
20
-6.48099472763533
30
0
41
1
10
82.8865535198597
20
-6.48904642448807
30
0
41
1
10
82.9203931460055
20
-6.49646572263669
30
0
41
1
10
82.9316730213873
20
-6.49816272957344
30
0
41
1
10
82.9542327721512
20
-6.50005058957498
30
0
41
1
10
82.965512647533
20
-6.50024553203525
30
0
41
1
10
83.0219120244426
20
-6.49752144808903
30
0
41
1
10
83.0670315259703
20
-6.4833729429902
30
0
41
1
10
83.1572705290256
20
-6.42835223816135
30
0
41
1
10
83.2023900305533
20
-6.38747020813366
30
0
41
1
10
83.2926290336085
20
-6.27686901267498
30
0
41
1
10
83.3377485351364
20
-6.20714084699276
30
0
41
1
10
83.4279875381916
20
-6.03771250619229
30
0
41
1
10
83.4731070397193
20
-5.93800579773483
30
0
41
1
10
83.5633460427745
20
-5.70870355333187
30
0
41
1
10
83.6084655443022
20
-5.579105482827
30
0
41
1
10
83.6987045473576
20
-5.29146341668047
30
0
41
1
10
83.7438240488852
20
-5.13342186474122
30
0
41
1
10
83.8340630519406
20
-4.79169988030361
30
0
41
1
10
83.8791825534682
20
-4.60802692859565
30
0
41
1
10
83.9694215565235
20
-4.21906367629006
30
0
41
1
10
84.0145410580511
20
-4.0137849113404
30
0
41
1
10
84.1047800611065
20
-3.58655601043193
30
0
41
1
10
84.1498995626341
20
-3.3646196512183
30
0
41
1
10
84.2401385656895
20
-2.90955862898366
30
0
41
1
10
84.2852580672171
20
-2.6764478143065
30
0
41
1
10
84.3754970702724
20
-2.20463514113382
30
0
41
1
10
84.4206165718001
20
-1.96594523498786
30
0
41
1
10
84.5108555748554
20
-1.48829158779839
30
0
41
1
10
84.5559750763831
20
-1.24933656923238
30
0
41
1
10
84.6462140794385
20
-0.775875261860165
30
0
41
1
10
84.6913335809661
20
-0.541373944132005
30
0
41
1
10
84.7477329578757
20
-0.253478530172032
30
0
41
1
10
84.7590128332575
20
-0.196158893778914
30
0
41
1
10
84.7815725840214
20
-0.0820910296011164
30
0
41
1
10
84.7928524594033
20
-0.0255053970890913
30
0
41
1
10
84.826692085549
20
0.144481684184939
30
0
41
1
10
84.8492518363129
20
0.259013832120758
30
0
41
1
10
84.9169310886043
20
0.605608005800605
30
0
41
1
10
84.9620505901321
20
0.840694247208404
30
0
41
1
10
85.0522895931873
20
1.31492394743265
30
0
41
1
10
85.097409094715
20
1.55406209021638
30
0
41
1
10
85.1876480977703
20
2.0316156079021
30
0
41
1
10
85.232767599298
20
2.27002192986981
30
0
41
1
10
85.3230066023533
20
2.74076059387664
30
0
41
1
10
85.368126103881
20
2.97308074231796
30
0
41
1
10
85.4583651069362
20
3.42604646226968
30
0
41
1
10
85.503484608464
20
3.64667810320543
30
0
41
1
10
85.5937236115193
20
4.07081490883107
30
0
41
1
10
85.638843113047
20
4.27430641326234
30
0
41
1
10
85.7290821161023
20
4.65928183633807
30
0
41
1
10
85.7742016176299
20
4.84075452550061
30
0
41
1
10
85.8644406206853
20
5.17776363961522
30
0
41
1
10
85.909560122213
20
5.33329302020721
30
0
41
1
10
85.9997991252682
20
5.61571956069079
30
0
41
1
10
86.0449186267959
20
5.74261475179517
30
0
41
1
10
86.1351576298512
20
5.96644737138237
30
0
41
1
10
86.1802771313788
20
6.06338775360754
30
0
41
1
10
86.2705161344342
20
6.22733928238853
30
0
41
1
10
86.3156356359619
20
6.29435725718417
30
0
41
1
10
86.4058746390172
20
6.39969506353094
30
0
41
1
10
86.4509941405448
20
6.43802403792114
30
0
41
1
10
86.5412331436002
20
6.48817159043287
30
0
41
1
10
86.5863526451278
20
6.5
30
0
41
1
10
86.6314721466555
20
6.5
30
0
0
SPLINE
5
DD
100
AcDbEntity
8
1
62
256
6
ByLayer
370
13
48
1
60
0
100
AcDbSpline
70
4
71
3
72
64
73
60
40
0
40
0
40
0
40
0
40
0.031250000000002
40
0.031250000000002
40
0.0390625000000021
40
0.0390625000000021
40
0.0468750000000021
40
0.0468750000000021
40
0.0625000000000015
40
0.0625000000000015
40
0.124999999999998
40
0.124999999999998
40
0.187499999999995
40
0.187499999999995
40
0.218749999999993
40
0.218749999999993
40
0.249999999999991
40
0.249999999999991
40
0.281249999999989
40
0.281249999999989
40
0.312499999999987
40
0.312499999999987
40
0.343749999999985
40
0.343749999999985
40
0.374999999999983
40
0.374999999999983
40
0.437499999999979
40
0.437499999999979
40
0.499999999999975
40
0.499999999999975
40
0.515624999999974
40
0.515624999999974
40
0.523437499999974
40
0.523437499999974
40
0.531249999999974
40
0.531249999999974
40
0.562499999999975
40
0.562499999999975
40
0.62499999999998
40
0.62499999999998
40
0.656249999999981
40
0.656249999999981
40
0.687499999999983
40
0.687499999999983
40
0.718749999999985
40
0.718749999999985
40
0.749999999999986
40
0.749999999999986
40
0.781249999999988
40
0.781249999999988
40
0.81249999999999
40
0.81249999999999
40
0.843749999999992
40
0.843749999999992
40
0.874999999999993
40
0.874999999999993
40
0.937499999999997
40
0.937499999999997
40
1
40
1
40
1
40
1
41
1
10
82.3000000000001
20
-6.44544647501317
30
0
41
1
10
82.3399064430254
20
-6.47260814012213
30
0
41
1
10
82.3798128860508
20
-6.48920611403102
30
0
41
1
10
82.4296959398324
20
-6.4979104245528
30
0
41
1
10
82.4396725505888
20
-6.49904999314924
30
0
41
1
10
82.4596257721015
20
-6.50015871623512
30
0
41
1
10
82.4696023828578
20
-6.50013219756414
30
0
41
1
10
82.4995322151269
20
-6.4983065878441
30
0
41
1
10
82.5194854366395
20
-6.49474510743912
30
0
41
1
10
82.6192515442029
20
-6.46458425702383
30
0
41
1
10
82.6990644302537
20
-6.40063396949822
30
0
41
1
10
82.8586902023551
20
-6.18091173381603
30
0
41
1
10
82.9385030884059
20
-6.02499427435276
30
0
41
1
10
83.0582224174819
20
-5.72046392023117
30
0
41
1
10
83.0981288605072
20
-5.60727221312939
30
0
41
1
10
83.1779417465581
20
-5.35847616611014
30
0
41
1
10
83.2178481895834
20
-5.22287283535363
30
0
41
1
10
83.2976610756342
20
-4.93104059082538
30
0
41
1
10
83.3375675186595
20
-4.77481513818975
30
0
41
1
10
83.4173804047102
20
-4.44429780147368
30
0
41
1
10
83.4572868477356
20
-4.27001151031277
30
0
41
1
10
83.5370997337863
20
-3.90656630881213
30
0
41
1
10
83.5770061768116
20
-3.71741445252559
30
0
41
1
10
83.6568190628624
20
-3.32787398534566
30
0
41
1
10
83.6967255058877
20
-3.12749300377885
30
0
41
1
10
83.8164448349638
20
-2.51527605790307
30
0
41
1
10
83.8962577210146
20
-2.09249487859492
30
0
41
1
10
84.0558834931161
20
-1.24753070486329
30
0
41
1
10
84.1356963791667
20
-0.825492954105783
30
0
41
1
10
84.2354624867301
20
-0.313540153563935
30
0
41
1
10
84.2554157082428
20
-0.211909980597682
30
0
41
1
10
84.2853455405118
20
-0.0608265267854051
30
0
41
1
10
84.2953221512682
20
-0.0108440966769479
30
0
41
1
10
84.3152753727809
20
0.0894381362422791
30
0
41
1
10
84.3252519835372
20
0.13981410732319
30
0
41
1
10
84.3751350373189
20
0.392781315327966
30
0
41
1
10
84.4150414803443
20
0.598655729597397
30
0
41
1
10
84.5347608094203
20
1.22293135161237
30
0
41
1
10
84.6145736954711
20
1.64819060806804
30
0
41
1
10
84.7342930245472
20
2.27993568602338
30
0
41
1
10
84.7741994675725
20
2.48943621705891
30
0
41
1
10
84.8540123536233
20
2.90250083778022
30
0
41
1
10
84.8939187966487
20
3.10605797197241
30
0
41
1
10
84.9737316826994
20
3.50336057275493
30
0
41
1
10
85.0136381257246
20
3.69709843360423
30
0
41
1
10
85.0934510117754
20
4.07101873530002
30
0
41
1
10
85.1333574548008
20
4.25119380072633
30
0
41
1
10
85.2131703408515
20
4.59460451429013
30
0
41
1
10
85.2530767838769
20
4.75783393681868
30
0
41
1
10
85.3328896699276
20
5.06453667266763
30
0
41
1
10
85.3727961129529
20
5.20800567983062
30
0
41
1
10
85.4526089990036
20
5.47309894626386
30
0
41
1
10
85.492515442029
20
5.59472127900452
30
0
41
1
10
85.5723283280798
20
5.81485554411591
30
0
41
1
10
85.6122347711051
20
5.91336799907896
30
0
41
1
10
85.7319541001813
20
6.17360718706269
30
0
41
1
10
85.811766986232
20
6.29969950484963
30
0
41
1
10
85.9713927583334
20
6.46281556179326
30
0
41
1
10
86.0512056443841
20
6.5
30
0
41
1
10
86.1310185304349
20
6.5
30
0
0
SPLINE
5
DE
100
AcDbEntity
8
1
62
256
6
ByLayer
370
13
48
1
60
0
100
AcDbSpline
70
4
71
3
72
10
73
6
40
0
40
0
40
0
40
0
40
0.5
40
0.5
40
1
40
1
40
1
40
1
41
1
10
89.3063509937987
20
6.5
30
0
41
1
10
89.3609914077106
20
6.5
30
0
41
1
10
89.4156318216224
20
6.48263681712621
30
0
41
1
10
89.524912649446
20
6.40825688168351
30
0
41
1
10
89.5795530633578
20
6.35121465761296
30
0
41
1
10
89.6341934772697
20
6.27263758832117
30
0
0
SPLINE
5
DF
100
AcDbEntity
8
1
62
256
6
ByLayer
370
13
48
1
60
0
100
AcDbSpline
70
4
71
3
72
44
73
40
40
0
40
0
40
0
40
0
40
0.0625000000000046
40
0.0625000000000046
40
0.125000000000009
40
0.125000000000009
40
0.187500000000014
40
0.187500000000014
40
0.250000000000018
40
0.250000000000018
40
0.312500000000023
40
0.312500000000023
40
0.375000000000028
40
0.375000000000028
40
0.437500000000032
40
0.437500000000032
40
0.445312500000032
40
0.445312500000032
40
0.453125000000033
40
0.453125000000033
40
0.468750000000032
40
0.468750000000032
40
0.50000000000003
40
0.50000000000003
40
0.562500000000027
40
0.562500000000027
40
0.625000000000023
40
0.625000000000023
40
0.687500000000019
40
0.687500000000019
40
0.750000000000015
40
0.750000000000015
40
0.812500000000012
40
0.812500000000012
40
0.875000000000008
40
0.875000000000008
40
0.937500000000004
40
0.937500000000004
40
1
40
1
40
1
40
1
41
1
10
82.3000000000001
20
-6.25996065474925
30
0
41
1
10
82.3693867690462
20
-6.15728518093158
30
0
41
1
10
82.4387735380923
20
-6.01963782575984
30
0
41
1
10
82.5775470761845
20
-5.67320931282947
30
0
41
1
10
82.6469338452307
20
-5.46440427758813
30
0
41
1
10
82.785707383323
20
-4.98188362513204
30
0
41
1
10
82.8550941523691
20
-4.70820964449192
30
0
41
1
10
82.9938676904613
20
-4.10951383418603
30
0
41
1
10
83.0632544595074
20
-3.78459041568888
30
0
41
1
10
83.2020279975998
20
-3.10213260265795
30
0
41
1
10
83.2714147666458
20
-2.74471814387377
30
0
41
1
10
83.4101883047381
20
-2.01776039425036
30
0
41
1
10
83.4795750737842
20
-1.64831721512655
30
0
41
1
10
83.6183486118765
20
-0.916075733158408
30
0
41
1
10
83.6877353809226
20
-0.553332472457271
30
0
41
1
10
83.7657954960995
20
-0.157231550902395
30
0
41
1
10
83.7744688422302
20
-0.11338371630876
30
0
41
1
10
83.7918155344918
20
-0.0260378439747626
30
0
41
1
10
83.8004888806225
20
0.017359041400141
30
0
41
1
10
83.8265089190149
20
0.148308004507499
30
0
41
1
10
83.8438556112764
20
0.236310496180096
30
0
41
1
10
83.895895688061
20
0.502144649221634
30
0
41
1
10
83.9305890725841
20
0.681812457134782
30
0
41
1
10
84.0346692261533
20
1.22553940847328
30
0
41
1
10
84.1040559951994
20
1.59444115000505
30
0
41
1
10
84.2428295332917
20
2.32784473400554
30
0
41
1
10
84.3122163023378
20
2.6922620753466
30
0
41
1
10
84.45098984043
20
3.39656515820735
30
0
41
1
10
84.5203766094762
20
3.73633417167744
30
0
41
1
10
84.6591501475684
20
4.37148921387123
30
0
41
1
10
84.7285369166145
20
4.66676351360175
30
0
41
1
10
84.8673104547067
20
5.1969432966128
30
0
41
1
10
84.9366972237529
20
5.4317826235918
30
0
41
1
10
85.0754707618452
20
5.83178768774778
30
0
41
1
10
85.1448575308913
20
5.996953180064
30
0
41
1
10
85.2836310689835
20
6.25603323204021
30
0
41
1
10
85.3530178380297
20
6.35000356332364
30
0
41
1
10
85.491791376122
20
6.47194586855363
30
0
41
1
10
85.5611781451681
20
6.5
30
0
41
1
10
85.6305649142142
20
6.5
30
0
0
SPLINE
5
E0
100
AcDbEntity
8
1
62
256
6
ByLayer
370
13
48
1
60
0
100
AcDbSpline
70
4
71
3
72
14
73
10
40
0
40
0
40
0
40
0
40
0.25
40
0.25
40
0.5
40
0.5
40
0.75
40
0.75
40
1
40
1
40
1
40
1
41
1
10
88.805897377578
20
6.5
30
0
41
1
10
88.8749220525524
20
6.5
30
0
41
1
10
88.9439467275267
20
6.47223944368324
30
0
41
1
10
89.0819960774753
20
6.35161369887146
30
0
41
1
10
89.1510207524495
20
6.25866840898064
30
0
41
1
10
89.2890701023982
20
6.00240695923659
30
0
41
1
10
89.3580947773725
20
5.83903601832338
30
0
41
1
10
89.4961441273211
20
5.44327030127965
30
0
41
1
10
89.5651688022954
20
5.21087475721103
30
0
41
1
10
89.6341934772697
20
4.94841462685335
30
0
0
SPLINE
5
E1
100
AcDbEntity
8
1
62
256
6
ByLayer
370
13
48
1
60
0
100
AcDbSpline
70
4
71
3
72
42
73
38
40
0
40
0
40
0
40
0
40
0.0625000000000008
40
0.0625000000000008
40
0.125000000000002
40
0.125000000000002
40
0.187500000000002
40
0.187500000000002
40
0.250000000000003
40
0.250000000000003
40
0.312500000000004
40
0.312500000000004
40
0.343750000000004
40
0.343750000000004
40
0.359375000000004
40
0.359375000000004
40
0.375000000000004
40
0.375000000000004
40
0.437500000000003
40
0.437500000000003
40
0.500000000000003
40
0.500000000000003
40
0.562500000000003
40
0.562500000000003
40
0.625000000000002
40
0.625000000000002
40
0.687500000000002
40
0.687500000000002
40
0.750000000000002
40
0.750000000000002
40
0.812500000000001
40
0.812500000000001
40
0.875000000000001
40
0.875000000000001
40
0.937500000000001
40
0.937500000000001
40
1
40
1
40
1
40
1
41
1
10
82.3000000000001
20
-4.91521741531778
30
0
41
1
10
82.3589606520416
20
-4.6889004495323
30
0
41
1
10
82.4179213040831
20
-4.44093085822749
30
0
41
1
10
82.5358426081661
20
-3.91118527711936
30
0
41
1
10
82.5948032602077
20
-3.62945733472805
30
0
41
1
10
82.7127245642908
20
-3.04403025045008
30
0
41
1
10
82.7716852163323
20
-2.74038437832786
30
0
41
1
10
82.8896065204154
20
-2.12366021908286
30
0
41
1
10
82.9485671724569
20
-1.81062718159222
30
0
41
1
10
83.06648847654
20
-1.18684441376618
30
0
41
1
10
83.1254491285815
20
-0.876123399254823
30
0
41
1
10
83.2138901066438
20
-0.41907147831418
30
0
41
1
10
83.2433704326646
20
-0.268207852560494
30
0
41
1
10
83.2875909216957
20
-0.0448783793578968
30
0
41
1
10
83.3023310847061
20
0.0287772293972637
30
0
41
1
10
83.3318114107269
20
0.177520189440173
30
0
41
1
10
83.3465515737373
20
0.252388781436338
30
0
41
1
10
83.4202523887891
20
0.628925453298393
30
0
41
1
10
83.4792130408307
20
0.937271551698302
30
0
41
1
10
83.5971343449138
20
1.55913705824662
30
0
41
1
10
83.6560949969552
20
1.87263276083706
30
0
41
1
10
83.7740163010383
20
2.49355262113809
30
0
41
1
10
83.8329769530799
20
2.80093540020351
30
0
41
1
10
83.950898257163
20
3.39719461429579
30
0
41
1
10
84.0098589092045
20
3.68601875416641
30
0
41
1
10
84.1277802132876
20
4.23297404708512
30
0
41
1
10
84.1867408653291
20
4.49105436584429
30
0
41
1
10
84.3046621694122
20
4.96618232404663
30
0
41
1
10
84.3636228214536
20
5.18319412712992
30
0
41
1
10
84.4815441255366
20
5.56904300814873
30
0
41
1
10
84.5405047775782
20
5.73786811097523
30
0
41
1
10
84.6584260816613
20
6.02414375821326
30
0
41
1
10
84.7173867337028
20
6.14160677187203
30
0
41
1
10
84.8353080377859
20
6.3258871788457
30
0
41
1
10
84.8942686898274
20
6.39273454045471
30
0
41
1
10
85.0121899939105
20
6.47977240975425
30
0
41
1
10
85.0711506459521
20
6.5
30
0
41
1
10
85.1301112979936
20
6.5
30
0
0
SPLINE
5
E2
100
AcDbEntity
8
1
62
256
6
ByLayer
370
13
48
1
60
0
100
AcDbSpline
70
4
71
3
72
22
73
18
40
0
40
0
40
0
40
0
40
0.125
40
0.125
40
0.25
40
0.25
40
0.375
40
0.375
40
0.5
40
0.5
40
0.625
40
0.625
40
0.75
40
0.75
40
0.875
40
0.875
40
1
40
1
40
1
40
1
41
1
10
88.3054437613574
20
6.5
30
0
41
1
10
88.3608083328537
20
6.5
30
0
41
1
10
88.4161729043502
20
6.48217209699138
30
0
41
1
10
88.5269020473428
20
6.40574344682199
30
0
41
1
10
88.5822666188392
20
6.34711551423447
30
0
41
1
10
88.6929957618319
20
6.1855724690692
30
0
41
1
10
88.7483603333283
20
6.08263438199512
30
0
41
1
10
88.8590894763209
20
5.83138758212425
30
0
41
1
10
88.9144540478172
20
5.68306689323231
30
0
41
1
10
89.0251831908099
20
5.34295270434052
30
0
41
1
10
89.0805477623063
20
5.15116338143528
30
0
41
1
10
89.191276905299
20
4.72912496461086
30
0
41
1
10
89.2466414767953
20
4.49889718028322
30
0
41
1
10
89.357370619788
20
4.00772658601892
30
0
41
1
10
89.4127351912844
20
3.74681798724166
30
0
41
1
10
89.523464334277
20
3.20390815505147
30
0
41
1
10
89.5788289057733
20
2.92194595424365
30
0
41
1
10
89.6341934772697
20
2.63462127028851
30
0
0
SPLINE
5
E3
100
AcDbEntity
8
1
62
256
6
ByLayer
370
13
48
1
60
0
100
AcDbSpline
70
4
71
3
72
42
73
38
40
0
40
0
40
0
40
0
40
0.0625000000000032
40
0.0625000000000032
40
0.125000000000006
40
0.125000000000006
40
0.18750000000001
40
0.18750000000001
40
0.203125000000009
40
0.203125000000009
40
0.218750000000009
40
0.218750000000009
40
0.250000000000009
40
0.250000000000009
40
0.312500000000008
40
0.312500000000008
40
0.375000000000007
40
0.375000000000007
40
0.437500000000007
40
0.437500000000007
40
0.500000000000006
40
0.500000000000006
40
0.562500000000005
40
0.562500000000005
40
0.625000000000005
40
0.625000000000005
40
0.687500000000004
40
0.687500000000004
40
0.750000000000003
40
0.750000000000003
40
0.812500000000002
40
0.812500000000002
40
0.875000000000002
40
0.875000000000002
40
0.937500000000001
40
0.937500000000001
40
1
40
1
40
1
40
1
41
1
10
82.3000000000001
20
-2.58948304398484
30
0
41
1
10
82.348534535037
20
-2.33712466186373
30
0
41
1
10
82.3970690700739
20
-2.08087221550116
30
0
41
1
10
82.4941381401478
20
-1.56725676448073
30
0
41
1
10
82.5426726751848
20
-1.30990701513133
30
0
41
1
10
82.6397417452586
20
-0.800063691140394
30
0
41
1
10
82.6882762802956
20
-0.54757760085792
30
0
41
1
10
82.7489444490917
20
-0.238071421694343
30
0
41
1
10
82.7610780828509
20
-0.176472430913549
30
0
41
1
10
82.7853453503694
20
-0.0539438584688696
30
0
41
1
10
82.7974789841288
20
0.0067529740591397
30
0
41
1
10
82.8338798854064
20
0.19002164687268
30
0
41
1
10
82.8581471529249
20
0.313573908277192
30
0
41
1
10
82.9309489554802
20
0.687557488751679
30
0
41
1
10
82.9794834905171
20
0.94135040890319
30
0
41
1
10
83.076552560591
20
1.45277600204989
30
0
41
1
10
83.1250870956279
20
1.71040010638242
30
0
41
1
10
83.2221561657018
20
2.22336522740031
30
0
41
1
10
83.2706907007388
20
2.47869199011242
30
0
41
1
10
83.3677597708126
20
2.98026729874471
30
0
41
1
10
83.4162943058495
20
3.22649723270453
30
0
41
1
10
83.5133633759235
20
3.70291110050255
30
0
41
1
10
83.5618979109603
20
3.93307477317421
30
0
41
1
10
83.6589669810343
20
4.37081051296701
30
0
41
1
10
83.7075015160712
20
4.57836420414287
30
0
41
1
10
83.8045705861451
20
4.96535024075274
30
0
41
1
10
83.853105121182
20
5.14476947278524
30
0
41
1
10
83.9501741912559
20
5.47145751002722
30
0
41
1
10
83.9987087262927
20
5.61872066054335
30
0
41
1
10
84.0957777963666
20
5.87885664033098
30
0
41
1
10
84.1443123314035
20
5.99173167706633
30
0
41
1
10
84.2413814014774
20
6.18269219516927
30
0
41
1
10
84.2899159365144
20
6.26078640843107
30
0
41
1
10
84.3869850065882
20
6.3834559859261
30
0
41
1
10
84.4355195416252
20
6.42804415021604
30
0
41
1
10
84.5325886116991
20
6.48630908501522
30
0
41
1
10
84.5811231467361
20
6.5
30
0
41
1
10
84.6296576817729
20
6.5
30
0
0
SPLINE
5
E4
100
AcDbEntity
8
1
62
256
6
ByLayer
370
13
48
1
60
0
100
AcDbSpline
70
4
71
3
72
22
73
18
40
0
40
0
40
0
40
0
40
0.125
40
0.125
40
0.25
40
0.25
40
0.375
40
0.375
40
0.5
40
0.5
40
0.625
40
0.625
40
0.75
40
0.75
40
0.875
40
0.875
40
1
40
1
40
1
40
1
41
1
10
87.8049901451368
20
6.5
30
0
41
1
10
87.8812069506423
20
6.5
30
0
41
1
10
87.9574237561479
20
6.46611300676858
30
0
41
1
10
88.109857367159
20
6.31791421793358
30
0
41
1
10
88.1860741726646
20
6.20347336205936
30
0
41
1
10
88.3385077836756
20
5.88827265676898
30
0
41
1
10
88.4147245891811
20
5.68743853007899
30
0
41
1
10
88.5671582001922
20
5.20385369218141
30
0
41
1
10
88.6433750056977
20
4.92113498673402
30
0
41
1
10
88.7958086167089
20
4.28928155555013
30
0
41
1
10
88.8720254222143
20
3.94028719517146
30
0
41
1
10
89.0244590332254
20
3.1998398918733
30
0
41
1
10
89.100675838731
20
2.80857755625226
30
0
41
1
10
89.2531094497419
20
2.01077433753178
30
0
41
1
10
89.3293262552475
20
1.60439462781656
30
0
41
1
10
89.4817598662586
20
0.801183777950996
30
0
41
1
10
89.5579766717643
20
0.404434937625325
30
0
41
1
10
89.6341934772697
20
0.0217986601201403
30
0
0
SPLINE
5
E5
100
AcDbEntity
8
1
62
256
6
ByLayer
370
13
48
1
60
0
100
AcDbSpline
70
4
71
3
72
22
73
18
40
0
40
0
40
0
40
0
40
0.125
40
0.125
40
0.25
40
0.25
40
0.375
40
0.375
40
0.5
40
0.5
40
0.625
40
0.625
40
0.75
40
0.75
40
0.875
40
0.875
40
1
40
1
40
1
40
1
41
1
10
82.3000000000001
20
0.0217949780869162
30
0
41
1
10
82.3762168360647
20
0.404431320380894
30
0
41
1
10
82.4524336721295
20
0.801180261077889
30
0
41
1
10
82.6048673442588
20
1.6043913816923
30
0
41
1
10
82.6810841803235
20
2.01077126186308
30
0
41
1
10
82.8335178524528
20
2.80857487409307
30
0
41
1
10
82.9097346885175
20
3.19983743259678
30
0
41
1
10
83.0621683606469
20
3.94028520121071
30
0
41
1
10
83.1383851967115
20
4.28927980362525
30
0
41
1
10
83.2908188688408
20
4.92113369855772
30
0
41
1
10
83.3670357049054
20
5.20385262529845
30
0
41
1
10
83.5194693770349
20
5.68743785192089
30
0
41
1
10
83.5956862130995
20
5.88827214583591
30
0
41
1
10
83.7481198852289
20
6.20347311471366
30
0
41
1
10
83.8243367212935
20
6.31791406702843
30
0
41
1
10
83.976770393423
20
6.46611297941271
30
0
41
1
10
84.0529872294876
20
6.5
30
0
41
1
10
84.1292040655522
20
6.5
30
0
0
SPLINE
5
E6
100
AcDbEntity
8
1
62
256
6
ByLayer
370
13
48
1
60
0
100
AcDbSpline
70
4
71
3
72
42
73
38
40
0
40
0
40
0
40
0
40
0.0624999999999996
40
0.0624999999999996
40
0.124999999999999
40
0.124999999999999
40
0.187499999999999
40
0.187499999999999
40
0.249999999999999
40
0.249999999999999
40
0.312499999999998
40
0.312499999999998
40
0.374999999999998
40
0.374999999999998
40
0.437499999999997
40
0.437499999999997
40
0.499999999999997
40
0.499999999999997
40
0.562499999999996
40
0.562499999999996
40
0.624999999999996
40
0.624999999999996
40
0.687499999999995
40
0.687499999999995
40
0.749999999999995
40
0.749999999999995
40
0.781249999999994
40
0.781249999999994
40
0.796874999999994
40
0.796874999999994
40
0.812499999999993
40
0.812499999999993
40
0.874999999999996
40
0.874999999999996
40
0.937499999999998
40
0.937499999999998
40
1
40
1
40
1
40
1
41
1
10
87.3045365289162
20
6.5
30
0
41
1
10
87.3530710486736
20
6.5
30
0
41
1
10
87.4016055684309
20
6.48630909365519
30
0
41
1
10
87.4986746079456
20
6.4280441966047
30
0
41
1
10
87.547209127703
20
6.38345606144563
30
0
41
1
10
87.6442781672177
20
6.26078656462343
30
0
41
1
10
87.6928126869751
20
6.1826924029219
30
0
41
1
10
87.7898817264899
20
5.99173201037476
30
0
41
1
10
87.8384162462472
20
5.87885704764349
30
0
41
1
10
87.935485285762
20
5.61872123597809
30
0
41
1
10
87.9840198055193
20
5.47145817957423
30
0
41
1
10
88.0810888450339
20
5.14477034594958
30
0
41
1
10
88.1296233647914
20
4.96535122340072
30
0
41
1
10
88.2266924043062
20
4.57836541444115
30
0
41
1
10
88.2752269240634
20
4.37081184139885
30
0
41
1
10
88.3722959635782
20
3.93307633869554
30
0
41
1
10
88.4208304833355
20
3.70291278494287
30
0
41
1
10
88.5178995228503
20
3.22649914787749
30
0
41
1
10
88.5664340426076
20
2.9802693256994
30
0
41
1
10
88.6635030821224
20
2.47869422659755
30
0
41
1
10
88.7120376018798
20
2.22336756161397
30
0
41
1
10
88.8091066413945
20
1.71040261689598
30
0
41
1
10
88.8576411611517
20
1.45277859112895
30
0
41
1
10
88.9547102006665
20
0.941353133030077
30
0
41
1
10
89.0032447204239
20
0.68756026936768
30
0
41
1
10
89.0760465000599
20
0.313576756499657
30
0
41
1
10
89.1003137599387
20
0.190024514792299
30
0
41
1
10
89.1367146497567
20
0.0067558673273425
30
0
41
1
10
89.148848279696
20
-0.0539409375668356
30
0
41
1
10
89.1731155395747
20
-0.176469449954141
30
0
41
1
10
89.185249169514
20
-0.238068410997613
30
0
41
1
10
89.2459173192108
20
-0.547574443275806
30
0
41
1
10
89.2944518389681
20
-0.800060421777545
30
0
41
1
10
89.3915208784829
20
-1.30990354315387
30
0
41
1
10
89.4400553982402
20
-1.56725320170682
30
0
41
1
10
89.537124437755
20
-2.08086850197097
30
0
41
1
10
89.5856589575124
20
-2.33712088842049
30
0
41
1
10
89.6341934772697
20
-2.58947923052438
30
0
0
SPLINE
5
E7
100
AcDbEntity
8
1
62
256
6
ByLayer
370
13
48
1
60
0
100
AcDbSpline
70
4
71
3
72
22
73
18
40
0
40
0
40
0
40
0
40
0.125
40
0.125
40
0.25
40
0.25
40
0.375
40
0.375
40
0.5
40
0.5
40
0.625
40
0.625
40
0.75
40
0.75
40
0.875
40
0.875
40
1
40
1
40
1
40
1
41
1
10
82.3000000000001
20
2.6346174640729
30
0
41
1
10
82.3553646020555
20
2.92194235396479
30
0
41
1
10
82.410729204111
20
3.20390477762081
30
0
41
1
10
82.5214584082219
20
3.74681507169399
30
0
41
1
10
82.5768230102775
20
4.00772390939781
30
0
41
1
10
82.6875522143885
20
4.49889497696836
30
0
41
1
10
82.7429168164439
20
4.72912299555097
30
0
41
1
10
82.8536460205549
20
5.15116185625686
30
0
41
1
10
82.9090106226104
20
5.34295138868634
30
0
41
1
10
83.0197398267213
20
5.68306595612461
30
0
41
1
10
83.0751044287769
20
5.83138681398862
30
0
41
1
10
83.1858336328878
20
6.08263390202225
30
0
41
1
10
83.2411982349433
20
6.18557210829653
30
0
41
1
10
83.3519274390542
20
6.34711534001326
30
0
41
1
10
83.4072920411097
20
6.40574334000664
30
0
41
1
10
83.5180212452207
20
6.48217207724954
30
0
41
1
10
83.5733858472761
20
6.5
30
0
41
1
10
83.6287504493316
20
6.5
30
0
0
SPLINE
5
E8
100
AcDbEntity
8
1
62
256
6
ByLayer
370
13
48
1
60
0
100
AcDbSpline
70
4
71
3
72
42
73
38
40
0
40
0
40
0
40
0
40
0.0624999999999999
40
0.0624999999999999
40
0.125
40
0.125
40
0.1875
40
0.1875
40
0.25
40
0.25
40
0.3125
40
0.3125
40
0.375
40
0.375
40
0.4375
40
0.4375
40
0.499999999999999
40
0.499999999999999
40
0.562499999999999
40
0.562499999999999
40
0.624999999999999
40
0.624999999999999
40
0.640625
40
0.640625
40
0.65625
40
0.65625
40
0.6875
40
0.6875
40
0.75
40
0.75
40
0.8125
40
0.8125
40
0.875
40
0.875
40
0.9375
40
0.9375
40
1
40
1
40
1
40
1
41
1
10
86.8040829126955
20
6.5
30
0
41
1
10
86.8630435494575
20
6.5
30
0
41
1
10
86.9220041862195
20
6.47977242027596
30
0
41
1
10
87.0399254597433
20
6.3927345976002
30
0
41
1
10
87.0988860965053
20
6.32588727214051
30
0
41
1
10
87.2168073700292
20
6.14160696511323
30
0
41
1
10
87.2757680067912
20
6.02414401528364
30
0
41
1
10
87.3936892803151
20
5.73786852159611
30
0
41
1
10
87.4526499170771
20
5.56904350848984
30
0
41
1
10
87.5705711906011
20
5.18319482669494
30
0
41
1
10
87.6295318273629
20
4.96618313307326
30
0
41
1
10
87.7474531008869
20
4.4910554037485
30
0
41
1
10
87.8064137376489
20
4.23297520433238
30
0
41
1
10
87.9243350111727
20
3.68602014828733
30
0
41
1
10
87.9832956479348
20
3.3971961258685
30
0
41
1
10
88.1012169214587
20
2.80093713354495
30
0
41
1
10
88.1601775582207
20
2.49355445873877
30
0
41
1
10
88.2780988317445
20
1.87263478508834
30
0
41
1
10
88.3370594685065
20
1.55913916486784
30
0
41
1
10
88.4549807420304
20
0.937273796277424
30
0
41
1
10
88.5139413787924
20
0.628927753478479
30
0
41
1
10
88.5876421747449
20
0.252391133759829
30
0
41
1
10
88.6023823339353
20
0.177522551333112
30
0
41
1
10
88.6318626523163
20
0.0287796087275183
30
0
41
1
10
88.6466028115069
20
-0.044875978601965
30
0
41
1
10
88.6908232890783
20
-0.268205361757765
30
0
41
1
10
88.7203036074593
20
-0.419068928898667
30
0
41
1
10
88.8087445626022
20
-0.876120680758646
30
0
41
1
10
88.8677051993642
20
-1.18684159154438
30
0
41
1
10
88.9856264728882
20
-1.81062418432694
30
0
41
1
10
89.0445871096501
20
-2.12365715059462
30
0
41
1
10
89.162508383174
20
-2.74038121371129
30
0
41
1
10
89.221469019936
20
-3.04402706103158
30
0
41
1
10
89.3393902934599
20
-3.62945415221648
30
0
41
1
10
89.3983509302219
20
-3.91118212639205
30
0
41
1
10
89.5162722037458
20
-4.44092783122653
30
0
41
1
10
89.5752328405077
20
-4.6888975144879
30
0
41
1
10
89.6341934772697
20
-4.91521460013007
30
0
0
SPLINE
5
E9
100
AcDbEntity
8
1
62
256
6
ByLayer
370
13
48
1
60
0
100
AcDbSpline
70
4
71
3
72
14
73
10
40
0
40
0
40
0
40
0
40
0.25
40
0.25
40
0.5
40
0.5
40
0.75
40
0.75
40
1
40
1
40
1
40
1
41
1
10
82.3000000000001
20
4.94841183809106
30
0
41
1
10
82.3690247360927
20
5.21087241168922
30
0
41
1
10
82.4380494721852
20
5.44326836739225
30
0
41
1
10
82.5760989443704
20
5.83903479831298
30
0
41
1
10
82.6451236804629
20
6.00240604130258
30
0
41
1
10
82.783173152648
20
6.25866796546532
30
0
41
1
10
82.8521978887407
20
6.35161342786537
30
0
41
1
10
82.9902473609259
20
6.47223939426297
30
0
41
1
10
83.0592720970184
20
6.5
30
0
41
1
10
83.128296833111
20
6.5
30
0
0
SPLINE
5
EA
100
AcDbEntity
8
1
62
256
6
ByLayer
370
13
48
1
60
0
100
AcDbSpline
70
4
71
3
72
44
73
40
40
0
40
0
40
0
40
0
40
0.062500000000003
40
0.062500000000003
40
0.125000000000006
40
0.125000000000006
40
0.187500000000009
40
0.187500000000009
40
0.250000000000012
40
0.250000000000012
40
0.312500000000015
40
0.312500000000015
40
0.375000000000018
40
0.375000000000018
40
0.437500000000021
40
0.437500000000021
40
0.500000000000024
40
0.500000000000024
40
0.531250000000025
40
0.531250000000025
40
0.546875000000026
40
0.546875000000026
40
0.554687500000026
40
0.554687500000026
40
0.562500000000026
40
0.562500000000026
40
0.625000000000022
40
0.625000000000022
40
0.687500000000018
40
0.687500000000018
40
0.750000000000015
40
0.750000000000015
40
0.812500000000011
40
0.812500000000011
40
0.875000000000007
40
0.875000000000007
40
0.937500000000004
40
0.937500000000004
40
1
40
1
40
1
40
1
41
1
10
86.3036292964749
20
6.5
30
0
41
1
10
86.3730160502415
20
6.5
30
0
41
1
10
86.4424028040081
20
6.47194588097503
30
0
41
1
10
86.5811763115411
20
6.35000363146051
30
0
41
1
10
86.6505630653077
20
6.25603334355878
30
0
41
1
10
86.7893365728409
20
5.99695341085544
30
0
41
1
10
86.8587233266074
20
5.83178799447225
30
0
41
1
10
86.9974968341405
20
5.43178310962855
30
0
41
1
10
87.066883587907
20
5.19694388598484
30
0
41
1
10
87.2056570954401
20
4.66676432523192
30
0
41
1
10
87.2750438492067
20
4.37149014429843
30
0
41
1
10
87.4138173567398
20
3.73633533924996
30
0
41
1
10
87.4832041105063
20
3.39656644397647
30
0
41
1
10
87.6219776180395
20
2.69226358126321
30
0
41
1
10
87.691364371806
20
2.32784634176664
30
0
41
1
10
87.8301378793391
20
1.5944429337826
30
0
41
1
10
87.8995246331057
20
1.22554126639855
30
0
41
1
10
88.0036047637556
20
0.681814401773806
30
0
41
1
10
88.0382981406389
20
0.50214661873224
30
0
41
1
10
88.0903382059638
20
0.236312496913484
30
0
41
1
10
88.1076848944055
20
0.148310014637161
30
0
41
1
10
88.1337049270679
20
0.0173610641259643
30
0
41
1
10
88.1423782712886
20
-0.0260358106043554
30
0
41
1
10
88.1597249597303
20
-0.113381652769249
30
0
41
1
10
88.1683983039511
20
-0.157229472376542
30
0
41
1
10
88.2464584019385
20
-0.553330260094413
30
0
41
1
10
88.3158451557051
20
-0.916073409117388
30
0
41
1
10
88.4546186632382
20
-1.64831470178956
30
0
41
1
10
88.5240054170048
20
-2.01775780346515
30
0
41
1
10
88.6627789245379
20
-2.74471545193913
30
0
41
1
10
88.7321656783045
20
-3.10212988721997
30
0
41
1
10
88.8709391858376
20
-3.78458772093313
30
0
41
1
10
88.9403259396041
20
-4.1095111837478
30
0
41
1
10
89.0790994471372
20
-4.70820715324612
30
0
41
1
10
89.1484862009039
20
-4.98188124874767
30
0
41
1
10
89.2872597084369
20
-5.4644021912506
30
0
41
1
10
89.3566464622035
20
-5.67320740151806
30
0
41
1
10
89.4954199697365
20
-6.01963630417336
30
0
41
1
10
89.5648067235031
20
-6.15728387382154
30
0
41
1
10
89.6341934772697
20
-6.25995956946645
30
0
0
SPLINE
5
EB
100
AcDbEntity
8
1
62
256
6
ByLayer
370
13
48
1
60
0
100
AcDbSpline
70
4
71
3
72
10
73
6
40
0
40
0
40
0
40
0
40
0.5
40
0.5
40
1
40
1
40
1
40
1
41
1
10
82.3000000000001
20
6.27263653360711
30
0
41
1
10
82.3546405361484
20
6.35121397063702
30
0
41
1
10
82.4092810722969
20
6.40825646041571
30
0
41
1
10
82.5185621445936
20
6.48263673920539
30
0
41
1
10
82.5732026807419
20
6.5
30
0
41
1
10
82.6278432168904
20
6.5
30
0
0
SPLINE
5
EC
100
AcDbEntity
8
1
62
256
6
ByLayer
370
13
48
1
60
0
100
AcDbSpline
70
4
71
3
72
64
73
60
40
0
40
0
40
0
40
0
40
0.0625000000000009
40
0.0625000000000009
40
0.125000000000002
40
0.125000000000002
40
0.156250000000002
40
0.156250000000002
40
0.187500000000002
40
0.187500000000002
40
0.218750000000002
40
0.218750000000002
40
0.250000000000003
40
0.250000000000003
40
0.281250000000003
40
0.281250000000003
40
0.312500000000003
40
0.312500000000003
40
0.343750000000003
40
0.343750000000003
40
0.375000000000003
40
0.375000000000003
40
0.437500000000004
40
0.437500000000004
40
0.468750000000004
40
0.468750000000004
40
0.476562500000003
40
0.476562500000003
40
0.484375000000003
40
0.484375000000003
40
0.500000000000004
40
0.500000000000004
40
0.562500000000004
40
0.562500000000004
40
0.625000000000005
40
0.625000000000005
40
0.656250000000005
40
0.656250000000005
40
0.687500000000005
40
0.687500000000005
40
0.718750000000005
40
0.718750000000005
40
0.750000000000005
40
0.750000000000005
40
0.781250000000005
40
0.781250000000005
40
0.812500000000005
40
0.812500000000005
40
0.875000000000004
40
0.875000000000004
40
0.937500000000003
40
0.937500000000003
40
0.953125000000004
40
0.953125000000004
40
0.960937500000003
40
0.960937500000003
40
0.968750000000003
40
0.968750000000003
40
1
40
1
40
1
40
1
41
1
10
85.8031756802542
20
6.5
30
0
41
1
10
85.8829885510254
20
6.5
30
0
41
1
10
85.9628014217966
20
6.46281557613725
30
0
41
1
10
86.122427163339
20
6.29969958418761
30
0
41
1
10
86.20224003411
20
6.1736073171964
30
0
41
1
10
86.3219593402667
20
5.91336823293693
30
0
41
1
10
86.3618657756524
20
5.81485581706278
30
0
41
1
10
86.4416786464235
20
5.59472163820303
30
0
41
1
10
86.481585081809
20
5.47309935262336
30
0
41
1
10
86.5613979525803
20
5.2080061869726
30
0
41
1
10
86.6013043879658
20
5.06453723342639
30
0
41
1
10
86.6811172587369
20
4.75783460909381
30
0
41
1
10
86.7210236941226
20
4.59460524445777
30
0
41
1
10
86.8008365648936
20
4.25119464839935
30
0
41
1
10
86.8407430002793
20
4.07101964257754
30
0
41
1
10
86.9205558710504
20
3.69709945909989
30
0
41
1
10
86.9604623064361
20
3.50336165685596
30
0
41
1
10
87.0402751772071
20
3.10605916968805
30
0
41
1
10
87.0801816125927
20
2.9025020904983
30
0
41
1
10
87.1599944833639
20
2.48943757391731
30
0
41
1
10
87.1999009187494
20
2.27993709201522
30
0
41
1
10
87.3196202249062
20
1.64819215002461
30
0
41
1
10
87.3994330956774
20
1.22293296865098
30
0
41
1
10
87.519152401834
20
0.598657430847311
30
0
41
1
10
87.5590588372196
20
0.392783039992025
30
0
41
1
10
87.6089418814515
20
0.139815855446358
30
0
41
1
10
87.618918490298
20
0.089439888768112
30
0
41
1
10
87.6388717079907
20
-0.0108423359191647
30
0
41
1
10
87.6488483168372
20
-0.0608247485320135
30
0
41
1
10
87.6787781433765
20
-0.211908157282181
30
0
41
1
10
87.6987313610691
20
-0.313538300683177
30
0
41
1
10
87.7984974495331
20
-0.8254909567205
30
0
41
1
10
87.8783103203042
20
-1.24752860242063
30
0
41
1
10
88.0379360618466
20
-2.09249261346471
30
0
41
1
10
88.1177489326178
20
-2.5152737354704
30
0
41
1
10
88.2374682387745
20
-3.12749064886674
30
0
41
1
10
88.2773746741601
20
-3.3278716284625
30
0
41
1
10
88.3571875449312
20
-3.7174121112111
30
0
41
1
10
88.3970939803168
20
-3.90656398504421
30
0
41
1
10
88.4769068510878
20
-4.270009241878
30
0
41
1
10
88.5168132864735
20
-4.44429557082785
30
0
41
1
10
88.5966261572446
20
-4.7748130028576
30
0
41
1
10
88.6365325926303
20
-4.93103851301515
30
0
41
1
10
88.7163454634014
20
-5.22287089059009
30
0
41
1
10
88.756251898787
20
-5.35847429686385
30
0
41
1
10
88.8360647695581
20
-5.60727051011597
30
0
41
1
10
88.8759712049438
20
-5.7204623079225
30
0
41
1
10
88.9956905111005
20
-6.02499295156605
30
0
41
1
10
89.0755033818716
20
-6.18091062724895
30
0
41
1
10
89.2351291234139
20
-6.40063330936906
30
0
41
1
10
89.3149419941851
20
-6.46458382680896
30
0
41
1
10
89.414708082649
20
-6.49474495515869
30
0
41
1
10
89.4346613003418
20
-6.49830649069833
30
0
41
1
10
89.464591126881
20
-6.50013218217723
30
0
41
1
10
89.4745677357274
20
-6.50015872773116
30
0
41
1
10
89.4945209534202
20
-6.49905005997394
30
0
41
1
10
89.5044975622666
20
-6.49791051965079
30
0
41
1
10
89.5543806064985
20
-6.48920635352508
30
0
41
1
10
89.5942870418841
20
-6.47260850487564
30
0
41
1
10
89.6341934772697
20
-6.44544697420181
30
0
0
SPLINE
5
ED
100
AcDbEntity
8
1
62
256
6
ByLayer
370
13
48
1
60
0
100
AcDbSpline
70
4
71
3
72
77
73
73
40
0
40
0
40
0
40
0
40
0.0312499999999992
40
0.0312499999999992
40
0.0624999999999984
40
0.0624999999999984
40
0.0937499999999976
40
0.0937499999999976
40
0.124999999999997
40
0.124999999999997
40
0.156249999999996
40
0.156249999999996
40
0.187499999999995
40
0.187499999999995
40
0.218749999999994
40
0.218749999999994
40
0.249999999999994
40
0.249999999999994
40
0.281249999999993
40
0.281249999999993
40
0.312499999999992
40
0.312499999999992
40
0.343749999999991
40
0.343749999999991
40
0.37499999999999
40
0.37499999999999
40
0.406249999999989
40
0.406249999999989
40
0.421874999999989
40
0.421874999999989
40
0.429687499999989
40
0.429687499999989
40
0.437499999999989
40
0.437499999999989
40
0.46874999999999
40
0.46874999999999
40
0.499999999999991
40
0.499999999999991
40
0.531249999999991
40
0.531249999999991
40
0.562499999999992
40
0.562499999999992
40
0.593749999999992
40
0.593749999999992
40
0.624999999999993
40
0.624999999999993
40
0.656249999999994
40
0.656249999999994
40
0.687499999999994
40
0.687499999999994
40
0.718749999999995
40
0.718749999999995
40
0.749999999999996
40
0.749999999999996
40
0.781249999999996
40
0.781249999999996
40
0.812499999999997
40
0.812499999999997
40
0.843749999999998
40
0.843749999999998
40
0.851562499999998
40
0.851562499999998
40
0.859374999999998
40
0.874999999999998
40
0.874999999999998
40
0.906249999999998
40
0.906249999999998
40
0.937499999999999
40
0.937499999999999
40
0.968749999999999
40
0.968749999999999
40
1
40
1
40
1
40
1
41
1
10
85.3027220640336
20
6.5
30
0
41
1
10
85.3478415579215
20
6.5
30
0
41
1
10
85.3929610518094
20
6.48817159444624
30
0
41
1
10
85.4832000395851
20
6.43802405938121
30
0
41
1
10
85.528319533473
20
6.39969509843269
30
0
41
1
10
85.6185585212487
20
6.29435732929929
30
0
41
1
10
85.6636780151366
20
6.22733937828258
30
0
41
1
10
85.7539170029124
20
6.0633879075609
30
0
41
1
10
85.7990364968003
20
5.96644755962026
30
0
41
1
10
85.889275484576
20
5.74261501835829
30
0
41
1
10
85.9343949784638
20
5.61571987129403
30
0
41
1
10
86.0246339662397
20
5.333293426925
30
0
41
1
10
86.0697534601275
20
5.17776409840141
30
0
41
1
10
86.1599924479032
20
4.84075509385752
30
0
41
1
10
86.2051119417911
20
4.65928246218641
30
0
41
1
10
86.2953509295668
20
4.2743071563057
30
0
41
1
10
86.3404704234548
20
4.07081571156442
30
0
41
1
10
86.4307094112305
20
3.64667902406225
30
0
41
1
10
86.4758289051184
20
3.42604744154653
30
0
41
1
10
86.566067892894
20
2.9730818338781
30
0
41
1
10
86.6111873867819
20
2.7407617392895
30
0
41
1
10
86.7014263745579
20
2.2700231756682
30
0
41
1
10
86.7465458684457
20
2.03161690022739
30
0
41
1
10
86.8367848562214
20
1.55406346630266
30
0
41
1
10
86.8819043501093
20
1.31492536075203
30
0
41
1
10
86.972143337885
20
0.840695724622748
30
0
41
1
10
87.0172628317729
20
0.605609510079972
30
0
41
1
10
87.0849420726048
20
0.259015368754007
30
0
41
1
10
87.1075018195487
20
0.144483230285232
30
0
41
1
10
87.1413414399645
20
-0.0255038387338971
30
0
41
1
10
87.1526213134366
20
-0.0820894511430197
30
0
41
1
10
87.1751810603805
20
-0.196157285369111
30
0
41
1
10
87.1864609338523
20
-0.253476906925926
30
0
41
1
10
87.2428603012122
20
-0.541372247551351
30
0
41
1
10
87.2879797951001
20
-0.775873509307644
30
0
41
1
10
87.3782187828759
20
-1.24933471422276
30
0
41
1
10
87.4233382767638
20
-1.4882896863173
30
0
41
1
10
87.5135772645395
20
-1.96594325432923
30
0
41
1
10
87.5586967584274
20
-2.20463312778631
30
0
41
1
10
87.6489357462032
20
-2.67644575332005
30
0
41
1
10
87.694055240091
20
-2.90955655306505
30
0
41
1
10
87.7842942278668
20
-3.36461756630416
30
0
41
1
10
87.8294137217547
20
-3.58655393146921
30
0
41
1
10
87.9196527095304
20
-4.01378286693259
30
0
41
1
10
87.9647722034183
20
-4.21906166049359
30
0
41
1
10
88.055011191194
20
-4.60802499275792
30
0
41
1
10
88.1001306850819
20
-4.791697995812
30
0
41
1
10
88.1903696728577
20
-5.13342010395684
30
0
41
1
10
88.2354891667455
20
-5.29146172824673
30
0
41
1
10
88.3257281545213
20
-5.57910395676154
30
0
41
1
10
88.3708476484092
20
-5.70870211726685
30
0
41
1
10
88.4610866361849
20
-5.93800455478919
30
0
41
1
10
88.5062061300728
20
-6.03771136634555
30
0
41
1
10
88.5964451178486
20
-6.20713992128958
30
0
41
1
10
88.6415646117364
20
-6.27686819799769
30
0
41
1
10
88.7318035995122
20
-6.38746961825714
30
0
41
1
10
88.7769230934
20
-6.4283517620452
30
0
41
1
10
88.8671620811758
20
-6.48337269243422
30
0
41
1
10
88.9122815750637
20
-6.49752130932416
30
0
41
1
10
88.9686809424235
20
-6.50024552936421
30
0
41
1
10
88.9799608158955
20
-6.50005061388333
30
0
41
1
10
89.0025205628394
20
-6.49816280979195
30
0
41
1
10
89.0363601832554
20
-6.49307243906037
30
0
41
1
10
89.0701998036712
20
-6.48099498586453
30
0
41
1
10
89.1378790445031
20
-6.44700724268577
30
0
41
1
10
89.1829985383909
20
-6.41121283998055
30
0
41
1
10
89.2732375261667
20
-6.31110952706766
30
0
41
1
10
89.3183570200546
20
-6.24679134536964
30
0
41
1
10
89.4085960078303
20
-6.08830600663745
30
0
41
1
10
89.4537155017182
20
-5.99413173990612
30
0
41
1
10
89.5439544894939
20
-5.77577980401861
30
0
41
1
10
89.5890739833818
20
-5.65159877102022
30
0
41
1
10
89.6341934772697
20
-5.51301036197663
30
0
0
SPLINE
5
EE
100
AcDbEntity
8
1
62
256
6
ByLayer
370
13
48
1
60
0
100
AcDbSpline
70
4
71
3
72
77
73
73
40
0
40
0
40
0
40
0
40
0.0312500000000001
40
0.0312500000000001
40
0.0625000000000001
40
0.0625000000000001
40
0.0937500000000002
40
0.0937500000000002
40
0.125
40
0.125
40
0.15625
40
0.15625
40
0.1875
40
0.1875
40
0.21875
40
0.21875
40
0.250000000000001
40
0.250000000000001
40
0.281250000000001
40
0.281250000000001
40
0.312500000000001
40
0.312500000000001
40
0.343750000000001
40
0.343750000000001
40
0.375000000000001
40
0.375000000000001
40
0.382812500000001
40
0.382812500000001
40
0.390625000000001
40
0.406250000000001
40
0.406250000000001
40
0.437500000000001
40
0.437500000000001
40
0.468750000000001
40
0.468750000000001
40
0.500000000000001
40
0.500000000000001
40
0.531250000000001
40
0.531250000000001
40
0.562500000000001
40
0.562500000000001
40
0.593750000000001
40
0.593750000000001
40
0.625000000000001
40
0.625000000000001
40
0.656250000000001
40
0.656250000000001
40
0.687500000000001
40
0.687500000000001
40
0.71875
40
0.71875
40
0.75
40
0.75
40
0.7578125
40
0.7578125
40
0.765625
40
0.765625
40
0.78125
40
0.78125
40
0.8125
40
0.8125
40
0.84375
40
0.84375
40
0.875
40
0.875
40
0.90625
40
0.90625
40
0.9375
40
0.9375
40
0.96875
40
0.96875
40
1
40
1
40
1
40
1
41
1
10
84.8022684478129
20
6.5
30
0
41
1
10
84.8526010002031
20
6.5
30
0
41
1
10
84.9029335525934
20
6.48527335324312
30
0
41
1
10
85.0035986573736
20
6.42247735484312
30
0
41
1
10
85.0539312097638
20
6.3743910531596
30
0
41
1
10
85.1545963145442
20
6.2420339477714
30
0
41
1
10
85.2049288669343
20
6.15774805033482
30
0
41
1
10
85.3055939717146
20
5.95172237904032
30
0
41
1
10
85.3559265241049
20
5.82997288218215
30
0
41
1
10
85.4565916288852
20
5.54970909829845
30
0
41
1
10
85.5069241812754
20
5.39119350929829
30
0
41
1
10
85.6075892860558
20
5.04022126724769
30
0
41
1
10
85.6579218384459
20
4.84777315546077
30
0
41
1
10
85.7585869432263
20
4.43378906754916
30
0
41
1
10
85.8089194956165
20
4.21227050649546
30
0
41
1
10
85.9095846003968
20
3.74663261543282
30
0
41
1
10
85.9599171527869
20
3.50253631755856
30
0
41
1
10
86.0605822575673
20
2.99924271840612
30
0
41
1
10
86.1109148099575
20
2.74006953554024
30
0
41
1
10
86.2115799147379
20
2.21440919043897
30
0
41
1
10
86.261912467128
20
1.94794288639179
30
0
41
1
10
86.3625775719083
20
1.41507988112488
30
0
41
1
10
86.4129101242985
20
1.14869783832396
30
0
41
1
10
86.5135752290788
20
0.622441014429626
30
0
41
1
10
86.5639077814691
20
0.362573674508837
30
0
41
1
10
86.6268234719568
20
0.0450303310959157
30
0
41
1
10
86.6394066100543
20
-0.0178842697566495
30
0
41
1
10
86.6645728862495
20
-0.144693505294214
30
0
41
1
10
86.7023223005421
20
-0.336004477191324
30
0
41
1
10
86.7400717148346
20
-0.530294247328811
30
0
41
1
10
86.8155705434199
20
-0.921890801828312
30
0
41
1
10
86.8659030958101
20
-1.18701568764092
30
0
41
1
10
86.9665682005904
20
-1.71931536805567
30
0
41
1
10
87.0169007529806
20
-1.98647754665754
30
0
41
1
10
87.1175658577611
20
-2.51570508878487
30
0
41
1
10
87.1678984101512
20
-2.7777511473962
30
0
41
1
10
87.2685635149315
20
-3.28901754052842
30
0
41
1
10
87.3188960673217
20
-3.53821428836824
30
0
41
1
10
87.419561172102
20
-4.0161256245602
30
0
41
1
10
87.4698937244922
20
-4.24481638809075
30
0
41
1
10
87.5705588292726
20
-4.67485991120188
30
0
41
1
10
87.6208913816628
20
-4.87619323696774
30
0
41
1
10
87.7215564864431
20
-5.2461333872333
30
0
41
1
10
87.7718890388333
20
-5.4147289248788
30
0
41
1
10
87.8725541436136
20
-5.71574622522124
30
0
41
1
10
87.9228866960038
20
-5.84816652551729
30
0
41
1
10
88.0235518007842
20
-6.07552271316132
30
0
41
1
10
88.0738843531743
20
-6.17046617769287
30
0
41
1
10
88.1745494579546
20
-6.32359770204732
30
0
41
1
10
88.2248820103448
20
-6.38179968122225
30
0
41
1
10
88.3255471151251
20
-6.46388263076926
30
0
41
1
10
88.3758796675154
20
-6.48778036205471
30
0
41
1
10
88.4387953580031
20
-6.49849300503516
30
0
41
1
10
88.4513784961006
20
-6.49967984790044
30
0
41
1
10
88.4765447722956
20
-6.50020705134699
30
0
41
1
10
88.4891279103932
20
-6.49955440166653
30
0
41
1
10
88.5268773246858
20
-6.49476037537269
30
0
41
1
10
88.5520436008809
20
-6.48777662725306
30
0
41
1
10
88.6275424294662
20
-6.45472566729731
30
0
41
1
10
88.6778749818563
20
-6.4165199246556
30
0
41
1
10
88.7785400866368
20
-6.30459609182415
30
0
41
1
10
88.8288726390269
20
-6.23086202716598
30
0
41
1
10
88.9295377438072
20
-6.0461166953373
30
0
41
1
10
88.9798702961974
20
-5.93509381624793
30
0
41
1
10
89.0805354009779
20
-5.67587133307796
30
0
41
1
10
89.1308679533679
20
-5.52766778401156
30
0
41
1
10
89.2315330581483
20
-5.19629526639105
30
0
41
1
10
89.2818656105385
20
-5.01313201372795
30
0
41
1
10
89.3825307153189
20
-4.61614155703975
30
0
41
1
10
89.432863267709
20
-4.40232947659655
30
0
41
1
10
89.5335283724893
20
-3.95011696108335
30
0
41
1
10
89.5838609248796
20
-3.71173838568058
30
0
41
1
10
89.6341934772697
20
-3.46470686631335
30
0
0
SPLINE
5
EF
100
AcDbEntity
8
1
62
256
6
ByLayer
370
13
48
1
60
0
100
AcDbSpline
70
4
71
3
72
70
73
66
40
0
40
0
40
0
40
0
40
0.03125
40
0.03125
40
0.0625
40
0.0625
40
0.09375
40
0.09375
40
0.125
40
0.125
40
0.15625
40
0.15625
40
0.1875
40
0.1875
40
0.21875
40
0.21875
40
0.25
40
0.25
40
0.28125
40
0.28125
40
0.3125
40
0.3125
40
0.34375
40
0.34375
40
0.375
40
0.375
40
0.40625
40
0.40625
40
0.4375
40
0.4375
40
0.46875
40
0.46875
40
0.5
40
0.5
40
0.53125
40
0.53125
40
0.5625
40
0.5625
40
0.59375
40
0.59375
40
0.625
40
0.625
40
0.65625
40
0.65625
40
0.6875
40
0.6875
40
0.71875
40
0.71875
40
0.75
40
0.75
40
0.78125
40
0.78125
40
0.8125
40
0.8125
40
0.84375
40
0.84375
40
0.875
40
0.875
40
0.90625
40
0.90625
40
0.9375
40
0.9375
40
0.96875
40
0.96875
40
1
40
1
40
1
40
1
41
1
10
84.3018148315923
20
6.5
30
0
41
1
10
84.3573604424847
20
6.5
30
0
41
1
10
84.4129060533772
20
6.48205494806152
30
0
41
1
10
84.5239972751622
20
6.40510953759434
30
0
41
1
10
84.5795428860547
20
6.34608155134094
30
0
41
1
10
84.6906341078396
20
6.18343134529508
30
0
41
1
10
84.746179718732
20
6.07978582609707
30
0
41
1
10
84.857270940517
20
5.8268290264204
30
0
41
1
10
84.9128165514095
20
5.67750571516137
30
0
41
1
10
85.0239077731945
20
5.33514583348324
30
0
41
1
10
85.0794533840869
20
5.14211374196887
30
0
41
1
10
85.1905446058719
20
4.71744331646042
30
0
41
1
10
85.2460902167644
20
4.48582690420753
30
0
41
1
10
85.3571814385493
20
3.99185181404693
30
0
41
1
10
85.4127270494417
20
3.7295280909803
30
0
41
1
10
85.5238182712267
20
3.18388412523095
30
0
41
1
10
85.5793638821193
20
2.90060355799955
30
0
41
1
10
85.6904551039042
20
2.32351935765246
30
0
41
1
10
85.7460007147967
20
2.02975114834558
30
0
41
1
10
85.8570919365815
20
1.44173260745114
30
0
41
1
10
85.912637547474
20
1.14750702700354
30
0
41
1
10
86.0237287692589
20
0.567258122272278
30
0
41
1
10
86.0792743801514
20
0.2812465761196
30
0
41
1
10
86.1903656019364
20
-0.275799401526058
30
0
41
1
10
86.2459112128288
20
-0.561636777685379
30
0
41
1
10
86.3570024346138
20
-1.14178028029545
30
0
41
1
10
86.4125480455064
20
-1.43597852818806
30
0
41
1
10
86.5236392672912
20
-2.02400407008156
30
0
41
1
10
86.5791848781837
20
-2.31780669470336
30
0
41
1
10
86.6902760999686
20
-2.89502765964835
30
0
41
1
10
86.7458217108612
20
-3.17841062904031
30
0
41
1
10
86.856912932646
20
-3.72432664418548
30
0
41
1
10
86.9124585435385
20
-3.98682001441043
30
0
41
1
10
87.0235497653235
20
-4.48119312356357
30
0
41
1
10
87.0790953762159
20
-4.71303784726231
30
0
41
1
10
87.1901865980009
20
-5.13820816874161
30
0
41
1
10
87.2457322088933
20
-5.3315117399635
30
0
41
1
10
87.3568234306782
20
-5.67443803274696
30
0
41
1
10
87.4123690415707
20
-5.82405615895578
30
0
41
1
10
87.5234602633557
20
-6.07760530434965
30
0
41
1
10
87.5790058742482
20
-6.18154826021288
30
0
41
1
10
87.6900970960331
20
-6.34477768769659
30
0
41
1
10
87.7456427069257
20
-6.40408740745386
30
0
41
1
10
87.8567339287106
20
-6.48156687636148
30
0
41
1
10
87.912279539603
20
-6.49976424668299
30
0
41
1
10
88.023370761388
20
-6.50023118764642
30
0
41
1
10
88.0789163722804
20
-6.48253798788036
30
0
41
1
10
88.1900075940654
20
-6.40612625763418
30
0
41
1
10
88.2455532049578
20
-6.34737985174212
30
0
41
1
10
88.3566444267427
20
-6.1853086665551
30
0
41
1
10
88.4121900376352
20
-6.08196053689065
30
0
41
1
10
88.5232812594202
20
-5.82959611876248
30
0
41
1
10
88.5788268703127
20
-5.68056770564911
30
0
41
1
10
88.6899180920976
20
-5.3387745375025
30
0
41
1
10
88.7454637029901
20
-5.14601414496985
30
0
41
1
10
88.8565549247751
20
-4.72184417293673
30
0
41
1
10
88.9121005356675
20
-4.49045641016713
30
0
41
1
10
89.0231917574524
20
-3.99688009608622
30
0
41
1
10
89.0787373683449
20
-3.7347264388618
30
0
41
1
10
89.1898285901299
20
-3.18935539081318
30
0
41
1
10
89.2453742010223
20
-2.90617767496971
30
0
41
1
10
89.3564654228073
20
-2.32923111839852
30
0
41
1
10
89.4120110336999
20
-2.03549775407856
30
0
41
1
10
89.5231022554848
20
-1.44748701448697
30
0
41
1
10
89.5786478663773
20
-1.15323447202036
30
0
41
1
10
89.6341934772697
20
-0.863057647849303
30
0
0
SPLINE
5
F0
100
AcDbEntity
8
1
62
256
6
ByLayer
370
13
48
1
60
0
100
AcDbSpline
70
4
71
3
72
85
73
81
40
0
40
0
40
0
40
0
40
0.0312499999999995
40
0.0312499999999995
40
0.0624999999999989
40
0.0624999999999989
40
0.0937499999999984
40
0.0937499999999984
40
0.124999999999998
40
0.124999999999998
40
0.156249999999997
40
0.156249999999997
40
0.187499999999997
40
0.187499999999997
40
0.218749999999996
40
0.218749999999996
40
0.249999999999996
40
0.249999999999996
40
0.281249999999995
40
0.281249999999995
40
0.312499999999995
40
0.312499999999995
40
0.316406249999995
40
0.316406249999995
40
0.320312499999995
40
0.328124999999995
40
0.328124999999995
40
0.343749999999995
40
0.343749999999995
40
0.374999999999994
40
0.374999999999994
40
0.406249999999994
40
0.406249999999994
40
0.437499999999993
40
0.437499999999993
40
0.468749999999993
40
0.468749999999993
40
0.499999999999992
40
0.499999999999992
40
0.531249999999992
40
0.531249999999992
40
0.562499999999991
40
0.562499999999991
40
0.593749999999991
40
0.593749999999991
40
0.624999999999991
40
0.624999999999991
40
0.632812499999991
40
0.632812499999991
40
0.640624999999991
40
0.640624999999991
40
0.656249999999992
40
0.656249999999992
40
0.687499999999993
40
0.687499999999993
40
0.718749999999995
40
0.718749999999995
40
0.749999999999997
40
0.749999999999997
40
0.781249999999998
40
0.781249999999998
40
0.8125
40
0.8125
40
0.843750000000001
40
0.843750000000001
40
0.875000000000003
40
0.875000000000003
40
0.906250000000004
40
0.906250000000004
40
0.937500000000006
40
0.937500000000006
40
0.941406250000006
40
0.941406250000006
40
0.945312500000005
40
0.945312500000005
40
0.953125000000005
40
0.953125000000005
40
0.968750000000003
40
0.968750000000003
40
1
40
1
40
1
40
1
41
1
10
83.8013612153717
20
6.5
30
0
41
1
10
83.8621198847665
20
6.5
30
0
41
1
10
83.9228785541612
20
6.47851508206605
30
0
41
1
10
84.0443958929508
20
6.38589945494553
30
0
41
1
10
84.1051545623455
20
6.31472576166101
30
0
41
1
10
84.2266719011351
20
6.11848777032841
30
0
41
1
10
84.2874305705299
20
5.9933895909744
30
0
41
1
10
84.4089479093194
20
5.68877136012074
30
0
41
1
10
84.4697065787141
20
5.5092392102992
30
0
41
1
10
84.5912239175037
20
5.09967247077032
30
0
41
1
10
84.6519825868984
20
4.8696554155556
30
0
41
1
10
84.773499925688
20
4.36742995719356
30
0
41
1
10
84.8342585950828
20
4.09526669080728
30
0
41
1
10
84.9557759338722
20
3.52049269695999
30
0
41
1
10
85.0165346032671
20
3.21794253244926
30
0
41
1
10
85.1380519420566
20
2.59593078949248
30
0
41
1
10
85.1988106114513
20
2.27652827306466
30
0
41
1
10
85.320327950241
20
1.63427933030712
30
0
41
1
10
85.3810866196357
20
1.31147637866678
30
0
41
1
10
85.5026039584252
20
0.674238726798308
30
0
41
1
10
85.5633626278201
20
0.359825620462573
30
0
41
1
10
85.6317161308891
20
0.0159730384965258
30
0
41
1
10
85.6393109645635
20
-0.0220363516408781
30
0
41
1
10
85.6545006319121
20
-0.0984766403048809
30
0
41
1
10
85.6772851329351
20
-0.213541042542829
30
0
41
1
10
85.7000696339583
20
-0.329749501570092
30
0
41
1
10
85.7456386360043
20
-0.563494649819319
30
0
41
1
10
85.7760179707018
20
-0.721101246742165
30
0
41
1
10
85.8671559747938
20
-1.19746853369384
30
0
41
1
10
85.9279146441887
20
-1.51984847468444
30
0
41
1
10
86.0494319829783
20
-2.16275662215594
30
0
41
1
10
86.1101906523729
20
-2.48324378683759
30
0
41
1
10
86.2317079911625
20
-3.10905519379307
30
0
41
1
10
86.2924666605572
20
-3.41432160842106
30
0
41
1
10
86.4139839993468
20
-3.99607456468647
30
0
41
1
10
86.4747426687417
20
-4.27249982569265
30
0
41
1
10
86.5962600075311
20
-4.78449270530666
30
0
41
1
10
86.6570186769259
20
-5.020012565999
30
0
41
1
10
86.7785360157155
20
-5.44135740660866
30
0
41
1
10
86.8392946851102
20
-5.62716125956712
30
0
41
1
10
86.9608120238997
20
-5.94455402546686
30
0
41
1
10
87.0215706932945
20
-6.07615178027194
30
0
41
1
10
87.1430880320841
20
-6.28511604397954
30
0
41
1
10
87.2038467014788
20
-6.36251448223376
30
0
41
1
10
87.3253640402685
20
-6.46692134065506
30
0
41
1
10
87.3861227096631
20
-6.4939723381909
30
0
41
1
10
87.4620710464067
20
-6.50037406581194
30
0
41
1
10
87.4772607137554
20
-6.50030387239738
30
0
41
1
10
87.5076400484527
20
-6.4974532537741
30
0
41
1
10
87.5228297158014
20
-6.49465899253272
30
0
41
1
10
87.5683987178475
20
-6.48200242032175
30
0
41
1
10
87.598778052545
20
-6.46786221323072
30
0
41
1
10
87.689916056637
20
-6.40712600946497
30
0
41
1
10
87.7506747260318
20
-6.34211626254356
30
0
41
1
10
87.8721920648214
20
-6.15853552210444
30
0
41
1
10
87.9329507342161
20
-6.03992888038485
30
0
41
1
10
88.0544680730056
20
-5.74813242684189
30
0
41
1
10
88.1152267424005
20
-5.57492737675619
30
0
41
1
10
88.23674408119
20
-5.17731215833439
30
0
41
1
10
88.2975027505848
20
-4.95291590405586
30
0
41
1
10
88.4190200893743
20
-4.46074278486375
30
0
41
1
10
88.479778758769
20
-4.19300825811118
30
0
41
1
10
88.6012960975586
20
-3.6255720868366
30
0
41
1
10
88.6620547669534
20
-3.32593004079379
30
0
41
1
10
88.7835721057429
20
-2.70810039256696
30
0
41
1
10
88.8443307751377
20
-2.38997288333758
30
0
41
1
10
88.9658481139272
20
-1.74873994111695
30
0
41
1
10
89.026606783322
20
-1.42568032764709
30
0
41
1
10
89.1481241221115
20
-0.786656211774272
30
0
41
1
10
89.2088827915063
20
-0.470715940228985
30
0
41
1
10
89.2772362945754
20
-0.12462205019213
30
0
41
1
10
89.2848311282497
20
-0.0862950424136955
30
0
41
1
10
89.3000207955984
20
-0.0099120453882051
30
0
41
1
10
89.3076156292728
20
0.0281019782351279
30
0
41
1
10
89.3304001302959
20
0.14280519047071
30
0
41
1
10
89.3455897976446
20
0.219811633967083
30
0
41
1
10
89.3911587996906
20
0.452254773395737
30
0
41
1
10
89.421538134388
20
0.60912089388745
30
0
41
1
10
89.5126761384802
20
1.08371280365637
30
0
41
1
10
89.5734348078749
20
1.40550733472509
30
0
41
1
10
89.6341934772697
20
1.72711549978834
30
0
0
SPLINE
5
F1
100
AcDbEntity
8
1
62
256
6
ByLayer
370
13
48
1
60
0
100
AcDbSpline
70
4
71
3
72
84
73
80
40
0
40
0
40
0
40
0
40
0.0312500000000014
40
0.0312500000000014
40
0.0625000000000029
40
0.0625000000000029
40
0.0937500000000043
40
0.0937500000000043
40
0.125000000000006
40
0.125000000000006
40
0.156250000000007
40
0.156250000000007
40
0.187500000000009
40
0.187500000000009
40
0.21875000000001
40
0.21875000000001
40
0.250000000000011
40
0.250000000000011
40
0.281250000000013
40
0.281250000000013
40
0.289062500000013
40
0.289062500000013
40
0.296875000000013
40
0.296875000000013
40
0.312500000000013
40
0.312500000000013
40
0.343750000000012
40
0.343750000000012
40
0.375000000000012
40
0.375000000000012
40
0.406250000000011
40
0.406250000000011
40
0.437500000000011
40
0.437500000000011
40
0.46875000000001
40
0.46875000000001
40
0.50000000000001
40
0.50000000000001
40
0.531250000000009
40
0.531250000000009
40
0.562500000000009
40
0.562500000000009
40
0.578125000000008
40
0.578125000000008
40
0.585937500000008
40
0.585937500000008
40
0.593750000000007
40
0.593750000000007
40
0.625000000000007
40
0.625000000000007
40
0.656250000000006
40
0.656250000000006
40
0.687500000000006
40
0.687500000000006
40
0.718750000000005
40
0.718750000000005
40
0.750000000000005
40
0.750000000000005
40
0.781250000000004
40
0.781250000000004
40
0.812500000000004
40
0.812500000000004
40
0.843750000000003
40
0.843750000000003
40
0.859375000000003
40
0.859375000000003
40
0.867187500000003
40
0.867187500000003
40
0.871093750000003
40
0.871093750000003
40
0.875000000000003
40
0.875000000000003
40
0.906250000000002
40
0.906250000000002
40
0.937500000000001
40
0.937500000000001
40
0.968750000000001
40
0.968750000000001
40
1
40
1
40
1
40
1
41
1
10
83.3009075991511
20
6.5
30
0
41
1
10
83.3668793270481
20
6.5
30
0
41
1
10
83.4328510549452
20
6.47465226285246
30
0
41
1
10
83.5647945107393
20
6.36482693339445
30
0
41
1
10
83.6307662386363
20
6.28028504549235
30
0
41
1
10
83.7627096944304
20
6.04715769803184
30
0
41
1
10
83.8286814223276
20
5.89852563048308
30
0
41
1
10
83.9606248781217
20
5.53769753871009
30
0
41
1
10
84.0265966060188
20
5.32549421610318
30
0
41
1
10
84.1585400618129
20
4.84428331182434
30
0
41
1
10
84.2245117897101
20
4.57531761585773
30
0
41
1
10
84.3564552455041
20
3.99312351170766
30
0
41
1
10
84.4224269734012
20
3.67997593845576
30
0
41
1
10
84.5543704291953
20
3.02584086322702
30
0
41
1
10
84.6203421570924
20
2.68494655097229
30
0
41
1
10
84.7522856128865
20
1.99289907659193
30
0
41
1
10
84.8182573407837
20
1.64182267588129
30
0
41
1
10
84.9502007965777
20
0.94549562750413
30
0
41
1
10
85.0161725244748
20
0.600288150950206
30
0
41
1
10
85.0986371843461
20
0.180380898310091
30
0
41
1
10
85.1151301163205
20
0.0969700403588547
30
0
41
1
10
85.1481159802689
20
-0.0685518528999012
30
0
41
1
10
85.1646089122432
20
-0.151684788456635
30
0
41
1
10
85.2140877081661
20
-0.403234301663502
30
0
41
1
10
85.2470735721146
20
-0.573262160265415
30
0
41
1
10
85.3460311639602
20
-1.08816169015762
30
0
41
1
10
85.4120028918573
20
-1.43795302253639
30
0
41
1
10
85.5439463476513
20
-2.13622831998984
30
0
41
1
10
85.6099180755484
20
-2.48465218857621
30
0
41
1
10
85.7418615313426
20
-3.1631653451617
30
0
41
1
10
85.8078332592397
20
-3.4931670450992
30
0
41
1
10
85.9397767150338
20
-4.11745193139873
30
0
41
1
10
86.0057484429309
20
-4.41164391097067
30
0
41
1
10
86.1376918987249
20
-4.94935531964632
30
0
41
1
10
86.2036636266221
20
-5.19280971002595
30
0
41
1
10
86.3356070824162
20
-5.61897879432667
30
0
41
1
10
86.4015788103133
20
-5.8016748146714
30
0
41
1
10
86.5335222661074
20
-6.10246437346427
30
0
41
1
10
86.5994939940045
20
-6.22058598215847
30
0
41
1
10
86.7314374497986
20
-6.39440892372224
30
0
41
1
10
86.7974091776957
20
-6.45016812156032
30
0
41
1
10
86.8963667695413
20
-6.49213765028483
30
0
41
1
10
86.9293526334898
20
-6.49921317448391
30
0
41
1
10
86.9788314294127
20
-6.50030014469669
30
0
41
1
10
86.9953243613869
20
-6.49908928063405
30
0
41
1
10
87.0283102253354
20
-6.49338516693595
30
0
41
1
10
87.0448031573097
20
-6.48889011742682
30
0
41
1
10
87.1272678171811
20
-6.45785350493696
30
0
41
1
10
87.1932395450781
20
-6.40549223799013
30
0
41
1
10
87.3251830008723
20
-6.23875085150243
30
0
41
1
10
87.3911547287693
20
-6.12431185743503
30
0
41
1
10
87.5230981845634
20
-5.8308623315593
30
0
41
1
10
87.5890699124606
20
-5.6518214498108
30
0
41
1
10
87.7210133682547
20
-5.23257443944445
30
0
41
1
10
87.7869850961517
20
-4.99238411682717
30
0
41
1
10
87.9189285519458
20
-4.46047808692808
30
0
41
1
10
87.9849002798429
20
-4.16882514618041
30
0
41
1
10
88.1168437356371
20
-3.54867131303621
30
0
41
1
10
88.1828154635342
20
-3.22026091504719
30
0
41
1
10
88.3147589193283
20
-2.54391723107551
30
0
41
1
10
88.3807306472253
20
-2.19607250438679
30
0
41
1
10
88.5126741030194
20
-1.49803008929186
30
0
41
1
10
88.5786458309166
20
-1.14789446134355
30
0
41
1
10
88.6776034227622
20
-0.631930192666857
30
0
41
1
10
88.7105892867107
20
-0.461456665273857
30
0
41
1
10
88.7600680826336
20
-0.209124032193415
30
0
41
1
10
88.7765610146079
20
-0.125574150449864
30
0
41
1
10
88.8013004125693
20
-0.0012111832212156
30
0
41
1
10
88.8095468785564
20
0.0400764412040076
30
0
41
1
10
88.8260398105307
20
0.123183666664005
30
0
41
1
10
88.8342862765177
20
0.164894456939067
30
0
41
1
10
88.9085044704019
20
0.541616742279757
30
0
41
1
10
88.974476198299
20
0.886066148243771
30
0
41
1
10
89.1064196540931
20
1.58170481499724
30
0
41
1
10
89.1723913819902
20
1.93285300399123
30
0
41
1
10
89.3043348377843
20
2.62602447369039
30
0
41
1
10
89.3703065656814
20
2.96797260667728
30
0
41
1
10
89.5022500214756
20
3.62521751621233
30
0
41
1
10
89.5682217493726
20
3.94042132628564
30
0
41
1
10
89.6341934772697
20
4.23400575302961
30
0
0
SPLINE
5
F2
100
AcDbEntity
8
1
62
256
6
ByLayer
370
13
48
1
60
0
100
AcDbSpline
70
4
71
3
72
85
73
81
40
0
40
0
40
0
40
0
40
0.0312499999999959
40
0.0312499999999959
40
0.0624999999999919
40
0.0624999999999919
40
0.0937499999999878
40
0.0937499999999878
40
0.124999999999984
40
0.124999999999984
40
0.15624999999998
40
0.15624999999998
40
0.187499999999975
40
0.187499999999975
40
0.218749999999971
40
0.218749999999971
40
0.249999999999967
40
0.249999999999967
40
0.265624999999965
40
0.265624999999965
40
0.269531249999965
40
0.269531249999965
40
0.273437499999964
40
0.281249999999964
40
0.281249999999964
40
0.312499999999962
40
0.312499999999962
40
0.343749999999961
40
0.343749999999961
40
0.37499999999996
40
0.37499999999996
40
0.406249999999959
40
0.406249999999959
40
0.437499999999957
40
0.437499999999957
40
0.468749999999956
40
0.468749999999956
40
0.499999999999955
40
0.499999999999955
40
0.531249999999953
40
0.531249999999953
40
0.535156249999954
40
0.535156249999954
40
0.539062499999954
40
0.539062499999954
40
0.546874999999954
40
0.546874999999954
40
0.562499999999955
40
0.562499999999955
40
0.593749999999957
40
0.593749999999957
40
0.62499999999996
40
0.62499999999996
40
0.656249999999962
40
0.656249999999962
40
0.687499999999965
40
0.687499999999965
40
0.718749999999967
40
0.718749999999967
40
0.749999999999969
40
0.749999999999969
40
0.781249999999972
40
0.781249999999972
40
0.796874999999973
40
0.796874999999973
40
0.804687499999974
40
0.804687499999974
40
0.812499999999975
40
0.812499999999975
40
0.843749999999979
40
0.843749999999979
40
0.874999999999983
40
0.874999999999983
40
0.906249999999988
40
0.906249999999988
40
0.937499999999992
40
0.937499999999992
40
0.968749999999996
40
0.968749999999996
40
1
40
1
40
1
40
1
41
1
10
82.8004539829303
20
6.5
30
0
41
1
10
82.8716387693298
20
6.5
30
0
41
1
10
82.9428235557291
20
6.47046479055166
30
0
41
1
10
83.0851931285279
20
6.34187282704147
30
0
41
1
10
83.1563779149272
20
6.24272309945744
30
0
41
1
10
83.2987474877259
20
5.96941264489027
30
0
41
1
10
83.3699322741253
20
5.79519119686836
30
0
41
1
10
83.5123018469241
20
5.37384202088538
30
0
41
1
10
83.5834866333234
20
5.12672043657111
30
0
41
1
10
83.7258562061223
20
4.57020802845642
30
0
41
1
10
83.7970409925216
20
4.26089932934488
30
0
41
1
10
83.9394105653203
20
3.59785784564036
30
0
41
1
10
84.0105953517196
20
3.24425545129569
30
0
41
1
10
84.1529649245183
20
2.51435231556272
30
0
41
1
10
84.2241497109177
20
2.13818075075363
30
0
41
1
10
84.3665192837165
20
1.3846549102218
30
0
41
1
10
84.4377040701159
20
1.00738720241682
30
0
41
1
10
84.544481249715
20
0.454046290209078
30
0
41
1
10
84.5800736429146
20
0.271656721802202
30
0
41
1
10
84.6245641344142
20
0.0473276595463972
30
0
41
1
10
84.633462232714
20
0.0027702361638262
30
0
41
1
10
84.6512584293139
20
-0.0866858813863303
30
0
41
1
10
84.6779527242136
20
-0.221429429475876
30
0
41
1
10
84.7046470191135
20
-0.357742707316419
30
0
41
1
10
84.7936280021127
20
-0.815075904440107
30
0
41
1
10
84.8648127885121
20
-1.19059751467799
30
0
41
1
10
85.0071823613108
20
-1.94401795021656
30
0
41
1
10
85.0783671477102
20
-2.3218397643744
30
0
41
1
10
85.2207367205089
20
-3.05885309263587
30
0
41
1
10
85.2919215069083
20
-3.41792043961234
30
0
41
1
10
85.434291079707
20
-4.09546626885307
30
0
41
1
10
85.5054758661064
20
-4.4138108909269
30
0
41
1
10
85.6478454389051
20
-4.99104122695502
30
0
41
1
10
85.7190302253044
20
-5.249833617147
30
0
41
1
10
85.8613997981033
20
-5.69577749500229
30
0
41
1
10
85.9325845845026
20
-5.88290942531182
30
0
41
1
10
86.0749541573012
20
-6.18182970587472
30
0
41
1
10
86.1461389437006
20
-6.29366934408196
30
0
41
1
10
86.2885085164994
20
-6.44625918749679
30
0
41
1
10
86.3596933028988
20
-6.48709964248931
30
0
41
1
10
86.4397761875981
20
-6.49865330127952
30
0
41
1
10
86.448674285898
20
-6.49946191286097
30
0
41
1
10
86.4664704824978
20
-6.50015184992281
30
0
41
1
10
86.4753685807977
20
-6.50003662201962
30
0
41
1
10
86.5020628756976
20
-6.49829739737061
30
0
41
1
10
86.5198590722974
20
-6.49527127534947
30
0
41
1
10
86.5732476620969
20
-6.48032348800137
30
0
41
1
10
86.6088400552965
20
-6.46252440008087
30
0
41
1
10
86.7156172348956
20
-6.38371213265552
30
0
41
1
10
86.786802021295
20
-6.29708513607898
30
0
41
1
10
86.9291715940937
20
-6.04927783521148
30
0
41
1
10
87.000356380493
20
-5.88802846242157
30
0
41
1
10
87.1427259532918
20
-5.49165453902273
30
0
41
1
10
87.2139107396912
20
-5.25652301992167
30
0
41
1
10
87.35628031249
20
-4.72158475451934
30
0
41
1
10
87.4274650988893
20
-4.42184807613344
30
0
41
1
10
87.569834671688
20
-3.77449946976276
30
0
41
1
10
87.6410194580874
20
-3.42701292190802
30
0
41
1
10
87.7833890308861
20
-2.70551364126959
30
0
41
1
10
87.8545738172855
20
-2.33163382378928
30
0
41
1
10
87.9969433900842
20
-1.57917571773299
30
0
41
1
10
88.0681281764836
20
-1.2006931520672
30
0
41
1
10
88.1749053560827
20
-0.643486439191719
30
0
41
1
10
88.2104977492824
20
-0.459470448118282
30
0
41
1
10
88.2638863390819
20
-0.187417223359176
30
0
41
1
10
88.2816825356816
20
-0.0973919712413931
30
0
41
1
10
88.3172749288814
20
0.0811406238300378
30
0
41
1
10
88.3350711254813
20
0.170991039192017
30
0
41
1
10
88.4240521084804
20
0.624011586024665
30
0
41
1
10
88.4952368948798
20
0.997281463532516
30
0
41
1
10
88.6376064676786
20
1.74946207302824
30
0
41
1
10
88.7087912540779
20
2.12830559630621
30
0
41
1
10
88.8511608268767
20
2.87114144522013
30
0
41
1
10
88.9223456132761
20
3.23501575776163
30
0
41
1
10
89.0647151860748
20
3.925842088384
30
0
41
1
10
89.135899972474
20
4.25265833811193
30
0
41
1
10
89.2782695452729
20
4.84967986193982
30
0
41
1
10
89.3494543316722
20
5.11978164493431
30
0
41
1
10
89.4918239044709
20
5.58985335313165
30
0
41
1
10
89.5630086908703
20
5.78979019969921
30
0
41
1
10
89.6341934772697
20
5.95206917607644
30
0
0
SPLINE
5
F3
100
AcDbEntity
8
1
62
256
6
ByLayer
370
13
48
1
60
0
100
AcDbSpline
70
4
71
3
72
70
73
66
40
0
40
0
40
0
40
0
40
0.03125
40
0.03125
40
0.0624999999999999
40
0.0624999999999999
40
0.0937499999999999
40
0.0937499999999999
40
0.125
40
0.125
40
0.15625
40
0.15625
40
0.1875
40
0.1875
40
0.21875
40
0.21875
40
0.25
40
0.25
40
0.28125
40
0.28125
40
0.3125
40
0.3125
40
0.34375
40
0.34375
40
0.375
40
0.375
40
0.40625
40
0.40625
40
0.4375
40
0.4375
40
0.46875
40
0.46875
40
0.5
40
0.5
40
0.53125
40
0.53125
40
0.5625
40
0.5625
40
0.59375
40
0.59375
40
0.625
40
0.625
40
0.65625
40
0.65625
40
0.6875
40
0.6875
40
0.71875
40
0.71875
40
0.75
40
0.75
40
0.78125
40
0.78125
40
0.8125
40
0.8125
40
0.84375
40
0.84375
40
0.875
40
0.875
40
0.90625
40
0.90625
40
0.9375
40
0.9375
40
0.96875
40
0.96875
40
1
40
1
40
1
40
1
41
1
10
82.3000003667097
20
6.5
30
0
41
1
10
82.3763982116114
20
6.5
30
0
41
1
10
82.4527960565131
20
6.46595074616934
30
0
41
1
10
82.6055917463164
20
6.31701906558587
30
0
41
1
10
82.6819895912181
20
6.20200610830832
30
0
41
1
10
82.8347852810214
20
5.88524190053255
30
0
41
1
10
82.911183125923
20
5.6834159110341
30
0
41
1
10
83.0639788157264
20
5.19752595345886
30
0
41
1
10
83.140376660628
20
4.91349522613297
30
0
41
1
10
83.2931723504314
20
4.27889331005332
30
0
41
1
10
83.3695701953331
20
3.92846498568835
30
0
41
1
10
83.5223658851363
20
3.18526236572049
30
0
41
1
10
83.5987637300381
20
2.79268103645552
30
0
41
1
10
83.7515594198414
20
1.99255090796595
30
0
41
1
10
83.8279572647431
20
1.58516429034779
30
0
41
1
10
83.9807529545464
20
0.780356236058566
30
0
41
1
10
84.0571507994481
20
0.383016624829594
30
0
41
1
10
84.2099464892514
20
-0.383015705590793
30
0
41
1
10
84.2863443341531
20
-0.78035527792639
30
0
41
1
10
84.4391400239564
20
-1.58516331694062
30
0
41
1
10
84.5155378688581
20
-1.9925499358109
30
0
41
1
10
84.6683335586614
20
-2.7926800882982
30
0
41
1
10
84.744731403563
20
-3.18526144035994
30
0
41
1
10
84.8975270933664
20
-3.9284641273625
30
0
41
1
10
84.9739249382681
20
-4.27889249595881
30
0
41
1
10
85.1267206280714
20
-4.91349451718273
30
0
41
1
10
85.2031184729731
20
-5.19752530535106
30
0
41
1
10
85.3559141627764
20
-5.68341539300582
30
0
41
1
10
85.4323120076781
20
-5.88524145164541
30
0
41
1
10
85.5851076974812
20
-6.20200579696117
30
0
41
1
10
85.6615055423831
20
-6.31701882256797
30
0
41
1
10
85.8143012321864
20
-6.46595063175107
30
0
41
1
10
85.8906990770881
20
-6.49999994583328
30
0
41
1
10
86.0434947668914
20
-6.50000005416661
30
0
41
1
10
86.1198926117931
20
-6.46595086058747
30
0
41
1
10
86.2726883015964
20
-6.31701930860365
30
0
41
1
10
86.3490861464981
20
-6.20200641965531
30
0
41
1
10
86.5018818363014
20
-5.88524234941951
30
0
41
1
10
86.5782796812031
20
-5.68341642906222
30
0
41
1
10
86.7310753710064
20
-5.19752660156652
30
0
41
1
10
86.8074732159081
20
-4.91349593508306
30
0
41
1
10
86.9602689057114
20
-4.27889412414771
30
0
41
1
10
87.0366667506131
20
-3.92846584401408
30
0
41
1
10
87.1894624404164
20
-3.18526329108099
30
0
41
1
10
87.265860285318
20
-2.79268198461278
30
0
41
1
10
87.4186559751213
20
-1.992551880121
30
0
41
1
10
87.495053820023
20
-1.58516526375496
30
0
41
1
10
87.6478495098263
20
-0.780357194190771
30
0
41
1
10
87.7242473547281
20
-0.383017566504975
30
0
41
1
10
87.8770430445313
20
0.383014808788488
30
0
41
1
10
87.9534408894331
20
0.780354319794213
30
0
41
1
10
88.1062365792363
20
1.58516234353345
30
0
41
1
10
88.182634424138
20
1.99254896365582
30
0
41
1
10
88.3354301139413
20
2.79267914014085
30
0
41
1
10
88.411827958843
20
3.18526051499933
30
0
41
1
10
88.5646236486463
20
3.92846326903654
30
0
41
1
10
88.6410214935481
20
4.27889168186417
30
0
41
1
10
88.7938171833514
20
4.91349380823235
30
0
41
1
10
88.870215028253
20
5.19752465724312
30
0
41
1
10
89.0230107180563
20
5.68341487497736
30
0
41
1
10
89.099408562958
20
5.88524100275811
30
0
41
1
10
89.2522042527613
20
6.20200548561388
30
0
41
1
10
89.3286020976631
20
6.31701857954988
30
0
41
1
10
89.4813977874663
20
6.46595051733263
30
0
41
1
10
89.557795632368
20
6.49999989166639
30
0
41
1
10
89.6341934772696
20
6.49999999999974
30
0
0
SPLINE
5
F4
100
AcDbEntity
8
1
62
256
6
ByLayer
370
13
48
1
60
0
100
AcDbSpline
70
4
71
3
72
85
73
81
40
0
40
0
40
0
40
0
40
0.0312499999999993
40
0.0312499999999993
40
0.0624999999999987
40
0.0624999999999987
40
0.093749999999998
40
0.093749999999998
40
0.124999999999997
40
0.124999999999997
40
0.156249999999997
40
0.156249999999997
40
0.187499999999996
40
0.187499999999996
40
0.195312499999996
40
0.195312499999996
40
0.203124999999995
40
0.203124999999995
40
0.218749999999995
40
0.218749999999995
40
0.249999999999995
40
0.249999999999995
40
0.281249999999996
40
0.281249999999996
40
0.312499999999996
40
0.312499999999996
40
0.343749999999996
40
0.343749999999996
40
0.374999999999996
40
0.374999999999996
40
0.406249999999997
40
0.406249999999997
40
0.437499999999997
40
0.437499999999997
40
0.453124999999997
40
0.453124999999997
40
0.460937499999997
40
0.460937499999997
40
0.464843749999997
40
0.464843749999997
40
0.468749999999997
40
0.468749999999997
40
0.499999999999996
40
0.499999999999996
40
0.531249999999996
40
0.531249999999996
40
0.562499999999996
40
0.562499999999996
40
0.593749999999996
40
0.593749999999996
40
0.624999999999995
40
0.624999999999995
40
0.656249999999995
40
0.656249999999995
40
0.687499999999995
40
0.687499999999995
40
0.718749999999995
40
0.718749999999995
40
0.726562499999995
40
0.730468749999995
40
0.730468749999995
40
0.734374999999994
40
0.734374999999994
40
0.749999999999995
40
0.749999999999995
40
0.781249999999995
40
0.781249999999995
40
0.812499999999996
40
0.812499999999996
40
0.843749999999997
40
0.843749999999997
40
0.874999999999997
40
0.874999999999997
40
0.906249999999998
40
0.906249999999998
40
0.937499999999999
40
0.937499999999999
40
0.968749999999999
40
0.968749999999999
40
1
40
1
40
1
40
1
41
1
10
82.3000000000001
20
5.95207084804107
30
0
41
1
10
82.3711847940392
20
5.78979211048198
30
0
41
1
10
82.4423695880784
20
5.58985549307357
30
0
41
1
10
82.5847391761566
20
5.11978419680636
30
0
41
1
10
82.6559239701958
20
4.84968259633888
30
0
41
1
10
82.7982935582741
20
4.2526613703989
30
0
41
1
10
82.8694783523133
20
3.9258452359071
30
0
41
1
10
83.0118479403917
20
3.2350190605695
30
0
41
1
10
83.0830327344308
20
2.87114478812856
30
0
41
1
10
83.2254023225091
20
2.12830895017808
30
0
41
1
10
83.2965871165482
20
1.74946539794288
30
0
41
1
10
83.4389567046265
20
0.997284677463739
30
0
41
1
10
83.5101414986657
20
0.624014718132287
30
0
41
1
10
83.5991224912146
20
0.170994048498187
30
0
41
1
10
83.6169186897245
20
0.0811435769795708
30
0
41
1
10
83.652511086744
20
-0.09738900373398
30
0
41
1
10
83.6703072852538
20
-0.187414249878771
30
0
41
1
10
83.7236958807831
20
-0.459467460600592
30
0
41
1
10
83.7592882778027
20
-0.6434834475005
30
0
41
1
10
83.8660654688614
20
-1.2006901652623
30
0
41
1
10
83.9372502629006
20
-1.57917275763393
30
0
41
1
10
84.0796198509789
20
-2.33163096943667
30
0
41
1
10
84.150804645018
20
-2.70551086603999
30
0
41
1
10
84.2931742330964
20
-3.42701035421396
30
0
41
1
10
84.3643590271354
20
-3.77449703045448
30
0
41
1
10
84.5067286152138
20
-4.42184593005291
30
0
41
1
10
84.5779134092529
20
-4.72158277313474
30
0
41
1
10
84.7202829973313
20
-5.25652138439156
30
0
41
1
10
84.7914677913705
20
-5.49165308445077
30
0
41
1
10
84.9338373794488
20
-5.88802736458356
30
0
41
1
10
85.0050221734879
20
-6.04927691299159
30
0
41
1
10
85.1473917615662
20
-6.29708454235487
30
0
41
1
10
85.2185765556054
20
-6.38371169175326
30
0
41
1
10
85.3253537466641
20
-6.46252416377831
30
0
41
1
10
85.3609461436837
20
-6.48032331585574
30
0
41
1
10
85.414334739213
20
-6.49527119297599
30
0
41
1
10
85.4321309377228
20
-6.49829734384758
30
0
41
1
10
85.4588252354874
20
-6.50003661014219
30
0
41
1
10
85.4677233347422
20
-6.50015185154268
30
0
41
1
10
85.4855195332522
20
-6.49946194167353
30
0
41
1
10
85.4944176325071
20
-6.49865334376014
30
0
41
1
10
85.5745005258011
20
-6.48709980855204
30
0
41
1
10
85.6456853198403
20
-6.44625946760243
30
0
41
1
10
85.7880549079185
20
-6.29366985004495
30
0
41
1
10
85.8592397019577
20
-6.18183032357123
30
0
41
1
10
86.001609290036
20
-5.88291025126446
30
0
41
1
10
86.0727940840752
20
-5.6957784173571
30
0
41
1
10
86.2151636721534
20
-5.24983470491844
30
0
41
1
10
86.2863484661926
20
-4.99104238363333
30
0
41
1
10
86.4287180542709
20
-4.4138121503081
30
0
41
1
10
86.4999028483101
20
-4.09546756199302
30
0
41
1
10
86.6422724363883
20
-3.41792176426407
30
0
41
1
10
86.7134572304275
20
-3.05885441509176
30
0
41
1
10
86.8558268185058
20
-2.32184105217513
30
0
41
1
10
86.927011612545
20
-1.94401920566273
30
0
41
1
10
87.0693812006233
20
-1.19059868501844
30
0
41
1
10
87.1405659946624
20
-0.815077022131277
30
0
41
1
10
87.2295469872114
20
-0.357743753121156
30
0
41
1
10
87.2562412849761
20
-0.221430453256033
30
0
41
1
10
87.2829355827408
20
-0.0866868826240363
30
0
41
1
10
87.3007317812504
20
0.0027692500515855
30
0
41
1
10
87.3096298805054
20
0.0473266750978212
30
0
41
1
10
87.3541203767799
20
0.271655748147538
30
0
41
1
10
87.3897127737995
20
0.454045327248565
30
0
41
1
10
87.4964899648581
20
1.00738627779253
30
0
41
1
10
87.5676747588975
20
1.38465401960312
30
0
41
1
10
87.7100443469757
20
2.13817994308417
30
0
41
1
10
87.7812291410148
20
2.51435155683157
30
0
41
1
10
87.9235987290931
20
3.24425479998604
30
0
41
1
10
87.9947835231324
20
3.59785725276143
30
0
41
1
10
88.1371531112106
20
4.26089885482696
30
0
41
1
10
88.2083379052497
20
4.5702076137861
30
0
41
1
10
88.350707493328
20
5.12672013452053
30
0
41
1
10
88.4218922873672
20
5.3738417715341
30
0
41
1
10
88.5642618754454
20
5.79519103923445
30
0
41
1
10
88.6354466694846
20
5.96941252624612
30
0
41
1
10
88.7778162575629
20
6.24272304210612
30
0
41
1
10
88.849001051602
20
6.3418727920143
30
0
41
1
10
88.9913706396804
20
6.47046478417607
30
0
41
1
10
89.0625554337195
20
6.5
30
0
41
1
10
89.1337402277587
20
6.5
30
0
0
SPLINE
5
F5
100
AcDbEntity
8
1
62
256
6
ByLayer
370
13
48
1
60
0
100
AcDbSpline
70
4
71
3
72
84
73
80
40
0
40
0
40
0
40
0
40
0.031249999999999
40
0.031249999999999
40
0.0624999999999981
40
0.0624999999999981
40
0.0937499999999971
40
0.0937499999999971
40
0.124999999999996
40
0.124999999999996
40
0.128906249999996
40
0.128906249999996
40
0.132812499999996
40
0.132812499999996
40
0.140624999999997
40
0.140624999999997
40
0.156249999999998
40
0.156249999999998
40
0.187499999999999
40
0.187499999999999
40
0.218750000000001
40
0.218750000000001
40
0.250000000000002
40
0.250000000000002
40
0.281250000000004
40
0.281250000000004
40
0.312500000000005
40
0.312500000000005
40
0.343750000000007
40
0.343750000000007
40
0.375000000000008
40
0.375000000000008
40
0.40625000000001
40
0.40625000000001
40
0.41406250000001
40
0.41406250000001
40
0.42187500000001
40
0.42187500000001
40
0.43750000000001
40
0.43750000000001
40
0.468750000000009
40
0.468750000000009
40
0.500000000000009
40
0.500000000000009
40
0.531250000000008
40
0.531250000000008
40
0.562500000000008
40
0.562500000000008
40
0.593750000000007
40
0.593750000000007
40
0.625000000000007
40
0.625000000000007
40
0.656250000000006
40
0.656250000000006
40
0.687500000000006
40
0.687500000000006
40
0.703125000000006
40
0.703125000000006
40
0.710937500000005
40
0.710937500000005
40
0.718750000000005
40
0.718750000000005
40
0.750000000000004
40
0.750000000000004
40
0.781250000000004
40
0.781250000000004
40
0.812500000000003
40
0.812500000000003
40
0.843750000000003
40
0.843750000000003
40
0.875000000000002
40
0.875000000000002
40
0.906250000000002
40
0.906250000000002
40
0.937500000000001
40
0.937500000000001
40
0.968750000000001
40
0.968750000000001
40
1
40
1
40
1
40
1
41
1
10
82.3000000000001
20
4.23400901685858
30
0
41
1
10
82.3659717355368
20
3.94042471552919
30
0
41
1
10
82.4319434710739
20
3.62522099773696
30
0
41
1
10
82.5638869421475
20
2.96797620352461
30
0
41
1
10
82.6298586776844
20
2.62602809364987
30
0
41
1
10
82.7618021487581
20
1.93285660850904
30
0
41
1
10
82.8277738842949
20
1.58170838110419
30
0
41
1
10
82.9597173553686
20
0.886069590655609
30
0
41
1
10
83.0256890909054
20
0.541620099554336
30
0
41
1
10
83.0999072933844
20
0.164897701857171
30
0
41
1
10
83.1081537603266
20
0.123186898867914
30
0
41
1
10
83.1246466942108
20
0.040079647552119
30
0
41
1
10
83.1328931611528
20
-0.0012079894732722
30
0
41
1
10
83.1576325619792
20
-0.125570946401695
30
0
41
1
10
83.1741254958634
20
-0.20912082240676
30
0
41
1
10
83.223604297516
20
-0.461453441882242
30
0
41
1
10
83.2565901652844
20
-0.631926965026253
30
0
41
1
10
83.3555477685896
20
-1.14789123701425
30
0
41
1
10
83.4215195041266
20
-1.49802688876539
30
0
41
1
10
83.5534629752003
20
-2.1960693997014
30
0
41
1
10
83.6194347107371
20
-2.54391419849497
30
0
41
1
10
83.7513781818108
20
-3.22025807338343
30
0
41
1
10
83.8173499173477
20
-3.54866859018034
30
0
41
1
10
83.9492933884214
20
-4.16882269826576
30
0
41
1
10
84.0152651239583
20
-4.46047579505753
30
0
41
1
10
84.147208595032
20
-4.99238215851713
30
0
41
1
10
84.2131803305689
20
-5.23257265850745
30
0
41
1
10
84.3451238016426
20
-5.65182002641711
30
0
41
1
10
84.4110955371794
20
-5.83086108819924
30
0
41
1
10
84.5430390082531
20
-6.12431095988981
30
0
41
1
10
84.60901074379
20
-6.23875011966029
30
0
41
1
10
84.7409542148637
20
-6.4054918112729
30
0
41
1
10
84.8069259504005
20
-6.45785321763611
30
0
41
1
10
84.8893906198215
20
-6.48888998438434
30
0
41
1
10
84.9058835537058
20
-6.49338506375926
30
0
41
1
10
84.9388694214742
20
-6.4990892351843
30
0
41
1
10
84.9553623553584
20
-6.50030012686511
30
0
41
1
10
85.004841157011
20
-6.49921323809033
30
0
41
1
10
85.0378270247795
20
-6.49213776927303
30
0
41
1
10
85.1367846280848
20
-6.45016840848834
30
0
41
1
10
85.2027563636217
20
-6.39440932506974
30
0
41
1
10
85.3346998346953
20
-6.22058660740851
30
0
41
1
10
85.4006715702322
20
-6.10246510812806
30
0
41
1
10
85.5326150413059
20
-5.80167575197225
30
0
41
1
10
85.5985867768428
20
-5.61897982476009
30
0
41
1
10
85.7305302479165
20
-5.19281090043427
30
0
41
1
10
85.7965019834534
20
-4.9493565768208
30
0
41
1
10
85.928445454527
20
-4.41164526909753
30
0
41
1
10
85.9944171900639
20
-4.11745332368585
30
0
41
1
10
86.1263606611377
20
-3.4931684723027
30
0
41
1
10
86.1923323966744
20
-3.16316677315638
30
0
41
1
10
86.3242758677482
20
-2.48465358926285
30
0
41
1
10
86.390247603285
20
-2.13622969265219
30
0
41
1
10
86.5221910743587
20
-1.4379543183536
30
0
41
1
10
86.5881628098956
20
-1.0881629372326
30
0
41
1
10
86.6871204132009
20
-0.573263325549476
30
0
41
1
10
86.7201062809693
20
-0.40323543823871
30
0
41
1
10
86.769585082622
20
-0.151685880602997
30
0
41
1
10
86.7860780165062
20
-0.0685529207489424
30
0
41
1
10
86.8190638842747
20
0.0969689805506277
30
0
41
1
10
86.8355568181588
20
0.180379842995507
30
0
41
1
10
86.9180214875798
20
0.600287120502827
30
0
41
1
10
86.9839932231167
20
0.945494624723381
30
0
41
1
10
87.1159366941904
20
1.64182174336437
30
0
41
1
10
87.1819084297273
20
1.99289818668112
30
0
41
1
10
87.313851900801
20
2.68494575790504
30
0
41
1
10
87.3798236363377
20
3.02584012437538
30
0
41
1
10
87.5117671074115
20
3.67997531378202
30
0
41
1
10
87.5777388429483
20
3.99312294694479
30
0
41
1
10
87.7096823140221
20
4.57531716931516
30
0
41
1
10
87.775654049559
20
4.84428292352891
30
0
41
1
10
87.9075975206326
20
5.32549393568524
30
0
41
1
10
87.9735692561695
20
5.5376973078763
30
0
41
1
10
88.1055127272432
20
5.89852548524908
30
0
41
1
10
88.1714844627801
20
6.04715758880118
30
0
41
1
10
88.3034279338539
20
6.28028499274063
30
0
41
1
10
88.3693996693906
20
6.36482690113829
30
0
41
1
10
88.5013431404644
20
6.47465225695402
30
0
41
1
10
88.5673148760011
20
6.5
30
0
41
1
10
88.633286611538
20
6.5
30
0
0
SPLINE
5
F6
100
AcDbEntity
8
1
62
256
6
ByLayer
370
13
48
1
60
0
100
AcDbSpline
70
4
71
3
72
8
73
4
40
0
40
0
40
0
40
0
40
1
40
1
40
1
40
1
41
1
10
89.6341934772696
20
-3.93072233025634
30
0
41
1
10
90.4227956515132
20
-2.6245640017099
30
0
41
1
10
91.2113978257568
20
-1.3143195544157
30
0
41
1
10
92.0000000000003
20
5.4E-13
30
0
0
SPLINE
5
F7
100
AcDbEntity
8
1
62
256
6
ByLayer
370
13
48
1
60
0
100
AcDbSpline
70
4
71
3
72
8
73
4
40
0
40
0
40
0
40
0
40
1
40
1
40
1
40
1
41
1
10
89.6341934772696
20
-6.38312766186129
30
0
41
1
10
90.4227956515131
20
-4.25445077744735
30
0
41
1
10
91.2113978257566
20
-2.12673560329492
30
0
41
1
10
92.0000000000001
20
2.558E-13
30
0
0
SPLINE
5
F8
100
AcDbEntity
8
1
62
256
6
ByLayer
370
13
48
1
60
0
100
AcDbSpline
70
4
71
3
72
8
73
4
40
0
40
0
40
0
40
0
40
1
40
1
40
1
40
1
41
1
10
89.6341934772697
20
4.84757776588009
30
0
41
1
10
90.4227956515131
20
3.23513334829889
30
0
41
1
10
91.2113978257565
20
1.61926956780729
30
0
41
1
10
92
20
2.84E-14
30
0
0
SPLINE
5
F9
100
AcDbEntity
8
1
62
256
6
ByLayer
370
13
48
1
60
0
100
AcDbSpline
70
4
71
3
72
8
73
4
40
0
40
0
40
0
40
0
40
1
40
1
40
1
40
1
41
1
10
89.6341934772697
20
0.654383090976097
30
0
41
1
10
90.4227956515131
20
0.441355265573662
30
0
41
1
10
91.2113978257565
20
0.223226953389769
30
0
41
1
10
92
20
0
30
0
0
SPLINE
5
FA
100
AcDbEntity
8
1
62
256
6
ByLayer
370
13
48
1
60
0
100
AcDbSpline
70
4
71
3
72
8
73
4
40
0
40
0
40
0
40
0
40
1
40
1
40
1
40
1
41
1
10
89.6341934772698
20
6.06466482061455
30
0
41
1
10
90.4227956515132
20
4.04126552206131
30
0
41
1
10
91.2113978257565
20
2.01970492621726
30
0
41
1
10
91.9999999999999
20
3.411E-13
30
0
0
SPLINE
5
FB
100
AcDbEntity
8
1
62
256
6
ByLayer
370
13
48
1
60
0
100
AcDbSpline
70
4
71
3
72
8
73
4
40
0
40
0
40
0
40
0
40
1
40
1
40
1
40
1
41
1
10
89.6341934772698
20
6.39164207090607
30
0
41
1
10
90.4227956515132
20
4.26016265701185
30
0
41
1
10
91.2113978257565
20
2.1296093385356
30
0
41
1
10
91.9999999999999
20
3.411E-13
30
0
0
SPLINE
5
FC
100
AcDbEntity
8
1
62
256
6
ByLayer
370
13
48
1
60
0
100
AcDbSpline
70
4
71
3
72
8
73
4
40
0
40
0
40
0
40
0
40
1
40
1
40
1
40
1
41
1
10
89.6341934772697
20
2.9511527319147
30
0
41
1
10
90.4227956515131
20
1.97200229135817
30
0
41
1
10
91.2113978257565
20
0.988281956840581
30
0
41
1
10
92
20
2.84E-14
30
0
0
SPLINE
5
FD
100
AcDbEntity
8
1
62
256
6
ByLayer
370
13
48
1
60
0
100
AcDbSpline
70
4
71
3
72
8
73
4
40
0
40
0
40
0
40
0
40
1
40
1
40
1
40
1
41
1
10
89.6341934772698
20
-0.608652811182708
30
0
41
1
10
90.4227956515132
20
-0.410871932813535
30
0
41
1
10
91.2113978257565
20
-0.207987089883176
30
0
41
1
10
91.9999999999999
20
-2.84E-14
30
0
0
SPLINE
5
FE
100
AcDbEntity
8
1
62
256
6
ByLayer
370
13
48
1
60
0
100
AcDbSpline
70
4
71
3
72
8
73
4
40
0
40
0
40
0
40
0
40
1
40
1
40
1
40
1
41
1
10
89.6341934772698
20
-2.91014036594703
30
0
41
1
10
90.4227956515132
20
-1.94467705111492
30
0
41
1
10
91.2113978257565
20
-0.974627543496013
30
0
41
1
10
91.9999999999999
20
-1.705E-13
30
0
0
SPLINE
5
FF
100
AcDbEntity
8
1
62
256
6
ByLayer
370
13
48
1
60
0
100
AcDbSpline
70
4
71
3
72
8
73
4
40
0
40
0
40
0
40
0
40
1
40
1
40
1
40
1
41
1
10
89.6341934772696
20
-4.77558266165281
30
0
41
1
10
90.4227956515131
20
-3.18024442241807
30
0
41
1
10
91.2113978257566
20
-1.58837908359138
30
0
41
1
10
92.0000000000001
20
1.99E-13
30
0
0
SPLINE
5
100
100
AcDbEntity
8
1
62
256
6
ByLayer
370
13
48
1
60
0
100
AcDbSpline
70
4
71
3
72
8
73
4
40
0
40
0
40
0
40
0
40
1
40
1
40
1
40
1
41
1
10
89.6341934772698
20
5.53023489777894
30
0
41
1
10
90.4227956515132
20
3.68412969498021
30
0
41
1
10
91.2113978257565
20
1.84071290607764
30
0
41
1
10
91.9999999999999
20
3.126E-13
30
0
0
SPLINE
5
101
100
AcDbEntity
8
1
62
256
6
ByLayer
370
13
48
1
60
0
100
AcDbSpline
70
4
71
3
72
8
73
4
40
0
40
0
40
0
40
0
40
1
40
1
40
1
40
1
41
1
10
89.6341934772697
20
6.40247627632479
30
0
41
1
10
90.4227956515131
20
4.26920212306436
30
0
41
1
10
91.2113978257566
20
2.1350373909805
30
0
41
1
10
92
20
0
30
0
0
SPLINE
5
102
100
AcDbEntity
8
1
62
256
6
ByLayer
370
13
48
1
60
0
100
AcDbSpline
70
4
71
3
72
8
73
4
40
0
40
0
40
0
40
0
40
1
40
1
40
1
40
1
41
1
10
89.6341934772697
20
5.56211735830817
30
0
41
1
10
90.4227956515131
20
3.71073066925473
30
0
41
1
10
91.2113978257565
20
1.85668635878076
30
0
41
1
10
92
20
2.84E-14
30
0
0
SPLINE
5
103
100
AcDbEntity
8
1
62
256
6
ByLayer
370
13
48
1
60
0
100
AcDbSpline
70
4
71
3
72
8
73
4
40
0
40
0
40
0
40
0
40
1
40
1
40
1
40
1
41
1
10
89.6341934772696
20
-5.5382026916179
30
0
41
1
10
90.4227956515132
20
-3.69481849783429
30
0
41
1
10
91.2113978257568
20
-1.84874576520318
30
0
41
1
10
92.0000000000003
20
7.674E-13
30
0
0
SPLINE
5
104
100
AcDbEntity
8
1
62
256
6
ByLayer
370
13
48
1
60
0
100
AcDbSpline
70
4
71
3
72
8
73
4
40
0
40
0
40
0
40
0
40
1
40
1
40
1
40
1
41
1
10
89.6341934772696
20
-3.8818557433261
30
0
41
1
10
90.4227956515131
20
-2.58379240503138
30
0
41
1
10
91.2113978257566
20
-1.28983687327565
30
0
41
1
10
92.0000000000001
20
1.705E-13
30
0
0
SPLINE
5
105
100
AcDbEntity
8
1
62
256
6
ByLayer
370
13
48
1
60
0
100
AcDbSpline
70
4
71
3
72
8
73
4
40
0
40
0
40
0
40
0
40
1
40
1
40
1
40
1
41
1
10
89.6341934772697
20
-1.7311582148559
30
0
41
1
10
90.4227956515132
20
-1.14916470355962
30
0
41
1
10
91.2113978257566
20
-0.57211035499023
30
0
41
1
10
92.0000000000001
20
5.68E-14
30
0
0
SPLINE
5
106
100
AcDbEntity
8
1
62
256
6
ByLayer
370
13
48
1
60
0
100
AcDbSpline
70
4
71
3
72
8
73
4
40
0
40
0
40
0
40
0
40
1
40
1
40
1
40
1
41
1
10
89.6341934772696
20
-4.81684692939183
30
0
41
1
10
90.4227956515131
20
-3.21467306143674
30
0
41
1
10
91.2113978257566
20
-1.60905292174962
30
0
41
1
10
92.0000000000001
20
1.99E-13
30
0
0
SPLINE
5
107
100
AcDbEntity
8
1
62
256
6
ByLayer
370
13
48
1
60
0
100
AcDbSpline
70
4
71
3
72
8
73
4
40
0
40
0
40
0
40
0
40
1
40
1
40
1
40
1
41
1
10
89.6341934772698
20
1.7754027746567
30
0
41
1
10
90.4227956515132
20
1.17867085052964
30
0
41
1
10
91.2113978257565
20
0.58686827407783
30
0
41
1
10
91.9999999999999
20
8.53E-14
30
0
0
SPLINE
5
108
100
AcDbEntity
8
1
62
256
6
ByLayer
370
13
48
1
60
0
100
AcDbSpline
70
4
71
3
72
8
73
4
40
0
40
0
40
0
40
0
40
1
40
1
40
1
40
1
41
1
10
89.6341934772697
20
6.08639481010445
30
0
41
1
10
90.4227956515131
20
4.05939583201254
30
0
41
1
10
91.2113978257565
20
2.03059188266886
30
0
41
1
10
92
20
-2.84E-14
30
0
0
SPLINE
5
109
100
AcDbEntity
8
1
62
256
6
ByLayer
370
13
48
1
60
0
100
AcDbSpline
70
4
71
3
72
8
73
4
40
0
40
0
40
0
40
0
40
1
40
1
40
1
40
1
41
1
10
89.6341934772696
20
-6.4999281150869
30
0
41
1
10
90.422795651513
20
-4.33326130282745
30
0
41
1
10
91.2113978257564
20
-2.16661253443041
30
0
41
1
10
91.9999999999999
20
-3.695E-13
30
0
0
SPLINE
5
10A
100
AcDbEntity
8
1
62
256
6
ByLayer
370
13
48
1
60
0
100
AcDbSpline
70
4
71
3
72
8
73
4
40
0
40
0
40
0
40
0
40
1
40
1
40
1
40
1
41
1
10
89.6341934772697
20
-2.85534302855319
30
0
41
1
10
90.4227956515131
20
-1.89895716193016
30
0
41
1
10
91.2113978257565
20
-0.947173493130833
30
0
41
1
10
92
20
-2.84E-14
30
0
0
SPLINE
5
10B
100
AcDbEntity
8
1
62
256
6
ByLayer
370
13
48
1
60
0
100
AcDbSpline
70
4
71
3
72
8
73
4
40
0
40
0
40
0
40
0
40
1
40
1
40
1
40
1
41
1
10
89.6341934772698
20
-1.79001186209282
30
0
41
1
10
90.4227956515132
20
-1.1982689549296
30
0
41
1
10
91.2113978257565
20
-0.601596659841221
30
0
41
1
10
91.9999999999999
20
-1.137E-13
30
0
0
SPLINE
5
10C
100
AcDbEntity
8
1
62
256
6
ByLayer
370
13
48
1
60
0
100
AcDbSpline
70
4
71
3
72
8
73
4
40
0
40
0
40
0
40
0
40
1
40
1
40
1
40
1
41
1
10
89.6341934772696
20
-6.07011435702233
30
0
41
1
10
90.4227956515131
20
-4.0485760802265
30
0
41
1
10
91.2113978257566
20
-2.02519896373224
30
0
41
1
10
92.0000000000001
20
2.558E-13
30
0
0
SPLINE
5
10D
100
AcDbEntity
8
1
62
256
6
ByLayer
370
13
48
1
60
0
100
AcDbSpline
70
4
71
3
72
8
73
4
40
0
40
0
40
0
40
0
40
1
40
1
40
1
40
1
41
1
10
89.6341934772698
20
4.80663343071532
30
0
41
1
10
90.4227956515132
20
3.20097164345157
30
0
41
1
10
91.2113978257565
20
1.59875601928053
30
0
41
1
10
91.9999999999999
20
2.558E-13
30
0
0
SPLINE
5
10E
100
AcDbEntity
8
1
62
256
6
ByLayer
370
13
48
1
60
0
100
AcDbSpline
70
4
71
3
72
8
73
4
40
0
40
0
40
0
40
0
40
1
40
1
40
1
40
1
41
1
10
89.6341934772698
20
2.89654843787173
30
0
41
1
10
90.4227956515132
20
1.9264434669447
30
0
41
1
10
91.2113978257565
20
0.960924623252936
30
0
41
1
10
91.9999999999999
20
1.705E-13
30
0
0
SPLINE
5
10F
100
AcDbEntity
8
1
62
256
6
ByLayer
370
13
48
1
60
0
100
AcDbSpline
70
4
71
3
72
8
73
4
40
0
40
0
40
0
40
0
40
1
40
1
40
1
40
1
41
1
10
89.6341934772696
20
-6.04798094683699
30
0
41
1
10
90.422795651513
20
-4.03010917820041
30
0
41
1
10
91.2113978257564
20
-2.01410988921043
30
0
41
1
10
91.9999999999999
20
-3.411E-13
30
0
0
SPLINE
5
110
100
AcDbEntity
8
1
62
256
6
ByLayer
370
13
48
1
60
0
100
AcDbSpline
70
4
71
3
72
8
73
4
40
0
40
0
40
0
40
0
40
1
40
1
40
1
40
1
41
1
10
89.6341934772697
20
-0.547756048033335
30
0
41
1
10
90.4227956515132
20
-0.360063017721785
30
0
41
1
10
91.2113978257566
20
-0.177477162173403
30
0
41
1
10
92.0000000000001
20
2.84E-14
30
0
0
SPLINE
5
111
100
AcDbEntity
8
1
62
256
6
ByLayer
370
13
48
1
60
0
100
AcDbSpline
70
4
71
3
72
8
73
4
40
0
40
0
40
0
40
0
40
1
40
1
40
1
40
1
41
1
10
89.6341934772696
20
-5.50595226091588
30
0
41
1
10
90.422795651513
20
-3.66791050945452
30
0
41
1
10
91.2113978257564
20
-1.8325879555201
30
0
41
1
10
91.9999999999999
20
-3.126E-13
30
0
0
SPLINE
5
112
100
AcDbEntity
8
1
62
256
6
ByLayer
370
13
48
1
60
0
100
AcDbSpline
70
4
71
3
72
8
73
4
40
0
40
0
40
0
40
0
40
1
40
1
40
1
40
1
41
1
10
89.6341934772696
20
-6.39438693877415
30
0
41
1
10
90.4227956515131
20
-4.26384489981237
30
0
41
1
10
91.2113978257566
20
-2.13237662109142
30
0
41
1
10
92.0000000000001
20
2.558E-13
30
0
0
SPLINE
5
113
100
AcDbEntity
8
1
62
256
6
ByLayer
370
13
48
1
60
0
100
AcDbSpline
70
4
71
3
72
8
73
4
40
0
40
0
40
0
40
0
40
1
40
1
40
1
40
1
41
1
10
89.6341934772697
20
3.9672181334922
30
0
41
1
10
90.4227956515132
20
2.64887252342442
30
0
41
1
10
91.2113978257566
20
1.32646277436089
30
0
41
1
10
92
20
-5.68E-14
30
0
0
SPLINE
5
114
100
AcDbEntity
8
1
62
256
6
ByLayer
370
13
48
1
60
0
100
AcDbSpline
70
4
71
3
72
8
73
4
40
0
40
0
40
0
40
0
40
1
40
1
40
1
40
1
41
1
10
89.6341934772698
20
0.593526294267292
30
0
41
1
10
90.4227956515132
20
0.390579696285215
30
0
41
1
10
91.2113978257565
20
0.192737049292958
30
0
41
1
10
91.9999999999999
20
2.84E-14
30
0
0
SPLINE
5
115
100
AcDbEntity
8
1
62
256
6
ByLayer
370
13
48
1
60
0
100
AcDbSpline
70
4
71
3
72
8
73
4
40
0
40
0
40
0
40
0
40
1
40
1
40
1
40
1
41
1
10
89.6341934772697
20
1.83413788969534
30
0
41
1
10
90.4227956515131
20
1.2276762051423
30
0
41
1
10
91.2113978257565
20
0.616295193033295
30
0
41
1
10
92
20
0
30
0
0
SPLINE
5
116
100
AcDbEntity
8
1
62
256
6
ByLayer
370
13
48
1
60
0
100
AcDbSpline
70
4
71
3
72
8
73
4
40
0
40
0
40
0
40
0
40
1
40
1
40
1
40
1
41
1
10
89.6341934772698
20
3.91861249767356
30
0
41
1
10
90.4227956515133
20
2.60831865002333
30
0
41
1
10
91.2113978257569
20
1.30211083250987
30
0
41
1
10
92.0000000000003
20
-5.4E-13
30
0
0
LINE
5
7D
100
AcDbEntity
8
SK4
62
256
6
ByLayer
370
18
48
0.05
60
0
100
AcDbLine
10
-53
20
0
30
0
11
97
21
0
31
0
39
0
210
0
220
0
230
1
0
LINE
5
7F
100
AcDbEntity
8
80
62
256
6
ByLayer
370
18
48
1
60
0
100
AcDbLine
10
0
20
0
30
0
11
-5
21
0
31
0
39
0
210
0
220
0
230
1
0
LINE
5
80
100
AcDbEntity
8
4
62
256
6
ByLayer
370
18
48
0.05
60
0
100
AcDbLine
10
-5
20
0
30
0
11
97
21
0
31
0
39
0
210
0
220
0
230
1
0
LINE
5
82
100
AcDbEntity
8
81
62
256
6
ByLayer
370
18
48
1
60
0
100
AcDbLine
10
92
20
0
30
0
11
97
21
0
31
0
39
0
210
0
220
0
230
1
0
LINE
5
83
100
AcDbEntity
8
1
62
256
6
ByLayer
370
18
48
1
60
0
100
AcDbLine
10
0
20
8
30
0
11
0
21
-8
31
0
39
0
210
0
220
0
230
1
0
LINE
5
84
100
AcDbEntity
8
1
62
256
6
ByLayer
370
18
48
1
60
0
100
AcDbLine
10
89.634193
20
6.5
30
0
11
89.634193
21
6.293615
31
0
39
0
210
0
220
0
230
1
0
LINE
5
85
100
AcDbEntity
8
1
62
256
6
ByLayer
370
18
48
1
60
0
100
AcDbLine
10
89.634193
20
-6.5
30
0
11
89.634193
21
-0.926642
31
0
39
0
210
0
220
0
230
1
0
LINE
5
86
100
AcDbEntity
8
1
62
256
6
ByLayer
370
18
48
1
60
0
100
AcDbLine
10
10
20
-3.735246
30
0
11
10
21
5.929791
31
0
39
0
210
0
220
0
230
1
0
LINE
5
87
100
AcDbEntity
8
SK1
62
256
6
ByLayer
370
13
48
1
60
0
100
AcDbLine
10
-14.956081
20
-5.420003
30
0
11
-14.956081
21
5.420003
31
0
39
0
210
0
220
0
230
1
0
LINE
5
89
100
AcDbEntity
8
SK1
62
256
6
ByLayer
370
13
48
1
60
0
100
AcDbLine
10
-40.20852
20
4.268613
30
0
11
-40.20852
21
-4.268613
31
0
39
0
210
0
220
0
230
1
0
LINE
5
8A
100
AcDbEntity
8
SK1
62
256
6
ByLayer
370
13
48
1
60
0
100
AcDbLine
10
-13.809044
20
4.913811
30
0
11
-13.809044
21
-4.913811
31
0
39
0
210
0
220
0
230
1
0
LINE
5
8B
100
AcDbEntity
8
SK1
62
256
6
ByLayer
370
18
48
1
60
0
100
AcDbLine
10
0
20
8
30
0
11
0
21
-8
31
0
39
0
210
0
220
0
230
1
0
LINE
5
8C
100
AcDbEntity
8
SK1
62
256
6
ByLayer
370
13
48
1
60
0
100
AcDbLine
10
-41.322847
20
-3.330349
30
0
11
-41.322847
21
3.330349
31
0
39
0
210
0
220
0
230
1
0
LINE
5
8D
100
AcDbEntity
8
SK1
62
256
6
ByLayer
370
18
48
1
60
0
100
AcDbLine
10
-48
20
-7
30
0
11
-48
21
7
31
0
39
0
210
0
220
0
230
1
0
LINE
5
8E
100
AcDbEntity
8
SK1
62
256
6
ByLayer
370
18
48
1
60
0
100
AcDbLine
10
-47
20
-8
30
0
11
-47
21
8
31
0
39
0
210
0
220
0
230
1
0
LINE
5
8F
100
AcDbEntity
8
1
62
256
6
ByLayer
370
18
48
1
60
0
100
AcDbLine
10
29.124287
20
-6.4
30
0
11
58.918949
21
-6.4
31
0
39
0
210
0
220
0
230
1
0
LINE
5
90
100
AcDbEntity
8
1
62
256
6
ByLayer
370
18
48
1
60
0
100
AcDbLine
10
58.918949
20
6.4
30
0
11
29.124287
21
6.4
31
0
39
0
210
0
220
0
230
1
0
LINE
5
91
100
AcDbEntity
8
1
62
256
6
ByLayer
370
18
48
1
60
0
100
AcDbLine
10
92
20
0
30
0
11
89.634193
21
6.5
31
0
39
0
210
0
220
0
230
1
0
LINE
5
92
100
AcDbEntity
8
1
62
256
6
ByLayer
370
18
48
1
60
0
100
AcDbLine
10
89.634193
20
-6.5
30
0
11
92
21
0
31
0
39
0
210
0
220
0
230
1
0
LINE
5
93
100
AcDbEntity
8
1
62
256
6
ByLayer
370
18
48
1
60
0
100
AcDbLine
10
4.989473
20
7.201684
30
0
11
0
21
8
31
0
39
0
210
0
220
0
230
1
0
LINE
5
94
100
AcDbEntity
8
1
62
256
6
ByLayer
370
18
48
1
60
0
100
AcDbLine
10
0
20
-8
30
0
11
4.989473
21
-7.201684
31
0
39
0
210
0
220
0
230
1
0
LINE
5
95
100
AcDbEntity
8
1
62
256
6
ByLayer
370
18
48
1
60
0
100
AcDbLine
10
82.3
20
-6.5
30
0
11
89.634193
21
-6.5
31
0
39
0
210
0
220
0
230
1
0
LINE
5
96
100
AcDbEntity
8
1
62
256
6
ByLayer
370
18
48
1
60
0
100
AcDbLine
10
92
20
0
30
0
11
89.634193
21
6.5
31
0
39
0
210
0
220
0
230
1
0
LINE
5
97
100
AcDbEntity
8
1
62
256
6
ByLayer
370
18
48
1
60
0
100
AcDbLine
10
89.634193
20
-6.5
30
0
11
92
21
0
31
0
39
0
210
0
220
0
230
1
0
LINE
5
98
100
AcDbEntity
8
SK1
62
256
6
ByLayer
370
18
48
1
60
0
100
AcDbLine
10
-47
20
-8
30
0
11
0
21
-8
31
0
39
0
210
0
220
0
230
1
0
LINE
5
99
100
AcDbEntity
8
SK1
62
256
6
ByLayer
370
18
48
1
60
0
100
AcDbLine
10
0
20
8
30
0
11
-47
21
8
31
0
39
0
210
0
220
0
230
1
0
LINE
5
9A
100
AcDbEntity
8
SK1
62
256
6
ByLayer
370
18
48
1
60
0
100
AcDbLine
10
-48
20
-7
30
0
11
-47
21
-8
31
0
39
0
210
0
220
0
230
1
0
LINE
5
9B
100
AcDbEntity
8
SK1
62
256
6
ByLayer
370
18
48
1
60
0
100
AcDbLine
10
-47
20
8
30
0
11
-48
21
7
31
0
39
0
210
0
220
0
230
1
0
LINE
5
9C
100
AcDbEntity
8
1
62
256
6
ByLayer
370
18
48
1
60
0
100
AcDbLine
10
89.634193
20
6.5
30
0
11
89.634193
21
-6.5
31
0
39
0
210
0
220
0
230
1
0
LINE
5
9D
100
AcDbEntity
8
1
62
256
6
ByLayer
370
18
48
1
60
0
100
AcDbLine
10
89.634193
20
6.5
30
0
11
89.634193
21
-6.5
31
0
39
0
210
0
220
0
230
1
0
LINE
5
9E
100
AcDbEntity
8
1
62
256
6
ByLayer
370
18
48
1
60
0
100
AcDbLine
10
89.634193
20
6.5
30
0
11
89.634193
21
-6.5
31
0
39
0
210
0
220
0
230
1
0
LINE
5
9F
100
AcDbEntity
8
1
62
256
6
ByLayer
370
18
48
1
60
0
100
AcDbLine
10
82.3
20
6.5
30
0
11
82.3
21
-6.5
31
0
39
0
210
0
220
0
230
1
0
LINE
5
A0
100
AcDbEntity
8
1
62
256
6
ByLayer
370
18
48
1
60
0
100
AcDbLine
10
82.3
20
6.5
30
0
11
82.3
21
-6.5
31
0
39
0
210
0
220
0
230
1
0
LINE
5
A1
100
AcDbEntity
8
1
62
256
6
ByLayer
370
18
48
1
60
0
100
AcDbLine
10
89.634193
20
6.5
30
0
11
89.634193
21
-6.5
31
0
39
0
210
0
220
0
230
1
0
LINE
5
A2
100
AcDbEntity
8
1
62
256
6
ByLayer
370
18
48
1
60
0
100
AcDbLine
10
82.3
20
6.5
30
0
11
82.3
21
-6.5
31
0
39
0
210
0
220
0
230
1
0
LINE
5
A3
100
AcDbEntity
8
1
62
256
6
ByLayer
370
18
48
1
60
0
100
AcDbLine
10
89.634193
20
6.5
30
0
11
89.634193
21
-6.5
31
0
39
0
210
0
220
0
230
1
0
LINE
5
A4
100
AcDbEntity
8
SK2
62
256
6
ByLayer
370
13
48
1
60
0
100
AcDbLine
10
-54.5
20
-8
30
0
11
-54.5
21
36.274683
31
0
39
0
210
0
220
0
230
1
0
LINE
5
A6
100
AcDbEntity
8
SK2
62
256
6
ByLayer
370
13
48
1
60
0
100
AcDbLine
10
-49.5875
20
8
30
0
11
-56.5
21
8
31
0
39
0
210
0
220
0
230
1
0
LINE
5
A7
100
AcDbEntity
8
SK2
62
256
6
ByLayer
370
13
48
1
60
0
100
AcDbLine
10
-49.5875
20
-8
30
0
11
-56.5
21
-8
31
0
39
0
210
0
220
0
230
1
0
LINE
5
A8
100
AcDbEntity
8
1
62
256
6
ByLayer
370
18
48
1
60
1
100
AcDbLine
10
-54.5
20
8
30
0
11
-54.039216
21
4.500002
31
0
39
0
210
0
220
0
230
1
0
LINE
5
A9
100
AcDbEntity
8
1
62
256
6
ByLayer
370
18
48
1
60
1
100
AcDbLine
10
-54.039216
20
4.500002
30
0
11
-54.960784
21
4.499998
31
0
39
0
210
0
220
0
230
1
0
LINE
5
AA
100
AcDbEntity
8
1
62
256
6
ByLayer
370
18
48
1
60
1
100
AcDbLine
10
-54.960784
20
4.499998
30
0
11
-54.5
21
8
31
0
39
0
210
0
220
0
230
1
0
LINE
5
AB
100
AcDbEntity
8
1
62
256
6
ByLayer
370
18
48
1
60
1
100
AcDbLine
10
-54.5
20
-8
30
0
11
-54.960784
21
-4.500002
31
0
39
0
210
0
220
0
230
1
0
LINE
5
AC
100
AcDbEntity
8
1
62
256
6
ByLayer
370
18
48
1
60
1
100
AcDbLine
10
-54.960784
20
-4.500002
30
0
11
-54.039216
21
-4.499998
31
0
39
0
210
0
220
0
230
1
0
LINE
5
AD
100
AcDbEntity
8
1
62
256
6
ByLayer
370
18
48
1
60
1
100
AcDbLine
10
-54.039216
20
-4.499998
30
0
11
-54.5
21
-8
31
0
39
0
210
0
220
0
230
1
0
LINE
5
AE
100
AcDbEntity
8
2
62
256
6
ByLayer
370
13
48
1
60
0
100
AcDbLine
10
99.5
20
-6.5
30
0
11
99.5
21
34.774683
31
0
39
0
210
0
220
0
230
1
0
LINE
5
B0
100
AcDbEntity
8
2
62
256
6
ByLayer
370
13
48
1
60
0
100
AcDbLine
10
91.221693
20
6.5
30
0
11
101.5
21
6.5
31
0
39
0
210
0
220
0
230
1
0
LINE
5
B1
100
AcDbEntity
8
2
62
256
6
ByLayer
370
13
48
1
60
0
100
AcDbLine
10
91.221693
20
-6.5
30
0
11
101.5
21
-6.5
31
0
39
0
210
0
220
0
230
1
0
LINE
5
B2
100
AcDbEntity
8
1
62
256
6
ByLayer
370
18
48
1
60
1
100
AcDbLine
10
99.5
20
6.5
30
0
11
99.960784
21
3.000002
31
0
39
0
210
0
220
0
230
1
0
LINE
5
B3
100
AcDbEntity
8
1
62
256
6
ByLayer
370
18
48
1
60
1
100
AcDbLine
10
99.960784
20
3.000002
30
0
11
99.039216
21
2.999998
31
0
39
0
210
0
220
0
230
1
0
LINE
5
B4
100
AcDbEntity
8
1
62
256
6
ByLayer
370
18
48
1
60
1
100
AcDbLine
10
99.039216
20
2.999998
30
0
11
99.5
21
6.5
31
0
39
0
210
0
220
0
230
1
0
LINE
5
B5
100
AcDbEntity
8
1
62
256
6
ByLayer
370
18
48
1
60
1
100
AcDbLine
10
99.5
20
-6.5
30
0
11
99.039216
21
-3.000002
31
0
39
0
210
0
220
0
230
1
0
LINE
5
B6
100
AcDbEntity
8
1
62
256
6
ByLayer
370
18
48
1
60
1
100
AcDbLine
10
99.039216
20
-3.000002
30
0
11
99.960784
21
-2.999998
31
0
39
0
210
0
220
0
230
1
0
LINE
5
B7
100
AcDbEntity
8
1
62
256
6
ByLayer
370
18
48
1
60
1
100
AcDbLine
10
99.960784
20
-2.999998
30
0
11
99.5
21
-6.5
31
0
39
0
210
0
220
0
230
1
0
LINE
5
B8
100
AcDbEntity
8
SK2
62
256
6
ByLayer
370
13
48
1
60
0
100
AcDbLine
10
92.542957
20
-1.491762
30
0
11
99.182423
21
-19.733545
31
0
39
0
210
0
220
0
230
1
0
LINE
5
B9
100
AcDbEntity
8
SK2
62
256
6
ByLayer
370
13
48
1
60
0
100
AcDbLine
10
92.542957
20
1.491762
30
0
11
99.182423
21
19.733545
31
0
39
0
210
0
220
0
230
1
0
LINE
5
BA
100
AcDbEntity
8
1
62
256
6
ByLayer
370
18
48
1
60
1
100
AcDbLine
10
98.498383
20
-17.85416
30
0
11
101.551575
21
-16.082064
31
0
39
0
210
0
220
0
230
1
0
LINE
5
BB
100
AcDbEntity
8
1
62
256
6
ByLayer
370
18
48
1
60
1
100
AcDbLine
10
101.551575
20
-16.082064
30
0
11
101.906196
21
-16.93267
31
0
39
0
210
0
220
0
230
1
0
LINE
5
BC
100
AcDbEntity
8
1
62
256
6
ByLayer
370
18
48
1
60
1
100
AcDbLine
10
101.906196
20
-16.93267
30
0
11
98.498383
21
-17.85416
31
0
39
0
210
0
220
0
230
1
0
LINE
5
BD
100
AcDbEntity
8
1
62
256
6
ByLayer
370
18
48
1
60
1
100
AcDbLine
10
98.498383
20
17.85416
30
0
11
101.906193
21
16.932671
31
0
39
0
210
0
220
0
230
1
0
LINE
5
BE
100
AcDbEntity
8
1
62
256
6
ByLayer
370
18
48
1
60
1
100
AcDbLine
10
101.906193
20
16.932671
30
0
11
101.551579
21
16.082063
31
0
39
0
210
0
220
0
230
1
0
LINE
5
BF
100
AcDbEntity
8
1
62
256
6
ByLayer
370
18
48
1
60
1
100
AcDbLine
10
101.551579
20
16.082063
30
0
11
98.498383
21
17.85416
31
0
39
0
210
0
220
0
230
1
0
LINE
5
11B
100
AcDbEntity
8
1
62
256
6
ByLayer
370
18
48
1
60
1
100
AcDbLine
10
-54.5
20
8
30
0
11
-54.039216
21
4.500002
31
0
39
0
210
0
220
0
230
1
0
LINE
5
11C
100
AcDbEntity
8
1
62
256
6
ByLayer
370
18
48
1
60
1
100
AcDbLine
10
-54.039216
20
4.500002
30
0
11
-54.960784
21
4.499998
31
0
39
0
210
0
220
0
230
1
0
LINE
5
11D
100
AcDbEntity
8
1
62
256
6
ByLayer
370
18
48
1
60
1
100
AcDbLine
10
-54.960784
20
4.499998
30
0
11
-54.5
21
8
31
0
39
0
210
0
220
0
230
1
0
LINE
5
11F
100
AcDbEntity
8
1
62
256
6
ByLayer
370
18
48
1
60
1
100
AcDbLine
10
-54.5
20
-8
30
0
11
-54.960784
21
-4.500002
31
0
39
0
210
0
220
0
230
1
0
LINE
5
120
100
AcDbEntity
8
1
62
256
6
ByLayer
370
18
48
1
60
1
100
AcDbLine
10
-54.960784
20
-4.500002
30
0
11
-54.039216
21
-4.499998
31
0
39
0
210
0
220
0
230
1
0
LINE
5
121
100
AcDbEntity
8
1
62
256
6
ByLayer
370
18
48
1
60
1
100
AcDbLine
10
-54.039216
20
-4.499998
30
0
11
-54.5
21
-8
31
0
39
0
210
0
220
0
230
1
0
LINE
5
125
100
AcDbEntity
8
1
62
256
6
ByLayer
370
18
48
1
60
1
100
AcDbLine
10
99.5
20
6.5
30
0
11
99.960784
21
3.000002
31
0
39
0
210
0
220
0
230
1
0
LINE
5
126
100
AcDbEntity
8
1
62
256
6
ByLayer
370
18
48
1
60
1
100
AcDbLine
10
99.960784
20
3.000002
30
0
11
99.039216
21
2.999998
31
0
39
0
210
0
220
0
230
1
0
LINE
5
127
100
AcDbEntity
8
1
62
256
6
ByLayer
370
18
48
1
60
1
100
AcDbLine
10
99.039216
20
2.999998
30
0
11
99.5
21
6.5
31
0
39
0
210
0
220
0
230
1
0
LINE
5
129
100
AcDbEntity
8
1
62
256
6
ByLayer
370
18
48
1
60
1
100
AcDbLine
10
99.5
20
-6.5
30
0
11
99.039216
21
-3.000002
31
0
39
0
210
0
220
0
230
1
0
LINE
5
12A
100
AcDbEntity
8
1
62
256
6
ByLayer
370
18
48
1
60
1
100
AcDbLine
10
99.039216
20
-3.000002
30
0
11
99.960784
21
-2.999998
31
0
39
0
210
0
220
0
230
1
0
LINE
5
12B
100
AcDbEntity
8
1
62
256
6
ByLayer
370
18
48
1
60
1
100
AcDbLine
10
99.960784
20
-2.999998
30
0
11
99.5
21
-6.5
31
0
39
0
210
0
220
0
230
1
0
LINE
5
12E
100
AcDbEntity
8
1
62
256
6
ByLayer
370
18
48
1
60
1
100
AcDbLine
10
98.498383
20
-17.85416
30
0
11
101.551575
21
-16.082064
31
0
39
0
210
0
220
0
230
1
0
LINE
5
12F
100
AcDbEntity
8
1
62
256
6
ByLayer
370
18
48
1
60
1
100
AcDbLine
10
101.551575
20
-16.082064
30
0
11
101.906196
21
-16.93267
31
0
39
0
210
0
220
0
230
1
0
LINE
5
130
100
AcDbEntity
8
1
62
256
6
ByLayer
370
18
48
1
60
1
100
AcDbLine
10
101.906196
20
-16.93267
30
0
11
98.498383
21
-17.85416
31
0
39
0
210
0
220
0
230
1
0
LINE
5
132
100
AcDbEntity
8
1
62
256
6
ByLayer
370
18
48
1
60
1
100
AcDbLine
10
98.498383
20
17.85416
30
0
11
101.906193
21
16.932671
31
0
39
0
210
0
220
0
230
1
0
LINE
5
133
100
AcDbEntity
8
1
62
256
6
ByLayer
370
18
48
1
60
1
100
AcDbLine
10
101.906193
20
16.932671
30
0
11
101.551579
21
16.082063
31
0
39
0
210
0
220
0
230
1
0
LINE
5
134
100
AcDbEntity
8
1
62
256
6
ByLayer
370
18
48
1
60
1
100
AcDbLine
10
101.551579
20
16.082063
30
0
11
98.498383
21
17.85416
31
0
39
0
210
0
220
0
230
1
0
MTEXT
5
117
100
AcDbEntity
8
SK2
62
256
6
ByLayer
370
18
48
1
60
0
100
AcDbMText
10
-55.841114
20
19.658438
30
0
210
0
220
0
230
1
1
%%c
40
3
41
0
44
1.084337
50
90
71
7
72
5
7
iso_b_vert
0
MTEXT
5
11A
100
AcDbEntity
8
SK2
62
256
6
ByLayer
370
18
48
1
60
0
100
AcDbMText
10
-55.841114
20
25.635
30
0
210
0
220
0
230
1
1
\W0.7022;16.000
40
3
41
0
44
1.084337
50
90
71
7
72
5
7
iso_b_vert
0
MTEXT
5
123
100
AcDbEntity
8
2
62
256
6
ByLayer
370
18
48
1
60
0
100
AcDbMText
10
98.158886
20
18.158438
30
0
210
0
220
0
230
1
1
%%c
40
3
41
0
44
1.084337
50
90
71
7
72
5
7
iso_b_vert
0
MTEXT
5
124
100
AcDbEntity
8
2
62
256
6
ByLayer
370
18
48
1
60
0
100
AcDbMText
10
98.158886
20
24.135
30
0
210
0
220
0
230
1
1
\W0.7022;13.000
40
3
41
0
44
1.084337
50
90
71
7
72
5
7
iso_b_vert
0
MTEXT
5
12D
100
AcDbEntity
8
SK2
62
256
6
ByLayer
370
18
48
1
60
0
100
AcDbMText
10
111.909114
20
3.734657
30
0
210
0
220
0
230
1
1
\W0.7071;140%%d
40
3
41
0
44
1.084337
50
270
71
7
72
5
7
iso_b_vert
0
MTEXT
5
136
100
AcDbEntity
8
SK6
62
256
6
ByLayer
370
18
48
1
60
0
100
AcDbMText
10
-1.537254
20
-67.114886
30
0
210
0
220
0
230
1
1
\W0.7358;H85513.0
40
3
41
0
44
1.084337
50
0
71
7
72
5
7
iso_b_vert
0
HATCH
5
11E
100
AcDbEntity
8
SK2
62
256
6
ByLayer
370
13
48
1
60
0
100
AcDbHatch
10
0
20
0
30
0
210
0
220
0
230
1
2
ANSI31
70
0
71
0
91
1
92
5
93
3
72
1
10
-54.5
20
8
11
-54.0392162584472
21
4.50000169255318
72
1
10
-54.0392162584472
20
4.50000169255318
11
-54.9607837415528
21
4.49999830744682
72
1
10
-54.9607837415528
20
4.49999830744682
11
-54.5
21
8
97
0
75
0
76
1
52
0
41
0.0062
77
0
78
1
53
45
43
0
44
0
45
-0.0139193969876572
46
0.0139193969876572
79
0
47
0
98
1
10
0
20
0
0
HATCH
5
122
100
AcDbEntity
8
SK2
62
256
6
ByLayer
370
13
48
1
60
0
100
AcDbHatch
10
0
20
0
30
0
210
0
220
0
230
1
2
ANSI31
70
0
71
0
91
1
92
5
93
3
72
1
10
-54.5
20
-8
11
-54.9607837415528
21
-4.50000169255318
72
1
10
-54.9607837415528
20
-4.50000169255318
11
-54.0392162584472
21
-4.49999830744682
72
1
10
-54.0392162584472
20
-4.49999830744682
11
-54.5
21
-8
97
0
75
0
76
1
52
0
41
0.0062
77
0
78
1
53
45
43
0
44
0
45
-0.0139193969876572
46
0.0139193969876572
79
0
47
0
98
1
10
0
20
0
0
HATCH
5
128
100
AcDbEntity
8
2
62
256
6
ByLayer
370
13
48
1
60
0
100
AcDbHatch
10
0
20
0
30
0
210
0
220
0
230
1
2
ANSI31
70
0
71
0
91
1
92
5
93
3
72
1
10
99.5000000000001
20
6.5
11
99.9607837415529
21
3.00000169255318
72
1
10
99.9607837415529
20
3.00000169255318
11
99.0392162584473
21
2.99999830744682
72
1
10
99.0392162584473
20
2.99999830744682
11
99.5000000000001
21
6.5
97
0
75
0
76
1
52
0
41
0.0062
77
0
78
1
53
45
43
0
44
0
45
-0.0139193969876572
46
0.0139193969876572
79
0
47
0
98
1
10
0
20
0
0
HATCH
5
12C
100
AcDbEntity
8
2
62
256
6
ByLayer
370
13
48
1
60
0
100
AcDbHatch
10
0
20
0
30
0
210
0
220
0
230
1
2
ANSI31
70
0
71
0
91
1
92
5
93
3
72
1
10
99.5000000000001
20
-6.5
11
99.0392162584473
21
-3.00000169255318
72
1
10
99.0392162584473
20
-3.00000169255318
11
99.9607837415529
21
-2.99999830744682
72
1
10
99.9607837415529
20
-2.99999830744682
11
99.5000000000001
21
-6.5
97
0
75
0
76
1
52
0
41
0.0062
77
0
78
1
53
45
43
0
44
0
45
-0.0139193969876572
46
0.0139193969876572
79
0
47
0
98
1
10
0
20
0
0
HATCH
5
131
100
AcDbEntity
8
SK2
62
256
6
ByLayer
370
13
48
1
60
0
100
AcDbHatch
10
0
20
0
30
0
210
0
220
0
230
1
2
ANSI31
70
0
71
0
91
1
92
5
93
3
72
1
10
98.4983827231877
20
-17.8541597949322
11
101.551575425693
21
-16.0820638240608
72
1
10
101.551575425693
20
-16.0820638240608
11
101.906195833975
21
-16.9326700737196
72
1
10
101.906195833975
20
-16.9326700737196
11
98.4983827231877
21
-17.8541597949322
97
0
75
0
76
1
52
0
41
0.0062
77
0
78
1
53
45
43
0
44
0
45
-0.0139193969876572
46
0.0139193969876572
79
0
47
0
98
1
10
0
20
0
0
HATCH
5
135
100
AcDbEntity
8
SK2
62
256
6
ByLayer
370
13
48
1
60
0
100
AcDbHatch
10
0
20
0
30
0
210
0
220
0
230
1
2
ANSI31
70
0
71
0
91
1
92
5
93
3
72
1
10
98.4983827231877
20
17.8541597949322
11
101.906192709519
21
16.9326713763016
72
1
10
101.906192709519
20
16.9326713763016
11
101.551578550149
21
16.0820625214788
72
1
10
101.551578550149
20
16.0820625214788
11
98.4983827231877
21
17.8541597949322
97
0
75
0
76
1
52
0
41
0.0062
77
0
78
1
53
45
43
0
44
0
45
-0.0139193969876572
46
0.0139193969876572
79
0
47
0
98
1
10
0
20
0
0
DIMENSION
5
139
100
AcDbEntity
8
SK2
62
256
6
ByLayer
370
18
48
1
60
0
100
AcDbDimension
2
_U0
10
92
20
-45.952229
30
0
11
22
21
-45.952229
31
0
70
32
71
1
72
1
41
1
210
0
220
0
230
1
3
Standard
100
AcDbAlignedDimension
13
-48
23
-8
33
0
14
92
24
0
34
0
50
0
100
AcDbRotatedDimension
1001
ACAD
1000
DSTYLE
1002
{
1070
   371
1070
    13
1070
   372
1070
    13
1070
     3
1000

1070
   170
1070
     0
1070
   144
1040
1.0
1070
   277
1070
     2
1070
   284
1070
     8
1070
   278
1070
    46
1070
   146
1040
1.166667
1070
   345
1005
16
1070
   347
1005
16
1070
   346
1005
16
1070
   344
1005
0
1070
   343
1005
0
1070
   172
1070
     1
1070
    76
1070
     0
1070
    75
1070
     0
1070
   282
1070
     0
1070
   281
1070
     0
1070
    71
1070
     0
1070
    74
1070
     0
1070
   279
1070
     0
1070
   173
1070
     1
1070
   340
1005
118
1070
   271
1070
     2
1070
   272
1070
     3
1070
    77
1070
     1
1070
    73
1070
     1
1070
   171
1070
     3
1070
   274
1070
     4
1070
   177
1070
     2
1070
   176
1070
     2
1070
   178
1070
     2
1070
    78
1070
     8
1070
    48
1040
-0.1
1070
    41
1040
3.5
1070
   147
1040
1.5
1070
    42
1040
1.5875
1070
    44
1040
2.0
1070
   140
1040
3.0
1002
}
1001
ACAD_DSTYLE_DIM_LINETYPE
1070
   380
1005
16
1001
ACAD_DSTYLE_DIM_EXT1_LINETYPE
1070
   381
1005
16
1001
ACAD_DSTYLE_DIM_EXT2_LINETYPE
1070
   382
1005
16
0
DIMENSION
5
152
100
AcDbEntity
8
SK2
62
256
6
ByLayer
370
18
48
1
60
0
100
AcDbDimension
2
_U1
10
3
20
-35.952229
30
0
11
47.5
21
-35.952229
31
0
70
32
71
1
72
1
41
1
210
0
220
0
230
1
3
Standard
100
AcDbAlignedDimension
13
92
23
0
33
0
14
3
24
-6.5
34
0
50
0
100
AcDbRotatedDimension
1001
ACAD
1000
DSTYLE
1002
{
1070
   371
1070
    13
1070
   372
1070
    13
1070
     3
1000

1070
   170
1070
     0
1070
   144
1040
1.0
1070
   277
1070
     2
1070
   284
1070
     8
1070
   278
1070
    46
1070
   146
1040
1.166667
1070
   345
1005
16
1070
   347
1005
16
1070
   346
1005
16
1070
   344
1005
0
1070
   343
1005
0
1070
   172
1070
     1
1070
    76
1070
     0
1070
    75
1070
     0
1070
   282
1070
     0
1070
   281
1070
     0
1070
    71
1070
     0
1070
    74
1070
     0
1070
   279
1070
     0
1070
   173
1070
     1
1070
   340
1005
118
1070
   271
1070
     2
1070
   272
1070
     3
1070
    77
1070
     1
1070
    73
1070
     1
1070
   171
1070
     3
1070
   274
1070
     4
1070
   177
1070
     2
1070
   176
1070
     2
1070
   178
1070
     2
1070
    78
1070
     8
1070
    48
1040
-0.1
1070
    41
1040
3.5
1070
   147
1040
1.5
1070
    42
1040
1.5875
1070
    44
1040
2.0
1070
   140
1040
3.0
1002
}
1001
ACAD_DSTYLE_DIM_LINETYPE
1070
   380
1005
16
1001
ACAD_DSTYLE_DIM_EXT1_LINETYPE
1070
   381
1005
16
1001
ACAD_DSTYLE_DIM_EXT2_LINETYPE
1070
   382
1005
16
0
DIMENSION
5
16A
100
AcDbEntity
8
SK2
62
256
6
ByLayer
370
18
48
1
60
0
100
AcDbDimension
2
_U2
10
0
20
-35.952229
30
0
11
-24
21
-35.952229
31
0
70
32
71
1
72
1
41
1
210
0
220
0
230
1
3
Standard
100
AcDbAlignedDimension
13
-48
23
-8
33
0
14
0
24
-8
34
0
50
0
100
AcDbRotatedDimension
1001
ACAD
1000
DSTYLE
1002
{
1070
   371
1070
    13
1070
   372
1070
    13
1070
     3
1000

1070
   170
1070
     0
1070
   144
1040
1.0
1070
   277
1070
     2
1070
   284
1070
     8
1070
   278
1070
    46
1070
   146
1040
1.166667
1070
   345
1005
16
1070
   347
1005
16
1070
   346
1005
16
1070
   344
1005
0
1070
   343
1005
0
1070
   172
1070
     1
1070
    76
1070
     0
1070
    75
1070
     0
1070
   282
1070
     0
1070
   281
1070
     0
1070
    71
1070
     0
1070
    74
1070
     0
1070
   279
1070
     0
1070
   173
1070
     1
1070
   340
1005
118
1070
   271
1070
     2
1070
   272
1070
     3
1070
    77
1070
     1
1070
    73
1070
     1
1070
   171
1070
     3
1070
   274
1070
     4
1070
   177
1070
     2
1070
   176
1070
     2
1070
   178
1070
     2
1070
    78
1070
     8
1070
    48
1040
-0.1
1070
    41
1040
3.5
1070
   147
1040
1.5
1070
    42
1040
1.5875
1070
    44
1040
2.0
1070
   140
1040
3.0
1002
}
1001
ACAD_DSTYLE_DIM_LINETYPE
1070
   380
1005
16
1001
ACAD_DSTYLE_DIM_EXT1_LINETYPE
1070
   381
1005
16
1001
ACAD_DSTYLE_DIM_EXT2_LINETYPE
1070
   382
1005
16
0
DIMENSION
5
182
100
AcDbEntity
8
SK2
62
256
6
ByLayer
370
18
48
1
60
0
100
AcDbDimension
2
_U3
10
18
20
32.952229
30
0
11
55
21
32.952229
31
0
70
32
71
1
72
1
41
1
210
0
220
0
230
1
3
Standard
100
AcDbAlignedDimension
13
92
23
0
33
0
14
18
24
6.5
34
0
50
0
100
AcDbRotatedDimension
1001
ACAD
1000
DSTYLE
1002
{
1070
   371
1070
    13
1070
   372
1070
    13
1070
     3
1000

1070
   170
1070
     0
1070
   144
1040
1.0
1070
   277
1070
     2
1070
   284
1070
     8
1070
   278
1070
    46
1070
   146
1040
1.166667
1070
   345
1005
16
1070
   347
1005
16
1070
   346
1005
16
1070
   344
1005
0
1070
   343
1005
0
1070
   172
1070
     1
1070
    76
1070
     0
1070
    75
1070
     0
1070
   282
1070
     0
1070
   281
1070
     0
1070
    71
1070
     0
1070
    74
1070
     0
1070
   279
1070
     0
1070
   173
1070
     1
1070
   340
1005
118
1070
   271
1070
     2
1070
   272
1070
     3
1070
    77
1070
     1
1070
    73
1070
     1
1070
   171
1070
     3
1070
   274
1070
     4
1070
   177
1070
     2
1070
   176
1070
     2
1070
   178
1070
     2
1070
    78
1070
     8
1070
    48
1040
-0.1
1070
    41
1040
3.5
1070
   147
1040
1.5
1070
    42
1040
1.5875
1070
    44
1040
2.0
1070
   140
1040
3.0
1002
}
1001
ACAD_DSTYLE_DIM_LINETYPE
1070
   380
1005
16
1001
ACAD_DSTYLE_DIM_EXT1_LINETYPE
1070
   381
1005
16
1001
ACAD_DSTYLE_DIM_EXT2_LINETYPE
1070
   382
1005
16
0
ENDSEC
0
SECTION
2
OBJECTS
0
DICTIONARY
5
20a
330
0
100
AcDbDictionary
280
0
281
1
3
ACAD_GROUP
350
20b
3
ACAD_MLINESTYLE
350
20c
0
DICTIONARY
5
20b
330
0
100
AcDbDictionary
280
0
281
1
0
DICTIONARY
5
20c
330
0
100
AcDbDictionary
280
0
281
1
3
Standard
350
18
0
MLINESTYLE
5
18
330
20c
100
AcDbMlineStyle
2
Standard
70
0
3

62
256
51
90
52
90
71
2
49
-0.5
62
256
6
ByLayer
49
0.5
62
256
6
ByLayer
0
RASTERVARIABLES
5
1f8
330

100
AcDbRasterVariables
90
0
70
1
71
1
72
1
0
ENDSEC
0
EOF
