0
SECTION
2
HEADER
9
$ACADVER
1
AC1015
9
$DWGCODEPAGE
3
ANSI_1252
9
$HANDSEED
5
213
9
$ANGBASE
50
0
9
$ANGDIR
70
0
9
$ATTMODE
70
1
9
$AUNITS
70
0
9
$AUPREC
70
0
9
$CECOLOR
62
256
9
$CELTSCALE
40
1
9
$CELTYPE
6
ByLayer
9
$CELWEIGHT
370
18
9
$CLAYER
8
0
9
$CMLJUST
70
0
9
$CMLSCALE
40
1
9
$CMLSTYLE
2
Standard
9
$DIMSTYLE
2
Standard
9
$TEXTSIZE
40
0.2
9
$TEXTSTYLE
7
Standard
9
$LUNITS
70
2
9
$LUPREC
70
4
9
$EXTNAMES
290
1
9
$INSUNITS
70
4
9
$LTSCALE
40
1
9
$LWDISPLAY
290
1
9
$PDMODE
70
0
9
$PDSIZE
40
0
9
$PLINEGEN
70
0
0
ENDSEC
0
SECTION
2
CLASSES
0
CLASS
1
RASTERVARIABLES
2
AcDbRasterVariables
3
ISM
90
0
280
0
281
0
0
ENDSEC
0
SECTION
2
TABLES
0
TABLE
2
VPORT
5
209
100
AcDbSymbolTable
0
VPORT
5
1
100
AcDbSymbolTableRecord
100
AcDbViewportTableRecord
2
*Active
70
0
10
0
20
0
11
1
21
1
12
-1
22
1
13
0
23
0
14
0.5
24
0.5
15
10
25
10
16
0
26
0
36
1
17
0
27
0
37
0
0
ENDTAB
0
TABLE
2
LTYPE
5
20a
100
AcDbSymbolTable
0
LTYPE
5
14
100
AcDbSymbolTableRecord
100
AcDbLinetypeTableRecord
70
0
2
ByBlock
3

72
65
73
0
40
0
0
LTYPE
5
15
100
AcDbSymbolTableRecord
100
AcDbLinetypeTableRecord
70
0
2
ByLayer
3

72
65
73
0
40
0
0
LTYPE
5
16
100
AcDbSymbolTableRecord
100
AcDbLinetypeTableRecord
70
0
2
Continuous
3
Solid line
72
65
73
0
40
0
0
LTYPE
5
6E
100
AcDbSymbolTableRecord
100
AcDbLinetypeTableRecord
70
0
2
CENTER
3
____ _ ____ _ ____ _ ____
72
65
73
4
40
47.5
49
22
74
0
49
-8.5
74
0
49
8.5
74
0
49
-8.5
74
0
0
LTYPE
5
6F
100
AcDbSymbolTableRecord
100
AcDbLinetypeTableRecord
70
0
2
DASHED
3
__ __ __ __ __ __ __ __ __
72
65
73
2
40
25.72
49
12.86
74
0
49
-12.86
74
0
0
ENDTAB
0
TABLE
2
LAYER
5
20b
100
AcDbSymbolTable
0
LAYER
5
10
100
AcDbSymbolTableRecord
100
AcDbLayerTableRecord
2
0
70
0
62
7
6
Continuous
290
1
370
-3
390
0
0
LAYER
5
71
100
AcDbSymbolTableRecord
100
AcDbLayerTableRecord
2
80
70
0
62
-6
6
Continuous
290
1
370
-3
390
0
0
LAYER
5
73
100
AcDbSymbolTableRecord
100
AcDbLayerTableRecord
2
81
70
0
62
-3
6
Continuous
290
1
370
-3
390
0
0
LAYER
5
75
100
AcDbSymbolTableRecord
100
AcDbLayerTableRecord
2
1
70
0
62
4
6
Continuous
290
1
370
-3
390
0
0
LAYER
5
7F
100
AcDbSymbolTableRecord
100
AcDbLayerTableRecord
2
4
70
0
62
-2
6
CENTER
290
1
370
-3
390
0
0
LAYER
5
AF
100
AcDbSymbolTableRecord
100
AcDbLayerTableRecord
2
2
70
0
62
7
6
Continuous
290
1
370
-3
390
0
0
LAYER
5
138
100
AcDbSymbolTableRecord
100
AcDbLayerTableRecord
2
Defpoints
70
0
62
7
6
Continuous
290
0
370
-3
390
0
0
LAYER
5
1f5
100
AcDbSymbolTableRecord
100
AcDbLayerTableRecord
2
SK4
70
0
62
2
6
CENTER
290
1
370
-3
390
0
0
LAYER
5
1f6
100
AcDbSymbolTableRecord
100
AcDbLayerTableRecord
2
SK1
70
0
62
4
6
Continuous
290
1
370
-3
390
0
0
LAYER
5
1f7
100
AcDbSymbolTableRecord
100
AcDbLayerTableRecord
2
SK2
70
0
62
7
6
Continuous
290
1
370
-3
390
0
0
LAYER
5
1f8
100
AcDbSymbolTableRecord
100
AcDbLayerTableRecord
2
SK6
70
0
62
5
6
Continuous
290
1
370
-3
390
0
0
ENDTAB
0
TABLE
2
STYLE
5
20c
100
AcDbSymbolTable
0
STYLE
5
11
100
AcDbSymbolTableRecord
100
AcDbTextStyleTableRecord
2
Standard
3
txt
70
0
71
0
40
0
41
1
42
0
50
0
0
STYLE
5
114
100
AcDbSymbolTableRecord
100
AcDbTextStyleTableRecord
2
iso_b_vert
3
simplex.shx
70
0
71
0
40
0
41
1
42
0
50
0
0
STYLE
5
115
100
AcDbSymbolTableRecord
100
AcDbTextStyleTableRecord
2
DWGDirectTextStyle
3
simplex
70
0
71
0
40
0
41
1
42
0
50
0
0
ENDTAB
0
TABLE
2
DIMSTYLE
5
20d
100
AcDbSymbolTable
100
AcDbDimStyleTable
0
DIMSTYLE
105
27
100
AcDbSymbolTableRecord
100
AcDbDimStyleTableRecord
2
Standard
70
0
3
<>
41
0.18
42
0.0625
44
0.18
140
0.18
147
0.09
73
0
74
0
77
1
271
2
275
0
278
52
280
0
340
11
0
ENDTAB
0
TABLE
2
VIEW
5
20e
100
AcDbSymbolTable
0
ENDTAB
0
TABLE
2
UCS
5
20f
100
AcDbSymbolTable
0
ENDTAB
0
TABLE
2
APPID
5
210
100
AcDbSymbolTable
0
APPID
5
12
100
AcDbSymbolTableRecord
100
AcDbRegAppTableRecord
2
ACAD
70
0
0
APPID
5
134
100
AcDbSymbolTableRecord
100
AcDbRegAppTableRecord
2
ACAD_DSTYLE_DIMBREAK
70
0
0
APPID
5
1B4
100
AcDbSymbolTableRecord
100
AcDbRegAppTableRecord
2
ACAD_DSTYLE_DIM_LINETYPE
70
0
0
APPID
5
1B5
100
AcDbSymbolTableRecord
100
AcDbRegAppTableRecord
2
ACAD_DSTYLE_DIM_EXT1_LINETYPE
70
0
0
APPID
5
1B6
100
AcDbSymbolTableRecord
100
AcDbRegAppTableRecord
2
ACAD_DSTYLE_DIM_EXT2_LINETYPE
70
0
0
APPID
5
1F1
100
AcDbSymbolTableRecord
100
AcDbRegAppTableRecord
2
ACAD_MLEADERVER
70
0
0
ENDTAB
0
TABLE
2
BLOCK_RECORD
5
211
100
AcDbSymbolTable
0
BLOCK_RECORD
5
1F
100
AcDbSymbolTableRecord
100
AcDbBlockTableRecord
2
*Model_Space
340
0
70
0
0
BLOCK_RECORD
5
1B
100
AcDbSymbolTableRecord
100
AcDbBlockTableRecord
2
*Paper_Space
340
0
70
0
0
BLOCK_RECORD
5
23
100
AcDbSymbolTableRecord
100
AcDbBlockTableRecord
2
*Paper_Space0
340
0
70
0
0
BLOCK_RECORD
5
139
100
AcDbSymbolTableRecord
100
AcDbBlockTableRecord
2
*D1
340
0
70
0
0
BLOCK_RECORD
5
145
100
AcDbSymbolTableRecord
100
AcDbBlockTableRecord
2
_U0
340
0
70
0
0
BLOCK_RECORD
5
151
100
AcDbSymbolTableRecord
100
AcDbBlockTableRecord
2
*D3
340
0
70
0
0
BLOCK_RECORD
5
15D
100
AcDbSymbolTableRecord
100
AcDbBlockTableRecord
2
_U1
340
0
70
0
0
BLOCK_RECORD
5
169
100
AcDbSymbolTableRecord
100
AcDbBlockTableRecord
2
*D5
340
0
70
0
0
BLOCK_RECORD
5
175
100
AcDbSymbolTableRecord
100
AcDbBlockTableRecord
2
_U2
340
0
70
0
0
BLOCK_RECORD
5
181
100
AcDbSymbolTableRecord
100
AcDbBlockTableRecord
2
*D7
340
0
70
0
0
BLOCK_RECORD
5
18D
100
AcDbSymbolTableRecord
100
AcDbBlockTableRecord
2
_U3
340
0
70
0
0
ENDTAB
0
ENDSEC
0
SECTION
2
BLOCKS
0
BLOCK
5
20
100
AcDbEntity
8
0
100
AcDbBlockBegin
2
*Model_Space
70
0
10
0
20
0
30
0
3
*Model_Space
0
ENDBLK
5
21
100
AcDbEntity
8
0
100
AcDbBlockEnd
0
BLOCK
5
1C
100
AcDbEntity
8
0
100
AcDbBlockBegin
2
*Paper_Space
70
0
10
0
20
0
30
0
3
*Paper_Space
0
ENDBLK
5
1D
100
AcDbEntity
8
0
100
AcDbBlockEnd
0
BLOCK
5
24
100
AcDbEntity
8
0
100
AcDbBlockBegin
2
*Paper_Space0
70
0
10
0
20
0
30
0
3
*Paper_Space0
0
ENDBLK
5
25
100
AcDbEntity
8
0
100
AcDbBlockEnd
0
BLOCK
5
13A
100
AcDbEntity
8
0
100
AcDbBlockBegin
2
*D1
70
1
10
0
20
0
30
0
3
*D1
0
LINE
5
13C
100
AcDbEntity
8
0
62
256
6
ByLayer
370
-2
48
1
60
0
100
AcDbLine
10
-48
20
-9.5875
30
0
11
-48
21
-47.952229
31
0
39
0
210
0
220
0
230
1
0
LINE
5
13D
100
AcDbEntity
8
0
62
256
6
ByLayer
370
-2
48
1
60
0
100
AcDbLine
10
82
20
-1.5875
30
0
11
82
21
-47.952229
31
0
39
0
210
0
220
0
230
1
0
LINE
5
13E
100
AcDbEntity
8
0
62
256
6
ByLayer
370
-2
48
1
60
0
100
AcDbLine
10
-44.5
20
-45.952229
30
0
11
78.5
21
-45.952229
31
0
39
0
210
0
220
0
230
1
0
SOLID
5
13F
100
AcDbEntity
8
0
62
256
6
ByLayer
370
-1
48
1
60
0
100
AcDbTrace
10
-44.5
20
-45.368896
30
0
11
-44.5
21
-46.535563
31
0
12
-48
22
-45.952229
32
0
13
-48
23
-45.952229
33
0
39
0
210
0
220
0
230
1
0
SOLID
5
140
100
AcDbEntity
8
0
62
256
6
ByLayer
370
-1
48
1
60
0
100
AcDbTrace
10
78.5
20
-46.535563
30
0
11
78.5
21
-45.368896
31
0
12
82
22
-45.952229
32
0
13
82
23
-45.952229
33
0
39
0
210
0
220
0
230
1
0
MTEXT
5
141
100
AcDbEntity
8
0
62
256
6
ByLayer
370
18
48
1
60
0
100
AcDbMText
10
17
20
-39.952229
30
0
210
0
220
0
230
1
1
\A1;130
40
3
41
0
44
1
50
0
71
5
72
5
7
iso_b_vert
0
POINT
5
142
100
AcDbEntity
8
Defpoints
62
0
6
ByLayer
370
-1
48
1
60
0
100
AcDbPoint
10
-48
20
-8
30
0
39
0
210
0
220
0
230
1
50
360
0
POINT
5
143
100
AcDbEntity
8
Defpoints
62
0
6
ByLayer
370
-1
48
1
60
0
100
AcDbPoint
10
82
20
0
30
0
39
0
210
0
220
0
230
1
50
360
0
POINT
5
144
100
AcDbEntity
8
Defpoints
62
0
6
ByLayer
370
-1
48
1
60
0
100
AcDbPoint
10
82
20
-45.952229
30
0
39
0
210
0
220
0
230
1
50
360
0
ENDBLK
5
13B
100
AcDbEntity
8
0
100
AcDbBlockEnd
0
BLOCK
5
14C
100
AcDbEntity
8
0
100
AcDbBlockBegin
2
_U0
70
0
10
0
20
0
30
0
3
_U0
0
MTEXT
5
146
100
AcDbEntity
8
SK2
62
256
6
ByLayer
370
18
48
1
60
0
100
AcDbMText
10
11.771658
20
-45.067115
30
0
210
0
220
0
230
1
1
\W0.7022;130.00
40
3
41
0
44
1.084337
50
0
71
7
72
5
7
iso_b_vert
0
LINE
5
147
100
AcDbEntity
8
SK2
62
256
6
ByLayer
370
13
48
1
60
0
100
AcDbLine
10
-48
20
-9.5875
30
0
11
-48
21
-47.952229
31
0
39
0
210
0
220
0
230
1
0
LINE
5
148
100
AcDbEntity
8
SK2
62
256
6
ByLayer
370
13
48
1
60
0
100
AcDbLine
10
82
20
-1.5875
30
0
11
82
21
-47.952229
31
0
39
0
210
0
220
0
230
1
0
LINE
5
149
100
AcDbEntity
8
SK2
62
256
6
ByLayer
370
13
48
1
60
0
100
AcDbLine
10
-48
20
-45.952229
30
0
11
82
21
-45.952229
31
0
39
0
210
0
220
0
230
1
0
SOLID
5
14A
100
AcDbEntity
8
SK2
62
256
6
ByLayer
370
18
48
1
60
0
100
AcDbTrace
10
-48
20
-45.952229
30
0
11
-44.500002
21
-45.491446
31
0
12
-44.499998
22
-46.413013
32
0
13
-44.499998
23
-46.413013
33
0
39
0
210
0
220
0
230
1
0
SOLID
5
14B
100
AcDbEntity
8
SK2
62
256
6
ByLayer
370
18
48
1
60
0
100
AcDbTrace
10
82
20
-45.952229
30
0
11
78.500002
21
-46.413013
31
0
12
78.499998
22
-45.491446
32
0
13
78.499998
23
-45.491446
33
0
39
0
210
0
220
0
230
1
0
ENDBLK
5
14D
100
AcDbEntity
8
0
100
AcDbBlockEnd
0
BLOCK
5
152
100
AcDbEntity
8
0
100
AcDbBlockBegin
2
*D3
70
1
10
0
20
0
30
0
3
*D3
0
LINE
5
154
100
AcDbEntity
8
0
62
256
6
ByLayer
370
-2
48
1
60
0
100
AcDbLine
10
82
20
-1.5875
30
0
11
82
21
-37.952229
31
0
39
0
210
0
220
0
230
1
0
LINE
5
155
100
AcDbEntity
8
0
62
256
6
ByLayer
370
-2
48
1
60
0
100
AcDbLine
10
3
20
-7.5875
30
0
11
3
21
-37.952229
31
0
39
0
210
0
220
0
230
1
0
LINE
5
156
100
AcDbEntity
8
0
62
256
6
ByLayer
370
-2
48
1
60
0
100
AcDbLine
10
78.5
20
-35.952229
30
0
11
6.5
21
-35.952229
31
0
39
0
210
0
220
0
230
1
0
SOLID
5
157
100
AcDbEntity
8
0
62
256
6
ByLayer
370
-1
48
1
60
0
100
AcDbTrace
10
78.5
20
-36.535563
30
0
11
78.5
21
-35.368896
31
0
12
82
22
-35.952229
32
0
13
82
23
-35.952229
33
0
39
0
210
0
220
0
230
1
0
SOLID
5
158
100
AcDbEntity
8
0
62
256
6
ByLayer
370
-1
48
1
60
0
100
AcDbTrace
10
6.5
20
-35.368896
30
0
11
6.5
21
-36.535563
31
0
12
3
22
-35.952229
32
0
13
3
23
-35.952229
33
0
39
0
210
0
220
0
230
1
0
MTEXT
5
159
100
AcDbEntity
8
0
62
256
6
ByLayer
370
18
48
1
60
0
100
AcDbMText
10
42.5
20
-29.952229
30
0
210
0
220
0
230
1
1
\A1;79
40
3
41
0
44
1
50
0
71
5
72
5
7
iso_b_vert
0
POINT
5
15A
100
AcDbEntity
8
Defpoints
62
0
6
ByLayer
370
-1
48
1
60
0
100
AcDbPoint
10
82
20
0
30
0
39
0
210
0
220
0
230
1
50
360
0
POINT
5
15B
100
AcDbEntity
8
Defpoints
62
0
6
ByLayer
370
-1
48
1
60
0
100
AcDbPoint
10
3
20
-6
30
0
39
0
210
0
220
0
230
1
50
360
0
POINT
5
15C
100
AcDbEntity
8
Defpoints
62
0
6
ByLayer
370
-1
48
1
60
0
100
AcDbPoint
10
3
20
-35.952229
30
0
39
0
210
0
220
0
230
1
50
360
0
ENDBLK
5
153
100
AcDbEntity
8
0
100
AcDbBlockEnd
0
BLOCK
5
164
100
AcDbEntity
8
0
100
AcDbBlockBegin
2
_U1
70
0
10
0
20
0
30
0
3
_U1
0
MTEXT
5
15E
100
AcDbEntity
8
SK2
62
256
6
ByLayer
370
18
48
1
60
0
100
AcDbMText
10
38.01763
20
-35.067115
30
0
210
0
220
0
230
1
1
\W0.7468;79.00
40
3
41
0
44
1.084337
50
0
71
7
72
5
7
iso_b_vert
0
LINE
5
15F
100
AcDbEntity
8
SK2
62
256
6
ByLayer
370
13
48
1
60
0
100
AcDbLine
10
82
20
-1.5875
30
0
11
82
21
-37.952229
31
0
39
0
210
0
220
0
230
1
0
LINE
5
160
100
AcDbEntity
8
SK2
62
256
6
ByLayer
370
13
48
1
60
0
100
AcDbLine
10
3
20
-7.5875
30
0
11
3
21
-37.952229
31
0
39
0
210
0
220
0
230
1
0
LINE
5
161
100
AcDbEntity
8
SK2
62
256
6
ByLayer
370
13
48
1
60
0
100
AcDbLine
10
82
20
-35.952229
30
0
11
3
21
-35.952229
31
0
39
0
210
0
220
0
230
1
0
SOLID
5
162
100
AcDbEntity
8
SK2
62
256
6
ByLayer
370
18
48
1
60
0
100
AcDbTrace
10
82
20
-35.952229
30
0
11
78.500002
21
-36.413013
31
0
12
78.499998
22
-35.491446
32
0
13
78.499998
23
-35.491446
33
0
39
0
210
0
220
0
230
1
0
SOLID
5
163
100
AcDbEntity
8
SK2
62
256
6
ByLayer
370
18
48
1
60
0
100
AcDbTrace
10
3
20
-35.952229
30
0
11
6.499998
21
-35.491446
31
0
12
6.500002
22
-36.413013
32
0
13
6.500002
23
-36.413013
33
0
39
0
210
0
220
0
230
1
0
ENDBLK
5
165
100
AcDbEntity
8
0
100
AcDbBlockEnd
0
BLOCK
5
16A
100
AcDbEntity
8
0
100
AcDbBlockBegin
2
*D5
70
1
10
0
20
0
30
0
3
*D5
0
LINE
5
16C
100
AcDbEntity
8
0
62
256
6
ByLayer
370
-2
48
1
60
0
100
AcDbLine
10
-48
20
-9.5875
30
0
11
-48
21
-37.952229
31
0
39
0
210
0
220
0
230
1
0
LINE
5
16D
100
AcDbEntity
8
0
62
256
6
ByLayer
370
-2
48
1
60
0
100
AcDbLine
10
0
20
-9.5875
30
0
11
0
21
-37.952229
31
0
39
0
210
0
220
0
230
1
0
LINE
5
16E
100
AcDbEntity
8
0
62
256
6
ByLayer
370
-2
48
1
60
0
100
AcDbLine
10
-44.5
20
-35.952229
30
0
11
-3.5
21
-35.952229
31
0
39
0
210
0
220
0
230
1
0
SOLID
5
16F
100
AcDbEntity
8
0
62
256
6
ByLayer
370
-1
48
1
60
0
100
AcDbTrace
10
-44.5
20
-35.368896
30
0
11
-44.5
21
-36.535563
31
0
12
-48
22
-35.952229
32
0
13
-48
23
-35.952229
33
0
39
0
210
0
220
0
230
1
0
SOLID
5
170
100
AcDbEntity
8
0
62
256
6
ByLayer
370
-1
48
1
60
0
100
AcDbTrace
10
-3.5
20
-36.535563
30
0
11
-3.5
21
-35.368896
31
0
12
0
22
-35.952229
32
0
13
0
23
-35.952229
33
0
39
0
210
0
220
0
230
1
0
MTEXT
5
171
100
AcDbEntity
8
0
62
256
6
ByLayer
370
18
48
1
60
0
100
AcDbMText
10
-24
20
-29.952229
30
0
210
0
220
0
230
1
1
\A1;48
40
3
41
0
44
1
50
0
71
5
72
5
7
iso_b_vert
0
POINT
5
172
100
AcDbEntity
8
Defpoints
62
0
6
ByLayer
370
-1
48
1
60
0
100
AcDbPoint
10
-48
20
-8
30
0
39
0
210
0
220
0
230
1
50
360
0
POINT
5
173
100
AcDbEntity
8
Defpoints
62
0
6
ByLayer
370
-1
48
1
60
0
100
AcDbPoint
10
0
20
-8
30
0
39
0
210
0
220
0
230
1
50
360
0
POINT
5
174
100
AcDbEntity
8
Defpoints
62
0
6
ByLayer
370
-1
48
1
60
0
100
AcDbPoint
10
0
20
-35.952229
30
0
39
0
210
0
220
0
230
1
50
360
0
ENDBLK
5
16B
100
AcDbEntity
8
0
100
AcDbBlockEnd
0
BLOCK
5
17C
100
AcDbEntity
8
0
100
AcDbBlockBegin
2
_U2
70
0
10
0
20
0
30
0
3
_U2
0
MTEXT
5
176
100
AcDbEntity
8
SK2
62
256
6
ByLayer
370
18
48
1
60
0
100
AcDbMText
10
-28.640313
20
-35.067115
30
0
210
0
220
0
230
1
1
\W0.7694;48.00
40
3
41
0
44
1.084337
50
0
71
7
72
5
7
iso_b_vert
0
LINE
5
177
100
AcDbEntity
8
SK2
62
256
6
ByLayer
370
13
48
1
60
0
100
AcDbLine
10
-48
20
-9.5875
30
0
11
-48
21
-37.952229
31
0
39
0
210
0
220
0
230
1
0
LINE
5
178
100
AcDbEntity
8
SK2
62
256
6
ByLayer
370
13
48
1
60
0
100
AcDbLine
10
0
20
-9.5875
30
0
11
0
21
-37.952229
31
0
39
0
210
0
220
0
230
1
0
LINE
5
179
100
AcDbEntity
8
SK2
62
256
6
ByLayer
370
13
48
1
60
0
100
AcDbLine
10
-48
20
-35.952229
30
0
11
0
21
-35.952229
31
0
39
0
210
0
220
0
230
1
0
SOLID
5
17A
100
AcDbEntity
8
SK2
62
256
6
ByLayer
370
18
48
1
60
0
100
AcDbTrace
10
-48
20
-35.952229
30
0
11
-44.500002
21
-35.491446
31
0
12
-44.499998
22
-36.413013
32
0
13
-44.499998
23
-36.413013
33
0
39
0
210
0
220
0
230
1
0
SOLID
5
17B
100
AcDbEntity
8
SK2
62
256
6
ByLayer
370
18
48
1
60
0
100
AcDbTrace
10
0
20
-35.952229
30
0
11
-3.499998
21
-36.413013
31
0
12
-3.500002
22
-35.491446
32
0
13
-3.500002
23
-35.491446
33
0
39
0
210
0
220
0
230
1
0
ENDBLK
5
17D
100
AcDbEntity
8
0
100
AcDbBlockEnd
0
BLOCK
5
182
100
AcDbEntity
8
0
100
AcDbBlockBegin
2
*D7
70
1
10
0
20
0
30
0
3
*D7
0
LINE
5
184
100
AcDbEntity
8
0
62
256
6
ByLayer
370
-2
48
1
60
0
100
AcDbLine
10
82
20
1.5875
30
0
11
82
21
34.952229
31
0
39
0
210
0
220
0
230
1
0
LINE
5
185
100
AcDbEntity
8
0
62
256
6
ByLayer
370
-2
48
1
60
0
100
AcDbLine
10
13
20
7.5875
30
0
11
13
21
34.952229
31
0
39
0
210
0
220
0
230
1
0
LINE
5
186
100
AcDbEntity
8
0
62
256
6
ByLayer
370
-2
48
1
60
0
100
AcDbLine
10
78.5
20
32.952229
30
0
11
16.5
21
32.952229
31
0
39
0
210
0
220
0
230
1
0
SOLID
5
187
100
AcDbEntity
8
0
62
256
6
ByLayer
370
-1
48
1
60
0
100
AcDbTrace
10
78.5
20
32.368896
30
0
11
78.5
21
33.535563
31
0
12
82
22
32.952229
32
0
13
82
23
32.952229
33
0
39
0
210
0
220
0
230
1
0
SOLID
5
188
100
AcDbEntity
8
0
62
256
6
ByLayer
370
-1
48
1
60
0
100
AcDbTrace
10
16.5
20
33.535563
30
0
11
16.5
21
32.368896
31
0
12
13
22
32.952229
32
0
13
13
23
32.952229
33
0
39
0
210
0
220
0
230
1
0
MTEXT
5
189
100
AcDbEntity
8
0
62
256
6
ByLayer
370
18
48
1
60
0
100
AcDbMText
10
47.5
20
38.952229
30
0
210
0
220
0
230
1
1
\A1;69
40
3
41
0
44
1
50
0
71
5
72
5
7
iso_b_vert
0
POINT
5
18A
100
AcDbEntity
8
Defpoints
62
0
6
ByLayer
370
-1
48
1
60
0
100
AcDbPoint
10
82
20
0
30
0
39
0
210
0
220
0
230
1
50
360
0
POINT
5
18B
100
AcDbEntity
8
Defpoints
62
0
6
ByLayer
370
-1
48
1
60
0
100
AcDbPoint
10
13
20
6
30
0
39
0
210
0
220
0
230
1
50
360
0
POINT
5
18C
100
AcDbEntity
8
Defpoints
62
0
6
ByLayer
370
-1
48
1
60
0
100
AcDbPoint
10
13
20
32.952229
30
0
39
0
210
0
220
0
230
1
50
360
0
ENDBLK
5
183
100
AcDbEntity
8
0
100
AcDbBlockEnd
0
BLOCK
5
194
100
AcDbEntity
8
0
100
AcDbBlockBegin
2
_U3
70
0
10
0
20
0
30
0
3
_U3
0
MTEXT
5
18E
100
AcDbEntity
8
SK2
62
256
6
ByLayer
370
18
48
1
60
0
100
AcDbMText
10
43.01763
20
33.837344
30
0
210
0
220
0
230
1
1
\W0.7468;69.00
40
3
41
0
44
1.084337
50
0
71
7
72
5
7
iso_b_vert
0
LINE
5
18F
100
AcDbEntity
8
SK2
62
256
6
ByLayer
370
13
48
1
60
0
100
AcDbLine
10
82
20
1.5875
30
0
11
82
21
34.952229
31
0
39
0
210
0
220
0
230
1
0
LINE
5
190
100
AcDbEntity
8
SK2
62
256
6
ByLayer
370
13
48
1
60
0
100
AcDbLine
10
13
20
7.5875
30
0
11
13
21
34.952229
31
0
39
0
210
0
220
0
230
1
0
LINE
5
191
100
AcDbEntity
8
SK2
62
256
6
ByLayer
370
13
48
1
60
0
100
AcDbLine
10
82
20
32.952229
30
0
11
13
21
32.952229
31
0
39
0
210
0
220
0
230
1
0
SOLID
5
192
100
AcDbEntity
8
SK2
62
256
6
ByLayer
370
18
48
1
60
0
100
AcDbTrace
10
82
20
32.952229
30
0
11
78.500002
21
32.491446
31
0
12
78.499998
22
33.413013
32
0
13
78.499998
23
33.413013
33
0
39
0
210
0
220
0
230
1
0
SOLID
5
193
100
AcDbEntity
8
SK2
62
256
6
ByLayer
370
18
48
1
60
0
100
AcDbTrace
10
13
20
32.952229
30
0
11
16.499998
21
33.413013
31
0
12
16.500002
22
32.491446
32
0
13
16.500002
23
32.491446
33
0
39
0
210
0
220
0
230
1
0
ENDBLK
5
195
100
AcDbEntity
8
0
100
AcDbBlockEnd
0
ENDSEC
0
SECTION
2
ENTITIES
0
ARC
5
C0
100
AcDbEntity
8
SK2
62
256
6
ByLayer
370
13
48
1
60
0
100
AcDbCircle
39
0
10
82
20
0
30
0
40
19
210
0
220
0
230
1
100
AcDbArc
50
290
51
70
0
ELLIPSE
5
C1
100
AcDbEntity
8
SK1
62
256
6
ByLayer
370
18
48
1
60
0
100
AcDbEllipse
10
153.54477
20
0
30
0
11
229.090026261202
21
-2.59581837845095E-13
31
0
210
0
220
0
230
1
40
0.034921
41
2.39723378988983
42
2.57876881051445
0
ELLIPSE
5
C2
100
AcDbEntity
8
SK1
62
256
6
ByLayer
370
18
48
1
60
0
100
AcDbEllipse
10
-20.57895
20
0
30
0
11
8.57894968019762
21
-9.72080522714331E-15
31
0
210
0
220
0
230
1
40
0.932515
41
-0.661405283579246
42
0.661405283579253
0
ELLIPSE
5
C3
100
AcDbEntity
8
SK1
62
256
6
ByLayer
370
18
48
1
60
0
100
AcDbEllipse
10
153.54477
20
0
30
0
11
229.090026264126
21
-2.59581837848408E-13
31
0
210
0
220
0
230
1
40
0.034921
41
-2.57876881051488
42
-2.39723378989224
0
ELLIPSE
5
C4
100
AcDbEntity
8
SK1
62
256
6
ByLayer
370
18
48
1
60
0
100
AcDbEllipse
10
-34.539879
20
0
30
0
11
-1.46952762458688E-15
21
-8.00000000000015
31
0
210
0
220
0
230
1
40
0.932515
41
-2.00016141679846
42
-1.14143123679134
0
POINT
5
70
100
AcDbEntity
8
80
62
256
6
ByLayer
370
18
48
1
60
0
100
AcDbPoint
10
0
20
0
30
0
39
0
210
0
220
0
230
1
50
360
0
POINT
5
72
100
AcDbEntity
8
81
62
256
6
ByLayer
370
18
48
1
60
0
100
AcDbPoint
10
82
20
0
30
0
39
0
210
0
220
0
230
1
50
360
0
POINT
5
74
100
AcDbEntity
8
1
62
256
6
ByLayer
370
18
48
1
60
1
100
AcDbPoint
10
-48
20
-8
30
0
39
0
210
0
220
0
230
1
50
360
0
POINT
5
76
100
AcDbEntity
8
1
62
256
6
ByLayer
370
18
48
1
60
1
100
AcDbPoint
10
82
20
0
30
0
39
0
210
0
220
0
230
1
50
360
0
POINT
5
77
100
AcDbEntity
8
1
62
256
6
ByLayer
370
18
48
1
60
1
100
AcDbPoint
10
82
20
0
30
0
39
0
210
0
220
0
230
1
50
360
0
POINT
5
78
100
AcDbEntity
8
1
62
256
6
ByLayer
370
18
48
1
60
1
100
AcDbPoint
10
3
20
-6
30
0
39
0
210
0
220
0
230
1
50
360
0
POINT
5
79
100
AcDbEntity
8
1
62
256
6
ByLayer
370
18
48
1
60
1
100
AcDbPoint
10
-48
20
-8
30
0
39
0
210
0
220
0
230
1
50
360
0
POINT
5
7A
100
AcDbEntity
8
1
62
256
6
ByLayer
370
18
48
1
60
1
100
AcDbPoint
10
0
20
-8
30
0
39
0
210
0
220
0
230
1
50
360
0
POINT
5
7B
100
AcDbEntity
8
1
62
256
6
ByLayer
370
18
48
1
60
1
100
AcDbPoint
10
82
20
0
30
0
39
0
210
0
220
0
230
1
50
360
0
POINT
5
7C
100
AcDbEntity
8
1
62
256
6
ByLayer
370
18
48
1
60
1
100
AcDbPoint
10
13
20
6
30
0
39
0
210
0
220
0
230
1
50
360
0
SPLINE
5
C5
100
AcDbEntity
8
1
62
256
6
ByLayer
370
18
48
1
60
0
100
AcDbSpline
70
4
71
3
72
20
73
16
40
0
40
0
40
0
40
0
40
0.125
40
0.125
40
0.249999999999999
40
0.249999999999999
40
0.499999999999998
40
0.499999999999998
40
0.624999999999996
40
0.624999999999996
40
0.687499999999996
40
0.687499999999996
40
0.749999999999997
40
0.749999999999997
40
1
40
1
40
1
40
1
41
1
10
10
20
-4.39690541896144
30
0
41
1
10
10.2207917690492
20
-4.39584376114317
30
0
41
1
10
10.4404550643685
20
-4.39955526173822
30
0
41
1
10
10.8777059745083
20
-4.41566992462711
30
0
41
1
10
11.0952928134352
20
-4.42807446584081
30
0
41
1
10
11.7451824838342
20
-4.47687243173999
30
0
41
1
10
12.1746044742308
20
-4.52492842998521
30
0
41
1
10
12.8140183799466
20
-4.61313318551078
30
0
41
1
10
13.0263718088125
20
-4.64520132591795
30
0
41
1
10
13.3438795218787
20
-4.69625796489498
30
0
41
1
10
13.4495452277687
20
-4.71376839987852
30
0
41
1
10
13.6605643366175
20
-4.74959100926074
30
0
41
1
10
13.7659496107912
20
-4.76790901645839
30
0
41
1
10
14.2911642352732
20
-4.86086522945541
30
0
41
1
10
14.7066338151565
20
-4.93962645297575
30
0
41
1
10
15.1193905473115
20
-5.01753421766796
30
0
0
SPLINE
5
C6
100
AcDbEntity
8
1
62
256
6
ByLayer
370
18
48
1
60
0
100
AcDbSpline
70
4
71
3
72
14
73
10
40
0
40
0
40
0
40
0
40
0.25
40
0.25
40
0.5
40
0.5
40
0.75
40
0.75
40
1
40
1
40
1
40
1
41
1
10
12.5053831383223
20
4.15138827436402
30
0
41
1
10
12.2941606745271
20
4.20602129102446
30
0
41
1
10
12.0838349510501
20
4.2610494981403
30
0
41
1
10
11.6644685663429
20
4.37067261372624
30
0
41
1
10
11.4554263479561
20
4.42526639855618
30
0
41
1
10
11.0382478860104
20
4.53313828139127
30
0
41
1
10
10.8301106649311
20
4.58641707758082
30
0
41
1
10
10.4145352776129
20
4.69113032187073
30
0
41
1
10
10.207096844754
20
4.74256710144843
30
0
41
1
10
9.99999999999994
20
4.79297090623007
30
0
0
SPLINE
5
C7
100
AcDbEntity
8
1
62
256
6
ByLayer
370
18
48
1
60
0
100
AcDbSpline
70
4
71
3
72
12
73
8
40
0
40
0
40
0
40
0
40
0.0742078746317566
40
0.0742078746317566
40
0.537103937315878
40
0.537103937315878
40
1
40
1
40
1
40
1
41
1
10
11.3471909967416
20
-4.45321366911307
30
0
41
1
10
11.3137275453761
20
-4.46189225723811
30
0
41
1
10
11.2802765102929
20
-4.4705557518916
30
0
41
1
10
11.0382478860104
20
-4.53313828139127
30
0
41
1
10
10.8301106649312
20
-4.58641707758079
30
0
41
1
10
10.4145352776129
20
-4.69113032187073
30
0
41
1
10
10.207096844754
20
-4.74256710144843
30
0
41
1
10
9.99999999999997
20
-4.79297090623007
30
0
0
SPLINE
5
C8
100
AcDbEntity
8
1
62
256
6
ByLayer
370
18
48
1
60
0
100
AcDbSpline
70
4
71
3
72
16
73
12
40
0
40
0
40
0
40
0
40
0.32695339647171
40
0.32695339647171
40
0.495215047353787
40
0.495215047353787
40
0.579345872794822
40
0.579345872794822
40
0.663476698235858
40
0.663476698235858
40
1
40
1
40
1
40
1
41
1
10
11.3488759759757
20
4.44715339847568
30
0
41
1
10
11.7696033763307
20
4.47961431465487
30
0
41
1
10
12.1867267264658
20
4.526600649318
30
0
41
1
10
12.8140183799467
20
4.61313318551078
30
0
41
1
10
13.0263718088125
20
4.64520132591792
30
0
41
1
10
13.3438795218786
20
4.69625796489495
30
0
41
1
10
13.4495452277687
20
4.71376839987855
30
0
41
1
10
13.6605643366175
20
4.74959100926077
30
0
41
1
10
13.7659496107912
20
4.76790901645839
30
0
41
1
10
14.2911642352732
20
4.86086522945541
30
0
41
1
10
14.7066338151564
20
4.93962645297577
30
0
41
1
10
15.1193905473115
20
5.01753421766799
30
0
0
SPLINE
5
C9
100
AcDbEntity
8
1
62
256
6
ByLayer
370
18
48
1
60
0
100
AcDbSpline
70
4
71
3
72
22
73
18
40
0
40
0
40
0
40
0
40
0.062499999999998
40
0.062499999999998
40
0.124999999999996
40
0.124999999999996
40
0.249999999999992
40
0.249999999999992
40
0.499999999999984
40
0.499999999999984
40
0.562499999999983
40
0.562499999999983
40
0.624999999999983
40
0.624999999999983
40
0.749999999999987
40
0.749999999999987
40
1
40
1
40
1
40
1
41
1
10
79.816178594415
20
-0.85562553562761
30
0
41
1
10
79.6719337970708
20
-0.803411189035245
30
0
41
1
10
79.5277422670089
20
-0.751095309674582
30
0
41
1
10
79.2393598869816
20
-0.646556209189868
30
0
41
1
10
79.0951801857017
20
-0.594301704824829
30
0
41
1
10
78.6626843802044
20
-0.437557321836181
30
0
41
1
10
78.3744131203206
20
-0.333082131621836
30
0
41
1
10
77.5098194505862
20
-0.0195963057184088
30
0
41
1
10
76.9337145357465
20
0.189469759273777
30
0
41
1
10
76.2141690929334
20
0.451500020202644
30
0
41
1
10
76.0702963118906
20
0.503960093424297
30
0
41
1
10
75.7825283764392
20
0.608725585788221
30
0
41
1
10
75.6386161584849
20
0.660983993653275
30
0
41
1
10
75.2067519692992
20
0.817269420195913
30
0
41
1
10
74.9186943474958
20
0.920867152321421
30
0
41
1
10
74.0541398065787
20
1.23006058872289
30
0
41
1
10
73.4772458179995
20
1.43401674897643
30
0
41
1
10
72.9
20
1.63626062074854
30
0
0
SPLINE
5
CA
100
AcDbEntity
8
1
62
256
6
ByLayer
370
18
48
1
60
0
100
AcDbSpline
70
4
71
3
72
81
73
77
40
0
40
0
40
0
40
0
40
0.0625000000000035
40
0.0625000000000035
40
0.125000000000007
40
0.125000000000007
40
0.140625000000009
40
0.140625000000009
40
0.15625000000001
40
0.15625000000001
40
0.187500000000013
40
0.187500000000013
40
0.25000000000002
40
0.25000000000002
40
0.281250000000024
40
0.281250000000024
40
0.296875000000025
40
0.296875000000025
40
0.312500000000026
40
0.312500000000026
40
0.343750000000025
40
0.343750000000025
40
0.375000000000025
40
0.375000000000025
40
0.406250000000024
40
0.406250000000024
40
0.437500000000024
40
0.437500000000024
40
0.453125000000023
40
0.453125000000023
40
0.468750000000023
40
0.468750000000023
40
0.500000000000023
40
0.500000000000023
40
0.531250000000022
40
0.531250000000022
40
0.539062500000022
40
0.539062500000022
40
0.546875000000022
40
0.562500000000021
40
0.562500000000021
40
0.593750000000018
40
0.593750000000018
40
0.625000000000015
40
0.625000000000015
40
0.640625000000014
40
0.640625000000014
40
0.656250000000012
40
0.656250000000012
40
0.687500000000012
40
0.687500000000012
40
0.718750000000011
40
0.718750000000011
40
0.726562500000012
40
0.726562500000012
40
0.734375000000012
40
0.734375000000012
40
0.750000000000013
40
0.750000000000013
40
0.781250000000013
40
0.781250000000013
40
0.812500000000012
40
0.843750000000012
40
0.843750000000012
40
0.85156250000001
40
0.85156250000001
40
0.859375000000009
40
0.875000000000007
40
0.875000000000007
40
0.937500000000005
40
0.937500000000005
40
0.968750000000004
40
0.968750000000004
40
0.984375000000002
40
0.984375000000002
40
1
40
1
40
1
40
1
41
1
10
79.8161785944172
20
5.80946494123811
30
0
41
1
10
79.8911281413149
20
5.62362978962091
30
0
41
1
10
79.9663233404566
20
5.43224714476656
30
0
41
1
10
80.1176377742519
20
5.03990107911395
30
0
41
1
10
80.1937579205431
20
4.83892862028137
30
0
41
1
10
80.2895687323759
20
4.5821586899454
30
0
41
1
10
80.3087631033856
20
4.53052531471064
30
0
41
1
10
80.3472146384421
20
4.42670429835044
30
0
41
1
10
80.3664790415003
20
4.37449632561942
30
0
41
1
10
80.4240182918664
20
4.21798039829596
30
0
41
1
10
80.4621550935625
20
4.11347327173962
30
0
41
1
10
80.5758505360166
20
3.79945904478038
30
0
41
1
10
80.6507326018541
20
3.58947386708374
30
0
41
1
10
80.7609481524221
20
3.27330171671505
30
0
41
1
10
80.7973273326074
20
3.16770877659772
30
0
41
1
10
80.8511543490329
20
3.0089451426623
30
0
41
1
10
80.8689720853697
20
2.95596119505527
30
0
41
1
10
80.9043099283307
20
2.84985056786289
30
0
41
1
10
80.9218378416167
20
2.79669862014532
30
0
41
1
10
80.9736323827563
20
2.63777514047084
30
0
41
1
10
81.0072026963649
20
2.53228755500103
30
0
41
1
10
81.0718107038356
20
2.32206038205382
30
0
41
1
10
81.1028526221889
20
2.2173214765032
30
0
41
1
10
81.161460479505
20
2.00837234645135
30
0
41
1
10
81.1890313217276
20
1.90416256266337
30
0
41
1
10
81.2392772178218
20
1.69598808067582
30
0
41
1
10
81.2619546732303
20
1.59202227458545
30
0
41
1
10
81.2907878513046
20
1.43599521553298
30
0
41
1
10
81.299536283374
20
1.38389805732174
30
0
41
1
10
81.3148561649299
20
1.28066371619929
30
0
41
1
10
81.3214500424131
20
1.22941468187457
30
0
41
1
10
81.3377127018823
20
1.07681410505734
30
0
41
1
10
81.3438280426823
20
0.976603677431882
30
0
41
1
10
81.3454628615291
20
0.779586748776069
30
0
41
1
10
81.3409724340851
20
0.682782283816977
30
0
41
1
10
81.3287761266841
20
0.564222829718432
30
0
41
1
10
81.3260077877092
20
0.540610439849445
30
0
41
1
10
81.3198458162108
20
0.493741495951639
30
0
41
1
10
81.3096953401229
20
0.424185270552982
30
0
41
1
10
81.2969794174879
20
0.356843384174567
30
0
41
1
10
81.2685536026092
20
0.225041153726352
30
0
41
1
10
81.2456274756935
20
0.141009768019984
30
0
41
1
10
81.1938909399419
20
-0.0196780277189816
30
0
41
1
10
81.165084915062
20
-0.0963366524066203
30
0
41
1
10
81.1186111070315
20
-0.20587776633522
30
0
41
1
10
81.1025491619432
20
-0.241519391309026
30
0
41
1
10
81.0697739851287
20
-0.310361461231139
30
0
41
1
10
81.0530282266703
20
-0.343643757390936
30
0
41
1
10
81.0019113493316
20
-0.440177034944583
30
0
41
1
10
80.9666722730454
20
-0.500123614879641
30
0
41
1
10
80.8945561836915
20
-0.611494857285066
30
0
41
1
10
80.8576742916338
20
-0.662917922258771
30
0
41
1
10
80.8107703965823
20
-0.721879754233584
30
0
41
1
10
80.8013489442417
20
-0.733405646577125
30
0
41
1
10
80.782428203661
20
-0.755922299500583
30
0
41
1
10
80.7729209762342
20
-0.766921463360092
30
0
41
1
10
80.7444061243998
20
-0.798980395190625
30
0
41
1
10
80.7253739208314
20
-0.819141963950131
30
0
41
1
10
80.6682402039784
20
-0.876075491505333
30
0
41
1
10
80.6301044217589
20
-0.909303608193767
30
0
41
1
10
80.5538089213146
20
-0.966545384748429
30
0
41
1
10
80.4774871015862
20
-1.01457079541302
30
0
41
1
10
80.4010933678474
20
-1.0441937996597
30
0
41
1
10
80.353284747899
20
-1.05683459562658
30
0
41
1
10
80.3437121114155
20
-1.05906955530895
30
0
41
1
10
80.3246432313847
20
-1.06293101681035
30
0
41
1
10
80.2961277098307
20
-1.06781883413254
30
0
41
1
10
80.2678662095664
20
-1.07002379816586
30
0
41
1
10
80.1741842970191
20
-1.07151339024466
30
0
41
1
10
80.1009112131471
20
-1.05407026200487
30
0
41
1
10
79.9927337092145
20
-1.00040923316783
30
0
41
1
10
79.9569635813327
20
-0.977916439035226
30
0
41
1
10
79.9036451371104
20
-0.937117133081813
30
0
41
1
10
79.8859731098054
20
-0.922371361459142
30
0
41
1
10
79.8508988996018
20
-0.89067019139901
30
0
41
1
10
79.8334829162354
20
-0.873704341966288
30
0
41
1
10
79.8161785944172
20
-0.855625535628434
30
0
0
SPLINE
5
CB
100
AcDbEntity
8
1
62
256
6
ByLayer
370
18
48
1
60
0
100
AcDbSpline
70
4
71
3
72
16
73
12
40
0
40
0
40
0
40
0
40
0.169349046182702
40
0.169349046182702
40
0.584674523091342
40
0.584674523091342
40
0.688505892318511
40
0.688505892318511
40
0.79233726154568
40
0.79233726154568
40
1
40
1
40
1
40
1
41
1
10
75.6534611435358
20
5.9992509655664
30
0
41
1
10
75.8882951026471
20
5.9992805185461
30
0
41
1
10
76.1231829918758
20
5.99748289006217
30
0
41
1
10
76.9342017970012
20
5.98503453275737
30
0
41
1
10
77.5104712811379
20
5.96536356980553
30
0
41
1
10
78.2306004069728
20
5.92690338109981
30
0
41
1
10
78.3746141204884
20
5.91851321428715
30
0
41
1
10
78.6626239899865
20
5.90032193828011
30
0
41
1
10
78.8066275176549
20
5.89052218327342
30
0
41
1
10
79.2389089174497
20
5.85915912069658
30
0
41
1
10
79.5274248121065
20
5.83562870856832
30
0
41
1
10
79.816178594415
20
5.8094649412383
30
0
0
SPLINE
5
CC
100
AcDbEntity
8
1
62
256
6
ByLayer
370
18
48
1
60
0
100
AcDbSpline
70
4
71
3
72
26
73
22
40
0
40
0
40
0
40
0
40
0.202819175870515
40
0.202819175870515
40
0.304228763805773
40
0.304228763805773
40
0.40563835174103
40
0.40563835174103
40
0.456343145708659
40
0.456343145708659
40
0.507047939676287
40
0.507047939676287
40
0.608457527611541
40
0.608457527611541
40
0.811276703482052
40
0.811276703482052
40
0.861981497449681
40
0.861981497449681
40
0.912686291417309
40
0.912686291417309
40
1
40
1
40
1
40
1
41
1
10
15.1193905473116
20
-5.01753421766799
30
0
41
1
10
15.7218146070701
20
-5.12836982998536
30
0
41
1
10
16.324211126693
20
-5.22767548566651
30
0
41
1
10
17.2271553163474
20
-5.36083052944787
30
0
41
1
10
17.5280305625746
20
-5.40256388799412
30
0
41
1
10
18.1294744271738
20
-5.48080153021797
30
0
41
1
10
18.4300339252878
20
-5.51731364181322
30
0
41
1
10
18.8806115145977
20
-5.56810277074794
30
0
41
1
10
19.0307777942387
20
-5.5843508591135
30
0
41
1
10
19.3312460768925
20
-5.6153309070904
30
0
41
1
10
19.4815332293423
20
-5.6300777526173
30
0
41
1
10
19.9325126597207
20
-5.67214657766743
30
0
41
1
10
20.2333155234008
20
-5.69730488319163
30
0
41
1
10
21.1360317629129
20
-5.76428379704981
30
0
41
1
10
21.7382566579586
20
-5.79765859779349
30
0
41
1
10
22.4911235890342
20
-5.82503169490576
30
0
41
1
10
22.6417278721531
20
-5.82978452584229
30
0
41
1
10
22.9429653942925
20
-5.83778670413417
30
0
41
1
10
23.0935854014523
20
-5.8410360012733
30
0
41
1
10
23.5035472434883
20
-5.84787225338411
30
0
41
1
10
23.7628615646872
20
-5.85001291898936
30
0
41
1
10
24.0221040828475
20
-5.85000017314661
30
0
0
SPLINE
5
CD
100
AcDbEntity
8
1
62
256
6
ByLayer
370
18
48
1
60
0
100
AcDbSpline
70
4
71
3
72
33
73
29
40
0
40
0
40
0
40
0
40
0.0282771839475178
40
0.0282771839475178
40
0.125449465552768
40
0.125449465552768
40
0.222621747158017
40
0.222621747158017
40
0.319794028763266
40
0.319794028763266
40
0.368380169565891
40
0.368380169565891
40
0.416966310368515
40
0.416966310368515
40
0.465552451171141
40
0.465552451171141
40
0.514138591973766
40
0.611310873579015
40
0.611310873579015
40
0.708483155184264
40
0.708483155184264
40
0.805655436789513
40
0.805655436789513
40
0.854241577592136
40
0.854241577592136
40
0.902827718394759
40
0.902827718394759
40
1
40
1
40
1
40
1
41
1
10
63.6045175684849
20
4.31824892642609
30
0
41
1
10
63.6920147977853
20
4.33934038380275
30
0
41
1
10
63.7795058317988
20
4.36025897109471
30
0
41
1
10
64.1677043615531
20
4.45214305110511
30
0
41
1
10
64.4686275833355
20
4.52071012606859
30
0
41
1
10
65.0707565725342
20
4.65304283269401
30
0
41
1
10
65.3719625154848
20
4.71680638777269
30
0
41
1
10
65.9745766098472
20
4.8396799765103
30
0
41
1
10
66.2759829843271
20
4.89879330161011
30
0
41
1
10
66.728171727184
20
4.98404657698242
30
0
41
1
10
66.8788884526641
20
5.01188865438115
30
0
41
1
10
67.1801177792445
20
5.06639273293055
30
0
41
1
10
67.3306414931774
20
5.09307722521828
30
0
41
1
10
67.6316155688286
20
5.14514605656578
30
0
41
1
10
67.7820942199745
20
5.17049163842455
30
0
41
1
10
68.0831117097505
20
5.21972076638835
30
0
41
1
10
68.5346868061151
20
5.29142838330259
30
0
41
1
10
68.9862901474419
20
5.35695562952137
30
0
41
1
10
69.5883722015686
20
5.4389708848374
30
0
41
1
10
69.8893857047196
20
5.47730136693721
30
0
41
1
10
70.4912576898615
20
5.54866700472147
30
0
41
1
10
70.7921006586403
20
5.58171402402201
30
0
41
1
10
71.2432425927688
20
5.62722339038078
30
0
41
1
10
71.3936274551283
20
5.64169416876078
30
0
41
1
10
71.6945772723586
20
5.66911636229671
30
0
41
1
10
71.8451244383892
20
5.68208318287762
30
0
41
1
10
72.2969411791325
20
5.7188022022205
30
0
41
1
10
72.5983796198194
20
5.74037953236933
30
0
41
1
10
72.9
20
5.75909848653041
30
0
0
SPLINE
5
CE
100
AcDbEntity
8
1
62
256
6
ByLayer
370
18
48
1
60
0
100
AcDbSpline
70
4
71
3
72
48
73
44
40
0
40
0
40
0
40
0
40
0.0219442611189994
40
0.0219442611189994
40
0.0438885222379988
40
0.0438885222379988
40
0.0877770444759994
40
0.0877770444759994
40
0.175554088952002
40
0.175554088952002
40
0.197498350071002
40
0.197498350071002
40
0.219442611190001
40
0.219442611190001
40
0.263331133428
40
0.263331133428
40
0.351108177903996
40
0.351108177903996
40
0.373052439022995
40
0.373052439022995
40
0.394996700141993
40
0.394996700141993
40
0.43888522237999
40
0.43888522237999
40
0.526662266855983
40
0.526662266855983
40
0.570550789093979
40
0.570550789093979
40
0.614439311331975
40
0.614439311331975
40
0.702216355807966
40
0.702216355807966
40
0.746104878045962
40
0.746104878045962
40
0.789993400283957
40
0.789993400283957
40
0.877770444759946
40
0.877770444759946
40
0.921658966997941
40
0.921658966997941
40
0.965547489235936
40
0.965547489235936
40
1
40
1
40
1
40
1
41
1
10
72.9
20
1.54242376644066
30
0
41
1
10
72.742475821912
20
1.59640904493182
30
0
41
1
10
72.5850375673824
20
1.65024347267513
30
0
41
1
10
72.2703190363242
20
1.75756647577029
30
0
41
1
10
72.1130307189557
20
1.81103186719343
30
0
41
1
10
71.6411624226652
20
1.9702504873803
30
0
41
1
10
71.326626332466
20
2.07496085956774
30
0
41
1
10
70.3832185221664
20
2.3850557635582
30
0
41
1
10
69.7545277483165
20
2.58637443257527
30
0
41
1
10
68.9692205824921
20
2.8318431213502
30
0
41
1
10
68.8121904388592
20
2.8806346092623
30
0
41
1
10
68.498167215385
20
2.97754307846577
30
0
41
1
10
68.3411624103781
20
3.02563049967719
30
0
41
1
10
67.869969632071
20
3.16831187118805
30
0
41
1
10
67.5556574256925
20
3.26146111810414
30
0
41
1
10
66.6122492092404
20
3.5352358365385
30
0
41
1
10
65.9826661894199
20
3.71017480261284
30
0
41
1
10
65.1951122699194
20
3.91977098097553
30
0
41
1
10
65.0376716915595
20
3.96121905159771
30
0
41
1
10
64.7229539100663
20
4.04306765491876
30
0
41
1
10
64.5656516857514
20
4.08343777008915
30
0
41
1
10
64.093742435508
20
4.20254183603936
30
0
41
1
10
63.7791871093592
20
4.27938867333944
30
0
41
1
10
62.8357420428133
20
4.50251894123261
30
0
41
1
10
62.2070557617915
20
4.6413970241708
30
0
41
1
10
61.2647379305497
20
4.83529369871135
30
0
41
1
10
60.9508163225324
20
4.89760189926079
30
0
41
1
10
60.3225263073543
20
5.01627443986877
30
0
41
1
10
60.008205935709
20
5.07273059397551
30
0
41
1
10
59.0647936621354
20
5.23364980197627
30
0
41
1
10
58.4352377618728
20
5.32968496848963
30
0
41
1
10
57.4902556724216
20
5.45692112283473
30
0
41
1
10
57.1755851377558
20
5.49650500086898
30
0
41
1
10
56.5463199648759
20
5.56918052508305
30
0
41
1
10
56.2317463108741
20
5.60235797798168
30
0
41
1
10
55.2882663287686
20
5.69260303233642
30
0
41
1
10
54.6595865873474
20
5.74041868453517
30
0
41
1
10
53.7173217545004
20
5.79360538563242
30
0
41
1
10
53.4034009060042
20
5.80822884968464
30
0
41
1
10
52.775079801841
20
5.83097047581063
30
0
41
1
10
52.4607521996981
20
5.83913278401482
30
0
41
1
10
51.899420798424
20
5.84803844754421
30
0
41
1
10
51.6524706984923
20
5.85000669503196
30
0
41
1
10
51.4054414556341
20
5.85001078822384
30
0
0
SPLINE
5
CF
100
AcDbEntity
8
1
62
256
6
ByLayer
370
18
48
1
60
0
100
AcDbSpline
70
4
71
3
72
14
73
10
40
0
40
0
40
0
40
0
40
0.628041970140292
40
0.628041970140292
40
0.785052462675365
40
0.785052462675365
40
0.942062955210438
40
0.942062955210438
40
1
40
1
40
1
40
1
41
1
10
72.9
20
-5.91524146518077
30
0
41
1
10
73.4776186588216
20
-5.9501624954359
30
0
41
1
10
74.0545534283641
20
-5.97426916754438
30
0
41
1
10
74.7744555543695
20
-5.99076573634673
30
0
41
1
10
74.9183622926078
20
-5.99337936082009
30
0
41
1
10
75.2061821197107
20
-5.99720894122714
30
0
41
1
10
75.3501171018032
20
-5.99842448327254
30
0
41
1
10
75.5472060528325
20
-5.99914407013694
30
0
41
1
10
75.6003326285787
20
-5.99924428050429
30
0
41
1
10
75.6534619647632
20
-5.99925096566975
30
0
0
SPLINE
5
D0
100
AcDbEntity
8
1
62
256
6
ByLayer
370
18
48
1
60
0
100
AcDbSpline
70
4
71
3
72
149
73
145
40
0
40
0
40
0
40
0
40
0.0312499999999974
40
0.0312499999999974
40
0.0468749999999957
40
0.0468749999999957
40
0.0624999999999941
40
0.0624999999999941
40
0.070312499999993
40
0.070312499999993
40
0.0781249999999918
40
0.0781249999999918
40
0.0937499999999895
40
0.0937499999999895
40
0.124999999999986
40
0.124999999999986
40
0.132812499999985
40
0.132812499999985
40
0.140624999999984
40
0.140624999999984
40
0.156249999999982
40
0.156249999999982
40
0.187499999999978
40
0.187499999999978
40
0.195312499999977
40
0.195312499999977
40
0.203124999999975
40
0.203124999999975
40
0.218749999999973
40
0.218749999999973
40
0.249999999999969
40
0.249999999999969
40
0.257812499999968
40
0.257812499999968
40
0.265624999999966
40
0.265624999999966
40
0.281249999999965
40
0.281249999999965
40
0.312499999999961
40
0.312499999999961
40
0.32031249999996
40
0.32031249999996
40
0.32812499999996
40
0.32812499999996
40
0.343749999999959
40
0.343749999999959
40
0.374999999999957
40
0.374999999999957
40
0.382812499999956
40
0.382812499999956
40
0.390624999999955
40
0.390624999999955
40
0.398437499999954
40
0.398437499999954
40
0.406249999999953
40
0.406249999999953
40
0.437499999999952
40
0.437499999999952
40
0.445312499999951
40
0.445312499999951
40
0.453124999999951
40
0.453124999999951
40
0.460937499999951
40
0.460937499999951
40
0.46874999999995
40
0.46874999999995
40
0.499999999999949
40
0.499999999999949
40
0.515624999999948
40
0.515624999999948
40
0.523437499999948
40
0.523437499999948
40
0.531249999999948
40
0.531249999999948
40
0.562499999999947
40
0.562499999999947
40
0.578124999999947
40
0.578124999999947
40
0.585937499999947
40
0.585937499999947
40
0.593749999999946
40
0.593749999999946
40
0.624999999999947
40
0.624999999999947
40
0.640624999999947
40
0.640624999999947
40
0.648437499999947
40
0.648437499999947
40
0.656249999999948
40
0.656249999999948
40
0.687499999999948
40
0.687499999999948
40
0.703124999999949
40
0.703124999999949
40
0.710937499999949
40
0.710937499999949
40
0.71874999999995
40
0.71874999999995
40
0.734374999999952
40
0.734374999999952
40
0.749999999999954
40
0.749999999999954
40
0.765624999999956
40
0.765624999999956
40
0.773437499999957
40
0.773437499999957
40
0.781249999999958
40
0.781249999999958
40
0.78906249999996
40
0.78906249999996
40
0.796874999999961
40
0.796874999999961
40
0.812499999999963
40
0.812499999999963
40
0.828124999999966
40
0.828124999999966
40
0.835937499999967
40
0.835937499999967
40
0.843749999999968
40
0.843749999999968
40
0.859374999999972
40
0.859374999999972
40
0.874999999999975
40
0.874999999999975
40
0.890624999999978
40
0.890624999999978
40
0.89843749999998
40
0.89843749999998
40
0.906249999999981
40
0.906249999999981
40
0.914062499999983
40
0.914062499999983
40
0.921874999999984
40
0.937499999999987
40
0.937499999999987
40
0.953124999999991
40
0.953124999999991
40
0.968749999999994
40
0.968749999999994
40
0.976562499999995
40
0.976562499999995
40
0.984374999999997
40
0.984374999999997
40
1
40
1
40
1
40
1
41
1
10
15.1193905473116
20
5.01753421766799
30
0
41
1
10
15.7218146070702
20
5.12836982998536
30
0
41
1
10
16.324211126693
20
5.22767548566651
30
0
41
1
10
17.2271553163474
20
5.3608305294479
30
0
41
1
10
17.5280305625747
20
5.40256388799415
30
0
41
1
10
18.1294744271741
20
5.480801530218
30
0
41
1
10
18.4300339252881
20
5.51731364181325
30
0
41
1
10
18.8806115145981
20
5.568102770748
30
0
41
1
10
19.030777794239
20
5.58435085911353
30
0
41
1
10
19.3312460768928
20
5.61533090709042
30
0
41
1
10
19.4815332293427
20
5.63007775261735
30
0
41
1
10
19.932512659721
20
5.67214657766746
30
0
41
1
10
20.2333155234012
20
5.69730488319169
30
0
41
1
10
21.1360317629134
20
5.76428379704984
30
0
41
1
10
21.7382566579591
20
5.79765859779351
30
0
41
1
10
22.4911235890348
20
5.82503169490579
30
0
41
1
10
22.6417278721538
20
5.82978452584229
30
0
41
1
10
22.9429653942932
20
5.83778670413417
30
0
41
1
10
23.093585401453
20
5.84103600127332
30
0
41
1
10
23.5454167940037
20
5.84857044227331
30
0
41
1
10
23.8465877351073
20
5.85064717114264
30
0
41
1
10
24.7497872836739
20
5.84818293192976
30
0
41
1
10
25.3515254275607
20
5.83499993657932
30
0
41
1
10
26.1027393913276
20
5.80374968106406
30
0
41
1
10
26.2529207999701
20
5.79675049886555
30
0
41
1
10
26.553292721431
20
5.78129173868356
30
0
41
1
10
26.7035113833363
20
5.77284478054008
30
0
41
1
10
27.1543360336208
20
5.74541198253092
30
0
41
1
10
27.4550598221869
20
5.7243170967875
30
0
41
1
10
28.357541418446
20
5.65261458875958
30
0
41
1
10
28.9596433963313
20
5.59366058769817
30
0
41
1
10
29.7123831347629
20
5.50535077533965
30
0
41
1
10
29.8629288622067
20
5.48694526044761
30
0
41
1
10
30.1640699528844
20
5.44868122265606
30
0
41
1
10
30.3147163639927
20
5.42883887584958
30
0
41
1
10
30.7666316915092
20
5.3674999894213
30
0
41
1
10
31.067885013084
20
5.32410622685092
30
0
41
1
10
31.9713354416764
20
5.18629647509277
30
0
41
1
10
32.573269182967
20
5.08434782899437
30
0
41
1
10
33.3247653839185
20
4.94357444277446
30
0
41
1
10
33.4750176473289
20
4.91474788588968
30
0
41
1
10
33.7754252520822
20
4.85573199428444
30
0
41
1
10
33.9255858275272
20
4.82554864789495
30
0
41
1
10
34.3762417870871
20
4.73346362654684
30
0
41
1
10
34.6768840393727
20
4.6699965571645
30
0
41
1
10
35.5791349577393
20
4.47301752143795
30
0
41
1
10
36.1811117946593
20
4.33304110147429
30
0
41
1
10
36.9337285888564
20
4.1462481546092
30
0
41
1
10
37.0842593904502
20
4.10829518451891
30
0
41
1
10
37.3853272214407
20
4.03116647551573
30
0
41
1
10
37.535852106261
20
3.99196345782238
30
0
41
1
10
37.8370545176206
20
3.91263295568996
30
0
41
1
10
37.9877488371581
20
3.87255584891116
30
0
41
1
10
38.2890527968133
20
3.79166328216425
30
0
41
1
10
38.4396930840983
20
3.75082892607463
30
0
41
1
10
39.1927789426155
20
3.54460954814849
30
0
41
1
10
39.7949050501683
20
3.37317460806489
30
0
41
1
10
40.5466848277262
20
3.14976865266479
30
0
41
1
10
40.6969965148305
20
3.10462889359545
30
0
41
1
10
40.9975211025684
20
3.01340048220962
30
0
41
1
10
41.147721527046
20
2.96728089571306
30
0
41
1
10
41.4480952095121
20
2.87426042287919
30
0
41
1
10
41.5982957618232
20
2.82742680086105
30
0
41
1
10
41.8988171513161
20
2.73335197041644
30
0
41
1
10
42.049122579187
20
2.68607296918319
30
0
41
1
10
42.8008064757274
20
2.44831967110457
30
0
41
1
10
43.4026561503663
20
2.25380372215571
30
0
41
1
10
44.3056522464221
20
1.95413871676291
30
0
41
1
10
44.6066744475075
20
1.85289153211852
30
0
41
1
10
45.0582438153562
20
1.69893100295511
30
0
41
1
10
45.2087931133345
20
1.64731691272374
30
0
41
1
10
45.5101242238604
20
1.54400686617129
30
0
41
1
10
45.6608161141683
20
1.49229191521854
30
0
41
1
10
46.414110054765
20
1.23332004933371
30
0
41
1
10
47.0164294456318
20
1.02472543021608
30
0
41
1
10
47.9189055650312
20
0.708222243414895
30
0
41
1
10
48.2195607059709
20
0.602110005499554
30
0
41
1
10
48.6702259291022
20
0.441845147613321
30
0
41
1
10
48.8203910540144
20
0.388230128849415
30
0
41
1
10
49.1208054111592
20
0.281173049177767
30
0
41
1
10
49.2710633656385
20
0.227755874233452
30
0
41
1
10
50.0225417763569
20
-0.0389561747061862
30
0
41
1
10
50.624272485068
20
-0.251284817721029
30
0
41
1
10
51.5271257220421
20
-0.569820424669615
30
0
41
1
10
51.828118674997
20
-0.676009513773579
30
0
41
1
10
52.2796124253334
20
-0.835480445750648
30
0
41
1
10
52.4300973797377
20
-0.888707936473224
30
0
41
1
10
52.731181295168
20
-0.994903709601942
30
0
41
1
10
52.8818320146922
20
-1.04780215085714
30
0
41
1
10
53.6353140467777
20
-1.31090612450177
30
0
41
1
10
54.2378391903684
20
-1.51729951119353
30
0
41
1
10
55.1406540220188
20
-1.82252587470111
30
0
41
1
10
55.4414304616875
20
-1.92353385064675
30
0
41
1
10
55.8922857708267
20
-2.07409821011885
30
0
41
1
10
56.0425098873613
20
-2.12415286639495
30
0
41
1
10
56.3428988394364
20
-2.22382247125506
30
0
41
1
10
56.4930862989834
20
-2.27337728172887
30
0
41
1
10
56.9438350276122
20
-2.42066662245338
30
0
41
1
10
57.2445028091358
20
-2.51723965452825
30
0
41
1
10
57.8460106171252
20
-2.70761121155292
30
0
41
1
10
58.1468605677399
20
-2.80138363245328
30
0
41
1
10
58.7486668407936
20
-2.9863164765693
30
0
41
1
10
59.0496201903192
20
-3.07748435586274
30
0
41
1
10
59.5010609043488
20
-3.21241686495921
30
0
41
1
10
59.651541553588
20
-3.25709405257626
30
0
41
1
10
59.9525055599703
20
-3.34583483731697
30
0
41
1
10
60.1029962183307
20
-3.38987991693494
30
0
41
1
10
60.4041937891973
20
-3.47684909871535
30
0
41
1
10
60.5549227786459
20
-3.51980384965768
30
0
41
1
10
60.8563454631977
20
-3.60465127984674
30
0
41
1
10
61.0070465943476
20
-3.64654883577305
30
0
41
1
10
61.4590945825379
20
-3.77073331147858
30
0
41
1
10
61.7603895792464
20
-3.8515062806581
30
0
41
1
10
62.3627579879125
20
-4.00921735367584
30
0
41
1
10
62.6638285752889
20
-4.08616163450426
30
0
41
1
10
63.1151928389222
20
-4.19882139971443
30
0
41
1
10
63.2656075241922
20
-4.23591415602561
30
0
41
1
10
63.5663469172854
20
-4.30918558793579
30
0
41
1
10
63.7166605485865
20
-4.34538389922207
30
0
41
1
10
64.1677043615571
20
-4.45214305110605
30
0
41
1
10
64.4686275833397
20
-4.52071012606953
30
0
41
1
10
65.0707565725384
20
-4.65304283269492
30
0
41
1
10
65.371962515489
20
-4.71680638777357
30
0
41
1
10
65.9745766098515
20
-4.83967997651115
30
0
41
1
10
66.2759829843314
20
-4.89879330161094
30
0
41
1
10
66.7281717271884
20
-4.98404657698325
30
0
41
1
10
66.8788884526684
20
-5.01188865438198
30
0
41
1
10
67.1801177792489
20
-5.06639273293132
30
0
41
1
10
67.3306414931818
20
-5.09307722521905
30
0
41
1
10
67.6316155688331
20
-5.14514605656655
30
0
41
1
10
67.7820942199789
20
-5.17049163842529
30
0
41
1
10
68.083111709755
20
-5.21972076638906
30
0
41
1
10
68.5346868061196
20
-5.29142838330327
30
0
41
1
10
68.9862901474465
20
-5.35695562952202
30
0
41
1
10
69.5883722015732
20
-5.438970884838
30
0
41
1
10
69.8893857047242
20
-5.47730136693781
30
0
41
1
10
70.491257689866
20
-5.54866700472198
30
0
41
1
10
70.7921006586449
20
-5.58171402402252
30
0
41
1
10
71.2432425927734
20
-5.62722339038123
30
0
41
1
10
71.393627455133
20
-5.64169416876121
30
0
41
1
10
71.6945772723634
20
-5.6691163622971
30
0
41
1
10
71.8451244383939
20
-5.68208318287802
30
0
41
1
10
72.2969411791373
20
-5.71880220222087
30
0
41
1
10
72.5983796198194
20
-5.7403795323693
30
0
41
1
10
72.9
20
-5.75909848653041
30
0
0
SPLINE
5
D1
100
AcDbEntity
8
1
62
256
6
ByLayer
370
18
48
1
60
0
100
AcDbSpline
70
4
71
4
72
10
73
5
40
0
40
0
40
0
40
0
40
0
40
1
40
1
40
1
40
1
40
1
41
0.996950676798987
10
15.1193905473087
20
5.01753421764008
30
0
41
0.995763083646528
10
15.0783750249494
20
4.61901114789996
30
0
41
0.994990679642062
10
15.0188676452827
20
4.22524039797132
30
0
41
0.995478833378825
10
14.941521698717
20
3.85356907281349
30
0
41
0.996527800236275
10
14.8507984852935
20
3.51651860635257
30
0
0
SPLINE
5
D2
100
AcDbEntity
8
1
62
256
6
ByLayer
370
18
48
1
60
0
100
AcDbSpline
70
4
71
3
72
113
73
109
40
0
40
0
40
0
40
0
40
0.0027332460709946
40
0.0027332460709946
40
0.0396690517720684
40
0.0396690517720684
40
0.0581369546226052
40
0.0581369546226052
40
0.0766048574731421
40
0.0766048574731421
40
0.113540663174216
40
0.113540663174216
40
0.132008566024752
40
0.132008566024752
40
0.150476468875289
40
0.150476468875289
40
0.187412274576363
40
0.187412274576363
40
0.2058801774269
40
0.2058801774269
40
0.224348080277437
40
0.224348080277437
40
0.26128388597851
40
0.26128388597851
40
0.270517837403778
40
0.270517837403778
40
0.279751788829047
40
0.279751788829047
40
0.298219691679585
40
0.298219691679585
40
0.335155497380659
40
0.335155497380659
40
0.344389448805928
40
0.344389448805928
40
0.353623400231196
40
0.353623400231196
40
0.372091303081732
40
0.372091303081732
40
0.409027108782806
40
0.409027108782806
40
0.418261060208074
40
0.418261060208074
40
0.427495011633343
40
0.427495011633343
40
0.445962914483879
40
0.445962914483879
40
0.482898720184953
40
0.482898720184953
40
0.492132671610222
40
0.492132671610222
40
0.50136662303549
40
0.50136662303549
40
0.519834525886029
40
0.519834525886029
40
0.556770331587105
40
0.556770331587105
40
0.566004283012374
40
0.566004283012374
40
0.575238234437643
40
0.575238234437643
40
0.593706137288182
40
0.593706137288182
40
0.630641942989259
40
0.630641942989259
40
0.639875894414529
40
0.639875894414529
40
0.649109845839798
40
0.649109845839798
40
0.667577748690335
40
0.667577748690335
40
0.704513554391411
40
0.704513554391411
40
0.713747505816679
40
0.713747505816679
40
0.722981457241948
40
0.722981457241948
40
0.741449360092485
40
0.741449360092485
40
0.759917262943022
40
0.759917262943022
40
0.778385165793559
40
0.778385165793559
40
0.787619117218828
40
0.787619117218828
40
0.796853068644097
40
0.796853068644097
40
0.815320971494634
40
0.815320971494634
40
0.833788874345171
40
0.833788874345171
40
0.852256777195708
40
0.852256777195708
40
0.861490728620977
40
0.861490728620977
40
0.870724680046245
40
0.870724680046245
40
0.889192582896782
40
0.889192582896782
40
0.907660485747318
40
0.907660485747318
40
0.926128388597855
40
0.926128388597855
40
0.935362340023123
40
0.935362340023123
40
0.944596291448391
40
0.963064194298927
40
0.963064194298927
40
1
40
1
40
1
40
1
41
1
10
63.6043398739003
20
-4.32057960087587
30
0
41
1
10
63.5577934924243
20
-4.33169583361865
30
0
41
1
10
63.5112486499938
20
-4.34275768372171
30
0
41
1
10
62.8357420428134
20
-4.50251894123258
30
0
41
1
10
62.2070557617915
20
-4.64139702417077
30
0
41
1
10
61.2647379305498
20
-4.83529369871135
30
0
41
1
10
60.9508163225325
20
-4.89760189926076
30
0
41
1
10
60.3225263073543
20
-5.01627443986877
30
0
41
1
10
60.008205935709
20
-5.07273059397551
30
0
41
1
10
59.0647936621355
20
-5.2336498019763
30
0
41
1
10
58.4352377618729
20
-5.32968496848963
30
0
41
1
10
57.4902556724216
20
-5.4569211228347
30
0
41
1
10
57.1755851377558
20
-5.49650500086898
30
0
41
1
10
56.5463199648759
20
-5.56918052508303
30
0
41
1
10
56.2317463108741
20
-5.60235797798168
30
0
41
1
10
55.2882663287685
20
-5.69260303233639
30
0
41
1
10
54.6595865873474
20
-5.74041868453517
30
0
41
1
10
53.7173217545004
20
-5.79360538563239
30
0
41
1
10
53.4034009060042
20
-5.80822884968461
30
0
41
1
10
52.775079801841
20
-5.83097047581063
30
0
41
1
10
52.4607521996982
20
-5.83913278401482
30
0
41
1
10
51.5173383304788
20
-5.85410028176958
30
0
41
1
10
50.8878116248205
20
-5.85143227325872
30
0
41
1
10
50.1003972865942
20
-5.83196056026739
30
0
41
1
10
49.942955788697
20
-5.82725355275275
30
0
41
1
10
49.6282219893728
20
-5.81623602243553
30
0
41
1
10
49.4708824514571
20
-5.80993208570186
30
0
41
1
10
48.998895282038
20
-5.7886764595448
30
0
41
1
10
48.6843041624269
20
-5.77137662002863
30
0
41
1
10
47.7407916057428
20
-5.71018776559296
30
0
41
1
10
47.1121204199168
20
-5.65705997364975
30
0
41
1
10
46.3269457619954
20
-5.57488148718042
30
0
41
1
10
46.1699530710384
20
-5.55764473931657
30
0
41
1
10
45.8559367645837
20
-5.5216625749872
30
0
41
1
10
45.6988930848431
20
-5.50293677366881
30
0
41
1
10
45.2276303746823
20
-5.44459936973055
30
0
41
1
10
44.9132964319583
20
-5.40281497831398
30
0
41
1
10
43.9698834352288
20
-5.26879365855675
30
0
41
1
10
43.3403879740756
20
-5.16794050022446
30
0
41
1
10
42.5530462806682
20
-5.02686787980676
30
0
41
1
10
42.395604124799
20
-4.99789349324436
30
0
41
1
10
42.080850705853
20
-4.93865391052037
30
0
41
1
10
41.9234927652068
20
-4.90840908452208
30
0
41
1
10
41.4514686594825
20
-4.81582978838881
30
0
41
1
10
41.1368608877617
20
-4.75163906728355
30
0
41
1
10
40.1933180938339
20
-4.55165011700461
30
0
41
1
10
39.5646574467502
20
-4.40847976613509
30
0
41
1
10
38.7795307018349
20
-4.2166125402716
30
0
41
1
10
38.6225465020828
20
-4.17757769015896
30
0
41
1
10
38.3085171036527
20
-4.09846623845971
30
0
41
1
10
38.1514614076661
20
-4.05841218947867
30
0
41
1
10
37.6801782643812
20
-3.93675654072774
30
0
41
1
10
37.3658388214748
20
-3.85365504454546
30
0
41
1
10
36.4224291634914
20
-3.5982825766836
30
0
41
1
10
35.7929669700508
20
-3.41997980418896
30
0
41
1
10
35.005699835553
20
-3.18626377664688
30
0
41
1
10
34.8482543922367
20
-3.13897633072457
30
0
41
1
10
34.5334733546274
20
-3.04375693581397
30
0
41
1
10
34.3761000069297
20
-2.99582294772486
30
0
41
1
10
33.9040403340653
20
-2.85103542458708
30
0
41
1
10
33.5894166735953
20
-2.7531915174649
30
0
41
1
10
32.6458459745961
20
-2.45561117583119
30
0
41
1
10
32.0171993530271
20
-2.25184171372302
30
0
41
1
10
31.2321204293899
20
-1.98971991454008
30
0
41
1
10
31.0751393134163
20
-1.93692786531869
30
0
41
1
10
30.7610901957964
20
-1.83102713456842
30
0
41
1
10
30.604025762604
20
-1.77790960743093
30
0
41
1
10
30.1327236407176
20
-1.61803335200344
30
0
41
1
10
29.8183794802986
20
-1.51074543364973
30
0
41
1
10
28.8749756044048
20
-1.18663709144312
30
0
41
1
10
28.245554234649
20
-0.967560787062979
30
0
41
1
10
27.4583563026312
20
-0.689295135328194
30
0
41
1
10
27.3008992243366
20
-0.633444525864206
30
0
41
1
10
26.9860037925338
20
-0.521861013729563
30
0
41
1
10
26.8285457385711
20
-0.466094175112943
30
0
41
1
10
26.3561510074591
20
-0.298839048614809
30
0
41
1
10
26.0411958127575
20
-0.187390371747625
30
0
41
1
10
25.4112704539173
20
0.035498222513354
30
0
41
1
10
25.0962985517642
20
0.14693322957686
30
0
41
1
10
24.4663907690817
20
0.369938633731721
30
0
41
1
10
24.1514653815893
20
0.481538679707256
30
0
41
1
10
23.6791063869812
20
0.649046583779409
30
0
41
1
10
23.5216575576904
20
0.704863861371763
30
0
41
1
10
23.2067908540752
20
0.815992493180545
30
0
41
1
10
23.0493619742348
20
0.871346103461406
30
0
41
1
10
22.577098986303
20
1.03681018947199
30
0
41
1
10
22.2622901425952
20
1.14632915537712
30
0
41
1
10
21.6327725643512
20
1.36389684144052
30
0
41
1
10
21.3180622591344
20
1.47194135604786
30
0
41
1
10
20.688794853573
20
1.68669958046459
30
0
41
1
10
20.3742521207305
20
1.79345170695822
30
0
41
1
10
19.9025386498606
20
1.9525212463341
30
0
41
1
10
19.745300148585
20
2.00532065349452
30
0
41
1
10
19.4306908020396
20
2.11012407655772
30
0
41
1
10
19.2733334424005
20
2.16216447086333
30
0
41
1
10
18.801115117328
20
2.31723777140746
30
0
41
1
10
18.486109228841
20
2.41922696949837
30
0
41
1
10
17.8557457070068
20
2.62052029250799
30
0
41
1
10
17.5406877893548
20
2.71972476149023
30
0
41
1
10
16.9109896671214
20
2.91535215237965
30
0
41
1
10
16.5963499898786
20
3.01182613705734
30
0
41
1
10
16.1246428438763
20
3.15433763061895
30
0
41
1
10
15.9674258291631
20
3.2014179018787
30
0
41
1
10
15.6529178186943
20
3.2944723593628
30
0
41
1
10
15.1810844868941
20
3.43249040236711
30
0
41
1
10
14.7090706801063
20
3.56593408006853
30
0
41
1
10
13.7648614921131
20
3.82688936189893
30
0
41
1
10
13.1351338772726
20
3.99295335714737
30
0
41
1
10
12.5053831383223
20
4.15138827436391
30
0
0
SPLINE
5
D3
100
AcDbEntity
8
1
62
256
6
ByLayer
370
18
48
1
60
0
100
AcDbSpline
70
4
71
3
72
107
73
103
40
0
40
0
40
0
40
0
40
0.0625000000000046
40
0.0625000000000046
40
0.125000000000009
40
0.125000000000009
40
0.156250000000012
40
0.156250000000012
40
0.187500000000014
40
0.187500000000014
40
0.218750000000016
40
0.218750000000016
40
0.234375000000017
40
0.234375000000017
40
0.250000000000017
40
0.250000000000017
40
0.281250000000019
40
0.281250000000019
40
0.296875000000019
40
0.296875000000019
40
0.304687500000019
40
0.304687500000019
40
0.312500000000019
40
0.312500000000019
40
0.343750000000018
40
0.343750000000018
40
0.359375000000017
40
0.359375000000017
40
0.375000000000016
40
0.375000000000016
40
0.382812500000015
40
0.382812500000015
40
0.390625000000015
40
0.390625000000015
40
0.406250000000013
40
0.406250000000013
40
0.421875000000012
40
0.421875000000012
40
0.425781250000012
40
0.425781250000012
40
0.429687500000011
40
0.43750000000001
40
0.43750000000001
40
0.453125000000009
40
0.453125000000009
40
0.460937500000009
40
0.460937500000009
40
0.464843750000009
40
0.464843750000009
40
0.468750000000008
40
0.468750000000008
40
0.484375000000008
40
0.500000000000007
40
0.500000000000007
40
0.515625000000007
40
0.515625000000007
40
0.531250000000006
40
0.531250000000006
40
0.535156250000006
40
0.535156250000006
40
0.539062500000006
40
0.546875000000005
40
0.546875000000005
40
0.562500000000005
40
0.562500000000005
40
0.578125000000004
40
0.578125000000004
40
0.582031250000004
40
0.582031250000004
40
0.585937500000005
40
0.593750000000005
40
0.593750000000005
40
0.609375000000005
40
0.609375000000005
40
0.625000000000006
40
0.625000000000006
40
0.656250000000005
40
0.656250000000005
40
0.664062500000005
40
0.664062500000005
40
0.671875000000004
40
0.687500000000004
40
0.687500000000004
40
0.718750000000003
40
0.718750000000003
40
0.750000000000003
40
0.750000000000003
40
0.781250000000002
40
0.781250000000002
40
0.812500000000002
40
0.812500000000002
40
0.843750000000002
40
0.843750000000002
40
0.875000000000001
40
0.875000000000001
40
0.906250000000001
40
0.906250000000001
40
0.937500000000001
40
0.937500000000001
40
0.96875
40
0.96875
40
1
40
1
40
1
40
1
41
1
10
10
20
-4.39690541896144
30
0
41
1
10
9.6312450921379
20
-4.46416954811497
30
0
41
1
10
9.26525202248311
20
-4.54058337721472
30
0
41
1
10
8.53901785153482
20
-4.71238021418759
30
0
41
1
10
8.17877277994396
20
-4.80775090522323
30
0
41
1
10
7.64283641854516
20
-4.96527687967713
30
0
41
1
10
7.46492934913169
20
-5.02019577361779
30
0
41
1
10
7.11061714677396
20
-5.1348994270341
30
0
41
1
10
6.93421177445134
20
-5.19468353201819
30
0
41
1
10
6.58293824241565
20
-5.31918398135284
30
0
41
1
10
6.40806970548704
20
-5.38389932665194
30
0
41
1
10
6.14696079020081
20
-5.48475572873721
30
0
41
1
10
6.060018997821
20
-5.51904931399622
30
0
41
1
10
5.88754704400441
20
-5.58850951521967
30
0
41
1
10
5.80192159706669
20
-5.62371122999471
30
0
41
1
10
5.54694623128816
20
-5.73068895927176
30
0
41
1
10
5.37948899473275
20
-5.80383721222535
30
0
41
1
10
5.13249096072252
20
-5.91613988038401
30
0
41
1
10
5.050858080522
20
-5.95400422484747
30
0
41
1
10
4.92953049974062
20
-6.01142633679851
30
0
41
1
10
4.8892424075672
20
-6.03068716478526
30
0
41
1
10
4.80921861761814
20
-6.06933505318793
30
0
41
1
10
4.76951166260287
20
-6.08870787013004
30
0
41
1
10
4.57254726538935
20
-6.18578997389224
30
0
41
1
10
4.41996569483135
20
-6.26415975143164
30
0
41
1
10
4.19982805468754
20
-6.38219773308313
30
0
41
1
10
4.12791111330506
20
-6.42162310112153
30
0
41
1
10
3.98732526474401
20
-6.50051562732301
30
0
41
1
10
3.91865453957314
20
-6.53998313287593
30
0
41
1
10
3.81841962047059
20
-6.59911050260601
30
0
41
1
10
3.78540813784963
20
-6.61884564231909
30
0
41
1
10
3.72079127160572
20
-6.65802178682688
30
0
41
1
10
3.68917242964545
20
-6.67746949344036
30
0
41
1
10
3.59649022364152
20
-6.73534003243299
30
0
41
1
10
3.53759249040476
20
-6.77329289159667
30
0
41
1
10
3.42631552610615
20
-6.84761707346149
30
0
41
1
10
3.3739307336954
20
-6.88399012006465
30
0
41
1
10
3.31319410797741
20
-6.92820074029382
30
0
41
1
10
3.30126820191111
20
-6.93699253625667
30
0
41
1
10
3.27803024726021
20
-6.95435484004645
30
0
41
1
10
3.24407609884122
20
-6.98007848987746
30
0
41
1
10
3.21288214806344
20
-7.00481343111977
30
0
41
1
10
3.15434483923698
20
-7.05287641168161
30
0
41
1
10
3.1204373513331
20
-7.08304826466767
30
0
41
1
10
3.07818863745456
20
-7.12506036817297
30
0
41
1
10
3.06554495693183
20
-7.13852216290792
30
0
41
1
10
3.04889845323743
20
-7.15783153928703
30
0
41
1
10
3.04374492065989
20
-7.1641126131365
30
0
41
1
10
3.03432119369614
20
-7.17625457146721
30
0
41
1
10
3.03003778963139
20
-7.18213047481129
30
0
41
1
10
3.01075846129157
20
-7.21053389754599
30
0
41
1
10
2.99356413972328
20
-7.24974139718591
30
0
41
1
10
3.00389905474287
20
-7.27629300277755
30
0
41
1
10
3.02848237208727
20
-7.29630687286291
30
0
41
1
10
3.04754345710836
20
-7.30276278637538
30
0
41
1
10
3.09775859666144
20
-7.30935553128728
30
0
41
1
10
3.12892316549818
20
-7.30949248872372
30
0
41
1
10
3.17484329594731
20
-7.3060812861643
30
0
41
1
10
3.18437867976806
20
-7.3052186410977
30
0
41
1
10
3.20399143632218
20
-7.30315961917489
30
0
41
1
10
3.23427246058304
20
-7.29956714634244
30
0
41
1
10
3.26701809156063
20
-7.29454043670032
30
0
41
1
10
3.33552387602623
20
-7.28275016550083
30
0
41
1
10
3.38520314584829
20
-7.2725808660928
30
0
41
1
10
3.49146390374833
20
-7.24835290076317
30
0
41
1
10
3.54804997196482
20
-7.2342915234114
30
0
41
1
10
3.62258777385472
20
-7.21462000853205
30
0
41
1
10
3.63769301128676
20
-7.21057863385991
30
0
41
1
10
3.66814160756942
20
-7.20232928360954
30
0
41
1
10
3.71421888076998
20
-7.18969297079494
30
0
41
1
10
3.76145288591005
20
-7.17631177280987
30
0
41
1
10
3.85733371986112
20
-7.1486520610157
30
0
41
1
10
3.92313346670329
20
-7.129019439003
30
0
41
1
10
4.0579404775153
20
-7.08777120763494
30
0
41
1
10
4.12694954971033
20
-7.06615426304509
30
0
41
1
10
4.33815806491418
20
-6.99877696208191
30
0
41
1
10
4.48451311676376
20
-6.95051266166044
30
0
41
1
10
4.67285122183782
20
-6.88702721692766
30
0
41
1
10
4.7108107341563
20
-6.87416355469057
30
0
41
1
10
4.78694116576531
20
-6.84823903162555
30
0
41
1
10
4.90156164276692
20
-6.80902003155711
30
0
41
1
10
5.01736268006357
20
-6.76887924699341
30
0
41
1
10
5.25032720036475
20
-6.68752254978429
30
0
41
1
10
5.40744614337876
20
-6.63186041275117
30
0
41
1
10
5.72441503489529
20
-6.51821630910027
30
0
41
1
10
5.88426825193662
20
-6.46023040149007
30
0
41
1
10
6.2060280925696
20
-6.34220554199729
30
0
41
1
10
6.36793616443273
20
-6.28216430661612
30
0
41
1
10
6.69325963165835
20
-6.16013532658386
30
0
41
1
10
6.85667553880978
20
-6.09814598149785
30
0
41
1
10
7.18457354985108
20
-5.97222217703697
30
0
41
1
10
7.34905563383077
20
-5.90828635506185
30
0
41
1
10
7.67874381226613
20
-5.77840882643611
30
0
41
1
10
7.84394958732869
20
-5.71246577967071
30
0
41
1
10
8.1748478241486
20
-5.57849070407894
30
0
41
1
10
8.34053984075967
20
-5.51045727138475
30
0
41
1
10
8.67229022586037
20
-5.37223691855101
30
0
41
1
10
8.83824663212425
20
-5.30209030239254
30
0
41
1
10
9.17005248466546
20
-5.15985505653157
30
0
41
1
10
9.33594432779682
20
-5.08774737927305
30
0
41
1
10
9.66783199136125
20
-4.94168027461572
30
0
41
1
10
9.83382777149279
20
-4.86771979034694
30
0
41
1
10
10
20
-4.79297090623024
30
0
0
SPLINE
5
D4
100
AcDbEntity
8
1
62
256
6
ByLayer
370
18
48
1
60
0
100
AcDbSpline
70
4
71
3
72
46
73
42
40
0
40
0
40
0
40
0
40
0.0096558109797599
40
0.0096558109797599
40
0.0450252463019087
40
0.0450252463019087
40
0.0538676051324467
40
0.0538676051324467
40
0.0627099639629851
40
0.0803946816240612
40
0.0803946816240612
40
0.115764116946214
40
0.115764116946214
40
0.151133552268366
40
0.151133552268366
40
0.221872422912669
40
0.221872422912669
40
0.239557140573744
40
0.239557140573744
40
0.257241858234819
40
0.29261129355697
40
0.29261129355697
40
0.363350164201273
40
0.363350164201273
40
0.434089034845575
40
0.434089034845575
40
0.504827905489879
40
0.504827905489879
40
0.575566776134182
40
0.575566776134182
40
0.646305646778485
40
0.646305646778485
40
0.717044517422788
40
0.717044517422788
40
0.787783388067091
40
0.787783388067091
40
0.858522258711394
40
0.858522258711394
40
0.929261129355697
40
0.929261129355697
40
1
40
1
40
1
40
1
41
1
10
3.39560290835033
20
7.26994597242853
30
0
41
1
10
3.40958167799661
20
7.2669361532802
30
0
41
1
10
3.42382899873638
20
7.26377398532992
30
0
41
1
10
3.49146390374827
20
7.24835290076317
30
0
41
1
10
3.54804997196476
20
7.23429152341134
30
0
41
1
10
3.62258777385469
20
7.21462000853202
30
0
41
1
10
3.63769301128676
20
7.21057863385994
30
0
41
1
10
3.66814160756942
20
7.20232928360954
30
0
41
1
10
3.71421888076998
20
7.18969297079491
30
0
41
1
10
3.76145288591002
20
7.1763117728099
30
0
41
1
10
3.85733371986109
20
7.1486520610157
30
0
41
1
10
3.92313346670326
20
7.12901943900303
30
0
41
1
10
4.05794047751533
20
7.08777120763497
30
0
41
1
10
4.12694954971033
20
7.06615426304509
30
0
41
1
10
4.33815806491415
20
6.99877696208191
30
0
41
1
10
4.48451311676376
20
6.95051266166044
30
0
41
1
10
4.67285122183779
20
6.88702721692766
30
0
41
1
10
4.71081073415627
20
6.87416355469057
30
0
41
1
10
4.78694116576526
20
6.84823903162555
30
0
41
1
10
4.90156164276692
20
6.80902003155708
30
0
41
1
10
5.01736268006354
20
6.76887924699341
30
0
41
1
10
5.25032720036475
20
6.68752254978429
30
0
41
1
10
5.40744614337876
20
6.63186041275114
30
0
41
1
10
5.72441503489529
20
6.51821630910024
30
0
41
1
10
5.88426825193665
20
6.46023040149009
30
0
41
1
10
6.2060280925696
20
6.34220554199732
30
0
41
1
10
6.36793616443276
20
6.28216430661612
30
0
41
1
10
6.69325963165835
20
6.16013532658388
30
0
41
1
10
6.85667553880978
20
6.09814598149785
30
0
41
1
10
7.18457354985108
20
5.97222217703697
30
0
41
1
10
7.34905563383077
20
5.90828635506188
30
0
41
1
10
7.67874381226613
20
5.77840882643613
30
0
41
1
10
7.84394958732867
20
5.71246577967071
30
0
41
1
10
8.17484782414857
20
5.57849070407897
30
0
41
1
10
8.34053984075965
20
5.51045727138478
30
0
41
1
10
8.67229022586034
20
5.37223691855101
30
0
41
1
10
8.83824663212425
20
5.30209030239251
30
0
41
1
10
9.17005248466546
20
5.15985505653157
30
0
41
1
10
9.33594432779682
20
5.08774737927305
30
0
41
1
10
9.66783199136125
20
4.94168027461572
30
0
41
1
10
9.83382777149279
20
4.86771979034694
30
0
41
1
10
10
20
4.79297090623021
30
0
0
SPLINE
5
D5
100
AcDbEntity
8
SK1
62
256
6
ByLayer
370
18
48
1
60
0
100
AcDbSpline
70
4
71
3
72
31
73
27
40
0
40
0
40
0
40
0
40
0.125000000000001
40
0.125000000000001
40
0.250000000000003
40
0.250000000000003
40
0.375000000000004
40
0.375000000000004
40
0.500000000000005
40
0.500000000000005
40
0.562500000000006
40
0.562500000000006
40
0.625000000000007
40
0.687500000000007
40
0.687500000000007
40
0.718750000000008
40
0.718750000000008
40
0.750000000000008
40
0.750000000000008
40
0.875000000000003
40
0.875000000000003
40
0.937500000000001
40
0.937500000000001
40
0.96875
40
0.96875
40
1
40
1
40
1
40
1
41
1
10
-41.322846649578
20
-3.33034885603652
30
0
41
1
10
-41.2982183123488
20
-3.38803258877206
30
0
41
1
10
-41.2717267680571
20
-3.44436940557552
30
0
41
1
10
-41.2144104214618
20
-3.55410223850021
30
0
41
1
10
-41.1835888583784
20
-3.60749982049498
30
0
41
1
10
-41.1168132306847
20
-3.71101722712197
30
0
41
1
10
-41.0808655609651
20
-3.76114016706765
30
0
41
1
10
-41.0027064087883
20
-3.85761356828161
30
0
41
1
10
-40.9605092263353
20
-3.90397104557275
30
0
41
1
10
-40.8912034928284
20
-3.97008360471079
30
0
41
1
10
-40.8672955191393
20
-3.99134752800094
30
0
41
1
10
-40.8179396702517
20
-4.0320451182069
30
0
41
1
10
-40.7669822244289
20
-4.07097190163014
30
0
41
1
10
-40.7125214515213
20
-4.10609739988001
30
0
41
1
10
-40.670214663531
20
-4.13088316998613
30
0
41
1
10
-40.655868463324
20
-4.13888495820467
30
0
41
1
10
-40.6266576666279
20
-4.15434007152678
30
0
41
1
10
-40.6118286726114
20
-4.16177231338193
30
0
41
1
10
-40.5371050103957
20
-4.19714033207811
30
0
41
1
10
-40.4749740708276
20
-4.22001118907693
30
0
41
1
10
-40.3778268407505
20
-4.24538536593542
30
0
41
1
10
-40.3447830766741
20
-4.25234770684881
30
0
41
1
10
-40.2941359057272
20
-4.26035999417425
30
0
41
1
10
-40.2770624559109
20
-4.2626233218524
30
0
41
1
10
-40.2428795071773
20
-4.26626974627274
30
0
41
1
10
-40.22572940542
20
-4.26766016692457
30
0
41
1
10
-40.2085199217113
20
-4.26861273885882
30
0
0
SPLINE
5
D6
100
AcDbEntity
8
SK1
62
256
6
ByLayer
370
18
48
1
60
0
100
AcDbSpline
70
4
71
3
72
28
73
24
40
0
40
0
40
0
40
0
40
0.125000000000001
40
0.125000000000001
40
0.187500000000002
40
0.187500000000002
40
0.250000000000004
40
0.250000000000004
40
0.375000000000006
40
0.375000000000006
40
0.437500000000007
40
0.437500000000007
40
0.500000000000008
40
0.500000000000008
40
0.625000000000008
40
0.625000000000008
40
0.687500000000007
40
0.687500000000007
40
0.750000000000006
40
0.750000000000006
40
0.875000000000003
40
0.875000000000003
40
1
40
1
40
1
40
1
41
1
10
-40.2085199217113
20
4.26861273885839
30
0
41
1
10
-40.2770078954797
20
4.26482182201573
30
0
41
1
10
-40.3435159701705
20
4.25421034005257
30
0
41
1
10
-40.4406186748427
20
4.22904991330012
30
0
41
1
10
-40.4725401749683
20
4.21911183367274
30
0
41
1
10
-40.5355147747093
20
4.19619029939315
30
0
41
1
10
-40.566119882014
20
4.18336793011164
30
0
41
1
10
-40.6552476470727
20
4.1412976123425
30
0
41
1
10
-40.7112423032074
20
4.10841569067671
30
0
41
1
10
-40.7908488886551
20
4.05271054233145
30
0
41
1
10
-40.8163780326975
20
4.03326066129199
30
0
41
1
10
-40.8655003190458
20
3.99289517941517
30
0
41
1
10
-40.8891220708721
20
3.97195852720529
30
0
41
1
10
-40.9574656057434
20
3.90707900711414
30
0
41
1
10
-40.9996786915665
20
3.86107582099058
30
0
41
1
10
-41.0588219892095
20
3.78847288665983
30
0
41
1
10
-41.0778365663648
20
3.76366951078927
30
0
41
1
10
-41.1145716668491
20
3.71292056409152
30
0
41
1
10
-41.1321793223817
20
3.68713127494576
30
0
41
1
10
-41.1829286385602
20
3.60864716973444
30
0
41
1
10
-41.2140187173667
20
3.55482217194611
30
0
41
1
10
-41.2716651020537
20
3.44451721966016
30
0
41
1
10
-41.2982170704349
20
3.38803549754442
30
0
41
1
10
-41.322846649578
20
3.33034885603652
30
0
0
SPLINE
5
D7
100
AcDbEntity
8
SK1
62
256
6
ByLayer
370
18
48
1
60
0
100
AcDbSpline
70
4
71
3
72
28
73
24
40
0
40
0
40
0
40
0
40
0.250000000000005
40
0.250000000000005
40
0.312500000000006
40
0.312500000000006
40
0.375000000000007
40
0.375000000000007
40
0.5
40
0.5
40
0.624999999999992
40
0.624999999999992
40
0.65624999999999
40
0.65624999999999
40
0.687499999999989
40
0.687499999999989
40
0.749999999999985
40
0.749999999999985
40
0.874999999999993
40
0.874999999999993
40
0.937499999999996
40
0.937499999999996
40
1
40
1
40
1
40
1
41
1
10
-13.8090444171455
20
4.91381127456395
30
0
41
1
10
-13.8730250304025
20
4.99046340860016
30
0
41
1
10
-13.9444892601168
20
5.06075108627354
30
0
41
1
10
-14.0453442110783
20
5.13975030164355
30
0
41
1
10
-14.0660970839937
20
5.15510348386371
30
0
41
1
10
-14.108849096648
20
5.18487572838717
30
0
41
1
10
-14.1308767716723
20
5.19931243837365
30
0
41
1
10
-14.1987969608565
20
5.24103142381006
30
0
41
1
10
-14.2458698834865
20
5.2663349057469
30
0
41
1
10
-14.3438356225248
20
5.3117780788902
30
0
41
1
10
-14.3947259977568
20
5.33192086270162
30
0
41
1
10
-14.4609718435402
20
5.35364247707062
30
0
41
1
10
-14.4743531694453
20
5.35781325453198
30
0
41
1
10
-14.5013886431665
20
5.36579875975136
30
0
41
1
10
-14.5150720561229
20
5.36962082906823
30
0
41
1
10
-14.5562656757263
20
5.38046558406404
30
0
41
1
10
-14.5839366053628
20
5.38687714356516
30
0
41
1
10
-14.6675758493674
20
5.40367498823224
30
0
41
1
10
-14.7241681343673
20
5.41163572791979
30
0
41
1
10
-14.8103509838265
20
5.4186001914598
30
0
41
1
10
-14.839294928931
20
5.42008953290443
30
0
41
1
10
-14.8976311188396
20
5.42134736085288
30
0
41
1
10
-14.9268902583505
20
5.42110969918963
30
0
41
1
10
-14.9560809879695
20
5.42000303685279
30
0
0
SPLINE
5
D8
100
AcDbEntity
8
SK1
62
256
6
ByLayer
370
18
48
1
60
0
100
AcDbSpline
70
4
71
3
72
29
73
25
40
0
40
0
40
0
40
0
40
0.125000000000023
40
0.125000000000023
40
0.250000000000046
40
0.250000000000046
40
0.312500000000058
40
0.312500000000058
40
0.375000000000069
40
0.375000000000069
40
0.500000000000078
40
0.500000000000078
40
0.562500000000082
40
0.562500000000082
40
0.593750000000078
40
0.593750000000078
40
0.625000000000073
40
0.750000000000046
40
0.750000000000046
40
0.875000000000019
40
0.875000000000019
40
0.937500000000009
40
0.937500000000009
40
1
40
1
40
1
40
1
41
1
10
-14.9560809879695
20
-5.42000303685279
30
0
41
1
10
-14.8976517734494
20
-5.42221817199751
30
0
41
1
10
-14.8398504554356
20
-5.42094359808488
30
0
41
1
10
-14.7254362798095
20
-5.41177794727187
30
0
41
1
10
-14.6688237697278
20
-5.40388482792244
30
0
41
1
10
-14.5847891358201
20
-5.38706822462967
30
0
41
1
10
-14.5568094402394
20
-5.38059638684285
30
0
41
1
10
-14.5019506989544
20
-5.36617855475819
30
0
41
1
10
-14.4750261228712
20
-5.35823183005425
30
0
41
1
10
-14.395685497739
20
-5.33227249172961
30
0
41
1
10
-14.3446977675387
20
-5.31214836042813
30
0
41
1
10
-14.2708592175646
20
-5.27794120061839
30
0
41
1
10
-14.2466881934933
20
-5.26586656540695
30
0
41
1
10
-14.2110774186189
20
-5.24675579357759
30
0
41
1
10
-14.1993109081088
20
-5.24021577958535
30
0
41
1
10
-14.1761490644524
20
-5.22689762154863
30
0
41
1
10
-14.1190707984856
20
-5.19295097150575
30
0
41
1
10
-14.0659423088902
20
-5.15585567198329
30
0
41
1
10
-13.9853722790436
20
-5.09280324282167
30
0
41
1
10
-13.9473081932622
20
-5.05942484453377
30
0
41
1
10
-13.8932201680201
20
-5.0067258138026
30
0
41
1
10
-13.8756933478446
20
-4.98872006168716
30
0
41
1
10
-13.8416025059636
20
-4.95184585609991
30
0
41
1
10
-13.8250535884703
20
-4.9329911023857
30
0
41
1
10
-13.8090444171455
20
-4.91381127456395
30
0
0
SPLINE
5
D9
100
AcDbEntity
8
1
62
256
6
ByLayer
370
13
48
1
60
0
100
AcDbSpline
70
4
71
3
72
82
73
78
40
0
40
0
40
0
40
0
40
0.03125
40
0.03125
40
0.0625
40
0.0625
40
0.0937500000000001
40
0.0937500000000001
40
0.125
40
0.125
40
0.15625
40
0.15625
40
0.1875
40
0.1875
40
0.1953125
40
0.1953125
40
0.203125
40
0.203125
40
0.21875
40
0.21875
40
0.249999999999999
40
0.249999999999999
40
0.281249999999998
40
0.281249999999998
40
0.312499999999998
40
0.312499999999998
40
0.343749999999997
40
0.343749999999997
40
0.374999999999996
40
0.374999999999996
40
0.406249999999995
40
0.406249999999995
40
0.437499999999995
40
0.437499999999995
40
0.453124999999994
40
0.453124999999994
40
0.460937499999994
40
0.460937499999994
40
0.468749999999994
40
0.468749999999994
40
0.499999999999994
40
0.499999999999994
40
0.531249999999993
40
0.531249999999993
40
0.562499999999993
40
0.562499999999993
40
0.593749999999993
40
0.593749999999993
40
0.624999999999992
40
0.624999999999992
40
0.656249999999992
40
0.656249999999992
40
0.687499999999991
40
0.687499999999991
40
0.718749999999991
40
0.718749999999991
40
0.726562499999991
40
0.726562499999991
40
0.734374999999991
40
0.734374999999991
40
0.749999999999991
40
0.749999999999991
40
0.781249999999993
40
0.781249999999993
40
0.812499999999994
40
0.812499999999994
40
0.843749999999995
40
0.843749999999995
40
0.874999999999996
40
0.874999999999996
40
0.906249999999997
40
0.906249999999997
40
0.937499999999998
40
0.937499999999998
40
0.968749999999999
40
0.968749999999999
40
1
40
1
40
1
40
1
41
1
10
72.9
20
5.42458189065471
30
0
41
1
10
72.9668133387013
20
5.26523211508891
30
0
41
1
10
73.0336266774025
20
5.07155198951375
30
0
41
1
10
73.167253354805
20
4.6213299787656
30
0
41
1
10
73.2340666935063
20
4.36482816726999
30
0
41
1
10
73.3676933709089
20
3.80211575774689
30
0
41
1
10
73.43450670961
20
3.4960052004603
30
0
41
1
10
73.5681333870126
20
2.85247167271953
30
0
41
1
10
73.6349467257138
20
2.51517150935294
30
0
41
1
10
73.7685734031164
20
1.82939281507566
30
0
41
1
10
73.8353867418176
20
1.48101585374258
30
0
41
1
10
73.9690134192201
20
0.791427181177369
30
0
41
1
10
74.0358267579214
20
0.450269501638161
30
0
41
1
10
74.1193434312979
20
0.0371391028094479
30
0
41
1
10
74.1360467659733
20
-0.0445073746282958
30
0
41
1
10
74.1694534353238
20
-0.209837424554763
30
0
41
1
10
74.1861567699992
20
-0.293153710647573
30
0
41
1
10
74.2362667740251
20
-0.544769579572431
30
0
41
1
10
74.2696734433757
20
-0.714745536853712
30
0
41
1
10
74.3698934514276
20
-1.22872856024432
30
0
41
1
10
74.4367067901289
20
-1.57690384407832
30
0
41
1
10
74.5703334675314
20
-2.26698871324979
30
0
41
1
10
74.6371468062326
20
-2.60880684318019
30
0
41
1
10
74.7707734836351
20
-3.26624118688997
30
0
41
1
10
74.8375868223364
20
-3.58173604991271
30
0
41
1
10
74.9712134997389
20
-4.16733641002389
30
0
41
1
10
75.0380268384402
20
-4.43733219270143
30
0
41
1
10
75.1716535158427
20
-4.91713491230576
30
0
41
1
10
75.238466854544
20
-5.12688516956598
30
0
41
1
10
75.3720935319465
20
-5.47842661852462
30
0
41
1
10
75.4389068706478
20
-5.62023037378296
30
0
41
1
10
75.5725335480503
20
-5.83583010222966
30
0
41
1
10
75.6393468867515
20
-5.90969186426679
30
0
41
1
10
75.7395668948034
20
-5.97428606195936
30
0
41
1
10
75.772973564154
20
-5.98816109658651
30
0
41
1
10
75.82308356818
20
-5.99838703407502
30
0
41
1
10
75.8397869028552
20
-6.00003296581392
30
0
41
1
10
75.8731935722059
20
-5.999966034469
30
0
41
1
10
75.8898969068812
20
-5.99825149914693
30
0
41
1
10
75.9734135802578
20
-5.98085710728324
30
0
41
1
10
76.040226918959
20
-5.93856149645691
30
0
41
1
10
76.1738535963615
20
-5.78862391175062
30
0
41
1
10
76.2406669350628
20
-5.68090194052957
30
0
41
1
10
76.3742936124654
20
-5.39663436565505
30
0
41
1
10
76.4411069511666
20
-5.22004624761789
30
0
41
1
10
76.5747336285691
20
-4.80181764575343
30
0
41
1
10
76.6415469672703
20
-4.56019944710749
30
0
41
1
10
76.7751736446729
20
-4.02332124078393
30
0
41
1
10
76.8419869833741
20
-3.72814875835672
30
0
41
1
10
76.9756136607767
20
-3.10153306685649
30
0
41
1
10
77.0424269994779
20
-2.77021129514404
30
0
41
1
10
77.1760536768804
20
-2.09134819372736
30
0
41
1
10
77.2428670155817
20
-1.74391727597467
30
0
41
1
10
77.3764936929842
20
-1.05191673680889
30
0
41
1
10
77.4433070316855
20
-0.707414163663259
30
0
41
1
10
77.5268237050622
20
-0.288165090928118
30
0
41
1
10
77.5435270397373
20
-0.204872946436694
30
0
41
1
10
77.576933709088
20
-0.0395947875423985
30
0
41
1
10
77.5936370437633
20
0.0420508783209641
30
0
41
1
10
77.6437470477892
20
0.290007061879436
30
0
41
1
10
77.6771537171398
20
0.45792958592412
30
0
41
1
10
77.7773737251917
20
0.967143467937092
30
0
41
1
10
77.8441870638929
20
1.31400980679123
30
0
41
1
10
77.9778137412954
20
2.00621300603163
30
0
41
1
10
78.0446270799968
20
2.35147019709751
30
0
41
1
10
78.1782537573992
20
3.02089133241913
30
0
41
1
10
78.2450670961005
20
3.34493815157342
30
0
41
1
10
78.3786937735031
20
3.95220956156706
30
0
41
1
10
78.4455071122043
20
4.23531709692102
30
0
41
1
10
78.5791337896068
20
4.7444916814062
30
0
41
1
10
78.645947128308
20
4.97048582036479
30
0
41
1
10
78.7795738057105
20
5.35573824801457
30
0
41
1
10
78.8463871444118
20
5.51499198091511
30
0
41
1
10
78.9800138218143
20
5.76481685336464
30
0
41
1
10
79.0468271605156
20
5.85544319445137
30
0
41
1
10
79.1804538379181
20
5.97299281802691
30
0
41
1
10
79.2472671766193
20
6
30
0
41
1
10
79.3140805153206
20
6
30
0
0
SPLINE
5
DA
100
AcDbEntity
8
1
62
256
6
ByLayer
370
13
48
1
60
0
100
AcDbSpline
70
4
71
3
72
83
73
79
40
0
40
0
40
0
40
0
40
0.0312499999999999
40
0.0312499999999999
40
0.0624999999999998
40
0.0624999999999998
40
0.0937499999999996
40
0.0937499999999996
40
0.109375
40
0.109375
40
0.1171875
40
0.12109375
40
0.12109375
40
0.124999999999999
40
0.124999999999999
40
0.156249999999999
40
0.156249999999999
40
0.187499999999999
40
0.187499999999999
40
0.218749999999999
40
0.218749999999999
40
0.249999999999999
40
0.249999999999999
40
0.281249999999999
40
0.281249999999999
40
0.312499999999998
40
0.312499999999998
40
0.343749999999998
40
0.343749999999998
40
0.374999999999998
40
0.374999999999998
40
0.406249999999998
40
0.406249999999998
40
0.414062499999998
40
0.414062499999998
40
0.421874999999998
40
0.421874999999998
40
0.437499999999998
40
0.437499999999998
40
0.468749999999998
40
0.468749999999998
40
0.499999999999998
40
0.499999999999998
40
0.531249999999999
40
0.531249999999999
40
0.562499999999999
40
0.562499999999999
40
0.593749999999999
40
0.593749999999999
40
0.624999999999999
40
0.624999999999999
40
0.656249999999999
40
0.656249999999999
40
0.687499999999999
40
0.687499999999999
40
0.703124999999999
40
0.703124999999999
40
0.710937499999999
40
0.710937499999999
40
0.718749999999999
40
0.718749999999999
40
0.749999999999999
40
0.749999999999999
40
0.781249999999999
40
0.781249999999999
40
0.812499999999999
40
0.812499999999999
40
0.843749999999999
40
0.843749999999999
40
0.875
40
0.875
40
0.90625
40
0.90625
40
0.9375
40
0.9375
40
0.96875
40
0.96875
40
1
40
1
40
1
40
1
41
1
10
72.9
20
3.63949499602077
30
0
41
1
10
72.9615831467753
20
3.35925575292683
30
0
41
1
10
73.0231662935506
20
3.06176196769783
30
0
41
1
10
73.1463325871012
20
2.4475015627462
30
0
41
1
10
73.2079157338766
20
2.13081398855249
30
0
41
1
10
73.3310820274272
20
1.49366422098134
30
0
41
1
10
73.3926651742024
20
1.17325975017678
30
0
41
1
10
73.4850398943654
20
0.699928645446249
30
0
41
1
10
73.5158314677531
20
0.54334298932028
30
0
41
1
10
73.5620188278345
20
0.311282817827618
30
0
41
1
10
73.5851125078752
20
0.195954771573923
30
0
41
1
10
73.6082061879161
20
0.0818495722218699
30
0
41
1
10
73.6236019746099
20
0.0060683809247166
30
0
41
1
10
73.6312998679568
20
-0.0316483904543361
30
0
41
1
10
73.700580908079
20
-0.37324614925879
30
0
41
1
10
73.7621640548543
20
-0.686161310035658
30
0
41
1
10
73.885330348405
20
-1.31988521968381
30
0
41
1
10
73.9469134951802
20
-1.64066247480017
30
0
41
1
10
74.0700797887308
20
-2.27627858614048
30
0
41
1
10
74.1316629355061
20
-2.59105546451966
30
0
41
1
10
74.2548292290567
20
-3.19907189445206
30
0
41
1
10
74.316412375832
20
-3.49223086333424
30
0
41
1
10
74.4395786693827
20
-4.04184411580869
30
0
41
1
10
74.5011618161579
20
-4.29822260720934
30
0
41
1
10
74.6243281097086
20
-4.76198268446765
30
0
41
1
10
74.6859112564839
20
-4.96931783912981
30
0
41
1
10
74.8090775500345
20
-5.32749678136659
30
0
41
1
10
74.8706606968098
20
-5.47833640956068
30
0
41
1
10
74.9938269903604
20
-5.72162039926343
30
0
41
1
10
75.0554101371357
20
-5.81409833411851
30
0
41
1
10
75.1785764306863
20
-5.94387108958031
30
0
41
1
10
75.2401595774616
20
-5.98122017057878
30
0
41
1
10
75.3171385109308
20
-5.99775327380405
30
0
41
1
10
75.3325342976246
20
-5.99955890603425
30
0
41
1
10
75.3633258710123
20
-6.00029809554928
30
0
41
1
10
75.3787216577061
20
-5.99924478956387
30
0
41
1
10
75.4249090177876
20
-5.99163707693711
30
0
41
1
10
75.4557005911752
20
-5.98062243262055
30
0
41
1
10
75.5480753113382
20
-5.92831138775671
30
0
41
1
10
75.6096584581135
20
-5.86763009166089
30
0
41
1
10
75.7328247516641
20
-5.68922691104711
30
0
41
1
10
75.7944078984394
20
-5.57145730309588
30
0
41
1
10
75.91757419199
20
-5.27770565345929
30
0
41
1
10
75.9791573387653
20
-5.10170488976027
30
0
41
1
10
76.1023236323159
20
-4.69575856551236
30
0
41
1
10
76.1639067790912
20
-4.46583603953337
30
0
41
1
10
76.2870730726419
20
-3.96172568605979
30
0
41
1
10
76.3486562194172
20
-3.68759960028578
30
0
41
1
10
76.4718225129678
20
-3.10887224112992
30
0
41
1
10
76.5334056597431
20
-2.80435211149785
30
0
41
1
10
76.6565719532937
20
-2.18050721104473
30
0
41
1
10
76.718155100069
20
-1.86125727173939
30
0
41
1
10
76.8413213936196
20
-1.22306527444377
30
0
41
1
10
76.9029045403949
20
-0.904172538553183
30
0
41
1
10
76.9952792605579
20
-0.435536033893641
30
0
41
1
10
77.0260708339456
20
-0.280917024237056
30
0
41
1
10
77.0722581940271
20
-0.0523156838109173
30
0
41
1
10
77.0876539807209
20
0.0229751520999741
30
0
41
1
10
77.1184455541086
20
0.175088548957092
30
0
41
1
10
77.1338413408024
20
0.251707126605368
30
0
41
1
10
77.2108202742716
20
0.637241028708274
30
0
41
1
10
77.2724034210469
20
0.953612141885998
30
0
41
1
10
77.3955697145975
20
1.59062191808204
30
0
41
1
10
77.4571528613727
20
1.91122010589342
30
0
41
1
10
77.5803191549233
20
2.54217022361468
30
0
41
1
10
77.6419023016986
20
2.85245310978738
30
0
41
1
10
77.7650685952493
20
3.44704898872226
30
0
41
1
10
77.8266517420246
20
3.73128007968734
30
0
41
1
10
77.9498180355752
20
4.25917710156455
30
0
41
1
10
78.0114011823505
20
4.50277333165161
30
0
41
1
10
78.1345674759011
20
4.93830874646108
30
0
41
1
10
78.1961506226763
20
5.13021286729381
30
0
41
1
10
78.3193169162271
20
5.45642439760729
30
0
41
1
10
78.3809000630023
20
5.590739471185
30
0
41
1
10
78.504066356553
20
5.80141065956897
30
0
41
1
10
78.5656495033282
20
5.87780820341851
30
0
41
1
10
78.6888157968789
20
5.97707463164497
30
0
41
1
10
78.7503989436542
20
6
30
0
41
1
10
78.8119820904295
20
6
30
0
0
SPLINE
5
DB
100
AcDbEntity
8
1
62
256
6
ByLayer
370
13
48
1
60
0
100
AcDbSpline
70
4
71
3
72
82
73
78
40
0
40
0
40
0
40
0
40
0.0312500000000006
40
0.0312500000000006
40
0.0390625000000006
40
0.0390625000000006
40
0.0468750000000007
40
0.0468750000000007
40
0.0625000000000008
40
0.0625000000000008
40
0.0937500000000011
40
0.0937500000000011
40
0.125000000000001
40
0.125000000000001
40
0.156250000000002
40
0.156250000000002
40
0.187500000000002
40
0.187500000000002
40
0.218750000000002
40
0.218750000000002
40
0.250000000000002
40
0.250000000000002
40
0.281250000000002
40
0.281250000000002
40
0.312500000000002
40
0.312500000000002
40
0.343750000000003
40
0.343750000000003
40
0.359375000000003
40
0.359375000000003
40
0.367187500000003
40
0.367187500000003
40
0.375000000000003
40
0.375000000000003
40
0.406250000000002
40
0.406250000000002
40
0.437500000000002
40
0.437500000000002
40
0.468750000000002
40
0.468750000000002
40
0.500000000000002
40
0.500000000000002
40
0.531250000000002
40
0.531250000000002
40
0.562500000000002
40
0.562500000000002
40
0.593750000000002
40
0.593750000000002
40
0.625000000000002
40
0.625000000000002
40
0.656250000000001
40
0.656250000000001
40
0.671875000000001
40
0.671875000000001
40
0.679687500000001
40
0.679687500000001
40
0.687500000000001
40
0.687500000000001
40
0.718750000000001
40
0.718750000000001
40
0.750000000000001
40
0.750000000000001
40
0.781250000000001
40
0.781250000000001
40
0.812500000000001
40
0.812500000000001
40
0.843750000000001
40
0.843750000000001
40
0.875
40
0.875
40
0.90625
40
0.90625
40
0.9375
40
0.9375
40
0.96875
40
0.96875
40
1
40
1
40
1
40
1
41
1
10
72.9
20
1.12591809951482
30
0
41
1
10
72.9563529548494
20
0.835163718286537
30
0
41
1
10
73.0127059096987
20
0.547012997700449
30
0
41
1
10
73.0831471032604
20
0.19546628782615
30
0
41
1
10
73.0972353419727
20
0.125583097679368
30
0
41
1
10
73.1254118193975
20
-0.0132205879795606
30
0
41
1
10
73.1395000581098
20
-0.0822781642473558
30
0
41
1
10
73.1817647742467
20
-0.291775224140593
30
0
41
1
10
73.2099412516715
20
-0.433271330488566
30
0
41
1
10
73.2944706839455
20
-0.861814847675475
30
0
41
1
10
73.3508236387949
20
-1.15298599978539
30
0
41
1
10
73.4635295484936
20
-1.73681665238209
30
0
41
1
10
73.519882503343
20
-2.02944650777221
30
0
41
1
10
73.6325884130416
20
-2.60485805360238
30
0
41
1
10
73.688941367891
20
-2.88759399660293
30
0
41
1
10
73.8016472775897
20
-3.43117646968761
30
0
41
1
10
73.8580002324391
20
-3.69197031319294
30
0
41
1
10
73.9707061421378
20
-4.18044099462759
30
0
41
1
10
74.0270590969872
20
-4.40807184250193
30
0
41
1
10
74.1397650066859
20
-4.82133759163881
30
0
41
1
10
74.1961179615353
20
-5.00694576031469
30
0
41
1
10
74.308823871234
20
-5.33077119827774
30
0
41
1
10
74.3651768260833
20
-5.46898687707443
30
0
41
1
10
74.477882735782
20
-5.69655577273761
30
0
41
1
10
74.5342356906314
20
-5.78592969507758
30
0
41
1
10
74.6469416003301
20
-5.91796141273073
30
0
41
1
10
74.7032945551795
20
-5.96065311563751
30
0
41
1
10
74.7878239874535
20
-5.99333317523275
30
0
41
1
10
74.8160004648782
20
-5.99901840212709
30
0
41
1
10
74.8582651810152
20
-6.0003156675939
30
0
41
1
10
74.8723534197276
20
-5.99955610792017
30
0
41
1
10
74.9005298971522
20
-5.99556937021427
30
0
41
1
10
74.9146181358646
20
-5.99233942340098
30
0
41
1
10
74.9850593294263
20
-5.9697661660874
30
0
41
1
10
75.0414122842757
20
-5.93107278875155
30
0
41
1
10
75.1541181939745
20
-5.80738363293176
30
0
41
1
10
75.2104711488237
20
-5.72235329051969
30
0
41
1
10
75.3231770585224
20
-5.50352959715639
30
0
41
1
10
75.3795300133718
20
-5.36971392085033
30
0
41
1
10
75.4922359230705
20
-5.0543990524794
30
0
41
1
10
75.5485888779199
20
-4.87289920261108
30
0
41
1
10
75.6612947876185
20
-4.46721335466685
30
0
41
1
10
75.7176477424679
20
-4.24305193484204
30
0
41
1
10
75.8303536521667
20
-3.76060533677466
30
0
41
1
10
75.886706607016
20
-3.50236486232103
30
0
41
1
10
75.9994125167147
20
-2.96282000745415
30
0
41
1
10
76.0557654715641
20
-2.68156829868431
30
0
41
1
10
76.1684713812628
20
-2.1080460046789
30
0
41
1
10
76.2248243361121
20
-1.81582226330315
30
0
41
1
10
76.3375302458109
20
-1.23184142639232
30
0
41
1
10
76.3938832006602
20
-0.940115624557905
30
0
41
1
10
76.4784126329342
20
-0.510168441223215
30
0
41
1
10
76.506589110359
20
-0.368109647282779
30
0
41
1
10
76.548853826496
20
-0.157647599376418
30
0
41
1
10
76.5629420652083
20
-0.0879300528594058
30
0
41
1
10
76.591118542633
20
0.0505235145121219
30
0
41
1
10
76.6052067813454
20
0.119917584598539
30
0
41
1
10
76.6756479749071
20
0.469892585898975
30
0
41
1
10
76.7320009297564
20
0.757114722916782
30
0
41
1
10
76.8447068394551
20
1.33764152369076
30
0
41
1
10
76.9010597943044
20
1.63092503743974
30
0
41
1
10
77.0137657040032
20
2.21296930574067
30
0
41
1
10
77.0701186588526
20
2.50169090453076
30
0
41
1
10
77.1828245685512
20
3.06271831689591
30
0
41
1
10
77.2391775234006
20
3.33497307703757
30
0
41
1
10
77.3518834330994
20
3.8512699226722
30
0
41
1
10
77.4082363879486
20
4.09526120007808
30
0
41
1
10
77.5209422976474
20
4.54490972185937
30
0
41
1
10
77.5772952524967
20
4.75053023982042
30
0
41
1
10
77.6900011621955
20
5.11635666747606
30
0
41
1
10
77.7463541170448
20
5.27654938671051
30
0
41
1
10
77.8590600267435
20
5.54825892484277
30
0
41
1
10
77.9154129815929
20
5.65978715907715
30
0
41
1
10
78.0281188912916
20
5.83474793769079
30
0
41
1
10
78.084471846141
20
5.89820971815053
30
0
41
1
10
78.1971777558397
20
5.98081746363184
30
0
41
1
10
78.2535307106891
20
6
30
0
41
1
10
78.3098836655384
20
6
30
0
0
SPLINE
5
DC
100
AcDbEntity
8
1
62
256
6
ByLayer
370
13
48
1
60
0
100
AcDbSpline
70
4
71
3
72
78
73
74
40
0
40
0
40
0
40
0
40
0.0312500000000005
40
0.0312500000000005
40
0.0625000000000009
40
0.0625000000000009
40
0.0937500000000014
40
0.0937500000000014
40
0.125000000000002
40
0.125000000000002
40
0.156250000000002
40
0.156250000000002
40
0.187500000000003
40
0.187500000000003
40
0.218750000000003
40
0.218750000000003
40
0.250000000000004
40
0.250000000000004
40
0.281250000000004
40
0.281250000000004
40
0.289062500000004
40
0.289062500000004
40
0.296875000000004
40
0.296875000000004
40
0.312500000000005
40
0.312500000000005
40
0.343750000000005
40
0.343750000000005
40
0.375000000000006
40
0.375000000000006
40
0.406250000000006
40
0.406250000000006
40
0.437500000000007
40
0.437500000000007
40
0.468750000000007
40
0.468750000000007
40
0.500000000000007
40
0.500000000000007
40
0.531250000000008
40
0.531250000000008
40
0.562500000000008
40
0.562500000000008
40
0.593750000000009
40
0.593750000000009
40
0.625000000000009
40
0.625000000000009
40
0.640625000000009
40
0.640625000000009
40
0.648437500000009
40
0.648437500000009
40
0.65625000000001
40
0.65625000000001
40
0.687500000000009
40
0.687500000000009
40
0.718750000000008
40
0.718750000000008
40
0.750000000000007
40
0.750000000000007
40
0.781250000000006
40
0.781250000000006
40
0.812500000000005
40
0.812500000000005
40
0.843750000000004
40
0.843750000000004
40
0.875000000000004
40
0.875000000000004
40
0.906250000000003
40
0.906250000000003
40
0.937500000000002
40
0.937500000000002
40
0.968750000000001
40
0.968750000000001
40
1
40
1
40
1
40
1
41
1
10
72.9
20
-1.41859769312211
30
0
41
1
10
72.9511227629234
20
-1.68338001166188
30
0
41
1
10
73.0022455258468
20
-1.94887323664881
30
0
41
1
10
73.1044910516936
20
-2.47293622645498
30
0
41
1
10
73.155613814617
20
-2.73147883047329
30
0
41
1
10
73.2578593404638
20
-3.23267040619675
30
0
41
1
10
73.3089821033873
20
-3.47528719643705
30
0
41
1
10
73.4112276292342
20
-3.93597758371874
30
0
41
1
10
73.4623503921575
20
-4.15402064761304
30
0
41
1
10
73.5645959180043
20
-4.55820276016195
30
0
41
1
10
73.6157186809278
20
-4.74431986133459
30
0
41
1
10
73.7179642067745
20
-5.07939106055247
30
0
41
1
10
73.769086969698
20
-5.22833643160612
30
0
41
1
10
73.8713324955448
20
-5.48638184467868
30
0
41
1
10
73.9224552584681
20
-5.59548709261173
30
0
41
1
10
74.024700784315
20
-5.77379819315181
30
0
41
1
10
74.0758235472384
20
-5.84302013379829
30
0
41
1
10
74.1780690730852
20
-5.94380461888576
30
0
41
1
10
74.2291918360087
20
-5.9753889675217
30
0
41
1
10
74.2930952896629
20
-5.99379768475993
30
0
41
1
10
74.3058759803938
20
-5.99642905172345
30
0
41
1
10
74.3314373618555
20
-5.99966343731757
30
0
41
1
10
74.3442180525863
20
-6.00026872837793
30
0
41
1
10
74.3825601247789
20
-5.99914065125375
30
0
41
1
10
74.4081215062405
20
-5.9944232568194
30
0
41
1
10
74.4848056506257
20
-5.96750160835435
30
0
41
1
10
74.5359284135491
20
-5.93248123223051
30
0
41
1
10
74.6381739393959
20
-5.82452685451491
30
0
41
1
10
74.6892967023193
20
-5.75157135524458
30
0
41
1
10
74.7915422281662
20
-5.56569012066586
30
0
41
1
10
74.8426649910896
20
-5.45274912833818
30
0
41
1
10
74.9449105169364
20
-5.18716957782686
30
0
41
1
10
74.9960332798597
20
-5.03452705931349
30
0
41
1
10
75.0982788057066
20
-4.69245304781785
30
0
41
1
10
75.14940156863
20
-4.5030316379522
30
0
41
1
10
75.2516470944768
20
-4.09285992015799
30
0
41
1
10
75.3027698574003
20
-3.87213263029187
30
0
41
1
10
75.4050153832471
20
-3.40685578811724
30
0
41
1
10
75.4561381461705
20
-3.1623372406097
30
0
41
1
10
75.5583836720173
20
-2.65819840659265
30
0
41
1
10
75.6095064349407
20
-2.39861008537716
30
0
41
1
10
75.7117519607875
20
-1.87329352339378
30
0
41
1
10
75.7628747237109
20
-1.60759169409604
30
0
41
1
10
75.8651202495577
20
-1.07835194108563
30
0
41
1
10
75.9162430124811
20
-0.814830915396641
30
0
41
1
10
75.9929271568662
20
-0.426410123907402
30
0
41
1
10
76.018488538328
20
-0.298068137816671
30
0
41
1
10
76.0568306105205
20
-0.10778970238897
30
0
41
1
10
76.0696113012513
20
-0.044868158092811
30
0
41
1
10
76.095172682713
20
0.0807287272480437
30
0
41
1
10
76.1079533734439
20
0.143931161297672
30
0
41
1
10
76.1718568270981
20
0.461761545870928
30
0
41
1
10
76.2229795900216
20
0.721909447146999
30
0
41
1
10
76.3252251158684
20
1.24774484149552
30
0
41
1
10
76.3763478787918
20
1.51342017048
30
0
41
1
10
76.4785934046386
20
2.04256024719345
30
0
41
1
10
76.529716167562
20
2.30600259082218
30
0
41
1
10
76.6319616934089
20
2.82192799470712
30
0
41
1
10
76.6830844563323
20
3.07438091515328
30
0
41
1
10
76.7853299821791
20
3.55938141335494
30
0
41
1
10
76.8364527451025
20
3.79189665198328
30
0
41
1
10
76.9386982709493
20
4.2288396072129
30
0
41
1
10
76.9898210338728
20
4.43323989823986
30
0
41
1
10
77.0920665597196
20
4.80745915535229
30
0
41
1
10
77.143189322643
20
4.97726179700069
30
0
41
1
10
77.2454348484898
20
5.27815841415168
30
0
41
1
10
77.2965576114132
20
5.40925012781662
30
0
41
1
10
77.3988031372601
20
5.63125046924924
30
0
41
1
10
77.4499259001834
20
5.72216977950501
30
0
41
1
10
77.5521714260302
20
5.86486946789967
30
0
41
1
10
77.6032941889537
20
5.91666920762768
30
0
41
1
10
77.7055397148005
20
5.98422316614111
30
0
41
1
10
77.7566624777239
20
6
30
0
41
1
10
77.8077852406473
20
6
30
0
0
SPLINE
5
DD
100
AcDbEntity
8
1
62
256
6
ByLayer
370
13
48
1
60
0
100
AcDbSpline
70
4
71
3
72
78
73
74
40
0
40
0
40
0
40
0
40
0.03125
40
0.03125
40
0.0625000000000001
40
0.0625000000000001
40
0.0937500000000001
40
0.0937500000000001
40
0.125
40
0.125
40
0.15625
40
0.15625
40
0.1875
40
0.1875
40
0.203125
40
0.203125
40
0.2109375
40
0.2109375
40
0.21875
40
0.21875
40
0.25
40
0.25
40
0.28125
40
0.28125
40
0.3125
40
0.3125
40
0.34375
40
0.34375
40
0.375
40
0.375
40
0.40625
40
0.40625
40
0.4375
40
0.4375
40
0.46875
40
0.46875
40
0.5
40
0.5
40
0.53125
40
0.53125
40
0.5625
40
0.5625
40
0.59375
40
0.59375
40
0.6015625
40
0.6015625
40
0.609375
40
0.609375
40
0.625
40
0.625
40
0.65625
40
0.65625
40
0.6875
40
0.6875
40
0.718750000000001
40
0.718750000000001
40
0.750000000000001
40
0.750000000000001
40
0.781250000000001
40
0.781250000000001
40
0.8125
40
0.8125
40
0.84375
40
0.84375
40
0.875
40
0.875
40
0.90625
40
0.90625
40
0.9375
40
0.9375
40
0.96875
40
0.96875
40
1
40
1
40
1
40
1
41
1
10
72.9
20
-3.89201041277644
30
0
41
1
10
72.9458925709974
20
-4.09250815606327
30
0
41
1
10
72.9917851419949
20
-4.28222717307762
30
0
41
1
10
73.0835702839898
20
-4.63511700079795
30
0
41
1
10
73.1294628549873
20
-4.79827618094222
30
0
41
1
10
73.2212479969822
20
-5.09445886854817
30
0
41
1
10
73.2671405679797
20
-5.22747786324129
30
0
41
1
10
73.3589257099746
20
-5.46147775604993
30
0
41
1
10
73.4048182809721
20
-5.56246145516602
30
0
41
1
10
73.4966034229669
20
-5.7321981235952
30
0
41
1
10
73.5424959939645
20
-5.80095980249439
30
0
41
1
10
73.6342811359593
20
-5.90759018462262
30
0
41
1
10
73.6801737069568
20
-5.94547112901446
30
0
41
1
10
73.7490125634531
20
-5.98103088900786
30
0
41
1
10
73.7719588489518
20
-5.98934874525554
30
0
41
1
10
73.8063782771999
20
-5.99681996283874
30
0
41
1
10
73.8178514199493
20
-5.99847646502133
30
0
41
1
10
73.840797705448
20
-6.00017502300477
30
0
41
1
10
73.8522708481974
20
-6.00022356846921
30
0
41
1
10
73.9096365619441
20
-5.99647531228172
30
0
41
1
10
73.9555291329416
20
-5.98056170376006
30
0
41
1
10
74.0473142749365
20
-5.9197272932588
30
0
41
1
10
74.093206845934
20
-5.87479328288202
30
0
41
1
10
74.1849919879289
20
-5.75361986397621
30
0
41
1
10
74.2308845589263
20
-5.67736880788007
30
0
41
1
10
74.3226697009213
20
-5.49254927846386
30
0
41
1
10
74.3685622719187
20
-5.38397329081437
30
0
41
1
10
74.4603474139136
20
-5.13507555452148
30
0
41
1
10
74.5062399849111
20
-4.99475264590407
30
0
41
1
10
74.5980251269061
20
-4.68465439953974
30
0
41
1
10
74.6439176979035
20
-4.51488532789676
30
0
41
1
10
74.7357028398984
20
-4.14983586347151
30
0
41
1
10
74.7815954108959
20
-3.95456855094764
30
0
41
1
10
74.8733805528908
20
-3.54381716732644
30
0
41
1
10
74.9192731238883
20
-3.3283507306941
30
0
41
1
10
75.0110582658832
20
-2.883378229112
30
0
41
1
10
75.0569508368807
20
-2.65389109543881
30
0
41
1
10
75.1487359788756
20
-2.18737523567009
30
0
41
1
10
75.1946285498731
20
-1.95036347222541
30
0
41
1
10
75.286413691868
20
-1.47506664967082
30
0
41
1
10
75.3323062628654
20
-1.2367942013843
30
0
41
1
10
75.4240914048603
20
-0.764562823729335
30
0
41
1
10
75.4699839758578
20
-0.530611104701194
30
0
41
1
10
75.5273496896046
20
-0.243745671951643
30
0
41
1
10
75.538822832354
20
-0.186648669387637
30
0
41
1
10
75.5617691178527
20
-0.0730678594599681
30
0
41
1
10
75.5732422606022
20
-0.0167836741591714
30
0
41
1
10
75.6076616888502
20
0.152586963767021
30
0
41
1
10
75.6306079743489
20
0.266790531670694
30
0
41
1
10
75.6994468308451
20
0.612539999649982
30
0
41
1
10
75.7453394018426
20
0.847257307709754
30
0
41
1
10
75.8371245438375
20
1.32041247600674
30
0
41
1
10
75.883017114835
20
1.55884248249242
30
0
41
1
10
75.9748022568298
20
2.03374829259394
30
0
41
1
10
76.0206948278273
20
2.27021089374264
30
0
41
1
10
76.1124799698222
20
2.73486900103981
30
0
41
1
10
76.1583725408197
20
2.96304716713033
30
0
41
1
10
76.2501576828146
20
3.40464962180775
30
0
41
1
10
76.296050253812
20
3.61805495307041
30
0
41
1
10
76.387835395807
20
4.02400647241495
30
0
41
1
10
76.4337279668045
20
4.21653540230201
30
0
41
1
10
76.5255131087994
20
4.57556688352469
30
0
41
1
10
76.5714056797968
20
4.74205706472605
30
0
41
1
10
76.6631908217918
20
5.045238046153
30
0
41
1
10
76.7090833927892
20
5.18192345419672
30
0
41
1
10
76.8008685347842
20
5.42338924363852
30
0
41
1
10
76.8467611057816
20
5.52817161442729
30
0
41
1
10
76.9385462477766
20
5.70544394988249
30
0
41
1
10
76.984438818774
20
5.77794204283984
30
0
41
1
10
77.0762239607689
20
5.8918187593261
30
0
41
1
10
77.1221165317664
20
5.93320934524044
30
0
41
1
10
77.2139016737614
20
5.98729334863759
30
0
41
1
10
77.2597942447588
20
6
30
0
41
1
10
77.3056868157562
20
6
30
0
0
SPLINE
5
DE
100
AcDbEntity
8
1
62
256
6
ByLayer
370
13
48
1
60
0
100
AcDbSpline
70
4
71
3
72
78
73
74
40
0
40
0
40
0
40
0
40
0.0312499999999999
40
0.0312499999999999
40
0.0624999999999997
40
0.0624999999999997
40
0.0937499999999996
40
0.0937499999999996
40
0.109374999999999
40
0.109374999999999
40
0.117187499999999
40
0.117187499999999
40
0.124999999999999
40
0.124999999999999
40
0.156249999999999
40
0.156249999999999
40
0.187499999999998
40
0.187499999999998
40
0.218749999999997
40
0.218749999999997
40
0.249999999999997
40
0.249999999999997
40
0.281249999999996
40
0.281249999999996
40
0.312499999999996
40
0.312499999999996
40
0.343749999999995
40
0.343749999999995
40
0.374999999999995
40
0.374999999999995
40
0.406249999999994
40
0.406249999999994
40
0.437499999999993
40
0.437499999999993
40
0.468749999999993
40
0.468749999999993
40
0.499999999999992
40
0.499999999999992
40
0.531249999999992
40
0.531249999999992
40
0.546874999999991
40
0.546874999999991
40
0.554687499999991
40
0.554687499999991
40
0.562499999999991
40
0.562499999999991
40
0.593749999999992
40
0.593749999999992
40
0.624999999999992
40
0.624999999999992
40
0.656249999999993
40
0.656249999999993
40
0.687499999999994
40
0.687499999999994
40
0.718749999999994
40
0.718749999999994
40
0.749999999999995
40
0.749999999999995
40
0.781249999999996
40
0.781249999999996
40
0.812499999999996
40
0.812499999999996
40
0.843749999999997
40
0.843749999999997
40
0.874999999999997
40
0.874999999999997
40
0.906249999999998
40
0.906249999999998
40
0.937499999999999
40
0.937499999999999
40
0.968749999999999
40
0.968749999999999
40
1
40
1
40
1
40
1
41
1
10
72.9
20
-5.55141930039943
30
0
41
1
10
72.9406623790715
20
-5.63667975435857
30
0
41
1
10
72.981324758143
20
-5.70925741062641
30
0
41
1
10
73.062649516286
20
-5.82955576582896
30
0
41
1
10
73.1033118953575
20
-5.87728244064473
30
0
41
1
10
73.1846366535005
20
-5.94923944024694
30
0
41
1
10
73.2252990325721
20
-5.97347684964083
30
0
41
1
10
73.2862926011793
20
-5.99371429043356
30
0
41
1
10
73.3066237907151
20
-5.99777800279631
30
0
41
1
10
73.3371205750187
20
-6.00006928124691
30
0
41
1
10
73.3472861697866
20
-6.00020278167528
30
0
41
1
10
73.3676173593224
20
-5.99922144866096
30
0
41
1
10
73.3777829540902
20
-5.99810102037551
30
0
41
1
10
73.4286109279296
20
-5.98925636748316
30
0
41
1
10
73.4692733070011
20
-5.97178688024965
30
0
41
1
10
73.5505980651441
20
-5.91391728874086
30
0
41
1
10
73.5912604442157
20
-5.87350997713534
30
0
41
1
10
73.6725852023588
20
-5.7681841231674
30
0
41
1
10
73.7132475814302
20
-5.70325914941989
30
0
41
1
10
73.7945723395732
20
-5.54810246082377
30
0
41
1
10
73.8352347186448
20
-5.4578662011493
30
0
41
1
10
73.9165594767878
20
-5.25224553930548
30
0
41
1
10
73.9572218558593
20
-5.13685948650814
30
0
41
1
10
74.0385466140023
20
-4.88214856768403
30
0
41
1
10
74.0792089930738
20
-4.74282557320802
30
0
41
1
10
74.1605337512169
20
-4.44249946336106
30
0
41
1
10
74.2011961302884
20
-4.28150176881274
30
0
41
1
10
74.2825208884315
20
-3.94102437803846
30
0
41
1
10
74.3231832675029
20
-3.76155300689544
30
0
41
1
10
74.404508025646
20
-3.38805647883356
30
0
41
1
10
74.4451704047174
20
-3.19404135848586
30
0
41
1
10
74.5264951628605
20
-2.79583515851081
30
0
41
1
10
74.567157541932
20
-2.59165437237095
30
0
41
1
10
74.648482300075
20
-2.17763357176068
30
0
41
1
10
74.6891446791465
20
-1.96780273726446
30
0
41
1
10
74.7704694372896
20
-1.54684026541548
30
0
41
1
10
74.8111318163611
20
-1.3357156942761
30
0
41
1
10
74.8924565745041
20
-0.916118720544318
30
0
41
1
10
74.9331189535756
20
-0.707650784328933
30
0
41
1
10
74.9941125221829
20
-0.399467855438275
30
0
41
1
10
75.0144437117186
20
-0.297488443029124
30
0
41
1
10
75.0449404960222
20
-0.145910505828653
30
0
41
1
10
75.0551060907902
20
-0.095616055883653
30
0
41
1
10
75.075437280326
20
0.0044690281007149
30
0
41
1
10
75.0856028750938
20
0.0542913399004306
30
0
41
1
10
75.1364308489331
20
0.305475647853228
30
0
41
1
10
75.1770932280047
20
0.510355133972666
30
0
41
1
10
75.2584179861476
20
0.925044469645513
30
0
41
1
10
75.2990803652192
20
1.13485156679974
30
0
41
1
10
75.3804051233623
20
1.55581171569588
30
0
41
1
10
75.4210675024337
20
1.76695937434874
30
0
41
1
10
75.5023922605767
20
2.18648777510609
30
0
41
1
10
75.5430546396483
20
2.39486063290772
30
0
41
1
10
75.6243793977913
20
2.80439833557506
30
0
41
1
10
75.6650417768628
20
3.00555347598939
30
0
41
1
10
75.7463665350058
20
3.39615339824928
30
0
41
1
10
75.7870289140773
20
3.58558780915425
30
0
41
1
10
75.8683536722203
20
3.9484887131151
30
0
41
1
10
75.9090160512918
20
4.12194560626469
30
0
41
1
10
75.9903408094349
20
4.44918400547186
30
0
41
1
10
76.0310031885064
20
4.60295808492734
30
0
41
1
10
76.1123279466494
20
4.88793413555658
30
0
41
1
10
76.152990325721
20
5.01913188142473
30
0
41
1
10
76.234315083864
20
5.25704757449085
30
0
41
1
10
76.2749774629355
20
5.36376491282863
30
0
41
1
10
76.3563022210785
20
5.55187461335848
30
0
41
1
10
76.39696460015
20
5.6332697295702
30
0
41
1
10
76.478289358293
20
5.7709185540038
30
0
41
1
10
76.5189517373645
20
5.82717758890152
30
0
41
1
10
76.6002764955075
20
5.91564187342348
30
0
41
1
10
76.6409388745791
20
5.94785394777506
30
0
41
1
10
76.7222636327222
20
5.99002939292191
30
0
41
1
10
76.7629260117936
20
6
30
0
41
1
10
76.8035883908651
20
6
30
0
0
SPLINE
5
DF
100
AcDbEntity
8
1
62
256
6
ByLayer
370
13
48
1
60
0
100
AcDbSpline
70
4
71
3
72
42
73
38
40
0
40
0
40
0
40
0
40
0.0624999999999993
40
0.0624999999999993
40
0.124999999999999
40
0.124999999999999
40
0.187499999999998
40
0.187499999999998
40
0.249999999999997
40
0.249999999999997
40
0.312499999999996
40
0.312499999999996
40
0.374999999999996
40
0.374999999999996
40
0.437499999999995
40
0.437499999999995
40
0.468749999999994
40
0.468749999999994
40
0.484374999999995
40
0.484374999999995
40
0.499999999999995
40
0.499999999999995
40
0.562499999999995
40
0.562499999999995
40
0.624999999999996
40
0.624999999999996
40
0.687499999999996
40
0.687499999999996
40
0.749999999999997
40
0.749999999999997
40
0.812499999999998
40
0.812499999999998
40
0.874999999999999
40
0.874999999999999
40
0.937499999999999
40
0.937499999999999
40
1
40
1
40
1
40
1
41
1
10
72.9
20
-5.99344923171847
30
0
41
1
10
72.9708643742911
20
-5.97689588849792
30
0
41
1
10
73.0417287485823
20
-5.92821399964274
30
0
41
1
10
73.1834574971645
20
-5.75665323917173
30
0
41
1
10
73.2543218714555
20
-5.63366988605051
30
0
41
1
10
73.3960506200378
20
-5.31028709861968
30
0
41
1
10
73.466914994329
20
-5.10984222461087
30
0
41
1
10
73.6086437429113
20
-4.63771190560371
30
0
41
1
10
73.6795081172024
20
-4.36607637236258
30
0
41
1
10
73.8212368657846
20
-3.76717343735334
30
0
41
1
10
73.8921012400757
20
-3.44004118314746
30
0
41
1
10
74.033829988658
20
-2.75231837187752
30
0
41
1
10
74.1046943629491
20
-2.39189203131087
30
0
41
1
10
74.2464231115313
20
-1.66158274682465
30
0
41
1
10
74.3172874858225
20
-1.29182826944
30
0
41
1
10
74.4235840472593
20
-0.746007615197016
30
0
41
1
10
74.4590162344048
20
-0.565501737786349
30
0
41
1
10
74.5121645151231
20
-0.298483611766358
30
0
41
1
10
74.5298806086959
20
-0.210098070877422
30
0
41
1
10
74.5653127958415
20
-0.0347963626261958
30
0
41
1
10
74.5830288894142
20
0.0517849598982991
30
0
41
1
10
74.6716093572781
20
0.490513325171406
30
0
41
1
10
74.7424737315692
20
0.853376870957533
30
0
41
1
10
74.8842024801515
20
1.58583948283442
30
0
41
1
10
74.9550668544426
20
1.95536044270116
30
0
41
1
10
75.0967956030248
20
2.67894588417491
30
0
41
1
10
75.167659977316
20
3.03286732505208
30
0
41
1
10
75.3093887258983
20
3.70128634051503
30
0
41
1
10
75.3802531001894
20
4.01562060569097
30
0
41
1
10
75.5219818487717
20
4.58392790833562
30
0
41
1
10
75.5928462230627
20
4.83778445430366
30
0
41
1
10
75.7345749716451
20
5.27168612048138
30
0
41
1
10
75.8054393459362
20
5.45170799531078
30
0
41
1
10
75.9471680945184
20
5.73421100859323
30
0
41
1
10
76.0180324688096
20
5.83675814426391
30
0
41
1
10
76.1597612173918
20
5.96959696499107
30
0
41
1
10
76.2306255916829
20
6
30
0
41
1
10
76.301489965974
20
6
30
0
0
SPLINE
5
E0
100
AcDbEntity
8
1
62
256
6
ByLayer
370
13
48
1
60
0
100
AcDbSpline
70
4
71
3
72
42
73
38
40
0
40
0
40
0
40
0
40
0.0625
40
0.0625
40
0.125
40
0.125
40
0.1875
40
0.1875
40
0.25
40
0.25
40
0.3125
40
0.3125
40
0.375
40
0.375
40
0.390625
40
0.390625
40
0.40625
40
0.40625
40
0.4375
40
0.4375
40
0.5
40
0.5
40
0.5625
40
0.5625
40
0.625
40
0.625
40
0.6875
40
0.6875
40
0.75
40
0.75
40
0.8125
40
0.8125
40
0.875
40
0.875
40
0.9375
40
0.9375
40
1
40
1
40
1
40
1
41
1
10
72.9
20
-5.28148441387404
30
0
41
1
10
72.9604039904392
20
-5.12015292368909
30
0
41
1
10
73.0208079808784
20
-4.93116047665563
30
0
41
1
10
73.1416159617569
20
-4.50346814275693
30
0
41
1
10
73.2020199521961
20
-4.26480028956453
30
0
41
1
10
73.3228279330746
20
-3.74813848802071
30
0
41
1
10
73.3832319235138
20
-3.47020753179922
30
0
41
1
10
73.5040399043922
20
-2.88871190090919
30
0
41
1
10
73.5644438948315
20
-2.58522164359147
30
0
41
1
10
73.68525187571
20
-1.96746623875566
30
0
41
1
10
73.7456558661492
20
-1.65326487456835
30
0
41
1
10
73.8664638470277
20
-1.02795743329415
30
0
41
1
10
73.9268678374668
20
-0.716890167458104
30
0
41
1
10
74.0023728255159
20
-0.337051639781549
30
0
41
1
10
74.0174738231257
20
-0.261526164160358
30
0
41
1
10
74.0476758183453
20
-0.111503715397987
30
0
41
1
10
74.0627768159551
20
-0.0372905951315374
30
0
41
1
10
74.1080798087845
20
0.185595675135374
30
0
41
1
10
74.1382818040041
20
0.336427757294132
30
0
41
1
10
74.228887789663
20
0.79394574527646
30
0
41
1
10
74.2892917801022
20
1.10574560861198
30
0
41
1
10
74.4100997609807
20
1.73145156869529
30
0
41
1
10
74.4705037514199
20
2.04531652230167
30
0
41
1
10
74.5913117322983
20
2.66117779149028
30
0
41
1
10
74.6517157227376
20
2.96310873874594
30
0
41
1
10
74.7725237036161
20
3.54027161185161
30
0
41
1
10
74.8329276940553
20
3.81542918621912
30
0
41
1
10
74.9537356749337
20
4.32552497490104
30
0
41
1
10
75.014139665373
20
4.56040214466921
30
0
41
1
10
75.1349476462514
20
4.97984623045809
30
0
41
1
10
75.1953516366906
20
5.16438422182267
30
0
41
1
10
75.316159617569
20
5.47790179196937
30
0
41
1
10
75.3765636080083
20
5.6068904553627
30
0
41
1
10
75.4973715888868
20
5.80920953310283
30
0
41
1
10
75.557775579326
20
5.88257845204379
30
0
41
1
10
75.6785835602044
20
5.97794798698001
30
0
41
1
10
75.7389875506437
20
6
30
0
41
1
10
75.7993915410829
20
6
30
0
0
SPLINE
5
E1
100
AcDbEntity
8
1
62
256
6
ByLayer
370
13
48
1
60
0
100
AcDbSpline
70
4
71
3
72
10
73
6
40
0
40
0
40
0
40
0
40
0.5
40
0.5
40
1
40
1
40
1
40
1
41
1
10
79.4272798693932
20
6
30
0
41
1
10
79.4920963235614
20
6
30
0
41
1
10
79.5569127777297
20
5.97459138547137
30
0
41
1
10
79.6865456860662
20
5.86421517821054
30
0
41
1
10
79.7513621402345
20
5.77917514290954
30
0
41
1
10
79.8161785944028
20
5.66193974908609
30
0
0
SPLINE
5
E2
100
AcDbEntity
8
1
62
256
6
ByLayer
370
13
48
1
60
0
100
AcDbSpline
70
4
71
3
72
42
73
38
40
0
40
0
40
0
40
0
40
0.0625
40
0.0625
40
0.125
40
0.125
40
0.1875
40
0.1875
40
0.25
40
0.25
40
0.265625
40
0.265625
40
0.28125
40
0.28125
40
0.3125
40
0.3125
40
0.375
40
0.375
40
0.4375
40
0.4375
40
0.5
40
0.5
40
0.5625
40
0.5625
40
0.625
40
0.625
40
0.6875
40
0.6875
40
0.75
40
0.75
40
0.8125
40
0.8125
40
0.875
40
0.875
40
0.9375
40
0.9375
40
1
40
1
40
1
40
1
41
1
10
72.9
20
-3.37730212617555
30
0
41
1
10
72.9499436065873
20
-3.14204254908887
30
0
41
1
10
72.9998872131746
20
-2.89693879742382
30
0
41
1
10
73.0997744263493
20
-2.39529995755152
30
0
41
1
10
73.1497180329366
20
-2.1387921838575
30
0
41
1
10
73.2496052461113
20
-1.62257898837817
30
0
41
1
10
73.2995488526986
20
-1.36289458825107
30
0
41
1
10
73.3994360658733
20
-0.847738834508363
30
0
41
1
10
73.4493796724606
20
-0.592279724598825
30
0
41
1
10
73.5118091806949
20
-0.279389989223915
30
0
41
1
10
73.5242950823416
20
-0.217130110656598
30
0
41
1
10
73.5492668856353
20
-0.0933262373996513
30
0
41
1
10
73.5617527872821
20
-0.0319712831720551
30
0
41
1
10
73.5992104922226
20
0.152222594671372
30
0
41
1
10
73.6241822955163
20
0.276554798339561
30
0
41
1
10
73.6990977053973
20
0.653216655281312
30
0
41
1
10
73.7490413119847
20
0.909256780317406
30
0
41
1
10
73.8489285251593
20
1.42502738740174
30
0
41
1
10
73.8988721317465
20
1.68474489629659
30
0
41
1
10
73.9987593449213
20
2.20038894714099
30
0
41
1
10
74.0487029515086
20
2.45629383654676
30
0
41
1
10
74.1485901646832
20
2.95605462518858
30
0
41
1
10
74.1985337712706
20
3.19988289331255
30
0
41
1
10
74.2984209844453
20
3.66720817928052
30
0
41
1
10
74.3483645910326
20
3.89067667505887
30
0
41
1
10
74.4482518042072
20
4.30983985388932
30
0
41
1
10
74.4981954107946
20
4.50551120607301
30
0
41
1
10
74.5980826239692
20
4.86327864235787
30
0
41
1
10
74.6480262305565
20
5.02536157198989
30
0
41
1
10
74.7479134437311
20
5.31235638017699
30
0
41
1
10
74.7978570503186
20
5.43726740648478
30
0
41
1
10
74.8977442634932
20
5.64874340172904
30
0
41
1
10
74.9476878700805
20
5.73531856485519
30
0
41
1
10
75.0475750832551
20
5.87122060473783
30
0
41
1
10
75.0975186898425
20
5.9205649619102
30
0
41
1
10
75.1974059030172
20
5.98494458642884
30
0
41
1
10
75.2473495096045
20
6
30
0
41
1
10
75.2972931161918
20
6
30
0
0
SPLINE
5
E3
100
AcDbEntity
8
1
62
256
6
ByLayer
370
13
48
1
60
0
100
AcDbSpline
70
4
71
3
72
14
73
10
40
0
40
0
40
0
40
0
40
0.25
40
0.25
40
0.5
40
0.5
40
0.75
40
0.75
40
1
40
1
40
1
40
1
41
1
10
78.9251814445021
20
6
30
0
41
1
10
78.9994312069938
20
6
30
0
41
1
10
79.0736809694856
20
5.96660136251717
30
0
41
1
10
79.2221804944691
20
5.82022407190129
30
0
41
1
10
79.2964302569608
20
5.70710632223296
30
0
41
1
10
79.4449297819442
20
5.39573445383022
30
0
41
1
10
79.5191795444359
20
5.19740612140637
30
0
41
1
10
79.6676790694194
20
4.721031175555
30
0
41
1
10
79.7419288319111
20
4.44303205559189
30
0
41
1
10
79.8161785944028
20
4.13365942173297
30
0
0
SPLINE
5
E4
100
AcDbEntity
8
1
62
256
6
ByLayer
370
13
48
1
60
0
100
AcDbSpline
70
4
71
3
72
38
73
34
40
0
40
0
40
0
40
0
40
0.0624999999999985
40
0.0624999999999985
40
0.0781249999999983
40
0.0781249999999983
40
0.0937499999999982
40
0.0937499999999982
40
0.124999999999998
40
0.124999999999998
40
0.249999999999998
40
0.249999999999998
40
0.312499999999999
40
0.312499999999999
40
0.374999999999999
40
0.374999999999999
40
0.437499999999999
40
0.437499999999999
40
0.499999999999999
40
0.499999999999999
40
0.562499999999999
40
0.562499999999999
40
0.624999999999999
40
0.624999999999999
40
0.6875
40
0.6875
40
0.75
40
0.75
40
0.8125
40
0.8125
40
0.875
40
0.875
40
1
40
1
40
1
40
1
41
1
10
72.9
20
-0.834913170122007
30
0
41
1
10
72.9394832227355
20
-0.632748106938067
30
0
41
1
10
72.9789664454708
20
-0.432610241366206
30
0
41
1
10
73.0283204738901
20
-0.186728831205102
30
0
41
1
10
73.038191279574
20
-0.137765632021512
30
0
41
1
10
73.0579328909417
20
-0.0403033953616614
30
0
41
1
10
73.0678036966256
20
0.0080382282802134
30
0
41
1
10
73.0974161136771
20
0.153920379176213
30
0
41
1
10
73.1171577250449
20
0.252120863457748
30
0
41
1
10
73.2158657818835
20
0.747078567732217
30
0
41
1
10
73.2948322273543
20
1.15604823696867
30
0
41
1
10
73.4132818955607
20
1.76980028875005
30
0
41
1
10
73.452765118296
20
1.97436161435371
30
0
41
1
10
73.5317315637669
20
2.37956074733219
30
0
41
1
10
73.5712147865023
20
2.58019116125169
30
0
41
1
10
73.6501812319731
20
2.97341788782791
30
0
41
1
10
73.6896644547086
20
3.16600553623547
30
0
41
1
10
73.7686309001795
20
3.53905850862725
30
0
41
1
10
73.8081141229149
20
3.71951492705566
30
0
41
1
10
73.8870805683858
20
4.06450740928437
30
0
41
1
10
73.9265637911212
20
4.22903551820369
30
0
41
1
10
74.0055302365921
20
4.5389211393026
30
0
41
1
10
74.0450134593275
20
4.6842727429993
30
0
41
1
10
74.1239799047984
20
4.95331489896003
30
0
41
1
10
74.1634631275338
20
5.07700233732439
30
0
41
1
10
74.2424295730046
20
5.30112331539931
30
0
41
1
10
74.2819127957401
20
5.40155677772492
30
0
41
1
10
74.360879241211
20
5.57852285862018
30
0
41
1
10
74.4003624639464
20
5.6550581558389
30
0
41
1
10
74.4793289094173
20
5.78448629138825
30
0
41
1
10
74.5188121321527
20
5.83738388120571
30
0
41
1
10
74.6372618003589
20
5.96218691967306
30
0
41
1
10
74.7162282458299
20
6
30
0
41
1
10
74.7951946913007
20
6
30
0
0
SPLINE
5
E5
100
AcDbEntity
8
1
62
256
6
ByLayer
370
13
48
1
60
0
100
AcDbSpline
70
4
71
3
72
22
73
18
40
0
40
0
40
0
40
0
40
0.125
40
0.125
40
0.25
40
0.25
40
0.375
40
0.375
40
0.5
40
0.5
40
0.625
40
0.625
40
0.75
40
0.75
40
0.875
40
0.875
40
1
40
1
40
1
40
1
41
1
10
78.423083019611
20
6
30
0
41
1
10
78.4811286685606
20
6
30
0
41
1
10
78.5391743175103
20
5.9796431198902
30
0
41
1
10
78.6552656154096
20
5.89182060550354
30
0
41
1
10
78.7133112643593
20
5.82431267893466
30
0
41
1
10
78.8294025622586
20
5.63817220609536
30
0
41
1
10
78.8874482112083
20
5.51950670964763
30
0
41
1
10
79.0035395091077
20
5.23067182637834
30
0
41
1
10
79.0615851580573
20
5.06049158361404
30
0
41
1
10
79.1776764559565
20
4.6725891268878
30
0
41
1
10
79.2357221049062
20
4.45488575251738
30
0
41
1
10
79.3518134028055
20
3.98014151740401
30
0
41
1
10
79.4098590517551
20
3.72314655407897
30
0
41
1
10
79.5259503496544
20
3.18127374459544
30
0
41
1
10
79.5839959986042
20
2.89645603274002
30
0
41
1
10
79.7000872965035
20
2.31199457112803
30
0
41
1
10
79.7581329454532
20
2.0124080613258
30
0
41
1
10
79.8161785944028
20
1.71182452189225
30
0
0
SPLINE
5
E6
100
AcDbEntity
8
1
62
256
6
ByLayer
370
13
48
1
60
0
100
AcDbSpline
70
4
71
3
72
22
73
18
40
0
40
0
40
0
40
0
40
0.125
40
0.125
40
0.25
40
0.25
40
0.375
40
0.375
40
0.5
40
0.5
40
0.625
40
0.625
40
0.75
40
0.75
40
0.875
40
0.875
40
1
40
1
40
1
40
1
41
1
10
72.9
20
1.71182094041893
30
0
41
1
10
72.9580456777671
20
2.01240463739677
30
0
41
1
10
73.0160913555341
20
2.31199132795601
30
0
41
1
10
73.1321827110683
20
2.89645318250075
30
0
41
1
10
73.1902283888354
20
3.1812711064282
30
0
41
1
10
73.3063197443694
20
3.72314434990699
30
0
41
1
10
73.3643654221365
20
3.98013953498983
30
0
41
1
10
73.4804567776706
20
4.45488419954972
30
0
41
1
10
73.5385024554378
20
4.67258778144088
30
0
41
1
10
73.6545938109718
20
5.06049061811837
30
0
41
1
10
73.7126394887389
20
5.23067103320633
30
0
41
1
10
73.8287308442731
20
5.51950621226158
30
0
41
1
10
73.8867765220402
20
5.6381718321575
30
0
41
1
10
74.0028678775743
20
5.82431249840329
30
0
41
1
10
74.0609135553414
20
5.8918204949957
30
0
41
1
10
74.1770049108756
20
5.97964309959656
30
0
41
1
10
74.2350505886425
20
6
30
0
41
1
10
74.2930962664096
20
6
30
0
0
SPLINE
5
E7
100
AcDbEntity
8
1
62
256
6
ByLayer
370
13
48
1
60
0
100
AcDbSpline
70
4
71
3
72
38
73
34
40
0
40
0
40
0
40
0
40
0.124999999999999
40
0.124999999999999
40
0.187499999999998
40
0.187499999999998
40
0.249999999999998
40
0.249999999999998
40
0.312499999999997
40
0.312499999999997
40
0.374999999999996
40
0.374999999999996
40
0.437499999999996
40
0.437499999999996
40
0.499999999999995
40
0.499999999999995
40
0.562499999999994
40
0.562499999999994
40
0.624999999999994
40
0.624999999999994
40
0.687499999999993
40
0.687499999999993
40
0.749999999999993
40
0.749999999999993
40
0.874999999999991
40
0.874999999999991
40
0.906249999999992
40
0.906249999999992
40
0.921874999999993
40
0.921874999999993
40
0.937499999999994
40
0.937499999999994
40
1
40
1
40
1
40
1
41
1
10
77.9209845947199
20
6
30
0
41
1
10
77.9999510113733
20
6
30
0
41
1
10
78.0789174280268
20
5.96218694750394
30
0
41
1
10
78.1973670530069
20
5.83738400392423
30
0
41
1
10
78.2368502613338
20
5.78448645451141
30
0
41
1
10
78.3158166779872
20
5.65505841780828
30
0
41
1
10
78.3552998863139
20
5.57852317903797
30
0
41
1
10
78.4342663029673
20
5.40155723227474
30
0
41
1
10
78.473749511294
20
5.30112384563398
30
0
41
1
10
78.5527159279475
20
5.0770030339244
30
0
41
1
10
78.5921991362743
20
4.95331568623496
30
0
41
1
10
78.6711655529277
20
4.6842737230034
30
0
41
1
10
78.7106487612544
20
4.53892222134877
30
0
41
1
10
78.7896151779079
20
4.22903681099021
30
0
41
1
10
78.8290983862346
20
4.0645088107521
30
0
41
1
10
78.9080648028881
20
3.71951654716153
30
0
41
1
10
78.9475480112148
20
3.53906023867106
30
0
41
1
10
79.0265144278683
20
3.16600748194688
30
0
41
1
10
79.065997636195
20
2.97341993925161
30
0
41
1
10
79.1449640528484
20
2.58019341486226
30
0
41
1
10
79.1844472611752
20
2.37956309740446
30
0
41
1
10
79.2634136778287
20
1.97436414400019
30
0
41
1
10
79.3028968861554
20
1.76980290150226
30
0
41
1
10
79.4213465111355
20
1.15605107467141
30
0
41
1
10
79.500312927789
20
0.747081522283509
30
0
41
1
10
79.5990209486058
20
0.25212391796785
30
0
41
1
10
79.6187625527691
20
0.153923451420923
30
0
41
1
10
79.6483749590143
20
0.0080413237874097
30
0
41
1
10
79.6582457610959
20
-0.0403002754447073
30
0
41
1
10
79.6779873652592
20
-0.137762456558363
30
0
41
1
10
79.6878581673409
20
-0.186725628195433
30
0
41
1
10
79.7372121777494
20
-0.432606901991903
30
0
41
1
10
79.7766953860761
20
-0.632744662825615
30
0
41
1
10
79.8161785944028
20
-0.834909628846788
30
0
0
SPLINE
5
E8
100
AcDbEntity
8
1
62
256
6
ByLayer
370
13
48
1
60
0
100
AcDbSpline
70
4
71
3
72
14
73
10
40
0
40
0
40
0
40
0
40
0.25
40
0.25
40
0.5
40
0.5
40
0.75
40
0.75
40
1
40
1
40
1
40
1
41
1
10
72.9
20
4.13365654000387
30
0
41
1
10
72.9742498201265
20
4.44302960626183
30
0
41
1
10
73.0484996402531
20
4.72102914331447
30
0
41
1
10
73.1969992805061
20
5.1974048256611
30
0
41
1
10
73.2712491006327
20
5.39573347699837
30
0
41
1
10
73.4197487408858
20
5.70710584888889
30
0
41
1
10
73.4939985610123
20
5.82022378325991
30
0
41
1
10
73.6424982012654
20
5.96660131029151
30
0
41
1
10
73.716748021392
20
6
30
0
41
1
10
73.7909978415185
20
6
30
0
0
SPLINE
5
E9
100
AcDbEntity
8
1
62
256
6
ByLayer
370
13
48
1
60
0
100
AcDbSpline
70
4
71
3
72
42
73
38
40
0
40
0
40
0
40
0
40
0.0625000000000019
40
0.0625000000000019
40
0.125000000000004
40
0.125000000000004
40
0.187500000000006
40
0.187500000000006
40
0.250000000000008
40
0.250000000000008
40
0.312500000000009
40
0.312500000000009
40
0.375000000000011
40
0.375000000000011
40
0.437500000000013
40
0.437500000000013
40
0.500000000000015
40
0.500000000000015
40
0.562500000000017
40
0.562500000000017
40
0.625000000000018
40
0.625000000000018
40
0.68750000000002
40
0.68750000000002
40
0.718750000000021
40
0.718750000000021
40
0.73437500000002
40
0.73437500000002
40
0.75000000000002
40
0.75000000000002
40
0.812500000000015
40
0.812500000000015
40
0.87500000000001
40
0.87500000000001
40
0.937500000000005
40
0.937500000000005
40
1
40
1
40
1
40
1
41
1
10
77.4188861698288
20
6
30
0
41
1
10
77.4688297620074
20
6
30
0
41
1
10
77.518773354186
20
5.98494459514012
30
0
41
1
10
77.6186605385433
20
5.92056500891937
30
0
41
1
10
77.6686041307219
20
5.87122068136244
30
0
41
1
10
77.7684913150791
20
5.73531872347655
30
0
41
1
10
77.8184349072578
20
5.64874361275386
30
0
41
1
10
77.9183220916151
20
5.43726774455629
30
0
41
1
10
77.9682656837937
20
5.3123567928981
30
0
41
1
10
78.0681528681509
20
5.02536215284292
30
0
41
1
10
78.1180964603296
20
4.8632793166779
30
0
41
1
10
78.2179836446868
20
4.50551207998865
30
0
41
1
10
78.2679272368655
20
4.3098408338976
30
0
41
1
10
78.3678144212227
20
3.89067787176091
30
0
41
1
10
78.4177580134013
20
3.66720948653625
30
0
41
1
10
78.5176451977586
20
3.19988441734188
30
0
41
1
10
78.5675887899371
20
2.9560562553925
30
0
41
1
10
78.6674759742944
20
2.45629566668029
30
0
41
1
10
78.717419566473
20
2.20039087099849
30
0
41
1
10
78.8173067508303
20
1.68474698904131
30
0
41
1
10
78.8672503430089
20
1.42502955529875
30
0
41
1
10
78.9671375273662
20
0.909259076407238
30
0
41
1
10
79.0170811195449
20
0.653219004419327
30
0
41
1
10
79.0919965078128
20
0.276557209773699
30
0
41
1
10
79.116968303902
20
0.152225024011131
30
0
41
1
10
79.154425998036
20
-0.0319688311926427
30
0
41
1
10
79.1669118960806
20
-0.0933237468850621
30
0
41
1
10
79.1918836921699
20
-0.217127565024526
30
0
41
1
10
79.2043695902147
20
-0.279387416346282
30
0
41
1
10
79.2667990804379
20
-0.592277017441972
30
0
41
1
10
79.3167426726166
20
-0.847736026127052
30
0
41
1
10
79.4166298569737
20
-1.36289160036776
30
0
41
1
10
79.4665734491523
20
-1.62257592226919
30
0
41
1
10
79.5664606335096
20
-2.138788995022
30
0
41
1
10
79.6164042256883
20
-2.39529672427776
30
0
41
1
10
79.7162914100455
20
-2.89693551818215
30
0
41
1
10
79.7662350022242
20
-3.14203926837487
30
0
41
1
10
79.8161785944028
20
-3.37729886830599
30
0
0
SPLINE
5
EA
100
AcDbEntity
8
1
62
256
6
ByLayer
370
13
48
1
60
0
100
AcDbSpline
70
4
71
3
72
10
73
6
40
0
40
0
40
0
40
0
40
0.5
40
0.5
40
1
40
1
40
1
40
1
41
1
10
72.9
20
5.66193849813567
30
0
41
1
10
72.9648165694379
20
5.77917432790235
30
0
41
1
10
73.0296331388758
20
5.86421468017491
30
0
41
1
10
73.1592662777516
20
5.974591294627
30
0
41
1
10
73.2240828471895
20
6
30
0
41
1
10
73.2888994166274
20
6
30
0
0
SPLINE
5
EB
100
AcDbEntity
8
1
62
256
6
ByLayer
370
13
48
1
60
0
100
AcDbSpline
70
4
71
3
72
42
73
38
40
0
40
0
40
0
40
0
40
0.0624999999999982
40
0.0624999999999982
40
0.124999999999997
40
0.124999999999997
40
0.187499999999995
40
0.187499999999995
40
0.249999999999993
40
0.249999999999993
40
0.312499999999991
40
0.312499999999991
40
0.37499999999999
40
0.37499999999999
40
0.437499999999988
40
0.437499999999988
40
0.499999999999986
40
0.499999999999986
40
0.562499999999984
40
0.562499999999984
40
0.593749999999983
40
0.593749999999983
40
0.609374999999984
40
0.609374999999984
40
0.624999999999984
40
0.624999999999984
40
0.687499999999986
40
0.687499999999986
40
0.749999999999989
40
0.749999999999989
40
0.812499999999992
40
0.812499999999992
40
0.874999999999994
40
0.874999999999994
40
0.937499999999997
40
0.937499999999997
40
1
40
1
40
1
40
1
41
1
10
76.9167877449377
20
6
30
0
41
1
10
76.9771917209683
20
6
30
0
41
1
10
77.0375956969988
20
5.97794799754681
30
0
41
1
10
77.1584036490598
20
5.88257850972502
30
0
41
1
10
77.2188076250903
20
5.80920962739165
30
0
41
1
10
77.3396155771513
20
5.60689065063974
30
0
41
1
10
77.4000195531819
20
5.47790205166228
30
0
41
1
10
77.5208275052429
20
5.1643846352051
30
0
41
1
10
77.5812314812734
20
4.97984673309921
30
0
41
1
10
77.7020394333344
20
4.56040284267303
30
0
41
1
10
77.762443409365
20
4.32552577893856
30
0
41
1
10
77.8832513614261
20
3.81543020734722
30
0
41
1
10
77.9436553374566
20
3.54027274393533
30
0
41
1
10
78.0644632895176
20
2.96311008482704
30
0
41
1
10
78.1248672655482
20
2.6611792405225
30
0
41
1
10
78.2456752176091
20
2.04531815831444
30
0
41
1
10
78.3060791936397
20
1.73145328869063
30
0
41
1
10
78.4268871457008
20
1.1057474707427
30
0
41
1
10
78.4872911217313
20
0.793947665564247
30
0
41
1
10
78.5778970857771
20
0.336429743818769
30
0
41
1
10
78.6080990737923
20
0.18559768027518
30
0
41
1
10
78.6534020558154
20
-0.0372885671788197
30
0
41
1
10
78.6685030498229
20
-0.111501649356569
30
0
41
1
10
78.6987050378382
20
-0.261524043216724
30
0
41
1
10
78.7138060318458
20
-0.33704949178076
30
0
41
1
10
78.7893110018839
20
-0.716887886707354
30
0
41
1
10
78.8497149779145
20
-1.02795505440943
30
0
41
1
10
78.9705229299755
20
-1.6532623311669
30
0
41
1
10
79.0309269060059
20
-1.96746362909153
30
0
41
1
10
79.151734858067
20
-2.58521894834092
30
0
41
1
10
79.2121388340976
20
-2.888709186467
30
0
41
1
10
79.3329467861587
20
-3.47020483657545
30
0
41
1
10
79.3933507621891
20
-3.74813583129577
30
0
41
1
10
79.5141587142502
20
-4.26479777004144
30
0
41
1
10
79.5745626902807
20
-4.50346572193612
30
0
41
1
10
79.6953706423418
20
-4.93115830651669
30
0
41
1
10
79.7557746183722
20
-5.12015090543494
30
0
41
1
10
79.8161785944028
20
-5.28148256664821
30
0
0
SPLINE
5
EC
100
AcDbEntity
8
1
62
256
6
ByLayer
370
13
48
1
60
0
100
AcDbSpline
70
4
71
3
72
42
73
38
40
0
40
0
40
0
40
0
40
0.0624999999999984
40
0.0624999999999984
40
0.124999999999997
40
0.124999999999997
40
0.187499999999995
40
0.187499999999995
40
0.249999999999994
40
0.249999999999994
40
0.312499999999993
40
0.312499999999993
40
0.374999999999992
40
0.374999999999992
40
0.437499999999991
40
0.437499999999991
40
0.499999999999989
40
0.499999999999989
40
0.515624999999989
40
0.515624999999989
40
0.531249999999989
40
0.531249999999989
40
0.56249999999999
40
0.56249999999999
40
0.624999999999991
40
0.624999999999991
40
0.687499999999993
40
0.687499999999993
40
0.749999999999994
40
0.749999999999994
40
0.812499999999996
40
0.812499999999996
40
0.874999999999997
40
0.874999999999997
40
0.937499999999998
40
0.937499999999998
40
1
40
1
40
1
40
1
41
1
10
76.4146893200466
20
6
30
0
41
1
10
76.485553679929
20
6
30
0
41
1
10
76.5564180398114
20
5.96959697743461
30
0
41
1
10
76.6981467595763
20
5.83675821284987
30
0
41
1
10
76.7690111194587
20
5.73421112098654
30
0
41
1
10
76.9107398392235
20
5.45170822756191
30
0
41
1
10
76.981604199106
20
5.2716864288202
30
0
41
1
10
77.1233329188709
20
4.83778493998364
30
0
41
1
10
77.1941972787532
20
4.58392849518421
30
0
41
1
10
77.3359259985181
20
4.01562140547509
30
0
41
1
10
77.4067903584005
20
3.70128725188584
30
0
41
1
10
77.5485190781653
20
3.0328684523048
30
0
41
1
10
77.6193834380477
20
2.67894711554521
30
0
41
1
10
77.7611121578126
20
1.95536185958289
30
0
41
1
10
77.831976517695
20
1.58584098102543
30
0
41
1
10
77.97370523746
20
0.853378500298533
30
0
41
1
10
78.0445695973423
20
0.490515004378352
30
0
41
1
10
78.1331500471954
20
0.0517866810340024
30
0
41
1
10
78.1508661371658
20
-0.0347946259288108
30
0
41
1
10
78.1862983171071
20
-0.210096278845725
30
0
41
1
10
78.2040144070778
20
-0.29848179249268
30
0
41
1
10
78.2571626769896
20
-0.565499838525682
30
0
41
1
10
78.2925948569308
20
-0.746005664925065
30
0
41
1
10
78.3988913967544
20
-1.2918261770331
30
0
41
1
10
78.4697557566368
20
-1.66158057426858
30
0
41
1
10
78.6114844764016
20
-2.39188974909899
30
0
41
1
10
78.6823488362841
20
-2.75231606041069
30
0
41
1
10
78.8240775560489
20
-3.44003888011676
30
0
41
1
10
78.8949419159313
20
-3.76717117219243
30
0
41
1
10
79.0366706356961
20
-4.36607425366989
30
0
41
1
10
79.1075349955786
20
-4.63770989549306
30
0
41
1
10
79.2492637153434
20
-5.10984049082646
30
0
41
1
10
79.3201280752259
20
-5.31028553236703
30
0
41
1
10
79.4618567949907
20
-5.63366869068594
30
0
41
1
10
79.5327211548731
20
-5.7566522468822
30
0
41
1
10
79.674449874638
20
-5.92821342219111
30
0
41
1
10
79.7453142345204
20
-5.97689552260368
30
0
41
1
10
79.8161785944028
20
-5.99344907016115
30
0
0
SPLINE
5
ED
100
AcDbEntity
8
1
62
256
6
ByLayer
370
13
48
1
60
0
100
AcDbSpline
70
4
71
3
72
77
73
73
40
0
40
0
40
0
40
0
40
0.0312500000000015
40
0.0312500000000015
40
0.062500000000003
40
0.062500000000003
40
0.0937500000000046
40
0.0937500000000046
40
0.125000000000006
40
0.125000000000006
40
0.156250000000007
40
0.156250000000007
40
0.187500000000009
40
0.187500000000009
40
0.218750000000011
40
0.218750000000011
40
0.250000000000012
40
0.250000000000012
40
0.281250000000013
40
0.281250000000013
40
0.312500000000015
40
0.312500000000015
40
0.343750000000016
40
0.343750000000016
40
0.375000000000017
40
0.375000000000017
40
0.406250000000018
40
0.406250000000018
40
0.437500000000019
40
0.437500000000019
40
0.445312500000019
40
0.445312500000019
40
0.453125000000019
40
0.468750000000018
40
0.468750000000018
40
0.500000000000018
40
0.500000000000018
40
0.531250000000017
40
0.531250000000017
40
0.562500000000017
40
0.562500000000017
40
0.593750000000016
40
0.593750000000016
40
0.625000000000016
40
0.625000000000016
40
0.656250000000015
40
0.656250000000015
40
0.687500000000015
40
0.687500000000015
40
0.718750000000014
40
0.718750000000014
40
0.750000000000014
40
0.750000000000014
40
0.781250000000013
40
0.781250000000013
40
0.812500000000013
40
0.812500000000013
40
0.843750000000012
40
0.843750000000012
40
0.875000000000012
40
0.875000000000012
40
0.882812500000011
40
0.882812500000011
40
0.89062500000001
40
0.89062500000001
40
0.906250000000009
40
0.906250000000009
40
0.937500000000006
40
0.937500000000006
40
0.968750000000003
40
0.968750000000003
40
1
40
1
40
1
40
1
41
1
10
75.9125908951555
20
6
30
0
41
1
10
75.9532532670227
20
6
30
0
41
1
10
75.9939156388899
20
5.99002939646113
30
0
41
1
10
76.0752403826241
20
5.94785396665313
30
0
41
1
10
76.1159027544913
20
5.91564190410764
30
0
41
1
10
76.1972274982256
20
5.82717765225925
30
0
41
1
10
76.2378898700928
20
5.77091863823472
30
0
41
1
10
76.3192146138271
20
5.63326986483048
30
0
41
1
10
76.3598769856943
20
5.55187477877851
30
0
41
1
10
76.4412017294286
20
5.36376514734835
30
0
41
1
10
76.4818641012958
20
5.25704784795073
30
0
41
1
10
76.5631888450301
20
5.01913224025512
30
0
41
1
10
76.6038512168972
20
4.88793454081363
30
0
41
1
10
76.6851759606315
20
4.60295858850102
30
0
41
1
10
76.7258383324987
20
4.44918456092805
30
0
41
1
10
76.8071630762331
20
4.1219462683554
30
0
41
1
10
76.8478254481002
20
3.94848942994781
30
0
41
1
10
76.9291501918345
20
3.58558863544772
30
0
41
1
10
76.9698125637017
20
3.39615427925085
30
0
41
1
10
77.051137307436
20
3.00555446350921
30
0
41
1
10
77.0917996793032
20
2.80439937489581
30
0
41
1
10
77.1731244230375
20
2.39486177038086
30
0
41
1
10
77.2137867949046
20
2.18648895892443
30
0
41
1
10
77.2951115386389
20
1.76696064341701
30
0
41
1
10
77.3357739105061
20
1.55581302366628
30
0
41
1
10
77.4170986542405
20
1.13485294383784
30
0
41
1
10
77.4577610261076
20
0.925045876850049
30
0
41
1
10
77.5390857698419
20
0.510356592197184
30
0
41
1
10
77.579748141709
20
0.305477126934733
30
0
41
1
10
77.6305761065429
20
0.0542928392793556
30
0
41
1
10
77.6407416995098
20
0.0044705302828447
30
0
41
1
10
77.6610728854433
20
-0.0956145257975152
30
0
41
1
10
77.6915696643437
20
-0.24649716521165
30
0
41
1
10
77.7220664432441
20
-0.399466243505913
30
0
41
1
10
77.7830600010448
20
-0.707649093988891
30
0
41
1
10
77.823722372912
20
-0.916116980902132
30
0
41
1
10
77.9050471166463
20
-1.33571386550003
30
0
41
1
10
77.9457094885136
20
-1.5468383968192
30
0
41
1
10
78.0270342322478
20
-1.96780080207773
30
0
41
1
10
78.0676966041149
20
-2.17763160981735
30
0
41
1
10
78.1490213478493
20
-2.59165237319323
30
0
41
1
10
78.1896837197165
20
-2.79583314886878
30
0
41
1
10
78.2710084634508
20
-3.19403934665553
30
0
41
1
10
78.3116708353178
20
-3.38805447528995
30
0
41
1
10
78.3929955790522
20
-3.7615510399861
30
0
41
1
10
78.4336579509194
20
-3.94102243948206
30
0
41
1
10
78.5149826946537
20
-4.28149990695354
30
0
41
1
10
78.5556450665208
20
-4.44249764984468
30
0
41
1
10
78.6369698102552
20
-4.74282387484718
30
0
41
1
10
78.6776321821224
20
-4.88214693612773
30
0
41
1
10
78.7589569258566
20
-5.1368580042051
30
0
41
1
10
78.7996192977238
20
-5.25224413943798
30
0
41
1
10
78.8809440414582
20
-5.45786497799651
30
0
41
1
10
78.9216064133252
20
-5.54810133193465
30
0
41
1
10
79.0029311570596
20
-5.70325821656732
30
0
41
1
10
79.0435935289267
20
-5.76818329207293
30
0
41
1
10
79.124918272661
20
-5.87350935266272
30
0
41
1
10
79.1655806445282
20
-5.91391676912022
30
0
41
1
10
79.2469053882627
20
-5.97178656937257
30
0
41
1
10
79.2875677601298
20
-5.98925616049013
30
0
41
1
10
79.3383957249637
20
-5.99810094049059
30
0
41
1
10
79.3485613179305
20
-5.99922139406212
30
0
41
1
10
79.3688925038641
20
-6.00020277733151
30
0
41
1
10
79.3790580968308
20
-6.00006930178651
30
0
41
1
10
79.4095548757312
20
-5.99777810055213
30
0
41
1
10
79.4298860616648
20
-5.99371444209757
30
0
41
1
10
79.4908796194655
20
-5.97347717019881
30
0
41
1
10
79.5315419913327
20
-5.94923988300818
30
0
41
1
10
79.612866735067
20
-5.87728314528914
30
0
41
1
10
79.6535291069341
20
-5.82955661015652
30
0
41
1
10
79.7348538506684
20
-5.70925854848448
30
0
41
1
10
79.7755162225356
20
-5.63668104606003
30
0
41
1
10
79.8161785944028
20
-5.55142075057535
30
0
0
SPLINE
5
EE
100
AcDbEntity
8
1
62
256
6
ByLayer
370
13
48
1
60
0
100
AcDbSpline
70
4
71
3
72
77
73
73
40
0
40
0
40
0
40
0
40
0.0312499999999996
40
0.0312499999999996
40
0.0624999999999992
40
0.0624999999999992
40
0.0937499999999988
40
0.0937499999999988
40
0.124999999999998
40
0.124999999999998
40
0.156249999999998
40
0.156249999999998
40
0.187499999999998
40
0.187499999999998
40
0.218749999999997
40
0.218749999999997
40
0.249999999999997
40
0.249999999999997
40
0.281249999999997
40
0.281249999999997
40
0.312499999999996
40
0.312499999999996
40
0.343749999999996
40
0.343749999999996
40
0.374999999999995
40
0.374999999999995
40
0.390624999999996
40
0.390624999999996
40
0.398437499999995
40
0.398437499999995
40
0.406249999999995
40
0.406249999999995
40
0.437499999999995
40
0.437499999999995
40
0.468749999999996
40
0.468749999999996
40
0.499999999999996
40
0.499999999999996
40
0.531249999999996
40
0.531249999999996
40
0.562499999999997
40
0.562499999999997
40
0.593749999999997
40
0.593749999999997
40
0.624999999999997
40
0.624999999999997
40
0.656249999999997
40
0.656249999999997
40
0.687499999999998
40
0.687499999999998
40
0.718749999999998
40
0.718749999999998
40
0.749999999999998
40
0.749999999999998
40
0.781249999999999
40
0.781249999999999
40
0.789062499999999
40
0.789062499999999
40
0.796874999999998
40
0.812499999999998
40
0.812499999999998
40
0.843749999999999
40
0.843749999999999
40
0.874999999999999
40
0.874999999999999
40
0.906249999999999
40
0.906249999999999
40
0.937499999999999
40
0.937499999999999
40
0.96875
40
0.96875
40
1
40
1
40
1
40
1
41
1
10
75.4104924702644
20
6
30
0
41
1
10
75.4563850340575
20
6
30
0
41
1
10
75.5022775978507
20
5.98729335263621
30
0
41
1
10
75.5940627254369
20
5.93320936671262
30
0
41
1
10
75.6399552892299
20
5.89181879428358
30
0
41
1
10
75.7317404168161
20
5.77794211514259
30
0
41
1
10
75.7776329806093
20
5.70544404605374
30
0
41
1
10
75.8694181081955
20
5.52817176871469
30
0
41
1
10
75.9153106719886
20
5.42338943217746
30
0
41
1
10
76.0070957995748
20
5.18192372052999
30
0
41
1
10
76.0529883633679
20
5.0452383560262
30
0
41
1
10
76.1447734909541
20
4.7420574687666
30
0
41
1
10
76.1906660547472
20
4.57556733818257
30
0
41
1
10
76.2824511823335
20
4.21653596215702
30
0
41
1
10
76.3283437461266
20
4.02400708683433
30
0
41
1
10
76.4201288737128
20
3.61805567692804
30
0
41
1
10
76.4660214375059
20
3.40465040052212
30
0
41
1
10
76.5578065650921
20
2.96304805219356
30
0
41
1
10
76.6036991288853
20
2.73486993758041
30
0
41
1
10
76.6954842564715
20
2.27021192667419
30
0
41
1
10
76.7413768202645
20
2.03374937042989
30
0
41
1
10
76.8331619478508
20
1.55884364122036
30
0
41
1
10
76.8790545116439
20
1.32041367071972
30
0
41
1
10
76.9708396392301
20
0.847258564147978
30
0
41
1
10
77.0167322030231
20
0.61254128183171
30
0
41
1
10
77.0855710487128
20
0.266791844544088
30
0
41
1
10
77.1085173306095
20
0.152588285557812
30
0
41
1
10
77.1429367534543
20
-0.0167823409313996
30
0
41
1
10
77.1544098944026
20
-0.0730665092671074
30
0
41
1
10
77.1773561762991
20
-0.186647291551736
30
0
41
1
10
77.1888293172474
20
-0.243744280433418
30
0
41
1
10
77.2461950219887
20
-0.530609645627806
30
0
41
1
10
77.2920875857819
20
-0.764561313336571
30
0
41
1
10
77.3838727133681
20
-1.23679259822094
30
0
41
1
10
77.4297652771611
20
-1.47506500507396
30
0
41
1
10
77.5215504047474
20
-1.95036175921422
30
0
41
1
10
77.5674429685405
20
-2.18737349569997
30
0
41
1
10
77.6592280961267
20
-2.65388932012632
30
0
41
1
10
77.7051206599198
20
-2.88337644543785
30
0
41
1
10
77.796905787506
20
-3.32834895185934
30
0
41
1
10
77.8427983512992
20
-3.54381540170877
30
0
41
1
10
77.9345834788854
20
-3.95456683459207
30
0
41
1
10
77.9804760426784
20
-4.14983418316626
30
0
41
1
10
78.0722611702647
20
-4.5148837417278
30
0
41
1
10
78.1181537340578
20
-4.68465287144935
30
0
41
1
10
78.209938861644
20
-4.99475125318475
30
0
41
1
10
78.2558314254371
20
-5.13507423907629
30
0
41
1
10
78.3476165530233
20
-5.38397214467787
30
0
41
1
10
78.3935091168165
20
-5.49254822433753
30
0
41
1
10
78.4852942444027
20
-5.67736794711288
30
0
41
1
10
78.5311868081957
20
-5.75361910453361
30
0
41
1
10
78.6229719357819
20
-5.87479272979405
30
0
41
1
10
78.668864499575
20
-5.91972684518149
30
0
41
1
10
78.7606496271612
20
-5.98056146423849
30
0
41
1
10
78.8065421909544
20
-5.99647517629364
30
0
41
1
10
78.8639078956958
20
-6.00022355833454
30
0
41
1
10
78.8753810366441
20
-6.00017503767288
30
0
41
1
10
78.8983273185405
20
-5.99847653114534
30
0
41
1
10
78.9327467413855
20
-5.9935078187408
30
0
41
1
10
78.9671661642303
20
-5.98103111973629
30
0
41
1
10
79.0360050099199
20
-5.94547153839076
30
0
41
1
10
79.0818975737131
20
-5.9075907237216
30
0
41
1
10
79.1736827012993
20
-5.80096061926531
30
0
41
1
10
79.2195752650924
20
-5.73219908831553
30
0
41
1
10
79.3113603926785
20
-5.56246272868839
30
0
41
1
10
79.3572529564717
20
-5.46147919041059
30
0
41
1
10
79.449038084058
20
-5.2274796247367
30
0
41
1
10
79.494930647851
20
-5.0944607963111
30
0
41
1
10
79.5867157754372
20
-4.79827843778503
30
0
41
1
10
79.6326083392303
20
-4.63511942041427
30
0
41
1
10
79.7243934668165
20
-4.28222990544529
30
0
41
1
10
79.7702860306097
20
-4.09251103836849
30
0
41
1
10
79.8161785944027
20
-3.89201343435005
30
0
0
SPLINE
5
EF
100
AcDbEntity
8
1
62
256
6
ByLayer
370
13
48
1
60
0
100
AcDbSpline
70
4
71
3
72
78
73
74
40
0
40
0
40
0
40
0
40
0.0312499999999998
40
0.0312499999999998
40
0.0624999999999995
40
0.0624999999999995
40
0.0937499999999993
40
0.0937499999999993
40
0.124999999999999
40
0.124999999999999
40
0.156249999999999
40
0.156249999999999
40
0.187499999999999
40
0.187499999999999
40
0.218749999999998
40
0.218749999999998
40
0.249999999999998
40
0.249999999999998
40
0.281249999999998
40
0.281249999999998
40
0.312499999999998
40
0.312499999999998
40
0.343749999999997
40
0.343749999999997
40
0.351562499999997
40
0.351562499999997
40
0.359374999999997
40
0.359374999999997
40
0.374999999999997
40
0.374999999999997
40
0.406249999999997
40
0.406249999999997
40
0.437499999999997
40
0.437499999999997
40
0.468749999999997
40
0.468749999999997
40
0.499999999999997
40
0.499999999999997
40
0.531249999999998
40
0.531249999999998
40
0.562499999999998
40
0.562499999999998
40
0.593749999999998
40
0.593749999999998
40
0.624999999999998
40
0.624999999999998
40
0.656249999999998
40
0.656249999999998
40
0.687499999999998
40
0.687499999999998
40
0.703124999999998
40
0.703124999999998
40
0.710937499999998
40
0.710937499999998
40
0.718749999999998
40
0.718749999999998
40
0.749999999999998
40
0.749999999999998
40
0.781249999999999
40
0.781249999999999
40
0.812499999999999
40
0.812499999999999
40
0.843749999999999
40
0.843749999999999
40
0.874999999999999
40
0.874999999999999
40
0.906249999999999
40
0.906249999999999
40
0.9375
40
0.9375
40
0.96875
40
0.96875
40
1
40
1
40
1
40
1
41
1
10
74.9083940453733
20
6
30
0
41
1
10
74.9595168010924
20
6
30
0
41
1
10
75.0106395568114
20
5.9842231706009
30
0
41
1
10
75.1128850682495
20
5.91666923172755
30
0
41
1
10
75.1640078239686
20
5.86486950719561
30
0
41
1
10
75.2662533354067
20
5.72216986086673
30
0
41
1
10
75.3173760911258
20
5.63125057749249
30
0
41
1
10
75.4196216025639
20
5.40925030113709
30
0
41
1
10
75.470744358283
20
5.27815862567056
30
0
41
1
10
75.5729898697211
20
4.9772620943194
30
0
41
1
10
75.6241126254401
20
4.80745950026284
30
0
41
1
10
75.7263581368783
20
4.43324034436853
30
0
41
1
10
75.7774808925973
20
4.22884010694705
30
0
41
1
10
75.8797264040354
20
3.79189726060156
30
0
41
1
10
75.9308491597544
20
3.55938207722559
30
0
41
1
10
76.0330946711925
20
3.07438168658075
30
0
41
1
10
76.0842174269116
20
2.82192881841507
30
0
41
1
10
76.1864629383497
20
2.30600351204734
30
0
41
1
10
76.2375856940688
20
2.04256121364031
30
0
41
1
10
76.339831205507
20
1.5134212173636
30
0
41
1
10
76.390953961226
20
1.24774592359051
30
0
41
1
10
76.4931994726641
20
0.721910588114753
30
0
41
1
10
76.5443222283832
20
0.46176271050615
30
0
41
1
10
76.608225673032
20
0.143932348191868
30
0
41
1
10
76.6210063619617
20
0.0807299182307872
30
0
41
1
10
76.6465677398212
20
-0.0448669596511309
30
0
41
1
10
76.659348428751
20
-0.107788482672675
30
0
41
1
10
76.6976904955403
20
-0.298066876844018
30
0
41
1
10
76.7232518733998
20
-0.426408836083311
30
0
41
1
10
76.7999360069784
20
-0.814829549961701
30
0
41
1
10
76.8510587626976
20
-1.07835052782886
30
0
41
1
10
76.9533042741356
20
-1.60759019866103
30
0
41
1
10
77.0044270298547
20
-1.8732919936333
30
0
41
1
10
77.1066725412928
20
-2.39860850592058
30
0
41
1
10
77.1577952970118
20
-2.65819681179994
30
0
41
1
10
77.26004080845
20
-3.16233563839725
30
0
41
1
10
77.311163564169
20
-3.40685419384917
30
0
41
1
10
77.4134090756071
20
-3.87213107729451
30
0
41
1
10
77.4645318313262
20
-4.09285840049836
30
0
41
1
10
77.5667773427642
20
-4.50303020968562
30
0
41
1
10
77.6179000984832
20
-4.69245167759641
30
0
41
1
10
77.7201456099214
20
-5.03452582641242
30
0
41
1
10
77.7712683656405
20
-5.18716842417211
30
0
41
1
10
77.8735138770786
20
-5.45274814870092
30
0
41
1
10
77.9246366327977
20
-5.56568923576168
30
0
41
1
10
78.0268821442357
20
-5.75157066845583
30
0
41
1
10
78.0780048999548
20
-5.82452627107253
30
0
41
1
10
78.1802504113929
20
-5.93248085723957
30
0
41
1
10
78.231373167112
20
-5.96750133844313
30
0
41
1
10
78.3080573006907
20
-5.99442314137895
30
0
41
1
10
78.3336186785501
20
-5.99914058678837
30
0
41
1
10
78.3719607453395
20
-6.00026873914874
30
0
41
1
10
78.3847414342692
20
-5.999663473298
30
0
41
1
10
78.4103028121287
20
-5.99642914017488
30
0
41
1
10
78.4230835010584
20
-5.99379780020865
30
0
41
1
10
78.4869869457073
20
-5.97538922172453
30
0
41
1
10
78.5381097014264
20
-5.94380499626567
30
0
41
1
10
78.6403552128645
20
-5.84302077901955
30
0
41
1
10
78.6914779685835
20
-5.77379898304261
30
0
41
1
10
78.7937234800216
20
-5.59548818732424
30
0
41
1
10
78.8448462357408
20
-5.48638309952477
30
0
41
1
10
78.9470917471789
20
-5.22833801318401
30
0
41
1
10
78.9982145028979
20
-5.07939280868479
30
0
41
1
10
79.100460014336
20
-4.74432193794809
30
0
41
1
10
79.1515827700551
20
-4.55820499864171
30
0
41
1
10
79.2538282814932
20
-4.15402319363687
30
0
41
1
10
79.3049510372123
20
-3.93598027535975
30
0
41
1
10
79.4071965486503
20
-3.47529015298156
30
0
41
1
10
79.4583193043694
20
-3.23267348198448
30
0
41
1
10
79.5605648158075
20
-2.73148211131445
30
0
41
1
10
79.6116875715265
20
-2.47293959309195
30
0
41
1
10
79.7139330829647
20
-1.94887673827705
30
0
41
1
10
79.7650558386838
20
-1.68338356250004
30
0
41
1
10
79.8161785944028
20
-1.41860127524816
30
0
0
SPLINE
5
F0
100
AcDbEntity
8
1
62
256
6
ByLayer
370
13
48
1
60
0
100
AcDbSpline
70
4
71
3
72
82
73
78
40
0
40
0
40
0
40
0
40
0.03125
40
0.03125
40
0.0625000000000001
40
0.0625000000000001
40
0.0937500000000002
40
0.0937500000000002
40
0.125
40
0.125
40
0.15625
40
0.15625
40
0.187500000000001
40
0.187500000000001
40
0.218750000000001
40
0.218750000000001
40
0.250000000000001
40
0.250000000000001
40
0.281250000000001
40
0.281250000000001
40
0.312500000000001
40
0.312500000000001
40
0.320312500000001
40
0.320312500000001
40
0.328125000000001
40
0.328125000000001
40
0.343750000000001
40
0.343750000000001
40
0.375000000000001
40
0.375000000000001
40
0.406250000000001
40
0.406250000000001
40
0.437500000000001
40
0.437500000000001
40
0.468750000000001
40
0.468750000000001
40
0.500000000000001
40
0.500000000000001
40
0.531250000000001
40
0.531250000000001
40
0.562500000000001
40
0.562500000000001
40
0.593750000000001
40
0.593750000000001
40
0.625000000000001
40
0.625000000000001
40
0.632812500000001
40
0.632812500000001
40
0.640625000000001
40
0.640625000000001
40
0.656250000000001
40
0.656250000000001
40
0.687500000000001
40
0.687500000000001
40
0.718750000000001
40
0.718750000000001
40
0.750000000000001
40
0.750000000000001
40
0.781250000000002
40
0.781250000000002
40
0.812500000000002
40
0.812500000000002
40
0.843750000000002
40
0.843750000000002
40
0.875000000000002
40
0.875000000000002
40
0.906250000000002
40
0.906250000000002
40
0.937500000000002
40
0.937500000000002
40
0.953125000000002
40
0.953125000000002
40
0.960937500000002
40
0.960937500000002
40
0.968750000000002
40
0.968750000000002
40
1
40
1
40
1
40
1
41
1
10
74.4062956204822
20
6
30
0
41
1
10
74.4626485681272
20
6
30
0
41
1
10
74.5190015157722
20
5.98081746855482
30
0
41
1
10
74.6317074110623
20
5.89820974491008
30
0
41
1
10
74.6880603587073
20
5.83474798138693
30
0
41
1
10
74.8007662539973
20
5.65978724958649
30
0
41
1
10
74.8571192016423
20
5.54825904524404
30
0
41
1
10
74.9698250969323
20
5.27654957893566
30
0
41
1
10
75.0261780445773
20
5.1163569016318
30
0
41
1
10
75.1388839398673
20
4.75053056688648
30
0
41
1
10
75.1952368875123
20
4.54491009988365
30
0
41
1
10
75.3079427828023
20
4.09526168432262
30
0
41
1
10
75.3642957304473
20
3.85127046214265
30
0
41
1
10
75.4770016257373
20
3.33497372565955
30
0
41
1
10
75.5333545733823
20
3.06271901940553
30
0
41
1
10
75.6460604686724
20
2.50169170821763
30
0
41
1
10
75.7024134163173
20
2.21297015669054
30
0
41
1
10
75.8151193116074
20
1.63092597234211
30
0
41
1
10
75.8714722592524
20
1.33764249527417
30
0
41
1
10
75.9841781545423
20
0.757115755179228
30
0
41
1
10
76.0405311021873
20
0.469893642167449
30
0
41
1
10
76.1109722867437
20
0.11991866279115
30
0
41
1
10
76.1250605236548
20
0.050524589094465
30
0
41
1
10
76.1532369974774
20
-0.0879289502959466
30
0
41
1
10
76.1673252343887
20
-0.157646482968261
30
0
41
1
10
76.2095899451224
20
-0.36810848992036
30
0
41
1
10
76.2377664189449
20
-0.510167257329215
30
0
41
1
10
76.3222958404124
20
-0.940114364596297
30
0
41
1
10
76.3786487880574
20
-1.23184012042054
30
0
41
1
10
76.4913546833475
20
-1.81582088158373
30
0
41
1
10
76.5477076309925
20
-2.10804459326988
30
0
41
1
10
76.6604135262825
20
-2.68156685057298
30
0
41
1
10
76.7167664739275
20
-2.96281855237939
30
0
41
1
10
76.8294723692175
20
-3.50236342035143
30
0
41
1
10
76.8858253168625
20
-3.76060391490569
30
0
41
1
10
76.9985312121526
20
-4.24305058121831
30
0
41
1
10
77.0548841597975
20
-4.46721204918762
30
0
41
1
10
77.1675900550875
20
-4.87289801860564
30
0
41
1
10
77.2239430027325
20
-5.05439794176948
30
0
41
1
10
77.3366488980225
20
-5.36971297570261
30
0
41
1
10
77.3930018456675
20
-5.50352874422114
30
0
41
1
10
77.5057077409576
20
-5.72235263279543
30
0
41
1
10
77.5620606886025
20
-5.80738307815147
30
0
41
1
10
77.6747665838924
20
-5.93107244219905
30
0
41
1
10
77.7311195315376
20
-5.96976592478026
30
0
41
1
10
77.8015607160938
20
-5.99233931057677
30
0
41
1
10
77.8156489530051
20
-5.9955692829372
30
0
41
1
10
77.8438254268276
20
-5.99955607134467
30
0
41
1
10
77.8579136637388
20
-6.00031565588935
30
0
41
1
10
77.9001783744726
20
-5.99901846633335
30
0
41
1
10
77.9283548482951
20
-5.99333329342355
30
0
41
1
10
78.0128842697627
20
-5.9606534056737
30
0
41
1
10
78.0692372174076
20
-5.91796183065267
30
0
41
1
10
78.1819431126976
20
-5.78593039119375
30
0
41
1
10
78.2382960603426
20
-5.69655661916192
30
0
41
1
10
78.3510019556327
20
-5.46898803807818
30
0
41
1
10
78.4073549032777
20
-5.33077252351174
30
0
41
1
10
78.5200607985677
20
-5.0069474158031
30
0
41
1
10
78.5764137462126
20
-4.8213394130733
30
0
41
1
10
78.6891196415027
20
-4.40807398356316
30
0
41
1
10
78.7454725891477
20
-4.18044328927687
30
0
41
1
10
78.8581784844376
20
-3.6919728894668
30
0
41
1
10
78.9145314320826
20
-3.4311791739232
30
0
41
1
10
79.0272373273726
20
-2.88759692133394
30
0
41
1
10
79.0835902750176
20
-2.60486107083517
30
0
41
1
10
79.1962961703078
20
-2.02944966979416
30
0
41
1
10
79.2526491179527
20
-1.73681986670741
30
0
41
1
10
79.3653550132427
20
-1.1529892790434
30
0
41
1
10
79.4217079608878
20
-0.861818139612154
30
0
41
1
10
79.5062373823553
20
-0.433274615301485
30
0
41
1
10
79.5344138561778
20
-0.291778502250167
30
0
41
1
10
79.5766785669115
20
-0.0822814264479916
30
0
41
1
10
79.5907668038229
20
-0.0132238379587193
30
0
41
1
10
79.6189432776453
20
0.125579799705065
30
0
41
1
10
79.6330315145565
20
0.195462966559688
30
0
41
1
10
79.7034726991128
20
0.547009564000945
30
0
41
1
10
79.7598256467578
20
0.835160207538934
30
0
41
1
10
79.8161785944028
20
1.12591453109656
30
0
0
SPLINE
5
F1
100
AcDbEntity
8
1
62
256
6
ByLayer
370
13
48
1
60
0
100
AcDbSpline
70
4
71
3
72
83
73
79
40
0
40
0
40
0
40
0
40
0.0312499999999998
40
0.0312499999999998
40
0.0624999999999996
40
0.0624999999999996
40
0.0937499999999994
40
0.0937499999999994
40
0.124999999999999
40
0.124999999999999
40
0.156249999999999
40
0.156249999999999
40
0.187499999999999
40
0.187499999999999
40
0.218749999999999
40
0.218749999999999
40
0.249999999999998
40
0.249999999999998
40
0.281249999999998
40
0.281249999999998
40
0.289062499999998
40
0.289062499999998
40
0.296874999999998
40
0.296874999999998
40
0.312499999999998
40
0.312499999999998
40
0.343749999999997
40
0.343749999999997
40
0.374999999999997
40
0.374999999999997
40
0.406249999999996
40
0.406249999999996
40
0.437499999999996
40
0.437499999999996
40
0.468749999999996
40
0.468749999999996
40
0.499999999999995
40
0.499999999999995
40
0.531249999999995
40
0.531249999999995
40
0.562499999999994
40
0.562499999999994
40
0.578124999999994
40
0.578124999999994
40
0.585937499999994
40
0.585937499999994
40
0.593749999999993
40
0.593749999999993
40
0.624999999999993
40
0.624999999999993
40
0.656249999999992
40
0.656249999999992
40
0.687499999999991
40
0.687499999999991
40
0.71874999999999
40
0.71874999999999
40
0.74999999999999
40
0.74999999999999
40
0.781249999999989
40
0.781249999999989
40
0.812499999999988
40
0.812499999999988
40
0.843749999999988
40
0.843749999999988
40
0.874999999999987
40
0.874999999999987
40
0.878906249999988
40
0.878906249999988
40
0.882812499999988
40
0.890624999999989
40
0.890624999999989
40
0.90624999999999
40
0.90624999999999
40
0.937499999999994
40
0.937499999999994
40
0.968749999999997
40
0.968749999999997
40
1
40
1
40
1
40
1
41
1
10
73.9041971955911
20
6
30
0
41
1
10
73.9657803351622
20
6
30
0
41
1
10
74.0273634747331
20
5.97707463703355
30
0
41
1
10
74.1505297538749
20
5.87780823286818
30
0
41
1
10
74.2121128934459
20
5.80141070772339
30
0
41
1
10
74.3352791725878
20
5.59073957090379
30
0
41
1
10
74.3968623121588
20
5.45642453020383
30
0
41
1
10
74.5200285913007
20
5.13021307815623
30
0
41
1
10
74.5816117308717
20
4.93830900270166
30
0
41
1
10
74.7047780100136
20
4.50277368682842
30
0
41
1
10
74.7663611495844
20
4.25917751025949
30
0
41
1
10
74.8895274287264
20
3.73128059733904
30
0
41
1
10
74.9511105682973
20
3.44704956175741
30
0
41
1
10
75.0742768474393
20
2.85245378881893
30
0
41
1
10
75.1358599870102
20
2.54217095321229
30
0
41
1
10
75.2590262661521
20
1.91122092635183
30
0
41
1
10
75.3206094057231
20
1.59062277881375
30
0
41
1
10
75.4437756848649
20
0.953613069660406
30
0
41
1
10
75.5053588244359
20
0.637241983258122
30
0
41
1
10
75.5823377488997
20
0.251708105721548
30
0
41
1
10
75.5977335337924
20
0.175089532546878
30
0
41
1
10
75.6285251035778
20
0.0229761437668401
30
0
41
1
10
75.6439208884706
20
-0.0523146813966093
30
0
41
1
10
75.6901082431488
20
-0.280915980351608
30
0
41
1
10
75.7208998129342
20
-0.435534963103521
30
0
41
1
10
75.8132745222907
20
-0.904171390705045
30
0
41
1
10
75.8748576618617
20
-1.22306408009567
30
0
41
1
10
75.9980239410036
20
-1.86125600232765
30
0
41
1
10
76.0596070805746
20
-2.18050591313767
30
0
41
1
10
76.1827733597165
20
-2.80435078208941
30
0
41
1
10
76.2443564992874
20
-3.1088709087841
30
0
41
1
10
76.3675227784293
20
-3.68759829221935
30
0
41
1
10
76.4291059180003
20
-3.96172440524745
30
0
41
1
10
76.5522721971422
20
-4.46583484344811
30
0
41
1
10
76.6138553367132
20
-4.69575742688491
30
0
41
1
10
76.7370216158551
20
-5.10170389133958
30
0
41
1
10
76.7986047554261
20
-5.27770473772506
30
0
41
1
10
76.9217710345679
20
-5.57145656932073
30
0
41
1
10
76.9833541741389
20
-5.68922627646367
30
0
41
1
10
77.1065204532807
20
-5.86762966184122
30
0
41
1
10
77.1681035928517
20
-5.92831106344272
30
0
41
1
10
77.2604783022082
20
-5.98062226431603
30
0
41
1
10
77.2912698719937
20
-5.99163696027372
30
0
41
1
10
77.3374572266719
20
-5.99924474910571
30
0
41
1
10
77.3528530115646
20
-6.0002980800397
30
0
41
1
10
77.38364458135
20
-5.99955894099998
30
0
41
1
10
77.3990403662428
20
-5.99775333492849
30
0
41
1
10
77.4760192907065
20
-5.98122036706269
30
0
41
1
10
77.5376024302774
20
-5.94387140916658
30
0
41
1
10
77.6607687094194
20
-5.81409892542538
30
0
41
1
10
77.7223518489903
20
-5.72162113919515
30
0
41
1
10
77.8455181281322
20
-5.47833746265627
30
0
41
1
10
77.9071012677032
20
-5.3274979989458
30
0
41
1
10
78.0302675468452
20
-4.96931938707115
30
0
41
1
10
78.0918506864161
20
-4.76198439817483
30
0
41
1
10
78.2150169655579
20
-4.29822463698125
30
0
41
1
10
78.2766001051289
20
-4.04184629574866
30
0
41
1
10
78.3997663842708
20
-3.49223331277284
30
0
41
1
10
78.4613495238418
20
-3.19907446312658
30
0
41
1
10
78.5845158029837
20
-2.5910582305404
30
0
41
1
10
78.6460989425547
20
-2.2762814302487
30
0
41
1
10
78.7692652216965
20
-1.64066543061949
30
0
41
1
10
78.8308483612675
20
-1.31988820917257
30
0
41
1
10
78.9540146404095
20
-0.68616432561879
30
0
41
1
10
79.0155977799803
20
-0.373249157348596
30
0
41
1
10
79.0848788119978
20
-0.0316513712582491
30
0
41
1
10
79.0925767044441
20
0.0060654009189136
30
0
41
1
10
79.1079724893368
20
0.0818465681359726
30
0
41
1
10
79.1310661666759
20
0.195951731941392
30
0
41
1
10
79.154159844015
20
0.311279744502514
30
0
41
1
10
79.2003471986932
20
0.543339851443932
30
0
41
1
10
79.2311387684787
20
0.699925468315087
30
0
41
1
10
79.3235134778351
20
1.17325646953594
30
0
41
1
10
79.385096617406
20
1.49366089044878
30
0
41
1
10
79.508262896548
20
2.13081061071316
30
0
41
1
10
79.569846036119
20
2.44749818762574
30
0
41
1
10
79.6930123152608
20
3.06175865986228
30
0
41
1
10
79.7545954548318
20
3.35925250974609
30
0
41
1
10
79.8161785944027
20
3.63949184875537
30
0
0
SPLINE
5
F2
100
AcDbEntity
8
1
62
256
6
ByLayer
370
13
48
1
60
0
100
AcDbSpline
70
4
71
3
72
82
73
78
40
0
40
0
40
0
40
0
40
0.0312499999999995
40
0.0312499999999995
40
0.062499999999999
40
0.062499999999999
40
0.0937499999999984
40
0.0937499999999984
40
0.124999999999998
40
0.124999999999998
40
0.156249999999997
40
0.156249999999997
40
0.187499999999997
40
0.187499999999997
40
0.218749999999996
40
0.218749999999996
40
0.249999999999996
40
0.249999999999996
40
0.265624999999995
40
0.265624999999995
40
0.273437499999995
40
0.273437499999995
40
0.281249999999995
40
0.281249999999995
40
0.312499999999994
40
0.312499999999994
40
0.343749999999993
40
0.343749999999993
40
0.374999999999992
40
0.374999999999992
40
0.406249999999991
40
0.406249999999991
40
0.437499999999989
40
0.437499999999989
40
0.468749999999988
40
0.468749999999988
40
0.499999999999987
40
0.499999999999987
40
0.531249999999986
40
0.531249999999986
40
0.539062499999986
40
0.539062499999986
40
0.546874999999985
40
0.546874999999985
40
0.562499999999985
40
0.562499999999985
40
0.593749999999985
40
0.593749999999985
40
0.624999999999984
40
0.624999999999984
40
0.656249999999984
40
0.656249999999984
40
0.687499999999984
40
0.687499999999984
40
0.718749999999984
40
0.718749999999984
40
0.749999999999983
40
0.749999999999983
40
0.781249999999983
40
0.781249999999983
40
0.796874999999983
40
0.796874999999983
40
0.804687499999983
40
0.804687499999983
40
0.812499999999984
40
0.812499999999984
40
0.843749999999986
40
0.843749999999986
40
0.874999999999989
40
0.874999999999989
40
0.906249999999992
40
0.906249999999992
40
0.937499999999994
40
0.937499999999994
40
0.968749999999997
40
0.968749999999997
40
1
40
1
40
1
40
1
41
1
10
73.4020987707
20
6
30
0
41
1
10
73.4689121021969
20
6
30
0
41
1
10
73.5357254336939
20
5.97299282388383
30
0
41
1
10
73.6693520966876
20
5.85544322661991
30
0
41
1
10
73.7361654281845
20
5.76481690603151
30
0
41
1
10
73.8697920911783
20
5.51499208987698
30
0
41
1
10
73.9366054226753
20
5.35573839279249
30
0
41
1
10
74.0702320856691
20
4.97048604945604
30
0
41
1
10
74.137045417166
20
4.74449195896975
30
0
41
1
10
74.2706720801598
20
4.23531747819715
30
0
41
1
10
74.3374854116568
20
3.95220999801799
30
0
41
1
10
74.4711120746505
20
3.34493869733592
30
0
41
1
10
74.5379254061473
20
3.02089193224325
30
0
41
1
10
74.6715520691412
20
2.35147089655624
30
0
41
1
10
74.7383654006381
20
2.0062137510148
30
0
41
1
10
74.871992063632
20
1.31401062922555
30
0
41
1
10
74.9388053951288
20
0.967144322292057
30
0
41
1
10
75.0390253923741
20
0.457930476527736
30
0
41
1
10
75.0724320581226
20
0.290007962652283
30
0
41
1
10
75.1225420567453
20
0.0420517915028995
30
0
41
1
10
75.1392453896195
20
-0.0395938657411534
30
0
41
1
10
75.172652055368
20
-0.204871996967597
30
0
41
1
10
75.1893553882422
20
-0.288164127825496
30
0
41
1
10
75.2728720526133
20
-0.70741313373793
30
0
41
1
10
75.3396853841103
20
-1.05191565769564
30
0
41
1
10
75.473312047104
20
-1.74391611657566
30
0
41
1
10
75.5401253786009
20
-2.09134700332166
30
0
41
1
10
75.6737520415947
20
-2.77021006993348
30
0
41
1
10
75.7405653730916
20
-3.10153183794378
30
0
41
1
10
75.8741920360854
20
-3.72814755486613
30
0
41
1
10
75.9410053675823
20
-4.02332006646782
30
0
41
1
10
76.0746320305761
20
-4.56019836369245
30
0
41
1
10
76.1414453620731
20
-4.80181662403612
30
0
41
1
10
76.2750720250669
20
-5.2200453752701
30
0
41
1
10
76.3418853565639
20
-5.39663358088436
30
0
41
1
10
76.4755120195576
20
-5.68090134595877
30
0
41
1
10
76.5423253510545
20
-5.7886234196925
30
0
41
1
10
76.6759520140483
20
-5.93856121247549
30
0
41
1
10
76.7427653455452
20
-5.98085692878882
30
0
41
1
10
76.8262820099164
20
-5.99825144811439
30
0
41
1
10
76.8429853427905
20
-5.99996600871629
30
0
41
1
10
76.876392008539
20
-6.00003299007213
30
0
41
1
10
76.8930953414132
20
-5.9983870842882
30
0
41
1
10
76.9432053400359
20
-5.98816122771427
30
0
41
1
10
76.9766120057844
20
-5.97428625100932
30
0
41
1
10
77.0768320030298
20
-5.90969223839306
30
0
41
1
10
77.1436453345266
20
-5.83583061504791
30
0
41
1
10
77.2772719975205
20
-5.62023118608278
30
0
41
1
10
77.3440853290174
20
-5.4784275915722
30
0
41
1
10
77.4777119920112
20
-5.12688647087941
30
0
41
1
10
77.544525323508
20
-4.91713638100177
30
0
41
1
10
77.6781519865019
20
-4.43733398338486
30
0
41
1
10
77.7449653179988
20
-4.1673383551306
30
0
41
1
10
77.8785919809926
20
-3.58173827231917
30
0
41
1
10
77.9454053124895
20
-3.26624353203184
30
0
41
1
10
78.0790319754833
20
-2.60880938943882
30
0
41
1
10
78.1458453069802
20
-2.26699133785309
30
0
41
1
10
78.279471969974
20
-1.57690657703171
30
0
41
1
10
78.3462853014709
20
-1.22873132326899
30
0
41
1
10
78.4465052987163
20
-0.714748311975939
30
0
41
1
10
78.4799119644647
20
-0.544772353282752
30
0
41
1
10
78.5300219630874
20
-0.293156474874081
30
0
41
1
10
78.5467252959617
20
-0.209840184394579
30
0
41
1
10
78.5801319617101
20
-0.0445101233994194
30
0
41
1
10
78.5968352945843
20
0.03713634663211
30
0
41
1
10
78.6803519589554
20
0.450266627669379
30
0
41
1
10
78.7471652904524
20
0.791424226931326
30
0
41
1
10
78.8807919534461
20
1.48101278507116
30
0
41
1
10
78.9476052849431
20
1.82938971243604
30
0
41
1
10
79.0812319479368
20
2.51516840051269
30
0
41
1
10
79.1480452794337
20
2.85246859181819
30
0
41
1
10
79.2816719424275
20
3.49600224434624
30
0
41
1
10
79.3484852739244
20
3.80211289854844
30
0
41
1
10
79.4821119369183
20
4.36482556561009
30
0
41
1
10
79.5489252684151
20
4.62132753763709
30
0
41
1
10
79.6825519314089
20
5.07154991580958
30
0
41
1
10
79.7493652629059
20
5.2652302480659
30
0
41
1
10
79.8161785944027
20
5.42458024114532
30
0
0
SPLINE
5
F3
100
AcDbEntity
8
1
62
256
6
ByLayer
370
13
48
1
60
0
100
AcDbSpline
70
4
71
3
72
70
73
66
40
0
40
0
40
0
40
0
40
0.0312500000000001
40
0.0312500000000001
40
0.0625000000000001
40
0.0625000000000001
40
0.0937500000000002
40
0.0937500000000002
40
0.125
40
0.125
40
0.15625
40
0.15625
40
0.1875
40
0.1875
40
0.21875
40
0.21875
40
0.25
40
0.25
40
0.28125
40
0.28125
40
0.3125
40
0.3125
40
0.34375
40
0.34375
40
0.375
40
0.375
40
0.40625
40
0.40625
40
0.4375
40
0.4375
40
0.46875
40
0.46875
40
0.5
40
0.5
40
0.53125
40
0.53125
40
0.5625
40
0.5625
40
0.59375
40
0.59375
40
0.625
40
0.625
40
0.65625
40
0.65625
40
0.6875
40
0.6875
40
0.71875
40
0.71875
40
0.75
40
0.75
40
0.78125
40
0.78125
40
0.8125
40
0.8125
40
0.84375
40
0.84375
40
0.875
40
0.875
40
0.90625
40
0.90625
40
0.9375
40
0.9375
40
0.96875
40
0.96875
40
1
40
1
40
1
40
1
41
1
10
72.9000003458089
20
6
30
0
41
1
10
72.9720438692318
20
6
30
0
41
1
10
73.0440873926547
20
5.96856991954093
30
0
41
1
10
73.1881744395003
20
5.83109452207927
30
0
41
1
10
73.2602179629232
20
5.72492871536153
30
0
41
1
10
73.4043050097689
20
5.43253098510695
30
0
41
1
10
73.4763485331918
20
5.24623007172377
30
0
41
1
10
73.6204355800375
20
4.79771626473126
30
0
41
1
10
73.6924791034603
20
4.53553405489197
30
0
41
1
10
73.836566150306
20
3.94974767081845
30
0
41
1
10
73.9086096737289
20
3.62627537140463
30
0
41
1
10
74.0526967205746
20
2.94024218374199
30
0
41
1
10
74.1247402439974
20
2.57785941826663
30
0
41
1
10
74.2688272908431
20
1.83927776119935
30
0
41
1
10
74.3408708142661
20
1.46322857570564
30
0
41
1
10
74.4849578611117
20
0.720328833284839
30
0
41
1
10
74.5570013845346
20
0.353553807535007
30
0
41
1
10
74.7010884313803
20
-0.35355295900689
30
0
41
1
10
74.7731319548031
20
-0.720327948855129
30
0
41
1
10
74.9172190016488
20
-1.46322767717595
30
0
41
1
10
74.9892625250717
20
-1.83927686382546
30
0
41
1
10
75.1333495719174
20
-2.5778585430445
30
0
41
1
10
75.2053930953402
20
-2.94024132956304
30
0
41
1
10
75.3494801421859
20
-3.62627457910384
30
0
41
1
10
75.4215236656088
20
-3.94974691934658
30
0
41
1
10
75.5656107124545
20
-4.53553340047637
30
0
41
1
10
75.6376542358773
20
-4.7977156664779
30
0
41
1
10
75.7817412827231
20
-5.24622959354383
30
0
41
1
10
75.8537848061459
20
-5.43253057074961
30
0
41
1
10
75.9978718529916
20
-5.72492842796416
30
0
41
1
10
76.0699153764144
20
-5.83109429775504
30
0
41
1
10
76.2140024232601
20
-5.96856981392406
30
0
41
1
10
76.286045946683
20
-5.99999994999993
30
0
41
1
10
76.4301329935287
20
-6.00000004999995
30
0
41
1
10
76.5021765169516
20
-5.96857002515767
30
0
41
1
10
76.6462635637973
20
-5.83109474640335
30
0
41
1
10
76.7183070872202
20
-5.72492900275873
30
0
41
1
10
76.8623941340659
20
-5.43253139946415
30
0
41
1
10
76.9344376574887
20
-5.2462305499036
30
0
41
1
10
77.0785247043344
20
-4.79771686298446
30
0
41
1
10
77.1505682277572
20
-4.53553470930743
30
0
41
1
10
77.2946552746029
20
-3.94974842229021
30
0
41
1
10
77.3666987980258
20
-3.62627616370531
30
0
41
1
10
77.5107858448715
20
-2.94024303792091
30
0
41
1
10
77.5828293682944
20
-2.57786029348873
30
0
41
1
10
77.7269164151401
20
-1.83927865857322
30
0
41
1
10
77.7989599385629
20
-1.46322947423533
30
0
41
1
10
77.9430469854086
20
-0.720329717714577
30
0
41
1
10
78.0150905088315
20
-0.353554676773825
30
0
41
1
10
78.1591775556772
20
0.353552131189389
30
0
41
1
10
78.2312210791
20
0.720327064425447
30
0
41
1
10
78.3753081259458
20
1.46322677864629
30
0
41
1
10
78.4473516493686
20
1.83927596645154
30
0
41
1
10
78.5914386962144
20
2.57785766782232
30
0
41
1
10
78.6634822196372
20
2.940240475384
30
0
41
1
10
78.8075692664829
20
3.62627378680298
30
0
41
1
10
78.8796127899058
20
3.94974616787462
30
0
41
1
10
79.0236998367515
20
4.53553274606062
30
0
41
1
10
79.0957433601743
20
4.79771506822442
30
0
41
1
10
79.23983040702
20
5.24622911536372
30
0
41
1
10
79.3118739304428
20
5.43253015639209
30
0
41
1
10
79.4559609772885
20
5.72492814056665
30
0
41
1
10
79.5280045007113
20
5.83109407343065
30
0
41
1
10
79.672091547557
20
5.96856970830706
30
0
41
1
10
79.7441350709798
20
5.99999989999975
30
0
41
1
10
79.8161785944028
20
5.99999999999977
30
0
0
SPLINE
5
F4
100
AcDbEntity
8
1
62
256
6
ByLayer
370
13
48
1
60
0
100
AcDbSpline
70
4
71
3
72
8
73
4
40
0
40
0
40
0
40
0
40
1
40
1
40
1
40
1
41
1
10
79.8161785944027
20
-3.87710027062715
30
0
41
1
10
80.5441190629352
20
-2.58140020658479
30
0
41
1
10
81.2720595314677
20
-1.28903037066212
30
0
41
1
10
82.0000000000001
20
1.99E-13
30
0
0
SPLINE
5
F5
100
AcDbEntity
8
1
62
256
6
ByLayer
370
13
48
1
60
0
100
AcDbSpline
70
4
71
3
72
8
73
4
40
0
40
0
40
0
40
0
40
1
40
1
40
1
40
1
41
1
10
79.8161785944029
20
4.95331382516781
30
0
41
1
10
80.5441190629353
20
3.29974444408907
30
0
41
1
10
81.2720595314676
20
1.64863590053895
30
0
41
1
10
81.9999999999999
20
2.842E-13
30
0
0
SPLINE
5
F6
100
AcDbEntity
8
1
62
256
6
ByLayer
370
13
48
1
60
0
100
AcDbSpline
70
4
71
3
72
8
73
4
40
0
40
0
40
0
40
0
40
1
40
1
40
1
40
1
41
1
10
79.8161785944029
20
3.23769226484296
30
0
41
1
10
80.5441190629353
20
2.15478434048293
30
0
41
1
10
81.2720595314676
20
1.07555101499244
30
0
41
1
10
81.9999999999999
20
1.705E-13
30
0
0
SPLINE
5
F7
100
AcDbEntity
8
1
62
256
6
ByLayer
370
13
48
1
60
0
100
AcDbSpline
70
4
71
3
72
8
73
4
40
0
40
0
40
0
40
0
40
1
40
1
40
1
40
1
41
1
10
79.8161785944029
20
2.1662250262641
30
0
41
1
10
80.5441190629353
20
1.44007696654361
30
0
41
1
10
81.2720595314676
20
0.718000239211818
30
0
41
1
10
81.9999999999999
20
1.137E-13
30
0
0
SPLINE
5
F8
100
AcDbEntity
8
1
62
256
6
ByLayer
370
13
48
1
60
0
100
AcDbSpline
70
4
71
3
72
8
73
4
40
0
40
0
40
0
40
0
40
1
40
1
40
1
40
1
41
1
10
79.8161785944027
20
-5.94558830418828
30
0
41
1
10
80.5441190629352
20
-3.96431241133692
30
0
41
1
10
81.2720595314677
20
-1.98244491698244
30
0
41
1
10
82.0000000000001
20
2.842E-13
30
0
0
SPLINE
5
F9
100
AcDbEntity
8
1
62
256
6
ByLayer
370
13
48
1
60
0
100
AcDbSpline
70
4
71
3
72
8
73
4
40
0
40
0
40
0
40
0
40
1
40
1
40
1
40
1
41
1
10
79.8161785944027
20
-5.98700650287449
30
0
41
1
10
80.5441190629352
20
-3.99105038271574
30
0
41
1
10
81.2720595314677
20
-1.99537678990629
30
0
41
1
10
82.0000000000001
20
2.842E-13
30
0
0
SPLINE
5
FA
100
AcDbEntity
8
1
62
256
6
ByLayer
370
13
48
1
60
0
100
AcDbSpline
70
4
71
3
72
8
73
4
40
0
40
0
40
0
40
0
40
1
40
1
40
1
40
1
41
1
10
79.8161785944028
20
1.77556949976164
30
0
41
1
10
80.5441190629352
20
1.18788501667785
30
0
41
1
10
81.2720595314676
20
0.596027102137469
30
0
41
1
10
82
20
0
30
0
0
SPLINE
5
FB
100
AcDbEntity
8
1
62
256
6
ByLayer
370
13
48
1
60
0
100
AcDbSpline
70
4
71
3
72
8
73
4
40
0
40
0
40
0
40
0
40
1
40
1
40
1
40
1
41
1
10
79.8161785944029
20
-0.190886594885456
30
0
41
1
10
80.5441190629353
20
-0.131623161802679
30
0
41
1
10
81.2720595314676
20
-0.0679941416456415
30
0
41
1
10
81.9999999999999
20
0
30
0
0
SPLINE
5
FC
100
AcDbEntity
8
1
62
256
6
ByLayer
370
13
48
1
60
0
100
AcDbSpline
70
4
71
3
72
8
73
4
40
0
40
0
40
0
40
0
40
1
40
1
40
1
40
1
41
1
10
79.8161785944027
20
-5.35747418425214
30
0
41
1
10
80.5441190629352
20
-3.56968301012728
30
0
41
1
10
81.2720595314677
20
-1.783854025241
30
0
41
1
10
82.0000000000001
20
2.558E-13
30
0
0
SPLINE
5
FD
100
AcDbEntity
8
1
62
256
6
ByLayer
370
13
48
1
60
0
100
AcDbSpline
70
4
71
3
72
8
73
4
40
0
40
0
40
0
40
0
40
1
40
1
40
1
40
1
41
1
10
79.8161785944028
20
4.70825629972165
30
0
41
1
10
80.5441190629352
20
3.14154487700529
30
0
41
1
10
81.2720595314676
20
1.57212236594236
30
0
41
1
10
82
20
2.84E-14
30
0
0
SPLINE
5
FE
100
AcDbEntity
8
1
62
256
6
ByLayer
370
13
48
1
60
0
100
AcDbSpline
70
4
71
3
72
8
73
4
40
0
40
0
40
0
40
0
40
1
40
1
40
1
40
1
41
1
10
79.8161785944027
20
-3.55239474729652
30
0
41
1
10
80.5441190629352
20
-2.37178300292186
30
0
41
1
10
81.2720595314677
20
-1.18764859408631
30
0
41
1
10
82.0000000000001
20
1.705E-13
30
0
0
SPLINE
5
FF
100
AcDbEntity
8
1
62
256
6
ByLayer
370
13
48
1
60
0
100
AcDbSpline
70
4
71
3
72
8
73
4
40
0
40
0
40
0
40
0
40
1
40
1
40
1
40
1
41
1
10
79.8161785944027
20
-2.88693566887869
30
0
41
1
10
80.5441190629353
20
-1.92079495061296
30
0
41
1
10
81.2720595314678
20
-0.958480769361586
30
0
41
1
10
82.0000000000003
20
4.263E-13
30
0
0
SPLINE
5
100
100
AcDbEntity
8
1
62
256
6
ByLayer
370
13
48
1
60
0
100
AcDbSpline
70
4
71
3
72
8
73
4
40
0
40
0
40
0
40
0
40
1
40
1
40
1
40
1
41
1
10
79.8161785944028
20
5.9866305983505
30
0
41
1
10
80.5441190629352
20
3.99137847285559
30
0
41
1
10
81.2720595314676
20
1.99583018139305
30
0
41
1
10
82
20
0
30
0
0
SPLINE
5
101
100
AcDbEntity
8
1
62
256
6
ByLayer
370
13
48
1
60
0
100
AcDbSpline
70
4
71
3
72
8
73
4
40
0
40
0
40
0
40
0
40
1
40
1
40
1
40
1
41
1
10
79.8161785944027
20
-5.66571871728246
30
0
41
1
10
80.5441190629352
20
-3.77858331082902
30
0
41
1
10
81.2720595314677
20
-1.89000590055352
30
0
41
1
10
82.0000000000001
20
2.842E-13
30
0
0
SPLINE
5
102
100
AcDbEntity
8
1
62
256
6
ByLayer
370
13
48
1
60
0
100
AcDbSpline
70
4
71
3
72
8
73
4
40
0
40
0
40
0
40
0
40
1
40
1
40
1
40
1
41
1
10
79.8161785944027
20
-4.71177143850531
30
0
41
1
10
80.5441190629352
20
-3.13847685759464
30
0
41
1
10
81.2720595314677
20
-1.567882635111
30
0
41
1
10
82.0000000000001
20
2.274E-13
30
0
0
SPLINE
5
103
100
AcDbEntity
8
1
62
256
6
ByLayer
370
13
48
1
60
0
100
AcDbSpline
70
4
71
3
72
8
73
4
40
0
40
0
40
0
40
0
40
1
40
1
40
1
40
1
41
1
10
79.8161785944029
20
4.17930991147554
30
0
41
1
10
80.5441190629353
20
2.78307279487817
30
0
41
1
10
81.2720595314676
20
1.38996617163755
30
0
41
1
10
81.9999999999999
20
2.274E-13
30
0
0
SPLINE
5
104
100
AcDbEntity
8
1
62
256
6
ByLayer
370
13
48
1
60
0
100
AcDbSpline
70
4
71
3
72
8
73
4
40
0
40
0
40
0
40
0
40
1
40
1
40
1
40
1
41
1
10
79.8161785944028
20
5.78681569858895
30
0
41
1
10
80.5441190629352
20
3.85903104181767
30
0
41
1
10
81.2720595314676
20
1.93008787507875
30
0
41
1
10
82
20
2.84E-14
30
0
0
SPLINE
5
105
100
AcDbEntity
8
1
62
256
6
ByLayer
370
13
48
1
60
0
100
AcDbSpline
70
4
71
3
72
8
73
4
40
0
40
0
40
0
40
0
40
1
40
1
40
1
40
1
41
1
10
79.8161785944029
20
1.00788003256977
30
0
41
1
10
80.5441190629354
20
0.667614441348064
30
0
41
1
10
81.2720595314679
20
0.331653632804603
30
0
41
1
10
82.0000000000003
20
-1.421E-13
30
0
0
SPLINE
5
106
100
AcDbEntity
8
1
62
256
6
ByLayer
370
13
48
1
60
0
100
AcDbSpline
70
4
71
3
72
8
73
4
40
0
40
0
40
0
40
0
40
1
40
1
40
1
40
1
41
1
10
79.8161785944028
20
5.35491708127043
30
0
41
1
10
80.5441190629352
20
3.57191485417823
30
0
41
1
10
81.2720595314676
20
1.78693823585613
30
0
41
1
10
82
20
2.84E-14
30
0
0
SPLINE
5
107
100
AcDbEntity
8
1
62
256
6
ByLayer
370
13
48
1
60
0
100
AcDbSpline
70
4
71
3
72
8
73
4
40
0
40
0
40
0
40
0
40
1
40
1
40
1
40
1
41
1
10
79.8161785944027
20
-5.78831221161852
30
0
41
1
10
80.5441190629352
20
-3.85772488257194
30
0
41
1
10
81.2720595314677
20
-1.92828287879812
30
0
41
1
10
82.0000000000001
20
2.842E-13
30
0
0
SPLINE
5
108
100
AcDbEntity
8
1
62
256
6
ByLayer
370
13
48
1
60
0
100
AcDbSpline
70
4
71
3
72
8
73
4
40
0
40
0
40
0
40
0
40
1
40
1
40
1
40
1
41
1
10
79.8161785944027
20
-5.15862207995244
30
0
41
1
10
80.5441190629352
20
-3.44131185826563
30
0
41
1
10
81.2720595314677
20
-1.72176706286675
30
0
41
1
10
82.0000000000001
20
2.558E-13
30
0
0
SPLINE
5
109
100
AcDbEntity
8
1
62
256
6
ByLayer
370
13
48
1
60
0
100
AcDbSpline
70
4
71
3
72
8
73
4
40
0
40
0
40
0
40
0
40
1
40
1
40
1
40
1
41
1
10
79.8161785944028
20
0.597968561429838
30
0
41
1
10
80.5441190629352
20
0.402991605714277
30
0
41
1
10
81.2720595314676
20
0.203668273157319
30
0
41
1
10
81.9999999999999
20
2.84E-14
30
0
0
SPLINE
5
10A
100
AcDbEntity
8
1
62
256
6
ByLayer
370
13
48
1
60
0
100
AcDbSpline
70
4
71
3
72
8
73
4
40
0
40
0
40
0
40
0
40
1
40
1
40
1
40
1
41
1
10
79.8161785944029
20
5.52866211430796
30
0
41
1
10
80.5441190629351
20
3.68407786145397
30
0
41
1
10
81.2720595314672
20
1.84118609693405
30
0
41
1
10
81.9999999999994
20
1.4495E-12
30
0
0
SPLINE
5
10B
100
AcDbEntity
8
1
62
256
6
ByLayer
370
13
48
1
60
0
100
AcDbSpline
70
4
71
3
72
8
73
4
40
0
40
0
40
0
40
0
40
1
40
1
40
1
40
1
41
1
10
79.8161785944028
20
3.8727680727927
30
0
41
1
10
80.5441190629352
20
2.58518135659494
30
0
41
1
10
81.2720595314676
20
1.29425558475955
30
0
41
1
10
81.9999999999999
20
1.137E-13
30
0
0
SPLINE
5
10C
100
AcDbEntity
8
1
62
256
6
ByLayer
370
13
48
1
60
0
100
AcDbSpline
70
4
71
3
72
8
73
4
40
0
40
0
40
0
40
0
40
1
40
1
40
1
40
1
41
1
10
79.8161785944029
20
5.88228009036453
30
0
41
1
10
80.5441190629351
20
3.9206591245441
30
0
41
1
10
81.2720595314672
20
1.95989441960253
30
0
41
1
10
81.9999999999994
20
1.5632E-12
30
0
0
SPLINE
5
10D
100
AcDbEntity
8
1
62
256
6
ByLayer
370
13
48
1
60
0
100
AcDbSpline
70
4
71
3
72
8
73
4
40
0
40
0
40
0
40
0
40
1
40
1
40
1
40
1
41
1
10
79.8161785944028
20
2.88196015738831
30
0
41
1
10
80.5441190629352
20
1.92513758593154
30
0
41
1
10
81.2720595314676
20
0.964481906376989
30
0
41
1
10
82
20
0
30
0
0
SPLINE
5
10E
100
AcDbEntity
8
1
62
256
6
ByLayer
370
13
48
1
60
0
100
AcDbSpline
70
4
71
3
72
8
73
4
40
0
40
0
40
0
40
0
40
1
40
1
40
1
40
1
41
1
10
79.8161785944027
20
-4.44463580726062
30
0
41
1
10
80.5441190629352
20
-2.96602452772399
30
0
41
1
10
81.2720595314677
20
-1.48447572350543
30
0
41
1
10
82.0000000000001
20
2.274E-13
30
0
0
SPLINE
5
10F
100
AcDbEntity
8
1
62
256
6
ByLayer
370
13
48
1
60
0
100
AcDbSpline
70
4
71
3
72
8
73
4
40
0
40
0
40
0
40
0
40
1
40
1
40
1
40
1
41
1
10
79.8161785944029
20
-2.51768276340357
30
0
41
1
10
80.5441190629353
20
-1.68241969694893
30
0
41
1
10
81.2720595314676
20
-0.843190104827357
30
0
41
1
10
81.9999999999999
20
-1.421E-13
30
0
0
SPLINE
5
110
100
AcDbEntity
8
1
62
256
6
ByLayer
370
13
48
1
60
0
100
AcDbSpline
70
4
71
3
72
8
73
4
40
0
40
0
40
0
40
0
40
1
40
1
40
1
40
1
41
1
10
79.8161785944028
20
-0.603614265033087
30
0
41
1
10
80.5441190629352
20
-0.398064025522046
30
0
41
1
10
81.2720595314676
20
-0.196858794184834
30
0
41
1
10
82
20
0
30
0
0
SPLINE
5
111
100
AcDbEntity
8
1
62
256
6
ByLayer
370
13
48
1
60
0
100
AcDbSpline
70
4
71
3
72
8
73
4
40
0
40
0
40
0
40
0
40
1
40
1
40
1
40
1
41
1
10
79.8161785944029
20
-1.38199760085899
30
0
41
1
10
80.5441190629351
20
-0.925581939032952
30
0
41
1
10
81.2720595314672
20
-0.464914970227
30
0
41
1
10
81.9999999999994
20
-3.695E-13
30
0
0
SPLINE
5
112
100
AcDbEntity
8
1
62
256
6
ByLayer
370
13
48
1
60
0
100
AcDbSpline
70
4
71
3
72
8
73
4
40
0
40
0
40
0
40
0
40
1
40
1
40
1
40
1
41
1
10
79.8161785944028
20
-1.78098877903261
30
0
41
1
10
80.5441190629352
20
-1.1831550600474
30
0
41
1
10
81.2720595314676
20
-0.589490721407088
30
0
41
1
10
82
20
0
30
0
0
LINE
5
7D
100
AcDbEntity
8
80
62
256
6
ByLayer
370
18
48
1
60
0
100
AcDbLine
10
0
20
0
30
0
11
-5
21
0
31
0
39
0
210
0
220
0
230
1
0
LINE
5
7E
100
AcDbEntity
8
4
62
256
6
ByLayer
370
18
48
0.05
60
0
100
AcDbLine
10
-5
20
0
30
0
11
87
21
0
31
0
39
0
210
0
220
0
230
1
0
LINE
5
80
100
AcDbEntity
8
SK4
62
256
6
ByLayer
370
18
48
0.05
60
0
100
AcDbLine
10
-53
20
0
30
0
11
87
21
0
31
0
39
0
210
0
220
0
230
1
0
LINE
5
82
100
AcDbEntity
8
81
62
256
6
ByLayer
370
18
48
1
60
0
100
AcDbLine
10
82
20
0
30
0
11
87
21
0
31
0
39
0
210
0
220
0
230
1
0
LINE
5
83
100
AcDbEntity
8
1
62
256
6
ByLayer
370
18
48
1
60
0
100
AcDbLine
10
0
20
8
30
0
11
0
21
-8
31
0
39
0
210
0
220
0
230
1
0
LINE
5
84
100
AcDbEntity
8
1
62
256
6
ByLayer
370
18
48
1
60
0
100
AcDbLine
10
79.816179
20
6
30
0
11
79.816179
21
5.809465
31
0
39
0
210
0
220
0
230
1
0
LINE
5
85
100
AcDbEntity
8
1
62
256
6
ByLayer
370
18
48
1
60
0
100
AcDbLine
10
79.816179
20
-6
30
0
11
79.816179
21
-0.855626
31
0
39
0
210
0
220
0
230
1
0
LINE
5
86
100
AcDbEntity
8
1
62
256
6
ByLayer
370
18
48
1
60
0
100
AcDbLine
10
10
20
-4.396905
30
0
11
10
21
4.792971
31
0
39
0
210
0
220
0
230
1
0
LINE
5
87
100
AcDbEntity
8
SK1
62
256
6
ByLayer
370
13
48
1
60
0
100
AcDbLine
10
-14.956081
20
-5.420003
30
0
11
-14.956081
21
5.420003
31
0
39
0
210
0
220
0
230
1
0
LINE
5
89
100
AcDbEntity
8
SK1
62
256
6
ByLayer
370
13
48
1
60
0
100
AcDbLine
10
-40.20852
20
4.268613
30
0
11
-40.20852
21
-4.268613
31
0
39
0
210
0
220
0
230
1
0
LINE
5
8A
100
AcDbEntity
8
SK1
62
256
6
ByLayer
370
13
48
1
60
0
100
AcDbLine
10
-13.809044
20
4.913811
30
0
11
-13.809044
21
-4.913811
31
0
39
0
210
0
220
0
230
1
0
LINE
5
8B
100
AcDbEntity
8
SK1
62
256
6
ByLayer
370
18
48
1
60
0
100
AcDbLine
10
0
20
8
30
0
11
0
21
-8
31
0
39
0
210
0
220
0
230
1
0
LINE
5
8C
100
AcDbEntity
8
SK1
62
256
6
ByLayer
370
13
48
1
60
0
100
AcDbLine
10
-41.322847
20
-3.330349
30
0
11
-41.322847
21
3.330349
31
0
39
0
210
0
220
0
230
1
0
LINE
5
8D
100
AcDbEntity
8
SK1
62
256
6
ByLayer
370
18
48
1
60
0
100
AcDbLine
10
-48
20
-7
30
0
11
-48
21
7
31
0
39
0
210
0
220
0
230
1
0
LINE
5
8E
100
AcDbEntity
8
SK1
62
256
6
ByLayer
370
18
48
1
60
0
100
AcDbLine
10
-47
20
-8
30
0
11
-47
21
8
31
0
39
0
210
0
220
0
230
1
0
LINE
5
8F
100
AcDbEntity
8
1
62
256
6
ByLayer
370
18
48
1
60
0
100
AcDbLine
10
24.021898
20
-5.85
30
0
11
51.406353
21
-5.85
31
0
39
0
210
0
220
0
230
1
0
LINE
5
90
100
AcDbEntity
8
1
62
256
6
ByLayer
370
18
48
1
60
0
100
AcDbLine
10
51.406353
20
5.85
30
0
11
24.021898
21
5.85
31
0
39
0
210
0
220
0
230
1
0
LINE
5
91
100
AcDbEntity
8
1
62
256
6
ByLayer
370
18
48
1
60
0
100
AcDbLine
10
82
20
0
30
0
11
79.816179
21
6
31
0
39
0
210
0
220
0
230
1
0
LINE
5
92
100
AcDbEntity
8
1
62
256
6
ByLayer
370
18
48
1
60
0
100
AcDbLine
10
79.816179
20
-6
30
0
11
82
21
0
31
0
39
0
210
0
220
0
230
1
0
LINE
5
93
100
AcDbEntity
8
1
62
256
6
ByLayer
370
18
48
1
60
0
100
AcDbLine
10
3.39801
20
7.269428
30
0
11
0
21
8
31
0
39
0
210
0
220
0
230
1
0
LINE
5
94
100
AcDbEntity
8
1
62
256
6
ByLayer
370
18
48
1
60
0
100
AcDbLine
10
0
20
-8
30
0
11
3.39801
21
-7.269428
31
0
39
0
210
0
220
0
230
1
0
LINE
5
95
100
AcDbEntity
8
1
62
256
6
ByLayer
370
18
48
1
60
0
100
AcDbLine
10
82
20
0
30
0
11
79.816179
21
6
31
0
39
0
210
0
220
0
230
1
0
LINE
5
96
100
AcDbEntity
8
1
62
256
6
ByLayer
370
18
48
1
60
0
100
AcDbLine
10
79.816179
20
-6
30
0
11
82
21
0
31
0
39
0
210
0
220
0
230
1
0
LINE
5
97
100
AcDbEntity
8
1
62
256
6
ByLayer
370
18
48
1
60
0
100
AcDbLine
10
72.9
20
-6
30
0
11
79.816179
21
-6
31
0
39
0
210
0
220
0
230
1
0
LINE
5
98
100
AcDbEntity
8
SK1
62
256
6
ByLayer
370
18
48
1
60
0
100
AcDbLine
10
-47
20
-8
30
0
11
0
21
-8
31
0
39
0
210
0
220
0
230
1
0
LINE
5
99
100
AcDbEntity
8
SK1
62
256
6
ByLayer
370
18
48
1
60
0
100
AcDbLine
10
0
20
8
30
0
11
-47
21
8
31
0
39
0
210
0
220
0
230
1
0
LINE
5
9A
100
AcDbEntity
8
SK1
62
256
6
ByLayer
370
18
48
1
60
0
100
AcDbLine
10
-48
20
-7
30
0
11
-47
21
-8
31
0
39
0
210
0
220
0
230
1
0
LINE
5
9B
100
AcDbEntity
8
SK1
62
256
6
ByLayer
370
18
48
1
60
0
100
AcDbLine
10
-47
20
8
30
0
11
-48
21
7
31
0
39
0
210
0
220
0
230
1
0
LINE
5
9C
100
AcDbEntity
8
1
62
256
6
ByLayer
370
18
48
1
60
0
100
AcDbLine
10
79.816179
20
6
30
0
11
79.816179
21
-6
31
0
39
0
210
0
220
0
230
1
0
LINE
5
9D
100
AcDbEntity
8
1
62
256
6
ByLayer
370
18
48
1
60
0
100
AcDbLine
10
79.816179
20
6
30
0
11
79.816179
21
-6
31
0
39
0
210
0
220
0
230
1
0
LINE
5
9E
100
AcDbEntity
8
1
62
256
6
ByLayer
370
18
48
1
60
0
100
AcDbLine
10
79.816179
20
6
30
0
11
79.816179
21
-6
31
0
39
0
210
0
220
0
230
1
0
LINE
5
9F
100
AcDbEntity
8
1
62
256
6
ByLayer
370
18
48
1
60
0
100
AcDbLine
10
72.9
20
6
30
0
11
72.9
21
-6
31
0
39
0
210
0
220
0
230
1
0
LINE
5
A0
100
AcDbEntity
8
1
62
256
6
ByLayer
370
18
48
1
60
0
100
AcDbLine
10
72.9
20
6
30
0
11
72.9
21
-6
31
0
39
0
210
0
220
0
230
1
0
LINE
5
A1
100
AcDbEntity
8
1
62
256
6
ByLayer
370
18
48
1
60
0
100
AcDbLine
10
79.816179
20
6
30
0
11
79.816179
21
-6
31
0
39
0
210
0
220
0
230
1
0
LINE
5
A2
100
AcDbEntity
8
1
62
256
6
ByLayer
370
18
48
1
60
0
100
AcDbLine
10
72.9
20
6
30
0
11
72.9
21
-6
31
0
39
0
210
0
220
0
230
1
0
LINE
5
A3
100
AcDbEntity
8
1
62
256
6
ByLayer
370
18
48
1
60
0
100
AcDbLine
10
79.816179
20
6
30
0
11
79.816179
21
-6
31
0
39
0
210
0
220
0
230
1
0
LINE
5
A4
100
AcDbEntity
8
SK2
62
256
6
ByLayer
370
13
48
1
60
0
100
AcDbLine
10
-54.5
20
-8
30
0
11
-54.5
21
36.274683
31
0
39
0
210
0
220
0
230
1
0
LINE
5
A6
100
AcDbEntity
8
SK2
62
256
6
ByLayer
370
13
48
1
60
0
100
AcDbLine
10
-49.5875
20
8
30
0
11
-56.5
21
8
31
0
39
0
210
0
220
0
230
1
0
LINE
5
A7
100
AcDbEntity
8
SK2
62
256
6
ByLayer
370
13
48
1
60
0
100
AcDbLine
10
-49.5875
20
-8
30
0
11
-56.5
21
-8
31
0
39
0
210
0
220
0
230
1
0
LINE
5
A8
100
AcDbEntity
8
1
62
256
6
ByLayer
370
18
48
1
60
1
100
AcDbLine
10
-54.5
20
8
30
0
11
-54.039216
21
4.500002
31
0
39
0
210
0
220
0
230
1
0
LINE
5
A9
100
AcDbEntity
8
1
62
256
6
ByLayer
370
18
48
1
60
1
100
AcDbLine
10
-54.039216
20
4.500002
30
0
11
-54.960784
21
4.499998
31
0
39
0
210
0
220
0
230
1
0
LINE
5
AA
100
AcDbEntity
8
1
62
256
6
ByLayer
370
18
48
1
60
1
100
AcDbLine
10
-54.960784
20
4.499998
30
0
11
-54.5
21
8
31
0
39
0
210
0
220
0
230
1
0
LINE
5
AB
100
AcDbEntity
8
1
62
256
6
ByLayer
370
18
48
1
60
1
100
AcDbLine
10
-54.5
20
-8
30
0
11
-54.960784
21
-4.500002
31
0
39
0
210
0
220
0
230
1
0
LINE
5
AC
100
AcDbEntity
8
1
62
256
6
ByLayer
370
18
48
1
60
1
100
AcDbLine
10
-54.960784
20
-4.500002
30
0
11
-54.039216
21
-4.499998
31
0
39
0
210
0
220
0
230
1
0
LINE
5
AD
100
AcDbEntity
8
1
62
256
6
ByLayer
370
18
48
1
60
1
100
AcDbLine
10
-54.039216
20
-4.499998
30
0
11
-54.5
21
-8
31
0
39
0
210
0
220
0
230
1
0
LINE
5
AE
100
AcDbEntity
8
2
62
256
6
ByLayer
370
13
48
1
60
0
100
AcDbLine
10
89.5
20
-6
30
0
11
89.5
21
34.274683
31
0
39
0
210
0
220
0
230
1
0
LINE
5
B0
100
AcDbEntity
8
2
62
256
6
ByLayer
370
13
48
1
60
0
100
AcDbLine
10
81.403679
20
6
30
0
11
91.5
21
6
31
0
39
0
210
0
220
0
230
1
0
LINE
5
B1
100
AcDbEntity
8
2
62
256
6
ByLayer
370
13
48
1
60
0
100
AcDbLine
10
81.403679
20
-6
30
0
11
91.5
21
-6
31
0
39
0
210
0
220
0
230
1
0
LINE
5
B2
100
AcDbEntity
8
1
62
256
6
ByLayer
370
18
48
1
60
1
100
AcDbLine
10
89.5
20
6
30
0
11
89.960784
21
2.500002
31
0
39
0
210
0
220
0
230
1
0
LINE
5
B3
100
AcDbEntity
8
1
62
256
6
ByLayer
370
18
48
1
60
1
100
AcDbLine
10
89.960784
20
2.500002
30
0
11
89.039216
21
2.499998
31
0
39
0
210
0
220
0
230
1
0
LINE
5
B4
100
AcDbEntity
8
1
62
256
6
ByLayer
370
18
48
1
60
1
100
AcDbLine
10
89.039216
20
2.499998
30
0
11
89.5
21
6
31
0
39
0
210
0
220
0
230
1
0
LINE
5
B5
100
AcDbEntity
8
1
62
256
6
ByLayer
370
18
48
1
60
1
100
AcDbLine
10
89.5
20
-6
30
0
11
89.039216
21
-2.500002
31
0
39
0
210
0
220
0
230
1
0
LINE
5
B6
100
AcDbEntity
8
1
62
256
6
ByLayer
370
18
48
1
60
1
100
AcDbLine
10
89.039216
20
-2.500002
30
0
11
89.960784
21
-2.499998
31
0
39
0
210
0
220
0
230
1
0
LINE
5
B7
100
AcDbEntity
8
1
62
256
6
ByLayer
370
18
48
1
60
1
100
AcDbLine
10
89.960784
20
-2.499998
30
0
11
89.5
21
-6
31
0
39
0
210
0
220
0
230
1
0
LINE
5
B8
100
AcDbEntity
8
SK2
62
256
6
ByLayer
370
13
48
1
60
0
100
AcDbLine
10
82.542957
20
-1.491762
30
0
11
89.182423
21
-19.733545
31
0
39
0
210
0
220
0
230
1
0
LINE
5
B9
100
AcDbEntity
8
SK2
62
256
6
ByLayer
370
13
48
1
60
0
100
AcDbLine
10
82.542957
20
1.491762
30
0
11
89.182423
21
19.733545
31
0
39
0
210
0
220
0
230
1
0
LINE
5
BA
100
AcDbEntity
8
1
62
256
6
ByLayer
370
18
48
1
60
1
100
AcDbLine
10
88.498383
20
-17.85416
30
0
11
91.551575
21
-16.082064
31
0
39
0
210
0
220
0
230
1
0
LINE
5
BB
100
AcDbEntity
8
1
62
256
6
ByLayer
370
18
48
1
60
1
100
AcDbLine
10
91.551575
20
-16.082064
30
0
11
91.906196
21
-16.93267
31
0
39
0
210
0
220
0
230
1
0
LINE
5
BC
100
AcDbEntity
8
1
62
256
6
ByLayer
370
18
48
1
60
1
100
AcDbLine
10
91.906196
20
-16.93267
30
0
11
88.498383
21
-17.85416
31
0
39
0
210
0
220
0
230
1
0
LINE
5
BD
100
AcDbEntity
8
1
62
256
6
ByLayer
370
18
48
1
60
1
100
AcDbLine
10
88.498383
20
17.85416
30
0
11
91.906193
21
16.932671
31
0
39
0
210
0
220
0
230
1
0
LINE
5
BE
100
AcDbEntity
8
1
62
256
6
ByLayer
370
18
48
1
60
1
100
AcDbLine
10
91.906193
20
16.932671
30
0
11
91.551579
21
16.082063
31
0
39
0
210
0
220
0
230
1
0
LINE
5
BF
100
AcDbEntity
8
1
62
256
6
ByLayer
370
18
48
1
60
1
100
AcDbLine
10
91.551579
20
16.082063
30
0
11
88.498383
21
17.85416
31
0
39
0
210
0
220
0
230
1
0
LINE
5
117
100
AcDbEntity
8
1
62
256
6
ByLayer
370
18
48
1
60
1
100
AcDbLine
10
-54.5
20
8
30
0
11
-54.039216
21
4.500002
31
0
39
0
210
0
220
0
230
1
0
LINE
5
118
100
AcDbEntity
8
1
62
256
6
ByLayer
370
18
48
1
60
1
100
AcDbLine
10
-54.039216
20
4.500002
30
0
11
-54.960784
21
4.499998
31
0
39
0
210
0
220
0
230
1
0
LINE
5
119
100
AcDbEntity
8
1
62
256
6
ByLayer
370
18
48
1
60
1
100
AcDbLine
10
-54.960784
20
4.499998
30
0
11
-54.5
21
8
31
0
39
0
210
0
220
0
230
1
0
LINE
5
11B
100
AcDbEntity
8
1
62
256
6
ByLayer
370
18
48
1
60
1
100
AcDbLine
10
-54.5
20
-8
30
0
11
-54.960784
21
-4.500002
31
0
39
0
210
0
220
0
230
1
0
LINE
5
11C
100
AcDbEntity
8
1
62
256
6
ByLayer
370
18
48
1
60
1
100
AcDbLine
10
-54.960784
20
-4.500002
30
0
11
-54.039216
21
-4.499998
31
0
39
0
210
0
220
0
230
1
0
LINE
5
11D
100
AcDbEntity
8
1
62
256
6
ByLayer
370
18
48
1
60
1
100
AcDbLine
10
-54.039216
20
-4.499998
30
0
11
-54.5
21
-8
31
0
39
0
210
0
220
0
230
1
0
LINE
5
121
100
AcDbEntity
8
1
62
256
6
ByLayer
370
18
48
1
60
1
100
AcDbLine
10
89.5
20
6
30
0
11
89.960784
21
2.500002
31
0
39
0
210
0
220
0
230
1
0
LINE
5
122
100
AcDbEntity
8
1
62
256
6
ByLayer
370
18
48
1
60
1
100
AcDbLine
10
89.960784
20
2.500002
30
0
11
89.039216
21
2.499998
31
0
39
0
210
0
220
0
230
1
0
LINE
5
123
100
AcDbEntity
8
1
62
256
6
ByLayer
370
18
48
1
60
1
100
AcDbLine
10
89.039216
20
2.499998
30
0
11
89.5
21
6
31
0
39
0
210
0
220
0
230
1
0
LINE
5
125
100
AcDbEntity
8
1
62
256
6
ByLayer
370
18
48
1
60
1
100
AcDbLine
10
89.5
20
-6
30
0
11
89.039216
21
-2.500002
31
0
39
0
210
0
220
0
230
1
0
LINE
5
126
100
AcDbEntity
8
1
62
256
6
ByLayer
370
18
48
1
60
1
100
AcDbLine
10
89.039216
20
-2.500002
30
0
11
89.960784
21
-2.499998
31
0
39
0
210
0
220
0
230
1
0
LINE
5
127
100
AcDbEntity
8
1
62
256
6
ByLayer
370
18
48
1
60
1
100
AcDbLine
10
89.960784
20
-2.499998
30
0
11
89.5
21
-6
31
0
39
0
210
0
220
0
230
1
0
LINE
5
12A
100
AcDbEntity
8
1
62
256
6
ByLayer
370
18
48
1
60
1
100
AcDbLine
10
88.498383
20
-17.85416
30
0
11
91.551575
21
-16.082064
31
0
39
0
210
0
220
0
230
1
0
LINE
5
12B
100
AcDbEntity
8
1
62
256
6
ByLayer
370
18
48
1
60
1
100
AcDbLine
10
91.551575
20
-16.082064
30
0
11
91.906196
21
-16.93267
31
0
39
0
210
0
220
0
230
1
0
LINE
5
12C
100
AcDbEntity
8
1
62
256
6
ByLayer
370
18
48
1
60
1
100
AcDbLine
10
91.906196
20
-16.93267
30
0
11
88.498383
21
-17.85416
31
0
39
0
210
0
220
0
230
1
0
LINE
5
12E
100
AcDbEntity
8
1
62
256
6
ByLayer
370
18
48
1
60
1
100
AcDbLine
10
88.498383
20
17.85416
30
0
11
91.906193
21
16.932671
31
0
39
0
210
0
220
0
230
1
0
LINE
5
12F
100
AcDbEntity
8
1
62
256
6
ByLayer
370
18
48
1
60
1
100
AcDbLine
10
91.906193
20
16.932671
30
0
11
91.551579
21
16.082063
31
0
39
0
210
0
220
0
230
1
0
LINE
5
130
100
AcDbEntity
8
1
62
256
6
ByLayer
370
18
48
1
60
1
100
AcDbLine
10
91.551579
20
16.082063
30
0
11
88.498383
21
17.85416
31
0
39
0
210
0
220
0
230
1
0
MTEXT
5
113
100
AcDbEntity
8
SK2
62
256
6
ByLayer
370
18
48
1
60
0
100
AcDbMText
10
-55.841114
20
19.658438
30
0
210
0
220
0
230
1
1
%%c
40
3
41
0
44
1.084337
50
90
71
7
72
5
7
iso_b_vert
0
MTEXT
5
116
100
AcDbEntity
8
SK2
62
256
6
ByLayer
370
18
48
1
60
0
100
AcDbMText
10
-55.841114
20
25.635
30
0
210
0
220
0
230
1
1
\W0.7022;16.000
40
3
41
0
44
1.084337
50
90
71
7
72
5
7
iso_b_vert
0
MTEXT
5
11F
100
AcDbEntity
8
2
62
256
6
ByLayer
370
18
48
1
60
0
100
AcDbMText
10
88.158886
20
17.658438
30
0
210
0
220
0
230
1
1
%%c
40
3
41
0
44
1.084337
50
90
71
7
72
5
7
iso_b_vert
0
MTEXT
5
120
100
AcDbEntity
8
2
62
256
6
ByLayer
370
18
48
1
60
0
100
AcDbMText
10
88.158886
20
23.635
30
0
210
0
220
0
230
1
1
\W0.7022;12.000
40
3
41
0
44
1.084337
50
90
71
7
72
5
7
iso_b_vert
0
MTEXT
5
129
100
AcDbEntity
8
SK2
62
256
6
ByLayer
370
18
48
1
60
0
100
AcDbMText
10
101.909114
20
3.734657
30
0
210
0
220
0
230
1
1
\W0.7071;140%%d
40
3
41
0
44
1.084337
50
270
71
7
72
5
7
iso_b_vert
0
MTEXT
5
132
100
AcDbEntity
8
SK6
62
256
6
ByLayer
370
18
48
1
60
0
100
AcDbMText
10
-6.537254
20
-67.114886
30
0
210
0
220
0
230
1
1
\W0.7358;H85512.0
40
3
41
0
44
1.084337
50
0
71
7
72
5
7
iso_b_vert
0
HATCH
5
11A
100
AcDbEntity
8
SK2
62
256
6
ByLayer
370
13
48
1
60
0
100
AcDbHatch
10
0
20
0
30
0
210
0
220
0
230
1
2
ANSI31
70
0
71
0
91
1
92
5
93
3
72
1
10
-54.5
20
8
11
-54.0392162584472
21
4.50000169255318
72
1
10
-54.0392162584472
20
4.50000169255318
11
-54.9607837415528
21
4.49999830744682
72
1
10
-54.9607837415528
20
4.49999830744682
11
-54.5
21
8
97
0
75
0
76
1
52
0
41
0.0062
77
0
78
1
53
45
43
0
44
0
45
-0.0139193969876572
46
0.0139193969876572
79
0
47
0
98
1
10
0
20
0
0
HATCH
5
11E
100
AcDbEntity
8
SK2
62
256
6
ByLayer
370
13
48
1
60
0
100
AcDbHatch
10
0
20
0
30
0
210
0
220
0
230
1
2
ANSI31
70
0
71
0
91
1
92
5
93
3
72
1
10
-54.5
20
-8
11
-54.9607837415528
21
-4.50000169255318
72
1
10
-54.9607837415528
20
-4.50000169255318
11
-54.0392162584472
21
-4.49999830744682
72
1
10
-54.0392162584472
20
-4.49999830744682
11
-54.5
21
-8
97
0
75
0
76
1
52
0
41
0.0062
77
0
78
1
53
45
43
0
44
0
45
-0.0139193969876572
46
0.0139193969876572
79
0
47
0
98
1
10
0
20
0
0
HATCH
5
124
100
AcDbEntity
8
2
62
256
6
ByLayer
370
13
48
1
60
0
100
AcDbHatch
10
0
20
0
30
0
210
0
220
0
230
1
2
ANSI31
70
0
71
0
91
1
92
5
93
3
72
1
10
89.5
20
6
11
89.9607837415528
21
2.50000169255318
72
1
10
89.9607837415528
20
2.50000169255318
11
89.0392162584472
21
2.49999830744682
72
1
10
89.0392162584472
20
2.49999830744682
11
89.5
21
6
97
0
75
0
76
1
52
0
41
0.0062
77
0
78
1
53
45
43
0
44
0
45
-0.0139193969876572
46
0.0139193969876572
79
0
47
0
98
1
10
0
20
0
0
HATCH
5
128
100
AcDbEntity
8
2
62
256
6
ByLayer
370
13
48
1
60
0
100
AcDbHatch
10
0
20
0
30
0
210
0
220
0
230
1
2
ANSI31
70
0
71
0
91
1
92
5
93
3
72
1
10
89.5
20
-6
11
89.0392162584472
21
-2.50000169255318
72
1
10
89.0392162584472
20
-2.50000169255318
11
89.9607837415528
21
-2.49999830744682
72
1
10
89.9607837415528
20
-2.49999830744682
11
89.5
21
-6
97
0
75
0
76
1
52
0
41
0.0062
77
0
78
1
53
45
43
0
44
0
45
-0.0139193969876572
46
0.0139193969876572
79
0
47
0
98
1
10
0
20
0
0
HATCH
5
12D
100
AcDbEntity
8
SK2
62
256
6
ByLayer
370
13
48
1
60
0
100
AcDbHatch
10
0
20
0
30
0
210
0
220
0
230
1
2
ANSI31
70
0
71
0
91
1
92
5
93
3
72
1
10
88.4983827231877
20
-17.8541597949323
11
91.5515754256928
21
-16.0820638240608
72
1
10
91.5515754256928
20
-16.0820638240608
11
91.9061958339749
21
-16.9326700737196
72
1
10
91.9061958339749
20
-16.9326700737196
11
88.4983827231877
21
-17.8541597949323
97
0
75
0
76
1
52
0
41
0.0062
77
0
78
1
53
45
43
0
44
0
45
-0.0139193969876572
46
0.0139193969876572
79
0
47
0
98
1
10
0
20
0
0
HATCH
5
131
100
AcDbEntity
8
SK2
62
256
6
ByLayer
370
13
48
1
60
0
100
AcDbHatch
10
0
20
0
30
0
210
0
220
0
230
1
2
ANSI31
70
0
71
0
91
1
92
5
93
3
72
1
10
88.4983827231877
20
17.8541597949323
11
91.906192709519
21
16.9326713763016
72
1
10
91.906192709519
20
16.9326713763016
11
91.5515785501488
21
16.0820625214788
72
1
10
91.5515785501488
20
16.0820625214788
11
88.4983827231877
21
17.8541597949323
97
0
75
0
76
1
52
0
41
0.0062
77
0
78
1
53
45
43
0
44
0
45
-0.0139193969876572
46
0.0139193969876572
79
0
47
0
98
1
10
0
20
0
0
DIMENSION
5
135
100
AcDbEntity
8
SK2
62
256
6
ByLayer
370
18
48
1
60
0
100
AcDbDimension
2
_U0
10
82
20
-45.952229
30
0
11
17
21
-45.952229
31
0
70
32
71
1
72
1
41
1
210
0
220
0
230
1
3
Standard
100
AcDbAlignedDimension
13
-48
23
-8
33
0
14
82
24
0
34
0
50
0
100
AcDbRotatedDimension
1001
ACAD
1000
DSTYLE
1002
{
1070
   371
1070
    13
1070
   372
1070
    13
1070
     3
1000

1070
   170
1070
     0
1070
   144
1040
1.0
1070
   277
1070
     2
1070
   284
1070
     8
1070
   278
1070
    46
1070
   146
1040
1.166667
1070
   345
1005
16
1070
   347
1005
16
1070
   346
1005
16
1070
   344
1005
0
1070
   343
1005
0
1070
   172
1070
     1
1070
    76
1070
     0
1070
    75
1070
     0
1070
   282
1070
     0
1070
   281
1070
     0
1070
    71
1070
     0
1070
    74
1070
     0
1070
   279
1070
     0
1070
   173
1070
     1
1070
   340
1005
114
1070
   271
1070
     2
1070
   272
1070
     3
1070
    77
1070
     1
1070
    73
1070
     1
1070
   171
1070
     3
1070
   274
1070
     4
1070
   177
1070
     2
1070
   176
1070
     2
1070
   178
1070
     2
1070
    78
1070
     8
1070
    48
1040
-0.1
1070
    41
1040
3.5
1070
   147
1040
1.5
1070
    42
1040
1.5875
1070
    44
1040
2.0
1070
   140
1040
3.0
1002
}
1001
ACAD_DSTYLE_DIM_LINETYPE
1070
   380
1005
16
1001
ACAD_DSTYLE_DIM_EXT1_LINETYPE
1070
   381
1005
16
1001
ACAD_DSTYLE_DIM_EXT2_LINETYPE
1070
   382
1005
16
0
DIMENSION
5
14E
100
AcDbEntity
8
SK2
62
256
6
ByLayer
370
18
48
1
60
0
100
AcDbDimension
2
_U1
10
3
20
-35.952229
30
0
11
42.5
21
-35.952229
31
0
70
32
71
1
72
1
41
1
210
0
220
0
230
1
3
Standard
100
AcDbAlignedDimension
13
82
23
0
33
0
14
3
24
-6
34
0
50
0
100
AcDbRotatedDimension
1001
ACAD
1000
DSTYLE
1002
{
1070
   371
1070
    13
1070
   372
1070
    13
1070
     3
1000

1070
   170
1070
     0
1070
   144
1040
1.0
1070
   277
1070
     2
1070
   284
1070
     8
1070
   278
1070
    46
1070
   146
1040
1.166667
1070
   345
1005
16
1070
   347
1005
16
1070
   346
1005
16
1070
   344
1005
0
1070
   343
1005
0
1070
   172
1070
     1
1070
    76
1070
     0
1070
    75
1070
     0
1070
   282
1070
     0
1070
   281
1070
     0
1070
    71
1070
     0
1070
    74
1070
     0
1070
   279
1070
     0
1070
   173
1070
     1
1070
   340
1005
114
1070
   271
1070
     2
1070
   272
1070
     3
1070
    77
1070
     1
1070
    73
1070
     1
1070
   171
1070
     3
1070
   274
1070
     4
1070
   177
1070
     2
1070
   176
1070
     2
1070
   178
1070
     2
1070
    78
1070
     8
1070
    48
1040
-0.1
1070
    41
1040
3.5
1070
   147
1040
1.5
1070
    42
1040
1.5875
1070
    44
1040
2.0
1070
   140
1040
3.0
1002
}
1001
ACAD_DSTYLE_DIM_LINETYPE
1070
   380
1005
16
1001
ACAD_DSTYLE_DIM_EXT1_LINETYPE
1070
   381
1005
16
1001
ACAD_DSTYLE_DIM_EXT2_LINETYPE
1070
   382
1005
16
0
DIMENSION
5
166
100
AcDbEntity
8
SK2
62
256
6
ByLayer
370
18
48
1
60
0
100
AcDbDimension
2
_U2
10
0
20
-35.952229
30
0
11
-24
21
-35.952229
31
0
70
32
71
1
72
1
41
1
210
0
220
0
230
1
3
Standard
100
AcDbAlignedDimension
13
-48
23
-8
33
0
14
0
24
-8
34
0
50
0
100
AcDbRotatedDimension
1001
ACAD
1000
DSTYLE
1002
{
1070
   371
1070
    13
1070
   372
1070
    13
1070
     3
1000

1070
   170
1070
     0
1070
   144
1040
1.0
1070
   277
1070
     2
1070
   284
1070
     8
1070
   278
1070
    46
1070
   146
1040
1.166667
1070
   345
1005
16
1070
   347
1005
16
1070
   346
1005
16
1070
   344
1005
0
1070
   343
1005
0
1070
   172
1070
     1
1070
    76
1070
     0
1070
    75
1070
     0
1070
   282
1070
     0
1070
   281
1070
     0
1070
    71
1070
     0
1070
    74
1070
     0
1070
   279
1070
     0
1070
   173
1070
     1
1070
   340
1005
114
1070
   271
1070
     2
1070
   272
1070
     3
1070
    77
1070
     1
1070
    73
1070
     1
1070
   171
1070
     3
1070
   274
1070
     4
1070
   177
1070
     2
1070
   176
1070
     2
1070
   178
1070
     2
1070
    78
1070
     8
1070
    48
1040
-0.1
1070
    41
1040
3.5
1070
   147
1040
1.5
1070
    42
1040
1.5875
1070
    44
1040
2.0
1070
   140
1040
3.0
1002
}
1001
ACAD_DSTYLE_DIM_LINETYPE
1070
   380
1005
16
1001
ACAD_DSTYLE_DIM_EXT1_LINETYPE
1070
   381
1005
16
1001
ACAD_DSTYLE_DIM_EXT2_LINETYPE
1070
   382
1005
16
0
DIMENSION
5
17E
100
AcDbEntity
8
SK2
62
256
6
ByLayer
370
18
48
1
60
0
100
AcDbDimension
2
_U3
10
13
20
32.952229
30
0
11
47.5
21
32.952229
31
0
70
32
71
1
72
1
41
1
210
0
220
0
230
1
3
Standard
100
AcDbAlignedDimension
13
82
23
0
33
0
14
13
24
6
34
0
50
0
100
AcDbRotatedDimension
1001
ACAD
1000
DSTYLE
1002
{
1070
   371
1070
    13
1070
   372
1070
    13
1070
     3
1000

1070
   170
1070
     0
1070
   144
1040
1.0
1070
   277
1070
     2
1070
   284
1070
     8
1070
   278
1070
    46
1070
   146
1040
1.166667
1070
   345
1005
16
1070
   347
1005
16
1070
   346
1005
16
1070
   344
1005
0
1070
   343
1005
0
1070
   172
1070
     1
1070
    76
1070
     0
1070
    75
1070
     0
1070
   282
1070
     0
1070
   281
1070
     0
1070
    71
1070
     0
1070
    74
1070
     0
1070
   279
1070
     0
1070
   173
1070
     1
1070
   340
1005
114
1070
   271
1070
     2
1070
   272
1070
     3
1070
    77
1070
     1
1070
    73
1070
     1
1070
   171
1070
     3
1070
   274
1070
     4
1070
   177
1070
     2
1070
   176
1070
     2
1070
   178
1070
     2
1070
    78
1070
     8
1070
    48
1040
-0.1
1070
    41
1040
3.5
1070
   147
1040
1.5
1070
    42
1040
1.5875
1070
    44
1040
2.0
1070
   140
1040
3.0
1002
}
1001
ACAD_DSTYLE_DIM_LINETYPE
1070
   380
1005
16
1001
ACAD_DSTYLE_DIM_EXT1_LINETYPE
1070
   381
1005
16
1001
ACAD_DSTYLE_DIM_EXT2_LINETYPE
1070
   382
1005
16
0
ENDSEC
0
SECTION
2
OBJECTS
0
DICTIONARY
5
206
330
0
100
AcDbDictionary
280
0
281
1
3
ACAD_GROUP
350
207
3
ACAD_MLINESTYLE
350
208
0
DICTIONARY
5
207
330
0
100
AcDbDictionary
280
0
281
1
0
DICTIONARY
5
208
330
0
100
AcDbDictionary
280
0
281
1
3
Standard
350
18
0
MLINESTYLE
5
18
330
208
100
AcDbMlineStyle
2
Standard
70
0
3

62
256
51
90
52
90
71
2
49
-0.5
62
256
6
ByLayer
49
0.5
62
256
6
ByLayer
0
RASTERVARIABLES
5
1f4
330

100
AcDbRasterVariables
90
0
70
1
71
1
72
1
0
ENDSEC
0
EOF
