0
SECTION
2
HEADER
9
$ACADVER
1
AC1015
9
$DWGCODEPAGE
3
ANSI_1252
9
$HANDSEED
5
225
9
$ANGBASE
50
0
9
$ANGDIR
70
0
9
$ATTMODE
70
1
9
$AUNITS
70
0
9
$AUPREC
70
0
9
$CECOLOR
62
256
9
$CELTSCALE
40
1
9
$CELTYPE
6
ByLayer
9
$CELWEIGHT
370
18
9
$CLAYER
8
0
9
$CMLJUST
70
0
9
$CMLSCALE
40
1
9
$CMLSTYLE
2
Standard
9
$DIMSTYLE
2
Standard
9
$TEXTSIZE
40
0.2
9
$TEXTSTYLE
7
Standard
9
$LUNITS
70
2
9
$LUPREC
70
4
9
$EXTNAMES
290
1
9
$INSUNITS
70
4
9
$LTSCALE
40
1
9
$LWDISPLAY
290
1
9
$PDMODE
70
0
9
$PDSIZE
40
0
9
$PLINEGEN
70
0
0
ENDSEC
0
SECTION
2
CLASSES
0
CLASS
1
RASTERVARIABLES
2
AcDbRasterVariables
3
ISM
90
0
280
0
281
0
0
ENDSEC
0
SECTION
2
TABLES
0
TABLE
2
VPORT
5
21b
100
AcDbSymbolTable
0
VPORT
5
1
100
AcDbSymbolTableRecord
100
AcDbViewportTableRecord
2
*Active
70
0
10
0
20
0
11
1
21
1
12
-1
22
1
13
0
23
0
14
0.5
24
0.5
15
10
25
10
16
0
26
0
36
1
17
0
27
0
37
0
0
ENDTAB
0
TABLE
2
LTYPE
5
21c
100
AcDbSymbolTable
0
LTYPE
5
14
100
AcDbSymbolTableRecord
100
AcDbLinetypeTableRecord
70
0
2
ByBlock
3

72
65
73
0
40
0
0
LTYPE
5
15
100
AcDbSymbolTableRecord
100
AcDbLinetypeTableRecord
70
0
2
ByLayer
3

72
65
73
0
40
0
0
LTYPE
5
16
100
AcDbSymbolTableRecord
100
AcDbLinetypeTableRecord
70
0
2
Continuous
3
Solid line
72
65
73
0
40
0
0
LTYPE
5
6E
100
AcDbSymbolTableRecord
100
AcDbLinetypeTableRecord
70
0
2
CENTER
3
____ _ ____ _ ____ _ ____
72
65
73
4
40
47.5
49
22
74
0
49
-8.5
74
0
49
8.5
74
0
49
-8.5
74
0
0
LTYPE
5
6F
100
AcDbSymbolTableRecord
100
AcDbLinetypeTableRecord
70
0
2
DASHED
3
__ __ __ __ __ __ __ __ __
72
65
73
2
40
25.72
49
12.86
74
0
49
-12.86
74
0
0
ENDTAB
0
TABLE
2
LAYER
5
21d
100
AcDbSymbolTable
0
LAYER
5
10
100
AcDbSymbolTableRecord
100
AcDbLayerTableRecord
2
0
70
0
62
7
6
Continuous
290
1
370
-3
390
0
0
LAYER
5
71
100
AcDbSymbolTableRecord
100
AcDbLayerTableRecord
2
80
70
0
62
-6
6
Continuous
290
1
370
-3
390
0
0
LAYER
5
73
100
AcDbSymbolTableRecord
100
AcDbLayerTableRecord
2
81
70
0
62
-3
6
Continuous
290
1
370
-3
390
0
0
LAYER
5
75
100
AcDbSymbolTableRecord
100
AcDbLayerTableRecord
2
1
70
0
62
4
6
Continuous
290
1
370
-3
390
0
0
LAYER
5
7F
100
AcDbSymbolTableRecord
100
AcDbLayerTableRecord
2
4
70
0
62
-2
6
CENTER
290
1
370
-3
390
0
0
LAYER
5
AF
100
AcDbSymbolTableRecord
100
AcDbLayerTableRecord
2
2
70
0
62
7
6
Continuous
290
1
370
-3
390
0
0
LAYER
5
14A
100
AcDbSymbolTableRecord
100
AcDbLayerTableRecord
2
Defpoints
70
0
62
7
6
Continuous
290
0
370
-3
390
0
0
LAYER
5
207
100
AcDbSymbolTableRecord
100
AcDbLayerTableRecord
2
SK4
70
0
62
2
6
CENTER
290
1
370
-3
390
0
0
LAYER
5
208
100
AcDbSymbolTableRecord
100
AcDbLayerTableRecord
2
SK1
70
0
62
4
6
Continuous
290
1
370
-3
390
0
0
LAYER
5
209
100
AcDbSymbolTableRecord
100
AcDbLayerTableRecord
2
SK2
70
0
62
7
6
Continuous
290
1
370
-3
390
0
0
LAYER
5
20a
100
AcDbSymbolTableRecord
100
AcDbLayerTableRecord
2
SK6
70
0
62
5
6
Continuous
290
1
370
-3
390
0
0
ENDTAB
0
TABLE
2
STYLE
5
21e
100
AcDbSymbolTable
0
STYLE
5
11
100
AcDbSymbolTableRecord
100
AcDbTextStyleTableRecord
2
Standard
3
txt
70
0
71
0
40
0
41
1
42
0
50
0
0
STYLE
5
126
100
AcDbSymbolTableRecord
100
AcDbTextStyleTableRecord
2
iso_b_vert
3
simplex.shx
70
0
71
0
40
0
41
1
42
0
50
0
0
STYLE
5
127
100
AcDbSymbolTableRecord
100
AcDbTextStyleTableRecord
2
DWGDirectTextStyle
3
simplex
70
0
71
0
40
0
41
1
42
0
50
0
0
ENDTAB
0
TABLE
2
DIMSTYLE
5
21f
100
AcDbSymbolTable
100
AcDbDimStyleTable
0
DIMSTYLE
105
27
100
AcDbSymbolTableRecord
100
AcDbDimStyleTableRecord
2
Standard
70
0
3
<>
41
0.18
42
0.0625
44
0.18
140
0.18
147
0.09
73
0
74
0
77
1
271
2
275
0
278
52
280
0
340
11
0
ENDTAB
0
TABLE
2
VIEW
5
220
100
AcDbSymbolTable
0
ENDTAB
0
TABLE
2
UCS
5
221
100
AcDbSymbolTable
0
ENDTAB
0
TABLE
2
APPID
5
222
100
AcDbSymbolTable
0
APPID
5
12
100
AcDbSymbolTableRecord
100
AcDbRegAppTableRecord
2
ACAD
70
0
0
APPID
5
146
100
AcDbSymbolTableRecord
100
AcDbRegAppTableRecord
2
ACAD_DSTYLE_DIMBREAK
70
0
0
APPID
5
1C6
100
AcDbSymbolTableRecord
100
AcDbRegAppTableRecord
2
ACAD_DSTYLE_DIM_LINETYPE
70
0
0
APPID
5
1C7
100
AcDbSymbolTableRecord
100
AcDbRegAppTableRecord
2
ACAD_DSTYLE_DIM_EXT1_LINETYPE
70
0
0
APPID
5
1C8
100
AcDbSymbolTableRecord
100
AcDbRegAppTableRecord
2
ACAD_DSTYLE_DIM_EXT2_LINETYPE
70
0
0
APPID
5
203
100
AcDbSymbolTableRecord
100
AcDbRegAppTableRecord
2
ACAD_MLEADERVER
70
0
0
ENDTAB
0
TABLE
2
BLOCK_RECORD
5
223
100
AcDbSymbolTable
0
BLOCK_RECORD
5
1F
100
AcDbSymbolTableRecord
100
AcDbBlockTableRecord
2
*Model_Space
340
0
70
0
0
BLOCK_RECORD
5
1B
100
AcDbSymbolTableRecord
100
AcDbBlockTableRecord
2
*Paper_Space
340
0
70
0
0
BLOCK_RECORD
5
23
100
AcDbSymbolTableRecord
100
AcDbBlockTableRecord
2
*Paper_Space0
340
0
70
0
0
BLOCK_RECORD
5
14B
100
AcDbSymbolTableRecord
100
AcDbBlockTableRecord
2
*D1
340
0
70
0
0
BLOCK_RECORD
5
157
100
AcDbSymbolTableRecord
100
AcDbBlockTableRecord
2
_U0
340
0
70
0
0
BLOCK_RECORD
5
163
100
AcDbSymbolTableRecord
100
AcDbBlockTableRecord
2
*D3
340
0
70
0
0
BLOCK_RECORD
5
16F
100
AcDbSymbolTableRecord
100
AcDbBlockTableRecord
2
_U1
340
0
70
0
0
BLOCK_RECORD
5
17B
100
AcDbSymbolTableRecord
100
AcDbBlockTableRecord
2
*D5
340
0
70
0
0
BLOCK_RECORD
5
187
100
AcDbSymbolTableRecord
100
AcDbBlockTableRecord
2
_U2
340
0
70
0
0
BLOCK_RECORD
5
193
100
AcDbSymbolTableRecord
100
AcDbBlockTableRecord
2
*D7
340
0
70
0
0
BLOCK_RECORD
5
19F
100
AcDbSymbolTableRecord
100
AcDbBlockTableRecord
2
_U3
340
0
70
0
0
ENDTAB
0
ENDSEC
0
SECTION
2
BLOCKS
0
BLOCK
5
20
100
AcDbEntity
8
0
100
AcDbBlockBegin
2
*Model_Space
70
0
10
0
20
0
30
0
3
*Model_Space
0
ENDBLK
5
21
100
AcDbEntity
8
0
100
AcDbBlockEnd
0
BLOCK
5
1C
100
AcDbEntity
8
0
100
AcDbBlockBegin
2
*Paper_Space
70
0
10
0
20
0
30
0
3
*Paper_Space
0
ENDBLK
5
1D
100
AcDbEntity
8
0
100
AcDbBlockEnd
0
BLOCK
5
24
100
AcDbEntity
8
0
100
AcDbBlockBegin
2
*Paper_Space0
70
0
10
0
20
0
30
0
3
*Paper_Space0
0
ENDBLK
5
25
100
AcDbEntity
8
0
100
AcDbBlockEnd
0
BLOCK
5
14C
100
AcDbEntity
8
0
100
AcDbBlockBegin
2
*D1
70
1
10
0
20
0
30
0
3
*D1
0
LINE
5
14E
100
AcDbEntity
8
0
62
256
6
ByLayer
370
-2
48
1
60
0
100
AcDbLine
10
-48
20
-11.1125
30
0
11
-48
21
-47.952229
31
0
39
0
210
0
220
0
230
1
0
LINE
5
14F
100
AcDbEntity
8
0
62
256
6
ByLayer
370
-2
48
1
60
0
100
AcDbLine
10
123.5
20
-1.5875
30
0
11
123.5
21
-47.952229
31
0
39
0
210
0
220
0
230
1
0
LINE
5
150
100
AcDbEntity
8
0
62
256
6
ByLayer
370
-2
48
1
60
0
100
AcDbLine
10
-44.5
20
-45.952229
30
0
11
120
21
-45.952229
31
0
39
0
210
0
220
0
230
1
0
SOLID
5
151
100
AcDbEntity
8
0
62
256
6
ByLayer
370
-1
48
1
60
0
100
AcDbTrace
10
-44.5
20
-45.368896
30
0
11
-44.5
21
-46.535563
31
0
12
-48
22
-45.952229
32
0
13
-48
23
-45.952229
33
0
39
0
210
0
220
0
230
1
0
SOLID
5
152
100
AcDbEntity
8
0
62
256
6
ByLayer
370
-1
48
1
60
0
100
AcDbTrace
10
120
20
-46.535563
30
0
11
120
21
-45.368896
31
0
12
123.5
22
-45.952229
32
0
13
123.5
23
-45.952229
33
0
39
0
210
0
220
0
230
1
0
MTEXT
5
153
100
AcDbEntity
8
0
62
256
6
ByLayer
370
18
48
1
60
0
100
AcDbMText
10
37.75
20
-39.952229
30
0
210
0
220
0
230
1
1
\A1;171.5
40
3
41
0
44
1
50
0
71
5
72
5
7
iso_b_vert
0
POINT
5
154
100
AcDbEntity
8
Defpoints
62
0
6
ByLayer
370
-1
48
1
60
0
100
AcDbPoint
10
-48
20
-9.525
30
0
39
0
210
0
220
0
230
1
50
360
0
POINT
5
155
100
AcDbEntity
8
Defpoints
62
0
6
ByLayer
370
-1
48
1
60
0
100
AcDbPoint
10
123.5
20
0
30
0
39
0
210
0
220
0
230
1
50
360
0
POINT
5
156
100
AcDbEntity
8
Defpoints
62
0
6
ByLayer
370
-1
48
1
60
0
100
AcDbPoint
10
123.5
20
-45.952229
30
0
39
0
210
0
220
0
230
1
50
360
0
ENDBLK
5
14D
100
AcDbEntity
8
0
100
AcDbBlockEnd
0
BLOCK
5
15E
100
AcDbEntity
8
0
100
AcDbBlockBegin
2
_U0
70
0
10
0
20
0
30
0
3
_U0
0
MTEXT
5
158
100
AcDbEntity
8
SK2
62
256
6
ByLayer
370
18
48
1
60
0
100
AcDbMText
10
32.896601
20
-45.067115
30
0
210
0
220
0
230
1
1
\W0.6532;171.50
40
3
41
0
44
1.084337
50
0
71
7
72
5
7
iso_b_vert
0
LINE
5
159
100
AcDbEntity
8
SK2
62
256
6
ByLayer
370
13
48
1
60
0
100
AcDbLine
10
-48
20
-11.1125
30
0
11
-48
21
-47.952229
31
0
39
0
210
0
220
0
230
1
0
LINE
5
15A
100
AcDbEntity
8
SK2
62
256
6
ByLayer
370
13
48
1
60
0
100
AcDbLine
10
123.5
20
-1.5875
30
0
11
123.5
21
-47.952229
31
0
39
0
210
0
220
0
230
1
0
LINE
5
15B
100
AcDbEntity
8
SK2
62
256
6
ByLayer
370
13
48
1
60
0
100
AcDbLine
10
-48
20
-45.952229
30
0
11
123.5
21
-45.952229
31
0
39
0
210
0
220
0
230
1
0
SOLID
5
15C
100
AcDbEntity
8
SK2
62
256
6
ByLayer
370
18
48
1
60
0
100
AcDbTrace
10
-48
20
-45.952229
30
0
11
-44.500002
21
-45.491446
31
0
12
-44.499998
22
-46.413013
32
0
13
-44.499998
23
-46.413013
33
0
39
0
210
0
220
0
230
1
0
SOLID
5
15D
100
AcDbEntity
8
SK2
62
256
6
ByLayer
370
18
48
1
60
0
100
AcDbTrace
10
123.5
20
-45.952229
30
0
11
120.000002
21
-46.413013
31
0
12
119.999998
22
-45.491446
32
0
13
119.999998
23
-45.491446
33
0
39
0
210
0
220
0
230
1
0
ENDBLK
5
15F
100
AcDbEntity
8
0
100
AcDbBlockEnd
0
BLOCK
5
164
100
AcDbEntity
8
0
100
AcDbBlockBegin
2
*D3
70
1
10
0
20
0
30
0
3
*D3
0
LINE
5
166
100
AcDbEntity
8
0
62
256
6
ByLayer
370
-2
48
1
60
0
100
AcDbLine
10
123.5
20
-1.5875
30
0
11
123.5
21
-37.952229
31
0
39
0
210
0
220
0
230
1
0
LINE
5
167
100
AcDbEntity
8
0
62
256
6
ByLayer
370
-2
48
1
60
0
100
AcDbLine
10
3
20
-10.3185
30
0
11
3
21
-37.952229
31
0
39
0
210
0
220
0
230
1
0
LINE
5
168
100
AcDbEntity
8
0
62
256
6
ByLayer
370
-2
48
1
60
0
100
AcDbLine
10
120
20
-35.952229
30
0
11
6.5
21
-35.952229
31
0
39
0
210
0
220
0
230
1
0
SOLID
5
169
100
AcDbEntity
8
0
62
256
6
ByLayer
370
-1
48
1
60
0
100
AcDbTrace
10
120
20
-36.535563
30
0
11
120
21
-35.368896
31
0
12
123.5
22
-35.952229
32
0
13
123.5
23
-35.952229
33
0
39
0
210
0
220
0
230
1
0
SOLID
5
16A
100
AcDbEntity
8
0
62
256
6
ByLayer
370
-1
48
1
60
0
100
AcDbTrace
10
6.5
20
-35.368896
30
0
11
6.5
21
-36.535563
31
0
12
3
22
-35.952229
32
0
13
3
23
-35.952229
33
0
39
0
210
0
220
0
230
1
0
MTEXT
5
16B
100
AcDbEntity
8
0
62
256
6
ByLayer
370
18
48
1
60
0
100
AcDbMText
10
63.25
20
-29.952229
30
0
210
0
220
0
230
1
1
\A1;120.5
40
3
41
0
44
1
50
0
71
5
72
5
7
iso_b_vert
0
POINT
5
16C
100
AcDbEntity
8
Defpoints
62
0
6
ByLayer
370
-1
48
1
60
0
100
AcDbPoint
10
123.5
20
0
30
0
39
0
210
0
220
0
230
1
50
360
0
POINT
5
16D
100
AcDbEntity
8
Defpoints
62
0
6
ByLayer
370
-1
48
1
60
0
100
AcDbPoint
10
3
20
-8.731
30
0
39
0
210
0
220
0
230
1
50
360
0
POINT
5
16E
100
AcDbEntity
8
Defpoints
62
0
6
ByLayer
370
-1
48
1
60
0
100
AcDbPoint
10
3
20
-35.952229
30
0
39
0
210
0
220
0
230
1
50
360
0
ENDBLK
5
165
100
AcDbEntity
8
0
100
AcDbBlockEnd
0
BLOCK
5
176
100
AcDbEntity
8
0
100
AcDbBlockBegin
2
_U1
70
0
10
0
20
0
30
0
3
_U1
0
MTEXT
5
170
100
AcDbEntity
8
SK2
62
256
6
ByLayer
370
18
48
1
60
0
100
AcDbMText
10
58.021658
20
-35.067115
30
0
210
0
220
0
230
1
1
\W0.7022;120.50
40
3
41
0
44
1.084337
50
0
71
7
72
5
7
iso_b_vert
0
LINE
5
171
100
AcDbEntity
8
SK2
62
256
6
ByLayer
370
13
48
1
60
0
100
AcDbLine
10
123.5
20
-1.5875
30
0
11
123.5
21
-37.952229
31
0
39
0
210
0
220
0
230
1
0
LINE
5
172
100
AcDbEntity
8
SK2
62
256
6
ByLayer
370
13
48
1
60
0
100
AcDbLine
10
3
20
-10.3185
30
0
11
3
21
-37.952229
31
0
39
0
210
0
220
0
230
1
0
LINE
5
173
100
AcDbEntity
8
SK2
62
256
6
ByLayer
370
13
48
1
60
0
100
AcDbLine
10
123.5
20
-35.952229
30
0
11
3
21
-35.952229
31
0
39
0
210
0
220
0
230
1
0
SOLID
5
174
100
AcDbEntity
8
SK2
62
256
6
ByLayer
370
18
48
1
60
0
100
AcDbTrace
10
123.5
20
-35.952229
30
0
11
120.000002
21
-36.413013
31
0
12
119.999998
22
-35.491446
32
0
13
119.999998
23
-35.491446
33
0
39
0
210
0
220
0
230
1
0
SOLID
5
175
100
AcDbEntity
8
SK2
62
256
6
ByLayer
370
18
48
1
60
0
100
AcDbTrace
10
3
20
-35.952229
30
0
11
6.499998
21
-35.491446
31
0
12
6.500002
22
-36.413013
32
0
13
6.500002
23
-36.413013
33
0
39
0
210
0
220
0
230
1
0
ENDBLK
5
177
100
AcDbEntity
8
0
100
AcDbBlockEnd
0
BLOCK
5
17C
100
AcDbEntity
8
0
100
AcDbBlockBegin
2
*D5
70
1
10
0
20
0
30
0
3
*D5
0
LINE
5
17E
100
AcDbEntity
8
0
62
256
6
ByLayer
370
-2
48
1
60
0
100
AcDbLine
10
-48
20
-11.1125
30
0
11
-48
21
-37.952229
31
0
39
0
210
0
220
0
230
1
0
LINE
5
17F
100
AcDbEntity
8
0
62
256
6
ByLayer
370
-2
48
1
60
0
100
AcDbLine
10
0
20
-11.1125
30
0
11
0
21
-37.952229
31
0
39
0
210
0
220
0
230
1
0
LINE
5
180
100
AcDbEntity
8
0
62
256
6
ByLayer
370
-2
48
1
60
0
100
AcDbLine
10
-44.5
20
-35.952229
30
0
11
-3.5
21
-35.952229
31
0
39
0
210
0
220
0
230
1
0
SOLID
5
181
100
AcDbEntity
8
0
62
256
6
ByLayer
370
-1
48
1
60
0
100
AcDbTrace
10
-44.5
20
-35.368896
30
0
11
-44.5
21
-36.535563
31
0
12
-48
22
-35.952229
32
0
13
-48
23
-35.952229
33
0
39
0
210
0
220
0
230
1
0
SOLID
5
182
100
AcDbEntity
8
0
62
256
6
ByLayer
370
-1
48
1
60
0
100
AcDbTrace
10
-3.5
20
-36.535563
30
0
11
-3.5
21
-35.368896
31
0
12
0
22
-35.952229
32
0
13
0
23
-35.952229
33
0
39
0
210
0
220
0
230
1
0
MTEXT
5
183
100
AcDbEntity
8
0
62
256
6
ByLayer
370
18
48
1
60
0
100
AcDbMText
10
-24
20
-29.952229
30
0
210
0
220
0
230
1
1
\A1;48
40
3
41
0
44
1
50
0
71
5
72
5
7
iso_b_vert
0
POINT
5
184
100
AcDbEntity
8
Defpoints
62
0
6
ByLayer
370
-1
48
1
60
0
100
AcDbPoint
10
-48
20
-9.525
30
0
39
0
210
0
220
0
230
1
50
360
0
POINT
5
185
100
AcDbEntity
8
Defpoints
62
0
6
ByLayer
370
-1
48
1
60
0
100
AcDbPoint
10
0
20
-9.525
30
0
39
0
210
0
220
0
230
1
50
360
0
POINT
5
186
100
AcDbEntity
8
Defpoints
62
0
6
ByLayer
370
-1
48
1
60
0
100
AcDbPoint
10
0
20
-35.952229
30
0
39
0
210
0
220
0
230
1
50
360
0
ENDBLK
5
17D
100
AcDbEntity
8
0
100
AcDbBlockEnd
0
BLOCK
5
18E
100
AcDbEntity
8
0
100
AcDbBlockBegin
2
_U2
70
0
10
0
20
0
30
0
3
_U2
0
MTEXT
5
188
100
AcDbEntity
8
SK2
62
256
6
ByLayer
370
18
48
1
60
0
100
AcDbMText
10
-28.640313
20
-35.067115
30
0
210
0
220
0
230
1
1
\W0.7694;48.00
40
3
41
0
44
1.084337
50
0
71
7
72
5
7
iso_b_vert
0
LINE
5
189
100
AcDbEntity
8
SK2
62
256
6
ByLayer
370
13
48
1
60
0
100
AcDbLine
10
-48
20
-11.1125
30
0
11
-48
21
-37.952229
31
0
39
0
210
0
220
0
230
1
0
LINE
5
18A
100
AcDbEntity
8
SK2
62
256
6
ByLayer
370
13
48
1
60
0
100
AcDbLine
10
0
20
-11.1125
30
0
11
0
21
-37.952229
31
0
39
0
210
0
220
0
230
1
0
LINE
5
18B
100
AcDbEntity
8
SK2
62
256
6
ByLayer
370
13
48
1
60
0
100
AcDbLine
10
-48
20
-35.952229
30
0
11
0
21
-35.952229
31
0
39
0
210
0
220
0
230
1
0
SOLID
5
18C
100
AcDbEntity
8
SK2
62
256
6
ByLayer
370
18
48
1
60
0
100
AcDbTrace
10
-48
20
-35.952229
30
0
11
-44.500002
21
-35.491446
31
0
12
-44.499998
22
-36.413013
32
0
13
-44.499998
23
-36.413013
33
0
39
0
210
0
220
0
230
1
0
SOLID
5
18D
100
AcDbEntity
8
SK2
62
256
6
ByLayer
370
18
48
1
60
0
100
AcDbTrace
10
0
20
-35.952229
30
0
11
-3.499998
21
-36.413013
31
0
12
-3.500002
22
-35.491446
32
0
13
-3.500002
23
-35.491446
33
0
39
0
210
0
220
0
230
1
0
ENDBLK
5
18F
100
AcDbEntity
8
0
100
AcDbBlockEnd
0
BLOCK
5
194
100
AcDbEntity
8
0
100
AcDbBlockBegin
2
*D7
70
1
10
0
20
0
30
0
3
*D7
0
LINE
5
196
100
AcDbEntity
8
0
62
256
6
ByLayer
370
-2
48
1
60
0
100
AcDbLine
10
123.5
20
1.5875
30
0
11
123.5
21
34.952229
31
0
39
0
210
0
220
0
230
1
0
LINE
5
197
100
AcDbEntity
8
0
62
256
6
ByLayer
370
-2
48
1
60
0
100
AcDbLine
10
26
20
10.3185
30
0
11
26
21
34.952229
31
0
39
0
210
0
220
0
230
1
0
LINE
5
198
100
AcDbEntity
8
0
62
256
6
ByLayer
370
-2
48
1
60
0
100
AcDbLine
10
120
20
32.952229
30
0
11
29.5
21
32.952229
31
0
39
0
210
0
220
0
230
1
0
SOLID
5
199
100
AcDbEntity
8
0
62
256
6
ByLayer
370
-1
48
1
60
0
100
AcDbTrace
10
120
20
32.368896
30
0
11
120
21
33.535563
31
0
12
123.5
22
32.952229
32
0
13
123.5
23
32.952229
33
0
39
0
210
0
220
0
230
1
0
SOLID
5
19A
100
AcDbEntity
8
0
62
256
6
ByLayer
370
-1
48
1
60
0
100
AcDbTrace
10
29.5
20
33.535563
30
0
11
29.5
21
32.368896
31
0
12
26
22
32.952229
32
0
13
26
23
32.952229
33
0
39
0
210
0
220
0
230
1
0
MTEXT
5
19B
100
AcDbEntity
8
0
62
256
6
ByLayer
370
18
48
1
60
0
100
AcDbMText
10
74.75
20
38.952229
30
0
210
0
220
0
230
1
1
\A1;97.5
40
3
41
0
44
1
50
0
71
5
72
5
7
iso_b_vert
0
POINT
5
19C
100
AcDbEntity
8
Defpoints
62
0
6
ByLayer
370
-1
48
1
60
0
100
AcDbPoint
10
123.5
20
0
30
0
39
0
210
0
220
0
230
1
50
360
0
POINT
5
19D
100
AcDbEntity
8
Defpoints
62
0
6
ByLayer
370
-1
48
1
60
0
100
AcDbPoint
10
26
20
8.731
30
0
39
0
210
0
220
0
230
1
50
360
0
POINT
5
19E
100
AcDbEntity
8
Defpoints
62
0
6
ByLayer
370
-1
48
1
60
0
100
AcDbPoint
10
26
20
32.952229
30
0
39
0
210
0
220
0
230
1
50
360
0
ENDBLK
5
195
100
AcDbEntity
8
0
100
AcDbBlockEnd
0
BLOCK
5
1A6
100
AcDbEntity
8
0
100
AcDbBlockBegin
2
_U3
70
0
10
0
20
0
30
0
3
_U3
0
MTEXT
5
1A0
100
AcDbEntity
8
SK2
62
256
6
ByLayer
370
18
48
1
60
0
100
AcDbMText
10
70.26763
20
33.837344
30
0
210
0
220
0
230
1
1
\W0.7468;97.50
40
3
41
0
44
1.084337
50
0
71
7
72
5
7
iso_b_vert
0
LINE
5
1A1
100
AcDbEntity
8
SK2
62
256
6
ByLayer
370
13
48
1
60
0
100
AcDbLine
10
123.5
20
1.5875
30
0
11
123.5
21
34.952229
31
0
39
0
210
0
220
0
230
1
0
LINE
5
1A2
100
AcDbEntity
8
SK2
62
256
6
ByLayer
370
13
48
1
60
0
100
AcDbLine
10
26
20
10.3185
30
0
11
26
21
34.952229
31
0
39
0
210
0
220
0
230
1
0
LINE
5
1A3
100
AcDbEntity
8
SK2
62
256
6
ByLayer
370
13
48
1
60
0
100
AcDbLine
10
123.5
20
32.952229
30
0
11
26
21
32.952229
31
0
39
0
210
0
220
0
230
1
0
SOLID
5
1A4
100
AcDbEntity
8
SK2
62
256
6
ByLayer
370
18
48
1
60
0
100
AcDbTrace
10
123.5
20
32.952229
30
0
11
120.000002
21
32.491446
31
0
12
119.999998
22
33.413013
32
0
13
119.999998
23
33.413013
33
0
39
0
210
0
220
0
230
1
0
SOLID
5
1A5
100
AcDbEntity
8
SK2
62
256
6
ByLayer
370
18
48
1
60
0
100
AcDbTrace
10
26
20
32.952229
30
0
11
29.499998
21
33.413013
31
0
12
29.500002
22
32.491446
32
0
13
29.500002
23
32.491446
33
0
39
0
210
0
220
0
230
1
0
ENDBLK
5
1A7
100
AcDbEntity
8
0
100
AcDbBlockEnd
0
ENDSEC
0
SECTION
2
ENTITIES
0
ARC
5
C0
100
AcDbEntity
8
SK2
62
256
6
ByLayer
370
13
48
1
60
0
100
AcDbCircle
39
0
10
123.5
20
0
30
0
40
19
210
0
220
0
230
1
100
AcDbArc
50
290
51
70
0
ELLIPSE
5
C1
100
AcDbEntity
8
SK1
62
256
6
ByLayer
370
18
48
1
60
0
100
AcDbEllipse
10
-32.117794
20
0
30
0
11
-1.74965632802376E-15
21
-9.52500000000022
31
0
210
0
220
0
230
1
40
0.932515
41
-1.99646903598621
42
-1.14512361760358
0
ELLIPSE
5
C2
100
AcDbEntity
8
SK1
62
256
6
ByLayer
370
18
48
1
60
0
100
AcDbEllipse
10
-15.214312
20
0
30
0
11
10.2143119629885
21
-1.15738337235711E-14
31
0
210
0
220
0
230
1
40
0.932515
41
-0.425672709191254
42
0.425672709191253
0
POINT
5
70
100
AcDbEntity
8
80
62
256
6
ByLayer
370
18
48
1
60
0
100
AcDbPoint
10
0
20
0
30
0
39
0
210
0
220
0
230
1
50
360
0
POINT
5
72
100
AcDbEntity
8
81
62
256
6
ByLayer
370
18
48
1
60
0
100
AcDbPoint
10
123.5
20
0
30
0
39
0
210
0
220
0
230
1
50
360
0
POINT
5
74
100
AcDbEntity
8
1
62
256
6
ByLayer
370
18
48
1
60
1
100
AcDbPoint
10
-48
20
-9.525
30
0
39
0
210
0
220
0
230
1
50
360
0
POINT
5
76
100
AcDbEntity
8
1
62
256
6
ByLayer
370
18
48
1
60
1
100
AcDbPoint
10
123.5
20
0
30
0
39
0
210
0
220
0
230
1
50
360
0
POINT
5
77
100
AcDbEntity
8
1
62
256
6
ByLayer
370
18
48
1
60
1
100
AcDbPoint
10
123.5
20
0
30
0
39
0
210
0
220
0
230
1
50
360
0
POINT
5
78
100
AcDbEntity
8
1
62
256
6
ByLayer
370
18
48
1
60
1
100
AcDbPoint
10
3
20
-8.731
30
0
39
0
210
0
220
0
230
1
50
360
0
POINT
5
79
100
AcDbEntity
8
1
62
256
6
ByLayer
370
18
48
1
60
1
100
AcDbPoint
10
-48
20
-9.525
30
0
39
0
210
0
220
0
230
1
50
360
0
POINT
5
7A
100
AcDbEntity
8
1
62
256
6
ByLayer
370
18
48
1
60
1
100
AcDbPoint
10
0
20
-9.525
30
0
39
0
210
0
220
0
230
1
50
360
0
POINT
5
7B
100
AcDbEntity
8
1
62
256
6
ByLayer
370
18
48
1
60
1
100
AcDbPoint
10
123.5
20
0
30
0
39
0
210
0
220
0
230
1
50
360
0
POINT
5
7C
100
AcDbEntity
8
1
62
256
6
ByLayer
370
18
48
1
60
1
100
AcDbPoint
10
26
20
8.731
30
0
39
0
210
0
220
0
230
1
50
360
0
SPLINE
5
C3
100
AcDbEntity
8
1
62
256
6
ByLayer
370
18
48
1
60
0
100
AcDbSpline
70
4
71
3
72
14
73
10
40
0
40
0
40
0
40
0
40
0.25
40
0.25
40
0.5
40
0.5
40
0.75
40
0.75
40
1
40
1
40
1
40
1
41
1
10
12.8629278275398
20
7.45500141100828
30
0
41
1
10
12.6197420037219
20
7.48821974147219
30
0
41
1
10
12.3779654877247
20
7.52153765463507
30
0
41
1
10
11.8967674411128
20
7.58735766154612
30
0
41
1
10
11.6573445235534
20
7.61985979248016
30
0
41
1
10
11.180518764459
20
7.68323536587485
30
0
41
1
10
10.9431149114411
20
7.71411018660962
30
0
41
1
10
10.4701611584548
20
7.77360186038069
30
0
41
1
10
10.2346107996228
20
7.80222133613518
30
0
41
1
10
10
20
7.8294586602473
30
0
0
SPLINE
5
C4
100
AcDbEntity
8
1
62
256
6
ByLayer
370
18
48
1
60
0
100
AcDbSpline
70
4
71
3
72
20
73
16
40
0
40
0
40
0
40
0
40
0.249999999999996
40
0.249999999999996
40
0.374999999999994
40
0.374999999999994
40
0.499999999999992
40
0.499999999999992
40
0.749999999999996
40
0.749999999999996
40
0.874999999999998
40
0.874999999999998
40
0.937499999999999
40
0.937499999999999
40
1
40
1
40
1
40
1
41
1
10
120.322175884654
20
-1.24764201024462
30
0
41
1
10
119.568991099294
20
-0.977263008373143
30
0
41
1
10
118.816534055939
20
-0.705444495861684
30
0
41
1
10
117.689317631934
20
-0.294519174640101
30
0
41
1
10
117.31389618921
20
-0.156811536520081
30
0
41
1
10
116.562717122542
20
0.117379851819493
30
0
41
1
10
116.187029906427
20
0.254059421336194
30
0
41
1
10
115.059760116385
20
0.66309028187473
30
0
41
1
10
114.307954025495
20
0.934392832417416
30
0
41
1
10
113.180126091787
20
1.3401511350481
30
0
41
1
10
112.804168697219
20
1.47521813389966
30
0
41
1
10
112.240245155594
20
1.67763163779955
30
0
41
1
10
112.052286484871
20
1.74510926744281
30
0
41
1
10
111.676263468268
20
1.87970036091627
30
0
41
1
10
111.488175096999
20
1.94674804732224
30
0
41
1
10
111.3
20
2.01352113820744
30
0
0
SPLINE
5
C5
100
AcDbEntity
8
1
62
256
6
ByLayer
370
18
48
1
60
0
100
AcDbSpline
70
4
71
3
72
83
73
79
40
0
40
0
40
0
40
0
40
0.0312500000000006
40
0.0312500000000006
40
0.0625000000000012
40
0.0625000000000012
40
0.125000000000001
40
0.125000000000001
40
0.140625000000001
40
0.140625000000001
40
0.156250000000001
40
0.156250000000001
40
0.1875
40
0.1875
40
0.249999999999998
40
0.249999999999998
40
0.281249999999997
40
0.281249999999997
40
0.296874999999998
40
0.296874999999998
40
0.312499999999999
40
0.312499999999999
40
0.34375
40
0.34375
40
0.375000000000001
40
0.375000000000001
40
0.406250000000003
40
0.406250000000003
40
0.437500000000004
40
0.437500000000004
40
0.445312500000004
40
0.445312500000004
40
0.453125000000004
40
0.468750000000004
40
0.468750000000004
40
0.500000000000005
40
0.500000000000005
40
0.531250000000006
40
0.531250000000006
40
0.539062500000007
40
0.539062500000007
40
0.546875000000007
40
0.562500000000008
40
0.562500000000008
40
0.593750000000012
40
0.593750000000012
40
0.625000000000015
40
0.625000000000015
40
0.632812500000016
40
0.632812500000016
40
0.640625000000017
40
0.656250000000019
40
0.656250000000019
40
0.687500000000023
40
0.687500000000023
40
0.718750000000026
40
0.718750000000026
40
0.726562500000026
40
0.726562500000026
40
0.734375000000026
40
0.734375000000026
40
0.750000000000026
40
0.750000000000026
40
0.781250000000024
40
0.781250000000024
40
0.812500000000022
40
0.84375000000002
40
0.84375000000002
40
0.851562500000019
40
0.851562500000019
40
0.859375000000018
40
0.875000000000016
40
0.875000000000016
40
0.906250000000012
40
0.937500000000008
40
0.968750000000004
40
0.968750000000004
40
1
40
1
40
1
40
1
41
1
10
120.322175884652
20
8.45374040857718
30
0
41
1
10
120.376707422185
20
8.31851777851119
30
0
41
1
10
120.431323338784
20
8.18126395377118
30
0
41
1
10
120.540817344941
20
7.90301267995073
30
0
41
1
10
120.595695340782
20
7.7620145156811
30
0
41
1
10
120.76082063343
20
7.33374907385709
30
0
41
1
10
120.871575127744
20
7.04123578504309
30
0
41
1
10
121.010971367389
20
6.6675034528127
30
0
41
1
10
121.038896956522
20
6.59235079141155
30
0
41
1
10
121.094837941723
20
6.44124252771192
30
0
41
1
10
121.122864443556
20
6.36525581284698
30
0
41
1
10
121.206576348554
20
6.13745006593265
30
0
41
1
10
121.262061622993
20
5.98534291006013
30
0
41
1
10
121.427482357271
20
5.52830806857287
30
0
41
1
10
121.536437181459
20
5.22268759985158
30
0
41
1
10
121.696808911746
20
4.76252360484176
30
0
41
1
10
121.749744391326
20
4.60884214965466
30
0
41
1
10
121.828070446352
20
4.37777666144171
30
0
41
1
10
121.853998187942
20
4.30066375033468
30
0
41
1
10
121.905421484939
20
4.14623067866657
30
0
41
1
10
121.930920807578
20
4.06889671553
30
0
41
1
10
122.006275600834
20
3.83766163002264
30
0
41
1
10
122.055125576832
20
3.68415739408212
30
0
41
1
10
122.149158714022
20
3.37820335492313
30
0
41
1
10
122.194348077041
20
3.22575456234634
30
0
41
1
10
122.279686055129
20
2.92159521670337
30
0
41
1
10
122.319841927653
20
2.76988533840924
30
0
41
1
10
122.393042441259
20
2.46679239587655
30
0
41
1
10
122.426090440399
20
2.31540812707962
30
0
41
1
10
122.461110694239
20
2.12606557123692
30
0
41
1
10
122.467805135904
20
2.08814817048724
30
0
41
1
10
122.480469637741
20
2.01251470451319
30
0
41
1
10
122.498367591857
20
1.89945777291709
30
0
41
1
10
122.512776093523
20
1.78759550159649
30
0
41
1
10
122.536469490901
20
1.56552478688113
30
0
41
1
10
122.545383342379
20
1.41967494345673
30
0
41
1
10
122.547765431684
20
1.13288407530894
30
0
41
1
10
122.541219414469
20
0.991945369729734
30
0
41
1
10
122.523432309247
20
0.819300122108984
30
0
41
1
10
122.519391502674
20
0.784891471235454
30
0
41
1
10
122.510418136369
20
0.716738104550188
30
0
41
1
10
122.495638001459
20
0.615589876463559
30
0
41
1
10
122.477125339834
20
0.517647910133689
30
0
41
1
10
122.435741966724
20
0.32593744434223
30
0
41
1
10
122.402366018321
20
0.203687372648886
30
0
41
1
10
122.327039006119
20
-0.0301225934278762
30
0
41
1
10
122.285094377834
20
-0.141685661125876
30
0
41
1
10
122.228693386514
20
-0.274553466474344
30
0
41
1
10
122.217198990019
20
-0.300826755126081
30
0
41
1
10
122.193910618879
20
-0.352547144766049
30
0
41
1
10
122.1585411844
20
-0.428865287641315
30
0
41
1
10
122.12199609767
20
-0.501469634752027
30
0
41
1
10
122.047621351791
20
-0.641873269585005
30
0
41
1
10
121.996342310404
20
-0.72908227990132
30
0
41
1
10
121.891384423568
20
-0.891130554099021
30
0
41
1
10
121.837698533124
20
-0.965967548676815
30
0
41
1
10
121.769413039619
20
-1.05178863188274
30
0
41
1
10
121.755696167124
20
-1.06856568394565
30
0
41
1
10
121.728147945262
20
-1.10134209649462
30
0
41
1
10
121.714320795991
20
-1.11733521644339
30
0
41
1
10
121.672857867405
20
-1.16394290105671
30
0
41
1
10
121.645180825915
20
-1.19325921898582
30
0
41
1
10
121.56208773695
20
-1.27605758824936
30
0
41
1
10
121.50661385303
20
-1.32439964498676
30
0
41
1
10
121.395609997457
20
-1.40770469814748
30
0
41
1
10
121.28454661839
20
-1.47762802709096
30
0
41
1
10
121.173335874483
20
-1.52080519088958
30
0
41
1
10
121.103724424307
20
-1.53924606373982
30
0
41
1
10
121.089804838074
20
-1.54250294306644
30
0
41
1
10
121.062079896818
20
-1.54813369873634
30
0
41
1
10
121.020617694201
20
-1.55526784175626
30
0
41
1
10
120.979517702208
20
-1.55850883589204
30
0
41
1
10
120.89776502002
20
-1.55988576386875
30
0
41
1
10
120.789953964634
20
-1.54812598132105
30
0
41
1
10
120.631251393349
20
-1.49039919937948
30
0
41
1
10
120.527088025792
20
-1.42511702383541
30
0
41
1
10
120.423556609553
20
-1.346129543594
30
0
41
1
10
120.372544937638
20
-1.30011725713786
30
0
41
1
10
120.322175884652
20
-1.24764201024394
30
0
0
SPLINE
5
C6
100
AcDbEntity
8
1
62
256
6
ByLayer
370
18
48
1
60
0
100
AcDbSpline
70
4
71
3
72
20
73
16
40
0
40
0
40
0
40
0
40
0.0702214485460125
40
0.0702214485460125
40
0.163199303691413
40
0.163199303691413
40
0.256177158836812
40
0.256177158836812
40
0.349155013982212
40
0.349155013982212
40
0.442132869127613
40
0.442132869127613
40
0.628088579418412
40
0.628088579418412
40
1
40
1
40
1
40
1
41
1
10
114.259085966091
20
8.72990922247809
30
0
41
1
10
114.40099497305
20
8.72994016232659
30
0
41
1
10
114.542879599105
20
8.72951404656291
30
0
41
1
10
114.872566267412
20
8.72745751424819
30
0
41
1
10
115.060348385528
20
8.7254808496327
30
0
41
1
10
115.435810013234
20
8.7199016266199
30
0
41
1
10
115.62347885081
20
8.71629700039099
30
0
41
1
10
115.998762255331
20
8.70745186020594
30
0
41
1
10
116.186410089578
20
8.70221645434245
30
0
41
1
10
116.561866314463
20
8.69016694454558
30
0
41
1
10
116.749653734646
20
8.68334957800423
30
0
41
1
10
117.313158566923
20
8.66053508910298
30
0
41
1
10
117.689012037675
20
8.64217606151109
30
0
41
1
10
118.816969080874
20
8.57768246559831
30
0
41
1
10
119.569485344881
20
8.52218430372162
30
0
41
1
10
120.322175884654
20
8.453740408577
30
0
0
SPLINE
5
C7
100
AcDbEntity
8
1
62
256
6
ByLayer
370
18
48
1
60
0
100
AcDbSpline
70
4
71
3
72
48
73
44
40
0
40
0
40
0
40
0
40
0.0645119663474545
40
0.0645119663474545
40
0.129023932694909
40
0.129023932694909
40
0.193535899042364
40
0.193535899042364
40
0.225791882216091
40
0.225791882216091
40
0.258047865389818
40
0.258047865389818
40
0.322559831737272
40
0.322559831737272
40
0.387071798084727
40
0.387071798084727
40
0.451583764432182
40
0.451583764432182
40
0.48383974760591
40
0.48383974760591
40
0.516095730779638
40
0.516095730779638
40
0.580607697127092
40
0.580607697127092
40
0.645119663474546
40
0.645119663474546
40
0.709631629822001
40
0.709631629822001
40
0.741887612995728
40
0.741887612995728
40
0.774143596169455
40
0.774143596169455
40
0.838655562516911
40
0.838655562516911
40
0.903167528864367
40
0.903167528864367
40
0.935423512038095
40
0.935423512038095
40
0.951551503624959
40
0.951551503624959
40
0.967679495211823
40
0.967679495211823
40
1
40
1
40
1
40
1
41
1
10
16.566418905184
20
-4.66900644942044
30
0
41
1
10
17.0601988723911
20
-4.80650454454403
30
0
41
1
10
17.5539930508942
20
-4.93994800981355
30
0
41
1
10
18.5413915443198
20
-5.1995200262146
30
0
41
1
10
19.0349950194462
20
-5.32564958958034
30
0
41
1
10
20.0218048681915
20
-5.57114135713678
30
0
41
1
10
20.5150103313244
20
-5.690505191494
30
0
41
1
10
21.2543714535383
20
-5.86472305517245
30
0
41
1
10
21.500751082999
20
-5.92198855863893
30
0
41
1
10
21.9933417618647
20
-6.03491978679909
30
0
41
1
10
22.2395351394385
20
-6.09061561141507
30
0
41
1
10
22.9784965589447
20
-6.25403979313194
30
0
41
1
10
23.4715099365007
20
-6.35840092160572
30
0
41
1
10
24.4579553713171
20
-6.55873323301429
30
0
41
1
10
24.9514017917153
20
-6.65467545972618
30
0
41
1
10
25.9385464914882
20
-6.83844380101459
30
0
41
1
10
26.4322392729188
20
-6.92627900433703
30
0
41
1
10
27.1728296269403
20
-7.05202861993186
30
0
41
1
10
27.419688925155
20
-7.09298333457906
30
0
41
1
10
27.9135066307335
20
-7.17264047124704
30
0
41
1
10
28.1603956819635
20
-7.2112006046973
30
0
41
1
10
28.9010808897498
20
-7.32303885068308
30
0
41
1
10
29.3948250266377
20
-7.39258438035057
30
0
41
1
10
30.3819833847273
20
-7.52214913398302
30
0
41
1
10
30.8754080101575
20
-7.58215470933123
30
0
41
1
10
31.8617394706284
20
-7.69281124145999
30
0
41
1
10
32.3546426620415
20
-7.74346472670007
30
0
41
1
10
33.0934758405136
20
-7.81236536637334
30
0
41
1
10
33.3396795794298
20
-7.83413333805902
30
0
41
1
10
33.8323556828471
20
-7.8749644296862
30
0
41
1
10
34.0787855101913
20
-7.89406551151126
30
0
41
1
10
34.8182794107367
20
-7.94752677359449
30
0
41
1
10
35.3115404468215
20
-7.97805620945655
30
0
41
1
10
36.2983963151142
20
-8.02908754605107
30
0
41
1
10
36.791992304076
20
-8.04958949297887
30
0
41
1
10
37.5324846932289
20
-8.07277895524143
30
0
41
1
10
37.7793323629229
20
-8.07924589185853
30
0
41
1
10
38.1496154724773
20
-8.08702695959482
30
0
41
1
10
38.2730447946448
20
-8.08930068338825
30
0
41
1
10
38.5199067495244
20
-8.09320227160973
30
0
41
1
10
38.643352399673
20
-8.0948294801731
30
0
41
1
10
39.0142112382959
20
-8.09873098006645
30
0
41
1
10
39.261619046076
20
-8.10001558145868
30
0
41
1
10
39.5090140432835
20
-8.10000255276913
30
0
0
SPLINE
5
C8
100
AcDbEntity
8
1
62
256
6
ByLayer
370
18
48
1
60
0
100
AcDbSpline
70
4
71
3
72
36
73
32
40
0
40
0
40
0
40
0
40
0.0858303532628994
40
0.0858303532628994
40
0.136617555859408
40
0.136617555859408
40
0.187404758455918
40
0.187404758455918
40
0.288979163648931
40
0.288979163648931
40
0.390553568841945
40
0.390553568841945
40
0.441340771438452
40
0.441340771438452
40
0.492127974034959
40
0.492127974034959
40
0.542915176631466
40
0.542915176631466
40
0.568308777929716
40
0.568308777929716
40
0.593702379227967
40
0.593702379227967
40
0.695276784420975
40
0.695276784420975
40
0.796851189613983
40
0.796851189613983
40
0.898425594806992
40
0.898425594806992
40
0.949212797403496
40
0.949212797403496
40
1
40
1
40
1
40
1
41
1
10
96.7202027037295
20
5.88945338809904
30
0
41
1
10
97.1374385712537
20
5.98575161218713
30
0
41
1
10
97.5545736531442
20
6.07943946841905
30
0
41
1
10
98.2182715421862
20
6.22457396223973
30
0
41
1
10
98.4649421213696
20
6.27764691950554
30
0
41
1
10
98.9581482579246
20
6.38204415079312
30
0
41
1
10
99.2046443247785
20
6.43343750892134
30
0
41
1
10
99.944327644038
20
6.58423851823554
30
0
41
1
10
100.437908791966
20
6.67993913115993
30
0
41
1
10
101.425644872572
20
6.86246922539922
30
0
41
1
10
101.919809269287
20
6.94927957132259
30
0
41
1
10
102.661356737038
20
7.07304579841292
30
0
41
1
10
102.908573050948
20
7.11322262413407
30
0
41
1
10
103.402711604618
20
7.19139048658889
30
0
41
1
10
103.649678569164
20
7.22938938215813
30
0
41
1
10
104.14338523649
20
7.30322356253871
30
0
41
1
10
104.390117847198
20
7.3390675360157
30
0
41
1
10
104.760055055442
20
7.3911730226655
30
0
41
1
10
104.88334686128
20
7.40825643047904
30
0
41
1
10
105.129960607398
20
7.44176825966463
30
0
41
1
10
105.253283747298
20
7.4581958181019
30
0
41
1
10
105.869966078041
20
7.5387240668295
30
0
41
1
10
106.363513884284
20
7.5980211308632
30
0
41
1
10
107.350728823689
20
7.70686596458012
30
0
41
1
10
107.844409527005
20
7.75639802575361
30
0
41
1
10
108.831713031412
20
7.84583886357828
30
0
41
1
10
109.325330874484
20
7.88575099316202
30
0
41
1
10
110.065579096815
20
7.93831755945374
30
0
41
1
10
110.312259664297
20
7.95463874848147
30
0
41
1
10
110.805912590947
20
7.98461824254781
30
0
41
1
10
111.052892084123
20
7.99827980348778
30
0
41
1
10
111.3
20
8.01064384679503
30
0
0
SPLINE
5
C9
100
AcDbEntity
8
1
62
256
6
ByLayer
370
18
48
1
60
0
100
AcDbSpline
70
4
71
3
72
66
73
62
40
0
40
0
40
0
40
0
40
0.0470167855062407
40
0.0470167855062407
40
0.0940335710124814
40
0.0940335710124814
40
0.141050356518722
40
0.141050356518722
40
0.164558749271842
40
0.164558749271842
40
0.188067142024963
40
0.188067142024963
40
0.235083927531201
40
0.235083927531201
40
0.28210071303744
40
0.28210071303744
40
0.305609105790559
40
0.305609105790559
40
0.329117498543678
40
0.329117498543678
40
0.352625891296797
40
0.352625891296797
40
0.376134284049917
40
0.376134284049917
40
0.423151069556153
40
0.423151069556153
40
0.470167855062389
40
0.470167855062389
40
0.493676247815506
40
0.493676247815506
40
0.517184640568623
40
0.517184640568623
40
0.564201426074859
40
0.564201426074859
40
0.611218211581095
40
0.611218211581095
40
0.634726604334213
40
0.634726604334213
40
0.658234997087331
40
0.658234997087331
40
0.68174338984045
40
0.68174338984045
40
0.705251782593568
40
0.705251782593568
40
0.752268568099806
40
0.752268568099806
40
0.799285353606044
40
0.799285353606044
40
0.822793746359164
40
0.822793746359164
40
0.846302139112283
40
0.846302139112283
40
0.893318924618524
40
0.893318924618524
40
0.940335710124764
40
0.940335710124764
40
0.963844102877884
40
0.963844102877884
40
0.987352495631003
40
0.987352495631003
40
1
40
1
40
1
40
1
41
1
10
111.3
20
1.66622315292921
30
0
41
1
10
110.78649138489
20
1.8362363131051
30
0
41
1
10
110.273170654093
20
2.0043830215875
30
0
41
1
10
109.246985841364
20
2.33726360638786
30
0
41
1
10
108.734119374298
20
2.50199055284929
30
0
41
1
10
107.708937447591
20
2.82830171880806
30
0
41
1
10
107.196637683012
20
2.98992950094242
30
0
41
1
10
106.428648360505
20
3.23008349509345
30
0
41
1
10
106.172681339818
20
3.30962121477347
30
0
41
1
10
105.660588709828
20
3.46708355900279
30
0
41
1
10
105.404491263009
20
3.54508618207956
30
0
41
1
10
104.636065906879
20
3.77697910536071
30
0
41
1
10
104.123604603039
20
3.92875602315297
30
0
41
1
10
103.0984126886
20
4.22692420795394
30
0
41
1
10
102.585681082588
20
4.373313356523
30
0
41
1
10
101.816464092634
20
4.58902532750395
30
0
41
1
10
101.560037771107
20
4.6602814140559
30
0
41
1
10
101.0471527618
20
4.8015048441012
30
0
41
1
10
100.790685345693
20
4.87144840805084
30
0
41
1
10
100.27739527508
20
5.00925383799429
30
0
41
1
10
100.020581725622
20
5.07719615097434
30
0
41
1
10
99.5071814006513
20
5.21106257081073
30
0
41
1
10
99.2505327654131
20
5.27700445294141
30
0
41
1
10
98.480754952407
20
5.47191290424038
30
0
41
1
10
97.9677928513341
20
5.59796515006423
30
0
41
1
10
96.9424056420456
20
5.84251980765711
30
0
41
1
10
96.4299861935478
20
5.96103437919214
30
0
41
1
10
95.6618431897388
20
6.13321758105928
30
0
41
1
10
95.4058983846854
20
6.18971800848439
30
0
41
1
10
94.8938733116976
20
6.30026817993269
30
0
41
1
10
94.6378086342384
20
6.35435203330985
30
0
41
1
10
93.8694765007723
20
6.51309816859404
30
0
41
1
10
93.3570731351753
20
6.61426386164666
30
0
41
1
10
92.3319890831497
20
6.80748618360246
30
0
41
1
10
91.8193060991026
20
6.89953970434743
30
0
41
1
10
91.0501532099539
20
7.03085664294176
30
0
41
1
10
90.7937476208034
20
7.07350047029769
30
0
41
1
10
90.2809026652729
20
7.15651943138911
30
0
41
1
10
90.0244934359466
20
7.19693451282296
30
0
41
1
10
89.5114223392201
20
7.275167242023
30
0
41
1
10
89.254682646398
20
7.31296592079801
30
0
41
1
10
88.741192782019
20
7.38591103780604
30
0
41
1
10
88.4844981987495
20
7.4210508935542
30
0
41
1
10
87.7145809587301
20
7.52252945212513
30
0
41
1
10
87.2015230898272
20
7.58493136976028
30
0
41
1
10
86.1759328658583
20
7.69938818211756
30
0
41
1
10
85.6634037305508
20
7.75144685181104
30
0
41
1
10
84.8950914935469
20
7.82175612514837
30
0
41
1
10
84.6390902545652
20
7.84390977211356
30
0
41
1
10
84.1271196430578
20
7.8854980332832
30
0
41
1
10
83.8710933681466
20
7.90489430768625
30
0
41
1
10
83.1028557251767
20
7.95891139615892
30
0
41
1
10
82.5905098681837
20
7.98938402214876
30
0
41
1
10
81.5655339240375
20
8.03941723560968
30
0
41
1
10
81.0529014646838
20
8.05897724717528
30
0
41
1
10
80.2838125202806
20
8.08010841436118
30
0
41
1
10
80.0274273319494
20
8.08578259167368
30
0
41
1
10
79.514622066992
20
8.0943667347419
30
0
41
1
10
79.2582146106196
20
8.09727715944794
30
0
41
1
10
78.8637908713646
20
8.09959648933227
30
0
41
1
10
78.7257890521901
20
8.10000079273712
30
0
41
1
10
78.5877480023574
20
8.0999997211253
30
0
0
SPLINE
5
CA
100
AcDbEntity
8
1
62
256
6
ByLayer
370
18
48
1
60
0
100
AcDbSpline
70
4
71
3
72
20
73
16
40
0
40
0
40
0
40
0
40
0.096331119240523
40
0.096331119240523
40
0.277064895392419
40
0.277064895392419
40
0.367431783468366
40
0.367431783468366
40
0.457798671544312
40
0.457798671544312
40
0.638532447696209
40
0.638532447696209
40
0.819266223848105
40
0.819266223848105
40
1
40
1
40
1
40
1
41
1
10
21.3675674710749
20
-5.89196986305168
30
0
41
1
10
21.0944888593997
20
-5.95505126388238
30
0
41
1
10
20.8214489561571
20
-6.01696584559045
30
0
41
1
10
20.0362693521942
20
-6.19173408245265
30
0
41
1
10
19.5242469305242
20
-6.30169552405692
30
0
41
1
10
18.7565381998978
20
-6.46064129290554
30
0
41
1
10
18.5007116679475
20
-6.51266082431209
30
0
41
1
10
17.989040174696
20
-6.61444978893968
30
0
41
1
10
17.7331382668073
20
-6.66412114781141
30
0
41
1
10
16.9651961762399
20
-6.80943574924592
30
0
41
1
10
16.4529439029961
20
-6.90142723738049
30
0
41
1
10
15.4279513820303
20
-7.07587616335147
30
0
41
1
10
14.915210636023
20
-7.1583330334723
30
0
41
1
10
13.8893333483498
20
-7.31378113245989
30
0
41
1
10
13.3761971560245
20
-7.38677440815633
30
0
41
1
10
12.8629278275399
20
-7.45500141100794
30
0
0
SPLINE
5
CB
100
AcDbEntity
8
1
62
256
6
ByLayer
370
18
48
1
60
0
100
AcDbSpline
70
4
71
3
72
10
73
6
40
0
40
0
40
0
40
0
40
0.762667546475645
40
0.762667546475645
40
1
40
1
40
1
40
1
41
1
10
111.3
20
-8.66330142830651
30
0
41
1
10
112.052731109871
20
-8.69710663268611
30
0
41
1
10
112.805267590374
20
-8.71792092372539
30
0
41
1
10
113.791249698969
20
-8.72856571422602
30
0
41
1
10
114.025200486762
20
-8.729858226121
30
0
41
1
10
114.259085047891
20
-8.72990922227794
30
0
0
SPLINE
5
CC
100
AcDbEntity
8
1
62
256
6
ByLayer
370
18
48
1
60
0
100
AcDbSpline
70
4
71
3
72
182
73
178
40
0
40
0
40
0
40
0
40
0.0042299643717653
40
0.0042299643717653
40
0.0124594687984434
40
0.0124594687984434
40
0.0289184776517995
40
0.0289184776517995
40
0.0453774865051556
40
0.0453774865051556
40
0.0618364953585118
40
0.0618364953585118
40
0.0700659997851896
40
0.0700659997851896
40
0.0782955042118675
40
0.0782955042118675
40
0.0947545130652232
40
0.0947545130652232
40
0.111213521918579
40
0.111213521918579
40
0.127672530771935
40
0.127672530771935
40
0.135902035198613
40
0.135902035198613
40
0.14413153962529
40
0.14413153962529
40
0.160590548478646
40
0.160590548478646
40
0.177049557332002
40
0.177049557332002
40
0.18527906175868
40
0.18527906175868
40
0.189393813972019
40
0.189393813972019
40
0.193508566185358
40
0.193508566185358
40
0.209967575038713
40
0.209967575038713
40
0.226426583892067
40
0.226426583892067
40
0.242885592745423
40
0.242885592745423
40
0.2511150971721
40
0.2511150971721
40
0.255229849385439
40
0.255229849385439
40
0.259344601598778
40
0.259344601598778
40
0.275803610452136
40
0.275803610452136
40
0.292262619305493
40
0.292262619305493
40
0.308721628158851
40
0.308721628158851
40
0.31283638037219
40
0.31283638037219
40
0.31695113258553
40
0.31695113258553
40
0.325180637012209
40
0.325180637012209
40
0.341639645865568
40
0.341639645865568
40
0.358098654718927
40
0.358098654718927
40
0.366328159145607
40
0.366328159145607
40
0.374557663572286
40
0.374557663572286
40
0.378672415785626
40
0.378672415785626
40
0.382787167998966
40
0.391016672425647
40
0.391016672425647
40
0.407475681279008
40
0.407475681279008
40
0.423934690132369
40
0.423934690132369
40
0.432164194559049
40
0.432164194559049
40
0.44039369898573
40
0.44039369898573
40
0.45685270783909
40
0.45685270783909
40
0.473311716692451
40
0.473311716692451
40
0.489770725545812
40
0.489770725545812
40
0.498000229972492
40
0.498000229972492
40
0.502114982185832
40
0.502114982185832
40
0.506229734399172
40
0.506229734399172
40
0.522688743252533
40
0.522688743252533
40
0.539147752105893
40
0.539147752105893
40
0.555606760959253
40
0.555606760959253
40
0.563836265385933
40
0.563836265385933
40
0.572065769812614
40
0.572065769812614
40
0.588524778665974
40
0.588524778665974
40
0.604983787519334
40
0.604983787519334
40
0.613213291946015
40
0.613213291946015
40
0.621442796372695
40
0.621442796372695
40
0.629672300799376
40
0.629672300799376
40
0.637901805226056
40
0.637901805226056
40
0.654360814079417
40
0.654360814079417
40
0.670819822932777
40
0.670819822932777
40
0.679049327359457
40
0.679049327359457
40
0.687278831786137
40
0.687278831786137
40
0.703737840639497
40
0.703737840639497
40
0.720196849492857
40
0.720196849492857
40
0.736655858346217
40
0.736655858346217
40
0.740770610559558
40
0.740770610559558
40
0.744885362772898
40
0.744885362772898
40
0.753114867199578
40
0.753114867199578
40
0.769573876052938
40
0.769573876052938
40
0.786032884906298
40
0.786032884906298
40
0.802491893759658
40
0.802491893759658
40
0.806606645972999
40
0.806606645972999
40
0.810721398186339
40
0.810721398186339
40
0.818950902613021
40
0.818950902613021
40
0.835409911466385
40
0.851868920319749
40
0.851868920319749
40
0.860098424746431
40
0.860098424746431
40
0.868327929173112
40
0.868327929173112
40
0.884786938026476
40
0.884786938026476
40
0.901245946879839
40
0.901245946879839
40
0.90947545130652
40
0.90947545130652
40
0.917704955733202
40
0.917704955733202
40
0.925934460159884
40
0.925934460159884
40
0.930049212373224
40
0.930049212373224
40
0.934163964586564
40
0.934163964586564
40
0.950622973439923
40
0.950622973439923
40
0.967081982293282
40
0.967081982293282
40
0.983540991146641
40
0.983540991146641
40
0.991770495573321
40
0.991770495573321
40
1
40
1
40
1
40
1
41
1
10
21.3671936696823
20
5.89074925035919
30
0
41
1
10
21.4938325984996
20
5.92019620635779
30
0
41
1
10
21.6204506450051
20
5.94943085328143
30
0
41
1
10
21.9933417618647
20
6.03491978679912
30
0
41
1
10
22.2395351394385
20
6.0906156114151
30
0
41
1
10
22.9784965589448
20
6.25403979313194
30
0
41
1
10
23.4715099365007
20
6.35840092160572
30
0
41
1
10
24.4579553713171
20
6.55873323301432
30
0
41
1
10
24.9514017917153
20
6.65467545972621
30
0
41
1
10
25.9385464914882
20
6.83844380101462
30
0
41
1
10
26.4322392729189
20
6.92627900433706
30
0
41
1
10
27.1728296269403
20
7.05202861993189
30
0
41
1
10
27.419688925155
20
7.09298333457906
30
0
41
1
10
27.9135066307335
20
7.17264047124706
30
0
41
1
10
28.1603956819635
20
7.21120060469732
30
0
41
1
10
28.9010808897498
20
7.3230388506831
30
0
41
1
10
29.3948250266377
20
7.39258438035057
30
0
41
1
10
30.3819833847274
20
7.52214913398302
30
0
41
1
10
30.8754080101575
20
7.58215470933123
30
0
41
1
10
31.8617394706284
20
7.69281124145999
30
0
41
1
10
32.3546426620415
20
7.74346472670004
30
0
41
1
10
33.0934758405136
20
7.81236536637334
30
0
41
1
10
33.3396795794298
20
7.83413333805905
30
0
41
1
10
33.8323556828472
20
7.8749644296862
30
0
41
1
10
34.0787855101913
20
7.89406551151126
30
0
41
1
10
34.8182794107368
20
7.94752677359449
30
0
41
1
10
35.3115404468215
20
7.97805620945655
30
0
41
1
10
36.2983963151143
20
8.02908754605107
30
0
41
1
10
36.7919923040761
20
8.04958949297887
30
0
41
1
10
37.5324846932289
20
8.07277895524143
30
0
41
1
10
37.7793323629229
20
8.07924589185853
30
0
41
1
10
38.1496154724774
20
8.08702695959482
30
0
41
1
10
38.2730447946448
20
8.08930068338825
30
0
41
1
10
38.5199067495243
20
8.09320227160973
30
0
41
1
10
38.6433523996729
20
8.09482948017308
30
0
41
1
10
39.2606273077448
20
8.10132332024705
30
0
41
1
10
39.7544629742563
20
8.10126690048182
30
0
41
1
10
40.7418992087907
20
8.09097712329111
30
0
41
1
10
41.2354984734302
20
8.08074030351051
30
0
41
1
10
42.222273019478
20
8.05012029623126
30
0
41
1
10
42.7154435090664
20
8.02973596893574
30
0
41
1
10
43.454724433424
20
7.99137868314438
30
0
41
1
10
43.7010703965433
20
7.97729294028875
30
0
41
1
10
44.0704650436125
20
7.95418440377145
30
0
41
1
10
44.1935800640423
20
7.9461532936503
30
0
41
1
10
44.4398439046889
20
7.92947298489005
30
0
41
1
10
44.5629986176139
20
7.92082779250774
30
0
41
1
10
45.1788883190922
20
7.87609284229217
30
0
41
1
10
45.6719440625457
20
7.83547197138509
30
0
41
1
10
46.6584449929362
20
7.74454663758144
30
0
41
1
10
47.1519042192972
20
7.69425079692994
30
0
41
1
10
48.1390408241605
20
7.58377790372347
30
0
41
1
10
48.6327130354658
20
7.52359521590378
30
0
41
1
10
49.2498304843441
20
7.44190842004733
30
0
41
1
10
49.3732534380721
20
7.42524514176802
30
0
41
1
10
49.6201107143905
20
7.39127605365749
30
0
41
1
10
49.7435622541081
20
7.37397179055847
30
0
41
1
10
50.1139378172259
20
7.32125159402409
30
0
41
1
10
50.3608615478113
20
7.28505443074931
30
0
41
1
10
51.1015903333136
20
7.17328951513312
30
0
41
1
10
51.5953392338146
20
7.09453590754856
30
0
41
1
10
52.5824819581696
20
6.92837527856832
30
0
41
1
10
53.0758829789046
20
6.84097868483943
30
0
41
1
10
53.8155698522248
20
6.70312647676067
30
0
41
1
10
54.0620627838682
20
6.65604737014908
30
0
41
1
10
54.5548880001068
20
6.55957328221831
30
0
41
1
10
54.8012117003793
20
6.51016274284822
30
0
41
1
10
55.1705916213023
20
6.43431321155003
30
0
41
1
10
55.2937074613377
20
6.40875297747848
30
0
41
1
10
55.5399890550787
20
6.35721026956764
30
0
41
1
10
55.9094845740709
20
6.27926076685071
30
0
41
1
10
56.2791719663458
20
6.19937719010221
30
0
41
1
10
57.0187324776122
20
6.03693574127547
30
0
41
1
10
57.512019820586
20
5.92507963165687
30
0
41
1
10
58.4988994139979
20
5.69391469719483
30
0
41
1
10
58.9924895352929
20
5.57460196989663
30
0
41
1
10
59.7329505760092
20
5.38961691554292
30
0
41
1
10
59.9797842718458
20
5.3269523902585
30
0
41
1
10
60.4734605764515
20
5.19954407200333
30
0
41
1
10
60.7203098409656
20
5.13469476616754
30
0
41
1
10
61.4610964439405
20
4.93834821707239
30
0
41
1
10
61.9549672865797
20
4.80515843297999
30
0
41
1
10
62.9424148102794
20
4.53354918722169
30
0
41
1
10
63.4360048843874
20
4.39516072732926
30
0
41
1
10
64.4227269550217
20
4.11275854694426
30
0
41
1
10
64.915853501738
20
3.96873085124739
30
0
41
1
10
65.6550469136892
20
3.74801571090629
30
0
41
1
10
65.9013460637227
20
3.67362141581631
30
0
41
1
10
66.2707184122803
20
3.56097475073358
30
0
41
1
10
66.393839956502
20
3.52327710489274
30
0
41
1
10
66.6401411902401
20
3.44775599012857
30
0
41
1
10
66.7633153478967
20
3.40991783411391
30
0
41
1
10
67.3792887887595
20
3.22030452857865
30
0
41
1
10
67.8723836365348
20
3.06723338504418
30
0
41
1
10
68.8589356206613
20
2.75766281061391
30
0
41
1
10
69.3524050291102
20
2.60119687606243
30
0
41
1
10
70.3395274465407
20
2.28430227234671
30
0
41
1
10
70.8331761117769
20
2.12386075901429
30
0
41
1
10
71.5736628951304
20
1.87977014584729
30
0
41
1
10
71.820521406334
20
1.7977435948556
30
0
41
1
10
72.314402285404
20
1.63384246211052
30
0
41
1
10
72.5613441404986
20
1.55191069329189
30
0
41
1
10
73.3021077182733
20
1.3059726737533
30
0
41
1
10
73.7958577511762
20
1.14179458286847
30
0
41
1
10
74.7829772442533
20
0.812411656257865
30
0
41
1
10
75.2763502849339
20
0.647217532058363
30
0
41
1
10
76.0159695054761
20
0.398193569692779
30
0
41
1
10
76.2624359305179
20
0.314980367819629
30
0
41
1
10
76.7552010579063
20
0.148080812620719
30
0
41
1
10
77.0014746815191
20
0.0643195311776594
30
0
41
1
10
77.4939712442491
20
-0.103326036036009
30
0
41
1
10
77.7402792945507
20
-0.186956028293366
30
0
41
1
10
78.2330893549063
20
-0.353608554088851
30
0
41
1
10
78.4795728566782
20
-0.436686390777766
30
0
41
1
10
79.2191929054515
20
-0.685371807754365
30
0
41
1
10
79.712504019701
20
-0.850416367278825
30
0
41
1
10
80.699399299753
20
-1.1795790291275
30
0
41
1
10
81.1929794983575
20
-1.34370897518272
30
0
41
1
10
81.9334041433134
20
-1.58965630440505
30
0
41
1
10
82.1802222232035
20
-1.67159505196741
30
0
41
1
10
82.6738608437141
20
-1.83543615609867
30
0
41
1
10
82.9207387192599
20
-1.91735199582871
30
0
41
1
10
83.6615926111867
20
-2.16096733208389
30
0
41
1
10
84.1554808952153
20
-2.3210002173372
30
0
41
1
10
85.1429321896331
20
-2.63730502848773
30
0
41
1
10
85.636509394522
20
-2.79353426362081
30
0
41
1
10
86.6231708667442
20
-3.10271574081821
30
0
41
1
10
87.1162496486585
20
-3.25568312689006
30
0
41
1
10
87.7321668695919
20
-3.44512672291887
30
0
41
1
10
87.8553288447574
20
-3.48292662154736
30
0
41
1
10
88.1016078251846
20
-3.55835190656734
30
0
41
1
10
88.2247255204983
20
-3.59597520795191
30
0
41
1
10
88.5941072634268
20
-3.70832410772837
30
0
41
1
10
88.8404434047945
20
-3.78241366661334
30
0
41
1
10
89.5797032803737
20
-4.00226594453326
30
0
41
1
10
90.0728328032106
20
-4.14573741399582
30
0
41
1
10
91.0594284442848
20
-4.4271827935647
30
0
41
1
10
91.5529040556468
20
-4.56513212002343
30
0
41
1
10
92.5400046089221
20
-4.83596382528037
30
0
41
1
10
93.033623870457
20
-4.96885947156304
30
0
41
1
10
93.6506504301939
20
-5.13194319526895
30
0
41
1
10
93.7740592417697
20
-5.16439962297312
30
0
41
1
10
94.0209483298188
20
-5.22883907478212
30
0
41
1
10
94.1444414801874
20
-5.26080813133163
30
0
41
1
10
94.5149018103007
20
-5.35590232589027
30
0
41
1
10
94.7618915467658
20
-5.41824537953985
30
0
41
1
10
95.5028416599629
20
-5.6023144556469
30
0
41
1
10
96.4907142594677
20
-5.83987832641125
30
0
41
1
10
97.4780879191896
20
-6.06271390929754
30
0
41
1
10
98.2182715421862
20
-6.22457396223976
30
0
41
1
10
98.4649421213695
20
-6.27764691950554
30
0
41
1
10
98.9581482579244
20
-6.38204415079312
30
0
41
1
10
99.2046443247785
20
-6.43343750892132
30
0
41
1
10
99.9443276440379
20
-6.58423851823562
30
0
41
1
10
100.437908791965
20
-6.67993913115993
30
0
41
1
10
101.425644872572
20
-6.86246922539922
30
0
41
1
10
101.919809269287
20
-6.94927957132262
30
0
41
1
10
102.661356737038
20
-7.07304579841292
30
0
41
1
10
102.908573050948
20
-7.11322262413407
30
0
41
1
10
103.402711604618
20
-7.19139048658889
30
0
41
1
10
103.649678569164
20
-7.22938938215813
30
0
41
1
10
104.14338523649
20
-7.30322356253871
30
0
41
1
10
104.390117847198
20
-7.33906753601576
30
0
41
1
10
104.760055055442
20
-7.39117302266547
30
0
41
1
10
104.88334686128
20
-7.40825643047904
30
0
41
1
10
105.129960607398
20
-7.44176825966463
30
0
41
1
10
105.253283747297
20
-7.4581958181019
30
0
41
1
10
105.869966078041
20
-7.5387240668295
30
0
41
1
10
106.363513884284
20
-7.5980211308632
30
0
41
1
10
107.350728823689
20
-7.70686596458015
30
0
41
1
10
107.844409527005
20
-7.75639802575361
30
0
41
1
10
108.831713031412
20
-7.84583886357828
30
0
41
1
10
109.325330874484
20
-7.88575099316202
30
0
41
1
10
110.065579096815
20
-7.93831755945376
30
0
41
1
10
110.312259664297
20
-7.95463874848147
30
0
41
1
10
110.805912590947
20
-7.98461824254781
30
0
41
1
10
111.052892084123
20
-7.99827980348778
30
0
41
1
10
111.3
20
-8.01064384679503
30
0
0
SPLINE
5
CD
100
AcDbEntity
8
1
62
256
6
ByLayer
370
18
48
1
60
0
100
AcDbSpline
70
4
71
3
72
153
73
149
40
0
40
0
40
0
40
0
40
0.0095741176252072
40
0.0095741176252072
40
0.0187447276471963
40
0.0187447276471963
40
0.0279153376691854
40
0.0279153376691854
40
0.0462565577131627
40
0.0462565577131627
40
0.06459777775714
40
0.06459777775714
40
0.0737683877791286
40
0.0737683877791286
40
0.0829389978011173
40
0.0829389978011173
40
0.0921096078231059
40
0.0921096078231059
40
0.101280217845095
40
0.101280217845095
40
0.119621437889072
40
0.119621437889072
40
0.137962657933049
40
0.137962657933049
40
0.147133267955038
40
0.147133267955038
40
0.156303877977027
40
0.156303877977027
40
0.174645098021004
40
0.174645098021004
40
0.192986318064981
40
0.192986318064981
40
0.20215692808697
40
0.20215692808697
40
0.211327538108959
40
0.211327538108959
40
0.220498148130949
40
0.220498148130949
40
0.229668758152938
40
0.229668758152938
40
0.248009978196915
40
0.266351198240893
40
0.266351198240893
40
0.275521808262882
40
0.275521808262882
40
0.284692418284872
40
0.284692418284872
40
0.30303363832885
40
0.30303363832885
40
0.321374858372828
40
0.321374858372828
40
0.339716078416806
40
0.339716078416806
40
0.348886688438795
40
0.348886688438795
40
0.358057298460784
40
0.358057298460784
40
0.376398518504763
40
0.376398518504763
40
0.394739738548741
40
0.394739738548741
40
0.40391034857073
40
0.40391034857073
40
0.413080958592719
40
0.413080958592719
40
0.431422178636698
40
0.431422178636698
40
0.449763398680676
40
0.449763398680676
40
0.468104618724655
40
0.468104618724655
40
0.477275228746644
40
0.477275228746644
40
0.486445838768633
40
0.486445838768633
40
0.504787058812612
40
0.504787058812612
40
0.523128278856591
40
0.523128278856591
40
0.53229888887858
40
0.53229888887858
40
0.54146949890057
40
0.54146949890057
40
0.559810718944548
40
0.559810718944548
40
0.578151938988526
40
0.578151938988526
40
0.596493159032504
40
0.596493159032504
40
0.605663769054493
40
0.605663769054493
40
0.614834379076482
40
0.614834379076482
40
0.624004989098471
40
0.624004989098471
40
0.63317559912046
40
0.63317559912046
40
0.651516819164437
40
0.651516819164437
40
0.669858039208414
40
0.669858039208414
40
0.679028649230403
40
0.679028649230403
40
0.688199259252392
40
0.688199259252392
40
0.706540479296369
40
0.706540479296369
40
0.724881699340347
40
0.724881699340347
40
0.734052309362335
40
0.734052309362335
40
0.743222919384324
40
0.743222919384324
40
0.752393529406312
40
0.752393529406312
40
0.761564139428301
40
0.761564139428301
40
0.779905359472278
40
0.779905359472278
40
0.798246579516255
40
0.798246579516255
40
0.807417189538243
40
0.807417189538243
40
0.816587799560232
40
0.816587799560232
40
0.834929019604209
40
0.834929019604209
40
0.853270239648185
40
0.853270239648185
40
0.862440849670174
40
0.862440849670174
40
0.871611459692162
40
0.871611459692162
40
0.889952679736138
40
0.889952679736138
40
0.908293899780115
40
0.908293899780115
40
0.926635119824091
40
0.926635119824091
40
0.93580572984608
40
0.93580572984608
40
0.944976339868068
40
0.944976339868068
40
0.963317559912046
40
0.963317559912046
40
0.981658779956023
40
0.981658779956023
40
1
40
1
40
1
40
1
41
1
10
96.7200900584109
20
-5.8930130036116
30
0
41
1
10
96.4526067464096
20
-5.95496844944282
30
0
41
1
10
96.185204644283
20
-6.01590342141657
30
0
41
1
10
95.6618431897388
20
-6.13321758105928
30
0
41
1
10
95.4058983846854
20
-6.18971800848436
30
0
41
1
10
94.8938733116976
20
-6.30026817993269
30
0
41
1
10
94.6378086342385
20
-6.35435203330985
30
0
41
1
10
93.8694765007723
20
-6.51309816859404
30
0
41
1
10
93.3570731351753
20
-6.61426386164666
30
0
41
1
10
92.3319890831496
20
-6.80748618360246
30
0
41
1
10
91.8193060991025
20
-6.89953970434743
30
0
41
1
10
91.0501532099538
20
-7.03085664294173
30
0
41
1
10
90.7937476208034
20
-7.07350047029769
30
0
41
1
10
90.2809026652729
20
-7.15651943138911
30
0
41
1
10
90.0244934359466
20
-7.19693451282299
30
0
41
1
10
89.5114223392201
20
-7.275167242023
30
0
41
1
10
89.2546826463979
20
-7.31296592079801
30
0
41
1
10
88.7411927820189
20
-7.38591103780604
30
0
41
1
10
88.4844981987495
20
-7.42105089355422
30
0
41
1
10
87.7145809587299
20
-7.5225294521251
30
0
41
1
10
87.2015230898271
20
-7.58493136976026
30
0
41
1
10
86.1759328658583
20
-7.69938818211756
30
0
41
1
10
85.6634037305508
20
-7.75144685181104
30
0
41
1
10
84.8950914935469
20
-7.82175612514837
30
0
41
1
10
84.6390902545651
20
-7.84390977211356
30
0
41
1
10
84.1271196430578
20
-7.88549803328317
30
0
41
1
10
83.8710933681466
20
-7.90489430768625
30
0
41
1
10
83.1028557251766
20
-7.95891139615892
30
0
41
1
10
82.5905098681836
20
-7.98938402214873
30
0
41
1
10
81.5655339240375
20
-8.03941723560968
30
0
41
1
10
81.0529014646838
20
-8.05897724717528
30
0
41
1
10
80.2838125202806
20
-8.08010841436118
30
0
41
1
10
80.0274273319493
20
-8.08578259167368
30
0
41
1
10
79.514622066992
20
-8.0943667347419
30
0
41
1
10
79.2582146106196
20
-8.09727715944794
30
0
41
1
10
78.7453097230854
20
-8.10029319401966
30
0
41
1
10
78.4887518228587
20
-8.10039503291765
30
0
41
1
10
77.9753132812647
20
-8.09780734253422
30
0
41
1
10
77.7185216728772
20
-8.09511882474803
30
0
41
1
10
76.9484645659026
20
-8.08291352929572
30
0
41
1
10
75.9221566890507
20
-8.05561086360117
30
0
41
1
10
74.896881321954
20
-8.00639881585349
30
0
41
1
10
74.1284001210262
20
-7.96116288575928
30
0
41
1
10
73.8723224003855
20
-7.94469244700446
30
0
41
1
10
73.3603164448033
20
-7.9089486938804
30
0
41
1
10
73.1043460091318
20
-7.88969819250178
30
0
41
1
10
72.3362036791846
20
-7.8280580033676
30
0
41
1
10
71.8239154382219
20
-7.78171905937114
30
0
41
1
10
70.799047915487
20
-7.67862120816582
30
0
41
1
10
70.2864663011966
20
-7.62186437840609
30
0
41
1
10
69.2611020690447
20
-7.49780749854747
30
0
41
1
10
68.7483256320622
20
-7.43050083291988
30
0
41
1
10
67.9790807987638
20
-7.32138030242535
30
0
41
1
10
67.7226441510933
20
-7.28365052491199
30
0
41
1
10
67.2094204113151
20
-7.20588733904853
30
0
41
1
10
66.952604151957
20
-7.16580808107022
30
0
41
1
10
66.182406615742
20
-7.04211766914443
30
0
41
1
10
65.6691566142823
20
-6.95504155927739
30
0
41
1
10
64.6431641226022
20
-6.77163510714115
30
0
41
1
10
64.1304197481665
20
-6.67530849662825
30
0
41
1
10
63.3617696992833
20
-6.52369628812579
30
0
41
1
10
63.1056304814437
20
-6.47197095611378
30
0
41
1
10
62.593517963555
20
-6.36610454250192
30
0
41
1
10
62.3375672806241
20
-6.31191790957249
30
0
41
1
10
61.5695205877841
20
-6.14654898702184
30
0
41
1
10
61.0572905744327
20
-6.03246476377788
30
0
41
1
10
60.032531688163
20
-5.79656464549166
30
0
41
1
10
59.5200008736733
20
-5.67475246217572
30
0
41
1
10
58.4947265294172
20
-5.4232112499908
30
0
41
1
10
57.9819875819149
20
-5.29347259154144
30
0
41
1
10
57.2127970051249
20
-5.09263874759691
30
0
41
1
10
56.9564157878661
20
-5.02458304421671
30
0
41
1
10
56.4434072718363
20
-4.88689341688044
30
0
41
1
10
56.1867460782152
20
-4.81731613237898
30
0
41
1
10
55.4164085552168
20
-4.60639612077711
30
0
41
1
10
54.9030616989546
20
-4.46304905557074
30
0
41
1
10
53.8768685541172
20
-4.17075335199277
30
0
41
1
10
53.3640198451094
20
-4.02181114164864
30
0
41
1
10
52.5952009065782
20
-3.79398242669674
30
0
41
1
10
52.3390045155053
20
-3.71730055765585
30
0
41
1
10
51.8267754093792
20
-3.56242217133152
30
0
41
1
10
51.570765911233
20
-3.48416240146713
30
0
41
1
10
50.8027945431481
20
-3.24760421598023
30
0
41
1
10
50.290636054528
20
-3.08822156070542
30
0
41
1
10
49.2659858821025
20
-2.76612239936085
30
0
41
1
10
48.753505749574
20
-2.60337445858397
30
0
41
1
10
47.7283229012254
20
-2.27424586356932
30
0
41
1
10
47.2156218460804
20
-2.10786080406646
30
0
41
1
10
46.4464850290537
20
-1.85527406338474
30
0
41
1
10
46.1901035267713
20
-1.77054151486109
30
0
41
1
10
45.6772564492948
20
-1.60022265528318
30
0
41
1
10
45.420730572738
20
-1.51481544614711
30
0
41
1
10
44.9073602394066
20
-1.34385490500577
30
0
41
1
10
44.6505223552534
20
-1.25824426176919
30
0
41
1
10
44.1370883210628
20
-1.08690383997705
30
0
41
1
10
43.8804282657819
20
-1.00115370319298
30
0
41
1
10
43.1106330140482
20
-0.743619392312809
30
0
41
1
10
42.5976811385015
20
-0.571555679278276
30
0
41
1
10
41.5723660590497
20
-0.226382633344798
30
0
41
1
10
41.0600179992189
20
-0.0532279480994191
30
0
41
1
10
40.2919867885503
20
0.207426887566953
30
0
41
1
10
40.0360120468267
20
0.294327261141262
30
0
41
1
10
39.5239131245611
20
0.467500502792461
30
0
41
1
10
39.2678173252178
20
0.553858335848588
30
0
41
1
10
38.4994111566665
20
0.812308300378675
30
0
41
1
10
37.9869816669465
20
0.983776249538749
30
0
41
1
10
36.9618912946876
20
1.32530773611202
30
0
41
1
10
36.4492293776307
20
1.49536827496459
30
0
41
1
10
35.6801457933177
20
1.74964459211728
30
0
41
1
10
35.4237687578822
20
1.83426536172718
30
0
41
1
10
34.9109921400761
20
2.00325554661069
30
0
41
1
10
34.6545853266667
20
2.08760330344103
30
0
41
1
10
34.1414260556953
20
2.25509573232878
30
0
41
1
10
33.8846509095353
20
2.33834616047363
30
0
41
1
10
33.3710997818197
20
2.50377679215478
30
0
41
1
10
33.1143601602649
20
2.58594676798481
30
0
41
1
10
32.3442631841943
20
2.83087515493253
30
0
41
1
10
31.8310267574955
20
2.99205232848229
30
0
41
1
10
30.8049690454689
20
3.31045758418463
30
0
41
1
10
30.2921534389434
20
3.46770138203814
30
0
41
1
10
29.5233242913688
20
3.7007700025616
30
0
41
1
10
29.2671358562109
20
3.77804926878531
30
0
41
1
10
28.7545921968847
20
3.93088044743354
30
0
41
1
10
28.4982522612661
20
4.00647505017167
30
0
41
1
10
27.729046961555
20
4.2308642293724
30
0
41
1
10
27.2159983763828
20
4.3772728850204
30
0
41
1
10
26.1894987194518
20
4.6639810937817
30
0
41
1
10
25.6760453521893
20
4.80427538854497
30
0
41
1
10
24.9056422044352
20
5.01028961570435
30
0
41
1
10
24.6489159206645
20
5.07819237799546
30
0
41
1
10
24.1358251074682
20
5.21241714567768
30
0
41
1
10
23.8794594295915
20
5.2788158688758
30
0
41
1
10
23.1104821175072
20
5.47488408407921
30
0
41
1
10
22.5979042767528
20
5.60124970780089
30
0
41
1
10
21.5729836027688
20
5.84567244118961
30
0
41
1
10
21.0606392896463
20
5.96372595926704
30
0
41
1
10
20.0362693521942
20
6.19173408245265
30
0
41
1
10
19.5242469305242
20
6.30169552405692
30
0
41
1
10
18.7565381998978
20
6.46064129290554
30
0
41
1
10
18.5007116679475
20
6.51266082431209
30
0
41
1
10
17.989040174696
20
6.61444978893968
30
0
41
1
10
17.7331382668073
20
6.66412114781141
30
0
41
1
10
16.9651961762399
20
6.80943574924592
30
0
41
1
10
16.4529439029961
20
6.90142723738049
30
0
41
1
10
15.4279513820304
20
7.07587616335147
30
0
41
1
10
14.915210636023
20
7.1583330334723
30
0
41
1
10
13.8893333483498
20
7.31378113245987
30
0
41
1
10
13.3761971560245
20
7.38677440815633
30
0
41
1
10
12.8629278275398
20
7.45500141100794
30
0
0
SPLINE
5
CE
100
AcDbEntity
8
1
62
256
6
ByLayer
370
18
48
1
60
0
100
AcDbSpline
70
4
71
3
72
22
73
18
40
0
40
0
40
0
40
0
40
0.0588235840079337
40
0.0588235840079337
40
0.193277357721086
40
0.193277357721086
40
0.327731131434238
40
0.327731131434238
40
0.462184905147391
40
0.462184905147391
40
0.596638678860543
40
0.596638678860543
40
0.731092452573695
40
0.731092452573695
40
0.865546226286848
40
0.865546226286848
40
1
40
1
40
1
40
1
41
1
10
6.08269413363678
20
8.65821294650729
30
0
41
1
10
6.15566182446469
20
8.64775960540112
30
0
41
1
10
6.22896318213367
20
8.63683751508285
30
0
41
1
10
6.47081340151948
20
8.59953736115034
30
0
41
1
10
6.64065326271844
20
8.57133880876174
30
0
41
1
10
6.98298237754699
20
8.51109363183451
30
0
41
1
10
7.15547218569668
20
8.47904481233022
30
0
41
1
10
7.50266626979649
20
8.41156092757967
30
0
41
1
10
7.6773706456008
20
8.37612424827771
30
0
41
1
10
8.02865583472473
20
8.30219699462995
30
0
41
1
10
8.20523650224939
20
8.26370507792134
30
0
41
1
10
8.56003458538845
20
8.18391353698217
30
0
41
1
10
8.73825176809532
20
8.14261269018704
30
0
41
1
10
9.09618780772055
20
8.05740130013135
30
0
41
1
10
9.27590647569576
20
8.01348960147527
30
0
41
1
10
9.63682184468161
20
7.92324187964695
30
0
41
1
10
9.81801850102579
20
7.87690478305791
30
0
41
1
10
10
20
7.8294586602473
30
0
0
SPLINE
5
CF
100
AcDbEntity
8
1
62
256
6
ByLayer
370
18
48
1
60
0
100
AcDbSpline
70
4
71
3
72
100
73
96
40
0
40
0
40
0
40
0
40
0.0624999999999961
40
0.0624999999999961
40
0.0937499999999941
40
0.0937499999999941
40
0.124999999999992
40
0.124999999999992
40
0.15624999999999
40
0.15624999999999
40
0.187499999999988
40
0.187499999999988
40
0.195312499999988
40
0.195312499999988
40
0.203124999999987
40
0.203124999999987
40
0.218749999999986
40
0.218749999999986
40
0.249999999999985
40
0.249999999999985
40
0.281249999999984
40
0.281249999999984
40
0.296874999999983
40
0.296874999999983
40
0.304687499999983
40
0.304687499999983
40
0.312499999999983
40
0.312499999999983
40
0.343749999999982
40
0.343749999999982
40
0.37499999999998
40
0.37499999999998
40
0.38281249999998
40
0.38281249999998
40
0.390624999999979
40
0.390624999999979
40
0.406249999999978
40
0.406249999999978
40
0.421874999999977
40
0.421874999999977
40
0.429687499999976
40
0.433593749999976
40
0.433593749999976
40
0.437499999999976
40
0.437499999999976
40
0.468749999999974
40
0.468749999999974
40
0.484374999999972
40
0.484374999999972
40
0.492187499999972
40
0.492187499999972
40
0.496093749999971
40
0.496093749999971
40
0.499999999999971
40
0.499999999999971
40
0.531249999999968
40
0.531249999999968
40
0.539062499999968
40
0.542968749999967
40
0.542968749999967
40
0.546874999999967
40
0.546874999999967
40
0.562499999999968
40
0.562499999999968
40
0.593749999999968
40
0.593749999999968
40
0.609374999999969
40
0.609374999999969
40
0.624999999999969
40
0.624999999999969
40
0.65624999999997
40
0.65624999999997
40
0.687499999999971
40
0.687499999999971
40
0.703124999999972
40
0.703124999999972
40
0.718749999999974
40
0.718749999999974
40
0.749999999999976
40
0.749999999999976
40
0.781249999999979
40
0.781249999999979
40
0.812499999999982
40
0.812499999999982
40
0.843749999999985
40
0.843749999999985
40
0.874999999999988
40
0.874999999999988
40
0.906249999999991
40
0.906249999999991
40
0.937499999999994
40
0.937499999999994
40
0.968749999999997
40
0.968749999999997
40
1
40
1
40
1
40
1
41
1
10
10
20
-3.8635659017329
30
0
41
1
10
9.59687812093586
20
-3.9334092735414
30
0
41
1
10
9.19911445518278
20
-4.01916665912637
30
0
41
1
10
8.6107094931989
20
-4.17205979268923
30
0
41
1
10
8.41594912939362
20
-4.22706928876482
30
0
41
1
10
8.02923612979257
20
-4.34529821722839
30
0
41
1
10
7.83728313234491
20
-4.40851669006736
30
0
41
1
10
7.4562705993973
20
-4.54334948188659
30
0
41
1
10
7.26721053082525
20
-4.61496241191213
30
0
41
1
10
6.89211044031134
20
-4.76687200276712
30
0
41
1
10
6.70606956135919
20
-4.84716645389119
30
0
41
1
10
6.47552322695714
20
-4.95323811038946
30
0
41
1
10
6.42951438796234
20
-4.97473810252978
30
0
41
1
10
6.33770136017725
20
-5.01831850941488
30
0
41
1
10
6.29185501152921
20
-5.04041980682209
30
0
41
1
10
6.15502801140806
20
-5.10741284358554
30
0
41
1
10
6.06473596095177
20
-5.15300132638103
30
0
41
1
10
5.7967100786808
20
-5.29253551004916
30
0
41
1
10
5.62181805838219
20
-5.3892448384955
30
0
41
1
10
5.28017627245785
20
-5.59008533276787
30
0
41
1
10
5.11342133942813
20
-5.69421360161189
30
0
41
1
10
4.87005698718568
20
-5.85615369035963
30
0
41
1
10
4.79006655502161
20
-5.91109344558163
30
0
41
1
10
4.67189684911028
20
-5.99498679067091
30
0
41
1
10
4.63280271756474
20
-6.02320545706684
30
0
41
1
10
4.55563176705346
20
-6.07985709360273
30
0
41
1
10
4.51750602150355
20
-6.10832434014074
30
0
41
1
10
4.3292258808371
20
-6.25135162758252
30
0
41
1
10
4.18608040630232
20
-6.36797954163723
30
0
41
1
10
3.91655766464072
20
-6.60531567513215
30
0
41
1
10
3.7901535552609
20
-6.72602129958446
30
0
41
1
10
3.64456090010356
20
-6.87935048666773
30
0
41
1
10
3.61601979700899
20
-6.91019459998944
30
0
41
1
10
3.56067760337211
20
-6.97165383878888
30
0
41
1
10
3.53383600990298
20
-7.00230879624655
30
0
41
1
10
3.45585465429249
20
-7.09402217053605
30
0
41
1
10
3.40725420572653
20
-7.1548294419743
30
0
41
1
10
3.31720932396536
20
-7.27562057299787
30
0
41
1
10
3.27576351567527
20
-7.33560465347085
30
0
41
1
10
3.21935739383741
20
-7.42483797286133
30
0
41
1
10
3.19259689795666
20
-7.46926873929087
30
0
41
1
10
3.16809497941966
20
-7.51339495310913
30
0
41
1
10
3.15227444780447
20
-7.54274170643384
30
0
41
1
10
3.14461034084025
20
-7.55740145992152
30
0
41
1
10
3.07827536922193
20
-7.68846399862699
30
0
41
1
10
3.03813479751904
20
-7.79838580967302
30
0
41
1
10
3.00659629046757
20
-7.95284472766835
30
0
41
1
10
3.00087976406172
20
-8.0025905397238
30
0
41
1
10
2.99972334030201
20
-8.0744949090433
30
0
41
1
10
3.00057549880995
20
-8.09801037520111
30
0
41
1
10
3.00375004549917
20
-8.13258900609219
30
0
41
1
10
3.00512728747407
20
-8.14401357384963
30
0
41
1
10
3.00849799100806
20
-8.16649115413196
30
0
41
1
10
3.01049190688991
20
-8.17755832364119
30
0
41
1
10
3.03116869565002
20
-8.27564397472645
30
0
41
1
10
3.06886445562282
20
-8.35207715291835
30
0
41
1
10
3.13789559955111
20
-8.43556865822234
30
0
41
1
10
3.16025714608781
20
-8.45970853073487
30
0
41
1
10
3.18505825523369
20
-8.48251579130329
30
0
41
1
10
3.202130965246
20
-8.49742734006048
30
0
41
1
10
3.21093564648808
20
-8.5047344193834
30
0
41
1
10
3.25605608730132
20
-8.54036617191096
30
0
41
1
10
3.29582876382179
20
-8.5661421987474
30
0
41
1
10
3.42507476431695
20
-8.63620102124574
30
0
41
1
10
3.52442445480975
20
-8.67325479713898
30
0
41
1
10
3.69018299373349
20
-8.7169990824365
30
0
41
1
10
3.7482400059946
20
-8.72959609943692
30
0
41
1
10
3.86959511828715
20
-8.75115126363431
30
0
41
1
10
3.93226871172354
20
-8.76000118238247
30
0
41
1
10
4.12557839125907
20
-8.78150632870702
30
0
41
1
10
4.26149290342931
20
-8.78915282787901
30
0
41
1
10
4.54483699251324
20
-8.79394074360988
30
0
41
1
10
4.69228156807162
20
-8.79106605682423
30
0
41
1
10
4.92073860103832
20
-8.78033447744616
30
0
41
1
10
4.99811035122713
20
-8.77568187715704
30
0
41
1
10
5.15510669389647
20
-8.76441858247651
30
0
41
1
10
5.23484046996032
20
-8.75779524484656
30
0
41
1
10
5.47546449218507
20
-8.73540841892523
30
0
41
1
10
5.63824811985415
20
-8.71711858814948
30
0
41
1
10
5.96767759644624
20
-8.67513388892908
30
0
41
1
10
6.1343262407554
20
-8.6514332119157
30
0
41
1
10
6.47081340151945
20
-8.59953736115034
30
0
41
1
10
6.64065326271847
20
-8.57133880876174
30
0
41
1
10
6.98298237754702
20
-8.51109363183454
30
0
41
1
10
7.15547218569671
20
-8.47904481233022
30
0
41
1
10
7.50266626979649
20
-8.41156092757967
30
0
41
1
10
7.67737064560083
20
-8.37612424827773
30
0
41
1
10
8.02865583472473
20
-8.30219699462998
30
0
41
1
10
8.20523650224942
20
-8.26370507792137
30
0
41
1
10
8.56003458538845
20
-8.18391353698217
30
0
41
1
10
8.7382517680953
20
-8.14261269018706
30
0
41
1
10
9.09618780772058
20
-8.05740130013135
30
0
41
1
10
9.27590647569576
20
-8.01348960147527
30
0
41
1
10
9.63682184468161
20
-7.92324187964698
30
0
41
1
10
9.81801850102579
20
-7.87690478305791
30
0
41
1
10
10
20
-7.82945866024727
30
0
0
SPLINE
5
D0
100
AcDbEntity
8
1
62
256
6
ByLayer
370
18
48
1
60
0
100
AcDbSpline
70
4
71
3
72
14
73
10
40
0
40
0
40
0
40
0
40
0.25
40
0.25
40
0.5
40
0.5
40
0.75
40
0.75
40
1
40
1
40
1
40
1
41
1
10
12.8629278275398
20
-7.45500141100828
30
0
41
1
10
12.6197420037219
20
-7.48821974147219
30
0
41
1
10
12.3779654877247
20
-7.52153765463507
30
0
41
1
10
11.8967674411128
20
-7.58735766154612
30
0
41
1
10
11.6573445235533
20
-7.61985979248019
30
0
41
1
10
11.180518764459
20
-7.68323536587485
30
0
41
1
10
10.9431149114411
20
-7.71411018660959
30
0
41
1
10
10.4701611584548
20
-7.77360186038069
30
0
41
1
10
10.2346107996228
20
-7.8022213361352
30
0
41
1
10
10
20
-7.82945866024733
30
0
0
SPLINE
5
D1
100
AcDbEntity
8
1
62
256
6
ByLayer
370
18
48
1
60
0
100
AcDbSpline
70
4
71
4
72
13
73
8
40
0
40
0
40
0
40
0
40
0
40
0.0053596115438378
40
0.0053596115438378
40
0.0053596115438378
40
1
40
1
40
1
40
1
40
1
41
0.999999157250285
10
13.7252165160362
20
-4.00396057831761
30
0
41
0.999999577171503
10
13.723730425658
20
-4.00747212617001
30
0
41
0.99999985857095
10
13.7222457643833
20
-4.01098666307661
30
0
41
1
10
13.7207625355728
20
-4.01450417236566
30
0
41
1
10
13.4442885801608
20
-4.67135493417246
30
0
41
0.995129156471995
10
13.1847874661881
20
-5.50823010741138
30
0
41
0.994710362314895
10
12.9873861085115
20
-6.47472267194013
30
0
41
0.996170373546346
10
12.8629278275399
20
-7.45500141100829
30
0
0
SPLINE
5
D2
100
AcDbEntity
8
1
62
256
6
ByLayer
370
18
48
1
60
0
100
AcDbSpline
70
4
71
3
72
23
73
19
40
0
40
0
40
0
40
0
40
0.124999999999995
40
0.124999999999995
40
0.249999999999991
40
0.249999999999991
40
0.374999999999986
40
0.374999999999986
40
0.499999999999982
40
0.499999999999982
40
0.56249999999998
40
0.59374999999998
40
0.59374999999998
40
0.62499999999998
40
0.62499999999998
40
0.749999999999985
40
0.749999999999985
40
1
40
1
40
1
40
1
41
1
10
10
20
-3.8635659017329
30
0
41
1
10
10.2793904621403
20
-3.83641951459396
30
0
41
1
10
10.5581363401015
20
-3.81872170883352
30
0
41
1
10
11.1144413113779
20
-3.80093786344651
30
0
41
1
10
11.3919999058149
20
-3.80085726266265
30
0
41
1
10
11.9460116123913
20
-3.81710090768274
30
0
41
1
10
12.2224643551888
20
-3.83342918096577
30
0
41
1
10
12.7743387090213
20
-3.8812075246781
30
0
41
1
10
13.0497600375182
20
-3.91266039583894
30
0
41
1
10
13.4621764838509
20
-3.97008489793484
30
0
41
1
10
13.6682058917801
20
-4.00135596032032
30
0
41
1
10
13.8739789309578
20
-4.03623428445519
30
0
41
1
10
14.0111053885485
20
-4.06026062742538
30
0
41
1
10
14.079671171296
20
-4.07266666556509
30
0
41
1
10
14.4219717466518
20
-4.13648843506755
30
0
41
1
10
14.6938237153599
20
-4.19321718478486
30
0
41
1
10
15.5042392784335
20
-4.37717197619182
30
0
41
1
10
16.037679365894
20
-4.51808344952207
30
0
41
1
10
16.566418905184
20
-4.66900644942038
30
0
0
SPLINE
5
D3
100
AcDbEntity
8
1
62
256
6
ByLayer
370
13
48
1
60
0
100
AcDbSpline
70
4
71
3
72
118
73
114
40
0
40
0
40
0
40
0
40
0.0312499999999995
40
0.0312499999999995
40
0.0468749999999993
40
0.0468749999999993
40
0.0624999999999992
40
0.0624999999999992
40
0.0781249999999991
40
0.0781249999999991
40
0.0937499999999989
40
0.0937499999999989
40
0.109374999999999
40
0.109374999999999
40
0.124999999999999
40
0.124999999999999
40
0.140624999999998
40
0.140624999999998
40
0.156249999999998
40
0.156249999999998
40
0.171874999999998
40
0.171874999999998
40
0.187499999999998
40
0.187499999999998
40
0.203124999999998
40
0.203124999999998
40
0.218749999999997
40
0.218749999999997
40
0.249999999999997
40
0.249999999999997
40
0.281249999999997
40
0.281249999999997
40
0.296874999999997
40
0.296874999999997
40
0.312499999999997
40
0.312499999999997
40
0.328124999999997
40
0.328124999999997
40
0.343749999999998
40
0.343749999999998
40
0.359374999999998
40
0.359374999999998
40
0.374999999999998
40
0.374999999999998
40
0.390624999999998
40
0.390624999999998
40
0.406249999999998
40
0.406249999999998
40
0.421874999999998
40
0.421874999999998
40
0.437499999999998
40
0.437499999999998
40
0.453124999999998
40
0.453124999999998
40
0.468749999999998
40
0.468749999999998
40
0.499999999999998
40
0.499999999999998
40
0.531249999999999
40
0.531249999999999
40
0.546874999999999
40
0.546874999999999
40
0.562499999999999
40
0.562499999999999
40
0.578124999999999
40
0.578124999999999
40
0.593749999999999
40
0.593749999999999
40
0.609374999999999
40
0.609374999999999
40
0.624999999999999
40
0.624999999999999
40
0.640624999999999
40
0.640624999999999
40
0.656249999999999
40
0.656249999999999
40
0.671874999999999
40
0.671874999999999
40
0.687499999999999
40
0.687499999999999
40
0.703124999999999
40
0.703124999999999
40
0.718749999999999
40
0.718749999999999
40
0.749999999999999
40
0.749999999999999
40
0.781249999999999
40
0.781249999999999
40
0.796874999999999
40
0.796874999999999
40
0.812499999999999
40
0.812499999999999
40
0.828124999999999
40
0.828124999999999
40
0.843749999999999
40
0.843749999999999
40
0.859374999999999
40
0.859374999999999
40
0.874999999999999
40
0.874999999999999
40
0.890625
40
0.890625
40
0.90625
40
0.90625
40
0.921875
40
0.921875
40
0.9375
40
0.9375
40
0.953125
40
0.953125
40
0.96875
40
0.96875
40
1
40
1
40
1
40
1
41
1
10
111.300000451109
20
8.73099999999999
30
0
41
1
10
111.393981445208
20
8.73099999999999
30
0
41
1
10
111.487962439307
20
8.68526399458531
30
0
41
1
10
111.628933930456
20
8.53522678268058
30
0
41
1
10
111.675924427505
20
8.47169145354323
30
0
41
1
10
111.769905421604
20
8.31625722426412
30
0
41
1
10
111.816895918654
20
8.22435357801805
30
0
41
1
10
111.910876912753
20
8.01160986278035
30
0
41
1
10
111.957867409803
20
7.89076657029821
30
0
41
1
10
112.051848403902
20
7.62044895970115
30
0
41
1
10
112.098838900951
20
7.4709735406679
30
0
41
1
10
112.19281989505
20
7.14464236993027
30
0
41
1
10
112.2398103921
20
6.96778800881791
30
0
41
1
10
112.333791386199
20
6.58889175045508
30
0
41
1
10
112.380781883248
20
6.38685376723754
30
0
41
1
10
112.474762877347
20
5.96064535729207
30
0
41
1
10
112.521753374397
20
5.73648102402149
30
0
41
1
10
112.615734368496
20
5.26978548920087
30
0
41
1
10
112.662724865546
20
5.02726188789387
30
0
41
1
10
112.756705859645
20
4.52811557443698
30
0
41
1
10
112.803696356694
20
4.27150109312134
30
0
41
1
10
112.897677350793
20
3.74870195344121
30
0
41
1
10
112.944667847843
20
3.48252524482041
30
0
41
1
10
113.038648841942
20
2.94514554083253
30
0
41
1
10
113.085639338991
20
2.67394943038465
30
0
41
1
10
113.179620333091
20
2.13086437626106
30
0
41
1
10
113.22661083014
20
1.8589807136195
30
0
41
1
10
113.367582321289
20
1.04819850723499
30
0
41
1
10
113.461563315388
20
0.514479715598014
30
0
41
1
10
113.649525303586
20
-0.514478480848169
30
0
41
1
10
113.743506297685
20
-1.04819722024234
30
0
41
1
10
113.884477788834
20
-1.85897941123849
30
0
41
1
10
113.931468285883
20
-2.13086307170485
30
0
41
1
10
114.025449279982
20
-2.67394812813254
30
0
41
1
10
114.072439777032
20
-2.94514424306254
30
0
41
1
10
114.166420771131
20
-3.48252396316769
30
0
41
1
10
114.213411268181
20
-3.7487006834258
30
0
41
1
10
114.30739226228
20
-4.27149985370073
30
0
41
1
10
114.354382759329
20
-4.52811435397498
30
0
41
1
10
114.448363753429
20
-5.0272607124534
30
0
41
1
10
114.495354250478
20
-5.26978433982308
30
0
41
1
10
114.589335244577
20
-5.73647993326054
30
0
41
1
10
114.636325741627
20
-5.9606442990835
30
0
41
1
10
114.730306735726
20
-6.38685277964552
30
0
41
1
10
114.777297232775
20
-6.58889080092413
30
0
41
1
10
114.871278226874
20
-6.96778713964659
30
0
41
1
10
114.918268723924
20
-7.14464154305364
30
0
41
1
10
115.012249718023
20
-7.47097280115466
30
0
41
1
10
115.059240215073
20
-7.62044826525252
30
0
41
1
10
115.153221209172
20
-7.89076596722208
30
0
41
1
10
115.200211706221
20
-8.01160930600832
30
0
41
1
10
115.29419270032
20
-8.22435311362
30
0
41
1
10
115.34118319737
20
-8.31625680593297
30
0
41
1
10
115.435164191469
20
-8.47169112578985
30
0
41
1
10
115.482154688518
20
-8.53522649943619
30
0
41
1
10
115.623126179667
20
-8.68526384089517
30
0
41
1
10
115.717107173766
20
-8.73099992724158
30
0
41
1
10
115.905069161964
20
-8.73100007275826
30
0
41
1
10
115.999050156064
20
-8.68526414827528
30
0
41
1
10
116.140021647212
20
-8.53522706592477
30
0
41
1
10
116.187012144262
20
-8.47169178129639
30
0
41
1
10
116.280993138361
20
-8.31625764259508
30
0
41
1
10
116.32798363541
20
-8.22435404241588
30
0
41
1
10
116.42196462951
20
-8.01161041955214
30
0
41
1
10
116.468955126559
20
-7.89076717337414
30
0
41
1
10
116.562936120658
20
-7.62044965414955
30
0
41
1
10
116.609926617708
20
-7.47097428018091
30
0
41
1
10
116.703907611807
20
-7.1446431968067
30
0
41
1
10
116.750898108856
20
-6.96778887798902
30
0
41
1
10
116.844879102955
20
-6.58889269998585
30
0
41
1
10
116.891869600005
20
-6.38685475482941
30
0
41
1
10
116.985850594104
20
-5.96064641550043
30
0
41
1
10
117.032841091154
20
-5.73648211478232
30
0
41
1
10
117.126822085253
20
-5.26978663857852
30
0
41
1
10
117.173812582302
20
-5.0272630633342
30
0
41
1
10
117.267793576401
20
-4.52811679489889
30
0
41
1
10
117.314784073451
20
-4.27150233254187
30
0
41
1
10
117.40876506755
20
-3.74870322345655
30
0
41
1
10
117.455755564599
20
-3.48252652647307
30
0
41
1
10
117.549736558699
20
-2.94514683860245
30
0
41
1
10
117.596727055748
20
-2.67395073263674
30
0
41
1
10
117.690708049847
20
-2.13086568081727
30
0
41
1
10
117.737698546897
20
-1.85898201600051
30
0
41
1
10
117.878670038045
20
-1.04819979422766
30
0
41
1
10
117.972651032144
20
-0.514480980485388
30
0
41
1
10
118.160613020343
20
0.514477276235766
30
0
41
1
10
118.254594014442
20
1.04819593324976
30
0
41
1
10
118.39556550559
20
1.85897810885751
30
0
41
1
10
118.44255600264
20
2.13086176714864
30
0
41
1
10
118.536536996739
20
2.67394682588042
30
0
41
1
10
118.583527493789
20
2.94514294529256
30
0
41
1
10
118.677508487888
20
3.48252268151492
30
0
41
1
10
118.724498984937
20
3.74869941341035
30
0
41
1
10
118.818479979036
20
4.27149861428006
30
0
41
1
10
118.865470476086
20
4.5281131335129
30
0
41
1
10
118.959451470185
20
5.02725953701281
30
0
41
1
10
119.006441967234
20
5.26978319044514
30
0
41
1
10
119.100422961334
20
5.73647884249942
30
0
41
1
10
119.147413458383
20
5.96064324087482
30
0
41
1
10
119.241394452482
20
6.38685179205331
30
0
41
1
10
119.288384949532
20
6.58888985139299
30
0
41
1
10
119.382365943631
20
6.96778627047507
30
0
41
1
10
119.42935644068
20
7.14464071617678
30
0
41
1
10
119.52333743478
20
7.47097206164122
30
0
41
1
10
119.570327931829
20
7.62044757080366
30
0
41
1
10
119.664308925928
20
7.89076536414572
30
0
41
1
10
119.711299422978
20
8.01160874923607
30
0
41
1
10
119.805280417077
20
8.22435264922174
30
0
41
1
10
119.852270914126
20
8.31625638760161
30
0
41
1
10
119.946251908226
20
8.47169079803626
30
0
41
1
10
119.993242405275
20
8.53522621619157
30
0
41
1
10
120.134213896424
20
8.68526368720481
30
0
41
1
10
120.228194890523
20
8.73099985448297
30
0
41
1
10
120.322175884622
20
8.73099999999965
30
0
0
SPLINE
5
D4
100
AcDbEntity
8
1
62
256
6
ByLayer
370
13
48
1
60
0
100
AcDbSpline
70
4
71
3
72
84
73
80
40
0
40
0
40
0
40
0
40
0.0312499999999982
40
0.0312499999999982
40
0.0624999999999964
40
0.0624999999999964
40
0.0937499999999945
40
0.0937499999999945
40
0.124999999999993
40
0.124999999999993
40
0.156249999999991
40
0.156249999999991
40
0.187499999999989
40
0.187499999999989
40
0.203124999999988
40
0.203124999999988
40
0.210937499999988
40
0.210937499999988
40
0.218749999999987
40
0.218749999999987
40
0.249999999999986
40
0.249999999999986
40
0.281249999999984
40
0.281249999999984
40
0.312499999999982
40
0.312499999999982
40
0.34374999999998
40
0.34374999999998
40
0.374999999999978
40
0.374999999999978
40
0.406249999999976
40
0.406249999999976
40
0.437499999999974
40
0.437499999999974
40
0.468749999999972
40
0.468749999999972
40
0.472656249999972
40
0.472656249999972
40
0.476562499999972
40
0.484374999999972
40
0.484374999999972
40
0.499999999999972
40
0.499999999999972
40
0.531249999999973
40
0.531249999999973
40
0.562499999999973
40
0.562499999999973
40
0.593749999999973
40
0.593749999999973
40
0.624999999999973
40
0.624999999999973
40
0.656249999999974
40
0.656249999999974
40
0.687499999999974
40
0.687499999999974
40
0.718749999999974
40
0.718749999999974
40
0.734374999999974
40
0.734374999999974
40
0.738281249999975
40
0.738281249999975
40
0.742187499999975
40
0.749999999999975
40
0.749999999999975
40
0.781249999999979
40
0.781249999999979
40
0.812499999999982
40
0.812499999999982
40
0.843749999999985
40
0.843749999999985
40
0.874999999999988
40
0.874999999999988
40
0.906249999999991
40
0.906249999999991
40
0.937499999999994
40
0.937499999999994
40
0.968749999999997
40
0.968749999999997
40
1
40
1
40
1
40
1
41
1
10
111.3
20
8.26547836232453
30
0
41
1
10
111.388834756764
20
8.09135717318736
30
0
41
1
10
111.477669513529
20
7.86548719381557
30
0
41
1
10
111.655339027057
20
7.3120758853583
30
0
41
1
10
111.744173783822
20
6.98453181760584
30
0
41
1
10
111.921843297351
20
6.24154550698313
30
0
41
1
10
112.010678054115
20
5.82621270590982
30
0
41
1
10
112.188347567644
20
4.93198218289837
30
0
41
1
10
112.277182324408
20
4.45326960980876
30
0
41
1
10
112.454851837937
20
3.4625618148898
30
0
41
1
10
112.543686594701
20
2.95075508840992
30
0
41
1
10
112.72135610823
20
1.92419353562124
30
0
41
1
10
112.810190864994
20
1.40956730671257
30
0
41
1
10
112.943443000141
20
0.654478655393461
30
0
41
1
10
112.987860378523
20
0.405540477804749
30
0
41
1
10
113.054486446096
20
0.0381190754722525
30
0
41
1
10
113.076695135287
20
-0.0829887961412794
30
0
41
1
10
113.121112513669
20
-0.328419163955573
30
0
41
1
10
113.143321202861
20
-0.452111036214234
30
0
41
1
10
113.254364648816
20
-1.07471236514095
30
0
41
1
10
113.34319940558
20
-1.58632899009959
30
0
41
1
10
113.520868919109
20
-2.61296443229057
30
0
41
1
10
113.609703675873
20
-3.12787242276221
30
0
41
1
10
113.787373189402
20
-4.13161493525922
30
0
41
1
10
113.876207946167
20
-4.62026983053536
30
0
41
1
10
114.053877459695
20
-5.54073351923896
30
0
41
1
10
114.14271221646
20
-5.9723498234012
30
0
41
1
10
114.320381729988
20
-6.75250087598755
30
0
41
1
10
114.409216486752
20
-7.10090461762093
30
0
41
1
10
114.586886000281
20
-7.69806709142836
30
0
41
1
10
114.675720757046
20
-7.94680372237448
30
0
41
1
10
114.853390270574
20
-8.3401735675142
30
0
41
1
10
114.942225027339
20
-8.48488635267637
30
0
41
1
10
115.119894540867
20
-8.67691302335774
30
0
41
1
10
115.208729297632
20
-8.72435918865844
30
0
41
1
10
115.308668398992
20
-8.73109341369354
30
0
41
1
10
115.319772743587
20
-8.7312005346792
30
0
41
1
10
115.341981432778
20
-8.73014076634411
30
0
41
1
10
115.375294466565
20
-8.72662633056262
30
0
41
1
10
115.408607500352
20
-8.71719083647628
30
0
41
1
10
115.475233567925
20
-8.69005722439837
30
0
41
1
10
115.519650946307
20
-8.66093905128713
30
0
41
1
10
115.652903081454
20
-8.53793142770863
30
0
41
1
10
115.741737838218
20
-8.40809212876241
30
0
41
1
10
115.919407351747
20
-8.04483675820072
30
0
41
1
10
116.008242108511
20
-7.81132979784266
30
0
41
1
10
116.18591162204
20
-7.24323880551933
30
0
41
1
10
116.274746378804
20
-6.90866023187601
30
0
41
1
10
116.452415892333
20
-6.15306706906932
30
0
41
1
10
116.541250649097
20
-5.73216934334727
30
0
41
1
10
116.718920162626
20
-4.82889092855322
30
0
41
1
10
116.80775491939
20
-4.34669825103853
30
0
41
1
10
116.985424432919
20
-3.35131680892519
30
0
41
1
10
117.074259189683
20
-2.83831391859548
30
0
41
1
10
117.251928703212
20
-1.8114323276954
30
0
41
1
10
117.340763459977
20
-1.29767639631902
30
0
41
1
10
117.474015595123
20
-0.54507577435561
30
0
41
1
10
117.518432973505
20
-0.297162461148133
30
0
41
1
10
117.573954696483
20
0.0075414128044713
30
0
41
1
10
117.585059041078
20
0.0682697555973562
30
0
41
1
10
117.607267730269
20
0.190574038151368
30
0
41
1
10
117.640580764056
20
0.374783404562095
30
0
41
1
10
117.673893797843
20
0.561096084604714
30
0
41
1
10
117.784937243798
20
1.18604894284806
30
0
41
1
10
117.873772000563
20
1.69880073794542
30
0
41
1
10
118.051441514091
20
2.72570555979107
30
0
41
1
10
118.140276270856
20
3.23974174697616
30
0
41
1
10
118.317945784384
20
4.23946792669455
30
0
41
1
10
118.406780541149
20
4.72497500591714
30
0
41
1
10
118.584450054678
20
5.63699917787341
30
0
41
1
10
118.673284811442
20
6.06332581105832
30
0
41
1
10
118.850954324971
20
6.83130986750169
30
0
41
1
10
118.939789081735
20
7.17284323198985
30
0
41
1
10
119.117458595264
20
7.75552111604694
30
0
41
1
10
119.206293352028
20
7.99665189000555
30
0
41
1
10
119.383962865557
20
8.37495257299722
30
0
41
1
10
119.472797622321
20
8.51220785647632
30
0
41
1
10
119.65046713585
20
8.69016465110485
30
0
41
1
10
119.739301892614
20
8.73099999999999
30
0
41
1
10
119.828136649378
20
8.73099999999999
30
0
0
SPLINE
5
D5
100
AcDbEntity
8
1
62
256
6
ByLayer
370
13
48
1
60
0
100
AcDbSpline
70
4
71
3
72
84
73
80
40
0
40
0
40
0
40
0
40
0.0312499999999994
40
0.0312499999999994
40
0.0624999999999988
40
0.0624999999999988
40
0.0937499999999982
40
0.0937499999999982
40
0.124999999999998
40
0.124999999999998
40
0.156249999999997
40
0.156249999999997
40
0.160156249999997
40
0.160156249999997
40
0.164062499999997
40
0.171874999999996
40
0.171874999999996
40
0.187499999999996
40
0.187499999999996
40
0.218749999999996
40
0.218749999999996
40
0.249999999999996
40
0.249999999999996
40
0.281249999999996
40
0.281249999999996
40
0.312499999999995
40
0.312499999999995
40
0.343749999999995
40
0.343749999999995
40
0.374999999999995
40
0.374999999999995
40
0.406249999999995
40
0.406249999999995
40
0.437499999999994
40
0.437499999999994
40
0.441406249999994
40
0.441406249999994
40
0.445312499999994
40
0.453124999999994
40
0.453124999999994
40
0.468749999999994
40
0.468749999999994
40
0.499999999999995
40
0.499999999999995
40
0.531249999999995
40
0.531249999999995
40
0.562499999999995
40
0.562499999999995
40
0.593749999999996
40
0.593749999999996
40
0.624999999999996
40
0.624999999999996
40
0.656249999999996
40
0.656249999999996
40
0.687499999999996
40
0.687499999999996
40
0.718749999999997
40
0.718749999999997
40
0.726562499999997
40
0.726562499999997
40
0.734374999999997
40
0.734374999999997
40
0.749999999999997
40
0.749999999999997
40
0.781249999999997
40
0.781249999999997
40
0.812499999999998
40
0.812499999999998
40
0.843749999999998
40
0.843749999999998
40
0.874999999999998
40
0.874999999999998
40
0.906249999999999
40
0.906249999999999
40
0.937499999999999
40
0.937499999999999
40
0.96875
40
0.96875
40
1
40
1
40
1
40
1
41
1
10
111.3
20
6.77318241436728
30
0
41
1
10
111.383688510032
20
6.43537619088139
30
0
41
1
10
111.467377020063
20
6.05746522495483
30
0
41
1
10
111.634754040126
20
5.24030963958432
30
0
41
1
10
111.718442550158
20
4.8011951693332
30
0
41
1
10
111.885819570221
20
3.88620835620586
30
0
41
1
10
111.969508080252
20
3.41048092901508
30
0
41
1
10
112.136885100315
20
2.44808812327582
30
0
41
1
10
112.220573610347
20
1.96153601512677
30
0
41
1
10
112.38795063041
20
1.00051846056681
30
0
41
1
10
112.471639140441
20
0.526110130625312
30
0
41
1
10
112.565788714227
20
0.0091022227065878
30
0
41
1
10
112.576249777981
20
-0.0480692399687541
30
0
41
1
10
112.597171905489
20
-0.163164999831679
30
0
41
1
10
112.628555096751
20
-0.336482806703856
30
0
41
1
10
112.659938288012
20
-0.51169409761647
30
0
41
1
10
112.722704670536
20
-0.864263061862346
30
0
41
1
10
112.764548925552
20
-1.10218236052864
30
0
41
1
10
112.890081690599
20
-1.8211059323713
30
0
41
1
10
112.97377020063
20
-2.30741453321636
30
0
41
1
10
113.141147220694
20
-3.27171399759985
30
0
41
1
10
113.224835730725
20
-3.7495964044906
30
0
41
1
10
113.392212750788
20
-4.67140404371304
30
0
41
1
10
113.47590126082
20
-5.11518561515561
30
0
41
1
10
113.643278280883
20
-5.94388036108825
30
0
41
1
10
113.726966790914
20
-6.32865973516991
30
0
41
1
10
113.894343810977
20
-7.01951801627069
30
0
41
1
10
113.978032321009
20
-7.3255198294703
30
0
41
1
10
114.145409341072
20
-7.84740175420509
30
0
41
1
10
114.229097851104
20
-8.06328375016463
30
0
41
1
10
114.396474871166
20
-8.40309692139229
30
0
41
1
10
114.480163381198
20
-8.52709643267599
30
0
41
1
10
114.647540401261
20
-8.68977591246983
30
0
41
1
10
114.731228911293
20
-8.72855579059254
30
0
41
1
10
114.825378485078
20
-8.73117885056854
30
0
41
1
10
114.835839548832
20
-8.73090722344892
30
0
41
1
10
114.85676167634
20
-8.72921951902717
30
0
41
1
10
114.888144867602
20
-8.72496742573333
30
0
41
1
10
114.919528058864
20
-8.71543202394898
30
0
41
1
10
114.982294441387
20
-8.689011101852
30
0
41
1
10
115.024138696403
20
-8.66158735650518
30
0
41
1
10
115.14967146145
20
-8.5477403770287
30
0
41
1
10
115.233359971482
20
-8.4295122540546
30
0
41
1
10
115.400736991545
20
-8.10144358639528
30
0
41
1
10
115.484425501576
20
-7.89153150197487
30
0
41
1
10
115.651802521639
20
-7.38119328857087
30
0
41
1
10
115.735491031671
20
-7.08076027005691
30
0
41
1
10
115.902868051734
20
-6.4000340812515
30
0
41
1
10
115.986556561765
20
-6.01981321374348
30
0
41
1
10
116.153933581829
20
-5.19876467447887
30
0
41
1
10
116.23762209186
20
-4.75806841944458
30
0
41
1
10
116.404999111923
20
-3.84075476796502
30
0
41
1
10
116.488687621955
20
-3.36428191866577
30
0
41
1
10
116.656064642018
20
-2.40120256096492
30
0
41
1
10
116.739753152049
20
-1.91470774287919
30
0
41
1
10
116.907130172112
20
-0.954465892061705
30
0
41
1
10
116.990818682144
20
-0.480774077990361
30
0
41
1
10
117.095429319683
20
0.0924941679069491
30
0
41
1
10
117.116351447191
20
0.207631324357493
30
0
41
1
10
117.158195702207
20
0.439992583178452
30
0
41
1
10
117.179117829715
20
0.556999259311993
30
0
41
1
10
117.241884212238
20
0.910114233829773
30
0
41
1
10
117.283728467254
20
1.14832888182048
30
0
41
1
10
117.409261232301
20
1.8678969797364
30
0
41
1
10
117.492949742333
20
2.35431057639758
30
0
41
1
10
117.660326762396
20
3.31802542014799
30
0
41
1
10
117.744015272428
20
3.79521658183629
30
0
41
1
10
117.911392292491
20
4.71480386387674
30
0
41
1
10
117.995080802522
20
5.15705585551933
30
0
41
1
10
118.162457822585
20
5.98195090052144
30
0
41
1
10
118.246146332617
20
6.3644613199248
30
0
41
1
10
118.41352335268
20
7.05026964440478
30
0
41
1
10
118.497211862711
20
7.35349283973173
30
0
41
1
10
118.664588882774
20
7.86960938195975
30
0
41
1
10
118.748277392806
20
8.08250712353487
30
0
41
1
10
118.915654412869
20
8.41644502022339
30
0
41
1
10
118.9993429229
20
8.53755513256547
30
0
41
1
10
119.166719942963
20
8.69478247856691
30
0
41
1
10
119.250408452995
20
8.73099999999999
30
0
41
1
10
119.334096963026
20
8.73099999999999
30
0
0
SPLINE
5
D6
100
AcDbEntity
8
1
62
256
6
ByLayer
370
13
48
1
60
0
100
AcDbSpline
70
4
71
3
72
84
73
80
40
0
40
0
40
0
40
0
40
0.0312500000000014
40
0.0312500000000014
40
0.0625000000000028
40
0.0625000000000028
40
0.0937500000000042
40
0.0937500000000042
40
0.101562500000004
40
0.101562500000004
40
0.105468750000004
40
0.105468750000004
40
0.109375000000005
40
0.125000000000005
40
0.125000000000005
40
0.156250000000005
40
0.156250000000005
40
0.187500000000005
40
0.187500000000005
40
0.218750000000006
40
0.218750000000006
40
0.250000000000006
40
0.250000000000006
40
0.281250000000006
40
0.281250000000006
40
0.312500000000007
40
0.312500000000007
40
0.343750000000007
40
0.343750000000007
40
0.375000000000007
40
0.375000000000007
40
0.390625000000007
40
0.390625000000007
40
0.398437500000007
40
0.398437500000007
40
0.406250000000008
40
0.406250000000008
40
0.437500000000008
40
0.437500000000008
40
0.468750000000008
40
0.468750000000008
40
0.500000000000009
40
0.500000000000009
40
0.531250000000009
40
0.531250000000009
40
0.562500000000009
40
0.562500000000009
40
0.59375000000001
40
0.59375000000001
40
0.62500000000001
40
0.62500000000001
40
0.65625000000001
40
0.65625000000001
40
0.68750000000001
40
0.68750000000001
40
0.69531250000001
40
0.69921875000001
40
0.69921875000001
40
0.70312500000001
40
0.70312500000001
40
0.718750000000009
40
0.718750000000009
40
0.750000000000008
40
0.750000000000008
40
0.781250000000007
40
0.781250000000007
40
0.812500000000006
40
0.812500000000006
40
0.843750000000005
40
0.843750000000005
40
0.875000000000004
40
0.875000000000004
40
0.906250000000003
40
0.906250000000003
40
0.937500000000002
40
0.937500000000002
40
0.968750000000001
40
0.968750000000001
40
1
40
1
40
1
40
1
41
1
10
111.3
20
4.38787692976067
30
0
41
1
10
111.378542263299
20
3.95963288454783
30
0
41
1
10
111.457084526597
20
3.51495582640757
30
0
41
1
10
111.614169053195
20
2.61389099408495
30
0
41
1
10
111.692711316493
20
2.15758904183795
30
0
41
1
10
111.849795843091
20
1.252724219127
30
0
41
1
10
111.92833810639
20
0.804209615503197
30
0
41
1
10
112.026515935513
20
0.25807153825582
30
0
41
1
10
112.046151501338
20
0.149557960507963
30
0
41
1
10
112.075604850075
20
-0.0119957125350254
30
0
41
1
10
112.085422632987
20
-0.0657119713698648
30
0
41
1
10
112.105058198812
20
-0.173799066707943
30
0
41
1
10
112.154147113373
20
-0.444998936220202
30
0
41
1
10
112.203236027935
20
-0.720838389966559
30
0
41
1
10
112.321049422883
20
-1.38915242870581
30
0
41
1
10
112.399591686182
20
-1.84321930206229
30
0
41
1
10
112.556676212779
20
-2.7511544890942
30
0
41
1
10
112.635218476078
20
-3.20495715712224
30
0
41
1
10
112.792303002675
20
-4.09182363555334
30
0
41
1
10
112.870845265974
20
-4.52478975735528
30
0
41
1
10
113.027929792571
20
-5.34869854982662
30
0
41
1
10
113.10647205587
20
-5.73953561744784
30
0
41
1
10
113.263556582467
20
-6.46031410418109
30
0
41
1
10
113.342098845766
20
-6.79017405165098
30
0
41
1
10
113.499183372364
20
-7.37546910006395
30
0
41
1
10
113.577725635662
20
-7.63087137465996
30
0
41
1
10
113.73481016226
20
-8.0608592807599
30
0
41
1
10
113.813352425558
20
-8.23546566054364
30
0
41
1
10
113.970436952156
20
-8.50478655075784
30
0
41
1
10
114.048979215454
20
-8.59956060715737
30
0
41
1
10
114.166792610402
20
-8.68702661856616
30
0
41
1
10
114.206063742052
20
-8.70710706101406
30
0
41
1
10
114.264970439526
20
-8.72455557299801
30
0
41
1
10
114.28460600535
20
-8.72826140720738
30
0
41
1
10
114.323877137
20
-8.73162642541644
30
0
41
1
10
114.343512702824
20
-8.73131141682387
30
0
41
1
10
114.441690531948
20
-8.71964175750884
30
0
41
1
10
114.520232795247
20
-8.67757678011839
30
0
41
1
10
114.677317321844
20
-8.5181380131508
30
0
41
1
10
114.755859585143
20
-8.40069173081986
30
0
41
1
10
114.91294411174
20
-8.08503952732937
30
0
41
1
10
114.991486375039
20
-7.88678299457973
30
0
41
1
10
115.148570901636
20
-7.41054273673731
30
0
41
1
10
115.227113164935
20
-7.13255302329168
30
0
41
1
10
115.384197691532
20
-6.50529246954119
30
0
41
1
10
115.462739954831
20
-6.1560700641505
30
0
41
1
10
115.619824481428
20
-5.40158639460188
30
0
41
1
10
115.698366744727
20
-4.99641676536743
30
0
41
1
10
115.855451271324
20
-4.14991167070315
30
0
41
1
10
115.933993534623
20
-3.70868272549012
30
0
41
1
10
116.09107806122
20
-2.81147041037087
30
0
41
1
10
116.169620324519
20
-2.35557726011169
30
0
41
1
10
116.326704851116
20
-1.44891979529362
30
0
41
1
10
116.405247114415
20
-0.998209613723049
30
0
41
1
10
116.503424943538
20
-0.44810759464724
30
0
41
1
10
116.532878292275
20
-0.284057035540172
30
0
41
1
10
116.562331641012
20
-0.121707208208477
30
0
41
1
10
116.581967206837
20
-0.0138753423679248
30
0
41
1
10
116.591784989749
20
0.039777998557696
30
0
41
1
10
116.640873904311
20
0.309678210214059
30
0
41
1
10
116.68014503596
20
0.528792561308109
30
0
41
1
10
116.797958430909
20
1.1932383410701
30
0
41
1
10
116.876500694207
20
1.64580385191474
30
0
41
1
10
117.033585220804
20
2.55349217713686
30
0
41
1
10
117.112127484103
20
3.0085550485324
30
0
41
1
10
117.269212010701
20
3.90103732825378
30
0
41
1
10
117.347754273999
20
4.33836254462526
30
0
41
1
10
117.504838800597
20
5.17400433210275
30
0
41
1
10
117.583381063895
20
5.57221449304271
30
0
41
1
10
117.740465590493
20
6.31020598918542
30
0
41
1
10
117.819007853792
20
6.64990047898593
30
0
41
1
10
117.976092380389
20
7.2564101084628
30
0
41
1
10
118.054634643688
20
7.52318453059215
30
0
41
1
10
118.211719170285
20
7.97637634442495
30
0
41
1
10
118.290261433584
20
8.16280724400067
30
0
41
1
10
118.447345960181
20
8.45522563964323
30
0
41
1
10
118.52588822348
20
8.56126847400009
30
0
41
1
10
118.682972750077
20
8.69911884611992
30
0
41
1
10
118.761515013376
20
8.73099999999999
30
0
41
1
10
118.840057276675
20
8.73099999999999
30
0
0
SPLINE
5
D7
100
AcDbEntity
8
1
62
256
6
ByLayer
370
13
48
1
60
0
100
AcDbSpline
70
4
71
3
72
8
73
4
40
0
40
0
40
0
40
0
40
1
40
1
40
1
40
1
41
1
10
120.192714805445
20
8.73099999999999
30
0
41
1
10
120.235868498504
20
8.73099999999999
30
0
41
1
10
120.279022191563
20
8.7214027456105
30
0
41
1
10
120.322175884622
20
8.70129520698686
30
0
0
SPLINE
5
D8
100
AcDbEntity
8
1
62
256
6
ByLayer
370
13
48
1
60
0
100
AcDbSpline
70
4
71
3
72
82
73
78
40
0
40
0
40
0
40
0
40
0.03125
40
0.03125
40
0.0390625
40
0.0390625
40
0.046875
40
0.046875
40
0.0625
40
0.0625
40
0.09375
40
0.09375
40
0.125
40
0.125
40
0.15625
40
0.15625
40
0.1875
40
0.1875
40
0.21875
40
0.21875
40
0.25
40
0.25
40
0.28125
40
0.28125
40
0.3125
40
0.3125
40
0.34375
40
0.34375
40
0.359375
40
0.359375
40
0.3671875
40
0.3671875
40
0.375
40
0.375
40
0.40625
40
0.40625
40
0.4375
40
0.4375
40
0.46875
40
0.46875
40
0.5
40
0.5
40
0.53125
40
0.53125
40
0.5625
40
0.5625
40
0.59375
40
0.59375
40
0.625
40
0.625
40
0.65625
40
0.65625
40
0.671875
40
0.671875
40
0.6796875
40
0.6796875
40
0.6875
40
0.6875
40
0.71875
40
0.71875
40
0.75
40
0.75
40
0.78125
40
0.78125
40
0.8125
40
0.8125
40
0.84375
40
0.84375
40
0.875
40
0.875
40
0.90625
40
0.90625
40
0.9375
40
0.9375
40
0.96875
40
0.96875
40
1
40
1
40
1
40
1
41
1
10
111.3
20
1.5740128589203
30
0
41
1
10
111.373396016566
20
1.15197543550511
30
0
41
1
10
111.446792033132
20
0.734073369528346
30
0
41
1
10
111.538537053839
20
0.224558064017856
30
0
41
1
10
111.556886057981
20
0.123289475683038
30
0
41
1
10
111.593584066263
20
-0.0778217209054333
30
0
41
1
10
111.611933070405
20
-0.178692905570102
30
0
41
1
10
111.666980082829
20
-0.483822975261688
30
0
41
1
10
111.703678091112
20
-0.6898372240274
30
0
41
1
10
111.813772115961
20
-1.31354572030818
30
0
41
1
10
111.887168132527
20
-1.7370034051003
30
0
41
1
10
112.033960165659
20
-2.58536954786177
30
0
41
1
10
112.107356182224
20
-3.01023398934908
30
0
41
1
10
112.254148215356
20
-3.84490820441002
30
0
41
1
10
112.327544231922
20
-4.25465113780385
30
0
41
1
10
112.474336265054
20
-5.04164699088901
30
0
41
1
10
112.54773228162
20
-5.41882383517338
30
0
41
1
10
112.694524314751
20
-6.1245276436336
30
0
41
1
10
112.767920331317
20
-6.45298904171122
30
0
41
1
10
112.914712364449
20
-7.04858123006926
30
0
41
1
10
112.988108381015
20
-7.31567478635449
30
0
41
1
10
113.134900414147
20
-7.78093442837229
30
0
41
1
10
113.208296430712
20
-7.97909959453747
30
0
41
1
10
113.355088463844
20
-8.30458073928861
30
0
41
1
10
113.42848448041
20
-8.43192757201066
30
0
41
1
10
113.575276513542
20
-8.61904789494793
30
0
41
1
10
113.648672530108
20
-8.67887072063934
30
0
41
1
10
113.758766554956
20
-8.72333548425297
30
0
41
1
10
113.795464563239
20
-8.73063793290987
30
0
41
1
10
113.850511575664
20
-8.73116130900846
30
0
41
1
10
113.868860579805
20
-8.72960506864823
30
0
41
1
10
113.905558588088
20
-8.72288756954507
30
0
41
1
10
113.923907592229
20
-8.71772590334436
30
0
41
1
10
114.015652612937
20
-8.68255707967705
30
0
41
1
10
114.089048629503
20
-8.6243515460593
30
0
41
1
10
114.235840662634
20
-8.44060576563373
30
0
41
1
10
114.3092366792
20
-8.31501592045333
30
0
41
1
10
114.456028712332
20
-7.99307271620043
30
0
41
1
10
114.529424728898
20
-7.79668785312023
30
0
41
1
10
114.676216762029
20
-7.33487270747702
30
0
41
1
10
114.749612778596
20
-7.06944244121121
30
0
41
1
10
114.896404811727
20
-6.47692056663576
30
0
41
1
10
114.969800828293
20
-6.14986532465485
30
0
41
1
10
115.116592861425
20
-5.4466051090244
30
0
41
1
10
115.189988877991
20
-5.07046518024538
30
0
41
1
10
115.336780911122
20
-4.28511165453023
30
0
41
1
10
115.410176927688
20
-3.8759741217109
30
0
41
1
10
115.55696896082
20
-3.04207450278614
30
0
41
1
10
115.630364977386
20
-2.6173796935602
30
0
41
1
10
115.777157010517
20
-1.76896316683713
30
0
41
1
10
115.850553027083
20
-1.3452861274362
30
0
41
1
10
115.960647051932
20
-0.721016656142126
30
0
41
1
10
115.997345060215
20
-0.51477695534561
30
0
41
1
10
116.05239207264
20
-0.209259572022233
30
0
41
1
10
116.070741076781
20
-0.108059036761546
30
0
41
1
10
116.107439085064
20
0.0929085424494929
30
0
41
1
10
116.125788089205
20
0.193971165757688
30
0
41
1
10
116.217533109913
20
0.70284507178792
30
0
41
1
10
116.290929126478
20
1.12036603354784
30
0
41
1
10
116.43772115961
20
1.96403072003841
30
0
41
1
10
116.511117176176
20
2.39014352559275
30
0
41
1
10
116.657909209308
20
3.23559710278309
30
0
41
1
10
116.731305225874
20
3.65488105044727
30
0
41
1
10
116.878097259005
20
4.46944175294985
30
0
41
1
10
116.951493275571
20
4.86464469662371
30
0
41
1
10
117.098285308703
20
5.61397210283866
30
0
41
1
10
117.171681325269
20
5.96802331486847
30
0
41
1
10
117.3184733584
20
6.62042004087036
30
0
41
1
10
117.391869374966
20
6.91871276153475
30
0
41
1
10
117.538661408098
20
7.4493750477003
30
0
41
1
10
117.612057424664
20
7.68172580473191
30
0
41
1
10
117.758849457796
20
8.075812970127
30
0
41
1
10
117.832245474362
20
8.23756601269713
30
0
41
1
10
117.979037507493
20
8.49131879785054
30
0
41
1
10
118.052433524059
20
8.58336080828812
30
0
41
1
10
118.199225557191
20
8.70317500752049
30
0
41
1
10
118.272621573757
20
8.73099999999999
30
0
41
1
10
118.346017590323
20
8.73099999999999
30
0
0
SPLINE
5
D9
100
AcDbEntity
8
1
62
256
6
ByLayer
370
13
48
1
60
0
100
AcDbSpline
70
4
71
3
72
14
73
10
40
0
40
0
40
0
40
0
40
0.25
40
0.25
40
0.5
40
0.5
40
0.75
40
0.75
40
1
40
1
40
1
40
1
41
1
10
119.698675119093
20
8.73099999999999
30
0
41
1
10
119.75063351622
20
8.73099999999999
30
0
41
1
10
119.802591913348
20
8.71707998607596
30
0
41
1
10
119.906508707602
20
8.65825816012276
30
0
41
1
10
119.95846710473
20
8.61334685269142
30
0
41
1
10
120.062383898985
20
8.49004766683842
30
0
41
1
10
120.114342296112
20
8.41165078109637
30
0
41
1
10
120.218259090367
20
8.21983262799324
30
0
41
1
10
120.270217487494
20
8.10640420493152
30
0
41
1
10
120.322175884622
20
7.97528712320664
30
0
0
SPLINE
5
DA
100
AcDbEntity
8
1
62
256
6
ByLayer
370
13
48
1
60
0
100
AcDbSpline
70
4
71
3
72
78
73
74
40
0
40
0
40
0
40
0
40
0.0312500000000011
40
0.0312500000000011
40
0.0625000000000022
40
0.0625000000000022
40
0.0937500000000034
40
0.0937500000000034
40
0.125000000000004
40
0.125000000000004
40
0.156250000000006
40
0.156250000000006
40
0.187500000000007
40
0.187500000000007
40
0.218750000000008
40
0.218750000000008
40
0.250000000000009
40
0.250000000000009
40
0.28125000000001
40
0.28125000000001
40
0.296875000000011
40
0.296875000000011
40
0.304687500000011
40
0.304687500000011
40
0.312500000000012
40
0.312500000000012
40
0.343750000000012
40
0.343750000000012
40
0.375000000000012
40
0.375000000000012
40
0.406250000000013
40
0.406250000000013
40
0.437500000000013
40
0.437500000000013
40
0.468750000000013
40
0.468750000000013
40
0.500000000000013
40
0.500000000000013
40
0.531250000000014
40
0.531250000000014
40
0.562500000000014
40
0.562500000000014
40
0.593750000000014
40
0.593750000000014
40
0.625000000000015
40
0.625000000000015
40
0.640625000000015
40
0.640625000000015
40
0.648437500000015
40
0.648437500000015
40
0.656250000000015
40
0.656250000000015
40
0.687500000000013
40
0.687500000000013
40
0.718750000000012
40
0.718750000000012
40
0.750000000000011
40
0.750000000000011
40
0.781250000000009
40
0.781250000000009
40
0.812500000000008
40
0.812500000000008
40
0.843750000000007
40
0.843750000000007
40
0.875000000000005
40
0.875000000000005
40
0.906250000000004
40
0.906250000000004
40
0.937500000000003
40
0.937500000000003
40
0.968750000000001
40
0.968750000000001
40
1
40
1
40
1
40
1
41
1
10
111.3
20
-1.20300651690434
30
0
41
1
10
111.368249769833
20
-1.59271996407682
30
0
41
1
10
111.436499539666
20
-1.98769880641527
30
0
41
1
10
111.572999079332
20
-2.77653282224176
30
0
41
1
10
111.641248849165
20
-3.17035423032652
30
0
41
1
10
111.777748388831
20
-3.94340895910983
30
0
41
1
10
111.845998158664
20
-4.32259453238845
30
0
41
1
10
111.98249769833
20
-5.05237738497982
30
0
41
1
10
112.050747468163
20
-5.40292169245171
30
0
41
1
10
112.187247007829
20
-6.06243563637761
30
0
41
1
10
112.255496777663
20
-6.37135908805621
30
0
41
1
10
112.391996317329
20
-6.93719402969828
30
0
41
1
10
112.460246087161
20
-7.19407706661602
30
0
41
1
10
112.596745626827
20
-7.64910163548473
30
0
41
1
10
112.664995396661
20
-7.84723806503771
30
0
41
1
10
112.801494936327
20
-8.18226619556449
30
0
41
1
10
112.86974470616
20
-8.31917464620128
30
0
41
1
10
113.006244245826
20
-8.5332828347718
30
0
41
1
10
113.074494015659
20
-8.61051404393265
30
0
41
1
10
113.176868670408
20
-8.68519468513549
30
0
41
1
10
113.210993555325
20
-8.70324966393309
30
0
41
1
10
113.262180882699
20
-8.72068749779342
30
0
41
1
10
113.279243325158
20
-8.72489364081966
30
0
41
1
10
113.313368210074
20
-8.73020538046717
30
0
41
1
10
113.330430652532
20
-8.73131274496325
30
0
41
1
10
113.415742864824
20
-8.729374241572
30
0
41
1
10
113.483992634657
20
-8.70365098572034
30
0
41
1
10
113.620492174323
20
-8.59699988987782
30
0
41
1
10
113.688741944156
20
-8.51603519956473
30
0
41
1
10
113.825241483822
20
-8.29425024863937
30
0
41
1
10
113.893491253655
20
-8.1533991898815
30
0
41
1
10
114.029990793321
20
-7.81051754280256
30
0
41
1
10
114.098240563154
20
-7.60847144337049
30
0
41
1
10
114.23474010282
20
-7.14593281174413
30
0
41
1
10
114.302989872653
20
-6.88544691784193
30
0
41
1
10
114.439489412319
20
-6.3129743008638
30
0
41
1
10
114.507739182152
20
-6.00101741750655
30
0
41
1
10
114.644238721818
20
-5.33621093181895
30
0
41
1
10
114.712488491651
20
-4.98340831872315
30
0
41
1
10
114.848988031317
20
-4.24999856468253
30
0
41
1
10
114.91723780115
20
-3.86944440571247
30
0
41
1
10
115.053737340816
20
-3.09455395299275
30
0
41
1
10
115.121987110649
20
-2.70026471603913
30
0
41
1
10
115.258486650316
20
-1.91131542166397
30
0
41
1
10
115.326736420149
20
-1.5166880534552
30
0
41
1
10
115.429111074898
20
-0.933150860905755
30
0
41
1
10
115.463235959815
20
-0.740021751263612
30
0
41
1
10
115.514423287189
20
-0.453308655872121
30
0
41
1
10
115.531485729648
20
-0.358233091577063
30
0
41
1
10
115.565610614564
20
-0.169207978022911
30
0
41
1
10
115.582673057022
20
-0.0754031132662476
30
0
41
1
10
115.667985269314
20
0.392019759520252
30
0
41
1
10
115.736235039147
20
0.775943702252533
30
0
41
1
10
115.872734578813
20
1.55469275899893
30
0
41
1
10
115.940984348646
20
1.9495019452855
30
0
41
1
10
116.077483888312
20
2.73840672569196
30
0
41
1
10
116.145733658145
20
3.13246909090984
30
0
41
1
10
116.282233197811
20
3.90645608436358
30
0
41
1
10
116.350482967644
20
4.28633330592479
30
0
41
1
10
116.48698250731
20
5.01794381998045
30
0
41
1
10
116.555232277143
20
5.36962412914482
30
0
41
1
10
116.691731816809
20
6.03179672334841
30
0
41
1
10
116.759981586642
20
6.34224241543239
30
0
41
1
10
116.896481126308
20
6.91140530179158
30
0
41
1
10
116.964730896141
20
7.17009334656174
30
0
41
1
10
117.101230435807
20
7.62887987870266
30
0
41
1
10
117.16948020564
20
7.82897249646049
30
0
41
1
10
117.305979745306
20
8.16792795729174
30
0
41
1
10
117.374229515139
20
8.30680693455577
30
0
41
1
10
117.510729054805
20
8.52475021171929
30
0
41
1
10
117.578978824638
20
8.60384565127214
30
0
41
1
10
117.715478364305
20
8.70695209707804
30
0
41
1
10
117.783728134138
20
8.73099999999999
30
0
41
1
10
117.851977903971
20
8.73099999999999
30
0
0
SPLINE
5
DB
100
AcDbEntity
8
1
62
256
6
ByLayer
370
13
48
1
60
0
100
AcDbSpline
70
4
71
3
72
20
73
16
40
0
40
0
40
0
40
0
40
0.250000000000001
40
0.250000000000001
40
0.375000000000001
40
0.375000000000001
40
0.500000000000001
40
0.500000000000001
40
0.625000000000001
40
0.625000000000001
40
0.75
40
0.75
40
0.875
40
0.875
40
1
40
1
40
1
40
1
41
1
10
119.204635432741
20
8.73099999999999
30
0
41
1
10
119.297763803731
20
8.73099999999999
30
0
41
1
10
119.390892174721
20
8.68609554043667
30
0
41
1
10
119.530584731206
20
8.53887456832052
30
0
41
1
10
119.577148916701
20
8.47653754734145
30
0
41
1
10
119.670277287691
20
8.32403955097368
30
0
41
1
10
119.716841473186
20
8.23387400989503
30
0
41
1
10
119.809969844176
20
8.02513627297461
30
0
41
1
10
119.856534029671
20
7.90656093296664
30
0
41
1
10
119.949662400661
20
7.641264270834
30
0
41
1
10
119.996226586156
20
7.4945417947722
30
0
41
1
10
120.089354957147
20
7.17412145286085
30
0
41
1
10
120.135919142642
20
7.0004247820286
30
0
41
1
10
120.229047513632
20
6.62813708422632
30
0
41
1
10
120.275611699127
20
6.42954965012709
30
0
41
1
10
120.322175884622
20
6.219974794092
30
0
0
SPLINE
5
DC
100
AcDbEntity
8
1
62
256
6
ByLayer
370
13
48
1
60
0
100
AcDbSpline
70
4
71
3
72
78
73
74
40
0
40
0
40
0
40
0
40
0.0312499999999999
40
0.0312499999999999
40
0.0624999999999998
40
0.0624999999999998
40
0.0937499999999998
40
0.0937499999999998
40
0.125
40
0.125
40
0.15625
40
0.15625
40
0.1875
40
0.1875
40
0.218749999999999
40
0.218749999999999
40
0.249999999999999
40
0.249999999999999
40
0.2578125
40
0.2578125
40
0.265625
40
0.265625
40
0.28125
40
0.28125
40
0.3125
40
0.3125
40
0.34375
40
0.34375
40
0.375
40
0.375
40
0.40625
40
0.40625
40
0.4375
40
0.4375
40
0.46875
40
0.46875
40
0.5
40
0.5
40
0.531249999999999
40
0.531249999999999
40
0.562499999999999
40
0.562499999999999
40
0.593749999999999
40
0.593749999999999
40
0.624999999999999
40
0.624999999999999
40
0.632812499999999
40
0.632812499999999
40
0.640625
40
0.640625
40
0.65625
40
0.65625
40
0.6875
40
0.6875
40
0.71875
40
0.71875
40
0.75
40
0.75
40
0.78125
40
0.78125
40
0.8125
40
0.8125
40
0.84375
40
0.84375
40
0.875
40
0.875
40
0.90625
40
0.90625
40
0.9375
40
0.9375
40
0.96875
40
0.96875
40
1
40
1
40
1
40
1
41
1
10
111.3
20
-4.03143053476475
30
0
41
1
10
111.3631035231
20
-4.3821122823511
30
0
41
1
10
111.426207046201
20
-4.72404067118688
30
0
41
1
10
111.552414092401
20
-5.37955205315978
30
0
41
1
10
111.615517615501
20
-5.69309980182456
30
0
41
1
10
111.741724661701
20
-6.28207805672741
30
0
41
1
10
111.804828184801
20
-6.55747983644284
30
0
41
1
10
111.931035231002
20
-7.06251747210098
30
0
41
1
10
111.994138754102
20
-7.29213688022665
30
0
41
1
10
112.120345800303
20
-7.70078186841556
30
0
41
1
10
112.183449323403
20
-7.87980579122308
30
0
41
1
10
112.309656369603
20
-8.18553034598409
30
0
41
1
10
112.372759892703
20
-8.31224278812576
30
0
41
1
10
112.498966938903
20
-8.51455249816777
30
0
41
1
10
112.562070462004
20
-8.59017080085161
30
0
41
1
10
112.688277508204
20
-8.69392679197904
30
0
41
1
10
112.751381031304
20
-8.72208935945321
30
0
41
1
10
112.83026043518
20
-8.7309616850834
30
0
41
1
10
112.846036315955
20
-8.73142919759673
30
0
41
1
10
112.877588077505
20
-8.72979946260773
30
0
41
1
10
112.89336395828
20
-8.72768822796823
30
0
41
1
10
112.940691600605
20
-8.71732807122979
30
0
41
1
10
112.972243362155
20
-8.70505015563097
30
0
41
1
10
113.066898646805
20
-8.65108392155554
30
0
41
1
10
113.130002169906
20
-8.59220358922533
30
0
41
1
10
113.256209216106
20
-8.42437665222914
30
0
41
1
10
113.319312739206
20
-8.31540709158472
30
0
41
1
10
113.445519785407
20
-8.04527809444235
30
0
41
1
10
113.508623308507
20
-7.88410311852491
30
0
41
1
10
113.634830354707
20
-7.51022534233624
30
0
41
1
10
113.697933877807
20
-7.29751926700746
30
0
41
1
10
113.824140924008
20
-6.82432662888286
30
0
41
1
10
113.887244447108
20
-6.56385154248267
30
0
41
1
10
114.013451493308
20
-6.00183698504904
30
0
41
1
10
114.076555016409
20
-5.70032255650591
30
0
41
1
10
114.202762062609
20
-5.06535793701877
30
0
41
1
10
114.265865585709
20
-4.73194154234898
30
0
41
1
10
114.39207263191
20
-4.04380985754554
30
0
41
1
10
114.45517615501
20
-3.68913021479168
30
0
41
1
10
114.58138320121
20
-2.96954773198667
30
0
41
1
10
114.64448672431
20
-2.60467570413337
30
0
41
1
10
114.770693770511
20
-1.87520138340236
30
0
41
1
10
114.833797293611
20
-1.51062055705341
30
0
41
1
10
114.960004339811
20
-0.790839739521516
30
0
41
1
10
115.023107862911
20
-0.435650357223437
30
0
41
1
10
115.101987266787
20
-0.0020547981996515
30
0
41
1
10
115.117763147562
20
0.0841319765996502
30
0
41
1
10
115.149314909112
20
0.258210839343576
30
0
41
1
10
115.165090789887
20
0.345749403218008
30
0
41
1
10
115.212418432212
20
0.609706994526761
30
0
41
1
10
115.243970193762
20
0.78747176017086
30
0
41
1
10
115.338625478412
20
1.32476085433751
30
0
41
1
10
115.401729001513
20
1.6883336547786
30
0
41
1
10
115.527936047713
20
2.41746148961752
30
0
41
1
10
115.591039570813
20
2.7829968894325
30
0
41
1
10
115.717246617014
20
3.50576430464346
30
0
41
1
10
115.780350140114
20
3.86296686583572
30
0
41
1
10
115.906557186314
20
4.55803606679211
30
0
41
1
10
115.969660709414
20
4.89586745236224
30
0
41
1
10
116.095867755615
20
5.54140404182075
30
0
41
1
10
116.158971278715
20
5.84907461959565
30
0
41
1
10
116.285178324915
20
6.42481647102744
30
0
41
1
10
116.348281848015
20
6.69286078032593
30
0
41
1
10
116.474488894216
20
7.18214475704809
30
0
41
1
10
116.537592417316
20
7.4033704349072
30
0
41
1
10
116.663799463516
20
7.79471184709934
30
0
41
1
10
116.726902986617
20
7.96482841989157
30
0
41
1
10
116.853110032817
20
8.2527470836834
30
0
41
1
10
116.916213555917
20
8.37056291865369
30
0
41
1
10
117.042420602118
20
8.55554688153828
30
0
41
1
10
117.105524125218
20
8.622737085605
30
0
41
1
10
117.231731171418
20
8.71045113490433
30
0
41
1
10
117.294834694518
20
8.73099999999999
30
0
41
1
10
117.357938217618
20
8.73099999999999
30
0
0
SPLINE
5
DD
100
AcDbEntity
8
1
62
256
6
ByLayer
370
13
48
1
60
0
100
AcDbSpline
70
4
71
3
72
22
73
18
40
0
40
0
40
0
40
0
40
0.125
40
0.125
40
0.25
40
0.25
40
0.375
40
0.375
40
0.5
40
0.5
40
0.625
40
0.625
40
0.75
40
0.75
40
0.875
40
0.875
40
1
40
1
40
1
40
1
41
1
10
118.710595746389
20
8.73099999999999
30
0
41
1
10
118.777744918815
20
8.73099999999999
30
0
41
1
10
118.844894091242
20
8.70772375692502
30
0
41
1
10
118.979192436094
20
8.60801930829678
30
0
41
1
10
119.046341608521
20
8.53155705672529
30
0
41
1
10
119.180639953373
20
8.32090183943242
30
0
41
1
10
119.2477891258
20
8.18667984600194
30
0
41
1
10
119.382087470652
20
7.85898712084773
30
0
41
1
10
119.449236643079
20
7.66550065543825
30
0
41
1
10
119.583534987932
20
7.22152505484402
30
0
41
1
10
119.650684160358
20
6.97103991522292
30
0
41
1
10
119.784982505211
20
6.41927468952582
30
0
41
1
10
119.852131677637
20
6.11801986921961
30
0
41
1
10
119.98643002249
20
5.47444577027468
30
0
41
1
10
120.053579194916
20
5.13216830114263
30
0
41
1
10
120.187877539769
20
4.4187717629479
30
0
41
1
10
120.255026712195
20
4.04770146915519
30
0
41
1
10
120.322175884622
20
3.66886843670483
30
0
0
SPLINE
5
DE
100
AcDbEntity
8
1
62
256
6
ByLayer
370
13
48
1
60
0
100
AcDbSpline
70
4
71
3
72
76
73
72
40
0
40
0
40
0
40
0
40
0.0312499999999998
40
0.0312499999999998
40
0.0624999999999995
40
0.0624999999999995
40
0.0937499999999993
40
0.0937499999999993
40
0.124999999999999
40
0.124999999999999
40
0.156249999999999
40
0.156249999999999
40
0.187499999999999
40
0.187499999999999
40
0.195312499999999
40
0.195312499999999
40
0.203124999999998
40
0.218749999999998
40
0.218749999999998
40
0.249999999999998
40
0.249999999999998
40
0.281249999999998
40
0.281249999999998
40
0.312499999999998
40
0.312499999999998
40
0.343749999999998
40
0.343749999999998
40
0.374999999999997
40
0.374999999999997
40
0.406249999999997
40
0.406249999999997
40
0.437499999999997
40
0.437499999999997
40
0.468749999999997
40
0.468749999999997
40
0.499999999999997
40
0.499999999999997
40
0.531249999999997
40
0.531249999999997
40
0.562499999999997
40
0.562499999999997
40
0.593749999999996
40
0.593749999999996
40
0.601562499999996
40
0.601562499999996
40
0.609374999999996
40
0.624999999999996
40
0.624999999999996
40
0.656249999999997
40
0.656249999999997
40
0.687499999999997
40
0.687499999999997
40
0.718749999999997
40
0.718749999999997
40
0.749999999999997
40
0.749999999999997
40
0.781249999999998
40
0.781249999999998
40
0.812499999999998
40
0.812499999999998
40
0.843749999999998
40
0.843749999999998
40
0.874999999999999
40
0.874999999999999
40
0.906249999999999
40
0.906249999999999
40
0.937499999999999
40
0.937499999999999
40
0.96875
40
0.96875
40
1
40
1
40
1
40
1
41
1
10
111.3
20
-6.5040928513468
30
0
41
1
10
111.357957276367
20
-6.7518838373698
30
0
41
1
10
111.415914552735
20
-6.98149990430645
30
0
41
1
10
111.531829105469
20
-7.39968596228499
30
0
41
1
10
111.589786381837
20
-7.58825026504627
30
0
41
1
10
111.705700934572
20
-7.92176004953626
30
0
41
1
10
111.763658210939
20
-8.06670863682663
30
0
41
1
10
111.879572763673
20
-8.31260400818226
30
0
41
1
10
111.937530040041
20
-8.41356112376704
30
0
41
1
10
112.053444592776
20
-8.57307120371473
30
0
41
1
10
112.111401869143
20
-8.63163901279219
30
0
41
1
10
112.227316421878
20
-8.70955989735478
30
0
41
1
10
112.285273698245
20
-8.72892935377411
30
0
41
1
10
112.357720293704
20
-8.73132030812079
30
0
41
1
10
112.372209612796
20
-8.7307192829291
30
0
41
1
10
112.40118825098
20
-8.72730447037068
30
0
41
1
10
112.444656208255
20
-8.71885567867648
30
0
41
1
10
112.488124165531
20
-8.70010637618421
30
0
41
1
10
112.575060080082
20
-8.64809457777812
30
0
41
1
10
112.633017356449
20
-8.59402692894457
30
0
41
1
10
112.748931909184
20
-8.44379946168638
30
0
41
1
10
112.806889185551
20
-8.34762448662306
30
0
41
1
10
112.922803738286
20
-8.11137944879735
30
0
41
1
10
112.980761014653
20
-7.97129841185222
30
0
41
1
10
113.096675567388
20
-7.64737783261091
30
0
41
1
10
113.154632843755
20
-7.46353428367007
30
0
41
1
10
113.27054739649
20
-7.05439972000192
30
0
41
1
10
113.328504672858
20
-6.8291134003149
30
0
41
1
10
113.444419225592
20
-6.34157376218815
30
0
41
1
10
113.50237650196
20
-6.07933380979983
30
0
41
1
10
113.618291054694
20
-5.52426382470051
30
0
41
1
10
113.676248331062
20
-5.23145384246965
30
0
41
1
10
113.792162883796
20
-4.62300640673348
30
0
41
1
10
113.850120160164
20
-4.30739223119329
30
0
41
1
10
113.966034712899
20
-3.6618203299613
30
0
41
1
10
114.023991989266
20
-3.33188517230596
30
0
41
1
10
114.139906542001
20
-2.66617360381048
30
0
41
1
10
114.197863818368
20
-2.33041571058567
30
0
41
1
10
114.313778371103
20
-1.66095105285612
30
0
41
1
10
114.37173564747
20
-1.32725675370367
30
0
41
1
10
114.487650200205
20
-0.668730652226486
30
0
41
1
10
114.545607476572
20
-0.343904796763923
30
0
41
1
10
114.618054072031
20
0.0531798911535475
30
0
41
1
10
114.632543391123
20
0.1326867422097
30
0
41
1
10
114.661522029307
20
0.292858405299569
30
0
41
1
10
114.704989986582
20
0.534357316370034
30
0
41
1
10
114.748457943858
20
0.779225366473526
30
0
41
1
10
114.835393858409
20
1.27238231416465
30
0
41
1
10
114.893351134776
20
1.60575357001304
30
0
41
1
10
115.009265687511
20
2.27497825946671
30
0
41
1
10
115.067222963878
20
2.61081958814444
30
0
41
1
10
115.183137516613
20
3.27715327363359
30
0
41
1
10
115.24109479298
20
3.60762740839144
30
0
41
1
10
115.357009345715
20
4.25475120624702
30
0
41
1
10
115.414966622083
20
4.57137844739128
30
0
41
1
10
115.530881174817
20
5.18230727767141
30
0
41
1
10
115.588838451185
20
5.4765855264194
30
0
41
1
10
115.704753003919
20
6.03498981001644
30
0
41
1
10
115.762710280287
20
6.29909551718464
30
0
41
1
10
115.878624833021
20
6.79067324407973
30
0
41
1
10
115.936582109389
20
7.01813146092937
30
0
41
1
10
116.052496662124
20
7.43180250393914
30
0
41
1
10
116.110453938491
20
7.61801013824928
30
0
41
1
10
116.226368491226
20
7.94672939028567
30
0
41
1
10
116.284325767593
20
8.08924456671664
30
0
41
1
10
116.400240320328
20
8.33031249793302
30
0
41
1
10
116.458197596695
20
8.42887590986135
30
0
41
1
10
116.57411214943
20
8.58373702779974
30
0
41
1
10
116.632069425797
20
8.64004973908447
30
0
41
1
10
116.747983978532
20
8.71367303224343
30
0
41
1
10
116.805941254899
20
8.73099999999999
30
0
41
1
10
116.863898531267
20
8.73099999999999
30
0
0
SPLINE
5
DF
100
AcDbEntity
8
1
62
256
6
ByLayer
370
13
48
1
60
0
100
AcDbSpline
70
4
71
3
72
22
73
18
40
0
40
0
40
0
40
0
40
0.125
40
0.125
40
0.25
40
0.25
40
0.375
40
0.375
40
0.5
40
0.5
40
0.625
40
0.625
40
0.75
40
0.75
40
0.875
40
0.875
40
1
40
1
40
1
40
1
41
1
10
118.216556060037
20
8.73099999999999
30
0
41
1
10
118.304290219395
20
8.73099999999999
30
0
41
1
10
118.392024378752
20
8.69117596605091
30
0
41
1
10
118.567492697468
20
8.51776670835775
30
0
41
1
10
118.655226856825
20
8.38405545305284
30
0
41
1
10
118.830695175541
20
8.0154805628554
30
0
41
1
10
118.918429334899
20
7.78053486544459
30
0
41
1
10
119.093897653614
20
7.21238753480191
30
0
41
1
10
119.181631812972
20
6.87919483222529
30
0
41
1
10
119.357100131687
20
6.1289966564886
30
0
41
1
10
119.444834291045
20
5.71210323520003
30
0
41
1
10
119.62030260976
20
4.81867726450693
30
0
41
1
10
119.708036769118
20
4.34232182766527
30
0
41
1
10
119.883505087833
20
3.35934700741549
30
0
41
1
10
119.971239247191
20
2.85290238006888
30
0
41
1
10
120.146707565906
20
1.83877961943344
30
0
41
1
10
120.234441725264
20
1.33121788524133
30
0
41
1
10
120.322175884622
20
0.835104734517756
30
0
0
SPLINE
5
E0
100
AcDbEntity
8
1
62
256
6
ByLayer
370
13
48
1
60
0
100
AcDbSpline
70
4
71
3
72
78
73
74
40
0
40
0
40
0
40
0
40
0.0312500000000007
40
0.0312500000000007
40
0.0625000000000014
40
0.0625000000000014
40
0.0937500000000021
40
0.0937500000000021
40
0.109375000000003
40
0.109375000000003
40
0.117187500000003
40
0.117187500000003
40
0.125000000000003
40
0.125000000000003
40
0.156250000000003
40
0.156250000000003
40
0.187500000000003
40
0.187500000000003
40
0.218750000000002
40
0.218750000000002
40
0.250000000000002
40
0.250000000000002
40
0.281250000000002
40
0.281250000000002
40
0.312500000000001
40
0.312500000000001
40
0.343750000000001
40
0.343750000000001
40
0.375000000000001
40
0.375000000000001
40
0.40625
40
0.40625
40
0.4375
40
0.4375
40
0.468749999999999
40
0.468749999999999
40
0.499999999999999
40
0.499999999999999
40
0.531249999999999
40
0.531249999999999
40
0.546874999999999
40
0.546874999999999
40
0.554687499999999
40
0.554687499999999
40
0.562499999999999
40
0.562499999999999
40
0.593749999999999
40
0.593749999999999
40
0.624999999999999
40
0.624999999999999
40
0.65625
40
0.65625
40
0.6875
40
0.6875
40
0.71875
40
0.71875
40
0.75
40
0.75
40
0.78125
40
0.78125
40
0.8125
40
0.8125
40
0.84375
40
0.84375
40
0.875
40
0.875
40
0.90625
40
0.90625
40
0.9375
40
0.9375
40
0.96875
40
0.96875
40
1
40
1
40
1
40
1
41
1
10
111.3
20
-8.12950362476238
30
0
41
1
10
111.352811029634
20
-8.24787431236945
30
0
41
1
10
111.405622059269
20
-8.34796328550618
30
0
41
1
10
111.511244118538
20
-8.51249013328888
30
0
41
1
10
111.564055148173
20
-8.57693682410627
30
0
41
1
10
111.669677207442
20
-8.67227467570473
30
0
41
1
10
111.722488237076
20
-8.7031760140747
30
0
41
1
10
111.801704781528
20
-8.72659336841718
30
0
41
1
10
111.828110296345
20
-8.73058260296497
30
0
41
1
10
111.867718568571
20
-8.73116203797983
30
0
41
1
10
111.88092132598
20
-8.73045942896951
30
0
41
1
10
111.907326840797
20
-8.72721153478957
30
0
41
1
10
111.920529598206
20
-8.7246656693614
30
0
41
1
10
111.986543385249
20
-8.70719459792758
30
0
41
1
10
112.039354414883
20
-8.67801734180148
30
0
41
1
10
112.144976474152
20
-8.58626795471969
30
0
41
1
10
112.197787503787
20
-8.52368561602637
30
0
41
1
10
112.303409563056
20
-8.3629728913871
30
0
41
1
10
112.356220592691
20
-8.26483357616686
30
0
41
1
10
112.46184265196
20
-8.03200763931935
30
0
41
1
10
112.514653681594
20
-7.89731493671778
30
0
41
1
10
112.620275740863
20
-7.59176815946643
30
0
41
1
10
112.673086770498
20
-7.42091223442708
30
0
41
1
10
112.778708829767
20
-7.04493412123244
30
0
41
1
10
112.831519859401
20
-6.83981512227038
30
0
41
1
10
112.93714191867
20
-6.39869747907539
30
0
41
1
10
112.989952948305
20
-6.16270700619404
30
0
41
1
10
113.095575007574
20
-5.66455297925106
30
0
41
1
10
113.148386037208
20
-5.40240158157926
30
0
41
1
10
113.254008096478
20
-4.85764254944021
30
0
41
1
10
113.306819126112
20
-4.57504931938672
30
0
41
1
10
113.412441185381
20
-3.99572802319187
30
0
41
1
10
113.465252215015
20
-3.69901454751638
30
0
41
1
10
113.570874274285
20
-3.09793567825659
30
0
41
1
10
113.623685303919
20
-2.79358315750213
30
0
41
1
10
113.729307363188
20
-2.18345162400235
30
0
41
1
10
113.782118392823
20
-1.87768240794205
30
0
41
1
10
113.887740452092
20
-1.2703407159596
30
0
41
1
10
113.940551481726
20
-0.968774330756617
30
0
41
1
10
114.019768026178
20
-0.523158035358279
30
0
41
1
10
114.046173540995
20
-0.375734357298228
30
0
41
1
10
114.085781813221
20
-0.156651540918318
30
0
41
1
10
114.09898457063
20
-0.0839655723074202
30
0
41
1
10
114.125390085447
20
0.0606655470282647
30
0
41
1
10
114.138592842856
20
0.133201184691956
30
0
41
1
10
114.204606629899
20
0.49797065530629
30
0
41
1
10
114.257417659533
20
0.795341421686203
30
0
41
1
10
114.363039718802
20
1.39692247765447
30
0
41
1
10
114.415850748437
20
1.7011286405139
30
0
41
1
10
114.521472807706
20
2.31118579721007
30
0
41
1
10
114.574283837341
20
2.61702891551019
30
0
41
1
10
114.67990589661
20
3.22442206295028
30
0
41
1
10
114.732716926244
20
3.52596071529064
30
0
41
1
10
114.838338985513
20
4.11835423333346
30
0
41
1
10
114.891150015148
20
4.40919520389073
30
0
41
1
10
114.996772074417
20
4.97373353460034
30
0
41
1
10
115.049583104051
20
5.24741613447495
30
0
41
1
10
115.15520516332
20
5.77154560999281
30
0
41
1
10
115.208016192955
20
6.0219788963947
30
0
41
1
10
115.313638252224
20
6.49431869654836
30
0
41
1
10
115.366449281858
20
6.71621476042031
30
0
41
1
10
115.472071341128
20
7.12735808661094
30
0
41
1
10
115.524882370762
20
7.31659946656717
30
0
41
1
10
115.630504430031
20
7.65973024965621
30
0
41
1
10
115.683315459666
20
7.8136188986648
30
0
41
1
10
115.788937518935
20
8.08486071815227
30
0
41
1
10
115.841748548569
20
8.20221788523966
30
0
41
1
10
115.947370607838
20
8.40068196288644
30
0
41
1
10
116.000181637473
20
8.48179649494853
30
0
41
1
10
116.105803696742
20
8.60935003141356
30
0
41
1
10
116.158614726376
20
8.65579876288385
30
0
41
1
10
116.264236785645
20
8.71661859686728
30
0
41
1
10
116.31704781528
20
8.73099999999999
30
0
41
1
10
116.369858844915
20
8.73099999999999
30
0
0
SPLINE
5
E1
100
AcDbEntity
8
1
62
256
6
ByLayer
370
13
48
1
60
0
100
AcDbSpline
70
4
71
3
72
42
73
38
40
0
40
0
40
0
40
0
40
0.0624999999999994
40
0.0624999999999994
40
0.124999999999999
40
0.124999999999999
40
0.187499999999998
40
0.187499999999998
40
0.249999999999998
40
0.249999999999998
40
0.312499999999997
40
0.312499999999997
40
0.374999999999997
40
0.374999999999997
40
0.437499999999996
40
0.437499999999996
40
0.499999999999996
40
0.499999999999996
40
0.562499999999995
40
0.562499999999995
40
0.624999999999994
40
0.624999999999994
40
0.687499999999994
40
0.687499999999994
40
0.749999999999993
40
0.749999999999993
40
0.812499999999993
40
0.812499999999993
40
0.843749999999992
40
0.843749999999992
40
0.859374999999993
40
0.859374999999993
40
0.874999999999993
40
0.874999999999993
40
0.937499999999997
40
0.937499999999997
40
1
40
1
40
1
40
1
41
1
10
117.722516373685
20
8.73099999999999
30
0
41
1
10
117.776675946829
20
8.73099999999999
30
0
41
1
10
117.830835519974
20
8.7158734058427
30
0
41
1
10
117.939154666263
20
8.65182214125593
30
0
41
1
10
117.993314239407
20
8.60288578680624
30
0
41
1
10
118.101633385697
20
8.46844719925821
30
0
41
1
10
118.155792958841
20
8.38293401486203
30
0
41
1
10
118.26411210513
20
8.17371873807036
30
0
41
1
10
118.318271678275
20
8.05000826135645
30
0
41
1
10
118.426590824564
20
7.76421750370159
30
0
41
1
10
118.480750397708
20
7.60213319555501
30
0
41
1
10
118.589069543997
20
7.24104889005463
30
0
41
1
10
118.643229117142
20
7.04205048908065
30
0
41
1
10
118.751548263431
20
6.61026776827885
30
0
41
1
10
118.805707836575
20
6.37749098134304
30
0
41
1
10
118.914026982864
20
5.88282010663264
30
0
41
1
10
118.968186556009
20
5.62093864781531
30
0
41
1
10
119.076505702298
20
5.07395907471548
30
0
41
1
10
119.130665275442
20
4.78887683345096
30
0
41
1
10
119.238984421731
20
4.20219281959945
30
0
41
1
10
119.293143994876
20
3.90060775532868
30
0
41
1
10
119.401463141165
20
3.28791333953555
30
0
41
1
10
119.455622714309
20
2.97681916824246
30
0
41
1
10
119.563941860599
20
2.3519126878403
30
0
41
1
10
119.618101433743
20
2.03811224229605
30
0
41
1
10
119.726420580032
20
1.41399836750671
30
0
41
1
10
119.780580153177
20
1.10369256236774
30
0
41
1
10
119.861819512893
20
0.64483094548936
30
0
41
1
10
119.888899299466
20
0.492968899292435
30
0
41
1
10
119.929518979324
20
0.2672368603466
30
0
41
1
10
119.94305887261
20
0.19233582584954
30
0
41
1
10
119.970138659182
20
0.0432838775456617
30
0
41
1
10
119.983678552469
20
-0.0306513657110372
30
0
41
1
10
120.051378018899
20
-0.40306814914527
30
0
41
1
10
120.105537592044
20
-0.707072979802007
30
0
41
1
10
120.213856738333
20
-1.32272692591263
30
0
41
1
10
120.268016311477
20
-1.63437173042402
30
0
41
1
10
120.322175884622
20
-1.94707300301155
30
0
0
SPLINE
5
E2
100
AcDbEntity
8
1
62
256
6
ByLayer
370
13
48
1
60
0
100
AcDbSpline
70
4
71
3
72
73
73
69
40
0
40
0
40
0
40
0
40
0.0078125000000006
40
0.0078125000000006
40
0.0156250000000012
40
0.0156250000000012
40
0.0312500000000019
40
0.0312500000000019
40
0.0625000000000032
40
0.0625000000000032
40
0.0937500000000046
40
0.0937500000000046
40
0.125000000000006
40
0.125000000000006
40
0.156250000000007
40
0.156250000000007
40
0.187500000000008
40
0.187500000000008
40
0.21875000000001
40
0.21875000000001
40
0.250000000000011
40
0.250000000000011
40
0.281250000000012
40
0.281250000000012
40
0.312500000000014
40
0.312500000000014
40
0.343750000000015
40
0.343750000000015
40
0.375000000000016
40
0.375000000000016
40
0.406250000000017
40
0.406250000000017
40
0.437500000000019
40
0.437500000000019
40
0.500000000000021
40
0.500000000000021
40
0.507812500000021
40
0.507812500000021
40
0.515625000000021
40
0.531250000000021
40
0.531250000000021
40
0.562500000000019
40
0.562500000000019
40
0.593750000000018
40
0.593750000000018
40
0.625000000000017
40
0.625000000000017
40
0.656250000000015
40
0.656250000000015
40
0.687500000000014
40
0.687500000000014
40
0.718750000000013
40
0.718750000000013
40
0.750000000000011
40
0.750000000000011
40
0.78125000000001
40
0.78125000000001
40
0.812500000000008
40
0.812500000000008
40
0.843750000000007
40
0.843750000000007
40
0.875000000000006
40
0.875000000000006
40
0.906250000000004
40
0.906250000000004
40
0.937500000000003
40
0.937500000000003
40
1
40
1
40
1
40
1
41
1
10
111.3
20
-8.72368963612081
30
0
41
1
10
111.311916195726
20
-8.72640280582473
30
0
41
1
10
111.323832391451
20
-8.72834894338877
30
0
41
1
10
111.347664782902
20
-8.7307463253884
30
0
41
1
10
111.359580978627
20
-8.73119875827891
30
0
41
1
10
111.395329565803
20
-8.73036637975545
30
0
41
1
10
111.419161957254
20
-8.72687098471201
30
0
41
1
10
111.490659131607
20
-8.70709160194625
30
0
41
1
10
111.538323914508
20
-8.68149936511688
30
0
41
1
10
111.633653480312
20
-8.60328614673111
30
0
41
1
10
111.681318263213
20
-8.55065902267881
30
0
41
1
10
111.776647829017
20
-8.41670306393331
30
0
41
1
10
111.824312611919
20
-8.33536867240838
30
0
41
1
10
111.919642177722
20
-8.14305941008644
30
0
41
1
10
111.967306960624
20
-8.03208033534625
30
0
41
1
10
112.062636526427
20
-7.78042657225328
30
0
41
1
10
112.110301309329
20
-7.6397497556475
30
0
41
1
10
112.205630875132
20
-7.32962669490263
30
0
41
1
10
112.253295658034
20
-7.16018092092835
30
0
41
1
10
112.348625223837
20
-6.79445409184726
30
0
41
1
10
112.396290006739
20
-6.59817628895874
30
0
41
1
10
112.491619572542
20
-6.18167200570133
30
0
41
1
10
112.539284355444
20
-5.96145132766594
30
0
41
1
10
112.634613921248
20
-5.50076321715548
30
0
41
1
10
112.682278704149
20
-5.260303507608
30
0
41
1
10
112.777608269952
20
-4.76344889518842
30
0
41
1
10
112.825273052854
20
-4.5070627234355
30
0
41
1
10
112.920602618657
20
-3.98302582023376
30
0
41
1
10
112.968267401559
20
-3.71538381309523
30
0
41
1
10
113.063596967363
20
-3.17359914785132
30
0
41
1
10
113.111261750264
20
-2.89946428264764
30
0
41
1
10
113.206591316068
20
-2.34929988576974
30
0
41
1
10
113.254256098969
20
-2.07327653377007
30
0
41
1
10
113.397250447674
20
-1.24871861195166
30
0
41
1
10
113.492580013478
20
-0.704020066914751
30
0
41
1
10
113.599825775007
20
-0.112143994821224
30
0
41
1
10
113.611741970732
20
-0.0467623026319473
30
0
41
1
10
113.635574362183
20
0.0838173462651923
30
0
41
1
10
113.671322949359
20
0.28058916083026
30
0
41
1
10
113.707071536535
20
0.479882300670539
30
0
41
1
10
113.778568710888
20
0.881277430337377
30
0
41
1
10
113.82623349379
20
1.15263854391659
30
0
41
1
10
113.921563059593
20
1.69946032870271
30
0
41
1
10
113.969227842495
20
1.97491771999225
30
0
41
1
10
114.064557408298
20
2.52592269297912
30
0
41
1
10
114.1122221912
20
2.80146496404197
30
0
41
1
10
114.207551757003
20
3.34818158460087
30
0
41
1
10
114.255216539905
20
3.61934880539147
30
0
41
1
10
114.350546105708
20
4.15259621091042
30
0
41
1
10
114.39821088861
20
4.41466799020009
30
0
41
1
10
114.493540454414
20
4.92497984205033
30
0
41
1
10
114.541205237315
20
5.17321106201342
30
0
41
1
10
114.636534803118
20
5.65133391600668
30
0
41
1
10
114.68419958602
20
5.88121724692456
30
0
41
1
10
114.779529151824
20
6.31863454460577
30
0
41
1
10
114.827193934725
20
6.52616174102937
30
0
41
1
10
114.922523500529
20
6.91558492382694
30
0
41
1
10
114.97018828343
20
7.09747644941328
30
0
41
1
10
115.065517849234
20
7.43324559247503
30
0
41
1
10
115.113182632136
20
7.58712147901036
30
0
41
1
10
115.208512197939
20
7.86546992036057
30
0
41
1
10
115.256176980841
20
7.98994347430502
30
0
41
1
10
115.351506546644
20
8.20910167917847
30
0
41
1
10
115.399171329545
20
8.30378967560989
30
0
41
1
10
115.494500895349
20
8.46392805914221
30
0
41
1
10
115.542165678251
20
8.52938348650949
30
0
41
1
10
115.685160026956
20
8.68393282237497
30
0
41
1
10
115.780489592759
20
8.73099999999999
30
0
41
1
10
115.875819158563
20
8.73099999999999
30
0
0
SPLINE
5
E3
100
AcDbEntity
8
1
62
256
6
ByLayer
370
13
48
1
60
0
100
AcDbSpline
70
4
71
3
72
42
73
38
40
0
40
0
40
0
40
0
40
0.0624999999999996
40
0.0624999999999996
40
0.124999999999999
40
0.124999999999999
40
0.187499999999999
40
0.187499999999999
40
0.249999999999998
40
0.249999999999998
40
0.312499999999998
40
0.312499999999998
40
0.374999999999998
40
0.374999999999998
40
0.437499999999997
40
0.437499999999997
40
0.499999999999997
40
0.499999999999997
40
0.562499999999996
40
0.562499999999996
40
0.624999999999996
40
0.624999999999996
40
0.687499999999996
40
0.687499999999996
40
0.718749999999995
40
0.718749999999995
40
0.734374999999995
40
0.734374999999995
40
0.749999999999994
40
0.749999999999994
40
0.812499999999996
40
0.812499999999996
40
0.874999999999997
40
0.874999999999997
40
0.937499999999999
40
0.937499999999999
40
1
40
1
40
1
40
1
41
1
10
117.228476687333
20
8.73099999999999
30
0
41
1
10
117.292928753943
20
8.73099999999999
30
0
41
1
10
117.357380820553
20
8.70956106423145
30
0
41
1
10
117.486284953774
20
8.61793995135255
30
0
41
1
10
117.550737020384
20
8.54772998608536
30
0
41
1
10
117.679641153604
20
8.35438417705697
30
0
41
1
10
117.744093220214
20
8.23122408045603
30
0
41
1
10
117.872997353435
20
7.93033310364294
30
0
41
1
10
117.937449420045
20
7.75258774589861
30
0
41
1
10
118.066353553265
20
7.34402432842001
30
0
41
1
10
118.130805619875
20
7.11320672067234
30
0
41
1
10
118.259709753096
20
6.60336804962651
30
0
41
1
10
118.324161819706
20
6.32436424696576
30
0
41
1
10
118.453065952926
20
5.72613109712779
30
0
41
1
10
118.517518019537
20
5.40693319443972
30
0
41
1
10
118.646422152757
20
4.73865318622887
30
0
41
1
10
118.710874219367
20
4.38961016585012
30
0
41
1
10
118.839778352587
20
3.67325842444504
30
0
41
1
10
118.904230419198
20
3.30598822388467
30
0
41
1
10
119.033134552418
20
2.56488160863392
30
0
41
1
10
119.097586619028
20
2.19107606968223
30
0
41
1
10
119.226490752249
20
1.4476130203499
30
0
41
1
10
119.290942818859
20
1.07797474623746
30
0
41
1
10
119.387620918774
20
0.533352213530151
30
0
41
1
10
119.419846952079
20
0.353435116117026
30
0
41
1
10
119.468186002037
20
0.0866848234094562
30
0
41
1
10
119.484299018689
20
-0.0013431859695459
30
0
41
1
10
119.516525051994
20
-0.1784970993439
30
0
41
1
10
119.532638068647
20
-0.267610777963455
30
0
41
1
10
119.61320315191
20
-0.71559297796648
30
0
41
1
10
119.67765521852
20
-1.081785496789
30
0
41
1
10
119.80655935174
20
-1.82153186443958
30
0
41
1
10
119.871011418351
20
-2.19507058468628
30
0
41
1
10
119.999915551571
20
-2.93933073482052
30
0
41
1
10
120.064367618181
20
-3.31002487210975
30
0
41
1
10
120.193271751401
20
-4.03713496057549
30
0
41
1
10
120.257723818011
20
-4.39351425909959
30
0
41
1
10
120.322175884622
20
-4.7368697406707
30
0
0
SPLINE
5
E4
100
AcDbEntity
8
1
62
256
6
ByLayer
370
13
48
1
60
0
100
AcDbSpline
70
4
71
3
72
44
73
40
40
0
40
0
40
0
40
0
40
0.0624999999999983
40
0.0624999999999983
40
0.124999999999997
40
0.124999999999997
40
0.187499999999995
40
0.187499999999995
40
0.249999999999993
40
0.249999999999993
40
0.312499999999991
40
0.312499999999991
40
0.37499999999999
40
0.37499999999999
40
0.437499999999988
40
0.437499999999988
40
0.445312499999988
40
0.445312499999988
40
0.453124999999988
40
0.453124999999988
40
0.468749999999988
40
0.468749999999988
40
0.499999999999988
40
0.499999999999988
40
0.562499999999989
40
0.562499999999989
40
0.624999999999991
40
0.624999999999991
40
0.687499999999992
40
0.687499999999992
40
0.749999999999994
40
0.749999999999994
40
0.812499999999995
40
0.812499999999995
40
0.874999999999997
40
0.874999999999997
40
0.937499999999998
40
0.937499999999998
40
1
40
1
40
1
40
1
41
1
10
111.3
20
-8.3833119806792
30
0
41
1
10
111.385037072338
20
-8.24034491467938
30
0
41
1
10
111.470074144675
20
-8.05057839137029
30
0
41
1
10
111.640148289351
20
-7.57640472389622
30
0
41
1
10
111.725185361689
20
-7.29197053583971
30
0
41
1
10
111.895259506364
20
-6.63728828132466
30
0
41
1
10
111.980296578702
20
-6.26709968075247
30
0
41
1
10
112.150370723377
20
-5.45935851417264
30
0
41
1
10
112.235407795715
20
-5.02193835374106
30
0
41
1
10
112.40548194039
20
-4.10483656995089
30
0
41
1
10
112.490519012728
20
-3.62531300375719
30
0
41
1
10
112.660593157403
20
-2.65119846548899
30
0
41
1
10
112.745630229741
20
-2.15673748045199
30
0
41
1
10
112.915704374417
20
-1.17751559157182
30
0
41
1
10
113.000741446754
20
-0.692824807544184
30
0
41
1
10
113.096408153134
20
-0.163829400500077
30
0
41
1
10
113.107037787177
20
-0.105274166087526
30
0
41
1
10
113.128297055261
20
0.0113620739497264
30
0
41
1
10
113.138926689303
20
0.0695115282260588
30
0
41
1
10
113.17081559143
20
0.245114373784162
30
0
41
1
10
113.192074859514
20
0.363104705425655
30
0
41
1
10
113.255852663767
20
0.719460234867597
30
0
41
1
10
113.298371199936
20
0.960222432468669
30
0
41
1
10
113.425926808443
20
1.68857854959447
30
0
41
1
10
113.510963880781
20
2.18239724614526
30
0
41
1
10
113.681038025456
20
3.16349583791742
30
0
41
1
10
113.766075097794
20
3.65066280113811
30
0
41
1
10
113.936149242469
20
4.59167399200919
30
0
41
1
10
114.021186314807
20
5.04536385356855
30
0
41
1
10
114.191260459483
20
5.89311343059143
30
0
41
1
10
114.27629753182
20
6.28702650517849
30
0
41
1
10
114.446371676496
20
6.99411509725979
30
0
41
1
10
114.531408748833
20
7.30720459076096
30
0
41
1
10
114.701482893509
20
7.84041991788465
30
0
41
1
10
114.786519965846
20
8.060546405135
30
0
41
1
10
114.956594110522
20
8.40583518227447
30
0
41
1
10
115.04163118286
20
8.53107143232282
30
0
41
1
10
115.211705327535
20
8.69359965533545
30
0
41
1
10
115.296742399873
20
8.73099999999999
30
0
41
1
10
115.38177947221
20
8.73099999999999
30
0
0
SPLINE
5
E5
100
AcDbEntity
8
1
62
256
6
ByLayer
370
13
48
1
60
0
100
AcDbSpline
70
4
71
3
72
43
73
39
40
0
40
0
40
0
40
0
40
0.062499999999998
40
0.062499999999998
40
0.124999999999996
40
0.124999999999996
40
0.187499999999994
40
0.187499999999994
40
0.249999999999992
40
0.249999999999992
40
0.31249999999999
40
0.31249999999999
40
0.374999999999988
40
0.374999999999988
40
0.437499999999987
40
0.437499999999987
40
0.499999999999985
40
0.499999999999985
40
0.562499999999983
40
0.562499999999983
40
0.624999999999981
40
0.624999999999981
40
0.632812499999981
40
0.632812499999981
40
0.640624999999981
40
0.656249999999982
40
0.656249999999982
40
0.687499999999984
40
0.687499999999984
40
0.749999999999987
40
0.749999999999987
40
0.81249999999999
40
0.81249999999999
40
0.874999999999994
40
0.874999999999994
40
0.937499999999997
40
0.937499999999997
40
1
40
1
40
1
40
1
41
1
10
116.734437000981
20
8.73099999999999
30
0
41
1
10
116.809181561057
20
8.73099999999999
30
0
41
1
10
116.883926121133
20
8.70213914153558
30
0
41
1
10
117.033415241284
20
8.5777276286469
30
0
41
1
10
117.10815980136
20
8.4821192285585
30
0
41
1
10
117.257648921512
20
8.21851055702149
30
0
41
1
10
117.332393481588
20
8.05046476991265
30
0
41
1
10
117.48188260174
20
7.64126804644383
30
0
41
1
10
117.556627161815
20
7.40010086006788
30
0
41
1
10
117.706116281967
20
6.84992710273596
30
0
41
1
10
117.780860842043
20
6.54094409269001
30
0
41
1
10
117.930349962195
20
5.86630405942776
30
0
41
1
10
118.00509452227
20
5.50070767831116
30
0
41
1
10
118.154583642422
20
4.72861757655048
30
0
41
1
10
118.229328202498
20
4.32220521911944
30
0
41
1
10
118.378817322649
20
3.48666697676546
30
0
41
1
10
118.453561882725
20
3.05762043446873
30
0
41
1
10
118.603051002877
20
2.19490507378959
30
0
41
1
10
118.677795562953
20
1.76129465406405
30
0
41
1
10
118.827284683105
20
0.905318623835683
30
0
41
1
10
118.902029243181
20
0.48298201540328
30
0
41
1
10
118.986116873266
20
0.0211029164365186
30
0
41
1
10
118.995459943275
20
-0.0299540630699084
30
0
41
1
10
119.014146083294
20
-0.132635619431198
30
0
41
1
10
119.042175293323
20
-0.28720053896285
30
0
41
1
10
119.070204503351
20
-0.44330205599266
30
0
41
1
10
119.126262923408
20
-0.757288979797352
30
0
41
1
10
119.163635203446
20
-0.968999536501144
30
0
41
1
10
119.27575204356
20
-1.60889496981471
30
0
41
1
10
119.350496603636
20
-2.04193999045003
30
0
41
1
10
119.499985723787
20
-2.90553679099031
30
0
41
1
10
119.574730283863
20
-3.33603342481157
30
0
41
1
10
119.724219404015
20
-4.17665136799781
30
0
41
1
10
119.798963964091
20
-4.58669498482621
30
0
41
1
10
119.948453084243
20
-5.3681149238092
30
0
41
1
10
120.023197644318
20
-5.73940892293692
30
0
41
1
10
120.17268676447
20
-6.42710636623372
30
0
41
1
10
120.247431324546
20
-6.74344566368299
30
0
41
1
10
120.322175884622
20
-7.02640511140427
30
0
0
SPLINE
5
E6
100
AcDbEntity
8
1
62
256
6
ByLayer
370
13
48
1
60
0
100
AcDbSpline
70
4
71
3
72
43
73
39
40
0
40
0
40
0
40
0
40
0.0625000000000047
40
0.0625000000000047
40
0.125000000000009
40
0.125000000000009
40
0.187500000000014
40
0.187500000000014
40
0.250000000000019
40
0.250000000000019
40
0.312500000000024
40
0.312500000000024
40
0.343750000000026
40
0.343750000000026
40
0.359375000000026
40
0.367187500000027
40
0.367187500000027
40
0.375000000000027
40
0.375000000000027
40
0.437500000000024
40
0.437500000000024
40
0.500000000000022
40
0.500000000000022
40
0.562500000000019
40
0.562500000000019
40
0.625000000000016
40
0.625000000000016
40
0.687500000000014
40
0.687500000000014
40
0.750000000000011
40
0.750000000000011
40
0.812500000000008
40
0.812500000000008
40
0.875000000000006
40
0.875000000000006
40
0.937500000000003
40
0.937500000000003
40
1
40
1
40
1
40
1
41
1
10
111.3
20
-7.02640852691525
30
0
41
1
10
111.374744578872
20
-6.74344927485626
30
0
41
1
10
111.449489157744
20
-6.42711013783713
30
0
41
1
10
111.598978315488
20
-5.73941293349515
30
0
41
1
10
111.67372289436
20
-5.36811901286404
30
0
41
1
10
111.823212052104
20
-4.58669914900534
30
0
41
1
10
111.897956630976
20
-4.17665552888377
30
0
41
1
10
112.047445788721
20
-3.3360375082236
30
0
41
1
10
112.122190367593
20
-2.90554080036822
30
0
41
1
10
112.271679525337
20
-2.04194379922168
30
0
41
1
10
112.346424104209
20
-1.60889865216808
30
0
41
1
10
112.458540972517
20
-0.96900300555555
30
0
41
1
10
112.495913261953
20
-0.757292373812135
30
0
41
1
10
112.551971696107
20
-0.44330533340684
30
0
41
1
10
112.580000913184
20
-0.287203757064788
30
0
41
1
10
112.608030130261
20
-0.13263877703443
30
0
41
1
10
112.626716274979
20
-0.0299571801122624
30
0
41
1
10
112.636059347338
20
0.0210998135030991
30
0
41
1
10
112.720146998569
20
0.482978962901683
30
0
41
1
10
112.794891577441
20
0.905315635135395
30
0
41
1
10
112.944380735185
20
1.76129183089543
30
0
41
1
10
113.019125314057
20
2.19490235238223
30
0
41
1
10
113.168614471801
20
3.05761794909608
30
0
41
1
10
113.243359050673
20
3.48666462564762
30
0
41
1
10
113.392848208418
20
4.32220315782484
30
0
41
1
10
113.46759278729
20
4.72861567074764
30
0
41
1
10
113.617081945034
20
5.50070608924435
30
0
41
1
10
113.691826523906
20
5.86630263148908
30
0
41
1
10
113.84131568165
20
6.54094297582745
30
0
41
1
10
113.916060260522
20
6.84992613570691
30
0
41
1
10
114.065549418266
20
7.40010016685409
30
0
41
1
10
114.140293997138
20
7.64126747714104
30
0
41
1
10
114.289783154882
20
8.05046441309992
30
0
41
1
10
114.364527733754
20
8.21851028878049
30
0
41
1
10
114.514016891498
20
8.48211909905751
30
0
41
1
10
114.58876147037
20
8.57772754936036
30
0
41
1
10
114.738250628114
20
8.70213912696391
30
0
41
1
10
114.812995206986
20
8.73099999999999
30
0
41
1
10
114.887739785859
20
8.73099999999999
30
0
0
SPLINE
5
E7
100
AcDbEntity
8
1
62
256
6
ByLayer
370
13
48
1
60
0
100
AcDbSpline
70
4
71
3
72
44
73
40
40
0
40
0
40
0
40
0
40
0.0624999999999999
40
0.0624999999999999
40
0.125
40
0.125
40
0.1875
40
0.1875
40
0.25
40
0.25
40
0.3125
40
0.3125
40
0.375
40
0.375
40
0.4375
40
0.4375
40
0.5
40
0.5
40
0.53125
40
0.53125
40
0.546875
40
0.546875
40
0.5546875
40
0.5546875
40
0.562500000000001
40
0.562500000000001
40
0.625000000000001
40
0.625000000000001
40
0.687500000000001
40
0.687500000000001
40
0.75
40
0.75
40
0.8125
40
0.8125
40
0.875
40
0.875
40
0.9375
40
0.9375
40
1
40
1
40
1
40
1
41
1
10
116.240397314629
20
8.73099999999999
30
0
41
1
10
116.32543436817
20
8.73099999999999
30
0
41
1
10
116.410471421712
20
8.69359967195641
30
0
41
1
10
116.580545528795
20
8.5310715234753
30
0
41
1
10
116.665582582336
20
8.40583533145366
30
0
41
1
10
116.835656689419
20
8.06054671388193
30
0
41
1
10
116.920693742961
20
7.8404203282287
30
0
41
1
10
117.090767850044
20
7.30720524115173
30
0
41
1
10
117.175804903586
20
6.99411588604343
30
0
41
1
10
117.345879010669
20
6.2870275918936
30
0
41
1
10
117.43091606421
20
5.89311467667994
30
0
41
1
10
117.600990171293
20
5.04536541821926
30
0
41
1
10
117.686027224835
20
4.59167571564774
30
0
41
1
10
117.856101331918
20
3.65066482144076
30
0
41
1
10
117.941138385459
20
3.16349799575346
30
0
41
1
10
118.111212492542
20
2.18239964231614
30
0
41
1
10
118.196249546084
20
1.68858104653194
30
0
41
1
10
118.323805126396
20
0.960225047818881
30
0
41
1
10
118.366323653167
20
0.719462884301208
30
0
41
1
10
118.430101443323
20
0.363107397834739
30
0
41
1
10
118.451360706708
20
0.245117079163862
30
0
41
1
10
118.483249601786
20
0.0695142510523681
30
0
41
1
10
118.493879233479
20
0.011364799267028
30
0
41
1
10
118.515138496864
20
-0.105271400109132
30
0
41
1
10
118.525768128557
20
-0.163826614316548
30
0
41
1
10
118.621434813791
20
-0.692821840849433
30
0
41
1
10
118.706471867333
20
-1.17751247376594
30
0
41
1
10
118.876545974416
20
-2.15673410497831
30
0
41
1
10
118.961583027957
20
-2.65119498368
30
0
41
1
10
119.13165713504
20
-3.62530938021209
30
0
41
1
10
119.216694188582
20
-4.10483291126755
30
0
41
1
10
119.386768295665
20
-5.02193471479447
30
0
41
1
10
119.471805349207
20
-5.4593549302823
30
0
41
1
10
119.64187945629
20
-6.2670963016063
30
0
41
1
10
119.726916509831
20
-6.63728505185901
30
0
41
1
10
119.896990616914
20
-7.29196768757012
30
0
41
1
10
119.982027670456
20
-7.5764021069395
30
0
41
1
10
120.152101777539
20
-8.05057629191242
30
0
41
1
10
120.23713883108
20
-8.24034310111404
30
0
41
1
10
120.322175884622
20
-8.38331046384019
30
0
0
SPLINE
5
E8
100
AcDbEntity
8
1
62
256
6
ByLayer
370
13
48
1
60
0
100
AcDbSpline
70
4
71
3
72
42
73
38
40
0
40
0
40
0
40
0
40
0.0624999999999994
40
0.0624999999999994
40
0.124999999999999
40
0.124999999999999
40
0.187499999999998
40
0.187499999999998
40
0.249999999999998
40
0.249999999999998
40
0.265624999999998
40
0.265624999999998
40
0.281249999999998
40
0.281249999999998
40
0.312499999999998
40
0.312499999999998
40
0.374999999999998
40
0.374999999999998
40
0.437499999999998
40
0.437499999999998
40
0.499999999999998
40
0.499999999999998
40
0.562499999999999
40
0.562499999999999
40
0.624999999999999
40
0.624999999999999
40
0.687499999999999
40
0.687499999999999
40
0.749999999999999
40
0.749999999999999
40
0.812499999999999
40
0.812499999999999
40
0.874999999999999
40
0.874999999999999
40
0.9375
40
0.9375
40
1
40
1
40
1
40
1
41
1
10
111.3
20
-4.73687454705333
30
0
41
1
10
111.364452085406
20
-4.39351908673711
30
0
41
1
10
111.428904170813
20
-4.03713977494692
30
0
41
1
10
111.557808341626
20
-3.31002959987961
30
0
41
1
10
111.622260427032
20
-2.93933538933763
30
0
41
1
10
111.751164597845
20
-2.19507504623064
30
0
41
1
10
111.815616683251
20
-1.82153620635
30
0
41
1
10
111.944520854064
20
-1.08178956845529
30
0
41
1
10
112.00897293947
20
-0.715596899091565
30
0
41
1
10
112.089538046228
20
-0.267614500915101
30
0
41
1
10
112.10565106758
20
-0.178500782157187
30
0
41
1
10
112.137877110283
20
-0.0013467877123787
30
0
41
1
10
112.153990131635
20
0.0866812329581421
30
0
41
1
10
112.202329195689
20
0.353431561646261
30
0
41
1
10
112.234555238393
20
0.533348687120366
30
0
41
1
10
112.331233366502
20
1.07797131636778
30
0
41
1
10
112.395685451909
20
1.44760967142892
30
0
41
1
10
112.524589622721
20
2.19107291410449
30
0
41
1
10
112.589041708128
20
2.564878565459
30
0
41
1
10
112.717945878941
20
3.30598543156518
30
0
41
1
10
112.782397964347
20
3.67325577056019
30
0
41
1
10
112.91130213516
20
4.38960780589136
30
0
41
1
10
112.975754220566
20
4.73865098171609
30
0
41
1
10
113.104658391379
20
5.40693130624226
30
0
41
1
10
113.169110476785
20
5.72612936973565
30
0
41
1
10
113.298014647598
20
6.32436283402109
30
0
41
1
10
113.362466733004
20
6.60336679025841
30
0
41
1
10
113.491370903817
20
7.11320574977123
30
0
41
1
10
113.555822989223
20
7.34402349236055
30
0
41
1
10
113.684727160036
20
7.75258715216239
30
0
41
1
10
113.749179245443
20
7.93033261736826
30
0
41
1
10
113.878083416256
20
8.23122377698925
30
0
41
1
10
113.942535501662
20
8.35438394894635
30
0
41
1
10
114.071439672475
20
8.54772987588251
30
0
41
1
10
114.135891757881
20
8.61793988373262
30
0
41
1
10
114.264795928694
20
8.70956105169282
30
0
41
1
10
114.3292480141
20
8.73099999999999
30
0
41
1
10
114.393700099507
20
8.73099999999999
30
0
0
SPLINE
5
E9
100
AcDbEntity
8
1
62
256
6
ByLayer
370
13
48
1
60
0
100
AcDbSpline
70
4
71
3
72
74
73
70
40
0
40
0
40
0
40
0
40
0.0625000000000003
40
0.0625000000000003
40
0.0937500000000005
40
0.0937500000000005
40
0.125000000000001
40
0.125000000000001
40
0.156250000000001
40
0.156250000000001
40
0.187500000000001
40
0.187500000000001
40
0.218750000000001
40
0.218750000000001
40
0.250000000000001
40
0.250000000000001
40
0.281250000000001
40
0.281250000000001
40
0.312500000000002
40
0.312500000000002
40
0.343750000000002
40
0.343750000000002
40
0.375000000000002
40
0.375000000000002
40
0.406250000000002
40
0.406250000000002
40
0.437500000000002
40
0.437500000000002
40
0.468750000000002
40
0.468750000000002
40
0.484375000000002
40
0.484375000000002
40
0.492187500000002
40
0.492187500000002
40
0.500000000000002
40
0.500000000000002
40
0.562500000000002
40
0.562500000000002
40
0.593750000000002
40
0.593750000000002
40
0.625000000000002
40
0.625000000000002
40
0.656250000000002
40
0.656250000000002
40
0.687500000000001
40
0.687500000000001
40
0.718750000000001
40
0.718750000000001
40
0.750000000000001
40
0.750000000000001
40
0.781250000000001
40
0.781250000000001
40
0.812500000000001
40
0.812500000000001
40
0.843750000000001
40
0.843750000000001
40
0.875000000000001
40
0.875000000000001
40
0.906250000000001
40
0.906250000000001
40
0.9375
40
0.9375
40
0.96875
40
0.96875
40
0.984375
40
0.984375
40
0.9921875
40
0.9921875
40
1
40
1
40
1
40
1
41
1
10
115.746357628277
20
8.73099999999999
30
0
41
1
10
115.841687175284
20
8.73099999999999
30
0
41
1
10
115.937016722291
20
8.68393284106489
30
0
41
1
10
116.080011042802
20
8.52938356858235
30
0
41
1
10
116.127675816306
20
8.46392816818877
30
0
41
1
10
116.223005363313
20
8.30378985073469
30
0
41
1
10
116.270670136816
20
8.20910189341191
30
0
41
1
10
116.365999683824
20
7.9899437786105
30
0
41
1
10
116.413664457327
20
7.86547027563108
30
0
41
1
10
116.508994004334
20
7.58712194697222
30
0
41
1
10
116.556658777838
20
7.43324612216159
30
0
41
1
10
116.651988324845
20
7.09747711139582
30
0
41
1
10
116.699653098349
20
6.91558565637575
30
0
41
1
10
116.794982645356
20
6.52616262092028
30
0
41
1
10
116.842647418859
20
6.31863550126459
30
0
41
1
10
116.937976965867
20
5.88121836016683
30
0
41
1
10
116.98564173937
20
5.65133510905471
30
0
41
1
10
117.080971286378
20
5.1732124143046
30
0
41
1
10
117.128636059881
20
4.92498127376882
30
0
41
1
10
117.223965606888
20
4.4146695770381
30
0
41
1
10
117.271630380392
20
4.15259787343189
30
0
41
1
10
117.366959927399
20
3.61935061251549
30
0
41
1
10
117.414624700903
20
3.34818346063776
30
0
41
1
10
117.50995424791
20
2.80146696867939
30
0
41
1
10
117.557619021413
20
2.52592475730103
30
0
41
1
10
117.652948568421
20
1.97491989271023
30
0
41
1
10
117.700613341924
20
1.69946255013212
30
0
41
1
10
117.795942888931
20
1.15264085081162
30
0
41
1
10
117.843607662435
20
0.88127977398895
30
0
41
1
10
117.91510482269
20
0.479884690296473
30
0
41
1
10
117.938937209442
20
0.347022610873069
30
0
41
1
10
117.97468578957
20
0.149410585751269
30
0
41
1
10
117.986601982946
20
0.0838197739098518
30
0
41
1
10
118.010434369698
20
-0.0467598641909035
30
0
41
1
10
118.022350563073
20
-0.112141525338473
30
0
41
1
10
118.129596303456
20
-0.704017416256534
30
0
41
1
10
118.224925850464
20
-1.24871581026284
30
0
41
1
10
118.367920170974
20
-2.07327354499014
30
0
41
1
10
118.415584944478
20
-2.34929684124438
30
0
41
1
10
118.510914491485
20
-2.89946114402318
30
0
41
1
10
118.558579264989
20
-3.17359597088617
30
0
41
1
10
118.653908811996
20
-3.71538058061566
30
0
41
1
10
118.7015735855
20
-3.98302257059336
30
0
41
1
10
118.796903132507
20
-4.50705946361703
30
0
41
1
10
118.84456790601
20
-4.76344564236337
30
0
41
1
10
118.939897453018
20
-5.26030029473009
30
0
41
1
10
118.987562226521
20
-5.50076003723768
30
0
41
1
10
119.082891773528
20
-5.96144824002215
30
0
41
1
10
119.130556547032
20
-6.18166897737217
30
0
41
1
10
119.225886094039
20
-6.59817340446986
30
0
41
1
10
119.273550867543
20
-6.79445129187886
30
0
41
1
10
119.36888041455
20
-7.16017831259808
30
0
41
1
10
119.416545188054
20
-7.32962419367971
30
0
41
1
10
119.511874735061
20
-7.6397474873875
30
0
41
1
10
119.559539508564
20
-7.78042442983516
30
0
41
1
10
119.654869055571
20
-8.03207845864276
30
0
41
1
10
119.702533829075
20
-8.14305767324092
30
0
41
1
10
119.797863376082
20
-8.33536722415968
30
0
41
1
10
119.845528149586
20
-8.41670176440968
30
0
41
1
10
119.940857696593
20
-8.55065802433882
30
0
41
1
10
119.988522470097
20
-8.60328530083868
30
0
41
1
10
120.083852017104
20
-8.68149882308435
30
0
41
1
10
120.131516790608
20
-8.70709121131875
30
0
41
1
10
120.203013950863
20
-8.72687081733156
30
0
41
1
10
120.226846337615
20
-8.73036628615307
30
0
41
1
10
120.262594917742
20
-8.73119877405924
30
0
41
1
10
120.274511111118
20
-8.73074637776833
30
0
41
1
10
120.29834349787
20
-8.72834907110229
30
0
41
1
10
120.310259691246
20
-8.72640297199834
30
0
41
1
10
120.322175884622
20
-8.72368984154306
30
0
0
SPLINE
5
EA
100
AcDbEntity
8
1
62
256
6
ByLayer
370
13
48
1
60
0
100
AcDbSpline
70
4
71
3
72
41
73
37
40
0
40
0
40
0
40
0
40
0.0625
40
0.0625
40
0.125
40
0.125
40
0.140625
40
0.140625
40
0.156250000000001
40
0.187500000000001
40
0.187500000000001
40
0.250000000000001
40
0.250000000000001
40
0.312500000000001
40
0.312500000000001
40
0.375000000000001
40
0.375000000000001
40
0.437500000000001
40
0.437500000000001
40
0.500000000000001
40
0.500000000000001
40
0.562500000000001
40
0.562500000000001
40
0.625
40
0.625
40
0.6875
40
0.6875
40
0.75
40
0.75
40
0.8125
40
0.8125
40
0.875
40
0.875
40
0.9375
40
0.9375
40
1
40
1
40
1
40
1
41
1
10
111.3
20
-1.94707821214766
30
0
41
1
10
111.354159591941
20
-1.63437681973389
30
0
41
1
10
111.408319183882
20
-1.32273187951583
30
0
41
1
10
111.516638367763
20
-0.707077641082122
30
0
41
1
10
111.570797959704
20
-0.403072653838365
30
0
41
1
10
111.638497449629
20
-0.0306556679570917
30
0
41
1
10
111.652037347615
20
0.0432795983664391
30
0
41
1
10
111.679117143585
20
0.192331569776343
30
0
41
1
10
111.719736837541
20
0.417033657335054
30
0
41
1
10
111.760356531496
20
0.644826771587617
30
0
41
1
10
111.841595919407
20
1.10368848875495
30
0
41
1
10
111.895755511348
20
1.41399437465242
30
0
41
1
10
112.004074695229
20
2.03810843754701
30
0
41
1
10
112.05823428717
20
2.35190899044312
30
0
41
1
10
112.166553471052
20
2.97681570875881
30
0
41
1
10
112.220713062992
20
3.28791001060807
30
0
41
1
10
112.329032246874
20
3.90060470514734
30
0
41
1
10
112.383191838814
20
4.20218991759066
30
0
41
1
10
112.491511022696
20
4.78887423798975
30
0
41
1
10
112.545670614637
20
5.07395663760158
30
0
41
1
10
112.653989798518
20
5.62093652899742
30
0
41
1
10
112.708149390459
20
5.88281814773018
30
0
41
1
10
112.81646857434
20
6.37748933503599
30
0
41
1
10
112.870628166281
20
6.61026627461951
30
0
41
1
10
112.978947350162
20
7.0420492854189
30
0
41
1
10
113.033106942103
20
7.24104782371785
30
0
41
1
10
113.141426125984
20
7.60213238216488
30
0
41
1
10
113.195585717925
20
7.76421680592009
30
0
41
1
10
113.303904901807
20
8.05000776892598
30
0
41
1
10
113.358064493747
20
8.1737183353822
30
0
41
1
10
113.466383677629
20
8.38293376407248
30
0
41
1
10
113.52054326957
20
8.46844701063583
30
0
41
1
10
113.628862453451
20
8.6028856954853
30
0
41
1
10
113.683022045392
20
8.65182208508708
30
0
41
1
10
113.791341229273
20
8.71587339532417
30
0
41
1
10
113.845500821214
20
8.73099999999999
30
0
41
1
10
113.899660413155
20
8.73099999999999
30
0
0
SPLINE
5
EB
100
AcDbEntity
8
1
62
256
6
ByLayer
370
13
48
1
60
0
100
AcDbSpline
70
4
71
3
72
77
73
73
40
0
40
0
40
0
40
0
40
0.0312500000000002
40
0.0312500000000002
40
0.0625000000000004
40
0.0625000000000004
40
0.0937500000000005
40
0.0937500000000005
40
0.125000000000001
40
0.125000000000001
40
0.156250000000001
40
0.156250000000001
40
0.187500000000001
40
0.187500000000001
40
0.218750000000001
40
0.218750000000001
40
0.250000000000001
40
0.250000000000001
40
0.281250000000001
40
0.281250000000001
40
0.312500000000001
40
0.312500000000001
40
0.343750000000002
40
0.343750000000002
40
0.375000000000002
40
0.375000000000002
40
0.406250000000002
40
0.406250000000002
40
0.437500000000002
40
0.437500000000002
40
0.445312500000002
40
0.445312500000002
40
0.453125000000001
40
0.468750000000001
40
0.468750000000001
40
0.500000000000001
40
0.500000000000001
40
0.531250000000001
40
0.531250000000001
40
0.562500000000001
40
0.562500000000001
40
0.593750000000002
40
0.593750000000002
40
0.625000000000002
40
0.625000000000002
40
0.656250000000002
40
0.656250000000002
40
0.687500000000002
40
0.687500000000002
40
0.718750000000002
40
0.718750000000002
40
0.750000000000003
40
0.750000000000003
40
0.781250000000003
40
0.781250000000003
40
0.812500000000003
40
0.812500000000003
40
0.843750000000003
40
0.843750000000003
40
0.875000000000003
40
0.875000000000003
40
0.882812500000003
40
0.882812500000003
40
0.890625000000003
40
0.890625000000003
40
0.906250000000002
40
0.906250000000002
40
0.937500000000002
40
0.937500000000002
40
0.968750000000001
40
0.968750000000001
40
1
40
1
40
1
40
1
41
1
10
115.252317941925
20
8.73099999999999
30
0
41
1
10
115.305128962161
20
8.73099999999999
30
0
41
1
10
115.357939982398
20
8.71661860199461
30
0
41
1
10
115.463562022871
20
8.6557987902265
30
0
41
1
10
115.516373043107
20
8.60935007585334
30
0
41
1
10
115.62199508358
20
8.4817965867031
30
0
41
1
10
115.674806103816
20
8.40068208486682
30
0
41
1
10
115.780428144289
20
8.20221808112214
30
0
41
1
10
115.833239164526
20
8.08486095771622
30
0
41
1
10
115.938861204998
20
7.81361923833384
30
0
41
1
10
115.991672225235
20
7.65973064574936
30
0
41
1
10
116.097294265708
20
7.31659998641251
30
0
41
1
10
116.150105285944
20
7.12735867377913
30
0
41
1
10
116.255727326417
20
6.71621549023803
30
0
41
1
10
116.308538346653
20
6.49431950168216
30
0
41
1
10
116.414160387126
20
6.02197985644182
30
0
41
1
10
116.466971407363
20
5.77154664962288
30
0
41
1
10
116.572593447836
20
5.24741733338669
30
0
41
1
10
116.625404468072
20
4.97373481319559
30
0
41
1
10
116.731026508545
20
4.40919663781324
30
0
41
1
10
116.783837528781
20
4.11835574288637
30
0
41
1
10
116.889459569254
20
3.52596236835728
30
0
41
1
10
116.942270589491
20
3.22442378389107
30
0
41
1
10
117.047892629963
20
2.61703076153759
30
0
41
1
10
117.1007036502
20
2.31118770044594
30
0
41
1
10
117.206325690673
20
1.70113064558296
30
0
41
1
10
117.259136710909
20
1.39692452734923
30
0
41
1
10
117.364758751382
20
0.795343547161622
30
0
41
1
10
117.417569771618
20
0.497972811941509
30
0
41
1
10
117.483583546914
20
0.133203371893188
30
0
41
1
10
117.496786301973
20
0.0606677272588172
30
0
41
1
10
117.523191812091
20
-0.0839633513162426
30
0
41
1
10
117.562800077268
20
-0.302020236586969
30
0
41
1
10
117.602408342446
20
-0.523155694652871
30
0
41
1
10
117.6816248728
20
-0.968771875113646
30
0
41
1
10
117.734435893037
20
-1.2703381878307
30
0
41
1
10
117.84005793351
20
-1.87767974819315
30
0
41
1
10
117.892868953746
20
-2.18344890513555
30
0
41
1
10
117.998490994219
20
-2.79358033892856
30
0
41
1
10
118.051302014455
20
-3.09793281911345
30
0
41
1
10
118.156924054928
20
-3.69901163048041
30
0
41
1
10
118.209735075165
20
-3.99572508885208
30
0
41
1
10
118.315357115638
20
-4.57504637734755
30
0
41
1
10
118.368168135874
20
-4.85763961702122
30
0
41
1
10
118.473790176347
20
-5.40239869737198
30
0
41
1
10
118.526601196583
20
-5.66455013364373
30
0
41
1
10
118.632223237056
20
-6.16270426684619
30
0
41
1
10
118.685034257293
20
-6.39869480738597
30
0
41
1
10
118.790656297765
20
-6.83981261295619
30
0
41
1
10
118.843467318002
20
-7.04493170662428
30
0
41
1
10
118.949089358475
20
-7.4209100323823
30
0
41
1
10
119.001900378711
20
-7.59176607526067
30
0
41
1
10
119.107522419184
20
-7.89731310597702
30
0
41
1
10
119.16033343942
20
-8.0320059441826
30
0
41
1
10
119.265955479893
20
-8.26483216382366
30
0
41
1
10
119.31876650013
20
-8.36297162621196
30
0
41
1
10
119.424388540603
20
-8.52368465040107
30
0
41
1
10
119.477199560839
20
-8.58626714145871
30
0
41
1
10
119.582821601312
20
-8.67801683253603
30
0
41
1
10
119.635632621548
20
-8.70719424028181
30
0
41
1
10
119.701646396844
20
-8.72466549760685
30
0
41
1
10
119.714849151903
20
-8.72721140003415
30
0
41
1
10
119.741254662021
20
-8.73045936778544
30
0
41
1
10
119.75445741708
20
-8.73116201316543
30
0
41
1
10
119.794065682257
20
-8.73058268785567
30
0
41
1
10
119.820471192376
20
-8.72659352997167
30
0
41
1
10
119.89968772273
20
-8.70317641606971
30
0
41
1
10
119.952498742967
20
-8.67227525199382
30
0
41
1
10
120.05812078344
20
-8.57693777475893
30
0
41
1
10
120.110931803676
20
-8.51249128401685
30
0
41
1
10
120.216553844149
20
-8.34796485769652
30
0
41
1
10
120.269364864385
20
-8.24787610594285
30
0
41
1
10
120.322175884622
20
-8.12950564699185
30
0
0
SPLINE
5
EC
100
AcDbEntity
8
1
62
256
6
ByLayer
370
13
48
1
60
0
100
AcDbSpline
70
4
71
3
72
22
73
18
40
0
40
0
40
0
40
0
40
0.125
40
0.125
40
0.25
40
0.25
40
0.375
40
0.375
40
0.5
40
0.5
40
0.625
40
0.625
40
0.75
40
0.75
40
0.875
40
0.875
40
1
40
1
40
1
40
1
41
1
10
111.3
20
0.835099632719647
30
0
41
1
10
111.38773419695
20
1.33121291940714
30
0
41
1
10
111.4754683939
20
1.83877483505321
30
0
41
1
10
111.6509367878
20
2.85289803927529
30
0
41
1
10
111.73867098475
20
3.35934292872923
30
0
41
1
10
111.914139378651
20
4.34231832500669
30
0
41
1
10
112.001873575601
20
4.81867407548773
30
0
41
1
10
112.177341969501
20
5.7121006819809
30
0
41
1
10
112.265076166451
20
6.12899442498309
30
0
41
1
10
112.440544560351
20
6.87919320638429
30
0
41
1
10
112.528278757302
20
7.21238619251585
30
0
41
1
10
112.703747151202
20
7.7805340167684
30
0
41
1
10
112.791481348152
20
8.01547992407922
30
0
41
1
10
112.966949742052
20
8.38405514426532
30
0
41
1
10
113.054683939002
20
8.51776651977218
30
0
41
1
10
113.230152332902
20
8.69117593172882
30
0
41
1
10
113.317886529852
20
8.73099999999999
30
0
41
1
10
113.405620726802
20
8.73099999999999
30
0
0
SPLINE
5
ED
100
AcDbEntity
8
1
62
256
6
ByLayer
370
13
48
1
60
0
100
AcDbSpline
70
4
71
3
72
78
73
74
40
0
40
0
40
0
40
0
40
0.0312500000000007
40
0.0312500000000007
40
0.0625000000000015
40
0.0625000000000015
40
0.0937500000000022
40
0.0937500000000022
40
0.125000000000003
40
0.125000000000003
40
0.156250000000004
40
0.156250000000004
40
0.187500000000004
40
0.187500000000004
40
0.218750000000005
40
0.218750000000005
40
0.250000000000006
40
0.250000000000006
40
0.281250000000007
40
0.281250000000007
40
0.312500000000007
40
0.312500000000007
40
0.343750000000008
40
0.343750000000008
40
0.375000000000009
40
0.375000000000009
40
0.390625000000009
40
0.390625000000009
40
0.398437500000009
40
0.398437500000009
40
0.406250000000008
40
0.406250000000008
40
0.437500000000008
40
0.437500000000008
40
0.468750000000008
40
0.468750000000008
40
0.500000000000008
40
0.500000000000008
40
0.531250000000008
40
0.531250000000008
40
0.562500000000007
40
0.562500000000007
40
0.593750000000007
40
0.593750000000007
40
0.625000000000007
40
0.625000000000007
40
0.656250000000007
40
0.656250000000007
40
0.687500000000006
40
0.687500000000006
40
0.718750000000006
40
0.718750000000006
40
0.750000000000006
40
0.750000000000006
40
0.781250000000006
40
0.781250000000006
40
0.796875000000005
40
0.796875000000005
40
0.804687500000005
40
0.804687500000005
40
0.812500000000004
40
0.812500000000004
40
0.843750000000004
40
0.843750000000004
40
0.875000000000003
40
0.875000000000003
40
0.906250000000002
40
0.906250000000002
40
0.937500000000002
40
0.937500000000002
40
0.968750000000001
40
0.968750000000001
40
1
40
1
40
1
40
1
41
1
10
114.758278255573
20
8.73099999999999
30
0
41
1
10
114.816235522542
20
8.73099999999999
30
0
41
1
10
114.874192789511
20
8.71367303787471
30
0
41
1
10
114.99010732345
20
8.64004976926847
30
0
41
1
10
115.048064590419
20
8.58373707691842
30
0
41
1
10
115.163979124357
20
8.42887601141229
30
0
41
1
10
115.221936391327
20
8.33031263299279
30
0
41
1
10
115.337850925265
20
8.08924478347157
30
0
41
1
10
115.395808192235
20
7.94672965523267
30
0
41
1
10
115.511722726173
20
7.61801051294643
30
0
41
1
10
115.569679993143
20
7.43180294019194
30
0
41
1
10
115.685594527081
20
7.01813203086292
30
0
41
1
10
115.74355179405
20
6.79067388612688
30
0
41
1
10
115.859466327989
20
6.29909630995525
30
0
41
1
10
115.917423594958
20
6.03499068137813
30
0
41
1
10
116.033338128897
20
5.47658655657418
30
0
41
1
10
116.091295395866
20
5.18230838800619
30
0
41
1
10
116.207209929804
20
4.57137971462981
30
0
41
1
10
116.265167196774
20
4.25475255018915
30
0
41
1
10
116.381081730712
20
3.60762889768821
30
0
41
1
10
116.439038997681
20
3.27715483156734
30
0
41
1
10
116.55495353162
20
2.61082127170377
30
0
41
1
10
116.612910798589
20
2.27498000000867
30
0
41
1
10
116.728825332528
20
1.60575541058367
30
0
41
1
10
116.786782599497
20
1.27238419778314
30
0
41
1
10
116.873718499951
20
0.779227303519008
30
0
41
1
10
116.902697133435
20
0.615981952745273
30
0
41
1
10
116.946165083662
20
0.37336047182319
30
0
41
1
10
116.960654400405
20
0.29286038607583
30
0
41
1
10
116.989633033889
20
0.132688735262803
30
0
41
1
10
117.004122350632
20
0.0531818797466599
30
0
41
1
10
117.076568934343
20
-0.343902706370983
30
0
41
1
10
117.134526201312
20
-0.668728483039956
30
0
41
1
10
117.250440735251
20
-1.32725443797383
30
0
41
1
10
117.30839800222
20
-1.66094866939571
30
0
41
1
10
117.424312536159
20
-2.33041320895973
30
0
41
1
10
117.482269803128
20
-2.66617105177551
30
0
41
1
10
117.598184337066
20
-3.33188254279406
30
0
41
1
10
117.656141604036
20
-3.66181767341018
30
0
41
1
10
117.772056137974
20
-4.30738954890447
30
0
41
1
10
117.830013404944
20
-4.62300372577141
30
0
41
1
10
117.945927938882
20
-5.231451195619
30
0
41
1
10
118.003885205851
20
-5.52426121064966
30
0
41
1
10
118.11979973979
20
-6.07933129340904
30
0
41
1
10
118.177757006759
20
-6.34157131065797
30
0
41
1
10
118.293671540698
20
-6.82911110840558
30
0
41
1
10
118.351628807667
20
-7.05439752283772
30
0
41
1
10
118.467543341605
20
-7.4635323011936
30
0
41
1
10
118.525500608575
20
-7.64737597005012
30
0
41
1
10
118.641415142513
20
-7.97129680772497
30
0
41
1
10
118.699372409483
20
-8.11137798315585
30
0
41
1
10
118.815286943421
20
-8.34762330897851
30
0
41
1
10
118.87324421039
20
-8.44379843352303
30
0
41
1
10
118.989158744329
20
-8.59402620316928
30
0
41
1
10
119.047116011298
20
-8.64809400488716
30
0
41
1
10
119.134051911752
20
-8.70010603007776
30
0
41
1
10
119.163030545237
20
-8.71260564025204
30
0
41
1
10
119.206498495464
20
-8.72448773616748
30
0
41
1
10
119.220987812206
20
-8.72730434804842
30
0
41
1
10
119.249966445691
20
-8.73071923414659
30
0
41
1
10
119.264455762433
20
-8.73132029550769
30
0
41
1
10
119.336902346144
20
-8.72892952518637
30
0
41
1
10
119.394859613114
20
-8.70956023155236
30
0
41
1
10
119.510774147052
20
-8.63163970205261
30
0
41
1
10
119.568731414021
20
-8.57307208526515
30
0
41
1
10
119.68464594796
20
-8.41356241491266
30
0
41
1
10
119.742603214929
20
-8.31260551663138
30
0
41
1
10
119.858517748868
20
-8.0667105973537
30
0
41
1
10
119.916475015837
20
-7.92176224481796
30
0
41
1
10
120.032389549776
20
-7.58825293700608
30
0
41
1
10
120.090346816745
20
-7.39968887613054
30
0
41
1
10
120.206261350683
20
-6.9815032969023
30
0
41
1
10
120.264218617653
20
-6.75188746678029
30
0
41
1
10
120.322175884622
20
-6.50409670869328
30
0
0
SPLINE
5
EE
100
AcDbEntity
8
1
62
256
6
ByLayer
370
13
48
1
60
0
100
AcDbSpline
70
4
71
3
72
22
73
18
40
0
40
0
40
0
40
0
40
0.125
40
0.125
40
0.25
40
0.25
40
0.375
40
0.375
40
0.5
40
0.5
40
0.625
40
0.625
40
0.75
40
0.75
40
0.875
40
0.875
40
1
40
1
40
1
40
1
41
1
10
111.3
20
3.66886334669647
30
0
41
1
10
111.367149210019
20
4.0476966606885
30
0
41
1
10
111.434298420038
20
4.41876725724379
30
0
41
1
10
111.568596840075
20
5.13216441978702
30
0
41
1
10
111.635746050094
20
5.47444221036355
30
0
41
1
10
111.770044470131
20
6.1180169438239
30
0
41
1
10
111.83719368015
20
6.41927207704327
30
0
41
1
10
111.971492100188
20
6.97103789424918
30
0
41
1
10
112.038641310207
20
7.22152331233968
30
0
41
1
10
112.172939730244
20
7.66549941530937
30
0
41
1
10
112.240088940263
20
7.85898610456542
30
0
41
1
10
112.3743873603
20
8.18667921120158
30
0
41
1
10
112.441536570319
20
8.32090136228237
30
0
41
1
10
112.575834990357
20
8.53155682628324
30
0
41
1
10
112.642984200375
20
8.6080191669829
30
0
41
1
10
112.777282620413
20
8.70772373078501
30
0
41
1
10
112.844431830432
20
8.73099999999999
30
0
41
1
10
112.911581040451
20
8.73099999999999
30
0
0
SPLINE
5
EF
100
AcDbEntity
8
1
62
256
6
ByLayer
370
13
48
1
60
0
100
AcDbSpline
70
4
71
3
72
78
73
74
40
0
40
0
40
0
40
0
40
0.0312499999999997
40
0.0312499999999997
40
0.0624999999999994
40
0.0624999999999994
40
0.0937499999999991
40
0.0937499999999991
40
0.124999999999999
40
0.124999999999999
40
0.156249999999998
40
0.156249999999998
40
0.187499999999998
40
0.187499999999998
40
0.218749999999998
40
0.218749999999998
40
0.249999999999998
40
0.249999999999998
40
0.281249999999997
40
0.281249999999997
40
0.312499999999997
40
0.312499999999997
40
0.343749999999997
40
0.343749999999997
40
0.359374999999996
40
0.359374999999996
40
0.367187499999996
40
0.367187499999996
40
0.374999999999996
40
0.374999999999996
40
0.406249999999996
40
0.406249999999996
40
0.437499999999997
40
0.437499999999997
40
0.468749999999997
40
0.468749999999997
40
0.499999999999997
40
0.499999999999997
40
0.531249999999997
40
0.531249999999997
40
0.562499999999997
40
0.562499999999997
40
0.593749999999997
40
0.593749999999997
40
0.624999999999998
40
0.624999999999998
40
0.656249999999998
40
0.656249999999998
40
0.687499999999998
40
0.687499999999998
40
0.718749999999998
40
0.718749999999998
40
0.734374999999998
40
0.734374999999998
40
0.742187499999998
40
0.742187499999998
40
0.749999999999998
40
0.749999999999998
40
0.781249999999999
40
0.781249999999999
40
0.812499999999999
40
0.812499999999999
40
0.843749999999999
40
0.843749999999999
40
0.874999999999999
40
0.874999999999999
40
0.90625
40
0.90625
40
0.9375
40
0.9375
40
0.96875
40
0.96875
40
1
40
1
40
1
40
1
41
1
10
114.264238569221
20
8.73099999999999
30
0
41
1
10
114.327342082923
20
8.73099999999999
30
0
41
1
10
114.390445596625
20
8.71045114104098
30
0
41
1
10
114.516652624029
20
8.62273711865851
30
0
41
1
10
114.579756137731
20
8.55554693539051
30
0
41
1
10
114.705963165135
20
8.37056303010104
30
0
41
1
10
114.769066678838
20
8.25274723194184
30
0
41
1
10
114.895273706242
20
7.96482865755442
30
0
41
1
10
114.958377219944
20
7.79471213736082
30
0
41
1
10
115.084584247348
20
7.40337084404226
30
0
41
1
10
115.14768776105
20
7.1821452324501
30
0
41
1
10
115.273894788454
20
6.69286139797049
30
0
41
1
10
115.336998302156
20
6.42481716462635
30
0
41
1
10
115.46320532956
20
5.84907546942594
30
0
41
1
10
115.526308843263
20
5.54140497189846
30
0
41
1
10
115.652515870667
20
4.89586854123925
30
0
41
1
10
115.715619384369
20
4.55803723419092
30
0
41
1
10
115.841826411773
20
3.86296818286087
30
0
41
1
10
115.904929925475
20
3.5057656927504
30
0
41
1
10
116.03113695288
20
2.78299840768125
30
0
41
1
10
116.094240466582
20
2.41746306691559
30
0
41
1
10
116.220447493986
20
1.6883353351827
30
0
41
1
10
116.283551007688
20
1.32476257879983
30
0
41
1
10
116.378206278241
20
0.787473538574943
30
0
41
1
10
116.409758035092
20
0.609708788900718
30
0
41
1
10
116.457085670369
20
0.345751218530751
30
0
41
1
10
116.472861548794
20
0.258212661133996
30
0
41
1
10
116.504413305645
20
0.0841338103498401
30
0
41
1
10
116.520189184071
20
-0.0020529586797409
30
0
41
1
10
116.599068576198
20
-0.435648416356884
30
0
41
1
10
116.6621720899
20
-0.790837720646465
30
0
41
1
10
116.788379117305
20
-1.51061839520634
30
0
41
1
10
116.851482631007
20
-1.87519915662023
30
0
41
1
10
116.977689658411
20
-2.60467336796521
30
0
41
1
10
117.040793172113
20
-2.96954535140554
30
0
41
1
10
117.167000199517
20
-3.68912777279158
30
0
41
1
10
117.230103713219
20
-4.04380739857919
30
0
41
1
10
117.356310740623
20
-4.73193908206113
30
0
41
1
10
117.419414254326
20
-5.06535549240624
30
0
41
1
10
117.54562128173
20
-5.70032017824133
30
0
41
1
10
117.608724795432
20
-6.00183465746838
30
0
41
1
10
117.734931822836
20
-6.56384935017351
30
0
41
1
10
117.798035336538
20
-6.82432452114853
30
0
41
1
10
117.924242363942
20
-7.29751735776432
30
0
41
1
10
117.987345877644
20
-7.51022354697599
30
0
41
1
10
118.113552905048
20
-7.88410157295402
30
0
41
1
10
118.176656418751
20
-8.04527668473369
30
0
41
1
10
118.302863446155
20
-8.31540596675742
30
0
41
1
10
118.365966959857
20
-8.42437567637805
30
0
41
1
10
118.492173987261
20
-8.59220291542394
30
0
41
1
10
118.555277500963
20
-8.65108340079533
30
0
41
1
10
118.649932771516
20
-8.70504986143823
30
0
41
1
10
118.681484528367
20
-8.71732785207109
30
0
41
1
10
118.728812163644
20
-8.72768811998998
30
0
41
1
10
118.744588042069
20
-8.72979939146208
30
0
41
1
10
118.776139798921
20
-8.73142919956598
30
0
41
1
10
118.791915677346
20
-8.73096172337654
30
0
41
1
10
118.870795069474
20
-8.72208958683075
30
0
41
1
10
118.933898583176
20
-8.69392718756035
30
0
41
1
10
119.06010561058
20
-8.59017156420816
30
0
41
1
10
119.123209124282
20
-8.51455346110973
30
0
41
1
10
119.249416151686
20
-8.31224417534338
30
0
41
1
10
119.312519665388
20
-8.18553195788215
30
0
41
1
10
119.438726692793
20
-7.8798078674148
30
0
41
1
10
119.501830206495
20
-7.70078418418217
30
0
41
1
10
119.628037233899
20
-7.29213967670526
30
0
41
1
10
119.691140747601
20
-7.06252050965398
30
0
41
1
10
119.817347775005
20
-6.55748334267855
30
0
41
1
10
119.880451288707
20
-6.28208179049801
30
0
41
1
10
120.006658316111
20
-5.69310396261676
30
0
41
1
10
120.069761829813
20
-5.37955641337354
30
0
41
1
10
120.195968857218
20
-4.724045390214
30
0
41
1
10
120.25907237092
20
-4.38211716073005
30
0
41
1
10
120.322175884622
20
-4.03143554860838
30
0
0
SPLINE
5
F0
100
AcDbEntity
8
1
62
256
6
ByLayer
370
13
48
1
60
0
100
AcDbSpline
70
4
71
3
72
20
73
16
40
0
40
0
40
0
40
0
40
0.125
40
0.125
40
0.25
40
0.25
40
0.375
40
0.375
40
0.5
40
0.5
40
0.625
40
0.625
40
0.75
40
0.75
40
1
40
1
40
1
40
1
41
1
10
111.3
20
6.21997073341362
30
0
41
1
10
111.346564223087
20
6.42954590016117
30
0
41
1
10
111.393128446175
20
6.62813363782615
30
0
41
1
10
111.48625689235
20
7.00042191673131
30
0
41
1
10
111.532821115437
20
7.17411886507315
30
0
41
1
10
111.625949561612
20
7.49453972626162
30
0
41
1
10
111.6725137847
20
7.64126244407436
30
0
41
1
10
111.765642230874
20
7.90655954701825
30
0
41
1
10
111.812206453962
20
8.02513508608232
30
0
41
1
10
111.905334900137
20
8.23387317455786
30
0
41
1
10
111.951899123224
20
8.32403886814259
30
0
41
1
10
112.045027569399
20
8.476537122134
30
0
41
1
10
112.091591792486
20
8.53887424824632
30
0
41
1
10
112.231284461749
20
8.68609546745435
30
0
41
1
10
112.324412907924
20
8.73099999999999
30
0
41
1
10
112.417541354099
20
8.73099999999999
30
0
0
SPLINE
5
F1
100
AcDbEntity
8
1
62
256
6
ByLayer
370
13
48
1
60
0
100
AcDbSpline
70
4
71
3
72
78
73
74
40
0
40
0
40
0
40
0
40
0.0312499999999989
40
0.0312499999999989
40
0.0624999999999977
40
0.0624999999999977
40
0.0937499999999966
40
0.0937499999999966
40
0.124999999999996
40
0.124999999999996
40
0.156249999999994
40
0.156249999999994
40
0.187499999999993
40
0.187499999999993
40
0.218749999999992
40
0.218749999999992
40
0.249999999999991
40
0.249999999999991
40
0.28124999999999
40
0.28124999999999
40
0.312499999999989
40
0.312499999999989
40
0.343749999999988
40
0.343749999999988
40
0.351562499999988
40
0.351562499999988
40
0.359374999999988
40
0.359374999999988
40
0.374999999999988
40
0.374999999999988
40
0.406249999999988
40
0.406249999999988
40
0.437499999999989
40
0.437499999999989
40
0.468749999999989
40
0.468749999999989
40
0.49999999999999
40
0.49999999999999
40
0.53124999999999
40
0.53124999999999
40
0.562499999999991
40
0.562499999999991
40
0.593749999999991
40
0.593749999999991
40
0.624999999999992
40
0.624999999999992
40
0.656249999999993
40
0.656249999999993
40
0.687499999999993
40
0.687499999999993
40
0.695312499999994
40
0.695312499999994
40
0.703124999999994
40
0.703124999999994
40
0.718749999999994
40
0.718749999999994
40
0.749999999999995
40
0.749999999999995
40
0.781249999999996
40
0.781249999999996
40
0.812499999999996
40
0.812499999999996
40
0.843749999999997
40
0.843749999999997
40
0.874999999999997
40
0.874999999999997
40
0.906249999999998
40
0.906249999999998
40
0.937499999999999
40
0.937499999999999
40
0.968749999999999
40
0.968749999999999
40
1
40
1
40
1
40
1
41
1
10
113.770198882869
20
8.73099999999999
30
0
41
1
10
113.838448643304
20
8.73099999999999
30
0
41
1
10
113.906698403739
20
8.70695210372162
30
0
41
1
10
114.043197924609
20
8.60384568722233
30
0
41
1
10
114.111447685044
20
8.52475027035769
30
0
41
1
10
114.247947205913
20
8.30680705598414
30
0
41
1
10
114.316196966348
20
8.16792811884031
30
0
41
1
10
114.452696487218
20
7.82897275498416
30
0
41
1
10
114.520946247653
20
7.62888019408433
30
0
41
1
10
114.657445768523
20
7.17009378928745
30
0
41
1
10
114.725695528958
20
6.91140581498618
30
0
41
1
10
114.862195049828
20
6.34224307785695
30
0
41
1
10
114.930444810263
20
6.03179746449925
30
0
41
1
10
115.066944331133
20
5.36962502927346
30
0
41
1
10
115.135194091567
20
5.01794480031833
30
0
41
1
10
115.271693612437
20
4.28633444120888
30
0
41
1
10
115.339943372872
20
3.90645729434814
30
0
41
1
10
115.476442893742
20
3.13247043882637
30
0
41
1
10
115.544692654177
20
2.73840813681926
30
0
41
1
10
115.681192175047
20
1.94950346726046
30
0
41
1
10
115.749441935482
20
1.55469432860861
30
0
41
1
10
115.885941456352
20
0.775945349691654
30
0
41
1
10
115.954191216786
20
0.392021437166619
30
0
41
1
10
116.03950341733
20
-0.0754014086374468
30
0
41
1
10
116.056565857439
20
-0.169206241048329
30
0
41
1
10
116.090690737656
20
-0.358231314629677
30
0
41
1
10
116.107753177765
20
-0.453306859185005
30
0
41
1
10
116.158940498091
20
-0.740019896282092
30
0
41
1
10
116.193065378309
20
-0.933148968292556
30
0
41
1
10
116.295440018961
20
-1.51668605319512
30
0
41
1
10
116.363689779396
20
-1.91131335664031
30
0
41
1
10
116.500189300266
20
-2.70026254412045
30
0
41
1
10
116.568439060701
20
-3.09455173899517
30
0
41
1
10
116.704938581571
20
-3.86944213815775
30
0
41
1
10
116.773188342006
20
-4.24999628570305
30
0
41
1
10
116.909687862876
20
-4.98340605307732
30
0
41
1
10
116.97793762331
20
-5.33620869096831
30
0
41
1
10
117.11443714418
20
-6.00101526420195
30
0
41
1
10
117.182686904615
20
-6.31297221031559
30
0
41
1
10
117.319186425485
20
-6.88544498804038
30
0
41
1
10
117.38743618592
20
-7.14593097990343
30
0
41
1
10
117.52393570679
20
-7.60846983582644
30
0
41
1
10
117.592185467225
20
-7.81051606153977
30
0
41
1
10
117.728684988095
20
-8.15339797986883
30
0
41
1
10
117.796934748529
20
-8.29424918353416
30
0
41
1
10
117.933434269399
20
-8.5160344322606
30
0
41
1
10
118.001684029834
20
-8.59699927541664
30
0
41
1
10
118.138183550704
20
-8.70365067496078
30
0
41
1
10
118.206433311139
20
-8.72937408164131
30
0
41
1
10
118.291745511683
20
-8.73131276732738
30
0
41
1
10
118.308807951791
20
-8.73020543975471
30
0
41
1
10
118.342932832009
20
-8.72489377682382
30
0
41
1
10
118.359995272118
20
-8.72068767328966
30
0
41
1
10
118.411182592444
20
-8.70324996126695
30
0
41
1
10
118.445307472661
20
-8.68519506818521
30
0
41
1
10
118.547682113314
20
-8.61051469697318
30
0
41
1
10
118.615931873749
20
-8.53328368508855
30
0
41
1
10
118.752431394618
20
-8.31917591866082
30
0
41
1
10
118.820681155053
20
-8.18226769287867
30
0
41
1
10
118.957180675923
20
-7.84724002776355
30
0
41
1
10
119.025430436358
20
-7.64910383871378
30
0
41
1
10
119.161929957228
20
-7.19407975067688
30
0
41
1
10
119.230179717663
20
-6.93719695399909
30
0
41
1
10
119.366679238533
20
-6.37136247497787
30
0
41
1
10
119.434928998968
20
-6.06243924558004
30
0
41
1
10
119.571428519838
20
-5.40292571179967
30
0
41
1
10
119.639678280273
20
-5.0523815921114
30
0
41
1
10
119.776177801142
20
-4.32259906808002
30
0
41
1
10
119.844427561577
20
-3.94341363553923
30
0
41
1
10
119.980927082447
20
-3.17035913447205
30
0
41
1
10
120.049176842882
20
-2.77653781337588
30
0
41
1
10
120.185676363752
20
-1.98770391728269
30
0
41
1
10
120.253926124187
20
-1.59272510773653
30
0
41
1
10
120.322175884622
20
-1.2030116686629
30
0
0
SPLINE
5
F2
100
AcDbEntity
8
1
62
256
6
ByLayer
370
13
48
1
60
0
100
AcDbSpline
70
4
71
3
72
14
73
10
40
0
40
0
40
0
40
0
40
0.25
40
0.25
40
0.5
40
0.5
40
0.75
40
0.75
40
1
40
1
40
1
40
1
41
1
10
111.3
20
7.97528484645767
30
0
41
1
10
111.351958472312
20
8.10640232204705
30
0
41
1
10
111.403916944624
20
8.21983108852535
30
0
41
1
10
111.507833889249
20
8.41164982248137
30
0
41
1
10
111.559792361561
20
8.49004694570016
30
0
41
1
10
111.663709306185
20
8.61334650333112
30
0
41
1
10
111.715667778498
20
8.65825794512529
30
0
41
1
10
111.819584723122
20
8.71707994572427
30
0
41
1
10
111.871543195434
20
8.73099999999999
30
0
41
1
10
111.923501667747
20
8.73099999999999
30
0
0
SPLINE
5
F3
100
AcDbEntity
8
1
62
256
6
ByLayer
370
13
48
1
60
0
100
AcDbSpline
70
4
71
3
72
82
73
78
40
0
40
0
40
0
40
0
40
0.0312499999999993
40
0.0312499999999993
40
0.0624999999999987
40
0.0624999999999987
40
0.093749999999998
40
0.093749999999998
40
0.124999999999997
40
0.124999999999997
40
0.156249999999997
40
0.156249999999997
40
0.187499999999996
40
0.187499999999996
40
0.218749999999995
40
0.218749999999995
40
0.249999999999995
40
0.249999999999995
40
0.281249999999994
40
0.281249999999994
40
0.312499999999993
40
0.312499999999993
40
0.320312499999993
40
0.320312499999993
40
0.328124999999992
40
0.328124999999992
40
0.343749999999992
40
0.343749999999992
40
0.374999999999991
40
0.374999999999991
40
0.406249999999991
40
0.406249999999991
40
0.43749999999999
40
0.43749999999999
40
0.468749999999989
40
0.468749999999989
40
0.499999999999988
40
0.499999999999988
40
0.531249999999988
40
0.531249999999988
40
0.562499999999987
40
0.562499999999987
40
0.593749999999986
40
0.593749999999986
40
0.624999999999986
40
0.624999999999986
40
0.632812499999986
40
0.632812499999986
40
0.640624999999986
40
0.640624999999986
40
0.656249999999986
40
0.656249999999986
40
0.687499999999987
40
0.687499999999987
40
0.718749999999989
40
0.718749999999989
40
0.74999999999999
40
0.74999999999999
40
0.781249999999991
40
0.781249999999991
40
0.812499999999992
40
0.812499999999992
40
0.843749999999993
40
0.843749999999993
40
0.874999999999994
40
0.874999999999994
40
0.906249999999995
40
0.906249999999995
40
0.937499999999996
40
0.937499999999996
40
0.953124999999997
40
0.953124999999997
40
0.960937499999998
40
0.960937499999998
40
0.968749999999998
40
0.968749999999998
40
1
40
1
40
1
40
1
41
1
10
113.276159196517
20
8.73099999999999
30
0
41
1
10
113.349555203685
20
8.73099999999999
30
0
41
1
10
113.422951210852
20
8.70317501467272
30
0
41
1
10
113.569743225188
20
8.58336084716123
30
0
41
1
10
113.643139232356
20
8.49131886132554
30
0
41
1
10
113.789931246691
20
8.23756614417496
30
0
41
1
10
113.863327253859
20
8.07581314502795
30
0
41
1
10
114.010119268194
20
7.68172608398413
30
0
41
1
10
114.083515275362
20
7.44937538787897
30
0
41
1
10
114.230307289698
20
6.91871323674911
30
0
41
1
10
114.303703296866
20
6.62042059016309
30
0
41
1
10
114.450495311201
20
5.96802401863201
30
0
41
1
10
114.523891318369
20
5.61397288694243
30
0
41
1
10
114.670683332704
20
4.8646456395968
30
0
41
1
10
114.744079339872
20
4.46944277439698
30
0
41
1
10
114.890871354208
20
3.6548822193339
30
0
41
1
10
114.964267361375
20
3.23559834059642
30
0
41
1
10
115.111059375711
20
2.39014488595538
30
0
41
1
10
115.184455382879
20
1.96403213401106
30
0
41
1
10
115.331247397214
20
1.12036753633853
30
0
41
1
10
115.404643404382
20
0.702846609797916
30
0
41
1
10
115.496388413342
20
0.193972736040251
30
0
41
1
10
115.514737415133
20
0.0929101046544361
30
0
41
1
10
115.551435418717
20
-0.108057433784722
30
0
41
1
10
115.569784420509
20
-0.20925794886702
30
0
41
1
10
115.624831425885
20
-0.514775272483547
30
0
41
1
10
115.661529429469
20
-0.721014934577227
30
0
41
1
10
115.771623440221
20
-1.34528429482361
30
0
41
1
10
115.845019447388
20
-1.76896126693759
30
0
41
1
10
115.991811461724
20
-2.61737768253752
30
0
41
1
10
116.065207468892
20
-3.04207244799622
30
0
41
1
10
116.211999483227
20
-3.87597201216298
30
0
41
1
10
116.285395490395
20
-4.28510953406311
30
0
41
1
10
116.432187504731
20
-5.07046307711934
30
0
41
1
10
116.505583511898
20
-5.44660303420585
30
0
41
1
10
116.652375526234
20
-6.14986334722389
30
0
41
1
10
116.725771533401
20
-6.47691865828608
30
0
41
1
10
116.872563547737
20
-7.06944070778448
30
0
41
1
10
116.945959554905
20
-7.33487107984428
30
0
41
1
10
117.09275156924
20
-7.7966864649286
30
0
41
1
10
117.166147576408
20
-7.99307146157796
30
0
41
1
10
117.312939590744
20
-8.31501494899564
30
0
41
1
10
117.386335597911
20
-8.44060494369251
30
0
41
1
10
117.533127612247
20
-8.62435102690361
30
0
41
1
10
117.606523619415
20
-8.68255671373393
30
0
41
1
10
117.698268628374
20
-8.71772572463482
30
0
41
1
10
117.716617630166
20
-8.72288742807419
30
0
41
1
10
117.75331563375
20
-8.72960500110099
30
0
41
1
10
117.771664635542
20
-8.73116127800103
30
0
41
1
10
117.826711640918
20
-8.73063801140904
30
0
41
1
10
117.863409644502
20
-8.72333564066531
30
0
41
1
10
117.973503655253
20
-8.67887112520071
30
0
41
1
10
118.046899662421
20
-8.61904848434693
30
0
41
1
10
118.193691676757
20
-8.43192856397627
30
0
41
1
10
118.267087683924
20
-8.30458194898449
30
0
41
1
10
118.41387969826
20
-7.9791012605325
30
0
41
1
10
118.487275705428
20
-7.78093633287907
30
0
41
1
10
118.634067719763
20
-7.31567717123483
30
0
41
1
10
118.707463726931
20
-7.04858385670008
30
0
41
1
10
118.854255741267
20
-6.45299213483861
30
0
41
1
10
118.927651748434
20
-6.1245309613731
30
0
41
1
10
119.07444376277
20
-5.41882756573619
30
0
41
1
10
119.147839769938
20
-5.04165090955297
30
0
41
1
10
119.294631784273
20
-4.25465538167302
30
0
41
1
10
119.368027791441
20
-3.84491258533413
30
0
41
1
10
119.514819805776
20
-3.01023858609858
30
0
41
1
10
119.588215812944
20
-2.58537422340208
30
0
41
1
10
119.73500782728
20
-1.73700818039407
30
0
41
1
10
119.808403834447
20
-1.31355051663439
30
0
41
1
10
119.918497845199
20
-0.68984201359433
30
0
41
1
10
119.955195848783
20
-0.483827756232586
30
0
41
1
10
120.010242854159
20
-0.178697665046059
30
0
41
1
10
120.028591855951
20
-0.0778264367550321
30
0
41
1
10
120.065289859535
20
0.123284689202308
30
0
41
1
10
120.083638861326
20
0.224553243218395
30
0
41
1
10
120.175383870286
20
0.734068382842878
30
0
41
1
10
120.248779877454
20
1.15197033438218
30
0
41
1
10
120.322175884622
20
1.57400767104252
30
0
0
SPLINE
5
F4
100
AcDbEntity
8
1
62
256
6
ByLayer
370
13
48
1
60
0
100
AcDbSpline
70
4
71
3
72
8
73
4
40
0
40
0
40
0
40
0
40
1
40
1
40
1
40
1
41
1
10
111.3
20
8.70129478659547
30
0
41
1
10
111.343153993798
20
8.72140261169835
30
0
41
1
10
111.386307987596
20
8.73099999999999
30
0
41
1
10
111.429461981394
20
8.73099999999999
30
0
0
SPLINE
5
F5
100
AcDbEntity
8
1
62
256
6
ByLayer
370
13
48
1
60
0
100
AcDbSpline
70
4
71
3
72
85
73
81
40
0
40
0
40
0
40
0
40
0.0312499999999995
40
0.0312499999999995
40
0.0624999999999991
40
0.0624999999999991
40
0.0937499999999986
40
0.0937499999999986
40
0.124999999999998
40
0.124999999999998
40
0.156249999999998
40
0.156249999999998
40
0.187499999999997
40
0.187499999999997
40
0.218749999999997
40
0.218749999999997
40
0.249999999999996
40
0.249999999999996
40
0.281249999999996
40
0.281249999999996
40
0.296874999999995
40
0.296874999999995
40
0.300781249999995
40
0.300781249999995
40
0.304687499999995
40
0.312499999999995
40
0.312499999999995
40
0.343749999999995
40
0.343749999999995
40
0.374999999999994
40
0.374999999999994
40
0.406249999999994
40
0.406249999999994
40
0.437499999999994
40
0.437499999999994
40
0.468749999999994
40
0.468749999999994
40
0.499999999999993
40
0.499999999999993
40
0.531249999999993
40
0.531249999999993
40
0.562499999999993
40
0.562499999999993
40
0.593749999999993
40
0.593749999999993
40
0.601562499999993
40
0.601562499999993
40
0.609374999999993
40
0.609374999999993
40
0.624999999999992
40
0.624999999999992
40
0.656249999999992
40
0.656249999999992
40
0.687499999999992
40
0.687499999999992
40
0.718749999999992
40
0.718749999999992
40
0.749999999999991
40
0.749999999999991
40
0.781249999999991
40
0.781249999999991
40
0.812499999999991
40
0.812499999999991
40
0.843749999999991
40
0.843749999999991
40
0.87499999999999
40
0.87499999999999
40
0.89062499999999
40
0.89062499999999
40
0.894531249999991
40
0.894531249999991
40
0.898437499999991
40
0.898437499999991
40
0.906249999999992
40
0.906249999999992
40
0.937499999999994
40
0.937499999999994
40
0.968749999999997
40
0.968749999999997
40
1
40
1
40
1
40
1
41
1
10
112.782119510165
20
8.73099999999999
30
0
41
1
10
112.860661764065
20
8.73099999999999
30
0
41
1
10
112.939204017966
20
8.69911885378278
30
0
41
1
10
113.096288525767
20
8.56126851582133
30
0
41
1
10
113.174830779668
20
8.45522570800301
30
0
41
1
10
113.331915287469
20
8.16280738557961
30
0
41
1
10
113.410457541369
20
7.97637653270994
30
0
41
1
10
113.567542049171
20
7.52318483035361
30
0
41
1
10
113.646084303071
20
7.25641047298441
30
0
41
1
10
113.803168810873
20
6.6499009853388
30
0
41
1
10
113.881711064773
20
6.31020657255934
30
0
41
1
10
114.038795572574
20
5.57221523425193
30
0
41
1
10
114.117337826475
20
5.17400515405353
30
0
41
1
10
114.274422334276
20
4.33836352249531
30
0
41
1
10
114.352964588177
20
3.90103838123596
30
0
41
1
10
114.510049095978
20
3.00855623816935
30
0
41
1
10
114.588591349878
20
2.55349342828191
30
0
41
1
10
114.74567585768
20
1.64580520743112
30
0
41
1
10
114.82421811158
20
1.19323973945194
30
0
41
1
10
114.942031492431
20
0.528794008760855
30
0
41
1
10
114.981302619381
20
0.309679671511901
30
0
41
1
10
115.030391528069
20
0.0397794740676716
30
0
41
1
10
115.040209309807
20
-0.0138738622454753
30
0
41
1
10
115.059844873282
20
-0.121705707785679
30
0
41
1
10
115.089298218495
20
-0.284055504844446
30
0
41
1
10
115.118751563707
20
-0.448106034298803
30
0
41
1
10
115.216929381083
20
-0.99820795631706
30
0
41
1
10
115.295471634984
20
-1.44891806591539
30
0
41
1
10
115.452556142785
20
-2.35557540940098
30
0
41
1
10
115.531098396686
20
-2.8114685103854
30
0
41
1
10
115.688182904487
20
-3.70868076061021
30
0
41
1
10
115.766725158387
20
-4.14990969029887
30
0
41
1
10
115.923809666189
20
-4.99641479546472
30
0
41
1
10
116.002351920089
20
-5.40158445079101
30
0
41
1
10
116.15943642789
20
-6.15606821624519
30
0
41
1
10
116.237978681791
20
-6.50529069145236
30
0
41
1
10
116.395063189592
20
-7.13255142386606
30
0
41
1
10
116.473605443493
20
-7.41054124609315
30
0
41
1
10
116.630689951294
20
-7.88678174992927
30
0
41
1
10
116.709232205194
20
-8.0850384197868
30
0
41
1
10
116.866316712996
20
-8.40069091209818
30
0
41
1
10
116.944858966896
20
-8.51813734604227
30
0
41
1
10
117.101943474698
20
-8.67757641701931
30
0
41
1
10
117.180485728598
20
-8.71964154674265
30
0
41
1
10
117.278663545974
20
-8.73131138992275
30
0
41
1
10
117.298299109449
20
-8.73162643444363
30
0
41
1
10
117.337570236399
20
-8.72826149119055
30
0
41
1
10
117.357205799874
20
-8.72455569576758
30
0
41
1
10
117.4161124903
20
-8.70710730402536
30
0
41
1
10
117.45538361725
20
-8.68702694692894
30
0
41
1
10
117.573196998101
20
-8.59956120633612
30
0
41
1
10
117.651739252002
20
-8.50478735040491
30
0
41
1
10
117.808823759803
20
-8.23546689113437
30
0
41
1
10
117.887366013703
20
-8.06086074179296
30
0
41
1
10
118.044450521505
20
-7.63087330938382
30
0
41
1
10
118.122992775405
20
-7.37547127791996
30
0
41
1
10
118.280077283206
20
-6.7901767061677
30
0
41
1
10
118.358619537107
20
-6.46031699205588
30
0
41
1
10
118.515704044908
20
-5.73953893927626
30
0
41
1
10
118.594246298809
20
-5.34870207209025
30
0
41
1
10
118.75133080661
20
-4.52479362904947
30
0
41
1
10
118.82987306051
20
-4.0918276561562
30
0
41
1
10
118.986957568312
20
-3.20496141383367
30
0
41
1
10
119.065499822212
20
-2.75115883301697
30
0
41
1
10
119.222584330013
20
-1.84322375801449
30
0
41
1
10
119.301126583914
20
-1.3891569095623
30
0
41
1
10
119.418939964765
20
-0.720842866865979
30
0
41
1
10
119.458211091715
20
-0.500171295717337
30
0
41
1
10
119.507300000403
20
-0.228044074517101
30
0
41
1
10
119.517117782141
20
-0.173803513635761
30
0
41
1
10
119.536753345616
20
-0.0657164096431586
30
0
41
1
10
119.546571127353
20
-0.0120001410615487
30
0
41
1
10
119.576024472566
20
0.149553479198488
30
0
41
1
10
119.595660036041
20
0.258067022834098
30
0
41
1
10
119.693837853417
20
0.804204935732486
30
0
41
1
10
119.772380107318
20
1.25271942777499
30
0
41
1
10
119.929464615119
20
2.15758408861646
30
0
41
1
10
120.008006869019
20
2.61388599074959
30
0
41
1
10
120.165091376821
20
3.51495080263604
30
0
41
1
10
120.243633630721
20
3.95962789062264
30
0
41
1
10
120.322175884622
20
4.38787201050647
30
0
0
SPLINE
5
F6
100
AcDbEntity
8
1
62
256
6
ByLayer
370
13
48
1
60
0
100
AcDbSpline
70
4
71
3
72
84
73
80
40
0
40
0
40
0
40
0
40
0.0312500000000004
40
0.0312500000000004
40
0.0625000000000009
40
0.0625000000000009
40
0.0937500000000013
40
0.0937500000000013
40
0.125000000000002
40
0.125000000000002
40
0.156250000000002
40
0.156250000000002
40
0.187500000000002
40
0.187500000000002
40
0.218750000000003
40
0.218750000000003
40
0.250000000000003
40
0.250000000000003
40
0.265625000000004
40
0.265625000000004
40
0.273437500000004
40
0.273437500000004
40
0.281250000000004
40
0.281250000000004
40
0.312500000000003
40
0.312500000000003
40
0.343750000000003
40
0.343750000000003
40
0.375000000000003
40
0.375000000000003
40
0.406250000000003
40
0.406250000000003
40
0.437500000000002
40
0.437500000000002
40
0.468750000000002
40
0.468750000000002
40
0.500000000000002
40
0.500000000000002
40
0.531250000000002
40
0.531250000000002
40
0.546875000000002
40
0.546875000000002
40
0.554687500000002
40
0.558593750000002
40
0.558593750000002
40
0.562500000000002
40
0.562500000000002
40
0.593750000000002
40
0.593750000000002
40
0.625000000000002
40
0.625000000000002
40
0.656250000000002
40
0.656250000000002
40
0.687500000000002
40
0.687500000000002
40
0.718750000000002
40
0.718750000000002
40
0.750000000000002
40
0.750000000000002
40
0.781250000000003
40
0.781250000000003
40
0.812500000000003
40
0.812500000000003
40
0.828125000000003
40
0.828125000000003
40
0.835937500000003
40
0.839843750000003
40
0.839843750000003
40
0.843750000000002
40
0.843750000000002
40
0.875000000000002
40
0.875000000000002
40
0.906250000000002
40
0.906250000000002
40
0.937500000000001
40
0.937500000000001
40
0.968750000000001
40
0.968750000000001
40
1
40
1
40
1
40
1
41
1
10
112.288079823813
20
8.73099999999999
30
0
41
1
10
112.371768324446
20
8.73099999999999
30
0
41
1
10
112.455456825079
20
8.69478248674258
30
0
41
1
10
112.622833826346
20
8.53755517735897
30
0
41
1
10
112.70652232698
20
8.41644509351369
30
0
41
1
10
112.873899328247
20
8.08250727524901
30
0
41
1
10
112.95758782888
20
7.86960958362869
30
0
41
1
10
113.124964830147
20
7.35349315969509
30
0
41
1
10
113.208653330781
20
7.05027003268401
30
0
41
1
10
113.376030332047
20
6.36446185582901
30
0
41
1
10
113.459718832681
20
5.98195151565966
30
0
41
1
10
113.627095833948
20
5.15705662989902
30
0
41
1
10
113.710784334581
20
4.71480471816923
30
0
41
1
10
113.878161335848
20
3.79521758637375
30
0
41
1
10
113.961849836481
20
3.31802649494651
30
0
41
1
10
114.129226837748
20
2.35431177429874
30
0
41
1
10
114.212915338382
20
1.867898230457
30
0
41
1
10
114.338448089332
20
1.14833019581536
30
0
41
1
10
114.380292339648
20
0.910115566289733
30
0
41
1
10
114.443058715123
20
0.557000615451642
30
0
41
1
10
114.463980840282
20
0.439993946543524
30
0
41
1
10
114.505825090599
20
0.207632700845323
30
0
41
1
10
114.526747215757
20
0.092495538088798
30
0
41
1
10
114.631357841549
20
-0.480772605980121
30
0
41
1
10
114.715046342182
20
-0.954464342353219
30
0
41
1
10
114.882423343449
20
-1.91470605757422
30
0
41
1
10
114.966111844082
20
-2.40120081785878
30
0
41
1
10
115.133488845349
20
-3.36428009274164
30
0
41
1
10
115.217177345983
20
-3.84075291714757
30
0
41
1
10
115.38455434725
20
-4.75806656179356
30
0
41
1
10
115.468242847883
20
-5.19876283498471
30
0
41
1
10
115.63561984915
20
-6.01981145733688
30
0
41
1
10
115.719308349783
20
-6.40003238979261
30
0
41
1
10
115.88668535105
20
-7.08075875084305
30
0
41
1
10
115.970373851684
20
-7.38119187657674
30
0
41
1
10
116.137750852951
20
-7.89153033500696
30
0
41
1
10
116.221439353584
20
-8.10144255710023
30
0
41
1
10
116.388816354851
20
-8.42951151495001
30
0
41
1
10
116.472504855484
20
-8.54773979031486
30
0
41
1
10
116.598037606434
20
-8.66158699783392
30
0
41
1
10
116.639881856751
20
-8.68901081911824
30
0
41
1
10
116.702648232226
20
-8.71543185377683
30
0
41
1
10
116.734031419964
20
-8.72496731150869
30
0
41
1
10
116.765414607701
20
-8.72921946004686
30
0
41
1
10
116.786336732859
20
-8.73090720112137
30
0
41
1
10
116.796797795439
20
-8.7311788463378
30
0
41
1
10
116.890947358651
20
-8.72855595168699
30
0
41
1
10
116.974635859285
20
-8.6897762431777
30
0
41
1
10
117.142012860552
20
-8.52709714328125
30
0
41
1
10
117.225701361185
20
-8.40309784231096
30
0
41
1
10
117.393078362452
20
-8.06328511887651
30
0
41
1
10
117.476766863085
20
-7.84740336032044
30
0
41
1
10
117.644143864352
20
-7.32552191556871
30
0
41
1
10
117.727832364986
20
-7.01952034476545
30
0
41
1
10
117.895209366252
20
-6.32866252711173
30
0
41
1
10
117.978897866886
20
-5.94388337385598
30
0
41
1
10
118.146274868153
20
-5.11518902361169
30
0
41
1
10
118.229963368786
20
-4.67140762686554
30
0
41
1
10
118.397340370053
20
-3.74960027461006
30
0
41
1
10
118.481028870686
20
-3.27171797995084
30
0
41
1
10
118.648405871953
20
-2.3074186725737
30
0
41
1
10
118.732094372587
20
-1.82111011658569
30
0
41
1
10
118.857627123537
20
-1.10218656568046
30
0
41
1
10
118.899471373854
20
-0.864267266342523
30
0
41
1
10
118.962237749329
20
-0.51169829066211
30
0
41
1
10
118.993620937066
20
-0.336486991429922
30
0
41
1
10
119.025004124804
20
-0.163169172565148
30
0
41
1
10
119.045926249962
20
-0.0480734039183517
30
0
41
1
10
119.056387312541
20
0.0090980599528336
30
0
41
1
10
119.150536875754
20
0.526105810267126
30
0
41
1
10
119.234225376387
20
1.0005140186592
30
0
41
1
10
119.401602377654
20
1.96153139167967
30
0
41
1
10
119.485290878288
20
2.44808344005608
30
0
41
1
10
119.652667879554
20
3.41047620968058
30
0
41
1
10
119.736356380188
20
3.88620366075099
30
0
41
1
10
119.903733381455
20
4.80119061713319
30
0
41
1
10
119.987421882088
20
5.24030520687629
30
0
41
1
10
120.154798883355
20
6.05746112347842
30
0
41
1
10
120.238487383988
20
6.43537230107754
30
0
41
1
10
120.322175884622
20
6.77317877259091
30
0
0
SPLINE
5
F7
100
AcDbEntity
8
1
62
256
6
ByLayer
370
13
48
1
60
0
100
AcDbSpline
70
4
71
3
72
86
73
82
40
0
40
0
40
0
40
0
40
0.0312500000000026
40
0.0312500000000026
40
0.0625000000000051
40
0.0625000000000051
40
0.0937500000000077
40
0.0937500000000077
40
0.12500000000001
40
0.12500000000001
40
0.156250000000013
40
0.156250000000013
40
0.187500000000015
40
0.187500000000015
40
0.218750000000018
40
0.218750000000018
40
0.25000000000002
40
0.25000000000002
40
0.257812500000021
40
0.257812500000021
40
0.261718750000021
40
0.261718750000021
40
0.265625000000021
40
0.265625000000021
40
0.281250000000021
40
0.281250000000021
40
0.31250000000002
40
0.31250000000002
40
0.343750000000018
40
0.343750000000018
40
0.375000000000017
40
0.375000000000017
40
0.406250000000016
40
0.406250000000016
40
0.437500000000015
40
0.437500000000015
40
0.468750000000014
40
0.468750000000014
40
0.500000000000013
40
0.500000000000013
40
0.515625000000012
40
0.515625000000012
40
0.523437500000012
40
0.523437500000012
40
0.527343750000012
40
0.527343750000012
40
0.531250000000012
40
0.531250000000012
40
0.562500000000012
40
0.562500000000012
40
0.593750000000011
40
0.593750000000011
40
0.625000000000011
40
0.625000000000011
40
0.656250000000011
40
0.656250000000011
40
0.687500000000011
40
0.687500000000011
40
0.71875000000001
40
0.71875000000001
40
0.75000000000001
40
0.75000000000001
40
0.78125000000001
40
0.78125000000001
40
0.78906250000001
40
0.78906250000001
40
0.796875000000009
40
0.796875000000009
40
0.812500000000009
40
0.812500000000009
40
0.843750000000007
40
0.843750000000007
40
0.875000000000006
40
0.875000000000006
40
0.906250000000004
40
0.906250000000004
40
0.937500000000003
40
0.937500000000003
40
0.968750000000002
40
0.968750000000002
40
1
40
1
40
1
40
1
41
1
10
111.794040137461
20
8.73099999999999
30
0
41
1
10
111.882874884827
20
8.73099999999999
30
0
41
1
10
111.971709632193
20
8.69016465979578
30
0
41
1
10
112.149379126926
20
8.51220790426515
30
0
41
1
10
112.238213874292
20
8.37495265126128
30
0
41
1
10
112.415883369025
20
7.99665205187097
30
0
41
1
10
112.504718116391
20
7.75552133106674
30
0
41
1
10
112.682387611123
20
7.17284357175944
30
0
41
1
10
112.77122235849
20
6.8313102788232
30
0
41
1
10
112.948891853222
20
6.06332637470527
30
0
41
1
10
113.037726600588
20
5.63699982218782
30
0
41
1
10
113.215396095321
20
4.72497580888989
30
0
41
1
10
113.304230842687
20
4.23946880754195
30
0
41
1
10
113.48190033742
20
3.23974276988216
30
0
41
1
10
113.570735084786
20
2.72570664681191
30
0
41
1
10
113.748404579519
20
1.69880193235178
30
0
41
1
10
113.837239326885
20
1.18605018052395
30
0
41
1
10
113.948282761093
20
0.561097361961799
30
0
41
1
10
113.970491447934
20
0.436888915827325
30
0
41
1
10
114.003804478197
20
0.251978614274606
30
0
41
1
10
114.014908821617
20
0.190575335604763
30
0
41
1
10
114.037117508459
20
0.0682710588715452
30
0
41
1
10
114.04822185188
20
0.0075427178542782
30
0
41
1
10
114.103743568984
20
-0.297161105295146
30
0
41
1
10
114.148160942667
20
-0.54507437890814
30
0
41
1
10
114.281413063716
20
-1.29767488773874
30
0
41
1
10
114.370247811082
20
-1.81143075122304
30
0
41
1
10
114.547917305815
20
-2.83831223595982
30
0
41
1
10
114.636752053181
20
-3.35131508816821
30
0
41
1
10
114.814421547914
20
-4.34669649674899
30
0
41
1
10
114.90325629528
20
-4.82888917899459
30
0
41
1
10
115.080925790012
20
-5.73216765272485
30
0
41
1
10
115.169760537379
20
-6.15306543270475
30
0
41
1
10
115.347430032111
20
-6.90865875071646
30
0
41
1
10
115.436264779477
20
-7.24323742523077
30
0
41
1
10
115.61393427421
20
-7.81132865392732
30
0
41
1
10
115.702769021576
20
-8.04483574962359
30
0
41
1
10
115.880438516309
20
-8.40809140799357
30
0
41
1
10
115.969273263675
20
-8.53793085924582
30
0
41
1
10
116.102525384725
20
-8.66093871087708
30
0
41
1
10
116.146942758408
20
-8.69005695995324
30
0
41
1
10
116.213568818932
20
-8.71719068451404
30
0
41
1
10
116.235777505774
20
-8.72348105115739
30
0
41
1
10
116.269090536036
20
-8.72896913452638
30
0
41
1
10
116.280194879457
20
-8.73014072536807
30
0
41
1
10
116.302403566298
20
-8.73120053024741
30
0
41
1
10
116.313507909719
20
-8.73109342736757
30
0
41
1
10
116.413447000506
20
-8.7243593699358
30
0
41
1
10
116.502281747873
20
-8.67691337769793
30
0
41
1
10
116.679951242605
20
-8.48488709534982
30
0
41
1
10
116.768785989971
20
-8.34017452548298
30
0
41
1
10
116.946455484704
20
-7.94680513650476
30
0
41
1
10
117.03529023207
20
-7.69806874630291
30
0
41
1
10
117.212959726803
20
-7.10090675328331
30
0
41
1
10
117.301794474169
20
-6.75250325143918
30
0
41
1
10
117.479463968901
20
-5.97235264762548
30
0
41
1
10
117.568298716268
20
-5.5407365521707
30
0
41
1
10
117.745968211
20
-4.6202732245942
30
0
41
1
10
117.834802958366
20
-4.13161848157867
30
0
41
1
10
118.012472453099
20
-3.12787620348186
30
0
41
1
10
118.101307200465
20
-2.61296829516996
30
0
41
1
10
118.278976695198
20
-1.58633294720448
30
0
41
1
10
118.367811442564
20
-1.07471633446318
30
0
41
1
10
118.478854876772
20
-0.452114983900913
30
0
41
1
10
118.501063563613
20
-0.328423105489208
30
0
41
1
10
118.545480937296
20
-0.0829927219507738
30
0
41
1
10
118.567689624138
20
0.0381151450456798
30
0
41
1
10
118.634315684663
20
0.405536444246223
30
0
41
1
10
118.678733058346
20
0.654474558220841
30
0
41
1
10
118.811985179395
20
1.40956303929039
30
0
41
1
10
118.900819926762
20
1.92418918232121
30
0
41
1
10
119.078489421494
20
2.95075064486076
30
0
41
1
10
119.16732416886
20
3.46255736726258
30
0
41
1
10
119.344993663593
20
4.45326525339539
30
0
41
1
10
119.433828410959
20
4.93197792197506
30
0
41
1
10
119.611497905692
20
5.82620873633797
30
0
41
1
10
119.700332653058
20
6.24154173324104
30
0
41
1
10
119.87800214779
20
6.98452851709453
30
0
41
1
10
119.966836895157
20
7.31207286197878
30
0
41
1
10
120.144506389889
20
7.86548477231443
30
0
41
1
10
120.233341137255
20
8.09135507606626
30
0
41
1
10
120.322175884622
20
8.26547659392489
30
0
0
SPLINE
5
F8
100
AcDbEntity
8
1
62
256
6
ByLayer
370
13
48
1
60
0
100
AcDbSpline
70
4
71
3
72
8
73
4
40
0
40
0
40
0
40
0
40
1
40
1
40
1
40
1
41
1
10
120.322175884622
20
-6.8972770597708
30
0
41
1
10
121.381450589748
20
-4.60385533260347
30
0
41
1
10
122.440725294874
20
-2.30475136104383
30
0
41
1
10
123.5
20
6.537E-13
30
0
0
SPLINE
5
F9
100
AcDbEntity
8
1
62
256
6
ByLayer
370
13
48
1
60
0
100
AcDbSpline
70
4
71
3
72
8
73
4
40
0
40
0
40
0
40
0
40
1
40
1
40
1
40
1
41
1
10
120.322175884622
20
-8.72702422159858
30
0
41
1
10
121.381450589748
20
-5.81773707511044
30
0
41
1
10
122.440725294874
20
-2.90871431332107
30
0
41
1
10
123.5
20
2.274E-13
30
0
0
SPLINE
5
FA
100
AcDbEntity
8
1
62
256
6
ByLayer
370
13
48
1
60
0
100
AcDbSpline
70
4
71
3
72
8
73
4
40
0
40
0
40
0
40
0
40
1
40
1
40
1
40
1
41
1
10
120.322175884622
20
8.70677857847321
30
0
41
1
10
121.381450589748
20
5.80520747313344
30
0
41
1
10
122.440725294874
20
2.90293329149949
30
0
41
1
10
123.5
20
0
30
0
0
SPLINE
5
FB
100
AcDbEntity
8
1
62
256
6
ByLayer
370
13
48
1
60
0
100
AcDbSpline
70
4
71
3
72
8
73
4
40
0
40
0
40
0
40
0
40
1
40
1
40
1
40
1
41
1
10
120.322175884622
20
-7.29191688739905
30
0
41
1
10
121.381450589748
20
-4.85619138650191
30
0
41
1
10
122.440725294874
20
-2.42554015962284
30
0
41
1
10
123.5
20
1.705E-13
30
0
0
SPLINE
5
FC
100
AcDbEntity
8
1
62
256
6
ByLayer
370
13
48
1
60
0
100
AcDbSpline
70
4
71
3
72
8
73
4
40
0
40
0
40
0
40
0
40
1
40
1
40
1
40
1
41
1
10
120.322175884622
20
7.07197879921068
30
0
41
1
10
121.381450589748
20
4.72007633757354
30
0
41
1
10
122.440725294874
20
2.36273815924363
30
0
41
1
10
123.5
20
-5.68E-14
30
0
0
SPLINE
5
FD
100
AcDbEntity
8
1
62
256
6
ByLayer
370
13
48
1
60
0
100
AcDbSpline
70
4
71
3
72
8
73
4
40
0
40
0
40
0
40
0
40
1
40
1
40
1
40
1
41
1
10
120.322175884622
20
-8.68026016449244
30
0
41
1
10
121.381450589748
20
-5.78783574025187
30
0
41
1
10
122.440725294874
20
-2.89440107406068
30
0
41
1
10
123.5
20
2.274E-13
30
0
0
SPLINE
5
FE
100
AcDbEntity
8
1
62
256
6
ByLayer
370
13
48
1
60
0
100
AcDbSpline
70
4
71
3
72
8
73
4
40
0
40
0
40
0
40
0
40
1
40
1
40
1
40
1
41
1
10
120.322175884622
20
8.00408589552134
30
0
41
1
10
121.381450589748
20
5.33236269178363
30
0
41
1
10
122.440725294874
20
2.66432059454081
30
0
41
1
10
123.5
20
-7.674E-13
30
0
0
SPLINE
5
FF
100
AcDbEntity
8
1
62
256
6
ByLayer
370
13
48
1
60
0
100
AcDbSpline
70
4
71
3
72
8
73
4
40
0
40
0
40
0
40
0
40
1
40
1
40
1
40
1
41
1
10
120.322175884622
20
2.84245245035612
30
0
41
1
10
121.381450589748
20
1.88622361542466
30
0
41
1
10
122.440725294874
20
0.938734695912473
30
0
41
1
10
123.5
20
1.421E-13
30
0
0
SPLINE
5
100
100
AcDbEntity
8
1
62
256
6
ByLayer
370
13
48
1
60
0
100
AcDbSpline
70
4
71
3
72
8
73
4
40
0
40
0
40
0
40
0
40
1
40
1
40
1
40
1
41
1
10
120.322175884622
20
1.00947406813586
30
0
41
1
10
121.381450589748
20
0.68216921498265
30
0
41
1
10
122.440725294874
20
0.345676144436936
30
0
41
1
10
123.5
20
0
30
0
0
SPLINE
5
101
100
AcDbEntity
8
1
62
256
6
ByLayer
370
13
48
1
60
0
100
AcDbSpline
70
4
71
3
72
8
73
4
40
0
40
0
40
0
40
0
40
1
40
1
40
1
40
1
41
1
10
120.322175884622
20
7.70927634048076
30
0
41
1
10
121.381450589748
20
5.14385896113529
30
0
41
1
10
122.440725294874
20
2.57408719823951
30
0
41
1
10
123.5
20
2.84E-14
30
0
0
SPLINE
5
102
100
AcDbEntity
8
1
62
256
6
ByLayer
370
13
48
1
60
0
100
AcDbSpline
70
4
71
3
72
8
73
4
40
0
40
0
40
0
40
0
40
1
40
1
40
1
40
1
41
1
10
120.322175884622
20
-1.91015717197385
30
0
41
1
10
121.381450589748
20
-1.28246259184303
30
0
41
1
10
122.440725294874
20
-0.645740304357247
30
0
41
1
10
123.5
20
1.99E-13
30
0
0
SPLINE
5
103
100
AcDbEntity
8
1
62
256
6
ByLayer
370
13
48
1
60
0
100
AcDbSpline
70
4
71
3
72
8
73
4
40
0
40
0
40
0
40
0
40
1
40
1
40
1
40
1
41
1
10
120.322175884622
20
4.41383109575534
30
0
41
1
10
121.381450589748
20
2.95053374661427
30
0
41
1
10
122.440725294874
20
1.47924927237736
30
0
41
1
10
123.5
20
5.68E-14
30
0
0
SPLINE
5
104
100
AcDbEntity
8
1
62
256
6
ByLayer
370
13
48
1
60
0
100
AcDbSpline
70
4
71
3
72
8
73
4
40
0
40
0
40
0
40
0
40
1
40
1
40
1
40
1
41
1
10
120.322175884622
20
3.33525679456272
30
0
41
1
10
121.381450589748
20
2.23205166384739
30
0
41
1
10
122.440725294874
20
1.12029377106038
30
0
41
1
10
123.5
20
2.84E-14
30
0
0
SPLINE
5
105
100
AcDbEntity
8
1
62
256
6
ByLayer
370
13
48
1
60
0
100
AcDbSpline
70
4
71
3
72
8
73
4
40
0
40
0
40
0
40
0
40
1
40
1
40
1
40
1
41
1
10
120.322175884622
20
-3.06429630118288
30
0
41
1
10
121.381450589748
20
-2.05152440796306
30
0
41
1
10
122.440725294874
20
-1.03008713549744
30
0
41
1
10
123.5
20
-1.421E-13
30
0
0
SPLINE
5
106
100
AcDbEntity
8
1
62
256
6
ByLayer
370
13
48
1
60
0
100
AcDbSpline
70
4
71
3
72
8
73
4
40
0
40
0
40
0
40
0
40
1
40
1
40
1
40
1
41
1
10
120.322175884622
20
-5.17682982813199
30
0
41
1
10
121.381450589748
20
-3.45866733196573
30
0
41
1
10
122.440725294874
20
-1.73304866363458
30
0
41
1
10
123.5
20
1.421E-13
30
0
0
SPLINE
5
107
100
AcDbEntity
8
1
62
256
6
ByLayer
370
13
48
1
60
0
100
AcDbSpline
70
4
71
3
72
8
73
4
40
0
40
0
40
0
40
0
40
1
40
1
40
1
40
1
41
1
10
120.322175884622
20
-7.56829937761043
30
0
41
1
10
121.381450589748
20
-5.0501442571119
30
0
41
1
10
122.440725294874
20
-2.52736505199565
30
0
41
1
10
123.5
20
7.39E-13
30
0
0
SPLINE
5
108
100
AcDbEntity
8
1
62
256
6
ByLayer
370
13
48
1
60
0
100
AcDbSpline
70
4
71
3
72
8
73
4
40
0
40
0
40
0
40
0
40
1
40
1
40
1
40
1
41
1
10
120.322175884622
20
-8.46835276022804
30
0
41
1
10
121.381450589748
20
-5.64781989858886
30
0
41
1
10
122.440725294874
20
-2.82502138836543
30
0
41
1
10
123.5
20
1.99E-13
30
0
0
SPLINE
5
109
100
AcDbEntity
8
1
62
256
6
ByLayer
370
13
48
1
60
0
100
AcDbSpline
70
4
71
3
72
8
73
4
40
0
40
0
40
0
40
0
40
1
40
1
40
1
40
1
41
1
10
120.322175884622
20
-6.09503293540197
30
0
41
1
10
121.381450589748
20
-4.06997731916806
30
0
41
1
10
122.440725294874
20
-2.03828940438166
30
0
41
1
10
123.5
20
1.421E-13
30
0
0
SPLINE
5
10A
100
AcDbEntity
8
1
62
256
6
ByLayer
370
13
48
1
60
0
100
AcDbSpline
70
4
71
3
72
8
73
4
40
0
40
0
40
0
40
0
40
1
40
1
40
1
40
1
41
1
10
120.322175884622
20
8.40788358222028
30
0
41
1
10
121.381450589748
20
5.60276296772764
30
0
41
1
10
122.440725294874
20
2.80012095993416
30
0
41
1
10
123.499999999999
20
1.5916E-12
30
0
0
SPLINE
5
10B
100
AcDbEntity
8
1
62
256
6
ByLayer
370
13
48
1
60
0
100
AcDbSpline
70
4
71
3
72
8
73
4
40
0
40
0
40
0
40
0
40
1
40
1
40
1
40
1
41
1
10
120.322175884622
20
-2.56554625533778
30
0
41
1
10
121.381450589748
20
-1.70152393204788
30
0
41
1
10
122.440725294874
20
-0.846337543761507
30
0
41
1
10
123.5
20
-1.137E-13
30
0
0
SPLINE
5
10C
100
AcDbEntity
8
1
62
256
6
ByLayer
370
13
48
1
60
0
100
AcDbSpline
70
4
71
3
72
8
73
4
40
0
40
0
40
0
40
0
40
1
40
1
40
1
40
1
41
1
10
120.322175884622
20
8.65171993009156
30
0
41
1
10
121.381450589748
20
5.76656977616017
30
0
41
1
10
122.440725294874
20
2.88264857324072
30
0
41
1
10
123.5
20
3.979E-13
30
0
0
SPLINE
5
10D
100
AcDbEntity
8
1
62
256
6
ByLayer
370
13
48
1
60
0
100
AcDbSpline
70
4
71
3
72
8
73
4
40
0
40
0
40
0
40
0
40
1
40
1
40
1
40
1
41
1
10
120.322175884622
20
-0.19348596627529
30
0
41
1
10
121.381450589748
20
-0.119744387993279
30
0
41
1
10
122.440725294874
20
-0.0552487558089467
30
0
41
1
10
123.5
20
0
30
0
0
SPLINE
5
10E
100
AcDbEntity
8
1
62
256
6
ByLayer
370
13
48
1
60
0
100
AcDbSpline
70
4
71
3
72
8
73
4
40
0
40
0
40
0
40
0
40
1
40
1
40
1
40
1
41
1
10
120.322175884622
20
1.67944970196965
30
0
41
1
10
121.381450589748
20
1.11055731930972
30
0
41
1
10
122.440725294874
20
0.550737940592057
30
0
41
1
10
123.5
20
8.53E-14
30
0
0
SPLINE
5
10F
100
AcDbEntity
8
1
62
256
6
ByLayer
370
13
48
1
60
0
100
AcDbSpline
70
4
71
3
72
8
73
4
40
0
40
0
40
0
40
0
40
1
40
1
40
1
40
1
41
1
10
120.322175884622
20
-4.74329543893668
30
0
41
1
10
121.381450589748
20
-3.15443228716131
30
0
41
1
10
122.440725294874
20
-1.57332583717746
30
0
41
1
10
123.5
20
-2.274E-13
30
0
0
SPLINE
5
110
100
AcDbEntity
8
1
62
256
6
ByLayer
370
13
48
1
60
0
100
AcDbSpline
70
4
71
3
72
8
73
4
40
0
40
0
40
0
40
0
40
1
40
1
40
1
40
1
41
1
10
120.322175884622
20
-8.32472232480828
30
0
41
1
10
121.381450589748
20
-5.54702648278547
30
0
41
1
10
122.440725294874
20
-2.77210503459446
30
0
41
1
10
123.5
20
1.99E-13
30
0
0
SPLINE
5
111
100
AcDbEntity
8
1
62
256
6
ByLayer
370
13
48
1
60
0
100
AcDbSpline
70
4
71
3
72
8
73
4
40
0
40
0
40
0
40
0
40
1
40
1
40
1
40
1
41
1
10
120.322175884622
20
-6.56179365274173
30
0
41
1
10
121.381450589748
20
-4.36842808181942
30
0
41
1
10
122.440725294874
20
-2.18115249706548
30
0
41
1
10
123.5
20
1.705E-13
30
0
0
SPLINE
5
112
100
AcDbEntity
8
1
62
256
6
ByLayer
370
13
48
1
60
0
100
AcDbSpline
70
4
71
3
72
8
73
4
40
0
40
0
40
0
40
0
40
1
40
1
40
1
40
1
41
1
10
120.322175884622
20
-1.39276489902665
30
0
41
1
10
121.381450589748
20
-0.91937983470865
30
0
41
1
10
122.440725294874
20
-0.455122539580458
30
0
41
1
10
123.5
20
2.84E-14
30
0
0
SPLINE
5
113
100
AcDbEntity
8
1
62
256
6
ByLayer
370
13
48
1
60
0
100
AcDbSpline
70
4
71
3
72
8
73
4
40
0
40
0
40
0
40
0
40
1
40
1
40
1
40
1
41
1
10
120.322175884622
20
-4.16013669990778
30
0
41
1
10
121.381450589748
20
-2.78155564192448
30
0
41
1
10
122.440725294874
20
-1.39483639303972
30
0
41
1
10
123.5
20
-1.99E-13
30
0
0
SPLINE
5
114
100
AcDbEntity
8
1
62
256
6
ByLayer
370
13
48
1
60
0
100
AcDbSpline
70
4
71
3
72
8
73
4
40
0
40
0
40
0
40
0
40
1
40
1
40
1
40
1
41
1
10
120.322175884622
20
0.484495152610492
30
0
41
1
10
121.381450589748
20
0.313762491394357
30
0
41
1
10
122.440725294874
20
0.152263307282652
30
0
41
1
10
123.5
20
2.84E-14
30
0
0
SPLINE
5
115
100
AcDbEntity
8
1
62
256
6
ByLayer
370
13
48
1
60
0
100
AcDbSpline
70
4
71
3
72
8
73
4
40
0
40
0
40
0
40
0
40
1
40
1
40
1
40
1
41
1
10
120.322175884622
20
-8.09533358128883
30
0
41
1
10
121.381450589748
20
-5.40035337405172
30
0
41
1
10
122.440725294874
20
-2.70189521592585
30
0
41
1
10
123.5
20
1.99E-13
30
0
0
SPLINE
5
116
100
AcDbEntity
8
1
62
256
6
ByLayer
370
13
48
1
60
0
100
AcDbSpline
70
4
71
3
72
8
73
4
40
0
40
0
40
0
40
0
40
1
40
1
40
1
40
1
41
1
10
120.322175884622
20
8.53452648857879
30
0
41
1
10
121.381450589748
20
5.69163529539105
30
0
41
1
10
122.440725294874
20
2.84677876484656
30
0
41
1
10
123.5
20
2.84E-14
30
0
0
SPLINE
5
117
100
AcDbEntity
8
1
62
256
6
ByLayer
370
13
48
1
60
0
100
AcDbSpline
70
4
71
3
72
8
73
4
40
0
40
0
40
0
40
0
40
1
40
1
40
1
40
1
41
1
10
120.322175884622
20
6.75023290257158
30
0
41
1
10
121.381450589748
20
4.49428945718023
30
0
41
1
10
122.440725294874
20
2.24420047159322
30
0
41
1
10
123.5
20
3.126E-13
30
0
0
SPLINE
5
118
100
AcDbEntity
8
1
62
256
6
ByLayer
370
13
48
1
60
0
100
AcDbSpline
70
4
71
3
72
8
73
4
40
0
40
0
40
0
40
0
40
1
40
1
40
1
40
1
41
1
10
120.322175884622
20
4.98512613093536
30
0
41
1
10
121.381450589748
20
3.31582463895884
30
0
41
1
10
122.440725294874
20
1.65410755099592
30
0
41
1
10
123.5
20
2.274E-13
30
0
0
SPLINE
5
119
100
AcDbEntity
8
1
62
256
6
ByLayer
370
13
48
1
60
0
100
AcDbSpline
70
4
71
3
72
8
73
4
40
0
40
0
40
0
40
0
40
1
40
1
40
1
40
1
41
1
10
120.322175884622
20
-8.60775523783101
30
0
41
1
10
121.381450589748
20
-5.73695502545476
30
0
41
1
10
122.440725294874
20
-2.86768879446518
30
0
41
1
10
123.5
20
1.99E-13
30
0
0
SPLINE
5
11A
100
AcDbEntity
8
1
62
256
6
ByLayer
370
13
48
1
60
0
100
AcDbSpline
70
4
71
3
72
8
73
4
40
0
40
0
40
0
40
0
40
1
40
1
40
1
40
1
41
1
10
120.322175884622
20
-7.8833102292692
30
0
41
1
10
121.381450589748
20
-5.25156486820575
30
0
41
1
10
122.440725294874
20
-2.62378153012983
30
0
41
1
10
123.5
20
-3.695E-13
30
0
0
SPLINE
5
11B
100
AcDbEntity
8
1
62
256
6
ByLayer
370
13
48
1
60
0
100
AcDbSpline
70
4
71
3
72
8
73
4
40
0
40
0
40
0
40
0
40
1
40
1
40
1
40
1
41
1
10
120.322175884622
20
8.19990365817364
30
0
41
1
10
121.381450589748
20
5.46977883979613
30
0
41
1
10
122.440725294874
20
2.73646381385885
30
0
41
1
10
123.5
20
8.53E-14
30
0
0
SPLINE
5
11C
100
AcDbEntity
8
1
62
256
6
ByLayer
370
13
48
1
60
0
100
AcDbSpline
70
4
71
3
72
8
73
4
40
0
40
0
40
0
40
0
40
1
40
1
40
1
40
1
41
1
10
120.322175884622
20
-0.719676995031193
30
0
41
1
10
121.381450589748
20
-0.489001718435844
30
0
41
1
10
122.440725294874
20
-0.249108159962333
30
0
41
1
10
123.5
20
-2.84E-14
30
0
0
SPLINE
5
11D
100
AcDbEntity
8
1
62
256
6
ByLayer
370
13
48
1
60
0
100
AcDbSpline
70
4
71
3
72
8
73
4
40
0
40
0
40
0
40
0
40
1
40
1
40
1
40
1
41
1
10
120.322175884622
20
2.19322869587455
30
0
41
1
10
121.381450589748
20
1.47110443881371
30
0
41
1
10
122.440725294874
20
0.740024500380798
30
0
41
1
10
123.5
20
2.84E-14
30
0
0
SPLINE
5
11E
100
AcDbEntity
8
1
62
256
6
ByLayer
370
13
48
1
60
0
100
AcDbSpline
70
4
71
3
72
8
73
4
40
0
40
0
40
0
40
0
40
1
40
1
40
1
40
1
41
1
10
120.322175884622
20
5.92403235138295
30
0
41
1
10
121.381450589748
20
3.94256097673821
30
0
41
1
10
122.440725294874
20
1.96787356701483
30
0
41
1
10
123.5
20
-5.684E-13
30
0
0
SPLINE
5
11F
100
AcDbEntity
8
1
62
256
6
ByLayer
370
13
48
1
60
0
100
AcDbSpline
70
4
71
3
72
8
73
4
40
0
40
0
40
0
40
0
40
1
40
1
40
1
40
1
41
1
10
120.322175884622
20
-3.6895176810861
30
0
41
1
10
121.381450589748
20
-2.45129626263315
30
0
41
1
10
122.440725294874
20
-1.22145083991137
30
0
41
1
10
123.5
20
-1.705E-13
30
0
0
SPLINE
5
120
100
AcDbEntity
8
1
62
256
6
ByLayer
370
13
48
1
60
0
100
AcDbSpline
70
4
71
3
72
8
73
4
40
0
40
0
40
0
40
0
40
1
40
1
40
1
40
1
41
1
10
120.322175884622
20
5.408431549721
30
0
41
1
10
121.381450589748
20
3.61288144981361
30
0
41
1
10
122.440725294874
20
1.81006181812708
30
0
41
1
10
123.5
20
5.68E-14
30
0
0
SPLINE
5
121
100
AcDbEntity
8
1
62
256
6
ByLayer
370
13
48
1
60
0
100
AcDbSpline
70
4
71
3
72
8
73
4
40
0
40
0
40
0
40
0
40
1
40
1
40
1
40
1
41
1
10
120.322175884622
20
3.95137708323745
30
0
41
1
10
121.381450589748
20
2.62600420357262
30
0
41
1
10
122.440725294874
20
1.30887187250613
30
0
41
1
10
123.5
20
1.705E-13
30
0
0
SPLINE
5
122
100
AcDbEntity
8
1
62
256
6
ByLayer
370
13
48
1
60
0
100
AcDbSpline
70
4
71
3
72
8
73
4
40
0
40
0
40
0
40
0
40
1
40
1
40
1
40
1
41
1
10
120.322175884622
20
7.44800918599594
30
0
41
1
10
121.381450589748
20
4.96051335711499
30
0
41
1
10
122.440725294874
20
2.47783110088091
30
0
41
1
10
123.5
20
3.411E-13
30
0
0
SPLINE
5
123
100
AcDbEntity
8
1
62
256
6
ByLayer
370
13
48
1
60
0
100
AcDbSpline
70
4
71
3
72
8
73
4
40
0
40
0
40
0
40
0
40
1
40
1
40
1
40
1
41
1
10
120.322175884622
20
-5.70683123738704
30
0
41
1
10
121.381450589748
20
-3.79755472955989
30
0
41
1
10
122.440725294874
20
-1.8952680570842
30
0
41
1
10
123.5
20
1.421E-13
30
0
0
SPLINE
5
124
100
AcDbEntity
8
1
62
256
6
ByLayer
370
13
48
1
60
0
100
AcDbSpline
70
4
71
3
72
8
73
4
40
0
40
0
40
0
40
0
40
1
40
1
40
1
40
1
41
1
10
120.322175884622
20
6.30013572269135
30
0
41
1
10
121.381450589748
20
4.20649350175339
30
0
41
1
10
122.440725294874
20
2.10643764636544
30
0
41
1
10
123.5
20
-5.68E-14
30
0
0
LINE
5
7D
100
AcDbEntity
8
80
62
256
6
ByLayer
370
18
48
1
60
0
100
AcDbLine
10
0
20
0
30
0
11
-5
21
0
31
0
39
0
210
0
220
0
230
1
0
LINE
5
7E
100
AcDbEntity
8
4
62
256
6
ByLayer
370
18
48
0.05
60
0
100
AcDbLine
10
-5
20
0
30
0
11
128.5
21
0
31
0
39
0
210
0
220
0
230
1
0
LINE
5
80
100
AcDbEntity
8
81
62
256
6
ByLayer
370
18
48
1
60
0
100
AcDbLine
10
123.5
20
0
30
0
11
128.5
21
0
31
0
39
0
210
0
220
0
230
1
0
LINE
5
81
100
AcDbEntity
8
SK4
62
256
6
ByLayer
370
18
48
0.05
60
0
100
AcDbLine
10
-53
20
0
30
0
11
128.5
21
0
31
0
39
0
210
0
220
0
230
1
0
LINE
5
83
100
AcDbEntity
8
1
62
256
6
ByLayer
370
18
48
1
60
0
100
AcDbLine
10
39.509237
20
-8.1
30
0
11
78.588312
21
-8.1
31
0
39
0
210
0
220
0
230
1
0
LINE
5
84
100
AcDbEntity
8
1
62
256
6
ByLayer
370
18
48
1
60
0
100
AcDbLine
10
78.588312
20
8.1
30
0
11
39.509237
21
8.1
31
0
39
0
210
0
220
0
230
1
0
LINE
5
85
100
AcDbEntity
8
1
62
256
6
ByLayer
370
18
48
1
60
0
100
AcDbLine
10
123.5
20
0
30
0
11
120.322176
21
8.731
31
0
39
0
210
0
220
0
230
1
0
LINE
5
86
100
AcDbEntity
8
1
62
256
6
ByLayer
370
18
48
1
60
0
100
AcDbLine
10
120.322176
20
-8.731
30
0
11
123.5
21
0
31
0
39
0
210
0
220
0
230
1
0
LINE
5
87
100
AcDbEntity
8
1
62
256
6
ByLayer
370
18
48
1
60
0
100
AcDbLine
10
6.089115
20
8.657301
30
0
11
0
21
9.525
31
0
39
0
210
0
220
0
230
1
0
LINE
5
88
100
AcDbEntity
8
1
62
256
6
ByLayer
370
18
48
1
60
0
100
AcDbLine
10
0
20
-9.525
30
0
11
6.089115
21
-8.657301
31
0
39
0
210
0
220
0
230
1
0
LINE
5
89
100
AcDbEntity
8
1
62
256
6
ByLayer
370
18
48
1
60
0
100
AcDbLine
10
123.5
20
0
30
0
11
120.322176
21
8.731
31
0
39
0
210
0
220
0
230
1
0
LINE
5
8A
100
AcDbEntity
8
1
62
256
6
ByLayer
370
18
48
1
60
0
100
AcDbLine
10
120.322176
20
-8.731
30
0
11
123.5
21
0
31
0
39
0
210
0
220
0
230
1
0
LINE
5
8B
100
AcDbEntity
8
1
62
256
6
ByLayer
370
18
48
1
60
0
100
AcDbLine
10
111.3
20
-8.731
30
0
11
120.322176
21
-8.731
31
0
39
0
210
0
220
0
230
1
0
LINE
5
8C
100
AcDbEntity
8
SK1
62
256
6
ByLayer
370
18
48
1
60
0
100
AcDbLine
10
-48
20
-8.525
30
0
11
-47
21
-9.525
31
0
39
0
210
0
220
0
230
1
0
LINE
5
8E
100
AcDbEntity
8
SK1
62
256
6
ByLayer
370
18
48
1
60
0
100
AcDbLine
10
-47
20
9.525
30
0
11
-48
21
8.525
31
0
39
0
210
0
220
0
230
1
0
LINE
5
8F
100
AcDbEntity
8
SK1
62
256
6
ByLayer
370
18
48
1
60
0
100
AcDbLine
10
-47
20
-9.525
30
0
11
0
21
-9.525
31
0
39
0
210
0
220
0
230
1
0
LINE
5
90
100
AcDbEntity
8
SK1
62
256
6
ByLayer
370
18
48
1
60
0
100
AcDbLine
10
0
20
9.525
30
0
11
-47
21
9.525
31
0
39
0
210
0
220
0
230
1
0
LINE
5
91
100
AcDbEntity
8
1
62
256
6
ByLayer
370
18
48
1
60
0
100
AcDbLine
10
0
20
9.525
30
0
11
0
21
-9.525
31
0
39
0
210
0
220
0
230
1
0
LINE
5
92
100
AcDbEntity
8
1
62
256
6
ByLayer
370
18
48
1
60
0
100
AcDbLine
10
120.322176
20
8.731
30
0
11
120.322176
21
8.45374
31
0
39
0
210
0
220
0
230
1
0
LINE
5
93
100
AcDbEntity
8
1
62
256
6
ByLayer
370
18
48
1
60
0
100
AcDbLine
10
120.322176
20
-8.731
30
0
11
120.322176
21
-1.247642
31
0
39
0
210
0
220
0
230
1
0
LINE
5
94
100
AcDbEntity
8
1
62
256
6
ByLayer
370
18
48
1
60
0
100
AcDbLine
10
10
20
-3.863566
30
0
11
10
21
7.829459
31
0
39
0
210
0
220
0
230
1
0
LINE
5
95
100
AcDbEntity
8
SK1
62
256
6
ByLayer
370
18
48
1
60
0
100
AcDbLine
10
-48
20
-8.525
30
0
11
-48
21
8.525
31
0
39
0
210
0
220
0
230
1
0
LINE
5
96
100
AcDbEntity
8
SK1
62
256
6
ByLayer
370
18
48
1
60
0
100
AcDbLine
10
-40.207362
20
-3.933192
30
0
11
-40.207362
21
3.933192
31
0
39
0
210
0
220
0
230
1
0
LINE
5
97
100
AcDbEntity
8
SK1
62
256
6
ByLayer
370
18
48
1
60
0
100
AcDbLine
10
0
20
9.525
30
0
11
0
21
-9.525
31
0
39
0
210
0
220
0
230
1
0
LINE
5
98
100
AcDbEntity
8
SK1
62
256
6
ByLayer
370
18
48
1
60
0
100
AcDbLine
10
-47
20
-9.525
30
0
11
-47
21
9.525
31
0
39
0
210
0
220
0
230
1
0
LINE
5
99
100
AcDbEntity
8
SK1
62
256
6
ByLayer
370
18
48
1
60
0
100
AcDbLine
10
-5.911513
20
-3.933192
30
0
11
-40.207362
21
-3.933192
31
0
39
0
210
0
220
0
230
1
0
LINE
5
9A
100
AcDbEntity
8
SK1
62
256
6
ByLayer
370
18
48
1
60
0
100
AcDbLine
10
-40.207362
20
3.933192
30
0
11
-5.911513
21
3.933192
31
0
39
0
210
0
220
0
230
1
0
LINE
5
9B
100
AcDbEntity
8
SK1
62
256
6
ByLayer
370
18
48
1
60
0
100
AcDbLine
10
-5.911513
20
-3.933192
30
0
11
-5.911513
21
3.933192
31
0
39
0
210
0
220
0
230
1
0
LINE
5
9C
100
AcDbEntity
8
1
62
256
6
ByLayer
370
18
48
1
60
0
100
AcDbLine
10
120.322176
20
8.731
30
0
11
120.322176
21
-8.731
31
0
39
0
210
0
220
0
230
1
0
LINE
5
9D
100
AcDbEntity
8
1
62
256
6
ByLayer
370
18
48
1
60
0
100
AcDbLine
10
120.322176
20
8.731
30
0
11
120.322176
21
-8.731
31
0
39
0
210
0
220
0
230
1
0
LINE
5
9E
100
AcDbEntity
8
1
62
256
6
ByLayer
370
18
48
1
60
0
100
AcDbLine
10
120.322176
20
8.731
30
0
11
120.322176
21
-8.731
31
0
39
0
210
0
220
0
230
1
0
LINE
5
9F
100
AcDbEntity
8
1
62
256
6
ByLayer
370
18
48
1
60
0
100
AcDbLine
10
111.3
20
8.731
30
0
11
111.3
21
-8.731
31
0
39
0
210
0
220
0
230
1
0
LINE
5
A0
100
AcDbEntity
8
1
62
256
6
ByLayer
370
18
48
1
60
0
100
AcDbLine
10
111.3
20
8.731
30
0
11
111.3
21
-8.731
31
0
39
0
210
0
220
0
230
1
0
LINE
5
A1
100
AcDbEntity
8
1
62
256
6
ByLayer
370
18
48
1
60
0
100
AcDbLine
10
120.322176
20
8.731
30
0
11
120.322176
21
-8.731
31
0
39
0
210
0
220
0
230
1
0
LINE
5
A2
100
AcDbEntity
8
1
62
256
6
ByLayer
370
18
48
1
60
0
100
AcDbLine
10
111.3
20
8.731
30
0
11
111.3
21
-8.731
31
0
39
0
210
0
220
0
230
1
0
LINE
5
A3
100
AcDbEntity
8
1
62
256
6
ByLayer
370
18
48
1
60
0
100
AcDbLine
10
120.322176
20
8.731
30
0
11
120.322176
21
-8.731
31
0
39
0
210
0
220
0
230
1
0
LINE
5
A4
100
AcDbEntity
8
SK2
62
256
6
ByLayer
370
13
48
1
60
0
100
AcDbLine
10
-54.5
20
-9.525
30
0
11
-54.5
21
37.799683
31
0
39
0
210
0
220
0
230
1
0
LINE
5
A6
100
AcDbEntity
8
SK2
62
256
6
ByLayer
370
13
48
1
60
0
100
AcDbLine
10
-49.5875
20
9.525
30
0
11
-56.5
21
9.525
31
0
39
0
210
0
220
0
230
1
0
LINE
5
A7
100
AcDbEntity
8
SK2
62
256
6
ByLayer
370
13
48
1
60
0
100
AcDbLine
10
-49.5875
20
-9.525
30
0
11
-56.5
21
-9.525
31
0
39
0
210
0
220
0
230
1
0
LINE
5
A8
100
AcDbEntity
8
1
62
256
6
ByLayer
370
18
48
1
60
1
100
AcDbLine
10
-54.5
20
9.525
30
0
11
-54.039216
21
6.025002
31
0
39
0
210
0
220
0
230
1
0
LINE
5
A9
100
AcDbEntity
8
1
62
256
6
ByLayer
370
18
48
1
60
1
100
AcDbLine
10
-54.039216
20
6.025002
30
0
11
-54.960784
21
6.024998
31
0
39
0
210
0
220
0
230
1
0
LINE
5
AA
100
AcDbEntity
8
1
62
256
6
ByLayer
370
18
48
1
60
1
100
AcDbLine
10
-54.960784
20
6.024998
30
0
11
-54.5
21
9.525
31
0
39
0
210
0
220
0
230
1
0
LINE
5
AB
100
AcDbEntity
8
1
62
256
6
ByLayer
370
18
48
1
60
1
100
AcDbLine
10
-54.5
20
-9.525
30
0
11
-54.960784
21
-6.025002
31
0
39
0
210
0
220
0
230
1
0
LINE
5
AC
100
AcDbEntity
8
1
62
256
6
ByLayer
370
18
48
1
60
1
100
AcDbLine
10
-54.960784
20
-6.025002
30
0
11
-54.039216
21
-6.024998
31
0
39
0
210
0
220
0
230
1
0
LINE
5
AD
100
AcDbEntity
8
1
62
256
6
ByLayer
370
18
48
1
60
1
100
AcDbLine
10
-54.039216
20
-6.024998
30
0
11
-54.5
21
-9.525
31
0
39
0
210
0
220
0
230
1
0
LINE
5
AE
100
AcDbEntity
8
2
62
256
6
ByLayer
370
13
48
1
60
0
100
AcDbLine
10
131
20
-8.731
30
0
11
131
21
37.321569
31
0
39
0
210
0
220
0
230
1
0
LINE
5
B0
100
AcDbEntity
8
2
62
256
6
ByLayer
370
13
48
1
60
0
100
AcDbLine
10
121.909676
20
8.731
30
0
11
133
21
8.731
31
0
39
0
210
0
220
0
230
1
0
LINE
5
B1
100
AcDbEntity
8
2
62
256
6
ByLayer
370
13
48
1
60
0
100
AcDbLine
10
121.909676
20
-8.731
30
0
11
133
21
-8.731
31
0
39
0
210
0
220
0
230
1
0
LINE
5
B2
100
AcDbEntity
8
1
62
256
6
ByLayer
370
18
48
1
60
1
100
AcDbLine
10
131
20
8.731
30
0
11
131.460784
21
5.231002
31
0
39
0
210
0
220
0
230
1
0
LINE
5
B3
100
AcDbEntity
8
1
62
256
6
ByLayer
370
18
48
1
60
1
100
AcDbLine
10
131.460784
20
5.231002
30
0
11
130.539216
21
5.230998
31
0
39
0
210
0
220
0
230
1
0
LINE
5
B4
100
AcDbEntity
8
1
62
256
6
ByLayer
370
18
48
1
60
1
100
AcDbLine
10
130.539216
20
5.230998
30
0
11
131
21
8.731
31
0
39
0
210
0
220
0
230
1
0
LINE
5
B5
100
AcDbEntity
8
1
62
256
6
ByLayer
370
18
48
1
60
1
100
AcDbLine
10
131
20
-8.731
30
0
11
130.539216
21
-5.231002
31
0
39
0
210
0
220
0
230
1
0
LINE
5
B6
100
AcDbEntity
8
1
62
256
6
ByLayer
370
18
48
1
60
1
100
AcDbLine
10
130.539216
20
-5.231002
30
0
11
131.460784
21
-5.230998
31
0
39
0
210
0
220
0
230
1
0
LINE
5
B7
100
AcDbEntity
8
1
62
256
6
ByLayer
370
18
48
1
60
1
100
AcDbLine
10
131.460784
20
-5.230998
30
0
11
131
21
-8.731
31
0
39
0
210
0
220
0
230
1
0
LINE
5
B8
100
AcDbEntity
8
SK2
62
256
6
ByLayer
370
13
48
1
60
0
100
AcDbLine
10
124.042957
20
-1.491762
30
0
11
130.682423
21
-19.733545
31
0
39
0
210
0
220
0
230
1
0
LINE
5
B9
100
AcDbEntity
8
SK2
62
256
6
ByLayer
370
13
48
1
60
0
100
AcDbLine
10
124.042957
20
1.491762
30
0
11
130.682423
21
19.733545
31
0
39
0
210
0
220
0
230
1
0
LINE
5
BA
100
AcDbEntity
8
1
62
256
6
ByLayer
370
18
48
1
60
1
100
AcDbLine
10
129.998383
20
-17.85416
30
0
11
133.051575
21
-16.082064
31
0
39
0
210
0
220
0
230
1
0
LINE
5
BB
100
AcDbEntity
8
1
62
256
6
ByLayer
370
18
48
1
60
1
100
AcDbLine
10
133.051575
20
-16.082064
30
0
11
133.406196
21
-16.93267
31
0
39
0
210
0
220
0
230
1
0
LINE
5
BC
100
AcDbEntity
8
1
62
256
6
ByLayer
370
18
48
1
60
1
100
AcDbLine
10
133.406196
20
-16.93267
30
0
11
129.998383
21
-17.85416
31
0
39
0
210
0
220
0
230
1
0
LINE
5
BD
100
AcDbEntity
8
1
62
256
6
ByLayer
370
18
48
1
60
1
100
AcDbLine
10
129.998383
20
17.85416
30
0
11
133.406193
21
16.932671
31
0
39
0
210
0
220
0
230
1
0
LINE
5
BE
100
AcDbEntity
8
1
62
256
6
ByLayer
370
18
48
1
60
1
100
AcDbLine
10
133.406193
20
16.932671
30
0
11
133.051579
21
16.082063
31
0
39
0
210
0
220
0
230
1
0
LINE
5
BF
100
AcDbEntity
8
1
62
256
6
ByLayer
370
18
48
1
60
1
100
AcDbLine
10
133.051579
20
16.082063
30
0
11
129.998383
21
17.85416
31
0
39
0
210
0
220
0
230
1
0
LINE
5
129
100
AcDbEntity
8
1
62
256
6
ByLayer
370
18
48
1
60
1
100
AcDbLine
10
-54.5
20
9.525
30
0
11
-54.039216
21
6.025002
31
0
39
0
210
0
220
0
230
1
0
LINE
5
12A
100
AcDbEntity
8
1
62
256
6
ByLayer
370
18
48
1
60
1
100
AcDbLine
10
-54.039216
20
6.025002
30
0
11
-54.960784
21
6.024998
31
0
39
0
210
0
220
0
230
1
0
LINE
5
12B
100
AcDbEntity
8
1
62
256
6
ByLayer
370
18
48
1
60
1
100
AcDbLine
10
-54.960784
20
6.024998
30
0
11
-54.5
21
9.525
31
0
39
0
210
0
220
0
230
1
0
LINE
5
12D
100
AcDbEntity
8
1
62
256
6
ByLayer
370
18
48
1
60
1
100
AcDbLine
10
-54.5
20
-9.525
30
0
11
-54.960784
21
-6.025002
31
0
39
0
210
0
220
0
230
1
0
LINE
5
12E
100
AcDbEntity
8
1
62
256
6
ByLayer
370
18
48
1
60
1
100
AcDbLine
10
-54.960784
20
-6.025002
30
0
11
-54.039216
21
-6.024998
31
0
39
0
210
0
220
0
230
1
0
LINE
5
12F
100
AcDbEntity
8
1
62
256
6
ByLayer
370
18
48
1
60
1
100
AcDbLine
10
-54.039216
20
-6.024998
30
0
11
-54.5
21
-9.525
31
0
39
0
210
0
220
0
230
1
0
LINE
5
133
100
AcDbEntity
8
1
62
256
6
ByLayer
370
18
48
1
60
1
100
AcDbLine
10
131
20
8.731
30
0
11
131.460784
21
5.231002
31
0
39
0
210
0
220
0
230
1
0
LINE
5
134
100
AcDbEntity
8
1
62
256
6
ByLayer
370
18
48
1
60
1
100
AcDbLine
10
131.460784
20
5.231002
30
0
11
130.539216
21
5.230998
31
0
39
0
210
0
220
0
230
1
0
LINE
5
135
100
AcDbEntity
8
1
62
256
6
ByLayer
370
18
48
1
60
1
100
AcDbLine
10
130.539216
20
5.230998
30
0
11
131
21
8.731
31
0
39
0
210
0
220
0
230
1
0
LINE
5
137
100
AcDbEntity
8
1
62
256
6
ByLayer
370
18
48
1
60
1
100
AcDbLine
10
131
20
-8.731
30
0
11
130.539216
21
-5.231002
31
0
39
0
210
0
220
0
230
1
0
LINE
5
138
100
AcDbEntity
8
1
62
256
6
ByLayer
370
18
48
1
60
1
100
AcDbLine
10
130.539216
20
-5.231002
30
0
11
131.460784
21
-5.230998
31
0
39
0
210
0
220
0
230
1
0
LINE
5
139
100
AcDbEntity
8
1
62
256
6
ByLayer
370
18
48
1
60
1
100
AcDbLine
10
131.460784
20
-5.230998
30
0
11
131
21
-8.731
31
0
39
0
210
0
220
0
230
1
0
LINE
5
13C
100
AcDbEntity
8
1
62
256
6
ByLayer
370
18
48
1
60
1
100
AcDbLine
10
129.998383
20
-17.85416
30
0
11
133.051575
21
-16.082064
31
0
39
0
210
0
220
0
230
1
0
LINE
5
13D
100
AcDbEntity
8
1
62
256
6
ByLayer
370
18
48
1
60
1
100
AcDbLine
10
133.051575
20
-16.082064
30
0
11
133.406196
21
-16.93267
31
0
39
0
210
0
220
0
230
1
0
LINE
5
13E
100
AcDbEntity
8
1
62
256
6
ByLayer
370
18
48
1
60
1
100
AcDbLine
10
133.406196
20
-16.93267
30
0
11
129.998383
21
-17.85416
31
0
39
0
210
0
220
0
230
1
0
LINE
5
140
100
AcDbEntity
8
1
62
256
6
ByLayer
370
18
48
1
60
1
100
AcDbLine
10
129.998383
20
17.85416
30
0
11
133.406193
21
16.932671
31
0
39
0
210
0
220
0
230
1
0
LINE
5
141
100
AcDbEntity
8
1
62
256
6
ByLayer
370
18
48
1
60
1
100
AcDbLine
10
133.406193
20
16.932671
30
0
11
133.051579
21
16.082063
31
0
39
0
210
0
220
0
230
1
0
LINE
5
142
100
AcDbEntity
8
1
62
256
6
ByLayer
370
18
48
1
60
1
100
AcDbLine
10
133.051579
20
16.082063
30
0
11
129.998383
21
17.85416
31
0
39
0
210
0
220
0
230
1
0
MTEXT
5
125
100
AcDbEntity
8
SK2
62
256
6
ByLayer
370
18
48
1
60
0
100
AcDbMText
10
-55.841114
20
21.183438
30
0
210
0
220
0
230
1
1
%%c
40
3
41
0
44
1.084337
50
90
71
7
72
5
7
iso_b_vert
0
MTEXT
5
128
100
AcDbEntity
8
SK2
62
256
6
ByLayer
370
18
48
1
60
0
100
AcDbMText
10
-55.841114
20
27.16
30
0
210
0
220
0
230
1
1
\W0.7022;19.050
40
3
41
0
44
1.084337
50
90
71
7
72
5
7
iso_b_vert
0
MTEXT
5
131
100
AcDbEntity
8
2
62
256
6
ByLayer
370
18
48
1
60
0
100
AcDbMText
10
129.658886
20
20.389437
30
0
210
0
220
0
230
1
1
%%c
40
3
41
0
44
1.084337
50
90
71
7
72
5
7
iso_b_vert
0
MTEXT
5
132
100
AcDbEntity
8
2
62
256
6
ByLayer
370
18
48
1
60
0
100
AcDbMText
10
129.658886
20
26.366
30
0
210
0
220
0
230
1
1
\W0.7237;17.462
40
3
41
0
44
1.084337
50
90
71
7
72
5
7
iso_b_vert
0
MTEXT
5
13B
100
AcDbEntity
8
SK2
62
256
6
ByLayer
370
18
48
1
60
0
100
AcDbMText
10
143.409114
20
3.734657
30
0
210
0
220
0
230
1
1
\W0.7071;140%%d
40
3
41
0
44
1.084337
50
270
71
7
72
5
7
iso_b_vert
0
MTEXT
5
144
100
AcDbEntity
8
SK6
62
256
6
ByLayer
370
18
48
1
60
0
100
AcDbMText
10
11.773145
20
-67.114886
30
0
210
0
220
0
230
1
1
\W0.7025;H85511/16
40
3
41
0
44
1.084337
50
0
71
7
72
5
7
iso_b_vert
0
HATCH
5
12C
100
AcDbEntity
8
SK2
62
256
6
ByLayer
370
13
48
1
60
0
100
AcDbHatch
10
0
20
0
30
0
210
0
220
0
230
1
2
ANSI31
70
0
71
0
91
1
92
5
93
3
72
1
10
-54.5
20
9.52500000000001
11
-54.0392162584472
21
6.02500169255319
72
1
10
-54.0392162584472
20
6.02500169255319
11
-54.9607837415528
21
6.02499830744682
72
1
10
-54.9607837415528
20
6.02499830744682
11
-54.5
21
9.52500000000001
97
0
75
0
76
1
52
0
41
0.0062
77
0
78
1
53
45
43
0
44
0
45
-0.0139193969876572
46
0.0139193969876572
79
0
47
0
98
1
10
0
20
0
0
HATCH
5
130
100
AcDbEntity
8
SK2
62
256
6
ByLayer
370
13
48
1
60
0
100
AcDbHatch
10
0
20
0
30
0
210
0
220
0
230
1
2
ANSI31
70
0
71
0
91
1
92
5
93
3
72
1
10
-54.5
20
-9.52500000000001
11
-54.9607837415528
21
-6.02500169255319
72
1
10
-54.9607837415528
20
-6.02500169255319
11
-54.0392162584472
21
-6.02499830744682
72
1
10
-54.0392162584472
20
-6.02499830744682
11
-54.5
21
-9.52500000000001
97
0
75
0
76
1
52
0
41
0.0062
77
0
78
1
53
45
43
0
44
0
45
-0.0139193969876572
46
0.0139193969876572
79
0
47
0
98
1
10
0
20
0
0
HATCH
5
136
100
AcDbEntity
8
2
62
256
6
ByLayer
370
13
48
1
60
0
100
AcDbHatch
10
0
20
0
30
0
210
0
220
0
230
1
2
ANSI31
70
0
71
0
91
1
92
5
93
3
72
1
10
131
20
8.73099999999999
11
131.460783741553
21
5.23100169255318
72
1
10
131.460783741553
20
5.23100169255318
11
130.539216258447
21
5.23099830744681
72
1
10
130.539216258447
20
5.23099830744681
11
131
21
8.73099999999999
97
0
75
0
76
1
52
0
41
0.0062
77
0
78
1
53
45
43
0
44
0
45
-0.0139193969876572
46
0.0139193969876572
79
0
47
0
98
1
10
0
20
0
0
HATCH
5
13A
100
AcDbEntity
8
2
62
256
6
ByLayer
370
13
48
1
60
0
100
AcDbHatch
10
0
20
0
30
0
210
0
220
0
230
1
2
ANSI31
70
0
71
0
91
1
92
5
93
3
72
1
10
131
20
-8.73099999999999
11
130.539216258447
21
-5.23100169255318
72
1
10
130.539216258447
20
-5.23100169255318
11
131.460783741553
21
-5.23099830744681
72
1
10
131.460783741553
20
-5.23099830744681
11
131
21
-8.73099999999999
97
0
75
0
76
1
52
0
41
0.0062
77
0
78
1
53
45
43
0
44
0
45
-0.0139193969876572
46
0.0139193969876572
79
0
47
0
98
1
10
0
20
0
0
HATCH
5
13F
100
AcDbEntity
8
SK2
62
256
6
ByLayer
370
13
48
1
60
0
100
AcDbHatch
10
0
20
0
30
0
210
0
220
0
230
1
2
ANSI31
70
0
71
0
91
1
92
5
93
3
72
1
10
129.998382723188
20
-17.8541597949323
11
133.051575425693
21
-16.0820638240608
72
1
10
133.051575425693
20
-16.0820638240608
11
133.406195833975
21
-16.9326700737197
72
1
10
133.406195833975
20
-16.9326700737197
11
129.998382723188
21
-17.8541597949323
97
0
75
0
76
1
52
0
41
0.0062
77
0
78
1
53
45
43
0
44
0
45
-0.0139193969876572
46
0.0139193969876572
79
0
47
0
98
1
10
0
20
0
0
HATCH
5
143
100
AcDbEntity
8
SK2
62
256
6
ByLayer
370
13
48
1
60
0
100
AcDbHatch
10
0
20
0
30
0
210
0
220
0
230
1
2
ANSI31
70
0
71
0
91
1
92
5
93
3
72
1
10
129.998382723188
20
17.8541597949323
11
133.406192709519
21
16.9326713763017
72
1
10
133.406192709519
20
16.9326713763017
11
133.051578550149
21
16.0820625214788
72
1
10
133.051578550149
20
16.0820625214788
11
129.998382723188
21
17.8541597949323
97
0
75
0
76
1
52
0
41
0.0062
77
0
78
1
53
45
43
0
44
0
45
-0.0139193969876572
46
0.0139193969876572
79
0
47
0
98
1
10
0
20
0
0
DIMENSION
5
147
100
AcDbEntity
8
SK2
62
256
6
ByLayer
370
18
48
1
60
0
100
AcDbDimension
2
_U0
10
123.5
20
-45.952229
30
0
11
37.75
21
-45.952229
31
0
70
32
71
1
72
1
41
1
210
0
220
0
230
1
3
Standard
100
AcDbAlignedDimension
13
-48
23
-9.525
33
0
14
123.5
24
0
34
0
50
0
100
AcDbRotatedDimension
1001
ACAD
1000
DSTYLE
1002
{
1070
   371
1070
    13
1070
   372
1070
    13
1070
     3
1000

1070
   170
1070
     0
1070
   144
1040
1.0
1070
   277
1070
     2
1070
   284
1070
     8
1070
   278
1070
    46
1070
   146
1040
1.166667
1070
   345
1005
16
1070
   347
1005
16
1070
   346
1005
16
1070
   344
1005
0
1070
   343
1005
0
1070
   172
1070
     1
1070
    76
1070
     0
1070
    75
1070
     0
1070
   282
1070
     0
1070
   281
1070
     0
1070
    71
1070
     0
1070
    74
1070
     0
1070
   279
1070
     0
1070
   173
1070
     1
1070
   340
1005
126
1070
   271
1070
     2
1070
   272
1070
     3
1070
    77
1070
     1
1070
    73
1070
     1
1070
   171
1070
     3
1070
   274
1070
     4
1070
   177
1070
     2
1070
   176
1070
     2
1070
   178
1070
     2
1070
    78
1070
     8
1070
    48
1040
-0.1
1070
    41
1040
3.5
1070
   147
1040
1.5
1070
    42
1040
1.5875
1070
    44
1040
2.0
1070
   140
1040
3.0
1002
}
1001
ACAD_DSTYLE_DIM_LINETYPE
1070
   380
1005
16
1001
ACAD_DSTYLE_DIM_EXT1_LINETYPE
1070
   381
1005
16
1001
ACAD_DSTYLE_DIM_EXT2_LINETYPE
1070
   382
1005
16
0
DIMENSION
5
160
100
AcDbEntity
8
SK2
62
256
6
ByLayer
370
18
48
1
60
0
100
AcDbDimension
2
_U1
10
3
20
-35.952229
30
0
11
63.25
21
-35.952229
31
0
70
32
71
1
72
1
41
1
210
0
220
0
230
1
3
Standard
100
AcDbAlignedDimension
13
123.5
23
0
33
0
14
3
24
-8.731
34
0
50
0
100
AcDbRotatedDimension
1001
ACAD
1000
DSTYLE
1002
{
1070
   371
1070
    13
1070
   372
1070
    13
1070
     3
1000

1070
   170
1070
     0
1070
   144
1040
1.0
1070
   277
1070
     2
1070
   284
1070
     8
1070
   278
1070
    46
1070
   146
1040
1.166667
1070
   345
1005
16
1070
   347
1005
16
1070
   346
1005
16
1070
   344
1005
0
1070
   343
1005
0
1070
   172
1070
     1
1070
    76
1070
     0
1070
    75
1070
     0
1070
   282
1070
     0
1070
   281
1070
     0
1070
    71
1070
     0
1070
    74
1070
     0
1070
   279
1070
     0
1070
   173
1070
     1
1070
   340
1005
126
1070
   271
1070
     2
1070
   272
1070
     3
1070
    77
1070
     1
1070
    73
1070
     1
1070
   171
1070
     3
1070
   274
1070
     4
1070
   177
1070
     2
1070
   176
1070
     2
1070
   178
1070
     2
1070
    78
1070
     8
1070
    48
1040
-0.1
1070
    41
1040
3.5
1070
   147
1040
1.5
1070
    42
1040
1.5875
1070
    44
1040
2.0
1070
   140
1040
3.0
1002
}
1001
ACAD_DSTYLE_DIM_LINETYPE
1070
   380
1005
16
1001
ACAD_DSTYLE_DIM_EXT1_LINETYPE
1070
   381
1005
16
1001
ACAD_DSTYLE_DIM_EXT2_LINETYPE
1070
   382
1005
16
0
DIMENSION
5
178
100
AcDbEntity
8
SK2
62
256
6
ByLayer
370
18
48
1
60
0
100
AcDbDimension
2
_U2
10
0
20
-35.952229
30
0
11
-24
21
-35.952229
31
0
70
32
71
1
72
1
41
1
210
0
220
0
230
1
3
Standard
100
AcDbAlignedDimension
13
-48
23
-9.525
33
0
14
0
24
-9.525
34
0
50
0
100
AcDbRotatedDimension
1001
ACAD
1000
DSTYLE
1002
{
1070
   371
1070
    13
1070
   372
1070
    13
1070
     3
1000

1070
   170
1070
     0
1070
   144
1040
1.0
1070
   277
1070
     2
1070
   284
1070
     8
1070
   278
1070
    46
1070
   146
1040
1.166667
1070
   345
1005
16
1070
   347
1005
16
1070
   346
1005
16
1070
   344
1005
0
1070
   343
1005
0
1070
   172
1070
     1
1070
    76
1070
     0
1070
    75
1070
     0
1070
   282
1070
     0
1070
   281
1070
     0
1070
    71
1070
     0
1070
    74
1070
     0
1070
   279
1070
     0
1070
   173
1070
     1
1070
   340
1005
126
1070
   271
1070
     2
1070
   272
1070
     3
1070
    77
1070
     1
1070
    73
1070
     1
1070
   171
1070
     3
1070
   274
1070
     4
1070
   177
1070
     2
1070
   176
1070
     2
1070
   178
1070
     2
1070
    78
1070
     8
1070
    48
1040
-0.1
1070
    41
1040
3.5
1070
   147
1040
1.5
1070
    42
1040
1.5875
1070
    44
1040
2.0
1070
   140
1040
3.0
1002
}
1001
ACAD_DSTYLE_DIM_LINETYPE
1070
   380
1005
16
1001
ACAD_DSTYLE_DIM_EXT1_LINETYPE
1070
   381
1005
16
1001
ACAD_DSTYLE_DIM_EXT2_LINETYPE
1070
   382
1005
16
0
DIMENSION
5
190
100
AcDbEntity
8
SK2
62
256
6
ByLayer
370
18
48
1
60
0
100
AcDbDimension
2
_U3
10
26
20
32.952229
30
0
11
74.75
21
32.952229
31
0
70
32
71
1
72
1
41
1
210
0
220
0
230
1
3
Standard
100
AcDbAlignedDimension
13
123.5
23
0
33
0
14
26
24
8.731
34
0
50
0
100
AcDbRotatedDimension
1001
ACAD
1000
DSTYLE
1002
{
1070
   371
1070
    13
1070
   372
1070
    13
1070
     3
1000

1070
   170
1070
     0
1070
   144
1040
1.0
1070
   277
1070
     2
1070
   284
1070
     8
1070
   278
1070
    46
1070
   146
1040
1.166667
1070
   345
1005
16
1070
   347
1005
16
1070
   346
1005
16
1070
   344
1005
0
1070
   343
1005
0
1070
   172
1070
     1
1070
    76
1070
     0
1070
    75
1070
     0
1070
   282
1070
     0
1070
   281
1070
     0
1070
    71
1070
     0
1070
    74
1070
     0
1070
   279
1070
     0
1070
   173
1070
     1
1070
   340
1005
126
1070
   271
1070
     2
1070
   272
1070
     3
1070
    77
1070
     1
1070
    73
1070
     1
1070
   171
1070
     3
1070
   274
1070
     4
1070
   177
1070
     2
1070
   176
1070
     2
1070
   178
1070
     2
1070
    78
1070
     8
1070
    48
1040
-0.1
1070
    41
1040
3.5
1070
   147
1040
1.5
1070
    42
1040
1.5875
1070
    44
1040
2.0
1070
   140
1040
3.0
1002
}
1001
ACAD_DSTYLE_DIM_LINETYPE
1070
   380
1005
16
1001
ACAD_DSTYLE_DIM_EXT1_LINETYPE
1070
   381
1005
16
1001
ACAD_DSTYLE_DIM_EXT2_LINETYPE
1070
   382
1005
16
0
ENDSEC
0
SECTION
2
OBJECTS
0
DICTIONARY
5
218
330
0
100
AcDbDictionary
280
0
281
1
3
ACAD_GROUP
350
219
3
ACAD_MLINESTYLE
350
21a
0
DICTIONARY
5
219
330
0
100
AcDbDictionary
280
0
281
1
0
DICTIONARY
5
21a
330
0
100
AcDbDictionary
280
0
281
1
3
Standard
350
18
0
MLINESTYLE
5
18
330
21a
100
AcDbMlineStyle
2
Standard
70
0
3

62
256
51
90
52
90
71
2
49
-0.5
62
256
6
ByLayer
49
0.5
62
256
6
ByLayer
0
RASTERVARIABLES
5
206
330

100
AcDbRasterVariables
90
0
70
1
71
1
72
1
0
ENDSEC
0
EOF
