0
SECTION
2
HEADER
9
$ACADVER
1
AC1015
9
$DWGCODEPAGE
3
ANSI_1252
9
$HANDSEED
5
214
9
$ANGBASE
50
0
9
$ANGDIR
70
0
9
$ATTMODE
70
1
9
$AUNITS
70
0
9
$AUPREC
70
0
9
$CECOLOR
62
256
9
$CELTSCALE
40
1
9
$CELTYPE
6
ByLayer
9
$CELWEIGHT
370
18
9
$CLAYER
8
0
9
$CMLJUST
70
0
9
$CMLSCALE
40
1
9
$CMLSTYLE
2
Standard
9
$DIMSTYLE
2
Standard
9
$TEXTSIZE
40
0.2
9
$TEXTSTYLE
7
Standard
9
$LUNITS
70
2
9
$LUPREC
70
4
9
$EXTNAMES
290
1
9
$INSUNITS
70
4
9
$LTSCALE
40
1
9
$LWDISPLAY
290
1
9
$PDMODE
70
0
9
$PDSIZE
40
0
9
$PLINEGEN
70
0
0
ENDSEC
0
SECTION
2
CLASSES
0
CLASS
1
RASTERVARIABLES
2
AcDbRasterVariables
3
ISM
90
0
280
0
281
0
0
ENDSEC
0
SECTION
2
TABLES
0
TABLE
2
VPORT
5
20a
100
AcDbSymbolTable
0
VPORT
5
1
100
AcDbSymbolTableRecord
100
AcDbViewportTableRecord
2
*Active
70
0
10
0
20
0
11
1
21
1
12
-1
22
1
13
0
23
0
14
0.5
24
0.5
15
10
25
10
16
0
26
0
36
1
17
0
27
0
37
0
0
ENDTAB
0
TABLE
2
LTYPE
5
20b
100
AcDbSymbolTable
0
LTYPE
5
14
100
AcDbSymbolTableRecord
100
AcDbLinetypeTableRecord
70
0
2
ByBlock
3

72
65
73
0
40
0
0
LTYPE
5
15
100
AcDbSymbolTableRecord
100
AcDbLinetypeTableRecord
70
0
2
ByLayer
3

72
65
73
0
40
0
0
LTYPE
5
16
100
AcDbSymbolTableRecord
100
AcDbLinetypeTableRecord
70
0
2
Continuous
3
Solid line
72
65
73
0
40
0
0
LTYPE
5
6E
100
AcDbSymbolTableRecord
100
AcDbLinetypeTableRecord
70
0
2
CENTER
3
____ _ ____ _ ____ _ ____
72
65
73
4
40
47.5
49
22
74
0
49
-8.5
74
0
49
8.5
74
0
49
-8.5
74
0
0
LTYPE
5
6F
100
AcDbSymbolTableRecord
100
AcDbLinetypeTableRecord
70
0
2
DASHED
3
__ __ __ __ __ __ __ __ __
72
65
73
2
40
25.72
49
12.86
74
0
49
-12.86
74
0
0
ENDTAB
0
TABLE
2
LAYER
5
20c
100
AcDbSymbolTable
0
LAYER
5
10
100
AcDbSymbolTableRecord
100
AcDbLayerTableRecord
2
0
70
0
62
7
6
Continuous
290
1
370
-3
390
0
0
LAYER
5
71
100
AcDbSymbolTableRecord
100
AcDbLayerTableRecord
2
81
70
0
62
-3
6
Continuous
290
1
370
-3
390
0
0
LAYER
5
73
100
AcDbSymbolTableRecord
100
AcDbLayerTableRecord
2
80
70
0
62
-6
6
Continuous
290
1
370
-3
390
0
0
LAYER
5
75
100
AcDbSymbolTableRecord
100
AcDbLayerTableRecord
2
1
70
0
62
4
6
Continuous
290
1
370
-3
390
0
0
LAYER
5
7F
100
AcDbSymbolTableRecord
100
AcDbLayerTableRecord
2
4
70
0
62
-2
6
CENTER
290
1
370
-3
390
0
0
LAYER
5
B0
100
AcDbSymbolTableRecord
100
AcDbLayerTableRecord
2
2
70
0
62
7
6
Continuous
290
1
370
-3
390
0
0
LAYER
5
139
100
AcDbSymbolTableRecord
100
AcDbLayerTableRecord
2
Defpoints
70
0
62
7
6
Continuous
290
0
370
-3
390
0
0
LAYER
5
1f6
100
AcDbSymbolTableRecord
100
AcDbLayerTableRecord
2
SK4
70
0
62
2
6
CENTER
290
1
370
-3
390
0
0
LAYER
5
1f7
100
AcDbSymbolTableRecord
100
AcDbLayerTableRecord
2
SK1
70
0
62
4
6
Continuous
290
1
370
-3
390
0
0
LAYER
5
1f8
100
AcDbSymbolTableRecord
100
AcDbLayerTableRecord
2
SK2
70
0
62
7
6
Continuous
290
1
370
-3
390
0
0
LAYER
5
1f9
100
AcDbSymbolTableRecord
100
AcDbLayerTableRecord
2
SK6
70
0
62
5
6
Continuous
290
1
370
-3
390
0
0
ENDTAB
0
TABLE
2
STYLE
5
20d
100
AcDbSymbolTable
0
STYLE
5
11
100
AcDbSymbolTableRecord
100
AcDbTextStyleTableRecord
2
Standard
3
txt
70
0
71
0
40
0
41
1
42
0
50
0
0
STYLE
5
115
100
AcDbSymbolTableRecord
100
AcDbTextStyleTableRecord
2
iso_b_vert
3
simplex.shx
70
0
71
0
40
0
41
1
42
0
50
0
0
STYLE
5
116
100
AcDbSymbolTableRecord
100
AcDbTextStyleTableRecord
2
DWGDirectTextStyle
3
simplex
70
0
71
0
40
0
41
1
42
0
50
0
0
ENDTAB
0
TABLE
2
DIMSTYLE
5
20e
100
AcDbSymbolTable
100
AcDbDimStyleTable
0
DIMSTYLE
105
27
100
AcDbSymbolTableRecord
100
AcDbDimStyleTableRecord
2
Standard
70
0
3
<>
41
0.18
42
0.0625
44
0.18
140
0.18
147
0.09
73
0
74
0
77
1
271
2
275
0
278
52
280
0
340
11
0
ENDTAB
0
TABLE
2
VIEW
5
20f
100
AcDbSymbolTable
0
ENDTAB
0
TABLE
2
UCS
5
210
100
AcDbSymbolTable
0
ENDTAB
0
TABLE
2
APPID
5
211
100
AcDbSymbolTable
0
APPID
5
12
100
AcDbSymbolTableRecord
100
AcDbRegAppTableRecord
2
ACAD
70
0
0
APPID
5
135
100
AcDbSymbolTableRecord
100
AcDbRegAppTableRecord
2
ACAD_DSTYLE_DIMBREAK
70
0
0
APPID
5
1B5
100
AcDbSymbolTableRecord
100
AcDbRegAppTableRecord
2
ACAD_DSTYLE_DIM_LINETYPE
70
0
0
APPID
5
1B6
100
AcDbSymbolTableRecord
100
AcDbRegAppTableRecord
2
ACAD_DSTYLE_DIM_EXT1_LINETYPE
70
0
0
APPID
5
1B7
100
AcDbSymbolTableRecord
100
AcDbRegAppTableRecord
2
ACAD_DSTYLE_DIM_EXT2_LINETYPE
70
0
0
APPID
5
1F2
100
AcDbSymbolTableRecord
100
AcDbRegAppTableRecord
2
ACAD_MLEADERVER
70
0
0
ENDTAB
0
TABLE
2
BLOCK_RECORD
5
212
100
AcDbSymbolTable
0
BLOCK_RECORD
5
1F
100
AcDbSymbolTableRecord
100
AcDbBlockTableRecord
2
*Model_Space
340
0
70
0
0
BLOCK_RECORD
5
1B
100
AcDbSymbolTableRecord
100
AcDbBlockTableRecord
2
*Paper_Space
340
0
70
0
0
BLOCK_RECORD
5
23
100
AcDbSymbolTableRecord
100
AcDbBlockTableRecord
2
*Paper_Space0
340
0
70
0
0
BLOCK_RECORD
5
13A
100
AcDbSymbolTableRecord
100
AcDbBlockTableRecord
2
*D1
340
0
70
0
0
BLOCK_RECORD
5
146
100
AcDbSymbolTableRecord
100
AcDbBlockTableRecord
2
_U0
340
0
70
0
0
BLOCK_RECORD
5
152
100
AcDbSymbolTableRecord
100
AcDbBlockTableRecord
2
*D3
340
0
70
0
0
BLOCK_RECORD
5
15E
100
AcDbSymbolTableRecord
100
AcDbBlockTableRecord
2
_U1
340
0
70
0
0
BLOCK_RECORD
5
16A
100
AcDbSymbolTableRecord
100
AcDbBlockTableRecord
2
*D5
340
0
70
0
0
BLOCK_RECORD
5
176
100
AcDbSymbolTableRecord
100
AcDbBlockTableRecord
2
_U2
340
0
70
0
0
BLOCK_RECORD
5
182
100
AcDbSymbolTableRecord
100
AcDbBlockTableRecord
2
*D7
340
0
70
0
0
BLOCK_RECORD
5
18E
100
AcDbSymbolTableRecord
100
AcDbBlockTableRecord
2
_U3
340
0
70
0
0
ENDTAB
0
ENDSEC
0
SECTION
2
BLOCKS
0
BLOCK
5
20
100
AcDbEntity
8
0
100
AcDbBlockBegin
2
*Model_Space
70
0
10
0
20
0
30
0
3
*Model_Space
0
ENDBLK
5
21
100
AcDbEntity
8
0
100
AcDbBlockEnd
0
BLOCK
5
1C
100
AcDbEntity
8
0
100
AcDbBlockBegin
2
*Paper_Space
70
0
10
0
20
0
30
0
3
*Paper_Space
0
ENDBLK
5
1D
100
AcDbEntity
8
0
100
AcDbBlockEnd
0
BLOCK
5
24
100
AcDbEntity
8
0
100
AcDbBlockBegin
2
*Paper_Space0
70
0
10
0
20
0
30
0
3
*Paper_Space0
0
ENDBLK
5
25
100
AcDbEntity
8
0
100
AcDbBlockEnd
0
BLOCK
5
13B
100
AcDbEntity
8
0
100
AcDbBlockBegin
2
*D1
70
1
10
0
20
0
30
0
3
*D1
0
LINE
5
13D
100
AcDbEntity
8
0
62
256
6
ByLayer
370
-2
48
1
60
0
100
AcDbLine
10
-48
20
-11.1125
30
0
11
-48
21
-47.952229
31
0
39
0
210
0
220
0
230
1
0
LINE
5
13E
100
AcDbEntity
8
0
62
256
6
ByLayer
370
-2
48
1
60
0
100
AcDbLine
10
68.5
20
-1.5875
30
0
11
68.5
21
-47.952229
31
0
39
0
210
0
220
0
230
1
0
LINE
5
13F
100
AcDbEntity
8
0
62
256
6
ByLayer
370
-2
48
1
60
0
100
AcDbLine
10
-44.5
20
-45.952229
30
0
11
65
21
-45.952229
31
0
39
0
210
0
220
0
230
1
0
SOLID
5
140
100
AcDbEntity
8
0
62
256
6
ByLayer
370
-1
48
1
60
0
100
AcDbTrace
10
-44.5
20
-45.368896
30
0
11
-44.5
21
-46.535563
31
0
12
-48
22
-45.952229
32
0
13
-48
23
-45.952229
33
0
39
0
210
0
220
0
230
1
0
SOLID
5
141
100
AcDbEntity
8
0
62
256
6
ByLayer
370
-1
48
1
60
0
100
AcDbTrace
10
65
20
-46.535563
30
0
11
65
21
-45.368896
31
0
12
68.5
22
-45.952229
32
0
13
68.5
23
-45.952229
33
0
39
0
210
0
220
0
230
1
0
MTEXT
5
142
100
AcDbEntity
8
0
62
256
6
ByLayer
370
18
48
1
60
0
100
AcDbMText
10
10.25
20
-39.952229
30
0
210
0
220
0
230
1
1
\A1;116.5
40
3
41
0
44
1
50
0
71
5
72
5
7
iso_b_vert
0
POINT
5
143
100
AcDbEntity
8
Defpoints
62
0
6
ByLayer
370
-1
48
1
60
0
100
AcDbPoint
10
-48
20
-9.525
30
0
39
0
210
0
220
0
230
1
50
360
0
POINT
5
144
100
AcDbEntity
8
Defpoints
62
0
6
ByLayer
370
-1
48
1
60
0
100
AcDbPoint
10
68.5
20
0
30
0
39
0
210
0
220
0
230
1
50
360
0
POINT
5
145
100
AcDbEntity
8
Defpoints
62
0
6
ByLayer
370
-1
48
1
60
0
100
AcDbPoint
10
68.5
20
-45.952229
30
0
39
0
210
0
220
0
230
1
50
360
0
ENDBLK
5
13C
100
AcDbEntity
8
0
100
AcDbBlockEnd
0
BLOCK
5
14D
100
AcDbEntity
8
0
100
AcDbBlockBegin
2
_U0
70
0
10
0
20
0
30
0
3
_U0
0
MTEXT
5
147
100
AcDbEntity
8
SK2
62
256
6
ByLayer
370
18
48
1
60
0
100
AcDbMText
10
5.396601
20
-45.067115
30
0
210
0
220
0
230
1
1
\W0.6532;116.50
40
3
41
0
44
1.084337
50
0
71
7
72
5
7
iso_b_vert
0
LINE
5
148
100
AcDbEntity
8
SK2
62
256
6
ByLayer
370
13
48
1
60
0
100
AcDbLine
10
-48
20
-11.1125
30
0
11
-48
21
-47.952229
31
0
39
0
210
0
220
0
230
1
0
LINE
5
149
100
AcDbEntity
8
SK2
62
256
6
ByLayer
370
13
48
1
60
0
100
AcDbLine
10
68.5
20
-1.5875
30
0
11
68.5
21
-47.952229
31
0
39
0
210
0
220
0
230
1
0
LINE
5
14A
100
AcDbEntity
8
SK2
62
256
6
ByLayer
370
13
48
1
60
0
100
AcDbLine
10
-48
20
-45.952229
30
0
11
68.5
21
-45.952229
31
0
39
0
210
0
220
0
230
1
0
SOLID
5
14B
100
AcDbEntity
8
SK2
62
256
6
ByLayer
370
18
48
1
60
0
100
AcDbTrace
10
-48
20
-45.952229
30
0
11
-44.500002
21
-45.491446
31
0
12
-44.499998
22
-46.413013
32
0
13
-44.499998
23
-46.413013
33
0
39
0
210
0
220
0
230
1
0
SOLID
5
14C
100
AcDbEntity
8
SK2
62
256
6
ByLayer
370
18
48
1
60
0
100
AcDbTrace
10
68.5
20
-45.952229
30
0
11
65.000002
21
-46.413013
31
0
12
64.999998
22
-45.491446
32
0
13
64.999998
23
-45.491446
33
0
39
0
210
0
220
0
230
1
0
ENDBLK
5
14E
100
AcDbEntity
8
0
100
AcDbBlockEnd
0
BLOCK
5
153
100
AcDbEntity
8
0
100
AcDbBlockBegin
2
*D3
70
1
10
0
20
0
30
0
3
*D3
0
LINE
5
155
100
AcDbEntity
8
0
62
256
6
ByLayer
370
-2
48
1
60
0
100
AcDbLine
10
68.5
20
-1.5875
30
0
11
68.5
21
-37.952229
31
0
39
0
210
0
220
0
230
1
0
LINE
5
156
100
AcDbEntity
8
0
62
256
6
ByLayer
370
-2
48
1
60
0
100
AcDbLine
10
3
20
-8.7315
30
0
11
3
21
-37.952229
31
0
39
0
210
0
220
0
230
1
0
LINE
5
157
100
AcDbEntity
8
0
62
256
6
ByLayer
370
-2
48
1
60
0
100
AcDbLine
10
65
20
-35.952229
30
0
11
6.5
21
-35.952229
31
0
39
0
210
0
220
0
230
1
0
SOLID
5
158
100
AcDbEntity
8
0
62
256
6
ByLayer
370
-1
48
1
60
0
100
AcDbTrace
10
65
20
-36.535563
30
0
11
65
21
-35.368896
31
0
12
68.5
22
-35.952229
32
0
13
68.5
23
-35.952229
33
0
39
0
210
0
220
0
230
1
0
SOLID
5
159
100
AcDbEntity
8
0
62
256
6
ByLayer
370
-1
48
1
60
0
100
AcDbTrace
10
6.5
20
-35.368896
30
0
11
6.5
21
-36.535563
31
0
12
3
22
-35.952229
32
0
13
3
23
-35.952229
33
0
39
0
210
0
220
0
230
1
0
MTEXT
5
15A
100
AcDbEntity
8
0
62
256
6
ByLayer
370
18
48
1
60
0
100
AcDbMText
10
35.75
20
-29.952229
30
0
210
0
220
0
230
1
1
\A1;65.5
40
3
41
0
44
1
50
0
71
5
72
5
7
iso_b_vert
0
POINT
5
15B
100
AcDbEntity
8
Defpoints
62
0
6
ByLayer
370
-1
48
1
60
0
100
AcDbPoint
10
68.5
20
0
30
0
39
0
210
0
220
0
230
1
50
360
0
POINT
5
15C
100
AcDbEntity
8
Defpoints
62
0
6
ByLayer
370
-1
48
1
60
0
100
AcDbPoint
10
3
20
-7.144
30
0
39
0
210
0
220
0
230
1
50
360
0
POINT
5
15D
100
AcDbEntity
8
Defpoints
62
0
6
ByLayer
370
-1
48
1
60
0
100
AcDbPoint
10
3
20
-35.952229
30
0
39
0
210
0
220
0
230
1
50
360
0
ENDBLK
5
154
100
AcDbEntity
8
0
100
AcDbBlockEnd
0
BLOCK
5
165
100
AcDbEntity
8
0
100
AcDbBlockBegin
2
_U1
70
0
10
0
20
0
30
0
3
_U1
0
MTEXT
5
15F
100
AcDbEntity
8
SK2
62
256
6
ByLayer
370
18
48
1
60
0
100
AcDbMText
10
31.26763
20
-35.067115
30
0
210
0
220
0
230
1
1
\W0.7468;65.50
40
3
41
0
44
1.084337
50
0
71
7
72
5
7
iso_b_vert
0
LINE
5
160
100
AcDbEntity
8
SK2
62
256
6
ByLayer
370
13
48
1
60
0
100
AcDbLine
10
68.5
20
-1.5875
30
0
11
68.5
21
-37.952229
31
0
39
0
210
0
220
0
230
1
0
LINE
5
161
100
AcDbEntity
8
SK2
62
256
6
ByLayer
370
13
48
1
60
0
100
AcDbLine
10
3
20
-8.7315
30
0
11
3
21
-37.952229
31
0
39
0
210
0
220
0
230
1
0
LINE
5
162
100
AcDbEntity
8
SK2
62
256
6
ByLayer
370
13
48
1
60
0
100
AcDbLine
10
68.5
20
-35.952229
30
0
11
3
21
-35.952229
31
0
39
0
210
0
220
0
230
1
0
SOLID
5
163
100
AcDbEntity
8
SK2
62
256
6
ByLayer
370
18
48
1
60
0
100
AcDbTrace
10
68.5
20
-35.952229
30
0
11
65.000002
21
-36.413013
31
0
12
64.999998
22
-35.491446
32
0
13
64.999998
23
-35.491446
33
0
39
0
210
0
220
0
230
1
0
SOLID
5
164
100
AcDbEntity
8
SK2
62
256
6
ByLayer
370
18
48
1
60
0
100
AcDbTrace
10
3
20
-35.952229
30
0
11
6.499998
21
-35.491446
31
0
12
6.500002
22
-36.413013
32
0
13
6.500002
23
-36.413013
33
0
39
0
210
0
220
0
230
1
0
ENDBLK
5
166
100
AcDbEntity
8
0
100
AcDbBlockEnd
0
BLOCK
5
16B
100
AcDbEntity
8
0
100
AcDbBlockBegin
2
*D5
70
1
10
0
20
0
30
0
3
*D5
0
LINE
5
16D
100
AcDbEntity
8
0
62
256
6
ByLayer
370
-2
48
1
60
0
100
AcDbLine
10
-48
20
-11.1125
30
0
11
-48
21
-37.952229
31
0
39
0
210
0
220
0
230
1
0
LINE
5
16E
100
AcDbEntity
8
0
62
256
6
ByLayer
370
-2
48
1
60
0
100
AcDbLine
10
0
20
-11.1125
30
0
11
0
21
-37.952229
31
0
39
0
210
0
220
0
230
1
0
LINE
5
16F
100
AcDbEntity
8
0
62
256
6
ByLayer
370
-2
48
1
60
0
100
AcDbLine
10
-44.5
20
-35.952229
30
0
11
-3.5
21
-35.952229
31
0
39
0
210
0
220
0
230
1
0
SOLID
5
170
100
AcDbEntity
8
0
62
256
6
ByLayer
370
-1
48
1
60
0
100
AcDbTrace
10
-44.5
20
-35.368896
30
0
11
-44.5
21
-36.535563
31
0
12
-48
22
-35.952229
32
0
13
-48
23
-35.952229
33
0
39
0
210
0
220
0
230
1
0
SOLID
5
171
100
AcDbEntity
8
0
62
256
6
ByLayer
370
-1
48
1
60
0
100
AcDbTrace
10
-3.5
20
-36.535563
30
0
11
-3.5
21
-35.368896
31
0
12
0
22
-35.952229
32
0
13
0
23
-35.952229
33
0
39
0
210
0
220
0
230
1
0
MTEXT
5
172
100
AcDbEntity
8
0
62
256
6
ByLayer
370
18
48
1
60
0
100
AcDbMText
10
-24
20
-29.952229
30
0
210
0
220
0
230
1
1
\A1;48
40
3
41
0
44
1
50
0
71
5
72
5
7
iso_b_vert
0
POINT
5
173
100
AcDbEntity
8
Defpoints
62
0
6
ByLayer
370
-1
48
1
60
0
100
AcDbPoint
10
-48
20
-9.525
30
0
39
0
210
0
220
0
230
1
50
360
0
POINT
5
174
100
AcDbEntity
8
Defpoints
62
0
6
ByLayer
370
-1
48
1
60
0
100
AcDbPoint
10
0
20
-9.525
30
0
39
0
210
0
220
0
230
1
50
360
0
POINT
5
175
100
AcDbEntity
8
Defpoints
62
0
6
ByLayer
370
-1
48
1
60
0
100
AcDbPoint
10
0
20
-35.952229
30
0
39
0
210
0
220
0
230
1
50
360
0
ENDBLK
5
16C
100
AcDbEntity
8
0
100
AcDbBlockEnd
0
BLOCK
5
17D
100
AcDbEntity
8
0
100
AcDbBlockBegin
2
_U2
70
0
10
0
20
0
30
0
3
_U2
0
MTEXT
5
177
100
AcDbEntity
8
SK2
62
256
6
ByLayer
370
18
48
1
60
0
100
AcDbMText
10
-28.640313
20
-35.067115
30
0
210
0
220
0
230
1
1
\W0.7694;48.00
40
3
41
0
44
1.084337
50
0
71
7
72
5
7
iso_b_vert
0
LINE
5
178
100
AcDbEntity
8
SK2
62
256
6
ByLayer
370
13
48
1
60
0
100
AcDbLine
10
-48
20
-11.1125
30
0
11
-48
21
-37.952229
31
0
39
0
210
0
220
0
230
1
0
LINE
5
179
100
AcDbEntity
8
SK2
62
256
6
ByLayer
370
13
48
1
60
0
100
AcDbLine
10
0
20
-11.1125
30
0
11
0
21
-37.952229
31
0
39
0
210
0
220
0
230
1
0
LINE
5
17A
100
AcDbEntity
8
SK2
62
256
6
ByLayer
370
13
48
1
60
0
100
AcDbLine
10
-48
20
-35.952229
30
0
11
0
21
-35.952229
31
0
39
0
210
0
220
0
230
1
0
SOLID
5
17B
100
AcDbEntity
8
SK2
62
256
6
ByLayer
370
18
48
1
60
0
100
AcDbTrace
10
-48
20
-35.952229
30
0
11
-44.500002
21
-35.491446
31
0
12
-44.499998
22
-36.413013
32
0
13
-44.499998
23
-36.413013
33
0
39
0
210
0
220
0
230
1
0
SOLID
5
17C
100
AcDbEntity
8
SK2
62
256
6
ByLayer
370
18
48
1
60
0
100
AcDbTrace
10
0
20
-35.952229
30
0
11
-3.499998
21
-36.413013
31
0
12
-3.500002
22
-35.491446
32
0
13
-3.500002
23
-35.491446
33
0
39
0
210
0
220
0
230
1
0
ENDBLK
5
17E
100
AcDbEntity
8
0
100
AcDbBlockEnd
0
BLOCK
5
183
100
AcDbEntity
8
0
100
AcDbBlockBegin
2
*D7
70
1
10
0
20
0
30
0
3
*D7
0
LINE
5
185
100
AcDbEntity
8
0
62
256
6
ByLayer
370
-2
48
1
60
0
100
AcDbLine
10
68.5
20
1.5875
30
0
11
68.5
21
34.952229
31
0
39
0
210
0
220
0
230
1
0
LINE
5
186
100
AcDbEntity
8
0
62
256
6
ByLayer
370
-2
48
1
60
0
100
AcDbLine
10
16
20
8.7315
30
0
11
16
21
34.952229
31
0
39
0
210
0
220
0
230
1
0
LINE
5
187
100
AcDbEntity
8
0
62
256
6
ByLayer
370
-2
48
1
60
0
100
AcDbLine
10
65
20
32.952229
30
0
11
19.5
21
32.952229
31
0
39
0
210
0
220
0
230
1
0
SOLID
5
188
100
AcDbEntity
8
0
62
256
6
ByLayer
370
-1
48
1
60
0
100
AcDbTrace
10
65
20
32.368896
30
0
11
65
21
33.535563
31
0
12
68.5
22
32.952229
32
0
13
68.5
23
32.952229
33
0
39
0
210
0
220
0
230
1
0
SOLID
5
189
100
AcDbEntity
8
0
62
256
6
ByLayer
370
-1
48
1
60
0
100
AcDbTrace
10
19.5
20
33.535563
30
0
11
19.5
21
32.368896
31
0
12
16
22
32.952229
32
0
13
16
23
32.952229
33
0
39
0
210
0
220
0
230
1
0
MTEXT
5
18A
100
AcDbEntity
8
0
62
256
6
ByLayer
370
18
48
1
60
0
100
AcDbMText
10
42.25
20
38.952229
30
0
210
0
220
0
230
1
1
\A1;52.5
40
3
41
0
44
1
50
0
71
5
72
5
7
iso_b_vert
0
POINT
5
18B
100
AcDbEntity
8
Defpoints
62
0
6
ByLayer
370
-1
48
1
60
0
100
AcDbPoint
10
68.5
20
0
30
0
39
0
210
0
220
0
230
1
50
360
0
POINT
5
18C
100
AcDbEntity
8
Defpoints
62
0
6
ByLayer
370
-1
48
1
60
0
100
AcDbPoint
10
16
20
7.144
30
0
39
0
210
0
220
0
230
1
50
360
0
POINT
5
18D
100
AcDbEntity
8
Defpoints
62
0
6
ByLayer
370
-1
48
1
60
0
100
AcDbPoint
10
16
20
32.952229
30
0
39
0
210
0
220
0
230
1
50
360
0
ENDBLK
5
184
100
AcDbEntity
8
0
100
AcDbBlockEnd
0
BLOCK
5
195
100
AcDbEntity
8
0
100
AcDbBlockBegin
2
_U3
70
0
10
0
20
0
30
0
3
_U3
0
MTEXT
5
18F
100
AcDbEntity
8
SK2
62
256
6
ByLayer
370
18
48
1
60
0
100
AcDbMText
10
37.76763
20
33.837344
30
0
210
0
220
0
230
1
1
\W0.7468;52.50
40
3
41
0
44
1.084337
50
0
71
7
72
5
7
iso_b_vert
0
LINE
5
190
100
AcDbEntity
8
SK2
62
256
6
ByLayer
370
13
48
1
60
0
100
AcDbLine
10
68.5
20
1.5875
30
0
11
68.5
21
34.952229
31
0
39
0
210
0
220
0
230
1
0
LINE
5
191
100
AcDbEntity
8
SK2
62
256
6
ByLayer
370
13
48
1
60
0
100
AcDbLine
10
16
20
8.7315
30
0
11
16
21
34.952229
31
0
39
0
210
0
220
0
230
1
0
LINE
5
192
100
AcDbEntity
8
SK2
62
256
6
ByLayer
370
13
48
1
60
0
100
AcDbLine
10
68.5
20
32.952229
30
0
11
16
21
32.952229
31
0
39
0
210
0
220
0
230
1
0
SOLID
5
193
100
AcDbEntity
8
SK2
62
256
6
ByLayer
370
18
48
1
60
0
100
AcDbTrace
10
68.5
20
32.952229
30
0
11
65.000002
21
32.491446
31
0
12
64.999998
22
33.413013
32
0
13
64.999998
23
33.413013
33
0
39
0
210
0
220
0
230
1
0
SOLID
5
194
100
AcDbEntity
8
SK2
62
256
6
ByLayer
370
18
48
1
60
0
100
AcDbTrace
10
16
20
32.952229
30
0
11
19.499998
21
33.413013
31
0
12
19.500002
22
32.491446
32
0
13
19.500002
23
32.491446
33
0
39
0
210
0
220
0
230
1
0
ENDBLK
5
196
100
AcDbEntity
8
0
100
AcDbBlockEnd
0
ENDSEC
0
SECTION
2
ENTITIES
0
ARC
5
C1
100
AcDbEntity
8
SK2
62
256
6
ByLayer
370
13
48
1
60
0
100
AcDbCircle
39
0
10
68.5
20
0
30
0
40
19
210
0
220
0
230
1
100
AcDbArc
50
290
51
70
0
ELLIPSE
5
C2
100
AcDbEntity
8
SK1
62
256
6
ByLayer
370
18
48
1
60
0
100
AcDbEllipse
10
-32.117794
20
0
30
0
11
-1.74965632802376E-15
21
-9.52500000000022
31
0
210
0
220
0
230
1
40
0.932515
41
-1.99646903598621
42
-1.14512361760358
0
ELLIPSE
5
C3
100
AcDbEntity
8
SK1
62
256
6
ByLayer
370
18
48
1
60
0
100
AcDbEllipse
10
-15.214312
20
0
30
0
11
10.2143119629885
21
-1.15738337235711E-14
31
0
210
0
220
0
230
1
40
0.932515
41
-0.425672709191254
42
0.425672709191253
0
POINT
5
70
100
AcDbEntity
8
81
62
256
6
ByLayer
370
18
48
1
60
0
100
AcDbPoint
10
68.5
20
0
30
0
39
0
210
0
220
0
230
1
50
360
0
POINT
5
72
100
AcDbEntity
8
80
62
256
6
ByLayer
370
18
48
1
60
0
100
AcDbPoint
10
0
20
0
30
0
39
0
210
0
220
0
230
1
50
360
0
POINT
5
74
100
AcDbEntity
8
1
62
256
6
ByLayer
370
18
48
1
60
1
100
AcDbPoint
10
-48
20
-9.525
30
0
39
0
210
0
220
0
230
1
50
360
0
POINT
5
76
100
AcDbEntity
8
1
62
256
6
ByLayer
370
18
48
1
60
1
100
AcDbPoint
10
68.5
20
0
30
0
39
0
210
0
220
0
230
1
50
360
0
POINT
5
77
100
AcDbEntity
8
1
62
256
6
ByLayer
370
18
48
1
60
1
100
AcDbPoint
10
68.5
20
0
30
0
39
0
210
0
220
0
230
1
50
360
0
POINT
5
78
100
AcDbEntity
8
1
62
256
6
ByLayer
370
18
48
1
60
1
100
AcDbPoint
10
3
20
-7.144
30
0
39
0
210
0
220
0
230
1
50
360
0
POINT
5
79
100
AcDbEntity
8
1
62
256
6
ByLayer
370
18
48
1
60
1
100
AcDbPoint
10
-48
20
-9.525
30
0
39
0
210
0
220
0
230
1
50
360
0
POINT
5
7A
100
AcDbEntity
8
1
62
256
6
ByLayer
370
18
48
1
60
1
100
AcDbPoint
10
0
20
-9.525
30
0
39
0
210
0
220
0
230
1
50
360
0
POINT
5
7B
100
AcDbEntity
8
1
62
256
6
ByLayer
370
18
48
1
60
1
100
AcDbPoint
10
68.5
20
0
30
0
39
0
210
0
220
0
230
1
50
360
0
POINT
5
7C
100
AcDbEntity
8
1
62
256
6
ByLayer
370
18
48
1
60
1
100
AcDbPoint
10
16
20
7.144
30
0
39
0
210
0
220
0
230
1
50
360
0
SPLINE
5
C4
100
AcDbEntity
8
1
62
256
6
ByLayer
370
18
48
1
60
0
100
AcDbSpline
70
4
71
3
72
14
73
10
40
0
40
0
40
0
40
0
40
0.175623436779915
40
0.175623436779915
40
0.351246873559829
40
0.351246873559829
40
0.702493747119659
40
0.702493747119659
40
1
40
1
40
1
40
1
41
1
10
58.2
20
-7.07296898942937
30
0
41
1
10
58.3606402328961
20
-7.08115028179654
30
0
41
1
10
58.5212004591457
20
-7.08863046313246
30
0
41
1
10
58.8422023483394
20
-7.10216454443946
30
0
41
1
10
59.0026488198128
20
-7.10821607534069
30
0
41
1
10
59.4839942837203
20
-7.12418498716789
30
0
41
1
10
59.8049168260296
20
-7.13192327846022
30
0
41
1
10
60.397532368359
20
-7.14095736185715
30
0
41
1
10
60.6692600819558
20
-7.14306219881135
30
0
41
1
10
60.940925995227
20
-7.14311799240025
30
0
0
SPLINE
5
C5
100
AcDbEntity
8
1
62
256
6
ByLayer
370
18
48
1
60
0
100
AcDbSpline
70
4
71
3
72
102
73
98
40
0
40
0
40
0
40
0
40
0.0312499999999999
40
0.0312499999999999
40
0.0624999999999998
40
0.0624999999999998
40
0.0781249999999993
40
0.0781249999999993
40
0.0937499999999988
40
0.0937499999999988
40
0.124999999999997
40
0.124999999999997
40
0.156249999999995
40
0.156249999999995
40
0.171874999999994
40
0.171874999999994
40
0.187499999999993
40
0.187499999999993
40
0.203124999999992
40
0.203124999999992
40
0.218749999999991
40
0.218749999999991
40
0.234374999999991
40
0.234374999999991
40
0.24999999999999
40
0.24999999999999
40
0.265624999999989
40
0.265624999999989
40
0.281249999999988
40
0.281249999999988
40
0.312499999999987
40
0.312499999999987
40
0.328124999999987
40
0.328124999999987
40
0.343749999999987
40
0.343749999999987
40
0.374999999999986
40
0.374999999999986
40
0.406249999999985
40
0.406249999999985
40
0.421874999999985
40
0.421874999999985
40
0.437499999999985
40
0.437499999999985
40
0.468749999999985
40
0.468749999999985
40
0.499999999999984
40
0.499999999999984
40
0.515624999999985
40
0.515624999999985
40
0.531249999999985
40
0.531249999999985
40
0.562499999999987
40
0.562499999999987
40
0.578124999999988
40
0.578124999999988
40
0.593749999999989
40
0.593749999999989
40
0.609374999999989
40
0.609374999999989
40
0.62499999999999
40
0.62499999999999
40
0.640624999999991
40
0.640624999999991
40
0.656249999999992
40
0.656249999999992
40
0.671874999999993
40
0.671874999999993
40
0.687499999999994
40
0.687499999999994
40
0.718749999999995
40
0.718749999999995
40
0.749999999999997
40
0.749999999999997
40
0.765624999999998
40
0.765624999999998
40
0.781249999999999
40
0.781249999999999
40
0.8125
40
0.8125
40
0.828125000000001
40
0.828125000000001
40
0.843750000000001
40
0.843750000000001
40
0.859375000000002
40
0.859375000000002
40
0.875000000000002
40
0.875000000000002
40
0.906250000000002
40
0.906250000000002
40
0.921875000000002
40
0.921875000000002
40
0.937500000000002
40
0.937500000000002
40
0.968750000000001
40
0.968750000000001
40
1
40
1
40
1
40
1
41
1
10
16.1448075091633
20
4.46470542483453
30
0
41
1
10
16.5833403709199
20
4.35398511765533
30
0
41
1
10
17.0218022173878
20
4.24060664955124
30
0
41
1
10
17.8983683096521
20
4.00815635659052
30
0
41
1
10
18.3364731431448
20
3.88908524167425
30
0
41
1
10
18.9932146873786
20
3.70584570879873
30
0
41
1
10
19.2120559620502
20
3.64398444311533
30
0
41
1
10
19.6495759082996
20
3.51864289585913
30
0
41
1
10
19.8682678563438
20
3.45519382084098
30
0
41
1
10
20.5245178042928
20
3.26347806452415
30
0
41
1
10
20.9622185624178
20
3.13377787369876
30
0
41
1
10
21.8376984591438
20
2.86982005934237
30
0
41
1
10
22.2755045788248
20
2.73563271243503
30
0
41
1
10
22.932142234858
20
2.53052961101673
30
0
41
1
10
23.1509892511588
20
2.46146597022758
30
0
41
1
10
23.5888140265176
20
2.32247944919851
30
0
41
1
10
23.8078249119783
20
2.25265073842129
30
0
41
1
10
24.2460851571019
20
2.11245303861827
30
0
41
1
10
24.4653138093846
20
2.0420254902474
30
0
41
1
10
24.9039431146409
20
1.90044518975486
30
0
41
1
10
25.1233953272427
20
1.82927969187594
30
0
41
1
10
25.5622022698419
20
1.68624456852558
30
0
41
1
10
25.7815098948856
20
1.6143887620203
30
0
41
1
10
26.219906837025
20
1.46992176220749
30
0
41
1
10
26.4389836665196
20
1.39727368847147
30
0
41
1
10
26.8769363362021
20
1.25127216257599
30
0
41
1
10
27.0958335518413
20
1.17798170849338
30
0
41
1
10
27.5336988160345
20
1.03149952322201
30
0
41
1
10
27.752642257365
20
0.958235212730784
30
0
41
1
10
28.4094189671579
20
0.738119529365889
30
0
41
1
10
28.8472198746307
20
0.591008654871928
30
0
41
1
10
29.5037052450452
20
0.369374259355112
30
0
41
1
10
29.7224980948777
20
0.295335857675212
30
0
41
1
10
30.1599742550875
20
0.146823424304813
30
0
41
1
10
30.3786512285596
20
0.0723303325331699
30
0
41
1
10
31.0348559831336
20
-0.150796484926928
30
0
41
1
10
31.4726602275712
20
-0.29877055097856
30
0
41
1
10
32.3486201487758
20
-0.594105007099273
30
0
41
1
10
32.7867967102592
20
-0.741403116766264
30
0
41
1
10
33.4441999773296
20
-0.962268867660896
30
0
41
1
10
33.6633378044996
20
-1.0359363878863
30
0
41
1
10
34.1017362615124
20
-1.18301596765781
30
0
41
1
10
34.3210779646476
20
-1.25635804682671
30
0
41
1
10
34.9789953972948
20
-1.47485219993933
30
0
41
1
10
35.4174517085473
20
-1.61891624616686
30
0
41
1
10
36.2938530423628
20
-1.90448660031529
30
0
41
1
10
36.731802627273
20
-2.04597980199443
30
0
41
1
10
37.3881811915893
20
-2.25672367349887
30
0
41
1
10
37.6068955846053
20
-2.32668412333121
30
0
41
1
10
38.0444186564915
20
-2.46532888785052
30
0
41
1
10
38.2632331124398
20
-2.53399934204788
30
0
41
1
10
38.9197221380979
20
-2.73838451253738
30
0
41
1
10
39.3574611509712
20
-2.87242355923252
30
0
41
1
10
40.014055181523
20
-3.07051920603931
30
0
41
1
10
40.2329174495091
20
-3.13605646100933
30
0
41
1
10
40.6706041726121
20
-3.26621934670737
30
0
41
1
10
40.8894087011498
20
-3.330895716078
30
0
41
1
10
41.3271247506418
20
-3.45894953914703
30
0
41
1
10
41.5460695122305
20
-3.52224210311508
30
0
41
1
10
41.9841900544833
20
-3.64722233262506
30
0
41
1
10
42.2033430615879
20
-3.70896838785433
30
0
41
1
10
42.6418076694866
20
-3.8310440566506
30
0
41
1
10
42.8611207483948
20
-3.89136995204208
30
0
41
1
10
43.2998865609813
20
-4.0106499897301
30
0
41
1
10
43.5193430114556
20
-4.06960640820935
30
0
41
1
10
43.95795163408
20
-4.18609148397934
30
0
41
1
10
44.1771447444745
20
-4.24365977800051
30
0
41
1
10
44.6153398241599
20
-4.35735680352758
30
0
41
1
10
44.8343620208164
20
-4.41343673905686
30
0
41
1
10
45.4915610267481
20
-4.57858766391038
30
0
41
1
10
45.929756143586
20
-4.68484360760215
30
0
41
1
10
46.8060045760772
20
-4.89032953568679
30
0
41
1
10
47.2440774274334
20
-4.98951859164549
30
0
41
1
10
47.9009271145426
20
-5.13325861915723
30
0
41
1
10
48.1198228568845
20
-5.18034703596967
30
0
41
1
10
48.5577412063896
20
-5.27242497219697
30
0
41
1
10
48.7767922599757
20
-5.3173654453675
30
0
41
1
10
49.4341725793102
20
-5.44901109603234
30
0
41
1
10
49.8726984303647
20
-5.53260026314695
30
0
41
1
10
50.5307674907716
20
-5.65194208073041
30
0
41
1
10
50.7502150534245
20
-5.69072271034815
30
0
41
1
10
51.1888524339772
20
-5.7662402873824
30
0
41
1
10
51.4080420421715
20
-5.80300800754972
30
0
41
1
10
51.8462693119545
20
-5.87438339635921
30
0
41
1
10
52.0653354484526
20
-5.9089492383923
30
0
41
1
10
52.5035404950858
20
-5.97563146246577
30
0
41
1
10
52.7226487916931
20
-6.00779220507096
30
0
41
1
10
53.3799272627558
20
-6.10084467088242
30
0
41
1
10
53.8180676260705
20
-6.15829316113434
30
0
41
1
10
54.4750639496094
20
-6.23773662023285
30
0
41
1
10
54.694025106432
20
-6.26309621079753
30
0
41
1
10
55.1318445655726
20
-6.31157375461322
30
0
41
1
10
55.3507132761432
20
-6.3346772946189
30
0
41
1
10
56.0075722131502
20
-6.40024005669881
30
0
41
1
10
56.445821304256
20
-6.43897628009447
30
0
41
1
10
57.3226642362961
20
-6.5068905538532
30
0
41
1
10
57.7612866866156
20
-6.53604559934649
30
0
41
1
10
58.2
20
-6.56039675309052
30
0
0
SPLINE
5
C6
100
AcDbEntity
8
1
62
256
6
ByLayer
370
18
48
1
60
0
100
AcDbSpline
70
4
71
3
72
78
73
74
40
0
40
0
40
0
40
0
40
0.0324548373498123
40
0.0324548373498123
40
0.0534884278422065
40
0.0534884278422065
40
0.0745220183346008
40
0.0745220183346008
40
0.11658919931939
40
0.11658919931939
40
0.137622789811785
40
0.137622789811785
40
0.15865638030418
40
0.15865638030418
40
0.179689970796575
40
0.179689970796575
40
0.20072356128897
40
0.20072356128897
40
0.24279074227376
40
0.24279074227376
40
0.263824332766156
40
0.263824332766156
40
0.284857923258551
40
0.284857923258551
40
0.326925104243341
40
0.326925104243341
40
0.347958694735737
40
0.347958694735737
40
0.368992285228133
40
0.368992285228133
40
0.411059466212925
40
0.411059466212925
40
0.453126647197717
40
0.453126647197717
40
0.474160237690113
40
0.474160237690113
40
0.495193828182508
40
0.495193828182508
40
0.537261009167297
40
0.537261009167297
40
0.558294599659692
40
0.558294599659692
40
0.579328190152087
40
0.579328190152087
40
0.600361780644482
40
0.600361780644482
40
0.621395371136876
40
0.621395371136876
40
0.663462552121666
40
0.663462552121666
40
0.684496142614061
40
0.684496142614061
40
0.705529733106457
40
0.705529733106457
40
0.747596914091248
40
0.747596914091248
40
0.768630504583644
40
0.768630504583644
40
0.78966409507604
40
0.78966409507604
40
0.810697685568436
40
0.810697685568436
40
0.831731276060832
40
0.831731276060832
40
0.852764866553228
40
0.852764866553228
40
0.873798457045624
40
0.873798457045624
40
0.915865638030416
40
0.915865638030416
40
0.957932819015208
40
0.957932819015208
40
1
40
1
40
1
40
1
41
1
10
46.6079211463797
20
-4.83928569506082
30
0
41
1
10
46.2457564525059
20
-4.92330134724071
30
0
41
1
10
45.8837109825189
20
-5.00486241691911
30
0
41
1
10
45.2872637372846
20
-5.13529285450042
30
0
41
1
10
45.0527856754792
20
-5.18557465202414
30
0
41
1
10
44.5837958794037
20
-5.28380242484837
30
0
41
1
10
44.3492614175222
20
-5.33170907476455
30
0
41
1
10
43.6455443065802
20
-5.47184293101458
30
0
41
1
10
43.1762571840445
20
-5.56050681740308
30
0
41
1
10
42.4721773064605
20
-5.68647459379443
30
0
41
1
10
42.2374614590241
20
-5.72729457734303
30
0
41
1
10
41.7679913305334
20
-5.80658864609592
30
0
41
1
10
41.5332461532802
20
-5.8450739734873
30
0
41
1
10
41.0635777626274
20
-5.9194800475691
30
0
41
1
10
40.8286298032328
20
-5.95536809261807
30
0
41
1
10
40.3584991891987
20
-6.02451817934124
30
0
41
1
10
40.1232568950198
20
-6.05779552130099
30
0
41
1
10
39.4177389077732
20
-6.15365644167343
30
0
41
1
10
38.9477489763612
20
-6.21227018762303
30
0
41
1
10
38.2433773655431
20
-6.29231024023298
30
0
41
1
10
38.0086980459616
20
-6.31768094866888
30
0
41
1
10
37.5394133045227
20
-6.36565447193294
30
0
41
1
10
37.3047814759754
20
-6.3882357734698
30
0
41
1
10
36.6008875342484
20
-6.45177568450353
30
0
41
1
10
36.1316521210253
20
-6.48855993832237
30
0
41
1
10
35.4279012029791
20
-6.53544389588313
30
0
41
1
10
35.1933367375038
20
-6.54968917692187
30
0
41
1
10
34.724255690498
20
-6.57540201497338
30
0
41
1
10
34.4897494242483
20
-6.58687194024907
30
0
41
1
10
33.7861246521856
20
-6.61701103375796
30
0
41
1
10
33.3167598905842
20
-6.63137211095213
30
0
41
1
10
32.3774764153916
20
-6.64873927754422
30
0
41
1
10
31.9075686389526
20
-6.65175091221988
30
0
41
1
10
31.2023852342288
20
-6.64767532579307
30
0
41
1
10
30.9672245151339
20
-6.64487801367542
30
0
41
1
10
30.4971110656436
20
-6.63640973739831
30
0
41
1
10
30.2621003955591
20
-6.63074519192077
30
0
41
1
10
29.5571319933564
20
-6.60951634730208
30
0
41
1
10
29.0872814207965
20
-6.58971686320146
30
0
41
1
10
28.3827565534343
20
-6.55157232255158
30
0
41
1
10
28.1479586124924
20
-6.5374472087212
30
0
41
1
10
27.6784620539719
20
-6.50635574648697
30
0
41
1
10
27.4437737938146
20
-6.48938111338794
30
0
41
1
10
26.9743976921385
20
-6.45263488497687
30
0
41
1
10
26.7396821440892
20
-6.43288321085214
30
0
41
1
10
26.270132059771
20
-6.39069018907355
30
0
41
1
10
26.0353110862251
20
-6.36823941008129
30
0
41
1
10
25.3307237315602
20
-6.29682768820243
30
0
41
1
10
24.8608303678996
20
-6.24381833936965
30
0
41
1
10
24.1558195739322
20
-6.15605012042121
30
0
41
1
10
23.92079711195
20
-6.12540349882656
30
0
41
1
10
23.4506051010093
20
-6.06143387731061
30
0
41
1
10
23.2154653158281
20
-6.028150939277
30
0
41
1
10
22.5101526723793
20
-5.92463699753611
30
0
41
1
10
22.0400040801862
20
-5.85065603049097
30
0
41
1
10
21.3349298308063
20
-5.73218640371579
30
0
41
1
10
21.0999312726657
20
-5.69144317488011
30
0
41
1
10
20.6300003043675
20
-5.60741648371212
30
0
41
1
10
20.395077598263
20
-5.56411613383332
30
0
41
1
10
19.925216589997
20
-5.47508845863319
30
0
41
1
10
19.6902522617702
20
-5.42940424678221
30
0
41
1
10
19.2201622207173
20
-5.33586999691852
30
0
41
1
10
18.9850534812939
20
-5.28799193966782
30
0
41
1
10
18.5147187767305
20
-5.19000421117673
30
0
41
1
10
18.2794578939984
20
-5.13988792481459
30
0
41
1
10
17.8091010632694
20
-5.03746051976574
30
0
41
1
10
17.5739850787992
20
-4.98514395393571
30
0
41
1
10
16.8688465405458
20
-4.82483050725847
30
0
41
1
10
16.3991031233661
20
-4.71330746846346
30
0
41
1
10
15.4592231172502
20
-4.48323156055235
30
0
41
1
10
14.9891754555352
20
-4.36451695594306
30
0
41
1
10
14.0489466757518
20
-4.11958595711729
30
0
41
1
10
13.5787620889331
20
-3.9933784602579
30
0
41
1
10
13.108563689882
20
-3.86323124126295
30
0
0
SPLINE
5
C7
100
AcDbEntity
8
1
62
256
6
ByLayer
370
18
48
1
60
0
100
AcDbSpline
70
4
71
3
72
20
73
16
40
0
40
0
40
0
40
0
40
0.249999999999994
40
0.249999999999994
40
0.374999999999993
40
0.374999999999993
40
0.499999999999993
40
0.499999999999993
40
0.749999999999996
40
0.749999999999996
40
0.875000000000001
40
0.875000000000001
40
0.9375
40
0.9375
40
1
40
1
40
1
40
1
41
1
10
65.8997966464217
20
-1.01927775852107
30
0
41
1
10
65.257320784253
20
-0.787469168722652
30
0
41
1
10
64.615181105195
20
-0.555346839932014
30
0
41
1
10
63.6527341193103
20
-0.205961479231149
30
0
41
1
10
63.3320554310128
20
-0.0892724321620051
30
0
41
1
10
62.6909727032061
20
0.144559457373504
30
0
41
1
10
62.3705222750631
20
0.261573304434478
30
0
41
1
10
61.4087842468743
20
0.611087347419414
30
0
41
1
10
60.7673320164519
20
0.842677575536015
30
0
41
1
10
59.8049703899572
20
1.18864269128264
30
0
41
1
10
59.4841864736069
20
1.30381993581793
30
0
41
1
10
59.002860189336
20
1.47594026406503
30
0
41
1
10
58.8423798312679
20
1.53316996669022
30
0
41
1
10
58.5212801838852
20
1.64717128981655
30
0
41
1
10
58.3606683898761
20
1.70396346637776
30
0
41
1
10
58.2000000000001
20
1.7605619885374
30
0
0
SPLINE
5
C8
100
AcDbEntity
8
1
62
256
6
ByLayer
370
18
48
1
60
0
100
AcDbSpline
70
4
71
3
72
82
73
78
40
0
40
0
40
0
40
0
40
0.0624999999999996
40
0.0624999999999996
40
0.124999999999999
40
0.124999999999999
40
0.140624999999999
40
0.140624999999999
40
0.156249999999999
40
0.156249999999999
40
0.1875
40
0.1875
40
0.25
40
0.25
40
0.281250000000001
40
0.281250000000001
40
0.296875000000002
40
0.296875000000002
40
0.312500000000003
40
0.312500000000003
40
0.343750000000005
40
0.343750000000005
40
0.375000000000006
40
0.375000000000006
40
0.406250000000008
40
0.406250000000008
40
0.43750000000001
40
0.43750000000001
40
0.453125000000011
40
0.453125000000011
40
0.468750000000012
40
0.468750000000012
40
0.500000000000013
40
0.500000000000013
40
0.531250000000015
40
0.531250000000015
40
0.539062500000015
40
0.539062500000015
40
0.546875000000016
40
0.562500000000016
40
0.562500000000016
40
0.593750000000017
40
0.593750000000017
40
0.625000000000018
40
0.625000000000018
40
0.632812500000018
40
0.632812500000018
40
0.640625000000019
40
0.656250000000019
40
0.656250000000019
40
0.687500000000017
40
0.687500000000017
40
0.718750000000016
40
0.718750000000016
40
0.726562500000015
40
0.726562500000015
40
0.734375000000015
40
0.734375000000015
40
0.750000000000013
40
0.750000000000013
40
0.78125000000001
40
0.78125000000001
40
0.812500000000007
40
0.843750000000004
40
0.843750000000004
40
0.851562500000004
40
0.851562500000004
40
0.859375000000003
40
0.875000000000002
40
0.875000000000002
40
0.906250000000002
40
0.937500000000001
40
0.96875
40
0.96875
40
0.984375
40
0.984375
40
1
40
1
40
1
40
1
41
1
10
65.8997966464237
20
6.91713220161026
30
0
41
1
10
65.9890557813183
20
6.69575704343166
30
0
41
1
10
66.0786056527253
20
6.46777375175171
30
0
41
1
10
66.2587953140751
20
6.0004477687169
30
0
41
1
10
66.3494354085641
20
5.76109887107086
30
0
41
1
10
66.4635122752825
20
5.45533527675241
30
0
41
1
10
66.48636551236
20
5.39385166376124
30
0
41
1
10
66.5321457324139
20
5.27022801368346
30
0
41
1
10
66.555081244342
20
5.20806400717524
30
0
41
1
10
66.6235861318721
20
5.02169972580336
30
0
41
1
10
66.6689911354738
20
4.89726342109503
30
0
41
1
10
66.8043554722074
20
4.52337014257549
30
0
41
1
10
66.8935097690455
20
4.27334638311075
30
0
41
1
10
67.0247336002873
20
3.89689342767323
30
0
41
1
10
67.0680473347173
20
3.77116912657419
30
0
41
1
10
67.1321354636158
20
3.58213831248116
30
0
41
1
10
67.1533499339603
20
3.51905354650586
30
0
41
1
10
67.1954248123262
20
3.39271449253897
30
0
41
1
10
67.2162960449505
20
3.32942552954881
30
0
41
1
10
67.2779735823855
20
3.14018376914208
30
0
41
1
10
67.3179518880196
20
3.01456781917219
30
0
41
1
10
67.3948973856009
20
2.76421937760318
30
0
41
1
10
67.431869626622
20
2.63948769925517
30
0
41
1
10
67.5016794134789
20
2.39064757651903
30
0
41
1
10
67.5345228909929
20
2.26653962769626
30
0
41
1
10
67.5943828168872
20
2.01861010967568
30
0
41
1
10
67.621401883633
20
1.89478754532445
30
0
41
1
10
67.6557522499737
20
1.70895914062805
30
0
41
1
10
67.6661716555155
20
1.64692468585298
30
0
41
1
10
67.6844146821977
20
1.52401001487348
30
0
41
1
10
67.6922657631103
20
1.46299095194001
30
0
41
1
10
67.7116249446108
20
1.28129817654587
30
0
41
1
10
67.7188980081833
20
1.16198223318116
30
0
41
1
10
67.7208168931329
20
0.927394248953021
30
0
41
1
10
67.7154512178847
20
0.81212424374695
30
0
41
1
10
67.7009000310914
20
0.670940003543592
30
0
41
1
10
67.6975963890559
20
0.642811878027771
30
0
41
1
10
67.6902510188769
20
0.587029378886115
30
0
41
1
10
67.6781529355669
20
0.504243162856483
30
0
41
1
10
67.6630015972156
20
0.424087215718743
30
0
41
1
10
67.6291351377769
20
0.267198549817721
30
0
41
1
10
67.601825250939
20
0.167164098595464
30
0
41
1
10
67.5401981434979
20
-0.024139419685639
30
0
41
1
10
67.5058861393285
20
-0.115411084783545
30
0
41
1
10
67.4597543078776
20
-0.224102886104191
30
0
41
1
10
67.4503547912839
20
-0.245591356846063
30
0
41
1
10
67.431295061357
20
-0.287926786582233
30
0
41
1
10
67.4023484708536
20
-0.3503945404332
30
0
41
1
10
67.3724415678514
20
-0.409816759918186
30
0
41
1
10
67.3115793182108
20
-0.524721644982378
30
0
41
1
10
67.2696203984763
20
-0.596083095225026
30
0
41
1
10
67.1837474868336
20
-0.728669039520184
30
0
41
1
10
67.1398277086382
20
-0.789891658801025
30
0
41
1
10
67.083969917034
20
-0.860092213818376
30
0
41
1
10
67.0727497452961
20
-0.873815196564834
30
0
41
1
10
67.05021633885
20
-0.9006242295535
30
0
41
1
10
67.0388975667357
20
-0.913715660760857
30
0
41
1
10
67.0049557913409
20
-0.95186616083285
30
0
41
1
10
66.9823006131796
20
-0.97585980177783
30
0
41
1
10
66.9142885319625
20
-1.04361703847496
30
0
41
1
10
66.8688884596363
20
-1.08316565304659
30
0
41
1
10
66.7780533881677
20
-1.15129821511883
30
0
41
1
10
66.687181209062
20
-1.20846385144404
30
0
41
1
10
66.5962089882886
20
-1.2437224566371
30
0
41
1
10
66.5392730044715
20
-1.25876427591106
30
0
41
1
10
66.527877430545
20
-1.26142224772516
30
0
41
1
10
66.505181131997
20
-1.26601365267334
30
0
41
1
10
66.4712404465784
20
-1.27182501581129
30
0
41
1
10
66.4375999449377
20
-1.2744448510764
30
0
41
1
10
66.3706897307491
20
-1.27550100401282
30
0
41
1
10
66.2824646228415
20
-1.2657677882226
30
0
41
1
10
66.1526277803548
20
-1.21834057136448
30
0
41
1
10
66.0674319159733
20
-1.16479402841486
30
0
41
1
10
66.0039305456548
20
-1.1162298678654
30
0
41
1
10
65.9828967322822
20
-1.09868940422976
30
0
41
1
10
65.9411370587237
20
-1.06097174626407
30
0
41
1
10
65.9204007203484
20
-1.04078658321416
30
0
41
1
10
65.8997966464237
20
-1.01927775852181
30
0
0
SPLINE
5
C9
100
AcDbEntity
8
1
62
256
6
ByLayer
370
18
48
1
60
0
100
AcDbSpline
70
4
71
3
72
20
73
16
40
0
40
0
40
0
40
0
40
0.223753207610621
40
0.223753207610621
40
0.320784056659293
40
0.320784056659293
40
0.417814905707964
40
0.417814905707964
40
0.611876603805307
40
0.611876603805307
40
0.80593830190265
40
0.80593830190265
40
0.902969150951325
40
0.902969150951325
40
1
40
1
40
1
40
1
41
1
10
60.9409252360257
20
7.1431179922443
30
0
41
1
10
61.3107372038631
20
7.14319394784877
30
0
41
1
10
61.6804346514709
20
7.13947288444453
30
0
41
1
10
62.2101902906683
20
7.12865473849729
30
0
41
1
10
62.3704009499294
20
7.12465913967563
30
0
41
1
10
62.6908624658012
20
7.1152370190579
30
0
41
1
10
62.8511252228031
20
7.109813895499
30
0
41
1
10
63.3320625243664
20
7.09144111652685
30
0
41
1
10
63.6528320695613
20
7.07637739334183
30
0
41
1
10
64.2945612121096
20
7.04061961565736
30
0
41
1
10
64.6155289555147
20
7.01992876282341
30
0
41
1
10
65.0970724472071
20
6.98461612773758
30
0
41
1
10
65.25760274066
20
6.97213216809666
30
0
41
1
10
65.5786795851804
20
6.94571670486593
30
0
41
1
10
65.7392184265064
20
6.93177922188059
30
0
41
1
10
65.8997966464217
20
6.91713220161046
30
0
0
SPLINE
5
CA
100
AcDbEntity
8
1
62
256
6
ByLayer
370
18
48
1
60
0
100
AcDbSpline
70
4
71
3
72
32
73
28
40
0
40
0
40
0
40
0
40
0.0926618945349157
40
0.0926618945349157
40
0.149370526126484
40
0.149370526126484
40
0.206079157718052
40
0.206079157718052
40
0.319496420901189
40
0.319496420901189
40
0.376205052492755
40
0.376205052492755
40
0.432913684084322
40
0.432913684084322
40
0.489622315675888
40
0.489622315675888
40
0.546330947267455
40
0.546330947267455
40
0.659748210450592
40
0.659748210450592
40
0.716456842042159
40
0.716456842042159
40
0.773165473633728
40
0.773165473633728
40
0.886582736816864
40
0.886582736816864
40
1
40
1
40
1
40
1
41
1
10
46.60840475819
20
4.84363660770723
30
0
41
1
10
46.9663335173405
20
4.92652014421543
30
0
41
1
10
47.3242131258847
20
5.00705488301645
30
0
41
1
10
47.9009271145427
20
5.13325861915723
30
0
41
1
10
48.1198228568845
20
5.1803470359697
30
0
41
1
10
48.5577412063897
20
5.27242497219697
30
0
41
1
10
48.7767922599758
20
5.3173654453675
30
0
41
1
10
49.4341725793103
20
5.44901109603234
30
0
41
1
10
49.8726984303648
20
5.53260026314695
30
0
41
1
10
50.5307674907716
20
5.65194208073041
30
0
41
1
10
50.7502150534246
20
5.69072271034815
30
0
41
1
10
51.1888524339772
20
5.76624028738243
30
0
41
1
10
51.4080420421715
20
5.80300800754975
30
0
41
1
10
51.8462693119546
20
5.87438339635921
30
0
41
1
10
52.0653354484526
20
5.9089492383923
30
0
41
1
10
52.5035404950859
20
5.97563146246577
30
0
41
1
10
52.7226487916932
20
6.00779220507096
30
0
41
1
10
53.3799272627559
20
6.10084467088245
30
0
41
1
10
53.8180676260707
20
6.15829316113434
30
0
41
1
10
54.4750639496095
20
6.23773662023285
30
0
41
1
10
54.694025106432
20
6.26309621079753
30
0
41
1
10
55.1318445655726
20
6.31157375461322
30
0
41
1
10
55.3507132761433
20
6.3346772946189
30
0
41
1
10
56.0075722131503
20
6.40024005669881
30
0
41
1
10
56.445821304256
20
6.43897628009447
30
0
41
1
10
57.3226642362962
20
6.5068905538532
30
0
41
1
10
57.7612866866156
20
6.53604559934646
30
0
41
1
10
58.2
20
6.56039675309052
30
0
0
SPLINE
5
CB
100
AcDbEntity
8
1
62
256
6
ByLayer
370
18
48
1
60
0
100
AcDbSpline
70
4
71
3
72
60
73
56
40
0
40
0
40
0
40
0
40
0.0532992214723823
40
0.0532992214723823
40
0.0799488322085742
40
0.0799488322085742
40
0.106598442944766
40
0.106598442944766
40
0.15989766441715
40
0.15989766441715
40
0.213196885889533
40
0.213196885889533
40
0.239846496625725
40
0.239846496625725
40
0.266496107361917
40
0.266496107361917
40
0.319795328834302
40
0.319795328834302
40
0.346444939570494
40
0.346444939570494
40
0.373094550306686
40
0.373094550306686
40
0.42639377177907
40
0.42639377177907
40
0.479692993251453
40
0.479692993251453
40
0.506342603987645
40
0.506342603987645
40
0.532992214723837
40
0.532992214723837
40
0.586291436196222
40
0.586291436196222
40
0.612941046932415
40
0.612941046932415
40
0.639590657668608
40
0.639590657668608
40
0.6662402684048
40
0.6662402684048
40
0.692889879140993
40
0.692889879140993
40
0.746189100613376
40
0.746189100613376
40
0.772838711349568
40
0.772838711349568
40
0.79948832208576
40
0.79948832208576
40
0.852787543558144
40
0.852787543558144
40
0.879437154294335
40
0.879437154294335
40
0.906086765030526
40
0.906086765030526
40
0.959385986502908
40
0.959385986502908
40
1
40
1
40
1
40
1
41
1
10
58.2000000000001
20
1.48018667822888
30
0
41
1
10
57.7295835250007
20
1.63542525021518
30
0
41
1
10
57.2594774223736
20
1.78901237597847
30
0
41
1
10
56.5548513175471
20
2.01713051851365
30
0
41
1
10
56.3200674671154
20
2.09279955983919
30
0
41
1
10
55.8506857583275
20
2.24339825468579
30
0
41
1
10
55.6160898494662
20
2.31833194554616
30
0
41
1
10
54.9123081676005
20
2.54125249112587
30
0
41
1
10
54.4430891932693
20
2.68725944411693
30
0
41
1
10
53.5047005359382
20
2.97442320621676
30
0
41
1
10
53.0355279140667
20
3.11557181564984
30
0
41
1
10
52.3318733894225
20
3.32379929351995
30
0
41
1
10
52.0973416992993
20
3.39262976822388
30
0
41
1
10
51.6281379635158
20
3.52866634977656
30
0
41
1
10
51.3934495469343
20
3.59583220348705
30
0
41
1
10
50.6891529991406
20
3.79485665498527
30
0
41
1
10
50.2193109931493
20
3.92423895905927
30
0
41
1
10
49.5141471118834
20
4.11351257547915
30
0
41
1
10
49.2789832843366
20
4.17582020392172
30
0
41
1
10
48.8087337804196
20
4.2987884298343
30
0
41
1
10
48.5737512438739
20
4.35943662688052
30
0
41
1
10
47.868971438687
20
4.53827586490897
30
0
41
1
10
47.3992633936722
20
4.65320106213315
30
0
41
1
10
46.4602273418125
20
4.87477614921175
30
0
41
1
10
45.9908978285829
20
4.98142291351496
30
0
41
1
10
45.2872637372845
20
5.13529285450042
30
0
41
1
10
45.0527856754792
20
5.18557465202417
30
0
41
1
10
44.5837958794036
20
5.2838024248484
30
0
41
1
10
44.3492614175222
20
5.33170907476458
30
0
41
1
10
43.6455443065802
20
5.47184293101458
30
0
41
1
10
43.1762571840445
20
5.56050681740308
30
0
41
1
10
42.4721773064605
20
5.68647459379443
30
0
41
1
10
42.2374614590242
20
5.72729457734306
30
0
41
1
10
41.7679913305334
20
5.80658864609592
30
0
41
1
10
41.5332461532802
20
5.8450739734873
30
0
41
1
10
41.0635777626275
20
5.91948004756912
30
0
41
1
10
40.8286298032328
20
5.95536809261807
30
0
41
1
10
40.3584991891986
20
6.02451817934124
30
0
41
1
10
40.1232568950198
20
6.05779552130102
30
0
41
1
10
39.4177389077732
20
6.15365644167343
30
0
41
1
10
38.9477489763612
20
6.21227018762306
30
0
41
1
10
38.2433773655431
20
6.29231024023298
30
0
41
1
10
38.0086980459616
20
6.31768094866888
30
0
41
1
10
37.5394133045227
20
6.36565447193294
30
0
41
1
10
37.3047814759754
20
6.3882357734698
30
0
41
1
10
36.6008875342484
20
6.45177568450353
30
0
41
1
10
36.1316521210254
20
6.4885599383224
30
0
41
1
10
35.4279012029791
20
6.53544389588313
30
0
41
1
10
35.1933367375038
20
6.54968917692187
30
0
41
1
10
34.724255690498
20
6.57540201497338
30
0
41
1
10
34.4897494242483
20
6.58687194024907
30
0
41
1
10
33.7861246521856
20
6.61701103375796
30
0
41
1
10
33.3167598905841
20
6.63137211095213
30
0
41
1
10
32.4892510895934
20
6.64667258581704
30
0
41
1
10
32.1312295522899
20
6.64999609335885
30
0
41
1
10
31.7730763474176
20
6.65000111058168
30
0
0
SPLINE
5
CC
100
AcDbEntity
8
1
62
256
6
ByLayer
370
18
48
1
60
0
100
AcDbSpline
70
4
71
3
72
107
73
103
40
0
40
0
40
0
40
0
40
0.0624999999999991
40
0.0624999999999991
40
0.124999999999998
40
0.124999999999998
40
0.156249999999997
40
0.156249999999997
40
0.187499999999996
40
0.187499999999996
40
0.218749999999995
40
0.218749999999995
40
0.234374999999995
40
0.234374999999995
40
0.242187499999994
40
0.242187499999994
40
0.249999999999994
40
0.249999999999994
40
0.281249999999995
40
0.281249999999995
40
0.312499999999996
40
0.312499999999996
40
0.320312499999996
40
0.320312499999996
40
0.328124999999997
40
0.328124999999997
40
0.343749999999996
40
0.343749999999996
40
0.359374999999996
40
0.359374999999996
40
0.374999999999996
40
0.374999999999996
40
0.382812499999996
40
0.382812499999996
40
0.390624999999997
40
0.390624999999997
40
0.406249999999997
40
0.406249999999997
40
0.421874999999998
40
0.421874999999998
40
0.429687499999998
40
0.433593749999998
40
0.433593749999998
40
0.437499999999998
40
0.437499999999998
40
0.453124999999997
40
0.453124999999997
40
0.468749999999997
40
0.468749999999997
40
0.476562499999996
40
0.480468749999996
40
0.480468749999996
40
0.484374999999996
40
0.484374999999996
40
0.499999999999997
40
0.499999999999997
40
0.515624999999997
40
0.515624999999997
40
0.523437499999997
40
0.523437499999997
40
0.531249999999997
40
0.531249999999997
40
0.546874999999998
40
0.546874999999998
40
0.554687499999998
40
0.558593749999998
40
0.558593749999998
40
0.562499999999998
40
0.562499999999998
40
0.578124999999998
40
0.578124999999998
40
0.593749999999998
40
0.593749999999998
40
0.609374999999998
40
0.609374999999998
40
0.624999999999999
40
0.624999999999999
40
0.656249999999998
40
0.656249999999998
40
0.687499999999998
40
0.687499999999998
40
0.718749999999997
40
0.718749999999997
40
0.734374999999997
40
0.734374999999997
40
0.749999999999997
40
0.749999999999997
40
0.781249999999997
40
0.781249999999997
40
0.812499999999997
40
0.812499999999997
40
0.843749999999998
40
0.843749999999998
40
0.874999999999998
40
0.874999999999998
40
0.906249999999999
40
0.906249999999999
40
0.937499999999999
40
0.937499999999999
40
0.96875
40
0.96875
40
1
40
1
40
1
40
1
41
1
10
10
20
5.1079679933344
30
0
41
1
10
9.62109162562859
20
5.1646162964544
30
0
41
1
10
9.2463604546362
20
5.21026738733809
30
0
41
1
10
8.50530272054968
20
5.27652581692854
30
0
41
1
10
8.13897191479111
20
5.29716317941376
30
0
41
1
10
7.59588438601367
20
5.30557308354145
30
0
41
1
10
7.4159244300163
20
5.30460074988284
30
0
41
1
10
7.05818345159474
20
5.29417463084008
30
0
41
1
10
6.88040206185474
20
5.28472462206437
30
0
41
1
10
6.52708332487907
20
5.25611750033315
30
0
41
1
10
6.35154535744346
20
5.23696698583134
30
0
41
1
10
6.089999759894
20
5.19970462086576
30
0
41
1
10
6.00311181439344
20
5.18585697942885
30
0
41
1
10
5.87323490518645
20
5.16273973575301
30
0
41
1
10
5.82998188284469
20
5.15463529913975
30
0
41
1
10
5.74381439586261
20
5.13764099935835
30
0
41
1
10
5.70093041055739
20
5.12875793417399
30
0
41
1
10
5.48752721845665
20
5.08234493270132
30
0
41
1
10
5.32004688545655
20
5.03885331969246
30
0
41
1
10
4.99219413486696
20
4.93695091875301
30
0
41
1
10
4.83181404291491
20
4.87856161819363
30
0
41
1
10
4.63641353269006
20
4.79420438096233
30
0
41
1
10
4.59759489982719
20
4.77676130975763
30
0
41
1
10
4.52083224407744
20
4.74083079021082
30
0
41
1
10
4.48284541109936
20
4.72232532384231
30
0
41
1
10
4.37010394022837
20
4.66511878936191
30
0
41
1
10
4.29656619181293
20
4.62473100031494
30
0
41
1
10
4.15297177489054
20
4.53901274055565
30
0
41
1
10
4.08291421002849
20
4.49368372354581
30
0
41
1
10
3.94659239063785
20
4.3975163768161
30
0
41
1
10
3.88032668842959
20
4.34668038675807
30
0
41
1
10
3.78409192682821
20
4.26573354809759
30
0
41
1
10
3.7525419830958
20
4.23796750068414
30
0
41
1
10
3.6905671799239
20
4.18074973860533
30
0
41
1
10
3.66012359356341
20
4.15127917342031
30
0
41
1
10
3.57071897964568
20
4.060248995736
30
0
41
1
10
3.51433083517301
20
3.99674534369837
30
0
41
1
10
3.40852294356415
20
3.86353657500783
30
0
41
1
10
3.35910026148173
20
3.79383417478016
30
0
41
1
10
3.29076589353477
20
3.68405045193396
30
0
41
1
10
3.25805170585619
20
3.62784826280125
30
0
41
1
10
3.22765984272584
20
3.56953985345407
30
0
41
1
10
3.20793354179048
20
3.53018115949493
30
0
41
1
10
3.19832322392512
20
3.51022686181273
30
0
41
1
10
3.15184054625629
20
3.40958876721342
30
0
41
1
10
3.11985521243508
20
3.32676873301858
30
0
41
1
10
3.06668097400655
20
3.1562890824037
30
0
41
1
10
3.04548988061836
20
3.06863045053308
30
0
41
1
10
3.02231096105166
20
2.93326087704625
30
0
41
1
10
3.01287710758621
20
2.86460418250283
30
0
41
1
10
3.00681113947007
20
2.79442638120989
30
0
41
1
10
3.00353360964223
20
2.74729484588232
30
0
41
1
10
3.002276575162
20
2.72351398733468
30
0
41
1
10
2.99797119991649
20
2.60421169273525
30
0
41
1
10
3.00086490071658
20
2.50862168124127
30
0
41
1
10
3.01867544003417
20
2.31716239671727
30
0
41
1
10
3.03359475103676
20
2.22129313078838
30
0
41
1
10
3.06472737800291
20
2.07729365415196
30
0
41
1
10
3.07656594169242
20
2.0292612424787
30
0
41
1
10
3.10314342312333
20
1.93313367515961
30
0
41
1
10
3.11774904755993
20
1.8855205100252
30
0
41
1
10
3.16523960822613
20
1.74405782853552
30
0
41
1
10
3.20180232339286
20
1.65153161516298
30
0
41
1
10
3.26323662919052
20
1.51514263895314
30
0
41
1
10
3.29560534535438
20
1.44754969276849
30
0
41
1
10
3.33033860487592
20
1.38081887703026
30
0
41
1
10
3.35400870089623
20
1.33651939148223
30
0
41
1
10
3.3661169394332
20
1.31443550990645
30
0
41
1
10
3.42768165966922
20
1.20489211722713
30
0
41
1
10
3.48017870545894
20
1.12005017381935
30
0
41
1
10
3.59072097665552
20
0.955130860302177
30
0
41
1
10
3.64876999709003
20
0.875056774853164
30
0
41
1
10
3.76972774316624
20
0.719073153204164
30
0
41
1
10
3.83263866463881
20
0.643165517746297
30
0
41
1
10
3.96278703010341
20
0.495050377637199
30
0
41
1
10
4.03005854482939
20
0.422810728186477
30
0
41
1
10
4.23751948860388
20
0.211287028584138
30
0
41
1
10
4.38106425762857
20
0.0793951198941159
30
0
41
1
10
4.67609520691829
20
-0.170663054266697
30
0
41
1
10
4.82760080815046
20
-0.288793982596161
30
0
41
1
10
5.13689842807844
20
-0.514221593572245
30
0
41
1
10
5.29469879420955
20
-0.621502942853368
30
0
41
1
10
5.53518912193854
20
-0.775869810420943
30
0
41
1
10
5.61598686588951
20
-0.82622782422564
30
0
41
1
10
5.77872129411818
20
-0.924963488614253
30
0
41
1
10
5.86069381977657
20
-0.973359121833795
30
0
41
1
10
6.10716432345833
20
-1.11530798880906
30
0
41
1
10
6.27253883789228
20
-1.20584266156237
30
0
41
1
10
6.60489412486371
20
-1.38035232921911
30
0
41
1
10
6.7718756015604
20
-1.46432314241679
30
0
41
1
10
7.10704181591467
20
-1.62689846977168
30
0
41
1
10
7.27522666612222
20
-1.7055009289866
30
0
41
1
10
7.61249491111482
20
-1.85819356105085
30
0
41
1
10
7.78157810233068
20
-1.93228273039415
30
0
41
1
10
8.12043891951441
20
-2.07650564756642
30
0
41
1
10
8.29021620773642
20
-2.14663882183171
30
0
41
1
10
8.63037050340949
20
-2.28323093928378
30
0
41
1
10
8.80074718192415
20
-2.34968934013875
30
0
41
1
10
9.14212547239842
20
-2.47895275449722
30
0
41
1
10
9.31312687841586
20
-2.54175700878088
30
0
41
1
10
9.65590820774557
20
-2.66349130866757
30
0
41
1
10
9.82768812373331
20
-2.72242026806469
30
0
41
1
10
10
20
-2.77919457092736
30
0
0
SPLINE
5
CD
100
AcDbEntity
8
1
62
256
6
ByLayer
370
18
48
1
60
0
100
AcDbSpline
70
4
71
3
72
14
73
10
40
0
40
0
40
0
40
0
40
0.25
40
0.25
40
0.5
40
0.5
40
0.75
40
0.75
40
1
40
1
40
1
40
1
41
1
10
13.108563689882
20
-3.86323124126292
30
0
41
1
10
12.8445550721699
20
-3.78791574232892
30
0
41
1
10
12.5821842646166
20
-3.70830040893762
30
0
41
1
10
12.059982541123
20
-3.54152867486206
30
0
41
1
10
11.8001486985351
20
-3.45438013021294
30
0
41
1
10
11.2825140319077
20
-3.27323069657268
30
0
41
1
10
11.0247113515251
20
-3.17923673896024
30
0
41
1
10
10.5109419747474
20
-2.98447248755494
30
0
41
1
10
10.2549747154863
20
-2.88370728340865
30
0
41
1
10
9.99999999999991
20
-2.77919457092733
30
0
0
SPLINE
5
CE
100
AcDbEntity
8
1
62
256
6
ByLayer
370
18
48
1
60
0
100
AcDbSpline
70
4
71
4
72
16
73
11
40
0
40
0
40
0
40
0
40
0
40
0.28121639195186
40
0.28121639195186
40
0.28121639195186
40
0.718783608048138
40
0.718783608048138
40
0.718783608048138
40
1
40
1
40
1
40
1
40
1
41
0.996213766315317
10
16.1448075091633
20
4.46470542483453
30
0
41
0.994701877198401
10
16.0435540954948
20
4.14279102797841
30
0
41
0.995057514924065
10
15.8816164856977
20
3.65779136916314
30
0
41
1
10
15.6678061665024
20
3.03934054406255
30
0
41
1
10
15.0884763241297
20
1.39354600233759
30
0
41
0.988033871712585
10
14.6266855995227
20
0.108596374543554
30
0
41
1
10
14.1648948749156
20
-1.13969186419797
30
0
41
1
10
13.5855650325429
20
-2.67191761545575
30
0
41
0.995057514924065
10
13.3717547133477
20
-3.22636258054758
30
0
41
0.994701877198401
10
13.2098171035505
20
-3.62970143373569
30
0
41
0.996213766315317
10
13.108563689882
20
-3.86323124126296
30
0
0
SPLINE
5
CF
100
AcDbEntity
8
1
62
256
6
ByLayer
370
18
48
1
60
0
100
AcDbSpline
70
4
71
3
72
23
73
19
40
0
40
0
40
0
40
0
40
0.125000000000005
40
0.125000000000005
40
0.25000000000001
40
0.25000000000001
40
0.375000000000016
40
0.375000000000016
40
0.500000000000021
40
0.500000000000021
40
0.562500000000024
40
0.593750000000024
40
0.593750000000024
40
0.625000000000023
40
0.625000000000023
40
0.750000000000016
40
0.750000000000016
40
1
40
1
40
1
40
1
41
1
10
10
20
5.1079679933344
30
0
41
1
10
10.2618229020061
20
5.12515791792273
30
0
41
1
10
10.5229792128154
20
5.13568772374799
30
0
41
1
10
11.0440722212637
20
5.14487810695255
30
0
41
1
10
11.3040082786077
20
5.14352899745813
30
0
41
1
10
11.8227488139671
20
5.12977783591259
30
0
41
1
10
12.0815528330057
20
5.11736879119621
30
0
41
1
10
12.5981096922566
20
5.08194975255256
30
0
41
1
10
12.8558621878098
20
5.05893393259615
30
0
41
1
10
13.2417660316605
20
5.01666599914009
30
0
41
1
10
13.4345368264618
20
4.99359471678497
30
0
41
1
10
13.6270491658679
20
4.96765374854687
30
0
41
1
10
13.7553348714354
20
4.94972638096672
30
0
41
1
10
13.819462802328
20
4.94044374874062
30
0
41
1
10
14.139387202929
20
4.89254841725352
30
0
41
1
10
14.3934890512705
20
4.84942635613288
30
0
41
1
10
15.1511134519684
20
4.7065442779024
30
0
41
1
10
15.6499676350177
20
4.59323892648681
30
0
41
1
10
16.1448075091633
20
4.46470542483456
30
0
0
SPLINE
5
D0
100
AcDbEntity
8
1
62
256
6
ByLayer
370
13
48
1
60
0
100
AcDbSpline
70
4
71
3
72
78
73
74
40
0
40
0
40
0
40
0
40
0.0312500000000004
40
0.0312500000000004
40
0.0625000000000007
40
0.0625000000000007
40
0.0937500000000011
40
0.0937500000000011
40
0.125000000000001
40
0.125000000000001
40
0.156250000000002
40
0.156250000000002
40
0.187500000000002
40
0.187500000000002
40
0.218750000000003
40
0.218750000000003
40
0.250000000000003
40
0.250000000000003
40
0.281250000000003
40
0.281250000000003
40
0.312500000000004
40
0.312500000000004
40
0.320312500000004
40
0.320312500000004
40
0.328125000000004
40
0.328125000000004
40
0.343750000000004
40
0.343750000000004
40
0.375000000000004
40
0.375000000000004
40
0.406250000000004
40
0.406250000000004
40
0.437500000000004
40
0.437500000000004
40
0.468750000000003
40
0.468750000000003
40
0.500000000000003
40
0.500000000000003
40
0.531250000000003
40
0.531250000000003
40
0.562500000000003
40
0.562500000000003
40
0.593750000000003
40
0.593750000000003
40
0.625000000000002
40
0.625000000000002
40
0.656250000000002
40
0.656250000000002
40
0.664062500000002
40
0.664062500000002
40
0.671875000000002
40
0.671875000000002
40
0.687500000000002
40
0.687500000000002
40
0.718750000000002
40
0.718750000000002
40
0.750000000000001
40
0.750000000000001
40
0.781250000000001
40
0.781250000000001
40
0.812500000000001
40
0.812500000000001
40
0.843750000000001
40
0.843750000000001
40
0.875000000000001
40
0.875000000000001
40
0.906250000000001
40
0.906250000000001
40
0.9375
40
0.9375
40
0.96875
40
0.96875
40
1
40
1
40
1
40
1
41
1
10
58.2
20
-0.334822384712936
30
0
41
1
10
58.2594961742066
20
-0.652659794506548
30
0
41
1
10
58.3189923484131
20
-0.977816652833781
30
0
41
1
10
58.4379846968263
20
-1.63403390042009
30
0
41
1
10
58.4974808710328
20
-1.96507400580407
30
0
41
1
10
58.616473219446
20
-2.62223245170733
30
0
41
1
10
58.6759693936525
20
-2.9483149319764
30
0
41
1
10
58.7949617420657
20
-3.58349885085215
30
0
41
1
10
58.8544579162723
20
-3.8925539038197
30
0
41
1
10
58.9734502646854
20
-4.48164852713768
30
0
41
1
10
59.032946438892
20
-4.76164103394424
30
0
41
1
10
59.1519387873051
20
-5.28204454292154
30
0
41
1
10
59.2114349615117
20
-5.52241932214241
30
0
41
1
10
59.3304273099249
20
-5.95578318363479
30
0
41
1
10
59.3899234841314
20
-6.14875552650327
30
0
41
1
10
59.5089158325446
20
-6.48309523343141
30
0
41
1
10
59.5684120067511
20
-6.6244677054691
30
0
41
1
10
59.6874043551643
20
-6.85515018845075
30
0
41
1
10
59.7469005293709
20
-6.9444829319834
30
0
41
1
10
59.8658928777841
20
-7.07395095402342
30
0
41
1
10
59.9253890519905
20
-7.11411840721777
30
0
41
1
10
59.9997592697488
20
-7.13691066250448
30
0
41
1
10
60.0146333133004
20
-7.14010286478648
30
0
41
1
10
60.0443814004037
20
-7.14385340627362
30
0
41
1
10
60.0592554439553
20
-7.14441758680394
30
0
41
1
10
60.1038775746102
20
-7.14227284872135
30
0
41
1
10
60.1336256617136
20
-7.1356635723553
30
0
41
1
10
60.2228699230234
20
-7.09911810949006
30
0
41
1
10
60.28236609723
20
-7.05239567714952
30
0
41
1
10
60.4013584456431
20
-6.90924852731436
30
0
41
1
10
60.4608546198497
20
-6.81279240988488
30
0
41
1
10
60.5798469682628
20
-6.56770847814312
30
0
41
1
10
60.6393431424694
20
-6.41905994070851
30
0
41
1
10
60.7583354908826
20
-6.0705202641833
30
0
41
1
10
60.8178316650891
20
-5.87062693090223
30
0
41
1
10
60.9368240135023
20
-5.42429683767062
30
0
41
1
10
60.9963201877088
20
-5.17787982629844
30
0
41
1
10
61.1153125361219
20
-4.64671557440667
30
0
41
1
10
61.1748087103285
20
-4.36200669154064
30
0
41
1
10
61.2938010587417
20
-3.76509456169518
30
0
41
1
10
61.3532972329483
20
-3.45293898157348
30
0
41
1
10
61.4722895813613
20
-2.81326123042302
30
0
41
1
10
61.5317857555679
20
-2.48578448482036
30
0
41
1
10
61.650778103981
20
-1.8274430226742
30
0
41
1
10
61.7102742781876
20
-1.49661217852736
30
0
41
1
10
61.8292666266008
20
-0.84217026826488
30
0
41
1
10
61.8887628008073
20
-0.518577232398513
30
0
41
1
10
61.9631330185656
20
-0.123877568866277
30
0
41
1
10
61.9780070621172
20
-0.0456545079957209
30
0
41
1
10
62.0077551492205
20
0.110771484975999
30
0
41
1
10
62.0226291927722
20
0.189507634403839
30
0
41
1
10
62.0672513234272
20
0.427119900511713
30
0
41
1
10
62.0969994105304
20
0.587404546316151
30
0
41
1
10
62.1862436718403
20
1.07239081798414
30
0
41
1
10
62.2457398460468
20
1.40129007725031
30
0
41
1
10
62.36473219446
20
2.06054781558069
30
0
41
1
10
62.4242283686665
20
2.39087904203012
30
0
41
1
10
62.5432207170796
20
3.04151288449864
30
0
41
1
10
62.6027168912862
20
3.36177416778688
30
0
41
1
10
62.7217092396994
20
3.98004754971646
30
0
41
1
10
62.7812054139059
20
4.27801156781462
30
0
41
1
10
62.9001977623191
20
4.84011182240502
30
0
41
1
10
62.9596939365256
20
5.10420431422173
30
0
41
1
10
63.0786862849388
20
5.58904728882254
30
0
41
1
10
63.1381824591454
20
5.80976919625775
30
0
41
1
10
63.2571748075584
20
6.20154538882261
30
0
41
1
10
63.3166709817651
20
6.37259246827242
30
0
41
1
10
63.4356633301782
20
6.66243668215873
30
0
41
1
10
63.4951595043848
20
6.78124734497564
30
0
41
1
10
63.6141518527979
20
6.96767588036394
30
0
41
1
10
63.6736480270045
20
7.03532165240054
30
0
41
1
10
63.7926403754176
20
7.12346694811436
30
0
41
1
10
63.8521365496242
20
7.144
30
0
41
1
10
63.9116327238307
20
7.144
30
0
0
SPLINE
5
D1
100
AcDbEntity
8
1
62
256
6
ByLayer
370
13
48
1
60
0
100
AcDbSpline
70
4
71
3
72
77
73
73
40
0
40
0
40
0
40
0
40
0.0312500000000004
40
0.0312500000000004
40
0.0625000000000007
40
0.0625000000000007
40
0.093750000000001
40
0.093750000000001
40
0.125000000000001
40
0.125000000000001
40
0.156250000000002
40
0.156250000000002
40
0.187500000000002
40
0.187500000000002
40
0.218750000000002
40
0.218750000000002
40
0.250000000000002
40
0.250000000000002
40
0.257812500000002
40
0.257812500000002
40
0.265625000000002
40
0.265625000000002
40
0.281250000000002
40
0.281250000000002
40
0.312500000000001
40
0.312500000000001
40
0.343750000000001
40
0.343750000000001
40
0.375
40
0.375
40
0.406249999999999
40
0.406249999999999
40
0.437499999999999
40
0.437499999999999
40
0.468749999999998
40
0.468749999999998
40
0.499999999999997
40
0.499999999999997
40
0.531249999999997
40
0.531249999999997
40
0.562499999999996
40
0.562499999999996
40
0.593749999999996
40
0.593749999999996
40
0.624999999999995
40
0.624999999999995
40
0.632812499999995
40
0.632812499999995
40
0.640624999999995
40
0.656249999999995
40
0.656249999999995
40
0.687499999999995
40
0.687499999999995
40
0.718749999999996
40
0.718749999999996
40
0.749999999999996
40
0.749999999999996
40
0.781249999999997
40
0.781249999999997
40
0.812499999999997
40
0.812499999999997
40
0.843749999999998
40
0.843749999999998
40
0.874999999999998
40
0.874999999999998
40
0.906249999999999
40
0.906249999999999
40
0.937499999999999
40
0.937499999999999
40
0.96875
40
0.96875
40
1
40
1
40
1
40
1
41
1
10
58.2
20
-3.05967340448498
30
0
41
1
10
58.254318662989
20
-3.35271597962603
30
0
41
1
10
58.3086373259779
20
-3.63974833608685
30
0
41
1
10
58.4172746519559
20
-4.19258890916427
30
0
41
1
10
58.4715933149449
20
-4.4583665673234
30
0
41
1
10
58.5802306409228
20
-4.96015555525756
30
0
41
1
10
58.6345493039117
20
-5.1961403619311
30
0
41
1
10
58.7431866298896
20
-5.63140034944274
30
0
41
1
10
58.7975052928785
20
-5.83065853427695
30
0
41
1
10
58.9061426188565
20
-6.18779336670679
30
0
41
1
10
58.9604612818455
20
-6.34566553328742
30
0
41
1
10
59.0690986078234
20
-6.6179585133055
30
0
41
1
10
59.1234172708124
20
-6.73238698822175
30
0
41
1
10
59.2320545967903
20
-6.91827253878139
30
0
41
1
10
59.2863732597793
20
-6.98974620187903
30
0
41
1
10
59.3950105857571
20
-7.09237353984514
30
0
41
1
10
59.4493292487462
20
-7.12354813472052
30
0
41
1
10
59.5172275774824
20
-7.13996757923846
30
0
41
1
10
59.5308072432296
20
-7.14212700934598
30
0
41
1
10
59.557966574724
20
-7.14427320064135
30
0
41
1
10
59.5715462404713
20
-7.14426992755153
30
0
41
1
10
59.6122852377131
20
-7.14103045594459
30
0
41
1
10
59.6394445692076
20
-7.13452316375307
30
0
41
1
10
59.720922563691
20
-7.10106525973825
30
0
41
1
10
59.77524122668
20
-7.06013206116722
30
0
41
1
10
59.8838785526579
20
-6.93714703735335
30
0
41
1
10
59.9381972156468
20
-6.85507493521246
30
0
41
1
10
60.0468345416247
20
-6.64764510686925
30
0
41
1
10
60.1011532046137
20
-6.52227262470697
30
0
41
1
10
60.2097905305916
20
-6.22835710311642
30
0
41
1
10
60.2641091935806
20
-6.05980923595118
30
0
41
1
10
60.3727465195585
20
-5.68225001389473
30
0
41
1
10
60.4270651825475
20
-5.47324637648288
30
0
41
1
10
60.5357025085254
20
-5.02003895459632
30
0
41
1
10
60.5900211715144
20
-4.77585495915727
30
0
41
1
10
60.6986584974923
20
-4.25968862647179
30
0
41
1
10
60.7529771604812
20
-3.98773440134278
30
0
41
1
10
60.8616144864592
20
-3.42483197427856
30
0
41
1
10
60.9159331494482
20
-3.13391436072834
30
0
41
1
10
61.0245704754261
20
-2.54238774143141
30
0
41
1
10
61.0788891384151
20
-2.24180585123224
30
0
41
1
10
61.187526464393
20
-1.63986369093112
30
0
41
1
10
61.2418451273819
20
-1.33852283740384
30
0
41
1
10
61.3504824533598
20
-0.742874008014212
30
0
41
1
10
61.4048011163488
20
-0.448576120551138
30
0
41
1
10
61.472699445085
20
-0.0890137255037473
30
0
41
1
10
61.4862791108322
20
-0.0177891011040288
30
0
41
1
10
61.5134384423267
20
0.125195443950503
30
0
41
1
10
61.5541774395684
20
0.34096670150592
30
0
41
1
10
61.5949164368101
20
0.56025306635982
30
0
41
1
10
61.6763944312936
20
1.00238165095325
30
0
41
1
10
61.7307130942826
20
1.30192168585009
30
0
41
1
10
61.8393504202605
20
1.90334078743439
30
0
41
1
10
61.8936690832494
20
2.20520388323254
30
0
41
1
10
62.0023064092274
20
2.80271579119739
30
0
41
1
10
62.0566250722164
20
3.09834000945216
30
0
41
1
10
62.1652623981943
20
3.67413072524528
30
0
41
1
10
62.2195810611832
20
3.95426729869013
30
0
41
1
10
62.3282183871611
20
4.48998235105091
30
0
41
1
10
62.3825370501501
20
4.74553105337162
30
0
41
1
10
62.491174376128
20
5.22403142461576
30
0
41
1
10
62.545493039117
20
5.44695959666069
30
0
41
1
10
62.6541303650949
20
5.85406398115185
30
0
41
1
10
62.7084490280839
20
6.03822771199236
30
0
41
1
10
62.8170863540618
20
6.36408808914584
30
0
41
1
10
62.8714050170507
20
6.50578502394114
30
0
41
1
10
62.9800423430287
20
6.74562293577679
30
0
41
1
10
63.0343610060177
20
6.843775405972
30
0
41
1
10
63.1429983319956
20
6.99787608595841
30
0
41
1
10
63.1973169949845
20
7.05384306393509
30
0
41
1
10
63.3059543209624
20
7.12689433933042
30
0
41
1
10
63.3602729839515
20
7.144
30
0
41
1
10
63.4145916469404
20
7.144
30
0
0
SPLINE
5
D2
100
AcDbEntity
8
1
62
256
6
ByLayer
370
13
48
1
60
0
100
AcDbSpline
70
4
71
3
72
78
73
74
40
0
40
0
40
0
40
0
40
0.0312500000000007
40
0.0312500000000007
40
0.0625000000000015
40
0.0625000000000015
40
0.0937500000000022
40
0.0937500000000022
40
0.125000000000003
40
0.125000000000003
40
0.156250000000004
40
0.156250000000004
40
0.171875000000004
40
0.171875000000004
40
0.179687500000004
40
0.179687500000004
40
0.187500000000004
40
0.187500000000004
40
0.218750000000004
40
0.218750000000004
40
0.250000000000004
40
0.250000000000004
40
0.281250000000004
40
0.281250000000004
40
0.312500000000004
40
0.312500000000004
40
0.343750000000003
40
0.343750000000003
40
0.375000000000003
40
0.375000000000003
40
0.406250000000003
40
0.406250000000003
40
0.437500000000003
40
0.437500000000003
40
0.468750000000003
40
0.468750000000003
40
0.500000000000002
40
0.500000000000002
40
0.531250000000002
40
0.531250000000002
40
0.562500000000002
40
0.562500000000002
40
0.578125000000002
40
0.578125000000002
40
0.585937500000002
40
0.585937500000002
40
0.593750000000002
40
0.593750000000002
40
0.625000000000002
40
0.625000000000002
40
0.656250000000002
40
0.656250000000002
40
0.687500000000002
40
0.687500000000002
40
0.718750000000001
40
0.718750000000001
40
0.750000000000001
40
0.750000000000001
40
0.781250000000001
40
0.781250000000001
40
0.812500000000001
40
0.812500000000001
40
0.843750000000001
40
0.843750000000001
40
0.875000000000001
40
0.875000000000001
40
0.90625
40
0.90625
40
0.9375
40
0.9375
40
0.96875
40
0.96875
40
1
40
1
40
1
40
1
41
1
10
58.2
20
-5.4463780186037
30
0
41
1
10
58.2491411517714
20
-5.64159950976523
30
0
41
1
10
58.2982823035427
20
-5.82168085275165
30
0
41
1
10
58.3965646070854
20
-6.14813263018257
30
0
41
1
10
58.4457057588568
20
-6.29449999750022
30
0
41
1
10
58.5439880623995
20
-6.55181215498647
30
0
41
1
10
58.5931292141708
20
-6.6627606562698
30
0
41
1
10
58.6914115177136
20
-6.84925071945952
30
0
41
1
10
58.7405526694849
20
-6.92480131891426
30
0
41
1
10
58.8388349730276
20
-7.04204060721585
30
0
41
1
10
58.887976124799
20
-7.08374144674085
30
0
41
1
10
58.961687852456
20
-7.12295696461939
30
0
41
1
10
58.9862584283417
20
-7.13214771173426
30
0
41
1
10
59.0231142921702
20
-7.14042893069563
30
0
41
1
10
59.0353995801131
20
-7.14227221299564
30
0
41
1
10
59.0599701559987
20
-7.14418112843458
30
0
41
1
10
59.0722554439416
20
-7.14425345547096
30
0
41
1
10
59.1336818836557
20
-7.14022259592611
30
0
41
1
10
59.1828230354271
20
-7.12278882587566
30
0
41
1
10
59.2811053389698
20
-7.05611695450438
30
0
41
1
10
59.3302464907412
20
-7.00686588759115
30
0
41
1
10
59.4285287942839
20
-6.87405167772766
30
0
41
1
10
59.4776699460552
20
-6.7904768873758
30
0
41
1
10
59.575952249598
20
-6.58778800453601
30
0
41
1
10
59.6250934013693
20
-6.46866591585965
30
0
41
1
10
59.723375704912
20
-6.19523956678873
30
0
41
1
10
59.7725168566834
20
-6.04093306109829
30
0
41
1
10
59.8707991602261
20
-5.6992405920208
30
0
41
1
10
59.9199403119974
20
-5.51185932091948
30
0
41
1
10
60.0182226155401
20
-5.10783232557333
30
0
41
1
10
60.0673637673115
20
-4.89119799595426
30
0
41
1
10
60.1656460708542
20
-4.43394843655753
30
0
41
1
10
60.2147872226256
20
-4.19334956833583
30
0
41
1
10
60.3130695261682
20
-3.69449860658668
30
0
41
1
10
60.3622106779396
20
-3.43626504454511
30
0
41
1
10
60.4604929814823
20
-2.90898153192316
30
0
41
1
10
60.5096341332537
20
-2.63994921679162
30
0
41
1
10
60.6079164367964
20
-2.09785991542884
30
0
41
1
10
60.6570575885678
20
-1.8248171505164
30
0
41
1
10
60.7553398921105
20
-1.28096672672331
30
0
41
1
10
60.8044810438819
20
-1.01016843504874
30
0
41
1
10
60.8781927715389
20
-0.609674475974941
30
0
41
1
10
60.9027633474246
20
-0.477119263118652
30
0
41
1
10
60.9396192112531
20
-0.280127171685336
30
0
41
1
10
60.9519044991959
20
-0.21476938304454
30
0
41
1
10
60.9764750750816
20
-0.084730741324563
30
0
41
1
10
60.9887603630244
20
-0.0202673712227863
30
0
41
1
10
61.0501868027386
20
0.302951474778155
30
0
41
1
10
61.0993279545099
20
0.567250744273025
30
0
41
1
10
61.1976102580527
20
1.10290149079049
30
0
41
1
10
61.246751409824
20
1.37424814417079
30
0
41
1
10
61.3450337133667
20
1.91851910354467
30
0
41
1
10
61.3941748651381
20
2.1914334521727
30
0
41
1
10
61.4924571686808
20
2.73250763112281
30
0
41
1
10
61.5415983204521
20
3.00065275309979
30
0
41
1
10
61.6398806239948
20
3.52537131177797
30
0
41
1
10
61.6890217757662
20
3.78192686613943
30
0
41
1
10
61.7873040793089
20
4.2766603183133
30
0
41
1
10
61.8364452310803
20
4.51481977497374
30
0
41
1
10
61.934727534623
20
4.96652210290986
30
0
41
1
10
61.9838686863943
20
5.18004905354059
30
0
41
1
10
62.0821509899371
20
5.57734196761385
30
0
41
1
10
62.1312921417085
20
5.76109724243565
30
0
41
1
10
62.2295744452512
20
6.09520585335682
30
0
41
1
10
62.2787155970225
20
6.24555530944841
30
0
41
1
10
62.3769979005652
20
6.51093808592032
30
0
41
1
10
62.4261390523366
20
6.62597439350176
30
0
41
1
10
62.5244213558793
20
6.82055558146126
30
0
41
1
10
62.5735625076506
20
6.90010899327592
30
0
41
1
10
62.6718448111933
20
7.0251089757634
30
0
41
1
10
62.7209859629646
20
7.07056746100011
30
0
41
1
10
62.8192682665074
20
7.13000648367896
30
0
41
1
10
62.8684094182788
20
7.144
30
0
41
1
10
62.9175505700501
20
7.144
30
0
0
SPLINE
5
D3
100
AcDbEntity
8
1
62
256
6
ByLayer
370
13
48
1
60
0
100
AcDbSpline
70
4
71
3
72
8
73
4
40
0
40
0
40
0
40
0
40
1
40
1
40
1
40
1
41
1
10
65.6556165383448
20
7.144
30
0
41
1
10
65.7370099076973
20
7.144
30
0
41
1
10
65.8184032770498
20
7.10545347753873
30
0
41
1
10
65.8997966464023
20
7.02107033199451
30
0
0
SPLINE
5
D4
100
AcDbEntity
8
1
62
256
6
ByLayer
370
13
48
1
60
0
100
AcDbSpline
70
4
71
3
72
78
73
74
40
0
40
0
40
0
40
0
40
0.0312500000000001
40
0.0312500000000001
40
0.0625000000000003
40
0.0625000000000003
40
0.0781250000000004
40
0.0781250000000004
40
0.0859375000000004
40
0.0859375000000004
40
0.0937500000000004
40
0.0937500000000004
40
0.125
40
0.125
40
0.15625
40
0.15625
40
0.1875
40
0.1875
40
0.21875
40
0.21875
40
0.25
40
0.25
40
0.281249999999999
40
0.281249999999999
40
0.312499999999999
40
0.312499999999999
40
0.343749999999999
40
0.343749999999999
40
0.374999999999999
40
0.374999999999999
40
0.406249999999999
40
0.406249999999999
40
0.437499999999999
40
0.437499999999999
40
0.468749999999998
40
0.468749999999998
40
0.499999999999998
40
0.499999999999998
40
0.531249999999998
40
0.531249999999998
40
0.539062499999998
40
0.539062499999998
40
0.546874999999998
40
0.546874999999998
40
0.562499999999998
40
0.562499999999998
40
0.593749999999998
40
0.593749999999998
40
0.624999999999998
40
0.624999999999998
40
0.656249999999999
40
0.656249999999999
40
0.687499999999999
40
0.687499999999999
40
0.718749999999999
40
0.718749999999999
40
0.749999999999999
40
0.749999999999999
40
0.781249999999999
40
0.781249999999999
40
0.812499999999999
40
0.812499999999999
40
0.843749999999999
40
0.843749999999999
40
0.875
40
0.875
40
0.90625
40
0.90625
40
0.9375
40
0.9375
40
0.96875
40
0.96875
40
1
40
1
40
1
40
1
41
1
10
58.2
20
-6.85265442386387
30
0
41
1
10
58.2439636405537
20
-6.92441306690819
30
0
41
1
10
58.2879272811075
20
-6.98218310489946
30
0
41
1
10
58.3758545622149
20
-7.07114181676948
30
0
41
1
10
58.4198182027688
20
-7.10233771352222
30
0
41
1
10
58.4857636635994
20
-7.13078096934038
30
0
41
1
10
58.5077454838762
20
-7.13720843724946
30
0
41
1
10
58.5407182142916
20
-7.14250228744109
30
0
41
1
10
58.55170912443
20
-7.14354255898445
30
0
41
1
10
58.5736909447069
20
-7.14421553144717
30
0
41
1
10
58.5846818548453
20
-7.14385406668168
30
0
41
1
10
58.6396364055375
20
-7.1384831444567
30
0
41
1
10
58.6836000460912
20
-7.12273624040009
30
0
41
1
10
58.7715273271987
20
-7.06591744751142
30
0
41
1
10
58.8154909677525
20
-7.024838111919
30
0
41
1
10
58.90341824886
20
-6.91548187343969
30
0
41
1
10
58.9473818894137
20
-6.84719807912529
30
0
41
1
10
59.0353091705212
20
-6.68234544504031
30
0
41
1
10
59.0792728110749
20
-6.58577133638926
30
0
41
1
10
59.1672000921824
20
-6.36422234700311
30
0
41
1
10
59.2111637327362
20
-6.23924484950248
30
0
41
1
10
59.2990910138437
20
-5.96186724997472
30
0
41
1
10
59.3430546543974
20
-5.80946792279576
30
0
41
1
10
59.4309819355049
20
-5.47934882846138
30
0
41
1
10
59.4749455760586
20
-5.30163344995296
30
0
41
1
10
59.5628728571662
20
-4.92403123820546
30
0
41
1
10
59.6068364977199
20
-4.72415199677064
30
0
41
1
10
59.6947637788274
20
-4.30623593458176
30
0
41
1
10
59.7387274193811
20
-4.08820891859122
30
0
41
1
10
59.8266547004887
20
-3.63861078248763
30
0
41
1
10
59.8706183410425
20
-3.40705032712648
30
0
41
1
10
59.9585456221499
20
-2.93528586070502
30
0
41
1
10
60.0025092627037
20
-2.69509196833749
30
0
41
1
10
60.0904365438112
20
-2.21093111630302
30
0
41
1
10
60.1344001843649
20
-1.96697256840832
30
0
41
1
10
60.2223274654725
20
-1.47984069626168
30
0
41
1
10
60.2662911060261
20
-1.23667335776969
30
0
41
1
10
60.3542183871336
20
-0.75515169462625
30
0
41
1
10
60.3981820276874
20
-0.51680070702335
30
0
41
1
10
60.4531365783795
20
-0.223968247337751
30
0
41
1
10
60.464127488518
20
-0.16565532615175
30
0
41
1
10
60.4861093087948
20
-0.0495819138756417
30
0
41
1
10
60.4971002189333
20
0.0079894609385178
30
0
41
1
10
60.5300729493487
20
0.181698352060948
30
0
41
1
10
60.5520547696254
20
0.298631450642688
30
0
41
1
10
60.6180002304561
20
0.652259860126236
30
0
41
1
10
60.6619638710099
20
0.891805969585874
30
0
41
1
10
60.7498911521174
20
1.37500197454122
30
0
41
1
10
60.7938547926711
20
1.61864803401778
30
0
41
1
10
60.8817820737787
20
2.10590737482119
30
0
41
1
10
60.9257457143324
20
2.34951417745486
30
0
41
1
10
61.0136729954398
20
2.83206300931329
30
0
41
1
10
61.0576366359936
20
3.07099623196336
30
0
41
1
10
61.1455639171011
20
3.53930147550463
30
0
41
1
10
61.1895275576548
20
3.76866317360051
30
0
41
1
10
61.2774548387623
20
4.21295509199342
30
0
41
1
10
61.321418479316
20
4.42787469987653
30
0
41
1
10
61.4093457604236
20
4.8387574494225
30
0
41
1
10
61.4533094009773
20
5.03471110978217
30
0
41
1
10
61.5412366820848
20
5.40378925802432
30
0
41
1
10
61.5852003226386
20
5.5769067021177
30
0
41
1
10
61.673127603746
20
5.89734469787507
30
0
41
1
10
61.7170912442998
20
6.04466153565755
30
0
41
1
10
61.8050185254073
20
6.31159991380835
30
0
41
1
10
61.848982165961
20
6.43122135918196
30
0
41
1
10
61.9369094470686
20
6.64199750495124
30
0
41
1
10
61.9808730876223
20
6.73315539536961
30
0
41
1
10
62.0688003687298
20
6.88731166589776
30
0
41
1
10
62.1127640092835
20
6.95031570693794
30
0
41
1
10
62.2006912903911
20
7.04941390633019
30
0
41
1
10
62.2446549309448
20
7.08551514104886
30
0
41
1
10
62.3325822120522
20
7.13280446652706
30
0
41
1
10
62.376545852606
20
7.144
30
0
41
1
10
62.4205094931598
20
7.144
30
0
0
SPLINE
5
D5
100
AcDbEntity
8
1
62
256
6
ByLayer
370
13
48
1
60
0
100
AcDbSpline
70
4
71
3
72
14
73
10
40
0
40
0
40
0
40
0
40
0.25
40
0.25
40
0.5
40
0.5
40
0.75
40
0.75
40
1
40
1
40
1
40
1
41
1
10
65.1585754614545
20
7.144
30
0
41
1
10
65.2203438935334
20
7.144
30
0
41
1
10
65.2821123256124
20
7.12186291621632
30
0
41
1
10
65.4056491897704
20
7.02662073253538
30
0
41
1
10
65.4674176218494
20
6.95347530004264
30
0
41
1
10
65.5909544860074
20
6.75183543285596
30
0
41
1
10
65.6527229180863
20
6.62330834888883
30
0
41
1
10
65.7762597822443
20
6.31004988716185
30
0
41
1
10
65.8380282143233
20
6.12530479609802
30
0
41
1
10
65.8997966464023
20
5.91416176286796
30
0
0
SPLINE
5
D6
100
AcDbEntity
8
1
62
256
6
ByLayer
370
13
48
1
60
0
100
AcDbSpline
70
4
71
3
72
44
73
40
40
0
40
0
40
0
40
0
40
0.0625000000000014
40
0.0625000000000014
40
0.125000000000003
40
0.125000000000003
40
0.187500000000004
40
0.187500000000004
40
0.250000000000006
40
0.250000000000006
40
0.312500000000007
40
0.312500000000007
40
0.375000000000008
40
0.375000000000008
40
0.43750000000001
40
0.43750000000001
40
0.468750000000011
40
0.468750000000011
40
0.476562500000011
40
0.476562500000011
40
0.484375000000011
40
0.484375000000011
40
0.50000000000001
40
0.50000000000001
40
0.562500000000009
40
0.562500000000009
40
0.625000000000008
40
0.625000000000008
40
0.687500000000006
40
0.687500000000006
40
0.750000000000005
40
0.750000000000005
40
0.812500000000004
40
0.812500000000004
40
0.875000000000003
40
0.875000000000003
40
0.937500000000001
40
0.937500000000001
40
1
40
1
40
1
40
1
41
1
10
58.2
20
-7.11203300912749
30
0
41
1
10
58.2775722586723
20
-7.07212577781365
30
0
41
1
10
58.3551445173445
20
-6.99339290754429
30
0
41
1
10
58.5102890346891
20
-6.74870928151992
30
0
41
1
10
58.5878612933614
20
-6.58265500184604
30
0
41
1
10
58.743005810706
20
-6.16209859307835
30
0
41
1
10
58.8205780693782
20
-5.90756904143217
30
0
41
1
10
58.9757225867229
20
-5.31958652541277
30
0
41
1
10
59.0532948453951
20
-4.98621155091905
30
0
41
1
10
59.2084393627397
20
-4.26012790067475
30
0
41
1
10
59.2860116214119
20
-3.86757961179131
30
0
41
1
10
59.4411561387565
20
-3.04908568455826
30
0
41
1
10
59.5187283974288
20
-2.6233174177685
30
0
41
1
10
59.6738729147733
20
-1.76532588893281
30
0
41
1
10
59.7514451734456
20
-1.33323177866177
30
0
41
1
10
59.867803561454
20
-0.697590757450541
30
0
41
1
10
59.9065896907902
20
-0.487751719707944
30
0
41
1
10
59.9550723524603
20
-0.229423961304576
30
0
41
1
10
59.9647688847944
20
-0.177955901052314
30
0
41
1
10
59.9841619494625
20
-0.0754459617082262
30
0
41
1
10
59.9938584817965
20
-0.0245195570934982
30
0
41
1
10
60.0229480787985
20
0.12839055506231
30
0
41
1
10
60.0423411434667
20
0.23122277273373
30
0
41
1
10
60.1393064668071
20
0.749225974312196
30
0
41
1
10
60.2168787254793
20
1.17618178755384
30
0
41
1
10
60.3720232428238
20
2.03508687774681
30
0
41
1
10
60.4495955014961
20
2.4669412875914
30
0
41
1
10
60.6047400188407
20
3.31008243080421
30
0
41
1
10
60.682312277513
20
3.72120742014346
30
0
41
1
10
60.8374567948576
20
4.49584506407069
30
0
41
1
10
60.9150290535299
20
4.85918033975946
30
0
41
1
10
61.0701735708744
20
5.51503221331566
30
0
41
1
10
61.1477458295467
20
5.80742703213593
30
0
41
1
10
61.3028903468912
20
6.30678957191211
30
0
41
1
10
61.3804626055635
20
6.5137373676458
30
0
41
1
10
61.5356071229081
20
6.83845421807459
30
0
41
1
10
61.6131793815803
20
6.95629815579662
30
0
41
1
10
61.7683238989249
20
7.10900991129844
30
0
41
1
10
61.8458961575972
20
7.144
30
0
41
1
10
61.9234684162694
20
7.144
30
0
0
SPLINE
5
D7
100
AcDbEntity
8
1
62
256
6
ByLayer
370
13
48
1
60
0
100
AcDbSpline
70
4
71
3
72
22
73
18
40
0
40
0
40
0
40
0
40
0.125
40
0.125
40
0.25
40
0.25
40
0.375
40
0.375
40
0.5
40
0.5
40
0.625
40
0.625
40
0.75
40
0.75
40
0.875
40
0.875
40
1
40
1
40
1
40
1
41
1
10
64.6615343845641
20
7.144
30
0
41
1
10
64.7131286454741
20
7.144
30
0
41
1
10
64.764722906384
20
7.12857117220085
30
0
41
1
10
64.8679114282038
20
7.06286616950734
30
0
41
1
10
64.9195056891137
20
7.01257345185635
30
0
41
1
10
65.0226942109336
20
6.87418630055544
30
0
41
1
10
65.0742884718435
20
6.78607697602655
30
0
41
1
10
65.1774769936633
20
6.57065150428559
30
0
41
1
10
65.2290712545733
20
6.44332538604661
30
0
41
1
10
65.3322597763931
20
6.14999628116144
30
0
41
1
10
65.3838540373031
20
5.98399115377185
30
0
41
1
10
65.4870425591229
20
5.61596116447524
30
0
41
1
10
65.5386368200328
20
5.41394350265747
30
0
41
1
10
65.6418253418527
20
4.97860089940752
30
0
41
1
10
65.6934196027626
20
4.74529187300496
30
0
41
1
10
65.7966081245824
20
4.25378290744015
30
0
41
1
10
65.8482023854924
20
3.99560482536521
30
0
41
1
10
65.8997966464023
20
3.72875183427658
30
0
0
SPLINE
5
D8
100
AcDbEntity
8
1
62
256
6
ByLayer
370
13
48
1
60
0
100
AcDbSpline
70
4
71
3
72
43
73
39
40
0
40
0
40
0
40
0
40
0.0625000000000008
40
0.0625000000000008
40
0.125000000000002
40
0.125000000000002
40
0.187500000000003
40
0.187500000000003
40
0.250000000000003
40
0.250000000000003
40
0.312500000000004
40
0.312500000000004
40
0.375000000000005
40
0.375000000000005
40
0.390625000000005
40
0.398437500000006
40
0.398437500000006
40
0.406250000000006
40
0.406250000000006
40
0.437500000000006
40
0.437500000000006
40
0.500000000000005
40
0.500000000000005
40
0.562500000000004
40
0.562500000000004
40
0.625000000000004
40
0.625000000000004
40
0.687500000000003
40
0.687500000000003
40
0.750000000000003
40
0.750000000000003
40
0.812500000000002
40
0.812500000000002
40
0.875000000000001
40
0.875000000000001
40
0.937500000000001
40
0.937500000000001
40
1
40
1
40
1
40
1
41
1
10
58.2
20
-6.28427875328694
30
0
41
1
10
58.2672172362371
20
-6.09179785409299
30
0
41
1
10
58.3344344724741
20
-5.8664256016414
30
0
41
1
10
58.4688689449482
20
-5.35661697151596
30
0
41
1
10
58.5360861811853
20
-5.07221895011847
30
0
41
1
10
58.6705206536595
20
-4.45673561658026
30
0
41
1
10
58.7377378898966
20
-4.12572530812105
30
0
41
1
10
58.8721723623707
20
-3.43331487948208
30
0
41
1
10
58.9393895986077
20
-3.07200316330477
30
0
41
1
10
59.0738240710818
20
-2.33665773244397
30
0
41
1
10
59.1410413073189
20
-1.96269966200555
30
0
41
1
10
59.2754757797931
20
-1.21854166577055
30
0
41
1
10
59.3426930160301
20
-0.848387678295268
30
0
41
1
10
59.4267145613264
20
-0.396428790476648
30
0
41
1
10
59.4519210249154
20
-0.261632673949748
30
0
41
1
10
59.4771274885042
20
-0.128216126395955
30
0
41
1
10
59.4939317975635
20
-0.0395978608546557
30
0
41
1
10
59.5023339520932
20
0.004436566825575
30
0
41
1
10
59.5443447247413
20
0.225545933374804
30
0
41
1
10
59.5779533428598
20
0.405094239658268
30
0
41
1
10
59.6787791972154
20
0.949694737922499
30
0
41
1
10
59.7459964334525
20
1.32081198028675
30
0
41
1
10
59.8804309059266
20
2.06549556133999
30
0
41
1
10
59.9476481421637
20
2.43901290265745
30
0
41
1
10
60.0820826146378
20
3.17187276627192
30
0
41
1
10
60.1492998508748
20
3.53113756333912
30
0
41
1
10
60.283734323349
20
4.21785914462566
30
0
41
1
10
60.3509515595861
20
4.54522760722799
30
0
41
1
10
60.4853860320602
20
5.15208768173807
30
0
41
1
10
60.5526032682973
20
5.43150684020475
30
0
41
1
10
60.6870377407714
20
5.93048044018329
30
0
41
1
10
60.7542549770085
20
6.15000060181808
30
0
41
1
10
60.8886894494826
20
6.52294586804169
30
0
41
1
10
60.9559066857197
20
6.67638182334039
30
0
41
1
10
61.0903411581938
20
6.91704665716404
30
0
41
1
10
61.1575583944309
20
7.0043213018117
30
0
41
1
10
61.291992866905
20
7.11776744297154
30
0
41
1
10
61.3592101031421
20
7.144
30
0
41
1
10
61.4264273393791
20
7.144
30
0
0
SPLINE
5
D9
100
AcDbEntity
8
1
62
256
6
ByLayer
370
13
48
1
60
0
100
AcDbSpline
70
4
71
3
72
22
73
18
40
0
40
0
40
0
40
0
40
0.125
40
0.125
40
0.25
40
0.25
40
0.375
40
0.375
40
0.5
40
0.5
40
0.625
40
0.625
40
0.75
40
0.75
40
0.875
40
0.875
40
1
40
1
40
1
40
1
41
1
10
64.1644933076738
20
7.144
30
0
41
1
10
64.2367976134542
20
7.144
30
0
41
1
10
64.3091019192345
20
7.11362530711287
30
0
41
1
10
64.4537105307952
20
6.98165938567755
30
0
41
1
10
64.5260148365755
20
6.87998106452633
30
0
41
1
10
64.6706234481363
20
6.59963832210067
30
0
41
1
10
64.7429277539166
20
6.42091415278998
30
0
41
1
10
64.8875363654773
20
5.98790621844543
30
0
41
1
10
64.9598406712577
20
5.73362115562639
30
0
41
1
10
65.1044492828184
20
5.15913946989014
30
0
41
1
10
65.1767535885988
20
4.83901099193849
30
0
41
1
10
65.3213622001595
20
4.14972293938786
30
0
41
1
10
65.3936665059398
20
3.78068061282673
30
0
41
1
10
65.5382751175006
20
3.01478870112314
30
0
41
1
10
65.6105794232809
20
2.61806346391185
30
0
41
1
10
65.7551880348416
20
1.81857709604518
30
0
41
1
10
65.8274923406219
20
1.4159078757219
30
0
41
1
10
65.8997966464023
20
1.01968891002491
30
0
0
SPLINE
5
DA
100
AcDbEntity
8
1
62
256
6
ByLayer
370
13
48
1
60
0
100
AcDbSpline
70
4
71
3
72
42
73
38
40
0
40
0
40
0
40
0
40
0.0625000000000004
40
0.0625000000000004
40
0.125000000000001
40
0.125000000000001
40
0.187500000000001
40
0.187500000000001
40
0.250000000000002
40
0.250000000000002
40
0.281250000000002
40
0.281250000000002
40
0.296875000000002
40
0.296875000000002
40
0.312500000000002
40
0.312500000000002
40
0.375000000000001
40
0.375000000000001
40
0.437500000000001
40
0.437500000000001
40
0.500000000000001
40
0.500000000000001
40
0.562500000000001
40
0.562500000000001
40
0.625000000000001
40
0.625000000000001
40
0.687500000000001
40
0.687500000000001
40
0.750000000000001
40
0.750000000000001
40
0.8125
40
0.8125
40
0.875
40
0.875
40
0.9375
40
0.9375
40
1
40
1
40
1
40
1
41
1
10
58.2000000000001
20
-4.32106451051385
30
0
41
1
10
58.2568622138019
20
-4.04390920858111
30
0
41
1
10
58.3137244276037
20
-3.75270817034132
30
0
41
1
10
58.4274488552074
20
-3.15250762293763
30
0
41
1
10
58.4843110690092
20
-2.84354595447749
30
0
41
1
10
58.5980354966129
20
-2.21846099809801
30
0
41
1
10
58.6548977104148
20
-1.90236888737132
30
0
41
1
10
58.7686221380185
20
-1.27286700285083
30
0
41
1
10
58.8254843518204
20
-0.959477106757049
30
0
41
1
10
58.9107776725231
20
-0.497607058253294
30
0
41
1
10
58.939208779424
20
-0.345005414280479
30
0
41
1
10
58.9818554397754
20
-0.118771187053653
30
0
41
1
10
58.9960709932259
20
-0.0440144609746085
30
0
41
1
10
59.0245021001268
20
0.105470787061563
30
0
41
1
10
59.0387176535773
20
0.180691612602573
30
0
41
1
10
59.1097954208296
20
0.558946375840407
30
0
41
1
10
59.1666576346314
20
0.868509604308116
30
0
41
1
10
59.2803820622352
20
1.49414138671884
30
0
41
1
10
59.337244276037
20
1.81019540971766
30
0
41
1
10
59.4509687036407
20
2.43959290758548
30
0
41
1
10
59.5078309174425
20
2.7529097356433
30
0
41
1
10
59.6215553450462
20
3.36643915029984
30
0
41
1
10
59.6784175588481
20
3.66661596881977
30
0
41
1
10
59.7921419864518
20
4.2432455907055
30
0
41
1
10
59.8490042002536
20
4.51966007677319
30
0
41
1
10
59.9627286278574
20
5.03905898702632
30
0
41
1
10
60.0195908416592
20
5.28201096271113
30
0
41
1
10
60.1333152692628
20
5.72678716800229
30
0
41
1
10
60.1901774830648
20
5.9285921234287
30
0
41
1
10
60.3039019106685
20
6.28618656935689
30
0
41
1
10
60.3607641244703
20
6.44197344171923
30
0
41
1
10
60.474488552074
20
6.70579133689435
30
0
41
1
10
60.5313507658758
20
6.81383505741627
30
0
41
1
10
60.6450751934796
20
6.98341283687901
30
0
41
1
10
60.7019374072814
20
7.04496985589049
30
0
41
1
10
60.8156618348851
20
7.12525003574484
30
0
41
1
10
60.872524048687
20
7.144
30
0
41
1
10
60.9293862624888
20
7.144
30
0
0
SPLINE
5
DB
100
AcDbEntity
8
1
62
256
6
ByLayer
370
13
48
1
60
0
100
AcDbSpline
70
4
71
3
72
42
73
38
40
0
40
0
40
0
40
0
40
0.0625
40
0.0625
40
0.125
40
0.125
40
0.1875
40
0.1875
40
0.25
40
0.25
40
0.3125
40
0.3125
40
0.375
40
0.375
40
0.4375
40
0.4375
40
0.5
40
0.5
40
0.5625
40
0.5625
40
0.625
40
0.625
40
0.6875
40
0.6875
40
0.75
40
0.75
40
0.8125
40
0.8125
40
0.84375
40
0.84375
40
0.859375
40
0.859375
40
0.875
40
0.875
40
0.9375
40
0.9375
40
1
40
1
40
1
40
1
41
1
10
63.6674522307835
20
7.144
30
0
41
1
10
63.7139594061089
20
7.144
30
0
41
1
10
63.7604665814342
20
7.13146910912624
30
0
41
1
10
63.8534809320851
20
7.07839257002652
30
0
41
1
10
63.8999881074104
20
7.03783706260791
30
0
41
1
10
63.9930024580612
20
6.92641171741923
30
0
41
1
10
64.0395096333866
20
6.85553265644413
30
0
41
1
10
64.1325239840374
20
6.68212410484827
30
0
41
1
10
64.1790311593628
20
6.57958759526625
30
0
41
1
10
64.2720455100136
20
6.34274141281833
30
0
41
1
10
64.318552685339
20
6.20842844941191
30
0
41
1
10
64.4115670359898
20
5.90928033217753
30
0
41
1
10
64.4580742113151
20
5.74444668134379
30
0
41
1
10
64.5510885619659
20
5.3869121750069
30
0
41
1
10
64.5975957372913
20
5.19421785382337
30
0
41
1
10
64.6906100879421
20
4.78490043208981
30
0
41
1
10
64.7371172632675
20
4.56828814329072
30
0
41
1
10
64.8301316139183
20
4.11609256739348
30
0
41
1
10
64.8766387892437
20
3.88052275779785
30
0
41
1
10
64.9696531398944
20
3.39601798680735
30
0
41
1
10
65.0161603152199
20
3.14709710129597
30
0
41
1
10
65.1091746658707
20
2.64172254295448
30
0
41
1
10
65.155681841196
20
2.38528154292231
30
0
41
1
10
65.2486961918468
20
1.87051691129687
30
0
41
1
10
65.2952033671722
20
1.6122030628498
30
0
41
1
10
65.388217717823
20
1.09881868759516
30
0
41
1
10
65.4347248931483
20
0.843754318999174
30
0
41
1
10
65.5044856561364
20
0.466860632872852
30
0
41
1
10
65.5277392437991
20
0.3421733476859
30
0
41
1
10
65.5626196252932
20
0.156904220942039
30
0
41
1
10
65.5742464191246
20
0.0954410349118575
30
0
41
1
10
65.5975000067872
20
-0.0268466831655587
30
0
41
1
10
65.6091268006186
20
-0.0879023524837805
30
0
41
1
10
65.6672607697753
20
-0.395568546085656
30
0
41
1
10
65.7137679451007
20
-0.646587778790689
30
0
41
1
10
65.8067822957515
20
-1.15456893544621
30
0
41
1
10
65.8532894710769
20
-1.41152689060544
30
0
41
1
10
65.8997966464023
20
-1.66911312487178
30
0
0
SPLINE
5
DC
100
AcDbEntity
8
1
62
256
6
ByLayer
370
13
48
1
60
0
100
AcDbSpline
70
4
71
3
72
41
73
37
40
0
40
0
40
0
40
0
40
0.0624999999999989
40
0.0624999999999989
40
0.124999999999998
40
0.124999999999998
40
0.140624999999998
40
0.140624999999998
40
0.156249999999997
40
0.187499999999997
40
0.187499999999997
40
0.249999999999997
40
0.249999999999997
40
0.312499999999997
40
0.312499999999997
40
0.374999999999997
40
0.374999999999997
40
0.437499999999998
40
0.437499999999998
40
0.499999999999998
40
0.499999999999998
40
0.562499999999998
40
0.562499999999998
40
0.624999999999998
40
0.624999999999998
40
0.687499999999999
40
0.687499999999999
40
0.749999999999999
40
0.749999999999999
40
0.812499999999999
40
0.812499999999999
40
0.874999999999999
40
0.874999999999999
40
0.9375
40
0.9375
40
1
40
1
40
1
40
1
41
1
10
58.2
20
-1.66911738950751
30
0
41
1
10
58.2465071913666
20
-1.41153105981061
30
0
41
1
10
58.2930143827333
20
-1.15457299570065
30
0
41
1
10
58.3860287654666
20
-0.646591603109442
30
0
41
1
10
58.4325359568332
20
-0.395572243444946
30
0
41
1
10
58.4906699460415
20
-0.0879058851903665
30
0
41
1
10
58.5022967438831
20
-0.0268501719494054
30
0
41
1
10
58.5255503395664
20
0.0954375640875185
30
0
41
1
10
58.5604307330914
20
0.279826263303363
30
0
41
1
10
58.5953111266165
20
0.466857226478595
30
0
41
1
10
58.6650719136664
20
0.843750991938833
30
0
41
1
10
58.711579105033
20
1.09881542487128
30
0
41
1
10
58.8045934877662
20
1.61219995082328
30
0
41
1
10
58.8511006791329
20
1.87051388563603
30
0
41
1
10
58.9441150618662
20
2.38527870935116
30
0
41
1
10
58.9906222532327
20
2.64171981510336
30
0
41
1
10
59.083636635966
20
3.14709459973702
30
0
41
1
10
59.1301438273327
20
3.39601560580653
30
0
41
1
10
59.2231582100659
20
3.88052062668629
30
0
41
1
10
59.2696654014326
20
4.11609056559035
30
0
41
1
10
59.3626797841659
20
4.56828640178509
30
0
41
1
10
59.4091869755325
20
4.78489882154557
30
0
41
1
10
59.5022013582657
20
5.19421649955237
30
0
41
1
10
59.5487085496324
20
5.38691094602058
30
0
41
1
10
59.6417229323657
20
5.744445690557
30
0
41
1
10
59.6882301237323
20
5.90927945428439
30
0
41
1
10
59.7812445064655
20
6.20842777957341
30
0
41
1
10
59.8277516978322
20
6.34274083812949
30
0
41
1
10
59.9207660805654
20
6.57958718963979
30
0
41
1
10
59.9672732719321
20
6.68212377313418
30
0
41
1
10
60.0602876546654
20
6.85553244984982
30
0
41
1
10
60.106794846032
20
6.92641156204127
30
0
41
1
10
60.1998092287653
20
7.03783698738903
30
0
41
1
10
60.246316420132
20
7.07839252376533
30
0
41
1
10
60.3393308028653
20
7.13146910046601
30
0
41
1
10
60.3858379942318
20
7.144
30
0
41
1
10
60.4323451855985
20
7.144
30
0
0
SPLINE
5
DD
100
AcDbEntity
8
1
62
256
6
ByLayer
370
13
48
1
60
0
100
AcDbSpline
70
4
71
3
72
42
73
38
40
0
40
0
40
0
40
0
40
0.0624999999999994
40
0.0624999999999994
40
0.124999999999999
40
0.124999999999999
40
0.187499999999998
40
0.187499999999998
40
0.249999999999998
40
0.249999999999998
40
0.312499999999997
40
0.312499999999997
40
0.374999999999996
40
0.374999999999996
40
0.437499999999996
40
0.437499999999996
40
0.499999999999995
40
0.499999999999995
40
0.562499999999995
40
0.562499999999995
40
0.624999999999994
40
0.624999999999994
40
0.687499999999993
40
0.687499999999993
40
0.703124999999993
40
0.703124999999993
40
0.718749999999994
40
0.718749999999994
40
0.749999999999994
40
0.749999999999994
40
0.812499999999996
40
0.812499999999996
40
0.874999999999997
40
0.874999999999997
40
0.937499999999998
40
0.937499999999998
40
1
40
1
40
1
40
1
41
1
10
63.1704111538932
20
7.144
30
0
41
1
10
63.2272733516538
20
7.144
30
0
41
1
10
63.2841355494144
20
7.12525004635506
30
0
41
1
10
63.3978599449356
20
7.0449699132231
30
0
41
1
10
63.4547221426962
20
6.98341293036125
30
0
41
1
10
63.5684465382174
20
6.81383525096871
30
0
41
1
10
63.625308735978
20
6.70579159439555
30
0
41
1
10
63.7390331314992
20
6.44197385404237
30
0
41
1
10
63.7958953292598
20
6.28618707255984
30
0
41
1
10
63.909619724781
20
5.92859283078542
30
0
41
1
10
63.9664819225416
20
5.72678798861031
30
0
41
1
10
64.0802063180628
20
5.28201202422176
30
0
41
1
10
64.1370685158235
20
5.03906017613897
30
0
41
1
10
64.2507929113447
20
4.51966152513182
30
0
41
1
10
64.3076551091053
20
4.24324717064556
30
0
41
1
10
64.4213795046265
20
3.66661780497873
30
0
41
1
10
64.4782417023871
20
3.36644111103931
30
0
41
1
10
64.5919660979084
20
2.75291192884993
30
0
41
1
10
64.6488282956689
20
2.43959520864286
30
0
41
1
10
64.7625526911901
20
1.81019790271534
30
0
41
1
10
64.8194148889507
20
1.4941439637972
30
0
41
1
10
64.933139284472
20
0.868512322087753
30
0
41
1
10
64.9900014822326
20
0.558949150254961
30
0
41
1
10
65.0610792294334
20
0.180694440376755
30
0
41
1
10
65.0752947788735
20
0.105473624643082
30
0
41
1
10
65.1037258777538
20
-0.044011605487924
30
0
41
1
10
65.117941427194
20
-0.118768284008894
30
0
41
1
10
65.1605880755144
20
-0.345002412891119
30
0
41
1
10
65.1890191743947
20
-0.497603992837895
30
0
41
1
10
65.2743124710356
20
-0.959473856212384
30
0
41
1
10
65.3311746687962
20
-1.27286363813704
30
0
41
1
10
65.4448990643174
20
-1.90236532619045
30
0
41
1
10
65.501761262078
20
-2.21845735469239
30
0
41
1
10
65.6154856575993
20
-2.84354219156089
30
0
41
1
10
65.6723478553599
20
-3.15250382281656
30
0
41
1
10
65.786072250881
20
-3.75270435101979
30
0
41
1
10
65.8429344486416
20
-4.04390540733016
30
0
41
1
10
65.8997966464023
20
-4.32106075751204
30
0
0
SPLINE
5
DE
100
AcDbEntity
8
1
62
256
6
ByLayer
370
13
48
1
60
0
100
AcDbSpline
70
4
71
3
72
22
73
18
40
0
40
0
40
0
40
0
40
0.125
40
0.125
40
0.25
40
0.25
40
0.375
40
0.375
40
0.5
40
0.5
40
0.625
40
0.625
40
0.75
40
0.75
40
0.875
40
0.875
40
1
40
1
40
1
40
1
41
1
10
58.2
20
1.01968469062857
30
0
41
1
10
58.2723043378628
20
1.41590378759218
30
0
41
1
10
58.3446086757257
20
1.81857317469544
30
0
41
1
10
58.4892173514513
20
2.61805993563999
30
0
41
1
10
58.5615216893142
20
3.01478539908828
30
0
41
1
10
58.7061303650398
20
3.78067779778561
30
0
41
1
10
58.7784347029027
20
4.14972038486974
30
0
41
1
10
58.9230433786284
20
4.83900895874697
30
0
41
1
10
58.9953477164913
20
5.1591376971777
30
0
41
1
10
59.1399563922169
20
5.73361986946639
30
0
41
1
10
59.2122607300797
20
5.98790515809412
30
0
41
1
10
59.3568694058054
20
6.42091348395292
30
0
41
1
10
59.4291737436683
20
6.5996378188799
30
0
41
1
10
59.573782419394
20
6.8799808213937
30
0
41
1
10
59.6460867572568
20
6.98165923710835
30
0
41
1
10
59.7906954329825
20
7.11362528001635
30
0
41
1
10
59.8629997708452
20
7.144
30
0
41
1
10
59.9353041087081
20
7.144
30
0
0
SPLINE
5
DF
100
AcDbEntity
8
1
62
256
6
ByLayer
370
13
48
1
60
0
100
AcDbSpline
70
4
71
3
72
43
73
39
40
0
40
0
40
0
40
0
40
0.0625000000000011
40
0.0625000000000011
40
0.125000000000002
40
0.125000000000002
40
0.187500000000003
40
0.187500000000003
40
0.250000000000004
40
0.250000000000004
40
0.312500000000005
40
0.312500000000005
40
0.375000000000006
40
0.375000000000006
40
0.437500000000007
40
0.437500000000007
40
0.500000000000009
40
0.500000000000009
40
0.56250000000001
40
0.56250000000001
40
0.59375000000001
40
0.59375000000001
40
0.60156250000001
40
0.60156250000001
40
0.60937500000001
40
0.62500000000001
40
0.62500000000001
40
0.687500000000008
40
0.687500000000008
40
0.750000000000006
40
0.750000000000006
40
0.812500000000005
40
0.812500000000005
40
0.875000000000003
40
0.875000000000003
40
0.937500000000002
40
0.937500000000002
40
1
40
1
40
1
40
1
41
1
10
62.6733700770028
20
7.144
30
0
41
1
10
62.7405872971987
20
7.144
30
0
41
1
10
62.8078045173945
20
7.11776745554721
30
0
41
1
10
62.9422389577861
20
7.00432137045701
30
0
41
1
10
63.009456177982
20
6.91704676937451
30
0
41
1
10
63.1438906183736
20
6.67638205573462
30
0
41
1
10
63.2111078385694
20
6.5229461770964
30
0
41
1
10
63.345542278961
20
6.15000109378622
30
0
41
1
10
63.4127594991569
20
5.93048103838663
30
0
41
1
10
63.5471939395485
20
5.43150767094841
30
0
41
1
10
63.6144111597443
20
5.15208863870333
30
0
41
1
10
63.748845600136
20
4.54522882264945
30
0
41
1
10
63.8160628203318
20
4.21786049216138
30
0
41
1
10
63.9504972607234
20
3.53113916572539
30
0
41
1
10
64.0177144809193
20
3.17187449128664
30
0
41
1
10
64.1521489213109
20
2.43901485044523
30
0
41
1
10
64.2193661415067
20
2.06549760921644
30
0
41
1
10
64.3538005818984
20
1.32081419761991
30
0
41
1
10
64.4210178020942
20
0.949697024628648
30
0
41
1
10
64.5218436323879
20
0.405096605432902
30
0
41
1
10
64.5554522424858
20
0.225548321383286
30
0
41
1
10
64.5974630051082
20
0.0044389775571574
30
0
41
1
10
64.6058651576327
20
-0.0395954347653742
30
0
41
1
10
64.6226694626816
20
-0.128213667170428
30
0
41
1
10
64.647875920255
20
-0.261630165321605
30
0
41
1
10
64.6730823778286
20
-0.396426233495561
30
0
41
1
10
64.7571039030733
20
-0.848384963143275
30
0
41
1
10
64.8243211232691
20
-1.21853883364059
30
0
41
1
10
64.9587555636608
20
-1.96269663361156
30
0
41
1
10
65.0259727838566
20
-2.33665462490646
30
0
41
1
10
65.1604072242483
20
-3.07199995325456
30
0
41
1
10
65.2276244444441
20
-3.43331164621975
30
0
41
1
10
65.3620588848357
20
-4.12572209693684
30
0
41
1
10
65.4292761050315
20
-4.45673245079229
30
0
41
1
10
65.5637105454232
20
-5.07221594678879
30
0
41
1
10
65.630927765619
20
-5.3566140852482
30
0
41
1
10
65.7653622060106
20
-5.86642301299605
30
0
41
1
10
65.8325794262065
20
-6.0917954458962
30
0
41
1
10
65.8997966464023
20
-6.28427654839902
30
0
0
SPLINE
5
E0
100
AcDbEntity
8
1
62
256
6
ByLayer
370
13
48
1
60
0
100
AcDbSpline
70
4
71
3
72
22
73
18
40
0
40
0
40
0
40
0
40
0.125
40
0.125
40
0.25
40
0.25
40
0.375
40
0.375
40
0.5
40
0.5
40
0.625
40
0.625
40
0.75
40
0.75
40
0.875
40
0.875
40
1
40
1
40
1
40
1
41
1
10
58.2
20
3.72874785182964
30
0
41
1
10
58.2515942929924
20
3.99560109486899
30
0
41
1
10
58.3031885859849
20
4.25377943764661
30
0
41
1
10
58.4063771719696
20
4.74528892453645
30
0
41
1
10
58.457971464962
20
4.97859821147631
30
0
41
1
10
58.5611600509469
20
5.41394131788053
30
0
41
1
10
58.6127543439392
20
5.61595922223745
30
0
41
1
10
58.715942929924
20
5.98398966326727
30
0
41
1
10
58.7675372229165
20
6.14999499979925
30
0
41
1
10
58.8707258089013
20
6.44332447862354
30
0
41
1
10
58.9223201018937
20
6.57065076164363
30
0
41
1
10
59.0255086878785
20
6.78607651305998
30
0
41
1
10
59.0771029808709
20
6.87418595250176
30
0
41
1
10
59.1802915668557
20
7.0125732835962
30
0
41
1
10
59.2318858598481
20
7.06286606616976
30
0
41
1
10
59.335074445833
20
7.12857115296779
30
0
41
1
10
59.3866687388254
20
7.144
30
0
41
1
10
59.4382630318178
20
7.144
30
0
0
SPLINE
5
E1
100
AcDbEntity
8
1
62
256
6
ByLayer
370
13
48
1
60
0
100
AcDbSpline
70
4
71
3
72
44
73
40
40
0
40
0
40
0
40
0
40
0.0625
40
0.0625
40
0.125
40
0.125
40
0.1875
40
0.1875
40
0.25
40
0.25
40
0.3125
40
0.3125
40
0.375
40
0.375
40
0.4375
40
0.4375
40
0.5
40
0.5
40
0.515625
40
0.515625
40
0.5234375
40
0.5234375
40
0.53125
40
0.53125
40
0.5625
40
0.5625
40
0.625
40
0.625
40
0.6875
40
0.6875
40
0.75
40
0.75
40
0.8125
40
0.8125
40
0.875
40
0.875
40
0.9375
40
0.9375
40
1
40
1
40
1
40
1
41
1
10
62.1763290001125
20
7.144
30
0
41
1
10
62.2539012427436
20
7.144
30
0
41
1
10
62.3314734853745
20
7.10900992585951
30
0
41
1
10
62.4866179706366
20
6.95629823597375
30
0
41
1
10
62.5641902132677
20
6.83845434942808
30
0
41
1
10
62.7193346985298
20
6.51373763918335
30
0
41
1
10
62.7969069411607
20
6.30678993250285
30
0
41
1
10
62.9520514264228
20
5.80742760091806
30
0
41
1
10
63.0296236690539
20
5.51503290114854
30
0
41
1
10
63.184768154316
20
4.85918127941738
30
0
41
1
10
63.262340396947
20
4.49584613630637
30
0
41
1
10
63.4174848822091
20
3.72120875072869
30
0
41
1
10
63.4950571248402
20
3.31008388695844
30
0
41
1
10
63.6502016101022
20
2.46694296980866
30
0
41
1
10
63.7277738527332
20
2.03508866035111
30
0
41
1
10
63.8829183379953
20
1.17618373483975
30
0
41
1
10
63.9604905806264
20
0.749227985908334
30
0
41
1
10
64.0574558839152
20
0.231224840676077
30
0
41
1
10
64.0768489445729
20
0.128392633090869
30
0
41
1
10
64.1059385355595
20
-0.0245174656849372
30
0
41
1
10
64.1156350658885
20
-0.0754438477981125
30
0
41
1
10
64.1350281265462
20
-0.177953754138599
30
0
41
1
10
64.144724656875
20
-0.229421798011003
30
0
41
1
10
64.1932073085194
20
-0.487749475233869
30
0
41
1
10
64.231993429835
20
-0.697588450322115
30
0
41
1
10
64.3483517937815
20
-1.33322929489836
30
0
41
1
10
64.4259240364125
20
-1.76532330256091
30
0
41
1
10
64.5810685216746
20
-2.62331468139328
30
0
41
1
10
64.6586407643057
20
-3.04908290106616
30
0
41
1
10
64.8137852495677
20
-3.86757680979682
30
0
41
1
10
64.8913574921987
20
-4.26012512752141
30
0
41
1
10
65.0465019774608
20
-4.98620891875979
30
0
41
1
10
65.1240742200919
20
-5.31958400543755
30
0
41
1
10
65.279218705354
20
-5.90756681941616
30
0
41
1
10
65.356790947985
20
-6.16209655663997
30
0
41
1
10
65.5119354332471
20
-6.58265338565698
30
0
41
1
10
65.5895076758781
20
-6.74870789969103
30
0
41
1
10
65.7446521611402
20
-6.99339201244428
30
0
41
1
10
65.8222244037712
20
-7.07212513482148
30
0
41
1
10
65.8997966464023
20
-7.11203261300838
30
0
0
SPLINE
5
E2
100
AcDbEntity
8
1
62
256
6
ByLayer
370
13
48
1
60
0
100
AcDbSpline
70
4
71
3
72
14
73
10
40
0
40
0
40
0
40
0
40
0.25
40
0.25
40
0.5
40
0.5
40
0.75
40
0.75
40
1
40
1
40
1
40
1
41
1
10
58.2
20
5.91415913084515
30
0
41
1
10
58.261768496244
20
6.12530260127343
30
0
41
1
10
58.3235369924879
20
6.31004808599201
30
0
41
1
10
58.4470739849758
20
6.62330722134453
30
0
41
1
10
58.5088424812198
20
6.75183458527874
30
0
41
1
10
58.6323794737077
20
6.95347489083966
30
0
41
1
10
58.6941479699517
20
7.02662048187992
30
0
41
1
10
58.8176849624396
20
7.12186287005923
30
0
41
1
10
58.8794534586835
20
7.144
30
0
41
1
10
58.9412219549274
20
7.144
30
0
0
SPLINE
5
E3
100
AcDbEntity
8
1
62
256
6
ByLayer
370
13
48
1
60
0
100
AcDbSpline
70
4
71
3
72
77
73
73
40
0
40
0
40
0
40
0
40
0.0312499999999999
40
0.0312499999999999
40
0.0624999999999997
40
0.0624999999999997
40
0.0937499999999996
40
0.0937499999999996
40
0.124999999999999
40
0.124999999999999
40
0.156249999999999
40
0.156249999999999
40
0.187499999999999
40
0.187499999999999
40
0.218749999999999
40
0.218749999999999
40
0.249999999999999
40
0.249999999999999
40
0.281249999999999
40
0.281249999999999
40
0.312499999999999
40
0.312499999999999
40
0.343749999999998
40
0.343749999999998
40
0.374999999999998
40
0.374999999999998
40
0.406249999999998
40
0.406249999999998
40
0.437499999999998
40
0.437499999999998
40
0.453124999999998
40
0.453124999999998
40
0.460937499999998
40
0.460937499999998
40
0.468749999999998
40
0.468749999999998
40
0.499999999999998
40
0.499999999999998
40
0.531249999999999
40
0.531249999999999
40
0.562499999999999
40
0.562499999999999
40
0.593749999999999
40
0.593749999999999
40
0.624999999999999
40
0.624999999999999
40
0.656249999999999
40
0.656249999999999
40
0.6875
40
0.6875
40
0.71875
40
0.71875
40
0.75
40
0.75
40
0.78125
40
0.78125
40
0.8125
40
0.8125
40
0.84375
40
0.84375
40
0.875000000000001
40
0.875000000000001
40
0.906250000000001
40
0.906250000000001
40
0.914062500000001
40
0.914062500000001
40
0.921875000000001
40
0.9375
40
0.9375
40
0.96875
40
0.96875
40
1
40
1
40
1
40
1
41
1
10
61.6792879232221
20
7.144
30
0
41
1
10
61.7232515557553
20
7.144
30
0
41
1
10
61.7672151882884
20
7.13280447061868
30
0
41
1
10
61.8551424533547
20
7.0855151628393
30
0
41
1
10
61.8991060858878
20
7.04941394173471
30
0
41
1
10
61.987033350954
20
6.95031578000885
30
0
41
1
10
62.0309969834872
20
6.88731176302704
30
0
41
1
10
62.1189242485534
20
6.7331555513554
30
0
41
1
10
62.1628878810865
20
6.64199769573918
30
0
41
1
10
62.2508151461528
20
6.43122162983593
30
0
41
1
10
62.2947787786859
20
6.31160022952696
30
0
41
1
10
62.3827060437521
20
6.04466195043287
30
0
41
1
10
62.4266696762853
20
5.89734516663913
30
0
41
1
10
62.5145969413515
20
5.5769072856325
30
0
41
1
10
62.5585605738846
20
5.4037899022938
30
0
41
1
10
62.6464878389509
20
5.03471187952101
30
0
41
1
10
62.690451471484
20
4.83875828386581
30
0
41
1
10
62.7783787365503
20
4.42787566448428
30
0
41
1
10
62.8223423690835
20
4.21295612204983
30
0
41
1
10
62.9102696341498
20
3.76866433204395
30
0
41
1
10
62.9542332666828
20
3.53930269687615
30
0
41
1
10
63.0421605317491
20
3.07099757368636
30
0
41
1
10
63.0861241642822
20
2.832064408452
30
0
41
1
10
63.1740514293485
20
2.34951568347284
30
0
41
1
10
63.2180150618816
20
2.10590893029877
30
0
41
1
10
63.3059423269478
20
1.61864967873959
30
0
41
1
10
63.349905959481
20
1.37500365904742
30
0
41
1
10
63.4378332245473
20
0.891807723051528
30
0
41
1
10
63.4817968570803
20
0.652261642769702
30
0
41
1
10
63.5477423058801
20
0.298633268956109
30
0
41
1
10
63.5697241221466
20
0.181700180920444
30
0
41
1
10
63.6026968465465
20
0.0079913036288985
30
0
41
1
10
63.6136877546798
20
-0.0495800563177227
30
0
41
1
10
63.6356695709462
20
-0.165653435530317
30
0
41
1
10
63.6466604790796
20
-0.223966340319748
30
0
41
1
10
63.701615019746
20
-0.51679871883826
30
0
41
1
10
63.7455786522791
20
-0.755149644104023
30
0
41
1
10
63.8335059173453
20
-1.23667119160436
30
0
41
1
10
63.8774695498785
20
-1.47983847680109
30
0
41
1
10
63.9653968149447
20
-1.96697025543909
30
0
41
1
10
64.0093604474778
20
-2.21092876313401
30
0
41
1
10
64.0972877125441
20
-2.69508955173242
30
0
41
1
10
64.1412513450772
20
-2.93528342087845
30
0
41
1
10
64.2291786101435
20
-3.40704786110069
30
0
41
1
10
64.2731422426766
20
-3.63860831349754
30
0
41
1
10
64.3610695077429
20
-4.08820646616434
30
0
41
1
10
64.405033140276
20
-4.30623350169159
30
0
41
1
10
64.4929604053422
20
-4.72414962631285
30
0
41
1
10
64.5369240378753
20
-4.92402891064626
30
0
41
1
10
64.6248513029416
20
-5.30163123084739
30
0
41
1
10
64.6688149354748
20
-5.47934667490657
30
0
41
1
10
64.756742200541
20
-5.80946592074577
30
0
41
1
10
64.8007058330741
20
-5.96186533386799
30
0
41
1
10
64.8886330981404
20
-6.23924312211204
30
0
41
1
10
64.9325967306735
20
-6.36422072237059
30
0
41
1
10
65.0205239957397
20
-6.58576992960497
30
0
41
1
10
65.0644876282728
20
-6.68234415332989
30
0
41
1
10
65.1524148933391
20
-6.84719702495886
30
0
41
1
10
65.1963785258722
20
-6.91548094172833
30
0
41
1
10
65.2843057909384
20
-7.02483742762246
30
0
41
1
10
65.3282694234716
20
-7.06591688816309
30
0
41
1
10
65.4161966885379
20
-7.12273592901215
30
0
41
1
10
65.460160321071
20
-7.13848295607389
30
0
41
1
10
65.5151148617374
20
-7.14385402852849
30
0
41
1
10
65.5261057698707
20
-7.1442155228894
30
0
41
1
10
65.5480875861372
20
-7.14354261063446
30
0
41
1
10
65.5810603105371
20
-7.14042231527264
30
0
41
1
10
65.6140330349369
20
-7.13078121213033
30
0
41
1
10
65.6799784837366
20
-7.1023381619805
30
0
41
1
10
65.7239421162697
20
-7.07114241336083
30
0
41
1
10
65.811869381336
20
-6.98218401764112
30
0
41
1
10
65.8558330138692
20
-6.92441414766986
30
0
41
1
10
65.8997966464023
20
-6.85265568064406
30
0
0
SPLINE
5
E4
100
AcDbEntity
8
1
62
256
6
ByLayer
370
13
48
1
60
0
100
AcDbSpline
70
4
71
3
72
8
73
4
40
0
40
0
40
0
40
0
40
1
40
1
40
1
40
1
41
1
10
58.2000000000001
20
7.02106953373027
30
0
41
1
10
58.2813936260124
20
7.10545323274272
30
0
41
1
10
58.3627872520247
20
7.144
30
0
41
1
10
58.4441808780371
20
7.144
30
0
0
SPLINE
5
E5
100
AcDbEntity
8
1
62
256
6
ByLayer
370
13
48
1
60
0
100
AcDbSpline
70
4
71
3
72
76
73
72
40
0
40
0
40
0
40
0
40
0.0312500000000007
40
0.0312500000000007
40
0.0625000000000014
40
0.0625000000000014
40
0.0937500000000021
40
0.0937500000000021
40
0.125000000000003
40
0.125000000000003
40
0.156250000000004
40
0.156250000000004
40
0.187500000000004
40
0.187500000000004
40
0.218750000000005
40
0.218750000000005
40
0.250000000000006
40
0.250000000000006
40
0.281250000000006
40
0.281250000000006
40
0.312500000000007
40
0.312500000000007
40
0.343750000000008
40
0.343750000000008
40
0.375000000000009
40
0.375000000000009
40
0.40625000000001
40
0.40625000000001
40
0.41406250000001
40
0.41406250000001
40
0.42187500000001
40
0.437500000000009
40
0.437500000000009
40
0.468750000000009
40
0.468750000000009
40
0.500000000000009
40
0.500000000000009
40
0.531250000000008
40
0.531250000000008
40
0.562500000000008
40
0.562500000000008
40
0.593750000000007
40
0.593750000000007
40
0.625000000000007
40
0.625000000000007
40
0.656250000000006
40
0.656250000000006
40
0.687500000000006
40
0.687500000000006
40
0.718750000000005
40
0.718750000000005
40
0.750000000000005
40
0.750000000000005
40
0.781250000000004
40
0.781250000000004
40
0.812500000000004
40
0.812500000000004
40
0.820312500000004
40
0.820312500000004
40
0.828125000000003
40
0.843750000000003
40
0.843750000000003
40
0.875000000000002
40
0.875000000000002
40
0.906250000000002
40
0.906250000000002
40
0.937500000000001
40
0.937500000000001
40
0.968750000000001
40
0.968750000000001
40
1
40
1
40
1
40
1
41
1
10
61.1822468463319
20
7.144
30
0
41
1
10
61.2313879900826
20
7.144
30
0
41
1
10
61.2805291338333
20
7.13000648825647
30
0
41
1
10
61.3788114213347
20
7.07056748552679
30
0
41
1
10
61.4279525650855
20
7.02510901567231
30
0
41
1
10
61.526234852587
20
6.90010907577897
30
0
41
1
10
61.5753759963377
20
6.82055569118518
30
0
41
1
10
61.6736582838392
20
6.62597456960666
30
0
41
1
10
61.7227994275899
20
6.51093830119004
30
0
41
1
10
61.8210817150914
20
6.24555561395516
30
0
41
1
10
61.8702228588421
20
6.09520620793404
30
0
41
1
10
61.9685051463436
20
5.76109770583633
30
0
41
1
10
62.0176462900943
20
5.57734248975854
30
0
41
1
10
62.1159285775958
20
5.18004969859774
30
0
41
1
10
62.1650697213465
20
4.96652281212064
30
0
41
1
10
62.263352008848
20
4.51482061398872
30
0
41
1
10
62.3124931525987
20
4.27666122296134
30
0
41
1
10
62.4107754401001
20
3.78192789945302
30
0
41
1
10
62.4599165838508
20
3.52537240810781
30
0
41
1
10
62.5581988713524
20
3.00065396911614
30
0
41
1
10
62.6073400151031
20
2.73250890379788
30
0
41
1
10
62.7056223026045
20
2.19143482885622
30
0
41
1
10
62.7547634463553
20
1.91852052757278
30
0
41
1
10
62.8530457338567
20
1.37424965165542
30
0
41
1
10
62.9021868776075
20
1.10290303438819
30
0
41
1
10
63.000469165109
20
0.567252348038863
30
0
41
1
10
63.0496103088598
20
0.302953102604846
30
0
41
1
10
63.1110367385481
20
-0.020265720754594
30
0
41
1
10
63.1233220244858
20
-0.0847290704508339
30
0
41
1
10
63.1478925963612
20
-0.214767679241277
30
0
41
1
10
63.1847484541742
20
-0.410839903969077
30
0
41
1
10
63.2216043119873
20
-0.609672676078077
30
0
41
1
10
63.2953160276134
20
-1.0101665440134
30
0
41
1
10
63.3444571713641
20
-1.28096477920798
30
0
41
1
10
63.4427394588656
20
-1.82481510360313
30
0
41
1
10
63.4918806026163
20
-2.09785782561789
30
0
41
1
10
63.5901628901178
20
-2.63994705967588
30
0
41
1
10
63.6393040338685
20
-2.90897935042318
30
0
41
1
10
63.73758632137
20
-3.43626283692893
30
0
41
1
10
63.7867274651207
20
-3.69449639725929
30
0
41
1
10
63.8850097526222
20
-4.1933473809585
30
0
41
1
10
63.9341508963728
20
-4.4339462728548
30
0
41
1
10
64.0324331838743
20
-4.89119590572145
30
0
41
1
10
64.0815743276251
20
-5.10783028513771
30
0
41
1
10
64.1798566151266
20
-5.5118574047344
30
0
41
1
10
64.2289977588773
20
-5.6992387502786
30
0
41
1
10
64.3272800463788
20
-6.04093138935002
30
0
41
1
10
64.3764211901296
20
-6.19523799057111
30
0
41
1
10
64.474703477631
20
-6.46866454665761
30
0
41
1
10
64.5238446213817
20
-6.58778674679351
30
0
41
1
10
64.6221269088832
20
-6.79047586245431
30
0
41
1
10
64.6712680526339
20
-6.87405077414314
30
0
41
1
10
64.7695503401353
20
-7.00686523040119
30
0
41
1
10
64.8186914838861
20
-7.05611642235289
30
0
41
1
10
64.9169737713876
20
-7.12278854188193
30
0
41
1
10
64.9661149151383
20
-7.14022243504022
30
0
41
1
10
65.0275413448267
20
-7.14425344437524
30
0
41
1
10
65.0398266307644
20
-7.14418114688795
30
0
41
1
10
65.0643972026398
20
-7.1422722926838
30
0
41
1
10
65.1012530604528
20
-7.1367432591841
30
0
41
1
10
65.1381089182659
20
-7.1229572397379
30
0
41
1
10
65.2118206338921
20
-7.08374193339821
30
0
41
1
10
65.2609617776428
20
-7.04204124709071
30
0
41
1
10
65.3592440651442
20
-6.92480228640463
30
0
41
1
10
65.4083852088949
20
-6.84925186134896
30
0
41
1
10
65.5066674963964
20
-6.66276216249781
30
0
41
1
10
65.5558086401471
20
-6.55181385114102
30
0
41
1
10
65.6540909276487
20
-6.29450208111425
30
0
41
1
10
65.7032320713993
20
-6.14813491130195
30
0
41
1
10
65.8015143589008
20
-5.82168352686938
30
0
41
1
10
65.8506555026515
20
-5.64160237933748
30
0
41
1
10
65.8997966464023
20
-5.44638107747613
30
0
0
SPLINE
5
E6
100
AcDbEntity
8
1
62
256
6
ByLayer
370
13
48
1
60
0
100
AcDbSpline
70
4
71
3
72
78
73
74
40
0
40
0
40
0
40
0
40
0.0312500000000002
40
0.0312500000000002
40
0.0625000000000004
40
0.0625000000000004
40
0.0937500000000005
40
0.0937500000000005
40
0.125000000000001
40
0.125000000000001
40
0.156250000000001
40
0.156250000000001
40
0.187500000000001
40
0.187500000000001
40
0.218750000000001
40
0.218750000000001
40
0.250000000000001
40
0.250000000000001
40
0.281250000000002
40
0.281250000000002
40
0.312500000000002
40
0.312500000000002
40
0.343750000000002
40
0.343750000000002
40
0.359375000000002
40
0.359375000000002
40
0.367187500000002
40
0.367187500000002
40
0.375000000000002
40
0.375000000000002
40
0.406250000000002
40
0.406250000000002
40
0.437500000000003
40
0.437500000000003
40
0.468750000000003
40
0.468750000000003
40
0.500000000000003
40
0.500000000000003
40
0.531250000000003
40
0.531250000000003
40
0.562500000000003
40
0.562500000000003
40
0.593750000000003
40
0.593750000000003
40
0.625000000000004
40
0.625000000000004
40
0.656250000000004
40
0.656250000000004
40
0.687500000000004
40
0.687500000000004
40
0.718750000000004
40
0.718750000000004
40
0.734375000000004
40
0.734375000000004
40
0.742187500000004
40
0.742187500000004
40
0.750000000000004
40
0.750000000000004
40
0.781250000000003
40
0.781250000000003
40
0.812500000000003
40
0.812500000000003
40
0.843750000000003
40
0.843750000000003
40
0.875000000000002
40
0.875000000000002
40
0.906250000000002
40
0.906250000000002
40
0.937500000000001
40
0.937500000000001
40
0.968750000000001
40
0.968750000000001
40
1
40
1
40
1
40
1
41
1
10
60.6852057694415
20
7.144
30
0
41
1
10
60.7395244244099
20
7.144
30
0
41
1
10
60.7938430793782
20
7.1268943443954
30
0
41
1
10
60.9024803893149
20
7.05384309123008
30
0
41
1
10
60.9567990442832
20
6.99787613043407
30
0
41
1
10
61.0654363542199
20
6.84377549802215
30
0
41
1
10
61.1197550091882
20
6.74562305823312
30
0
41
1
10
61.228392319125
20
6.50578522021212
30
0
41
1
10
61.2827109740932
20
6.36408832882944
30
0
41
1
10
61.39134828403
20
6.03822804970201
30
0
41
1
10
61.4456669389983
20
5.85406437346771
30
0
41
1
10
61.5543042489349
20
5.44696010603212
30
0
41
1
10
61.6086229039033
20
5.22403199641818
30
0
41
1
10
61.71726021384
20
4.74553175335421
30
0
41
1
10
61.7715788688083
20
4.48998311675743
30
0
41
1
10
61.8802161787449
20
3.95426819414593
30
0
41
1
10
61.9345348337133
20
3.67413168470122
30
0
41
1
10
62.04317214365
20
3.09834109048793
30
0
41
1
10
62.0974907986184
20
2.8027169297942
30
0
41
1
10
62.2061281085551
20
2.20520512678661
30
0
41
1
10
62.2604467635235
20
1.90334207837637
30
0
41
1
10
62.3690840734601
20
1.30192305905038
30
0
41
1
10
62.4234027284285
20
1.00238305902599
30
0
41
1
10
62.504880710881
20
0.560254516699388
30
0
41
1
10
62.532040038365
20
0.414063619223327
30
0
41
1
10
62.5727790295914
20
0.197121222064965
30
0
41
1
10
62.5863586933334
20
0.125196927846702
30
0
41
1
10
62.6135180208177
20
-0.0177876080801411
30
0
41
1
10
62.6270976845597
20
-0.0890122128861606
30
0
41
1
10
62.6949960032701
20
-0.44857452570119
30
0
41
1
10
62.7493146582385
20
-0.742872350188946
30
0
41
1
10
62.8579519681751
20
-1.33852106507339
30
0
41
1
10
62.9122706231435
20
-1.63986186709607
30
0
41
1
10
63.0209079330801
20
-2.24180394202423
30
0
41
1
10
63.0752265880486
20
-2.54238579838793
30
0
41
1
10
63.1838638979852
20
-3.13391237329023
30
0
41
1
10
63.2381825529536
20
-3.42482997631453
30
0
41
1
10
63.3468198628903
20
-3.98773240967023
30
0
41
1
10
63.4011385178586
20
-4.25968665164072
30
0
41
1
10
63.5097758277952
20
-4.77585304694975
30
0
41
1
10
63.5640944827636
20
-5.02003708817748
30
0
41
1
10
63.6727317927003
20
-5.47324462922077
30
0
41
1
10
63.7270504476687
20
-5.68224833998681
30
0
41
1
10
63.8356877576053
20
-6.05980773211434
30
0
41
1
10
63.8900064125736
20
-6.22835569596597
30
0
41
1
10
63.9986437225103
20
-6.52227142790585
30
0
41
1
10
64.0529623774786
20
-6.64764402369306
30
0
41
1
10
64.1615996874153
20
-6.85507408877223
30
0
41
1
10
64.2159183423837
20
-6.93714631398888
30
0
41
1
10
64.3245556523203
20
-7.06013158598327
30
0
41
1
10
64.3788743072887
20
-7.10106490963395
30
0
41
1
10
64.4603522897412
20
-7.13452299792013
30
0
41
1
10
64.4875116172254
20
-7.14103035098734
30
0
41
1
10
64.5282506084516
20
-7.14426991258384
30
0
41
1
10
64.5418302721937
20
-7.14427321516766
30
0
41
1
10
64.5689895996779
20
-7.14212708513597
30
0
41
1
10
64.5825692634199
20
-7.13996768652768
30
0
41
1
10
64.6504675821304
20
-7.12354840380851
30
0
41
1
10
64.7047862370987
20
-7.09237395225887
30
0
41
1
10
64.8134235470354
20
-6.98974692599984
30
0
41
1
10
64.8677422020038
20
-6.91827343129151
30
0
41
1
10
64.9763795119405
20
-6.73238823662351
30
0
41
1
10
65.0306981669088
20
-6.61795994919601
30
0
41
1
10
65.1393354768455
20
-6.34566735411474
30
0
41
1
10
65.1936541318138
20
-6.18779538494425
30
0
41
1
10
65.3022914417505
20
-5.83066094569784
30
0
41
1
10
65.3566100967189
20
-5.6314029565803
30
0
41
1
10
65.4652474066556
20
-5.19614334627366
30
0
41
1
10
65.5195660616239
20
-4.96015872102652
30
0
41
1
10
65.6282033715606
20
-4.45837006996706
30
0
41
1
10
65.6825220265289
20
-4.19259256720548
30
0
41
1
10
65.7911593364656
20
-3.63975226979261
30
0
41
1
10
65.8454779914339
20
-3.35272003357218
30
0
41
1
10
65.8997966464023
20
-3.05967755843108
30
0
0
SPLINE
5
E7
100
AcDbEntity
8
1
62
256
6
ByLayer
370
13
48
1
60
0
100
AcDbSpline
70
4
71
3
72
78
73
74
40
0
40
0
40
0
40
0
40
0.0312499999999999
40
0.0312499999999999
40
0.0624999999999998
40
0.0624999999999998
40
0.0937499999999998
40
0.0937499999999998
40
0.125
40
0.125
40
0.15625
40
0.15625
40
0.1875
40
0.1875
40
0.21875
40
0.21875
40
0.25
40
0.25
40
0.28125
40
0.28125
40
0.3125
40
0.3125
40
0.328125
40
0.328125
40
0.3359375
40
0.3359375
40
0.34375
40
0.34375
40
0.375
40
0.375
40
0.40625
40
0.40625
40
0.4375
40
0.4375
40
0.46875
40
0.46875
40
0.5
40
0.5
40
0.53125
40
0.53125
40
0.5625
40
0.5625
40
0.59375
40
0.59375
40
0.625
40
0.625
40
0.65625
40
0.65625
40
0.671875
40
0.671875
40
0.6796875
40
0.6796875
40
0.6875
40
0.6875
40
0.71875
40
0.71875
40
0.75
40
0.75
40
0.78125
40
0.78125
40
0.8125
40
0.8125
40
0.84375
40
0.84375
40
0.875
40
0.875
40
0.90625
40
0.90625
40
0.9375
40
0.9375
40
0.96875
40
0.96875
40
1
40
1
40
1
40
1
41
1
10
60.1881646925511
20
7.144
30
0
41
1
10
60.2476608587371
20
7.144
30
0
41
1
10
60.3071570249231
20
7.12346695366861
30
0
41
1
10
60.426149357295
20
7.03532168249461
30
0
41
1
10
60.485645523481
20
6.96767592946588
30
0
41
1
10
60.6046378558528
20
6.78124744666718
30
0
41
1
10
60.6641340220388
20
6.662436817448
30
0
41
1
10
60.7831263544106
20
6.37259268464567
30
0
41
1
10
60.8426225205965
20
6.20154565268373
30
0
41
1
10
60.9616148529685
20
5.80976956617616
30
0
41
1
10
61.0211110191544
20
5.58904771729357
30
0
41
1
10
61.1401033515263
20
5.1042048661688
30
0
41
1
10
61.1995995177123
20
4.84011243924334
30
0
41
1
10
61.3185918500842
20
4.2780123149476
30
0
41
1
10
61.3780880162702
20
3.98004836221531
30
0
41
1
10
61.497080348642
20
3.36177510561348
30
0
41
1
10
61.556576514828
20
3.04151388225631
30
0
41
1
10
61.6755688471999
20
2.39088014934401
30
0
41
1
10
61.7350650133858
20
2.06054897250414
30
0
41
1
10
61.8540573457577
20
1.40129131992199
30
0
41
1
10
61.9135535119438
20
1.07239209679551
30
0
41
1
10
62.0027977612227
20
0.587405868326329
30
0
41
1
10
62.0325458443156
20
0.427121235101339
30
0
41
1
10
62.0771679689551
20
0.189508985142623
30
0
41
1
10
62.0920420105015
20
0.110772840645296
30
0
41
1
10
62.1217900935944
20
-0.0456531433598855
30
0
41
1
10
62.136664135141
20
-0.123876180522672
30
0
41
1
10
62.2110343428734
20
-0.518575762174976
30
0
41
1
10
62.2705305090594
20
-0.842168735756871
30
0
41
1
10
62.3895228414312
20
-1.49661053494702
30
0
41
1
10
62.4490190076172
20
-1.82744133034433
30
0
41
1
10
62.5680113399891
20
-2.4857827158857
30
0
41
1
10
62.6275075061751
20
-2.81325943368154
30
0
41
1
10
62.746499838547
20
-3.45293715647276
30
0
41
1
10
62.8059960047329
20
-3.76509273608693
30
0
41
1
10
62.9249883371048
20
-4.36200489603712
30
0
41
1
10
62.9844845032908
20
-4.64671380954027
30
0
41
1
10
63.1034768356627
20
-5.177878154089
30
0
41
1
10
63.1629730018486
20
-5.42429522747497
30
0
41
1
10
63.2819653342205
20
-5.87062547246157
30
0
41
1
10
63.3414615004065
20
-6.07051889544792
30
0
41
1
10
63.4604538327783
20
-6.41905877218309
30
0
41
1
10
63.5199499989643
20
-6.56770742006935
30
0
41
1
10
63.6389423313362
20
-6.81279158470463
30
0
41
1
10
63.6984384975221
20
-6.90924782452362
30
0
41
1
10
63.817430829894
20
-7.05239522208751
30
0
41
1
10
63.87692699608
20
-7.09911777972954
30
0
41
1
10
63.966171245359
20
-7.1356634268553
30
0
41
1
10
63.9959193284519
20
-7.14227276403889
30
0
41
1
10
64.0405414530914
20
-7.14441759184663
30
0
41
1
10
64.0554154946378
20
-7.14385344111597
30
0
41
1
10
64.0851635777308
20
-7.14010296190642
30
0
41
1
10
64.1000376192773
20
-7.13691079171181
30
0
41
1
10
64.1744078270098
20
-7.1141187015524
30
0
41
1
10
64.2339039931957
20
-7.07395139562885
30
0
41
1
10
64.3528963255675
20
-6.94448369466517
30
0
41
1
10
64.4123924917535
20
-6.85515112494417
30
0
41
1
10
64.5313848241254
20
-6.62446900803585
30
0
41
1
10
64.5908809903113
20
-6.48309672823015
30
0
41
1
10
64.7098733226833
20
-6.14875741210358
30
0
41
1
10
64.7693694888692
20
-5.95578526773841
30
0
41
1
10
64.8883618212411
20
-5.52242179490315
30
0
41
1
10
64.9478579874271
20
-5.28204720574826
30
0
41
1
10
65.066850319799
20
-4.76164405367828
30
0
41
1
10
65.1263464859849
20
-4.4816517136305
30
0
41
1
10
65.2453388183567
20
-3.89255738820859
30
0
41
1
10
65.3048349845428
20
-3.58350246632722
30
0
41
1
10
65.4238273169146
20
-2.94831876618233
30
0
41
1
10
65.4833234831006
20
-2.62223637355112
30
0
41
1
10
65.6023158154725
20
-1.96507805714017
30
0
41
1
10
65.6618119816584
20
-1.63403799364309
30
0
41
1
10
65.7808043140303
20
-0.977820786763886
30
0
41
1
10
65.8403004802163
20
-0.652663927311181
30
0
41
1
10
65.8997966464023
20
-0.33482649805913
30
0
0
SPLINE
5
E8
100
AcDbEntity
8
1
62
256
6
ByLayer
370
13
48
1
60
0
100
AcDbSpline
70
4
71
3
72
83
73
79
40
0
40
0
40
0
40
0
40
0.0312499999999997
40
0.0312499999999997
40
0.0624999999999994
40
0.0624999999999994
40
0.0937499999999991
40
0.0937499999999991
40
0.124999999999999
40
0.124999999999999
40
0.156249999999999
40
0.156249999999999
40
0.187499999999998
40
0.187499999999998
40
0.218749999999998
40
0.218749999999998
40
0.249999999999998
40
0.249999999999998
40
0.281249999999997
40
0.281249999999997
40
0.296874999999997
40
0.296874999999997
40
0.304687499999997
40
0.308593749999997
40
0.308593749999997
40
0.312499999999997
40
0.312499999999997
40
0.343749999999997
40
0.343749999999997
40
0.374999999999998
40
0.374999999999998
40
0.406249999999998
40
0.406249999999998
40
0.437499999999998
40
0.437499999999998
40
0.468749999999998
40
0.468749999999998
40
0.499999999999998
40
0.499999999999998
40
0.531249999999998
40
0.531249999999998
40
0.562499999999999
40
0.562499999999999
40
0.593749999999999
40
0.593749999999999
40
0.609374999999999
40
0.609374999999999
40
0.617187499999999
40
0.617187499999999
40
0.624999999999998
40
0.624999999999998
40
0.656249999999999
40
0.656249999999999
40
0.687499999999999
40
0.687499999999999
40
0.718749999999999
40
0.718749999999999
40
0.749999999999999
40
0.749999999999999
40
0.781249999999999
40
0.781249999999999
40
0.812499999999999
40
0.812499999999999
40
0.843749999999999
40
0.843749999999999
40
0.875
40
0.875
40
0.90625
40
0.90625
40
0.921875
40
0.921875
40
0.9296875
40
0.9296875
40
0.9375
40
0.9375
40
0.96875
40
0.96875
40
1
40
1
40
1
40
1
41
1
10
59.6911236156608
20
7.144
30
0
41
1
10
59.7557972930644
20
7.144
30
0
41
1
10
59.820470970468
20
7.11972306629679
30
0
41
1
10
59.949818325275
20
7.01498379256753
30
0
41
1
10
60.0144920026786
20
6.93447090004011
30
0
41
1
10
60.1438393574857
20
6.71247104327989
30
0
41
1
10
60.2085130348893
20
6.57094472196167
30
0
41
1
10
60.3378603896964
20
6.22647496137336
30
0
41
1
10
60.4025340670999
20
6.023518623379
30
0
41
1
10
60.531881421907
20
5.56093207890189
30
0
41
1
10
60.5965550993106
20
5.30132450813943
30
0
41
1
10
60.7259024541178
20
4.73524416764471
30
0
41
1
10
60.7905761315213
20
4.42882636697979
30
0
41
1
10
60.9199234863284
20
3.78280979732301
30
0
41
1
10
60.984597163732
20
3.44328294372443
30
0
41
1
10
61.113944518539
20
2.74663594978318
30
0
41
1
10
61.1786181959426
20
2.38958416056806
30
0
41
1
10
61.3079655507498
20
1.67319486644371
30
0
41
1
10
61.3726392281533
20
1.31390586070415
30
0
41
1
10
61.4696497442586
20
0.783172535464047
30
0
41
1
10
61.5019865829605
20
0.607607294939129
30
0
41
1
10
61.5504918410131
20
0.347295799346966
30
0
41
1
10
61.5747444700394
20
0.217896733061195
30
0
41
1
10
61.5989970990657
20
0.0898011810532751
30
0
41
1
10
61.6151655184167
20
0.0047109643232091
30
0
41
1
10
61.6232497280921
20
-0.0376585879239144
30
0
41
1
10
61.6960076151711
20
-0.421273430091219
30
0
41
1
10
61.7606812925747
20
-0.772083059064528
30
0
41
1
10
61.8900286473817
20
-1.48280081994494
30
0
41
1
10
61.9547023247853
20
-1.84268261943012
30
0
41
1
10
62.0840496795924
20
-2.55795681228614
30
0
41
1
10
62.148723356996
20
-2.91329687992854
30
0
41
1
10
62.2780707118031
20
-3.60403647603735
30
0
41
1
10
62.3427443892066
20
-3.93936580872804
30
0
41
1
10
62.4720917440138
20
-4.57464961072728
30
0
41
1
10
62.5367654214173
20
-4.87453348723807
30
0
41
1
10
62.6661127762245
20
-5.42569538196912
30
0
41
1
10
62.7307864536281
20
-5.67692275517422
30
0
41
1
10
62.8601338084351
20
-6.12163943429903
30
0
41
1
10
62.9248074858386
20
-6.31511183519674
30
0
41
1
10
63.0541548406458
20
-6.64034133066809
30
0
41
1
10
63.1188285180493
20
-6.77211633799524
30
0
41
1
10
63.2481758728565
20
-6.97510495522189
30
0
41
1
10
63.31284955026
20
-7.04636074338435
30
0
41
1
10
63.4098600663653
20
-7.11182429741737
30
0
41
1
10
63.4421969050671
20
-7.12677041755973
30
0
41
1
10
63.4907021631197
20
-7.13957559331456
30
0
41
1
10
63.5068705824707
20
-7.14224282141254
30
0
41
1
10
63.5392074211725
20
-7.1445034168496
30
0
41
1
10
63.5553758405234
20
-7.14411647882457
30
0
41
1
10
63.6362179372778
20
-7.13447057930873
30
0
41
1
10
63.7008916146814
20
-7.10180213796198
30
0
41
1
10
63.8302389694884
20
-6.97929232959885
30
0
41
1
10
63.894912646892
20
-6.88940113522796
30
0
41
1
10
64.0242600016991
20
-6.64825634380861
30
0
41
1
10
64.0889336791026
20
-6.49696660469866
30
0
41
1
10
64.2182810339098
20
-6.13336273687921
30
0
41
1
10
64.2829547113133
20
-5.9210409618949
30
0
41
1
10
64.4123020661204
20
-5.44094917638682
30
0
41
1
10
64.476975743524
20
-5.17320745317249
30
0
41
1
10
64.6063230983311
20
-4.59279832586958
30
0
41
1
10
64.6709967757347
20
-4.28018981842669
30
0
41
1
10
64.8003441305418
20
-3.62417445037579
30
0
41
1
10
64.8650178079453
20
-3.28084029948937
30
0
41
1
10
64.9943651627525
20
-2.57905859825928
30
0
41
1
10
65.0590388401561
20
-2.2206771394039
30
0
41
1
10
65.1883861949631
20
-1.50388360310072
30
0
41
1
10
65.2530598723667
20
-1.14551604001878
30
0
41
1
10
65.350070388472
20
-0.617520738763858
30
0
41
1
10
65.3824072271738
20
-0.443092823424394
30
0
41
1
10
65.4309124852265
20
-0.184775132227088
30
0
41
1
10
65.4470809045774
20
-0.0992216250160709
30
0
41
1
10
65.4794177432792
20
0.0706391981948684
30
0
41
1
10
65.49558616263
20
0.155930904108288
30
0
41
1
10
65.5764282593844
20
0.58583644509676
30
0
41
1
10
65.6411019367881
20
0.938860181455937
30
0
41
1
10
65.7704492915951
20
1.65204970747848
30
0
41
1
10
65.8351229689987
20
2.01218496920629
30
0
41
1
10
65.8997966464023
20
2.36890138091519
30
0
0
SPLINE
5
E9
100
AcDbEntity
8
1
62
256
6
ByLayer
370
13
48
1
60
0
100
AcDbSpline
70
4
71
3
72
85
73
81
40
0
40
0
40
0
40
0
40
0.0312500000000009
40
0.0312500000000009
40
0.0625000000000018
40
0.0625000000000018
40
0.0937500000000027
40
0.0937500000000027
40
0.125000000000004
40
0.125000000000004
40
0.156250000000004
40
0.156250000000004
40
0.187500000000005
40
0.187500000000005
40
0.218750000000006
40
0.218750000000006
40
0.250000000000007
40
0.250000000000007
40
0.281250000000008
40
0.281250000000008
40
0.285156250000008
40
0.285156250000008
40
0.289062500000008
40
0.289062500000008
40
0.296875000000008
40
0.296875000000008
40
0.312500000000007
40
0.312500000000007
40
0.343750000000006
40
0.343750000000006
40
0.375000000000005
40
0.375000000000005
40
0.406250000000005
40
0.406250000000005
40
0.437500000000004
40
0.437500000000004
40
0.468750000000003
40
0.468750000000003
40
0.500000000000002
40
0.500000000000002
40
0.531250000000001
40
0.531250000000001
40
0.5625
40
0.5625
40
0.5703125
40
0.5703125
40
0.578125
40
0.578125
40
0.59375
40
0.59375
40
0.625
40
0.625
40
0.65625
40
0.65625
40
0.6875
40
0.6875
40
0.71875
40
0.71875
40
0.75
40
0.75
40
0.78125
40
0.78125
40
0.8125
40
0.8125
40
0.84375
40
0.84375
40
0.859375
40
0.859375
40
0.86328125
40
0.86328125
40
0.867187499999999
40
0.875
40
0.875
40
0.90625
40
0.90625
40
0.9375
40
0.9375
40
0.96875
40
0.96875
40
1
40
1
40
1
40
1
41
1
10
59.1940825387705
20
7.144
30
0
41
1
10
59.2639337273917
20
7.144
30
0
41
1
10
59.3337849160128
20
7.11566125806073
30
0
41
1
10
59.4734872932551
20
6.99281082591426
30
0
41
1
10
59.5433384818763
20
6.89822548587796
30
0
41
1
10
59.6830408591187
20
6.63740685554663
30
0
41
1
10
59.7528920477398
20
6.47112071686269
30
0
41
1
10
59.8925944249821
20
6.06758498784498
30
0
41
1
10
59.9624456136033
20
5.83032842719541
30
0
41
1
10
60.1021479908456
20
5.29268338238353
30
0
41
1
10
60.1719991794668
20
4.99234477481394
30
0
41
1
10
60.3117015567092
20
4.3428920440505
30
0
41
1
10
60.3815527453303
20
3.99387190354955
30
0
41
1
10
60.5212551225726
20
3.26570667471117
30
0
41
1
10
60.5911063111938
20
2.88666820139522
30
0
41
1
10
60.7308086884361
20
2.11826972405134
30
0
41
1
10
60.8006598770573
20
1.72899580023687
30
0
41
1
10
60.9403622542996
20
0.95807166441287
30
0
41
1
10
61.0102134429208
20
0.576468090248852
30
0
41
1
10
61.0887960301196
20
0.159350376472673
30
0
41
1
10
61.0975274286973
20
0.113170338684341
30
0
41
1
10
61.1149902258525
20
0.021165235420824
30
0
41
1
10
61.1237216244301
20
-0.0245732268800793
30
0
41
1
10
61.1499158201631
20
-0.162607217286791
30
0
41
1
10
61.1673786173184
20
-0.255339321420905
30
0
41
1
10
61.2197670087842
20
-0.535390090586304
30
0
41
1
10
61.2546926030948
20
-0.724572035123941
30
0
41
1
10
61.3594693860266
20
-1.29704683785644
30
0
41
1
10
61.4293205746478
20
-1.6853820602812
30
0
41
1
10
61.5690229518901
20
-2.45890308496953
30
0
41
1
10
61.6388741405112
20
-2.84401630731583
30
0
41
1
10
61.7785765177536
20
-3.59172714094365
30
0
41
1
10
61.8484277063748
20
-3.95422240990436
30
0
41
1
10
61.9881300836171
20
-4.63723627656722
30
0
41
1
10
62.0579812722383
20
-4.95765199924094
30
0
41
1
10
62.1976836494806
20
-5.54015534985638
30
0
41
1
10
62.2675348381018
20
-5.80217393228727
30
0
41
1
10
62.4072372153441
20
-6.25734850557797
30
0
41
1
10
62.4770884039652
20
-6.45049042259697
30
0
41
1
10
62.6167907812076
20
-6.76450211050172
30
0
41
1
10
62.6866419698287
20
-6.88541016815549
30
0
41
1
10
62.8263443470711
20
-7.05827350414097
30
0
41
1
10
62.8961955356922
20
-7.11029787796457
30
0
41
1
10
62.9835095214686
20
-7.13744712938646
30
0
41
1
10
63.000972318624
20
-7.1409920495864
30
0
41
1
10
63.0358979129345
20
-7.14447215450539
30
0
41
1
10
63.0533607100898
20
-7.14442899988896
30
0
41
1
10
63.1057491015557
20
-7.13894066774952
30
0
41
1
10
63.1406746958663
20
-7.12804880097352
30
0
41
1
10
63.245451478798
20
-7.07181938176288
30
0
41
1
10
63.3153026674192
20
-7.00278140678813
30
0
41
1
10
63.4550050446615
20
-6.79446734861091
30
0
41
1
10
63.5248562332827
20
-6.65512748538717
30
0
41
1
10
63.664558610525
20
-6.3044169519363
30
0
41
1
10
63.7344097991461
20
-6.09301989482609
30
0
41
1
10
63.8741121763885
20
-5.6033475766464
30
0
41
1
10
63.9439633650097
20
-5.32510120811685
30
0
41
1
10
64.083665742252
20
-4.71384333109174
30
0
41
1
10
64.1535169308731
20
-4.38091237009883
30
0
41
1
10
64.2932193081155
20
-3.67767869027699
30
0
41
1
10
64.3630704967367
20
-3.30748209776883
30
0
41
1
10
64.502772873979
20
-2.54947305386509
30
0
41
1
10
64.5726240626001
20
-2.16175752655025
30
0
41
1
10
64.7123264398424
20
-1.38764998451711
30
0
41
1
10
64.7821776284636
20
-1.00132024572818
30
0
41
1
10
64.8869544113954
20
-0.434557189792997
30
0
41
1
10
64.921880005706
20
-0.24772670897238
30
0
41
1
10
64.9655369985942
20
-0.0177579096695979
30
0
41
1
10
64.9742683971718
20
0.0279818830788088
30
0
41
1
10
64.9917311943271
20
0.120022073787965
30
0
41
1
10
65.0179253900601
20
0.258612924839099
30
0
41
1
10
65.044119585793
20
0.398697198586547
30
0
41
1
10
65.1314335715695
20
0.868483999847484
30
0
41
1
10
65.2012847601907
20
1.25356563395789
30
0
41
1
10
65.3409871374329
20
2.02718223828606
30
0
41
1
10
65.4108383260541
20
2.41565974753533
30
0
41
1
10
65.5505407032964
20
3.17747644659602
30
0
41
1
10
65.6203918919176
20
3.55072174110958
30
0
41
1
10
65.7600942691599
20
4.26228172255333
30
0
41
1
10
65.8299454577812
20
4.60048959846415
30
0
41
1
10
65.8997966464023
20
4.91229512254549
30
0
0
SPLINE
5
EA
100
AcDbEntity
8
1
62
256
6
ByLayer
370
13
48
1
60
0
100
AcDbSpline
70
4
71
3
72
85
73
81
40
0
40
0
40
0
40
0
40
0.03125
40
0.03125
40
0.0625000000000001
40
0.0625000000000001
40
0.0937500000000001
40
0.0937500000000001
40
0.125
40
0.125
40
0.15625
40
0.15625
40
0.1875
40
0.1875
40
0.21875
40
0.21875
40
0.250000000000001
40
0.250000000000001
40
0.265625
40
0.265625
40
0.26953125
40
0.26953125
40
0.273437500000001
40
0.28125
40
0.28125
40
0.3125
40
0.3125
40
0.34375
40
0.34375
40
0.375
40
0.375
40
0.40625
40
0.40625
40
0.4375
40
0.4375
40
0.46875
40
0.46875
40
0.5
40
0.5
40
0.531249999999999
40
0.531249999999999
40
0.539062499999999
40
0.539062499999999
40
0.546875
40
0.546875
40
0.562499999999999
40
0.562499999999999
40
0.593749999999999
40
0.593749999999999
40
0.624999999999999
40
0.624999999999999
40
0.65625
40
0.65625
40
0.6875
40
0.6875
40
0.71875
40
0.71875
40
0.75
40
0.75
40
0.78125
40
0.78125
40
0.796875
40
0.796875
40
0.80078125
40
0.80078125
40
0.8046875
40
0.8046875
40
0.8125
40
0.8125
40
0.84375
40
0.84375
40
0.875
40
0.875
40
0.90625
40
0.90625
40
0.9375
40
0.9375
40
0.96875
40
0.96875
40
1
40
1
40
1
40
1
41
1
10
58.6970414618802
20
7.144
30
0
41
1
10
58.7720701617189
20
7.144
30
0
41
1
10
58.8470988615577
20
7.11127992042708
30
0
41
1
10
58.9971562612353
20
6.9687850984829
30
0
41
1
10
59.0721849610741
20
6.85890620743805
30
0
41
1
10
59.2222423607516
20
6.55603056358996
30
0
41
1
10
59.2972710605904
20
6.36296622050196
30
0
41
1
10
59.4473284602679
20
5.89615182458951
30
0
41
1
10
59.5223571601067
20
5.62240969272571
30
0
41
1
10
59.6724145597842
20
5.00619634513566
30
0
41
1
10
59.747443259623
20
4.66381837548519
30
0
41
1
10
59.8975006593005
20
3.93029456288426
30
0
41
1
10
59.9725293591393
20
3.53929539786191
30
0
41
1
10
60.1225867588169
20
2.73273614621266
30
0
41
1
10
60.1976154586555
20
2.31732015108827
30
0
41
1
10
60.3476728583331
20
1.4857958743446
30
0
41
1
10
60.4227015581719
20
1.06978292717218
30
0
41
1
10
60.5352446079301
20
0.460082769856115
30
0
41
1
10
60.5727589578495
20
0.259195202597823
30
0
41
1
10
60.6196518952487
20
0.0122103314234607
30
0
41
1
10
60.6290304827285
20
-0.0369200864476795
30
0
41
1
10
60.6477876576882
20
-0.13585044392903
30
0
41
1
10
60.6759234201278
20
-0.284854712979865
30
0
41
1
10
60.7040591825673
20
-0.435562762510614
30
0
41
1
10
60.7978450573657
20
-0.941108236933331
30
0
41
1
10
60.8728737572046
20
-1.35595548257285
30
0
41
1
10
61.0229311568821
20
-2.18743507415212
30
0
41
1
10
61.0979598567209
20
-2.60397860012392
30
0
41
1
10
61.2480172563984
20
-3.41536311113981
30
0
41
1
10
61.3230459562373
20
-3.81006337617254
30
0
41
1
10
61.4731033559148
20
-4.55339463929241
30
0
41
1
10
61.5481320557535
20
-4.90187650615351
30
0
41
1
10
61.6981894554311
20
-5.53206772334747
30
0
41
1
10
61.7732181552698
20
-5.81367611838328
30
0
41
1
10
61.9232755549473
20
-6.29704616876029
30
0
41
1
10
61.9983042547861
20
-6.4987907679066
30
0
41
1
10
62.1483616544637
20
-6.81886073912111
30
0
41
1
10
62.2233903543025
20
-6.93724737214245
30
0
41
1
10
62.37344775398
20
-7.09580670499057
30
0
41
1
10
62.4484764538188
20
-7.13608182821824
30
0
41
1
10
62.5422623286173
20
-7.14464663714125
30
0
41
1
10
62.5610195035769
20
-7.14431075217408
30
0
41
1
10
62.5985338534963
20
-7.13949026725214
30
0
41
1
10
62.617291028456
20
-7.13498441080654
30
0
41
1
10
62.6735625533351
20
-7.11488560130883
30
0
41
1
10
62.7110769032545
20
-7.09270202698394
30
0
41
1
10
62.8236199530126
20
-6.99772967236405
30
0
41
1
10
62.8986486528514
20
-6.89629057564599
30
0
41
1
10
63.0487060525289
20
-6.61056703704296
30
0
41
1
10
63.1237347523677
20
-6.42620912548054
30
0
41
1
10
63.2737921520453
20
-5.97610840783716
30
0
41
1
10
63.3488208518839
20
-5.7103645075116
30
0
41
1
10
63.4988782515616
20
-5.10848188478769
30
0
41
1
10
63.5739069514003
20
-4.7724283358296
30
0
41
1
10
63.7239643510779
20
-4.04919981196466
30
0
41
1
10
63.7989930509166
20
-3.66216841985604
30
0
41
1
10
63.9490504505943
20
-2.86096325958908
30
0
41
1
10
64.024079150433
20
-2.44693643319229
30
0
41
1
10
64.1741365501105
20
-1.61584472608251
30
0
41
1
10
64.2491652499493
20
-1.19888153809885
30
0
41
1
10
64.3617082997075
20
-0.586408805568624
30
0
41
1
10
64.3992226496268
20
-0.384374285359598
30
0
41
1
10
64.4461155870261
20
-0.13572727643222
30
0
41
1
10
64.4554941745059
20
-0.0861917444020719
30
0
41
1
10
64.4742513494656
20
0.0124643002226605
30
0
41
1
10
64.4836299369455
20
0.0616645955369677
30
0
41
1
10
64.511765699385
20
0.210262481653132
30
0
41
1
10
64.5305228743447
20
0.310131569943877
30
0
41
1
10
64.6243087491432
20
0.812920084401185
30
0
41
1
10
64.699337448982
20
1.2263925387393
30
0
41
1
10
64.8493948486595
20
2.05735979783412
30
0
41
1
10
64.9244235484982
20
2.47477241373164
30
0
41
1
10
65.0744809481757
20
3.29045475180442
30
0
41
1
10
65.1495096480145
20
3.68858761498251
30
0
41
1
10
65.2995670476921
20
4.44122955906451
30
0
41
1
10
65.3745957475309
20
4.79558770335592
30
0
41
1
10
65.5246531472084
20
5.43938625472825
30
0
41
1
10
65.5996818470472
20
5.72871840521995
30
0
41
1
10
65.7497392467247
20
6.22846457362408
30
0
41
1
10
65.8247679465635
20
6.43885232884639
30
0
41
1
10
65.8997966464023
20
6.60749583387479
30
0
0
SPLINE
5
EB
100
AcDbEntity
8
1
62
256
6
ByLayer
370
13
48
1
60
0
100
AcDbSpline
70
4
71
3
72
86
73
82
40
0
40
0
40
0
40
0
40
0.0312500000000001
40
0.0312500000000001
40
0.0625000000000002
40
0.0625000000000002
40
0.0937500000000003
40
0.0937500000000003
40
0.109375
40
0.109375
40
0.125
40
0.125
40
0.140625
40
0.140625
40
0.15625
40
0.15625
40
0.1875
40
0.1875
40
0.21875
40
0.21875
40
0.25
40
0.25
40
0.28125
40
0.28125
40
0.312499999999999
40
0.312499999999999
40
0.343749999999999
40
0.343749999999999
40
0.359374999999999
40
0.359374999999999
40
0.374999999999999
40
0.374999999999999
40
0.390624999999999
40
0.390624999999999
40
0.406249999999999
40
0.406249999999999
40
0.437499999999999
40
0.437499999999999
40
0.468749999999999
40
0.468749999999999
40
0.499999999999999
40
0.499999999999999
40
0.531249999999999
40
0.531249999999999
40
0.5625
40
0.5625
40
0.59375
40
0.59375
40
0.609375
40
0.609375
40
0.625
40
0.625
40
0.640625
40
0.640625
40
0.65625
40
0.65625
40
0.6875
40
0.6875
40
0.71875
40
0.71875
40
0.75
40
0.75
40
0.78125
40
0.78125
40
0.8125
40
0.8125
40
0.84375
40
0.84375
40
0.859375
40
0.859375
40
0.875
40
0.875
40
0.890625
40
0.890625
40
0.90625
40
0.90625
40
0.9375
40
0.9375
40
0.96875
40
0.96875
40
1
40
1
40
1
40
1
41
1
10
58.2000003849898
20
7.144
30
0
41
1
10
58.2802065960462
20
7.144
30
0
41
1
10
58.3604128071026
20
7.10657725086674
30
0
41
1
10
58.5208252292153
20
6.94288987762238
30
0
41
1
10
58.6010314402717
20
6.81648179042378
30
0
41
1
10
58.7614438623845
20
6.46833355960069
30
0
41
1
10
58.8416500734409
20
6.24651127206579
30
0
41
1
10
58.9619593900255
20
5.84598844242146
30
0
41
1
10
59.0020624955537
20
5.7012802124608
30
0
41
1
10
59.08226870661
20
5.39125445713563
30
0
41
1
10
59.1223718121382
20
5.22594013436549
30
0
41
1
10
59.2025780231945
20
4.87720197371371
30
0
41
1
10
59.2426811287228
20
4.69378312170537
30
0
41
1
10
59.3228873397791
20
4.31191702380607
30
0
41
1
10
59.3629904453074
20
4.11347599669153
30
0
41
1
10
59.4832997618919
20
3.50084836010882
30
0
41
1
10
59.5635059729483
20
3.06937128068282
30
0
41
1
10
59.723918395061
20
2.18996672100136
30
0
41
1
10
59.8041246061174
20
1.74221749080687
30
0
41
1
10
59.9645370282302
20
0.857671530831141
30
0
41
1
10
60.0447432392865
20
0.420964733505002
30
0
41
1
10
60.2051556613993
20
-0.420963723190852
30
0
41
1
10
60.2853618724557
20
-0.857670477770171
30
0
41
1
10
60.4457742945684
20
-1.7422164209575
30
0
41
1
10
60.5259805056249
20
-2.18996565252817
30
0
41
1
10
60.6863929277376
20
-3.06937023858498
30
0
41
1
10
60.7665991387939
20
-3.50084734306637
30
0
41
1
10
60.8869084553786
20
-4.11347503490632
30
0
41
1
10
60.9270115609067
20
-4.31191608334623
30
0
41
1
10
61.0072177719631
20
-4.69378222920778
30
0
41
1
10
61.0473208774913
20
-4.87720110785165
30
0
41
1
10
61.1275270885477
20
-5.22593932628422
30
0
41
1
10
61.1676301940758
20
-5.39125368019722
30
0
41
1
10
61.2478364051323
20
-5.70127950127537
30
0
41
1
10
61.2879395106605
20
-5.84598776584298
30
0
41
1
10
61.408248827245
20
-6.24651070271284
30
0
41
1
10
61.4884550383014
20
-6.46833306623918
30
0
41
1
10
61.6488674604141
20
-6.81648144822933
30
0
41
1
10
61.7290736714705
20
-6.942889610527
30
0
41
1
10
61.8894860935833
20
-7.10657712511227
30
0
41
1
10
61.9696923046397
20
-7.14399994046658
30
0
41
1
10
62.1301047267525
20
-7.14400005953325
30
0
41
1
10
62.2103109378088
20
-7.10657737662106
30
0
41
1
10
62.3707233599216
20
-6.94289014471758
30
0
41
1
10
62.450929570978
20
-6.81648213261806
30
0
41
1
10
62.6113419930907
20
-6.46833405296201
30
0
41
1
10
62.6915482041471
20
-6.24651184141854
30
0
41
1
10
62.8118575207317
20
-5.84598911899977
30
0
41
1
10
62.8519606262599
20
-5.70128092364604
30
0
41
1
10
62.9321668373162
20
-5.39125523407387
30
0
41
1
10
62.9722699428444
20
-5.22594094244658
30
0
41
1
10
63.0524761539008
20
-4.87720283957566
30
0
41
1
10
63.092579259429
20
-4.69378401420283
30
0
41
1
10
63.1727854704853
20
-4.31191796426583
30
0
41
1
10
63.2128885760136
20
-4.11347695847664
30
0
41
1
10
63.3331978925982
20
-3.50084937715115
30
0
41
1
10
63.4134041036546
20
-3.06937232278057
30
0
41
1
10
63.5738165257673
20
-2.18996778947454
30
0
41
1
10
63.6540227368237
20
-1.74221856065623
30
0
41
1
10
63.8144351589364
20
-0.857672583892139
30
0
41
1
10
63.8946413699928
20
-0.420965768478709
30
0
41
1
10
64.0550537921056
20
0.420962737536172
30
0
41
1
10
64.1352600031619
20
0.857669424709229
30
0
41
1
10
64.2956724252747
20
1.74221535110817
30
0
41
1
10
64.3758786363311
20
2.18996458405496
30
0
41
1
10
64.5362910584439
20
3.06936919648712
30
0
41
1
10
64.6164972695003
20
3.50084632602389
30
0
41
1
10
64.7368065860848
20
4.11347407312101
30
0
41
1
10
64.776909691613
20
4.31191514288631
30
0
41
1
10
64.8571159026694
20
4.69378133671012
30
0
41
1
10
64.8972190081976
20
4.87720024198941
30
0
41
1
10
64.9774252192539
20
5.22593851820284
30
0
41
1
10
65.0175283247821
20
5.3912529032587
30
0
41
1
10
65.0977345358385
20
5.70127879008979
30
0
41
1
10
65.1378376413667
20
5.84598708926436
30
0
41
1
10
65.2581469579513
20
6.24651013335975
30
0
41
1
10
65.3383531690076
20
6.46833257287753
30
0
41
1
10
65.4987655911203
20
6.8164811060347
30
0
41
1
10
65.5789718021767
20
6.94288934343143
30
0
41
1
10
65.7393842242895
20
7.1065769993576
30
0
41
1
10
65.819590435346
20
7.14399988093305
30
0
41
1
10
65.8997966464023
20
7.14399999999972
30
0
0
SPLINE
5
EC
100
AcDbEntity
8
1
62
256
6
ByLayer
370
13
48
1
60
0
100
AcDbSpline
70
4
71
3
72
85
73
81
40
0
40
0
40
0
40
0
40
0.03125
40
0.03125
40
0.0625
40
0.0625
40
0.09375
40
0.09375
40
0.125
40
0.125
40
0.15625
40
0.15625
40
0.1875
40
0.1875
40
0.1953125
40
0.1953125
40
0.19921875
40
0.19921875
40
0.203125
40
0.203125
40
0.21875
40
0.21875
40
0.25
40
0.25
40
0.28125
40
0.28125
40
0.3125
40
0.3125
40
0.34375
40
0.34375
40
0.375
40
0.375
40
0.40625
40
0.40625
40
0.4375
40
0.4375
40
0.453125
40
0.453125
40
0.4609375
40
0.4609375
40
0.46875
40
0.46875
40
0.5
40
0.5
40
0.53125
40
0.53125
40
0.5625
40
0.5625
40
0.59375
40
0.59375
40
0.625
40
0.625
40
0.65625
40
0.65625
40
0.687499999999999
40
0.687499999999999
40
0.718749999999999
40
0.718749999999999
40
0.726562499999999
40
0.730468749999999
40
0.730468749999999
40
0.734374999999999
40
0.734374999999999
40
0.749999999999999
40
0.749999999999999
40
0.781249999999999
40
0.781249999999999
40
0.812499999999999
40
0.812499999999999
40
0.843749999999999
40
0.843749999999999
40
0.875
40
0.875
40
0.90625
40
0.90625
40
0.9375
40
0.9375
40
0.96875
40
0.96875
40
1
40
1
40
1
40
1
41
1
10
58.2
20
6.60749756457196
30
0
41
1
10
58.2750287078594
20
6.43885432443903
30
0
41
1
10
58.3500574157188
20
6.22846682543278
30
0
41
1
10
58.5001148314376
20
5.72872112176816
30
0
41
1
10
58.575143539297
20
5.43938917952028
30
0
41
1
10
58.7252009550158
20
4.79559097258894
30
0
41
1
10
58.8002296628751
20
4.44123296433398
30
0
41
1
10
58.9502870785939
20
3.6885912095542
30
0
41
1
10
59.0253157864534
20
3.29045839967793
30
0
41
1
10
59.1753732021722
20
2.47477609040743
30
0
41
1
10
59.2504019100315
20
2.0573634502008
30
0
41
1
10
59.4004593257503
20
1.22639608168293
30
0
41
1
10
59.4754880336097
20
0.812923542459828
30
0
41
1
10
59.569273918434
20
0.310134897808609
30
0
41
1
10
59.5880310953988
20
0.210265782278071
30
0
41
1
10
59.616166860846
20
0.0616678537577968
30
0
41
1
10
59.6255454493286
20
0.0124675394217491
30
0
41
1
10
59.6443026262934
20
-0.0861884975649616
30
0
41
1
10
59.6536812147758
20
-0.135724026111006
30
0
41
1
10
59.7005741571879
20
-0.384371019354148
30
0
41
1
10
59.7380885111176
20
-0.586405532582035
30
0
41
1
10
59.8506315729067
20
-1.19887826300703
30
0
41
1
10
59.9256602807661
20
-1.61584147495847
30
0
41
1
10
60.0757176964848
20
-2.44693328752709
30
0
41
1
10
60.1507464043443
20
-2.86096019551519
30
0
41
1
10
60.300803820063
20
-3.66216557412076
30
0
41
1
10
60.3758325279224
20
-4.04919710295965
30
0
41
1
10
60.5258899436412
20
-4.77242594213334
30
0
41
1
10
60.6009186515006
20
-5.1084796695167
30
0
41
1
10
60.7509760672193
20
-5.71036266925572
30
0
41
1
10
60.8260047750787
20
-5.97610676794827
30
0
41
1
10
60.9760621907975
20
-6.42620787840315
30
0
41
1
10
61.051090898657
20
-6.61056598422692
30
0
41
1
10
61.2011483143757
20
-6.8962898874502
30
0
41
1
10
61.2761770222352
20
-6.99772915445575
30
0
41
1
10
61.3887200840242
20
-7.09270173769642
30
0
41
1
10
61.426234437954
20
-7.11488538382912
30
0
41
1
10
61.4825059688485
20
-7.13498429394525
30
0
41
1
10
61.5012631458132
20
-7.13949018275216
30
0
41
1
10
61.538777499743
20
-7.14431073000355
30
0
41
1
10
61.5575346767079
20
-7.14464664446808
30
0
41
1
10
61.6513205615321
20
-7.13608198568843
30
0
41
1
10
61.7263492693915
20
-7.0958069875289
30
0
41
1
10
61.8764066851103
20
-6.93724790320852
30
0
41
1
10
61.9514353929696
20
-6.81886139356024
30
0
41
1
10
62.1014928086885
20
-6.49879165317367
30
0
41
1
10
62.1765215165479
20
-6.29704716134904
30
0
41
1
10
62.3265789322667
20
-5.8136772960433
30
0
41
1
10
62.401607640126
20
-5.5320689786343
30
0
41
1
10
62.5516650558449
20
-4.90187787821398
30
0
41
1
10
62.6266937637043
20
-4.55339605045299
30
0
41
1
10
62.7767511794231
20
-3.81006482566678
30
0
41
1
10
62.8517798872824
20
-3.41536455992042
30
0
41
1
10
63.0018373030013
20
-2.60398001368338
30
0
41
1
10
63.0768660108606
20
-2.18743645331969
30
0
41
1
10
63.2269234265794
20
-1.35595676997806
30
0
41
1
10
63.3019521344388
20
-0.941109467082981
30
0
41
1
10
63.395738019263
20
-0.435563914138839
30
0
41
1
10
63.4238737847103
20
-0.284855840527314
30
0
41
1
10
63.4520095501575
20
-0.135851546798818
30
0
41
1
10
63.4707667271224
20
-0.0369211727531251
30
0
41
1
10
63.4801453156048
20
0.0122092518898853
30
0
41
1
10
63.5270382580169
20
0.259194134549148
30
0
41
1
10
63.5645526119466
20
0.46008171326207
30
0
41
1
10
63.6770956737357
20
1.06978191184604
30
0
41
1
10
63.7521243815951
20
1.48579489585728
30
0
41
1
10
63.9021817973139
20
2.31731926287429
30
0
41
1
10
63.9772105051732
20
2.73273531142871
30
0
41
1
10
64.1272679208921
20
3.53929468065419
30
0
41
1
10
64.2022966287515
20
3.93029390976548
30
0
41
1
10
64.3523540444702
20
4.66381785239068
30
0
41
1
10
64.4273827523296
20
5.0061958878845
30
0
41
1
10
64.5774401680485
20
5.62240935949308
30
0
41
1
10
64.6524688759079
20
5.89615154945017
30
0
41
1
10
64.8025262916266
20
6.36296604651616
30
0
41
1
10
64.877554999486
20
6.55603043263213
30
0
41
1
10
65.0276124152048
20
6.85890614413015
30
0
41
1
10
65.1026411230641
20
6.96878505982016
30
0
41
1
10
65.252698538783
20
7.11127991339143
30
0
41
1
10
65.3277272466424
20
7.144
30
0
41
1
10
65.4027559545017
20
7.144
30
0
0
SPLINE
5
ED
100
AcDbEntity
8
1
62
256
6
ByLayer
370
13
48
1
60
0
100
AcDbSpline
70
4
71
3
72
85
73
81
40
0
40
0
40
0
40
0
40
0.0312500000000017
40
0.0312500000000017
40
0.0625000000000034
40
0.0625000000000034
40
0.0937500000000051
40
0.0937500000000051
40
0.125000000000007
40
0.125000000000007
40
0.132812500000007
40
0.136718750000007
40
0.136718750000007
40
0.140625000000007
40
0.140625000000007
40
0.156250000000007
40
0.156250000000007
40
0.187500000000007
40
0.187500000000007
40
0.218750000000006
40
0.218750000000006
40
0.250000000000006
40
0.250000000000006
40
0.281250000000006
40
0.281250000000006
40
0.312500000000005
40
0.312500000000005
40
0.343750000000005
40
0.343750000000005
40
0.375000000000004
40
0.375000000000004
40
0.406250000000004
40
0.406250000000004
40
0.421875000000004
40
0.421875000000004
40
0.429687500000004
40
0.429687500000004
40
0.437500000000003
40
0.437500000000003
40
0.468750000000003
40
0.468750000000003
40
0.500000000000003
40
0.500000000000003
40
0.531250000000002
40
0.531250000000002
40
0.562500000000002
40
0.562500000000002
40
0.593750000000001
40
0.593750000000001
40
0.625000000000001
40
0.625000000000001
40
0.65625
40
0.65625
40
0.687499999999999
40
0.687499999999999
40
0.703124999999999
40
0.703124999999999
40
0.710937499999999
40
0.710937499999999
40
0.714843749999999
40
0.714843749999999
40
0.718749999999999
40
0.718749999999999
40
0.749999999999999
40
0.749999999999999
40
0.781249999999999
40
0.781249999999999
40
0.812499999999999
40
0.812499999999999
40
0.843749999999999
40
0.843749999999999
40
0.875
40
0.875
40
0.90625
40
0.90625
40
0.9375
40
0.9375
40
0.96875
40
0.96875
40
1
40
1
40
1
40
1
41
1
10
58.2000000000001
20
4.91229855962135
30
0
41
1
10
58.2698511966418
20
4.60049319258894
30
0
41
1
10
58.3397023932836
20
4.26228543851968
30
0
41
1
10
58.4794047865671
20
3.55072562365604
30
0
41
1
10
58.5492559832089
20
3.17748037392835
30
0
41
1
10
58.6889583764925
20
2.41566369296606
30
0
41
1
10
58.7588095731343
20
2.02718615717808
30
0
41
1
10
58.8985119664179
20
1.25356944328192
30
0
41
1
10
58.9683631630596
20
0.868487726314754
30
0
41
1
10
59.0556771588618
20
0.398700798181323
30
0
41
1
10
59.0818713576026
20
0.258616484629329
30
0
41
1
10
59.1080655563432
20
0.120025591495334
30
0
41
1
10
59.1255283555036
20
0.0279853722613552
30
0
41
1
10
59.1342597550839
20
-0.017754427770825
30
0
41
1
10
59.177916752985
20
-0.24772320858861
30
0
41
1
10
59.2128423513059
20
-0.434553679651287
30
0
41
1
10
59.3176191462686
20
-1.0013167233387
30
0
41
1
10
59.3874703429104
20
-1.38764647684968
30
0
41
1
10
59.527172736194
20
-2.16175410107536
30
0
41
1
10
59.5970239328357
20
-2.54946969594826
30
0
41
1
10
59.7367263261193
20
-3.30747892783978
30
0
41
1
10
59.8065775227611
20
-3.67767564079324
30
0
41
1
10
59.9462799160447
20
-4.38090960569764
30
0
41
1
10
60.0161311126864
20
-4.71384073124514
30
0
41
1
10
60.15583350597
20
-5.325098965037
30
0
41
1
10
60.2256847026118
20
-5.60334552562284
30
0
41
1
10
60.3653870958954
20
-6.09301823491035
30
0
41
1
10
60.4352382925372
20
-6.30441549090978
30
0
41
1
10
60.5749406858207
20
-6.65512640939428
30
0
41
1
10
60.6447918824625
20
-6.79446645865903
30
0
41
1
10
60.7844942757461
20
-7.00278086156661
30
0
41
1
10
60.8543454723879
20
-7.0718189952112
30
0
41
1
10
60.9591222673506
20
-7.12804862622764
30
0
41
1
10
60.9940478656713
20
-7.13894055929487
30
0
41
1
10
61.0464362631527
20
-7.14442898416411
30
0
41
1
10
61.0638990623132
20
-7.14447216821029
30
0
41
1
10
61.0988246606341
20
-7.14099212339337
30
0
41
1
10
61.1162874597946
20
-7.13744723352113
30
0
41
1
10
61.2036014555968
20
-7.1102981347816
30
0
41
1
10
61.2734526522386
20
-7.0582738865551
30
0
41
1
10
61.4131550455222
20
-6.88541079803599
30
0
41
1
10
61.483006242164
20
-6.76450286217849
30
0
41
1
10
61.6227086354475
20
-6.45049140161737
30
0
41
1
10
61.6925598320893
20
-6.25734959004379
30
0
41
1
10
61.8322622253728
20
-5.80217519975261
30
0
41
1
10
61.9021134220146
20
-5.54015669478446
30
0
41
1
10
62.0418158152982
20
-4.95765346350771
30
0
41
1
10
62.11166701194
20
-4.6372377826722
30
0
41
1
10
62.2513694052236
20
-3.9542239624389
30
0
41
1
10
62.3212206018653
20
-3.59172869810229
30
0
41
1
10
62.4609229951489
20
-2.84401784095337
30
0
41
1
10
62.5307741917907
20
-2.45890459054434
30
0
41
1
10
62.6704765850742
20
-1.68538348573645
30
0
41
1
10
62.740327781716
20
-1.29704821134567
30
0
41
1
10
62.8451045766788
20
-0.724573320401788
30
0
41
1
10
62.8800301749997
20
-0.535391344752838
30
0
41
1
10
62.932418572481
20
-0.255340527267521
30
0
41
1
10
62.9498813716414
20
-0.162608406750621
30
0
41
1
10
62.9760755703821
20
-0.0245743914617265
30
0
41
1
10
62.9848069699623
20
0.0211640763080254
30
0
41
1
10
63.0022697691227
20
0.113169184186688
30
0
41
1
10
63.011001168703
20
0.159349224414115
30
0
41
1
10
63.089583764925
20
0.576466961334035
30
0
41
1
10
63.1594349615668
20
0.958070564657902
30
0
41
1
10
63.2991373548504
20
1.72899477549009
30
0
41
1
10
63.3689885514921
20
2.11826874516501
30
0
41
1
10
63.5086909447757
20
2.88666732743263
30
0
41
1
10
63.5785421414175
20
3.26570585978933
30
0
41
1
10
63.7182445347011
20
3.99387121347078
30
0
41
1
10
63.7880957313428
20
4.34289141971692
30
0
41
1
10
63.9277981246264
20
4.99234428055212
30
0
41
1
10
63.9976493212682
20
5.29268295237733
30
0
41
1
10
64.1373517145518
20
5.83032811638429
30
0
41
1
10
64.2072029111936
20
6.06758473191974
30
0
41
1
10
64.3469053044772
20
6.47112055576613
30
0
41
1
10
64.416756501119
20
6.63740673437783
30
0
41
1
10
64.5564588944025
20
6.89822542735666
30
0
41
1
10
64.6263100910443
20
6.99281079013488
30
0
41
1
10
64.7660124843278
20
7.1156612515214
30
0
41
1
10
64.8358636809696
20
7.144
30
0
41
1
10
64.9057148776114
20
7.144
30
0
0
SPLINE
5
EE
100
AcDbEntity
8
1
62
256
6
ByLayer
370
13
48
1
60
0
100
AcDbSpline
70
4
71
3
72
83
73
79
40
0
40
0
40
0
40
0
40
0.0312499999999991
40
0.0312499999999991
40
0.0624999999999981
40
0.0624999999999981
40
0.0703124999999979
40
0.0703124999999979
40
0.0781249999999977
40
0.0781249999999977
40
0.0937499999999972
40
0.0937499999999972
40
0.124999999999996
40
0.124999999999996
40
0.156249999999995
40
0.156249999999995
40
0.187499999999994
40
0.187499999999994
40
0.218749999999993
40
0.218749999999993
40
0.249999999999993
40
0.249999999999993
40
0.281249999999992
40
0.281249999999992
40
0.312499999999991
40
0.312499999999991
40
0.34374999999999
40
0.34374999999999
40
0.374999999999989
40
0.374999999999989
40
0.382812499999989
40
0.382812499999989
40
0.390624999999989
40
0.390624999999989
40
0.406249999999989
40
0.406249999999989
40
0.437499999999988
40
0.437499999999988
40
0.468749999999988
40
0.468749999999988
40
0.499999999999988
40
0.499999999999988
40
0.531249999999987
40
0.531249999999987
40
0.562499999999987
40
0.562499999999987
40
0.593749999999987
40
0.593749999999987
40
0.624999999999987
40
0.624999999999987
40
0.656249999999986
40
0.656249999999986
40
0.687499999999986
40
0.687499999999986
40
0.691406249999986
40
0.691406249999986
40
0.695312499999986
40
0.703124999999987
40
0.703124999999987
40
0.718749999999987
40
0.718749999999987
40
0.749999999999989
40
0.749999999999989
40
0.78124999999999
40
0.78124999999999
40
0.812499999999992
40
0.812499999999992
40
0.843749999999993
40
0.843749999999993
40
0.874999999999994
40
0.874999999999994
40
0.906249999999996
40
0.906249999999996
40
0.937499999999997
40
0.937499999999997
40
0.968749999999999
40
0.968749999999999
40
1
40
1
40
1
40
1
41
1
10
58.2
20
2.36890562784188
30
0
41
1
10
58.2646736854242
20
2.01218919975932
30
0
41
1
10
58.3293473708484
20
1.65205389094166
30
0
41
1
10
58.4586947416967
20
0.938864223607737
30
0
41
1
10
58.5233684271208
20
0.585840393148828
30
0
41
1
10
58.6042105339011
20
0.1559347154909
30
0
41
1
10
58.6203789552572
20
0.0706429505608241
30
0
41
1
10
58.6527157979693
20
-0.0992178569662485
30
0
41
1
10
58.6688842193253
20
-0.184771357483783
30
0
41
1
10
58.7173894833934
20
-0.443089032264055
30
0
41
1
10
58.7497263261056
20
-0.617516941549297
30
0
41
1
10
58.8467368542418
20
-1.14551224088029
30
0
41
1
10
58.911410539666
20
-1.50387982448717
30
0
41
1
10
59.0407579105143
20
-2.2206734508855
30
0
41
1
10
59.1054315959385
20
-2.57905497937293
30
0
41
1
10
59.2347789667868
20
-3.28083686872586
30
0
41
1
10
59.2994526522111
20
-3.62417113811458
30
0
41
1
10
59.4288000230594
20
-4.28018678484759
30
0
41
1
10
59.4934737084836
20
-4.59279545241458
30
0
41
1
10
59.6228210793319
20
-5.17320492809077
30
0
41
1
10
59.6874947647561
20
-5.44094683944471
30
0
41
1
10
59.8168421356045
20
-5.92103901199599
30
0
41
1
10
59.8815158210286
20
-6.13336098576062
30
0
41
1
10
60.010863191877
20
-6.49696524440006
30
0
41
1
10
60.0755368773011
20
-6.64825517545722
30
0
41
1
10
60.2048842481495
20
-6.88940032978195
30
0
41
1
10
60.2695579335737
20
-6.97929169507412
30
0
41
1
10
60.398905304422
20
-7.10180181530939
30
0
41
1
10
60.4635789898462
20
-7.13447039762261
30
0
41
1
10
60.5444210966265
20
-7.14411645247031
30
0
41
1
10
60.5605895179825
20
-7.14450342010088
30
0
41
1
10
60.5929263606946
20
-7.14224288460375
30
0
41
1
10
60.6090947820506
20
-7.13957568674042
30
0
41
1
10
60.6576000461188
20
-7.12677060231195
30
0
41
1
10
60.6899368888309
20
-7.11182454388862
30
0
41
1
10
60.7869474169671
20
-7.04636117595851
30
0
41
1
10
60.8516211023913
20
-6.9751055131747
30
0
41
1
10
60.9809684732397
20
-6.77211713943726
30
0
41
1
10
61.0456421586639
20
-6.64034225015754
30
0
41
1
10
61.1749895295122
20
-6.31511297273616
30
0
41
1
10
61.2396632149365
20
-6.1216406717646
30
0
41
1
10
61.3690105857847
20
-5.6769241650199
30
0
41
1
10
61.4336842712089
20
-5.42569686420671
30
0
41
1
10
61.5630316420572
20
-4.87453508089959
30
0
41
1
10
61.6277053274814
20
-4.57465124339871
30
0
41
1
10
61.7570526983298
20
-3.93936748506209
30
0
41
1
10
61.8217263837539
20
-3.60403815705007
30
0
41
1
10
61.9510737546023
20
-2.91329853978445
30
0
41
1
10
62.0157474400265
20
-2.55795844636651
30
0
41
1
10
62.1450948108749
20
-1.84268417876586
30
0
41
1
10
62.209768496299
20
-1.48280233037926
30
0
41
1
10
62.3391158671474
20
-0.772084457280926
30
0
41
1
10
62.4037895525716
20
-0.421274765043677
30
0
41
1
10
62.4765474486738
20
-0.0376598482952488
30
0
41
1
10
62.4846316593517
20
0.0047097115687791
30
0
41
1
10
62.5008000807078
20
0.0897999328381047
30
0
41
1
10
62.5250527127418
20
0.217895492019608
30
0
41
1
10
62.549305344776
20
0.34729456658161
30
0
41
1
10
62.5978106088441
20
0.607606080208654
30
0
41
1
10
62.6301474515561
20
0.783171334737688
30
0
41
1
10
62.7271579796924
20
1.3139047078856
30
0
41
1
10
62.7918316651167
20
1.67319375350311
30
0
41
1
10
62.921179035965
20
2.38958314124559
30
0
41
1
10
62.9858527213892
20
2.74663498419557
30
0
41
1
10
63.1152000922375
20
3.44328209499773
30
0
41
1
10
63.1798737776617
20
3.78280901169154
30
0
41
1
10
63.3092211485101
20
4.42882571050708
30
0
41
1
10
63.3738948339342
20
4.73524357718628
30
0
41
1
10
63.5032422047825
20
5.30132404554587
30
0
41
1
10
63.5679158902068
20
5.56093167810877
30
0
41
1
10
63.6972632610551
20
6.02351833575014
30
0
41
1
10
63.7619369464794
20
6.22647472507629
30
0
41
1
10
63.8912843173276
20
6.57094457377846
30
0
41
1
10
63.9559580027518
20
6.71247093187449
30
0
41
1
10
64.0853053736002
20
6.93447084625527
30
0
41
1
10
64.1499790590244
20
7.01498375964485
30
0
41
1
10
64.2793264298728
20
7.11972306025118
30
0
41
1
10
64.3440001152969
20
7.144
30
0
41
1
10
64.4086738007211
20
7.144
30
0
0
SPLINE
5
EF
100
AcDbEntity
8
1
62
256
6
ByLayer
370
13
48
1
60
0
100
AcDbSpline
70
4
71
3
72
8
73
4
40
0
40
0
40
0
40
0
40
1
40
1
40
1
40
1
41
1
10
65.8997966464022
20
-1.16295174559821
30
0
41
1
10
66.7665310976015
20
-0.769191805993728
30
0
41
1
10
67.6332655488009
20
-0.381539920548732
30
0
41
1
10
68.5000000000002
20
8.53E-14
30
0
0
SPLINE
5
F0
100
AcDbEntity
8
1
62
256
6
ByLayer
370
13
48
1
60
0
100
AcDbSpline
70
4
71
3
72
8
73
4
40
0
40
0
40
0
40
0
40
1
40
1
40
1
40
1
41
1
10
65.8997966464022
20
2.39727334747448
30
0
41
1
10
66.7665310976015
20
1.6040151559458
30
0
41
1
10
67.6332655488008
20
0.8049213321992
30
0
41
1
10
68.5000000000001
20
-5.68E-14
30
0
0
SPLINE
5
F1
100
AcDbEntity
8
1
62
256
6
ByLayer
370
13
48
1
60
0
100
AcDbSpline
70
4
71
3
72
8
73
4
40
0
40
0
40
0
40
0
40
1
40
1
40
1
40
1
41
1
10
65.8997966464022
20
-4.43203468360696
30
0
41
1
10
66.7665310976015
20
-2.94983346081529
30
0
41
1
10
67.6332655488008
20
-1.47248357754785
30
0
41
1
10
68.5000000000001
20
8.53E-14
30
0
0
SPLINE
5
F2
100
AcDbEntity
8
1
62
256
6
ByLayer
370
13
48
1
60
0
100
AcDbSpline
70
4
71
3
72
8
73
4
40
0
40
0
40
0
40
0
40
1
40
1
40
1
40
1
41
1
10
65.8997966464022
20
3.80663727860332
30
0
41
1
10
66.7665310976015
20
2.53251847319399
30
0
41
1
10
67.6332655488008
20
1.26363509675068
30
0
41
1
10
68.5000000000001
20
-8.53E-14
30
0
0
SPLINE
5
F3
100
AcDbEntity
8
1
62
256
6
ByLayer
370
13
48
1
60
0
100
AcDbSpline
70
4
71
3
72
8
73
4
40
0
40
0
40
0
40
0
40
1
40
1
40
1
40
1
41
1
10
65.8997966464022
20
1.23419922326184
30
0
41
1
10
66.7665310976014
20
0.828898330337978
30
0
41
1
10
67.6332655488007
20
0.417497191630389
30
0
41
1
10
68.5
20
2.84E-14
30
0
0
SPLINE
5
F4
100
AcDbEntity
8
1
62
256
6
ByLayer
370
13
48
1
60
0
100
AcDbSpline
70
4
71
3
72
8
73
4
40
0
40
0
40
0
40
0
40
1
40
1
40
1
40
1
41
1
10
65.8997966464022
20
5.59210662504148
30
0
41
1
10
66.7665310976015
20
3.72421776100575
30
0
41
1
10
67.6332655488008
20
1.86017592224513
30
0
41
1
10
68.5000000000001
20
-1.137E-13
30
0
0
SPLINE
5
F5
100
AcDbEntity
8
1
62
256
6
ByLayer
370
13
48
1
60
0
100
AcDbSpline
70
4
71
3
72
8
73
4
40
0
40
0
40
0
40
0
40
1
40
1
40
1
40
1
41
1
10
65.8997966464022
20
-6.44201654422022
30
0
41
1
10
66.7665310976016
20
-4.29735437068248
30
0
41
1
10
67.6332655488009
20
-2.15000826045605
30
0
41
1
10
68.5000000000003
20
7.105E-13
30
0
0
SPLINE
5
F6
100
AcDbEntity
8
1
62
256
6
ByLayer
370
13
48
1
60
0
100
AcDbSpline
70
4
71
3
72
8
73
4
40
0
40
0
40
0
40
0
40
1
40
1
40
1
40
1
41
1
10
65.8997966464022
20
-5.30926245596217
30
0
41
1
10
66.7665310976015
20
-3.53536530711722
30
0
41
1
10
67.6332655488008
20
-1.76560517709689
30
0
41
1
10
68.5000000000001
20
1.137E-13
30
0
0
SPLINE
5
F7
100
AcDbEntity
8
1
62
256
6
ByLayer
370
13
48
1
60
0
100
AcDbSpline
70
4
71
3
72
8
73
4
40
0
40
0
40
0
40
0
40
1
40
1
40
1
40
1
41
1
10
65.8997966464022
20
3.49238556673274
30
0
41
1
10
66.7665310976015
20
2.33365868344657
30
0
41
1
10
67.6332655488008
20
1.16952621974781
30
0
41
1
10
68.5000000000001
20
-8.53E-14
30
0
0
SPLINE
5
F8
100
AcDbEntity
8
1
62
256
6
ByLayer
370
13
48
1
60
0
100
AcDbSpline
70
4
71
3
72
8
73
4
40
0
40
0
40
0
40
0
40
1
40
1
40
1
40
1
41
1
10
65.8997966464023
20
6.97622155071761
30
0
41
1
10
66.7665310976015
20
4.65214842573283
30
0
41
1
10
67.6332655488008
20
2.32673337955563
30
0
41
1
10
68.5
20
0
30
0
0
SPLINE
5
F9
100
AcDbEntity
8
1
62
256
6
ByLayer
370
13
48
1
60
0
100
AcDbSpline
70
4
71
3
72
8
73
4
40
0
40
0
40
0
40
0
40
1
40
1
40
1
40
1
41
1
10
65.8997966464022
20
-3.42916019672953
30
0
41
1
10
66.7665310976015
20
-2.2806748134619
30
0
41
1
10
67.6332655488008
20
-1.13761755655031
30
0
41
1
10
68.5000000000001
20
8.53E-14
30
0
0
SPLINE
5
FA
100
AcDbEntity
8
1
62
256
6
ByLayer
370
13
48
1
60
0
100
AcDbSpline
70
4
71
3
72
8
73
4
40
0
40
0
40
0
40
0
40
1
40
1
40
1
40
1
41
1
10
65.8997966464022
20
-1.98051660592836
30
0
41
1
10
66.7665310976015
20
-1.3262936562175
30
0
41
1
10
67.6332655488008
20
-0.666119215807669
30
0
41
1
10
68.5000000000001
20
5.68E-14
30
0
0
SPLINE
5
FB
100
AcDbEntity
8
1
62
256
6
ByLayer
370
13
48
1
60
0
100
AcDbSpline
70
4
71
3
72
8
73
4
40
0
40
0
40
0
40
0
40
1
40
1
40
1
40
1
41
1
10
65.8997966464022
20
-0.800832054964246
30
0
41
1
10
66.7665310976015
20
-0.540040960277679
30
0
41
1
10
67.6332655488008
20
-0.273096032611477
30
0
41
1
10
68.5000000000001
20
2.84E-14
30
0
0
SPLINE
5
FC
100
AcDbEntity
8
1
62
256
6
ByLayer
370
13
48
1
60
0
100
AcDbSpline
70
4
71
3
72
8
73
4
40
0
40
0
40
0
40
0
40
1
40
1
40
1
40
1
41
1
10
65.8997966464022
20
6.25873630754316
30
0
41
1
10
66.7665310976016
20
4.16950535762459
30
0
41
1
10
67.6332655488011
20
2.083252872532
30
0
41
1
10
68.5000000000006
20
-1.2221E-12
30
0
0
SPLINE
5
FD
100
AcDbEntity
8
1
62
256
6
ByLayer
370
13
48
1
60
0
100
AcDbSpline
70
4
71
3
72
8
73
4
40
0
40
0
40
0
40
0
40
1
40
1
40
1
40
1
41
1
10
65.8997966464023
20
5.35734685962137
30
0
41
1
10
66.7665310976015
20
3.57566080545348
30
0
41
1
10
67.6332655488008
20
1.78987247741227
30
0
41
1
10
68.5
20
0
30
0
0
SPLINE
5
FE
100
AcDbEntity
8
1
62
256
6
ByLayer
370
13
48
1
60
0
100
AcDbSpline
70
4
71
3
72
8
73
4
40
0
40
0
40
0
40
0
40
1
40
1
40
1
40
1
41
1
10
65.8997966464022
20
-7.10091903247388
30
0
41
1
10
66.7665310976014
20
-4.73462500445436
30
0
41
1
10
67.6332655488006
20
-2.367643991249
30
0
41
1
10
68.4999999999998
20
-4.547E-13
30
0
0
SPLINE
5
FF
100
AcDbEntity
8
1
62
256
6
ByLayer
370
13
48
1
60
0
100
AcDbSpline
70
4
71
3
72
8
73
4
40
0
40
0
40
0
40
0
40
1
40
1
40
1
40
1
41
1
10
65.8997966464022
20
7.04582781095769
30
0
41
1
10
66.7665310976015
20
4.69619555659503
30
0
41
1
10
67.6332655488008
20
2.34757834789181
30
0
41
1
10
68.5000000000001
20
-1.421E-13
30
0
0
SPLINE
5
100
100
AcDbEntity
8
1
62
256
6
ByLayer
370
13
48
1
60
0
100
AcDbSpline
70
4
71
3
72
8
73
4
40
0
40
0
40
0
40
0
40
1
40
1
40
1
40
1
41
1
10
65.8997966464022
20
1.59255971929048
30
0
41
1
10
66.7665310976015
20
1.05567034207923
30
0
41
1
10
67.6332655488008
20
0.524815314553877
30
0
41
1
10
68.5000000000001
20
-2.84E-14
30
0
0
SPLINE
5
101
100
AcDbEntity
8
1
62
256
6
ByLayer
370
13
48
1
60
0
100
AcDbSpline
70
4
71
3
72
8
73
4
40
0
40
0
40
0
40
0
40
1
40
1
40
1
40
1
41
1
10
65.8997966464022
20
-6.59156846449253
30
0
41
1
10
66.7665310976016
20
-4.39199144758064
30
0
41
1
10
67.6332655488009
20
-2.19479453444856
30
0
41
1
10
68.5000000000003
20
7.105E-13
30
0
0
SPLINE
5
102
100
AcDbEntity
8
1
62
256
6
ByLayer
370
13
48
1
60
0
100
AcDbSpline
70
4
71
3
72
8
73
4
40
0
40
0
40
0
40
0
40
1
40
1
40
1
40
1
41
1
10
65.8997966464022
20
-7.13169701485336
30
0
41
1
10
66.7665310976015
20
-4.75410143966081
30
0
41
1
10
67.6332655488008
20
-2.3768610654879
30
0
41
1
10
68.5000000000001
20
1.421E-13
30
0
0
SPLINE
5
103
100
AcDbEntity
8
1
62
256
6
ByLayer
370
13
48
1
60
0
100
AcDbSpline
70
4
71
3
72
8
73
4
40
0
40
0
40
0
40
0
40
1
40
1
40
1
40
1
41
1
10
65.8997966464022
20
-4.13959282199409
30
0
41
1
10
66.7665310976014
20
-2.76477503498373
30
0
41
1
10
67.6332655488006
20
-1.38490609063101
30
0
41
1
10
68.4999999999998
20
-2.842E-13
30
0
0
SPLINE
5
104
100
AcDbEntity
8
1
62
256
6
ByLayer
370
13
48
1
60
0
100
AcDbSpline
70
4
71
3
72
8
73
4
40
0
40
0
40
0
40
0
40
1
40
1
40
1
40
1
41
1
10
65.8997966464022
20
-5.83257170553051
30
0
41
1
10
66.7665310976015
20
-3.89195664967565
30
0
41
1
10
67.6332655488008
20
-1.94775950474801
30
0
41
1
10
68.5000000000001
20
1.137E-13
30
0
0
SPLINE
5
105
100
AcDbEntity
8
1
62
256
6
ByLayer
370
13
48
1
60
0
100
AcDbSpline
70
4
71
3
72
8
73
4
40
0
40
0
40
0
40
0
40
1
40
1
40
1
40
1
41
1
10
65.8997966464023
20
7.13557169257709
30
0
41
1
10
66.7665310976015
20
4.75734848148502
30
0
41
1
10
67.6332655488008
20
2.37881654295663
30
0
41
1
10
68.5
20
0
30
0
0
SPLINE
5
106
100
AcDbEntity
8
1
62
256
6
ByLayer
370
13
48
1
60
0
100
AcDbSpline
70
4
71
3
72
8
73
4
40
0
40
0
40
0
40
0
40
1
40
1
40
1
40
1
41
1
10
65.8997966464022
20
-6.03597439715855
30
0
41
1
10
66.7665310976015
20
-4.02067071856786
30
0
41
1
10
67.6332655488008
20
-2.00867245498949
30
0
41
1
10
68.5000000000001
20
1.421E-13
30
0
0
SPLINE
5
107
100
AcDbEntity
8
1
62
256
6
ByLayer
370
13
48
1
60
0
100
AcDbSpline
70
4
71
3
72
8
73
4
40
0
40
0
40
0
40
0
40
1
40
1
40
1
40
1
41
1
10
65.8997966464023
20
4.48848981253622
30
0
41
1
10
66.7665310976015
20
2.9971437606365
30
0
41
1
10
67.6332655488008
20
1.50097542654277
30
0
41
1
10
68.5
20
0
30
0
0
SPLINE
5
108
100
AcDbEntity
8
1
62
256
6
ByLayer
370
13
48
1
60
0
100
AcDbSpline
70
4
71
3
72
8
73
4
40
0
40
0
40
0
40
0
40
1
40
1
40
1
40
1
41
1
10
65.8997966464022
20
0.401555819365654
30
0
41
1
10
66.7665310976015
20
0.26152171791864
30
0
41
1
10
67.6332655488008
20
0.127669332606331
30
0
41
1
10
68.5000000000001
20
0
30
0
0
SPLINE
5
109
100
AcDbEntity
8
1
62
256
6
ByLayer
370
13
48
1
60
0
100
AcDbSpline
70
4
71
3
72
8
73
4
40
0
40
0
40
0
40
0
40
1
40
1
40
1
40
1
41
1
10
65.8997966464022
20
-6.86883234873906
30
0
41
1
10
66.7665310976015
20
-4.58092351940641
30
0
41
1
10
67.6332655488008
20
-2.29130499448482
30
0
41
1
10
68.5000000000001
20
1.421E-13
30
0
0
SPLINE
5
10A
100
AcDbEntity
8
1
62
256
6
ByLayer
370
13
48
1
60
0
100
AcDbSpline
70
4
71
3
72
8
73
4
40
0
40
0
40
0
40
0
40
1
40
1
40
1
40
1
41
1
10
65.8997966464022
20
2.73841507894116
30
0
41
1
10
66.7665310976015
20
1.81989106188664
30
0
41
1
10
67.6332655488008
20
0.907082956255408
30
0
41
1
10
68.5000000000001
20
-5.68E-14
30
0
0
SPLINE
5
10B
100
AcDbEntity
8
1
62
256
6
ByLayer
370
13
48
1
60
0
100
AcDbSpline
70
4
71
3
72
8
73
4
40
0
40
0
40
0
40
0
40
1
40
1
40
1
40
1
41
1
10
65.8997966464022
20
4.76694257292101
30
0
41
1
10
66.7665310976015
20
3.17334982505244
30
0
41
1
10
67.6332655488008
20
1.58436360101652
30
0
41
1
10
68.5000000000001
20
-1.137E-13
30
0
0
SPLINE
5
10C
100
AcDbEntity
8
1
62
256
6
ByLayer
370
13
48
1
60
0
100
AcDbSpline
70
4
71
3
72
8
73
4
40
0
40
0
40
0
40
0
40
1
40
1
40
1
40
1
41
1
10
65.8997966464022
20
-5.0577753918792
30
0
41
1
10
66.7665310976015
20
-3.3762232474287
30
0
41
1
10
67.6332655488008
20
-1.69029241255944
30
0
41
1
10
68.5000000000001
20
1.137E-13
30
0
0
SPLINE
5
10D
100
AcDbEntity
8
1
62
256
6
ByLayer
370
13
48
1
60
0
100
AcDbSpline
70
4
71
3
72
8
73
4
40
0
40
0
40
0
40
0
40
1
40
1
40
1
40
1
41
1
10
65.8997966464022
20
-2.32907015468439
30
0
41
1
10
66.7665310976015
20
-1.54685979095311
30
0
41
1
10
67.6332655488008
20
-0.770500454826362
30
0
41
1
10
68.5000000000001
20
5.68E-14
30
0
0
SPLINE
5
10E
100
AcDbEntity
8
1
62
256
6
ByLayer
370
13
48
1
60
0
100
AcDbSpline
70
4
71
3
72
8
73
4
40
0
40
0
40
0
40
0
40
1
40
1
40
1
40
1
41
1
10
65.8997966464022
20
-6.96029375027678
30
0
41
1
10
66.7665310976015
20
-4.63880067454275
30
0
41
1
10
67.6332655488008
20
-2.31869491620262
30
0
41
1
10
68.5000000000001
20
1.421E-13
30
0
0
SPLINE
5
10F
100
AcDbEntity
8
1
62
256
6
ByLayer
370
13
48
1
60
0
100
AcDbSpline
70
4
71
3
72
8
73
4
40
0
40
0
40
0
40
0
40
1
40
1
40
1
40
1
41
1
10
65.8997966464022
20
-3.10405416744942
30
0
41
1
10
66.7665310976015
20
-2.07494636653181
30
0
41
1
10
67.6332655488008
20
-1.04025813998487
30
0
41
1
10
68.5000000000001
20
5.68E-14
30
0
0
SPLINE
5
110
100
AcDbEntity
8
1
62
256
6
ByLayer
370
13
48
1
60
0
100
AcDbSpline
70
4
71
3
72
8
73
4
40
0
40
0
40
0
40
0
40
1
40
1
40
1
40
1
41
1
10
65.8997966464022
20
6.7479328898454
30
0
41
1
10
66.7665310976015
20
4.49658885911239
30
0
41
1
10
67.6332655488008
20
2.24727029426543
30
0
41
1
10
68.5000000000001
20
-1.421E-13
30
0
0
SPLINE
5
111
100
AcDbEntity
8
1
62
256
6
ByLayer
370
13
48
1
60
0
100
AcDbSpline
70
4
71
3
72
8
73
4
40
0
40
0
40
0
40
0
40
1
40
1
40
1
40
1
41
1
10
65.8997966464022
20
0.0361359600782691
30
0
41
1
10
66.7665310976015
20
0.0302825117585428
30
0
41
1
10
67.6332655488008
20
0.0182371440356519
30
0
41
1
10
68.5000000000001
20
0
30
0
0
SPLINE
5
112
100
AcDbEntity
8
1
62
256
6
ByLayer
370
13
48
1
60
0
100
AcDbSpline
70
4
71
3
72
8
73
4
40
0
40
0
40
0
40
0
40
1
40
1
40
1
40
1
41
1
10
65.8997966464023
20
6.61909783978638
30
0
41
1
10
66.7665310976015
20
4.41506150381394
30
0
41
1
10
67.6332655488008
20
2.20868809591408
30
0
41
1
10
68.5
20
0
30
0
0
SPLINE
5
113
100
AcDbEntity
8
1
62
256
6
ByLayer
370
13
48
1
60
0
100
AcDbSpline
70
4
71
3
72
8
73
4
40
0
40
0
40
0
40
0
40
1
40
1
40
1
40
1
41
1
10
65.8997966464023
20
6.07432489863896
30
0
41
1
10
66.7665310976015
20
4.05280905139514
30
0
41
1
10
67.6332655488008
20
2.02802723670351
30
0
41
1
10
68.5
20
0
30
0
0
LINE
5
7D
100
AcDbEntity
8
80
62
256
6
ByLayer
370
18
48
1
60
0
100
AcDbLine
10
0
20
0
30
0
11
-5
21
0
31
0
39
0
210
0
220
0
230
1
0
LINE
5
7E
100
AcDbEntity
8
4
62
256
6
ByLayer
370
18
48
0.05
60
0
100
AcDbLine
10
-5
20
0
30
0
11
73.5
21
0
31
0
39
0
210
0
220
0
230
1
0
LINE
5
80
100
AcDbEntity
8
81
62
256
6
ByLayer
370
18
48
1
60
0
100
AcDbLine
10
68.5
20
0
30
0
11
73.5
21
0
31
0
39
0
210
0
220
0
230
1
0
LINE
5
81
100
AcDbEntity
8
SK4
62
256
6
ByLayer
370
18
48
0.05
60
0
100
AcDbLine
10
-53
20
0
30
0
11
73.5
21
0
31
0
39
0
210
0
220
0
230
1
0
LINE
5
83
100
AcDbEntity
8
1
62
256
6
ByLayer
370
18
48
1
60
0
100
AcDbLine
10
10
20
-6.65
30
0
11
31.772986
21
-6.65
31
0
39
0
210
0
220
0
230
1
0
LINE
5
84
100
AcDbEntity
8
1
62
256
6
ByLayer
370
18
48
1
60
0
100
AcDbLine
10
31.772986
20
6.65
30
0
11
10
21
6.65
31
0
39
0
210
0
220
0
230
1
0
LINE
5
85
100
AcDbEntity
8
1
62
256
6
ByLayer
370
18
48
1
60
0
100
AcDbLine
10
68.5
20
0
30
0
11
65.899797
21
7.144
31
0
39
0
210
0
220
0
230
1
0
LINE
5
86
100
AcDbEntity
8
1
62
256
6
ByLayer
370
18
48
1
60
0
100
AcDbLine
10
65.899797
20
-7.144
30
0
11
68.5
21
0
31
0
39
0
210
0
220
0
230
1
0
LINE
5
87
100
AcDbEntity
8
1
62
256
6
ByLayer
370
18
48
1
60
0
100
AcDbLine
10
10
20
6.65
30
0
11
0
21
9.525
31
0
39
0
210
0
220
0
230
1
0
LINE
5
88
100
AcDbEntity
8
1
62
256
6
ByLayer
370
18
48
1
60
0
100
AcDbLine
10
0
20
-9.525
30
0
11
10
21
-6.65
31
0
39
0
210
0
220
0
230
1
0
LINE
5
89
100
AcDbEntity
8
1
62
256
6
ByLayer
370
18
48
1
60
0
100
AcDbLine
10
58.2
20
-7.144
30
0
11
65.899797
21
-7.144
31
0
39
0
210
0
220
0
230
1
0
LINE
5
8A
100
AcDbEntity
8
1
62
256
6
ByLayer
370
18
48
1
60
0
100
AcDbLine
10
68.5
20
0
30
0
11
65.899797
21
7.144
31
0
39
0
210
0
220
0
230
1
0
LINE
5
8B
100
AcDbEntity
8
1
62
256
6
ByLayer
370
18
48
1
60
0
100
AcDbLine
10
65.899797
20
-7.144
30
0
11
68.5
21
0
31
0
39
0
210
0
220
0
230
1
0
LINE
5
8C
100
AcDbEntity
8
SK1
62
256
6
ByLayer
370
18
48
1
60
0
100
AcDbLine
10
-48
20
-8.525
30
0
11
-47
21
-9.525
31
0
39
0
210
0
220
0
230
1
0
LINE
5
8E
100
AcDbEntity
8
SK1
62
256
6
ByLayer
370
18
48
1
60
0
100
AcDbLine
10
-47
20
9.525
30
0
11
-48
21
8.525
31
0
39
0
210
0
220
0
230
1
0
LINE
5
8F
100
AcDbEntity
8
SK1
62
256
6
ByLayer
370
18
48
1
60
0
100
AcDbLine
10
-47
20
-9.525
30
0
11
0
21
-9.525
31
0
39
0
210
0
220
0
230
1
0
LINE
5
90
100
AcDbEntity
8
SK1
62
256
6
ByLayer
370
18
48
1
60
0
100
AcDbLine
10
0
20
9.525
30
0
11
-47
21
9.525
31
0
39
0
210
0
220
0
230
1
0
LINE
5
91
100
AcDbEntity
8
1
62
256
6
ByLayer
370
18
48
1
60
0
100
AcDbLine
10
0
20
9.525
30
0
11
0
21
-9.525
31
0
39
0
210
0
220
0
230
1
0
LINE
5
92
100
AcDbEntity
8
1
62
256
6
ByLayer
370
18
48
1
60
0
100
AcDbLine
10
65.899797
20
7.144
30
0
11
65.899797
21
6.917132
31
0
39
0
210
0
220
0
230
1
0
LINE
5
93
100
AcDbEntity
8
1
62
256
6
ByLayer
370
18
48
1
60
0
100
AcDbLine
10
65.899797
20
-7.144
30
0
11
65.899797
21
-1.019278
31
0
39
0
210
0
220
0
230
1
0
LINE
5
94
100
AcDbEntity
8
1
62
256
6
ByLayer
370
18
48
1
60
0
100
AcDbLine
10
10
20
-6.65
30
0
11
10
21
-2.779195
31
0
39
0
210
0
220
0
230
1
0
LINE
5
95
100
AcDbEntity
8
1
62
256
6
ByLayer
370
18
48
1
60
0
100
AcDbLine
10
10
20
6.65
30
0
11
10
21
5.107968
31
0
39
0
210
0
220
0
230
1
0
LINE
5
96
100
AcDbEntity
8
SK1
62
256
6
ByLayer
370
18
48
1
60
0
100
AcDbLine
10
-48
20
-8.525
30
0
11
-48
21
8.525
31
0
39
0
210
0
220
0
230
1
0
LINE
5
97
100
AcDbEntity
8
SK1
62
256
6
ByLayer
370
18
48
1
60
0
100
AcDbLine
10
-40.207362
20
-3.933192
30
0
11
-40.207362
21
3.933192
31
0
39
0
210
0
220
0
230
1
0
LINE
5
98
100
AcDbEntity
8
SK1
62
256
6
ByLayer
370
18
48
1
60
0
100
AcDbLine
10
0
20
9.525
30
0
11
0
21
-9.525
31
0
39
0
210
0
220
0
230
1
0
LINE
5
99
100
AcDbEntity
8
SK1
62
256
6
ByLayer
370
18
48
1
60
0
100
AcDbLine
10
-47
20
-9.525
30
0
11
-47
21
9.525
31
0
39
0
210
0
220
0
230
1
0
LINE
5
9A
100
AcDbEntity
8
SK1
62
256
6
ByLayer
370
18
48
1
60
0
100
AcDbLine
10
-5.911513
20
-3.933192
30
0
11
-40.207362
21
-3.933192
31
0
39
0
210
0
220
0
230
1
0
LINE
5
9B
100
AcDbEntity
8
SK1
62
256
6
ByLayer
370
18
48
1
60
0
100
AcDbLine
10
-40.207362
20
3.933192
30
0
11
-5.911513
21
3.933192
31
0
39
0
210
0
220
0
230
1
0
LINE
5
9C
100
AcDbEntity
8
SK1
62
256
6
ByLayer
370
18
48
1
60
0
100
AcDbLine
10
-5.911513
20
-3.933192
30
0
11
-5.911513
21
3.933192
31
0
39
0
210
0
220
0
230
1
0
LINE
5
9D
100
AcDbEntity
8
1
62
256
6
ByLayer
370
18
48
1
60
0
100
AcDbLine
10
65.899797
20
7.144
30
0
11
65.899797
21
-7.144
31
0
39
0
210
0
220
0
230
1
0
LINE
5
9E
100
AcDbEntity
8
1
62
256
6
ByLayer
370
18
48
1
60
0
100
AcDbLine
10
65.899797
20
7.144
30
0
11
65.899797
21
-7.144
31
0
39
0
210
0
220
0
230
1
0
LINE
5
9F
100
AcDbEntity
8
1
62
256
6
ByLayer
370
18
48
1
60
0
100
AcDbLine
10
65.899797
20
7.144
30
0
11
65.899797
21
-7.144
31
0
39
0
210
0
220
0
230
1
0
LINE
5
A0
100
AcDbEntity
8
1
62
256
6
ByLayer
370
18
48
1
60
0
100
AcDbLine
10
58.2
20
7.144
30
0
11
58.2
21
-7.144
31
0
39
0
210
0
220
0
230
1
0
LINE
5
A1
100
AcDbEntity
8
1
62
256
6
ByLayer
370
18
48
1
60
0
100
AcDbLine
10
58.2
20
7.144
30
0
11
58.2
21
-7.144
31
0
39
0
210
0
220
0
230
1
0
LINE
5
A2
100
AcDbEntity
8
1
62
256
6
ByLayer
370
18
48
1
60
0
100
AcDbLine
10
65.899797
20
7.144
30
0
11
65.899797
21
-7.144
31
0
39
0
210
0
220
0
230
1
0
LINE
5
A3
100
AcDbEntity
8
1
62
256
6
ByLayer
370
18
48
1
60
0
100
AcDbLine
10
58.2
20
7.144
30
0
11
58.2
21
-7.144
31
0
39
0
210
0
220
0
230
1
0
LINE
5
A4
100
AcDbEntity
8
1
62
256
6
ByLayer
370
18
48
1
60
0
100
AcDbLine
10
65.899797
20
7.144
30
0
11
65.899797
21
-7.144
31
0
39
0
210
0
220
0
230
1
0
LINE
5
A5
100
AcDbEntity
8
SK2
62
256
6
ByLayer
370
13
48
1
60
0
100
AcDbLine
10
-54.5
20
-9.525
30
0
11
-54.5
21
37.799683
31
0
39
0
210
0
220
0
230
1
0
LINE
5
A7
100
AcDbEntity
8
SK2
62
256
6
ByLayer
370
13
48
1
60
0
100
AcDbLine
10
-49.5875
20
9.525
30
0
11
-56.5
21
9.525
31
0
39
0
210
0
220
0
230
1
0
LINE
5
A8
100
AcDbEntity
8
SK2
62
256
6
ByLayer
370
13
48
1
60
0
100
AcDbLine
10
-49.5875
20
-9.525
30
0
11
-56.5
21
-9.525
31
0
39
0
210
0
220
0
230
1
0
LINE
5
A9
100
AcDbEntity
8
1
62
256
6
ByLayer
370
18
48
1
60
1
100
AcDbLine
10
-54.5
20
9.525
30
0
11
-54.039216
21
6.025002
31
0
39
0
210
0
220
0
230
1
0
LINE
5
AA
100
AcDbEntity
8
1
62
256
6
ByLayer
370
18
48
1
60
1
100
AcDbLine
10
-54.039216
20
6.025002
30
0
11
-54.960784
21
6.024998
31
0
39
0
210
0
220
0
230
1
0
LINE
5
AB
100
AcDbEntity
8
1
62
256
6
ByLayer
370
18
48
1
60
1
100
AcDbLine
10
-54.960784
20
6.024998
30
0
11
-54.5
21
9.525
31
0
39
0
210
0
220
0
230
1
0
LINE
5
AC
100
AcDbEntity
8
1
62
256
6
ByLayer
370
18
48
1
60
1
100
AcDbLine
10
-54.5
20
-9.525
30
0
11
-54.960784
21
-6.025002
31
0
39
0
210
0
220
0
230
1
0
LINE
5
AD
100
AcDbEntity
8
1
62
256
6
ByLayer
370
18
48
1
60
1
100
AcDbLine
10
-54.960784
20
-6.025002
30
0
11
-54.039216
21
-6.024998
31
0
39
0
210
0
220
0
230
1
0
LINE
5
AE
100
AcDbEntity
8
1
62
256
6
ByLayer
370
18
48
1
60
1
100
AcDbLine
10
-54.039216
20
-6.024998
30
0
11
-54.5
21
-9.525
31
0
39
0
210
0
220
0
230
1
0
LINE
5
AF
100
AcDbEntity
8
2
62
256
6
ByLayer
370
13
48
1
60
0
100
AcDbLine
10
76
20
-7.144
30
0
11
76
21
35.734569
31
0
39
0
210
0
220
0
230
1
0
LINE
5
B1
100
AcDbEntity
8
2
62
256
6
ByLayer
370
13
48
1
60
0
100
AcDbLine
10
67.487297
20
7.144
30
0
11
78
21
7.144
31
0
39
0
210
0
220
0
230
1
0
LINE
5
B2
100
AcDbEntity
8
2
62
256
6
ByLayer
370
13
48
1
60
0
100
AcDbLine
10
67.487297
20
-7.144
30
0
11
78
21
-7.144
31
0
39
0
210
0
220
0
230
1
0
LINE
5
B3
100
AcDbEntity
8
1
62
256
6
ByLayer
370
18
48
1
60
1
100
AcDbLine
10
76
20
7.144
30
0
11
76.460784
21
3.644002
31
0
39
0
210
0
220
0
230
1
0
LINE
5
B4
100
AcDbEntity
8
1
62
256
6
ByLayer
370
18
48
1
60
1
100
AcDbLine
10
76.460784
20
3.644002
30
0
11
75.539216
21
3.643998
31
0
39
0
210
0
220
0
230
1
0
LINE
5
B5
100
AcDbEntity
8
1
62
256
6
ByLayer
370
18
48
1
60
1
100
AcDbLine
10
75.539216
20
3.643998
30
0
11
76
21
7.144
31
0
39
0
210
0
220
0
230
1
0
LINE
5
B6
100
AcDbEntity
8
1
62
256
6
ByLayer
370
18
48
1
60
1
100
AcDbLine
10
76
20
-7.144
30
0
11
75.539216
21
-3.644002
31
0
39
0
210
0
220
0
230
1
0
LINE
5
B7
100
AcDbEntity
8
1
62
256
6
ByLayer
370
18
48
1
60
1
100
AcDbLine
10
75.539216
20
-3.644002
30
0
11
76.460784
21
-3.643998
31
0
39
0
210
0
220
0
230
1
0
LINE
5
B8
100
AcDbEntity
8
1
62
256
6
ByLayer
370
18
48
1
60
1
100
AcDbLine
10
76.460784
20
-3.643998
30
0
11
76
21
-7.144
31
0
39
0
210
0
220
0
230
1
0
LINE
5
B9
100
AcDbEntity
8
SK2
62
256
6
ByLayer
370
13
48
1
60
0
100
AcDbLine
10
69.042957
20
-1.491762
30
0
11
75.682423
21
-19.733545
31
0
39
0
210
0
220
0
230
1
0
LINE
5
BA
100
AcDbEntity
8
SK2
62
256
6
ByLayer
370
13
48
1
60
0
100
AcDbLine
10
69.042957
20
1.491762
30
0
11
75.682423
21
19.733545
31
0
39
0
210
0
220
0
230
1
0
LINE
5
BB
100
AcDbEntity
8
1
62
256
6
ByLayer
370
18
48
1
60
1
100
AcDbLine
10
74.998383
20
-17.85416
30
0
11
78.051575
21
-16.082064
31
0
39
0
210
0
220
0
230
1
0
LINE
5
BC
100
AcDbEntity
8
1
62
256
6
ByLayer
370
18
48
1
60
1
100
AcDbLine
10
78.051575
20
-16.082064
30
0
11
78.406196
21
-16.93267
31
0
39
0
210
0
220
0
230
1
0
LINE
5
BD
100
AcDbEntity
8
1
62
256
6
ByLayer
370
18
48
1
60
1
100
AcDbLine
10
78.406196
20
-16.93267
30
0
11
74.998383
21
-17.85416
31
0
39
0
210
0
220
0
230
1
0
LINE
5
BE
100
AcDbEntity
8
1
62
256
6
ByLayer
370
18
48
1
60
1
100
AcDbLine
10
74.998383
20
17.85416
30
0
11
78.406193
21
16.932671
31
0
39
0
210
0
220
0
230
1
0
LINE
5
BF
100
AcDbEntity
8
1
62
256
6
ByLayer
370
18
48
1
60
1
100
AcDbLine
10
78.406193
20
16.932671
30
0
11
78.051579
21
16.082063
31
0
39
0
210
0
220
0
230
1
0
LINE
5
C0
100
AcDbEntity
8
1
62
256
6
ByLayer
370
18
48
1
60
1
100
AcDbLine
10
78.051579
20
16.082063
30
0
11
74.998383
21
17.85416
31
0
39
0
210
0
220
0
230
1
0
LINE
5
118
100
AcDbEntity
8
1
62
256
6
ByLayer
370
18
48
1
60
1
100
AcDbLine
10
-54.5
20
9.525
30
0
11
-54.039216
21
6.025002
31
0
39
0
210
0
220
0
230
1
0
LINE
5
119
100
AcDbEntity
8
1
62
256
6
ByLayer
370
18
48
1
60
1
100
AcDbLine
10
-54.039216
20
6.025002
30
0
11
-54.960784
21
6.024998
31
0
39
0
210
0
220
0
230
1
0
LINE
5
11A
100
AcDbEntity
8
1
62
256
6
ByLayer
370
18
48
1
60
1
100
AcDbLine
10
-54.960784
20
6.024998
30
0
11
-54.5
21
9.525
31
0
39
0
210
0
220
0
230
1
0
LINE
5
11C
100
AcDbEntity
8
1
62
256
6
ByLayer
370
18
48
1
60
1
100
AcDbLine
10
-54.5
20
-9.525
30
0
11
-54.960784
21
-6.025002
31
0
39
0
210
0
220
0
230
1
0
LINE
5
11D
100
AcDbEntity
8
1
62
256
6
ByLayer
370
18
48
1
60
1
100
AcDbLine
10
-54.960784
20
-6.025002
30
0
11
-54.039216
21
-6.024998
31
0
39
0
210
0
220
0
230
1
0
LINE
5
11E
100
AcDbEntity
8
1
62
256
6
ByLayer
370
18
48
1
60
1
100
AcDbLine
10
-54.039216
20
-6.024998
30
0
11
-54.5
21
-9.525
31
0
39
0
210
0
220
0
230
1
0
LINE
5
122
100
AcDbEntity
8
1
62
256
6
ByLayer
370
18
48
1
60
1
100
AcDbLine
10
76
20
7.144
30
0
11
76.460784
21
3.644002
31
0
39
0
210
0
220
0
230
1
0
LINE
5
123
100
AcDbEntity
8
1
62
256
6
ByLayer
370
18
48
1
60
1
100
AcDbLine
10
76.460784
20
3.644002
30
0
11
75.539216
21
3.643998
31
0
39
0
210
0
220
0
230
1
0
LINE
5
124
100
AcDbEntity
8
1
62
256
6
ByLayer
370
18
48
1
60
1
100
AcDbLine
10
75.539216
20
3.643998
30
0
11
76
21
7.144
31
0
39
0
210
0
220
0
230
1
0
LINE
5
126
100
AcDbEntity
8
1
62
256
6
ByLayer
370
18
48
1
60
1
100
AcDbLine
10
76
20
-7.144
30
0
11
75.539216
21
-3.644002
31
0
39
0
210
0
220
0
230
1
0
LINE
5
127
100
AcDbEntity
8
1
62
256
6
ByLayer
370
18
48
1
60
1
100
AcDbLine
10
75.539216
20
-3.644002
30
0
11
76.460784
21
-3.643998
31
0
39
0
210
0
220
0
230
1
0
LINE
5
128
100
AcDbEntity
8
1
62
256
6
ByLayer
370
18
48
1
60
1
100
AcDbLine
10
76.460784
20
-3.643998
30
0
11
76
21
-7.144
31
0
39
0
210
0
220
0
230
1
0
LINE
5
12B
100
AcDbEntity
8
1
62
256
6
ByLayer
370
18
48
1
60
1
100
AcDbLine
10
74.998383
20
-17.85416
30
0
11
78.051575
21
-16.082064
31
0
39
0
210
0
220
0
230
1
0
LINE
5
12C
100
AcDbEntity
8
1
62
256
6
ByLayer
370
18
48
1
60
1
100
AcDbLine
10
78.051575
20
-16.082064
30
0
11
78.406196
21
-16.93267
31
0
39
0
210
0
220
0
230
1
0
LINE
5
12D
100
AcDbEntity
8
1
62
256
6
ByLayer
370
18
48
1
60
1
100
AcDbLine
10
78.406196
20
-16.93267
30
0
11
74.998383
21
-17.85416
31
0
39
0
210
0
220
0
230
1
0
LINE
5
12F
100
AcDbEntity
8
1
62
256
6
ByLayer
370
18
48
1
60
1
100
AcDbLine
10
74.998383
20
17.85416
30
0
11
78.406193
21
16.932671
31
0
39
0
210
0
220
0
230
1
0
LINE
5
130
100
AcDbEntity
8
1
62
256
6
ByLayer
370
18
48
1
60
1
100
AcDbLine
10
78.406193
20
16.932671
30
0
11
78.051579
21
16.082063
31
0
39
0
210
0
220
0
230
1
0
LINE
5
131
100
AcDbEntity
8
1
62
256
6
ByLayer
370
18
48
1
60
1
100
AcDbLine
10
78.051579
20
16.082063
30
0
11
74.998383
21
17.85416
31
0
39
0
210
0
220
0
230
1
0
MTEXT
5
114
100
AcDbEntity
8
SK2
62
256
6
ByLayer
370
18
48
1
60
0
100
AcDbMText
10
-55.841114
20
21.183438
30
0
210
0
220
0
230
1
1
%%c
40
3
41
0
44
1.084337
50
90
71
7
72
5
7
iso_b_vert
0
MTEXT
5
117
100
AcDbEntity
8
SK2
62
256
6
ByLayer
370
18
48
1
60
0
100
AcDbMText
10
-55.841114
20
27.16
30
0
210
0
220
0
230
1
1
\W0.7022;19.050
40
3
41
0
44
1.084337
50
90
71
7
72
5
7
iso_b_vert
0
MTEXT
5
120
100
AcDbEntity
8
2
62
256
6
ByLayer
370
18
48
1
60
0
100
AcDbMText
10
74.658886
20
18.802438
30
0
210
0
220
0
230
1
1
%%c
40
3
41
0
44
1.084337
50
90
71
7
72
5
7
iso_b_vert
0
MTEXT
5
121
100
AcDbEntity
8
2
62
256
6
ByLayer
370
18
48
1
60
0
100
AcDbMText
10
74.658886
20
24.779
30
0
210
0
220
0
230
1
1
\W0.7237;14.288
40
3
41
0
44
1.084337
50
90
71
7
72
5
7
iso_b_vert
0
MTEXT
5
12A
100
AcDbEntity
8
SK2
62
256
6
ByLayer
370
18
48
1
60
0
100
AcDbMText
10
88.409114
20
3.734657
30
0
210
0
220
0
230
1
1
\W0.7071;140%%d
40
3
41
0
44
1.084337
50
270
71
7
72
5
7
iso_b_vert
0
MTEXT
5
133
100
AcDbEntity
8
SK6
62
256
6
ByLayer
370
18
48
1
60
0
100
AcDbMText
10
-14.984797
20
-67.114886
30
0
210
0
220
0
230
1
1
\W0.7528;H8539/16
40
3
41
0
44
1.084337
50
0
71
7
72
5
7
iso_b_vert
0
HATCH
5
11B
100
AcDbEntity
8
SK2
62
256
6
ByLayer
370
13
48
1
60
0
100
AcDbHatch
10
0
20
0
30
0
210
0
220
0
230
1
2
ANSI31
70
0
71
0
91
1
92
5
93
3
72
1
10
-54.5
20
9.52500000000001
11
-54.0392162584472
21
6.02500169255319
72
1
10
-54.0392162584472
20
6.02500169255319
11
-54.9607837415528
21
6.02499830744682
72
1
10
-54.9607837415528
20
6.02499830744682
11
-54.5
21
9.52500000000001
97
0
75
0
76
1
52
0
41
0.0062
77
0
78
1
53
45
43
0
44
0
45
-0.0139193969876572
46
0.0139193969876572
79
0
47
0
98
1
10
0
20
0
0
HATCH
5
11F
100
AcDbEntity
8
SK2
62
256
6
ByLayer
370
13
48
1
60
0
100
AcDbHatch
10
0
20
0
30
0
210
0
220
0
230
1
2
ANSI31
70
0
71
0
91
1
92
5
93
3
72
1
10
-54.5
20
-9.52500000000001
11
-54.9607837415528
21
-6.02500169255319
72
1
10
-54.9607837415528
20
-6.02500169255319
11
-54.0392162584472
21
-6.02499830744682
72
1
10
-54.0392162584472
20
-6.02499830744682
11
-54.5
21
-9.52500000000001
97
0
75
0
76
1
52
0
41
0.0062
77
0
78
1
53
45
43
0
44
0
45
-0.0139193969876572
46
0.0139193969876572
79
0
47
0
98
1
10
0
20
0
0
HATCH
5
125
100
AcDbEntity
8
2
62
256
6
ByLayer
370
13
48
1
60
0
100
AcDbHatch
10
0
20
0
30
0
210
0
220
0
230
1
2
ANSI31
70
0
71
0
91
1
92
5
93
3
72
1
10
76
20
7.144
11
76.4607837415528
21
3.64400169255319
72
1
10
76.4607837415528
20
3.64400169255319
11
75.5392162584472
21
3.64399830744682
72
1
10
75.5392162584472
20
3.64399830744682
11
76
21
7.144
97
0
75
0
76
1
52
0
41
0.0062
77
0
78
1
53
45
43
0
44
0
45
-0.0139193969876572
46
0.0139193969876572
79
0
47
0
98
1
10
0
20
0
0
HATCH
5
129
100
AcDbEntity
8
2
62
256
6
ByLayer
370
13
48
1
60
0
100
AcDbHatch
10
0
20
0
30
0
210
0
220
0
230
1
2
ANSI31
70
0
71
0
91
1
92
5
93
3
72
1
10
76
20
-7.144
11
75.5392162584472
21
-3.64400169255319
72
1
10
75.5392162584472
20
-3.64400169255319
11
76.4607837415528
21
-3.64399830744682
72
1
10
76.4607837415528
20
-3.64399830744682
11
76
21
-7.144
97
0
75
0
76
1
52
0
41
0.0062
77
0
78
1
53
45
43
0
44
0
45
-0.0139193969876572
46
0.0139193969876572
79
0
47
0
98
1
10
0
20
0
0
HATCH
5
12E
100
AcDbEntity
8
SK2
62
256
6
ByLayer
370
13
48
1
60
0
100
AcDbHatch
10
0
20
0
30
0
210
0
220
0
230
1
2
ANSI31
70
0
71
0
91
1
92
5
93
3
72
1
10
74.9983827231877
20
-17.8541597949323
11
78.0515754256929
21
-16.0820638240608
72
1
10
78.0515754256929
20
-16.0820638240608
11
78.4061958339751
21
-16.9326700737196
72
1
10
78.4061958339751
20
-16.9326700737196
11
74.9983827231877
21
-17.8541597949323
97
0
75
0
76
1
52
0
41
0.0062
77
0
78
1
53
45
43
0
44
0
45
-0.0139193969876572
46
0.0139193969876572
79
0
47
0
98
1
10
0
20
0
0
HATCH
5
132
100
AcDbEntity
8
SK2
62
256
6
ByLayer
370
13
48
1
60
0
100
AcDbHatch
10
0
20
0
30
0
210
0
220
0
230
1
2
ANSI31
70
0
71
0
91
1
92
5
93
3
72
1
10
74.9983827231877
20
17.8541597949323
11
78.4061927095191
21
16.9326713763016
72
1
10
78.4061927095191
20
16.9326713763016
11
78.0515785501489
21
16.0820625214788
72
1
10
78.0515785501489
20
16.0820625214788
11
74.9983827231877
21
17.8541597949323
97
0
75
0
76
1
52
0
41
0.0062
77
0
78
1
53
45
43
0
44
0
45
-0.0139193969876572
46
0.0139193969876572
79
0
47
0
98
1
10
0
20
0
0
DIMENSION
5
136
100
AcDbEntity
8
SK2
62
256
6
ByLayer
370
18
48
1
60
0
100
AcDbDimension
2
_U0
10
68.5
20
-45.952229
30
0
11
10.25
21
-45.952229
31
0
70
32
71
1
72
1
41
1
210
0
220
0
230
1
3
Standard
100
AcDbAlignedDimension
13
-48
23
-9.525
33
0
14
68.5
24
0
34
0
50
0
100
AcDbRotatedDimension
1001
ACAD
1000
DSTYLE
1002
{
1070
   371
1070
    13
1070
   372
1070
    13
1070
     3
1000

1070
   170
1070
     0
1070
   144
1040
1.0
1070
   277
1070
     2
1070
   284
1070
     8
1070
   278
1070
    46
1070
   146
1040
1.166667
1070
   345
1005
16
1070
   347
1005
16
1070
   346
1005
16
1070
   344
1005
0
1070
   343
1005
0
1070
   172
1070
     1
1070
    76
1070
     0
1070
    75
1070
     0
1070
   282
1070
     0
1070
   281
1070
     0
1070
    71
1070
     0
1070
    74
1070
     0
1070
   279
1070
     0
1070
   173
1070
     1
1070
   340
1005
115
1070
   271
1070
     2
1070
   272
1070
     3
1070
    77
1070
     1
1070
    73
1070
     1
1070
   171
1070
     3
1070
   274
1070
     4
1070
   177
1070
     2
1070
   176
1070
     2
1070
   178
1070
     2
1070
    78
1070
     8
1070
    48
1040
-0.1
1070
    41
1040
3.5
1070
   147
1040
1.5
1070
    42
1040
1.5875
1070
    44
1040
2.0
1070
   140
1040
3.0
1002
}
1001
ACAD_DSTYLE_DIM_LINETYPE
1070
   380
1005
16
1001
ACAD_DSTYLE_DIM_EXT1_LINETYPE
1070
   381
1005
16
1001
ACAD_DSTYLE_DIM_EXT2_LINETYPE
1070
   382
1005
16
0
DIMENSION
5
14F
100
AcDbEntity
8
SK2
62
256
6
ByLayer
370
18
48
1
60
0
100
AcDbDimension
2
_U1
10
3
20
-35.952229
30
0
11
35.75
21
-35.952229
31
0
70
32
71
1
72
1
41
1
210
0
220
0
230
1
3
Standard
100
AcDbAlignedDimension
13
68.5
23
0
33
0
14
3
24
-7.144
34
0
50
0
100
AcDbRotatedDimension
1001
ACAD
1000
DSTYLE
1002
{
1070
   371
1070
    13
1070
   372
1070
    13
1070
     3
1000

1070
   170
1070
     0
1070
   144
1040
1.0
1070
   277
1070
     2
1070
   284
1070
     8
1070
   278
1070
    46
1070
   146
1040
1.166667
1070
   345
1005
16
1070
   347
1005
16
1070
   346
1005
16
1070
   344
1005
0
1070
   343
1005
0
1070
   172
1070
     1
1070
    76
1070
     0
1070
    75
1070
     0
1070
   282
1070
     0
1070
   281
1070
     0
1070
    71
1070
     0
1070
    74
1070
     0
1070
   279
1070
     0
1070
   173
1070
     1
1070
   340
1005
115
1070
   271
1070
     2
1070
   272
1070
     3
1070
    77
1070
     1
1070
    73
1070
     1
1070
   171
1070
     3
1070
   274
1070
     4
1070
   177
1070
     2
1070
   176
1070
     2
1070
   178
1070
     2
1070
    78
1070
     8
1070
    48
1040
-0.1
1070
    41
1040
3.5
1070
   147
1040
1.5
1070
    42
1040
1.5875
1070
    44
1040
2.0
1070
   140
1040
3.0
1002
}
1001
ACAD_DSTYLE_DIM_LINETYPE
1070
   380
1005
16
1001
ACAD_DSTYLE_DIM_EXT1_LINETYPE
1070
   381
1005
16
1001
ACAD_DSTYLE_DIM_EXT2_LINETYPE
1070
   382
1005
16
0
DIMENSION
5
167
100
AcDbEntity
8
SK2
62
256
6
ByLayer
370
18
48
1
60
0
100
AcDbDimension
2
_U2
10
0
20
-35.952229
30
0
11
-24
21
-35.952229
31
0
70
32
71
1
72
1
41
1
210
0
220
0
230
1
3
Standard
100
AcDbAlignedDimension
13
-48
23
-9.525
33
0
14
0
24
-9.525
34
0
50
0
100
AcDbRotatedDimension
1001
ACAD
1000
DSTYLE
1002
{
1070
   371
1070
    13
1070
   372
1070
    13
1070
     3
1000

1070
   170
1070
     0
1070
   144
1040
1.0
1070
   277
1070
     2
1070
   284
1070
     8
1070
   278
1070
    46
1070
   146
1040
1.166667
1070
   345
1005
16
1070
   347
1005
16
1070
   346
1005
16
1070
   344
1005
0
1070
   343
1005
0
1070
   172
1070
     1
1070
    76
1070
     0
1070
    75
1070
     0
1070
   282
1070
     0
1070
   281
1070
     0
1070
    71
1070
     0
1070
    74
1070
     0
1070
   279
1070
     0
1070
   173
1070
     1
1070
   340
1005
115
1070
   271
1070
     2
1070
   272
1070
     3
1070
    77
1070
     1
1070
    73
1070
     1
1070
   171
1070
     3
1070
   274
1070
     4
1070
   177
1070
     2
1070
   176
1070
     2
1070
   178
1070
     2
1070
    78
1070
     8
1070
    48
1040
-0.1
1070
    41
1040
3.5
1070
   147
1040
1.5
1070
    42
1040
1.5875
1070
    44
1040
2.0
1070
   140
1040
3.0
1002
}
1001
ACAD_DSTYLE_DIM_LINETYPE
1070
   380
1005
16
1001
ACAD_DSTYLE_DIM_EXT1_LINETYPE
1070
   381
1005
16
1001
ACAD_DSTYLE_DIM_EXT2_LINETYPE
1070
   382
1005
16
0
DIMENSION
5
17F
100
AcDbEntity
8
SK2
62
256
6
ByLayer
370
18
48
1
60
0
100
AcDbDimension
2
_U3
10
16
20
32.952229
30
0
11
42.25
21
32.952229
31
0
70
32
71
1
72
1
41
1
210
0
220
0
230
1
3
Standard
100
AcDbAlignedDimension
13
68.5
23
0
33
0
14
16
24
7.144
34
0
50
0
100
AcDbRotatedDimension
1001
ACAD
1000
DSTYLE
1002
{
1070
   371
1070
    13
1070
   372
1070
    13
1070
     3
1000

1070
   170
1070
     0
1070
   144
1040
1.0
1070
   277
1070
     2
1070
   284
1070
     8
1070
   278
1070
    46
1070
   146
1040
1.166667
1070
   345
1005
16
1070
   347
1005
16
1070
   346
1005
16
1070
   344
1005
0
1070
   343
1005
0
1070
   172
1070
     1
1070
    76
1070
     0
1070
    75
1070
     0
1070
   282
1070
     0
1070
   281
1070
     0
1070
    71
1070
     0
1070
    74
1070
     0
1070
   279
1070
     0
1070
   173
1070
     1
1070
   340
1005
115
1070
   271
1070
     2
1070
   272
1070
     3
1070
    77
1070
     1
1070
    73
1070
     1
1070
   171
1070
     3
1070
   274
1070
     4
1070
   177
1070
     2
1070
   176
1070
     2
1070
   178
1070
     2
1070
    78
1070
     8
1070
    48
1040
-0.1
1070
    41
1040
3.5
1070
   147
1040
1.5
1070
    42
1040
1.5875
1070
    44
1040
2.0
1070
   140
1040
3.0
1002
}
1001
ACAD_DSTYLE_DIM_LINETYPE
1070
   380
1005
16
1001
ACAD_DSTYLE_DIM_EXT1_LINETYPE
1070
   381
1005
16
1001
ACAD_DSTYLE_DIM_EXT2_LINETYPE
1070
   382
1005
16
0
ENDSEC
0
SECTION
2
OBJECTS
0
DICTIONARY
5
207
330
0
100
AcDbDictionary
280
0
281
1
3
ACAD_GROUP
350
208
3
ACAD_MLINESTYLE
350
209
0
DICTIONARY
5
208
330
0
100
AcDbDictionary
280
0
281
1
0
DICTIONARY
5
209
330
0
100
AcDbDictionary
280
0
281
1
3
Standard
350
18
0
MLINESTYLE
5
18
330
209
100
AcDbMlineStyle
2
Standard
70
0
3

62
256
51
90
52
90
71
2
49
-0.5
62
256
6
ByLayer
49
0.5
62
256
6
ByLayer
0
RASTERVARIABLES
5
1f5
330

100
AcDbRasterVariables
90
0
70
1
71
1
72
1
0
ENDSEC
0
EOF
