0
SECTION
2
HEADER
9
$ACADVER
1
AC1015
9
$DWGCODEPAGE
3
ANSI_1252
9
$HANDSEED
5
23a
9
$ANGBASE
50
0
9
$ANGDIR
70
0
9
$ATTMODE
70
1
9
$AUNITS
70
0
9
$AUPREC
70
0
9
$CECOLOR
62
256
9
$CELTSCALE
40
1
9
$CELTYPE
6
ByLayer
9
$CELWEIGHT
370
18
9
$CLAYER
8
0
9
$CMLJUST
70
0
9
$CMLSCALE
40
1
9
$CMLSTYLE
2
Standard
9
$DIMSTYLE
2
Standard
9
$TEXTSIZE
40
0.2
9
$TEXTSTYLE
7
Standard
9
$LUNITS
70
2
9
$LUPREC
70
4
9
$EXTNAMES
290
1
9
$INSUNITS
70
4
9
$LTSCALE
40
1
9
$LWDISPLAY
290
1
9
$PDMODE
70
0
9
$PDSIZE
40
0
9
$PLINEGEN
70
0
0
ENDSEC
0
SECTION
2
CLASSES
0
CLASS
1
RASTERVARIABLES
2
AcDbRasterVariables
3
ISM
90
0
280
0
281
0
0
ENDSEC
0
SECTION
2
TABLES
0
TABLE
2
VPORT
5
230
100
AcDbSymbolTable
0
VPORT
5
1
100
AcDbSymbolTableRecord
100
AcDbViewportTableRecord
2
*Active
70
0
10
0
20
0
11
1
21
1
12
-1
22
1
13
0
23
0
14
0.5
24
0.5
15
10
25
10
16
0
26
0
36
1
17
0
27
0
37
0
0
ENDTAB
0
TABLE
2
LTYPE
5
231
100
AcDbSymbolTable
0
LTYPE
5
14
100
AcDbSymbolTableRecord
100
AcDbLinetypeTableRecord
70
0
2
ByBlock
3

72
65
73
0
40
0
0
LTYPE
5
15
100
AcDbSymbolTableRecord
100
AcDbLinetypeTableRecord
70
0
2
ByLayer
3

72
65
73
0
40
0
0
LTYPE
5
16
100
AcDbSymbolTableRecord
100
AcDbLinetypeTableRecord
70
0
2
Continuous
3
Solid line
72
65
73
0
40
0
0
LTYPE
5
6E
100
AcDbSymbolTableRecord
100
AcDbLinetypeTableRecord
70
0
2
CENTER
3
____ _ ____ _ ____ _ ____
72
65
73
4
40
47.5
49
22
74
0
49
-8.5
74
0
49
8.5
74
0
49
-8.5
74
0
0
LTYPE
5
6F
100
AcDbSymbolTableRecord
100
AcDbLinetypeTableRecord
70
0
2
DASHED
3
__ __ __ __ __ __ __ __ __
72
65
73
2
40
25.72
49
12.86
74
0
49
-12.86
74
0
0
ENDTAB
0
TABLE
2
LAYER
5
232
100
AcDbSymbolTable
0
LAYER
5
10
100
AcDbSymbolTableRecord
100
AcDbLayerTableRecord
2
0
70
0
62
7
6
Continuous
290
1
370
-3
390
0
0
LAYER
5
71
100
AcDbSymbolTableRecord
100
AcDbLayerTableRecord
2
81
70
0
62
-3
6
Continuous
290
1
370
-3
390
0
0
LAYER
5
73
100
AcDbSymbolTableRecord
100
AcDbLayerTableRecord
2
80
70
0
62
-6
6
Continuous
290
1
370
-3
390
0
0
LAYER
5
75
100
AcDbSymbolTableRecord
100
AcDbLayerTableRecord
2
1
70
0
62
4
6
Continuous
290
1
370
-3
390
0
0
LAYER
5
80
100
AcDbSymbolTableRecord
100
AcDbLayerTableRecord
2
4
70
0
62
-2
6
CENTER
290
1
370
-3
390
0
0
LAYER
5
B1
100
AcDbSymbolTableRecord
100
AcDbLayerTableRecord
2
2
70
0
62
7
6
Continuous
290
1
370
-3
390
0
0
LAYER
5
15F
100
AcDbSymbolTableRecord
100
AcDbLayerTableRecord
2
Defpoints
70
0
62
7
6
Continuous
290
0
370
-3
390
0
0
LAYER
5
21c
100
AcDbSymbolTableRecord
100
AcDbLayerTableRecord
2
SK4
70
0
62
2
6
CENTER
290
1
370
-3
390
0
0
LAYER
5
21d
100
AcDbSymbolTableRecord
100
AcDbLayerTableRecord
2
SK1
70
0
62
4
6
Continuous
290
1
370
-3
390
0
0
LAYER
5
21e
100
AcDbSymbolTableRecord
100
AcDbLayerTableRecord
2
SK2
70
0
62
7
6
Continuous
290
1
370
-3
390
0
0
LAYER
5
21f
100
AcDbSymbolTableRecord
100
AcDbLayerTableRecord
2
SK6
70
0
62
5
6
Continuous
290
1
370
-3
390
0
0
ENDTAB
0
TABLE
2
STYLE
5
233
100
AcDbSymbolTable
0
STYLE
5
11
100
AcDbSymbolTableRecord
100
AcDbTextStyleTableRecord
2
Standard
3
txt
70
0
71
0
40
0
41
1
42
0
50
0
0
STYLE
5
13B
100
AcDbSymbolTableRecord
100
AcDbTextStyleTableRecord
2
iso_b_vert
3
simplex.shx
70
0
71
0
40
0
41
1
42
0
50
0
0
STYLE
5
13C
100
AcDbSymbolTableRecord
100
AcDbTextStyleTableRecord
2
DWGDirectTextStyle
3
simplex
70
0
71
0
40
0
41
1
42
0
50
0
0
ENDTAB
0
TABLE
2
DIMSTYLE
5
234
100
AcDbSymbolTable
100
AcDbDimStyleTable
0
DIMSTYLE
105
27
100
AcDbSymbolTableRecord
100
AcDbDimStyleTableRecord
2
Standard
70
0
3
<>
41
0.18
42
0.0625
44
0.18
140
0.18
147
0.09
73
0
74
0
77
1
271
2
275
0
278
52
280
0
340
11
0
ENDTAB
0
TABLE
2
VIEW
5
235
100
AcDbSymbolTable
0
ENDTAB
0
TABLE
2
UCS
5
236
100
AcDbSymbolTable
0
ENDTAB
0
TABLE
2
APPID
5
237
100
AcDbSymbolTable
0
APPID
5
12
100
AcDbSymbolTableRecord
100
AcDbRegAppTableRecord
2
ACAD
70
0
0
APPID
5
15B
100
AcDbSymbolTableRecord
100
AcDbRegAppTableRecord
2
ACAD_DSTYLE_DIMBREAK
70
0
0
APPID
5
1DB
100
AcDbSymbolTableRecord
100
AcDbRegAppTableRecord
2
ACAD_DSTYLE_DIM_LINETYPE
70
0
0
APPID
5
1DC
100
AcDbSymbolTableRecord
100
AcDbRegAppTableRecord
2
ACAD_DSTYLE_DIM_EXT1_LINETYPE
70
0
0
APPID
5
1DD
100
AcDbSymbolTableRecord
100
AcDbRegAppTableRecord
2
ACAD_DSTYLE_DIM_EXT2_LINETYPE
70
0
0
APPID
5
218
100
AcDbSymbolTableRecord
100
AcDbRegAppTableRecord
2
ACAD_MLEADERVER
70
0
0
ENDTAB
0
TABLE
2
BLOCK_RECORD
5
238
100
AcDbSymbolTable
0
BLOCK_RECORD
5
1F
100
AcDbSymbolTableRecord
100
AcDbBlockTableRecord
2
*Model_Space
340
0
70
0
0
BLOCK_RECORD
5
1B
100
AcDbSymbolTableRecord
100
AcDbBlockTableRecord
2
*Paper_Space
340
0
70
0
0
BLOCK_RECORD
5
23
100
AcDbSymbolTableRecord
100
AcDbBlockTableRecord
2
*Paper_Space0
340
0
70
0
0
BLOCK_RECORD
5
160
100
AcDbSymbolTableRecord
100
AcDbBlockTableRecord
2
*D1
340
0
70
0
0
BLOCK_RECORD
5
16C
100
AcDbSymbolTableRecord
100
AcDbBlockTableRecord
2
_U0
340
0
70
0
0
BLOCK_RECORD
5
178
100
AcDbSymbolTableRecord
100
AcDbBlockTableRecord
2
*D3
340
0
70
0
0
BLOCK_RECORD
5
184
100
AcDbSymbolTableRecord
100
AcDbBlockTableRecord
2
_U1
340
0
70
0
0
BLOCK_RECORD
5
190
100
AcDbSymbolTableRecord
100
AcDbBlockTableRecord
2
*D5
340
0
70
0
0
BLOCK_RECORD
5
19C
100
AcDbSymbolTableRecord
100
AcDbBlockTableRecord
2
_U2
340
0
70
0
0
BLOCK_RECORD
5
1A8
100
AcDbSymbolTableRecord
100
AcDbBlockTableRecord
2
*D7
340
0
70
0
0
BLOCK_RECORD
5
1B4
100
AcDbSymbolTableRecord
100
AcDbBlockTableRecord
2
_U3
340
0
70
0
0
ENDTAB
0
ENDSEC
0
SECTION
2
BLOCKS
0
BLOCK
5
20
100
AcDbEntity
8
0
100
AcDbBlockBegin
2
*Model_Space
70
0
10
0
20
0
30
0
3
*Model_Space
0
ENDBLK
5
21
100
AcDbEntity
8
0
100
AcDbBlockEnd
0
BLOCK
5
1C
100
AcDbEntity
8
0
100
AcDbBlockBegin
2
*Paper_Space
70
0
10
0
20
0
30
0
3
*Paper_Space
0
ENDBLK
5
1D
100
AcDbEntity
8
0
100
AcDbBlockEnd
0
BLOCK
5
24
100
AcDbEntity
8
0
100
AcDbBlockBegin
2
*Paper_Space0
70
0
10
0
20
0
30
0
3
*Paper_Space0
0
ENDBLK
5
25
100
AcDbEntity
8
0
100
AcDbBlockEnd
0
BLOCK
5
161
100
AcDbEntity
8
0
100
AcDbBlockBegin
2
*D1
70
1
10
0
20
0
30
0
3
*D1
0
LINE
5
163
100
AcDbEntity
8
0
62
256
6
ByLayer
370
-2
48
1
60
0
100
AcDbLine
10
-56
20
-14.2875
30
0
11
-56
21
-47.952229
31
0
39
0
210
0
220
0
230
1
0
LINE
5
164
100
AcDbEntity
8
0
62
256
6
ByLayer
370
-2
48
1
60
0
100
AcDbLine
10
104.5
20
-1.5875
30
0
11
104.5
21
-47.952229
31
0
39
0
210
0
220
0
230
1
0
LINE
5
165
100
AcDbEntity
8
0
62
256
6
ByLayer
370
-2
48
1
60
0
100
AcDbLine
10
-52.5
20
-45.952229
30
0
11
101
21
-45.952229
31
0
39
0
210
0
220
0
230
1
0
SOLID
5
166
100
AcDbEntity
8
0
62
256
6
ByLayer
370
-1
48
1
60
0
100
AcDbTrace
10
-52.5
20
-45.368896
30
0
11
-52.5
21
-46.535563
31
0
12
-56
22
-45.952229
32
0
13
-56
23
-45.952229
33
0
39
0
210
0
220
0
230
1
0
SOLID
5
167
100
AcDbEntity
8
0
62
256
6
ByLayer
370
-1
48
1
60
0
100
AcDbTrace
10
101
20
-46.535563
30
0
11
101
21
-45.368896
31
0
12
104.5
22
-45.952229
32
0
13
104.5
23
-45.952229
33
0
39
0
210
0
220
0
230
1
0
MTEXT
5
168
100
AcDbEntity
8
0
62
256
6
ByLayer
370
18
48
1
60
0
100
AcDbMText
10
24.25
20
-39.952229
30
0
210
0
220
0
230
1
1
\A1;160.5
40
3
41
0
44
1
50
0
71
5
72
5
7
iso_b_vert
0
POINT
5
169
100
AcDbEntity
8
Defpoints
62
0
6
ByLayer
370
-1
48
1
60
0
100
AcDbPoint
10
-56
20
-12.7
30
0
39
0
210
0
220
0
230
1
50
360
0
POINT
5
16A
100
AcDbEntity
8
Defpoints
62
0
6
ByLayer
370
-1
48
1
60
0
100
AcDbPoint
10
104.5
20
0
30
0
39
0
210
0
220
0
230
1
50
360
0
POINT
5
16B
100
AcDbEntity
8
Defpoints
62
0
6
ByLayer
370
-1
48
1
60
0
100
AcDbPoint
10
104.5
20
-45.952229
30
0
39
0
210
0
220
0
230
1
50
360
0
ENDBLK
5
162
100
AcDbEntity
8
0
100
AcDbBlockEnd
0
BLOCK
5
173
100
AcDbEntity
8
0
100
AcDbBlockBegin
2
_U0
70
0
10
0
20
0
30
0
3
_U0
0
MTEXT
5
16D
100
AcDbEntity
8
SK2
62
256
6
ByLayer
370
18
48
1
60
0
100
AcDbMText
10
19.021658
20
-45.067115
30
0
210
0
220
0
230
1
1
\W0.7022;160.50
40
3
41
0
44
1.084337
50
0
71
7
72
5
7
iso_b_vert
0
LINE
5
16E
100
AcDbEntity
8
SK2
62
256
6
ByLayer
370
13
48
1
60
0
100
AcDbLine
10
-56
20
-14.2875
30
0
11
-56
21
-47.952229
31
0
39
0
210
0
220
0
230
1
0
LINE
5
16F
100
AcDbEntity
8
SK2
62
256
6
ByLayer
370
13
48
1
60
0
100
AcDbLine
10
104.5
20
-1.5875
30
0
11
104.5
21
-47.952229
31
0
39
0
210
0
220
0
230
1
0
LINE
5
170
100
AcDbEntity
8
SK2
62
256
6
ByLayer
370
13
48
1
60
0
100
AcDbLine
10
-56
20
-45.952229
30
0
11
104.5
21
-45.952229
31
0
39
0
210
0
220
0
230
1
0
SOLID
5
171
100
AcDbEntity
8
SK2
62
256
6
ByLayer
370
18
48
1
60
0
100
AcDbTrace
10
-56
20
-45.952229
30
0
11
-52.500002
21
-45.491446
31
0
12
-52.499998
22
-46.413013
32
0
13
-52.499998
23
-46.413013
33
0
39
0
210
0
220
0
230
1
0
SOLID
5
172
100
AcDbEntity
8
SK2
62
256
6
ByLayer
370
18
48
1
60
0
100
AcDbTrace
10
104.5
20
-45.952229
30
0
11
101.000002
21
-46.413013
31
0
12
100.999998
22
-45.491446
32
0
13
100.999998
23
-45.491446
33
0
39
0
210
0
220
0
230
1
0
ENDBLK
5
174
100
AcDbEntity
8
0
100
AcDbBlockEnd
0
BLOCK
5
179
100
AcDbEntity
8
0
100
AcDbBlockBegin
2
*D3
70
1
10
0
20
0
30
0
3
*D3
0
LINE
5
17B
100
AcDbEntity
8
0
62
256
6
ByLayer
370
-2
48
1
60
0
100
AcDbLine
10
104.5
20
-1.5875
30
0
11
104.5
21
-37.952229
31
0
39
0
210
0
220
0
230
1
0
LINE
5
17C
100
AcDbEntity
8
0
62
256
6
ByLayer
370
-2
48
1
60
0
100
AcDbLine
10
3
20
-13.2955
30
0
11
3
21
-37.952229
31
0
39
0
210
0
220
0
230
1
0
LINE
5
17D
100
AcDbEntity
8
0
62
256
6
ByLayer
370
-2
48
1
60
0
100
AcDbLine
10
101
20
-35.952229
30
0
11
6.5
21
-35.952229
31
0
39
0
210
0
220
0
230
1
0
SOLID
5
17E
100
AcDbEntity
8
0
62
256
6
ByLayer
370
-1
48
1
60
0
100
AcDbTrace
10
101
20
-36.535563
30
0
11
101
21
-35.368896
31
0
12
104.5
22
-35.952229
32
0
13
104.5
23
-35.952229
33
0
39
0
210
0
220
0
230
1
0
SOLID
5
17F
100
AcDbEntity
8
0
62
256
6
ByLayer
370
-1
48
1
60
0
100
AcDbTrace
10
6.5
20
-35.368896
30
0
11
6.5
21
-36.535563
31
0
12
3
22
-35.952229
32
0
13
3
23
-35.952229
33
0
39
0
210
0
220
0
230
1
0
MTEXT
5
180
100
AcDbEntity
8
0
62
256
6
ByLayer
370
18
48
1
60
0
100
AcDbMText
10
53.75
20
-29.952229
30
0
210
0
220
0
230
1
1
\A1;101.5
40
3
41
0
44
1
50
0
71
5
72
5
7
iso_b_vert
0
POINT
5
181
100
AcDbEntity
8
Defpoints
62
0
6
ByLayer
370
-1
48
1
60
0
100
AcDbPoint
10
104.5
20
0
30
0
39
0
210
0
220
0
230
1
50
360
0
POINT
5
182
100
AcDbEntity
8
Defpoints
62
0
6
ByLayer
370
-1
48
1
60
0
100
AcDbPoint
10
3
20
-11.708
30
0
39
0
210
0
220
0
230
1
50
360
0
POINT
5
183
100
AcDbEntity
8
Defpoints
62
0
6
ByLayer
370
-1
48
1
60
0
100
AcDbPoint
10
3
20
-35.952229
30
0
39
0
210
0
220
0
230
1
50
360
0
ENDBLK
5
17A
100
AcDbEntity
8
0
100
AcDbBlockEnd
0
BLOCK
5
18B
100
AcDbEntity
8
0
100
AcDbBlockBegin
2
_U1
70
0
10
0
20
0
30
0
3
_U1
0
MTEXT
5
185
100
AcDbEntity
8
SK2
62
256
6
ByLayer
370
18
48
1
60
0
100
AcDbMText
10
48.896601
20
-35.067115
30
0
210
0
220
0
230
1
1
\W0.6532;101.50
40
3
41
0
44
1.084337
50
0
71
7
72
5
7
iso_b_vert
0
LINE
5
186
100
AcDbEntity
8
SK2
62
256
6
ByLayer
370
13
48
1
60
0
100
AcDbLine
10
104.5
20
-1.5875
30
0
11
104.5
21
-37.952229
31
0
39
0
210
0
220
0
230
1
0
LINE
5
187
100
AcDbEntity
8
SK2
62
256
6
ByLayer
370
13
48
1
60
0
100
AcDbLine
10
3
20
-13.2955
30
0
11
3
21
-37.952229
31
0
39
0
210
0
220
0
230
1
0
LINE
5
188
100
AcDbEntity
8
SK2
62
256
6
ByLayer
370
13
48
1
60
0
100
AcDbLine
10
104.5
20
-35.952229
30
0
11
3
21
-35.952229
31
0
39
0
210
0
220
0
230
1
0
SOLID
5
189
100
AcDbEntity
8
SK2
62
256
6
ByLayer
370
18
48
1
60
0
100
AcDbTrace
10
104.5
20
-35.952229
30
0
11
101.000002
21
-36.413013
31
0
12
100.999998
22
-35.491446
32
0
13
100.999998
23
-35.491446
33
0
39
0
210
0
220
0
230
1
0
SOLID
5
18A
100
AcDbEntity
8
SK2
62
256
6
ByLayer
370
18
48
1
60
0
100
AcDbTrace
10
3
20
-35.952229
30
0
11
6.499998
21
-35.491446
31
0
12
6.500002
22
-36.413013
32
0
13
6.500002
23
-36.413013
33
0
39
0
210
0
220
0
230
1
0
ENDBLK
5
18C
100
AcDbEntity
8
0
100
AcDbBlockEnd
0
BLOCK
5
191
100
AcDbEntity
8
0
100
AcDbBlockBegin
2
*D5
70
1
10
0
20
0
30
0
3
*D5
0
LINE
5
193
100
AcDbEntity
8
0
62
256
6
ByLayer
370
-2
48
1
60
0
100
AcDbLine
10
-56
20
-14.2875
30
0
11
-56
21
-37.952229
31
0
39
0
210
0
220
0
230
1
0
LINE
5
194
100
AcDbEntity
8
0
62
256
6
ByLayer
370
-2
48
1
60
0
100
AcDbLine
10
0
20
-14.2875
30
0
11
0
21
-37.952229
31
0
39
0
210
0
220
0
230
1
0
LINE
5
195
100
AcDbEntity
8
0
62
256
6
ByLayer
370
-2
48
1
60
0
100
AcDbLine
10
-52.5
20
-35.952229
30
0
11
-3.5
21
-35.952229
31
0
39
0
210
0
220
0
230
1
0
SOLID
5
196
100
AcDbEntity
8
0
62
256
6
ByLayer
370
-1
48
1
60
0
100
AcDbTrace
10
-52.5
20
-35.368896
30
0
11
-52.5
21
-36.535563
31
0
12
-56
22
-35.952229
32
0
13
-56
23
-35.952229
33
0
39
0
210
0
220
0
230
1
0
SOLID
5
197
100
AcDbEntity
8
0
62
256
6
ByLayer
370
-1
48
1
60
0
100
AcDbTrace
10
-3.5
20
-36.535563
30
0
11
-3.5
21
-35.368896
31
0
12
0
22
-35.952229
32
0
13
0
23
-35.952229
33
0
39
0
210
0
220
0
230
1
0
MTEXT
5
198
100
AcDbEntity
8
0
62
256
6
ByLayer
370
18
48
1
60
0
100
AcDbMText
10
-28
20
-29.952229
30
0
210
0
220
0
230
1
1
\A1;56
40
3
41
0
44
1
50
0
71
5
72
5
7
iso_b_vert
0
POINT
5
199
100
AcDbEntity
8
Defpoints
62
0
6
ByLayer
370
-1
48
1
60
0
100
AcDbPoint
10
-56
20
-12.7
30
0
39
0
210
0
220
0
230
1
50
360
0
POINT
5
19A
100
AcDbEntity
8
Defpoints
62
0
6
ByLayer
370
-1
48
1
60
0
100
AcDbPoint
10
0
20
-12.7
30
0
39
0
210
0
220
0
230
1
50
360
0
POINT
5
19B
100
AcDbEntity
8
Defpoints
62
0
6
ByLayer
370
-1
48
1
60
0
100
AcDbPoint
10
0
20
-35.952229
30
0
39
0
210
0
220
0
230
1
50
360
0
ENDBLK
5
192
100
AcDbEntity
8
0
100
AcDbBlockEnd
0
BLOCK
5
1A3
100
AcDbEntity
8
0
100
AcDbBlockBegin
2
_U2
70
0
10
0
20
0
30
0
3
_U2
0
MTEXT
5
19D
100
AcDbEntity
8
SK2
62
256
6
ByLayer
370
18
48
1
60
0
100
AcDbMText
10
-32.48237
20
-35.067115
30
0
210
0
220
0
230
1
1
\W0.7468;56.00
40
3
41
0
44
1.084337
50
0
71
7
72
5
7
iso_b_vert
0
LINE
5
19E
100
AcDbEntity
8
SK2
62
256
6
ByLayer
370
13
48
1
60
0
100
AcDbLine
10
-56
20
-14.2875
30
0
11
-56
21
-37.952229
31
0
39
0
210
0
220
0
230
1
0
LINE
5
19F
100
AcDbEntity
8
SK2
62
256
6
ByLayer
370
13
48
1
60
0
100
AcDbLine
10
0
20
-14.2875
30
0
11
0
21
-37.952229
31
0
39
0
210
0
220
0
230
1
0
LINE
5
1A0
100
AcDbEntity
8
SK2
62
256
6
ByLayer
370
13
48
1
60
0
100
AcDbLine
10
-56
20
-35.952229
30
0
11
0
21
-35.952229
31
0
39
0
210
0
220
0
230
1
0
SOLID
5
1A1
100
AcDbEntity
8
SK2
62
256
6
ByLayer
370
18
48
1
60
0
100
AcDbTrace
10
-56
20
-35.952229
30
0
11
-52.500002
21
-35.491446
31
0
12
-52.499998
22
-36.413013
32
0
13
-52.499998
23
-36.413013
33
0
39
0
210
0
220
0
230
1
0
SOLID
5
1A2
100
AcDbEntity
8
SK2
62
256
6
ByLayer
370
18
48
1
60
0
100
AcDbTrace
10
0
20
-35.952229
30
0
11
-3.499998
21
-36.413013
31
0
12
-3.500002
22
-35.491446
32
0
13
-3.500002
23
-35.491446
33
0
39
0
210
0
220
0
230
1
0
ENDBLK
5
1A4
100
AcDbEntity
8
0
100
AcDbBlockEnd
0
BLOCK
5
1A9
100
AcDbEntity
8
0
100
AcDbBlockBegin
2
*D7
70
1
10
0
20
0
30
0
3
*D7
0
LINE
5
1AB
100
AcDbEntity
8
0
62
256
6
ByLayer
370
-2
48
1
60
0
100
AcDbLine
10
104.5
20
1.5875
30
0
11
104.5
21
34.952229
31
0
39
0
210
0
220
0
230
1
0
LINE
5
1AC
100
AcDbEntity
8
0
62
256
6
ByLayer
370
-2
48
1
60
0
100
AcDbLine
10
22
20
13.2955
30
0
11
22
21
34.952229
31
0
39
0
210
0
220
0
230
1
0
LINE
5
1AD
100
AcDbEntity
8
0
62
256
6
ByLayer
370
-2
48
1
60
0
100
AcDbLine
10
101
20
32.952229
30
0
11
25.5
21
32.952229
31
0
39
0
210
0
220
0
230
1
0
SOLID
5
1AE
100
AcDbEntity
8
0
62
256
6
ByLayer
370
-1
48
1
60
0
100
AcDbTrace
10
101
20
32.368896
30
0
11
101
21
33.535563
31
0
12
104.5
22
32.952229
32
0
13
104.5
23
32.952229
33
0
39
0
210
0
220
0
230
1
0
SOLID
5
1AF
100
AcDbEntity
8
0
62
256
6
ByLayer
370
-1
48
1
60
0
100
AcDbTrace
10
25.5
20
33.535563
30
0
11
25.5
21
32.368896
31
0
12
22
22
32.952229
32
0
13
22
23
32.952229
33
0
39
0
210
0
220
0
230
1
0
MTEXT
5
1B0
100
AcDbEntity
8
0
62
256
6
ByLayer
370
18
48
1
60
0
100
AcDbMText
10
63.25
20
38.952229
30
0
210
0
220
0
230
1
1
\A1;82.5
40
3
41
0
44
1
50
0
71
5
72
5
7
iso_b_vert
0
POINT
5
1B1
100
AcDbEntity
8
Defpoints
62
0
6
ByLayer
370
-1
48
1
60
0
100
AcDbPoint
10
104.5
20
0
30
0
39
0
210
0
220
0
230
1
50
360
0
POINT
5
1B2
100
AcDbEntity
8
Defpoints
62
0
6
ByLayer
370
-1
48
1
60
0
100
AcDbPoint
10
22
20
11.708
30
0
39
0
210
0
220
0
230
1
50
360
0
POINT
5
1B3
100
AcDbEntity
8
Defpoints
62
0
6
ByLayer
370
-1
48
1
60
0
100
AcDbPoint
10
22
20
32.952229
30
0
39
0
210
0
220
0
230
1
50
360
0
ENDBLK
5
1AA
100
AcDbEntity
8
0
100
AcDbBlockEnd
0
BLOCK
5
1BB
100
AcDbEntity
8
0
100
AcDbBlockBegin
2
_U3
70
0
10
0
20
0
30
0
3
_U3
0
MTEXT
5
1B5
100
AcDbEntity
8
SK2
62
256
6
ByLayer
370
18
48
1
60
0
100
AcDbMText
10
58.76763
20
33.837344
30
0
210
0
220
0
230
1
1
\W0.7468;82.50
40
3
41
0
44
1.084337
50
0
71
7
72
5
7
iso_b_vert
0
LINE
5
1B6
100
AcDbEntity
8
SK2
62
256
6
ByLayer
370
13
48
1
60
0
100
AcDbLine
10
104.5
20
1.5875
30
0
11
104.5
21
34.952229
31
0
39
0
210
0
220
0
230
1
0
LINE
5
1B7
100
AcDbEntity
8
SK2
62
256
6
ByLayer
370
13
48
1
60
0
100
AcDbLine
10
22
20
13.2955
30
0
11
22
21
34.952229
31
0
39
0
210
0
220
0
230
1
0
LINE
5
1B8
100
AcDbEntity
8
SK2
62
256
6
ByLayer
370
13
48
1
60
0
100
AcDbLine
10
104.5
20
32.952229
30
0
11
22
21
32.952229
31
0
39
0
210
0
220
0
230
1
0
SOLID
5
1B9
100
AcDbEntity
8
SK2
62
256
6
ByLayer
370
18
48
1
60
0
100
AcDbTrace
10
104.5
20
32.952229
30
0
11
101.000002
21
32.491446
31
0
12
100.999998
22
33.413013
32
0
13
100.999998
23
33.413013
33
0
39
0
210
0
220
0
230
1
0
SOLID
5
1BA
100
AcDbEntity
8
SK2
62
256
6
ByLayer
370
18
48
1
60
0
100
AcDbTrace
10
22
20
32.952229
30
0
11
25.499998
21
33.413013
31
0
12
25.500002
22
32.491446
32
0
13
25.500002
23
32.491446
33
0
39
0
210
0
220
0
230
1
0
ENDBLK
5
1BC
100
AcDbEntity
8
0
100
AcDbBlockEnd
0
ENDSEC
0
SECTION
2
ENTITIES
0
ARC
5
C2
100
AcDbEntity
8
SK2
62
256
6
ByLayer
370
13
48
1
60
0
100
AcDbCircle
39
0
10
104.5
20
0
30
0
40
19
210
0
220
0
230
1
100
AcDbArc
50
290
51
70
0
ELLIPSE
5
C3
100
AcDbEntity
8
SK1
62
256
6
ByLayer
370
18
48
1
60
0
100
AcDbEllipse
10
-20.619083
20
0
30
0
11
13.6190826173124
21
-1.54317782980885E-14
31
0
210
0
220
0
230
1
40
0.932515
41
-0.624896586633934
42
0.624896586633934
0
ELLIPSE
5
C4
100
AcDbEntity
8
SK1
62
256
6
ByLayer
370
18
48
1
60
0
100
AcDbEllipse
10
-37.157058
20
0
30
0
11
-2.33287510403163E-15
21
-12.7
31
0
210
0
220
0
230
1
40
0.932515
41
-2.1956929134288
42
-0.945899740160989
0
POINT
5
70
100
AcDbEntity
8
81
62
256
6
ByLayer
370
18
48
1
60
0
100
AcDbPoint
10
104.5
20
0
30
0
39
0
210
0
220
0
230
1
50
360
0
POINT
5
72
100
AcDbEntity
8
80
62
256
6
ByLayer
370
18
48
1
60
0
100
AcDbPoint
10
0
20
0
30
0
39
0
210
0
220
0
230
1
50
360
0
POINT
5
74
100
AcDbEntity
8
1
62
256
6
ByLayer
370
18
48
1
60
1
100
AcDbPoint
10
-56
20
-12.7
30
0
39
0
210
0
220
0
230
1
50
360
0
POINT
5
76
100
AcDbEntity
8
1
62
256
6
ByLayer
370
18
48
1
60
1
100
AcDbPoint
10
104.5
20
0
30
0
39
0
210
0
220
0
230
1
50
360
0
POINT
5
77
100
AcDbEntity
8
1
62
256
6
ByLayer
370
18
48
1
60
1
100
AcDbPoint
10
104.5
20
0
30
0
39
0
210
0
220
0
230
1
50
360
0
POINT
5
78
100
AcDbEntity
8
1
62
256
6
ByLayer
370
18
48
1
60
1
100
AcDbPoint
10
3
20
-11.708
30
0
39
0
210
0
220
0
230
1
50
360
0
POINT
5
79
100
AcDbEntity
8
1
62
256
6
ByLayer
370
18
48
1
60
1
100
AcDbPoint
10
-56
20
-12.7
30
0
39
0
210
0
220
0
230
1
50
360
0
POINT
5
7A
100
AcDbEntity
8
1
62
256
6
ByLayer
370
18
48
1
60
1
100
AcDbPoint
10
0
20
-12.7
30
0
39
0
210
0
220
0
230
1
50
360
0
POINT
5
7B
100
AcDbEntity
8
1
62
256
6
ByLayer
370
18
48
1
60
1
100
AcDbPoint
10
104.5
20
0
30
0
39
0
210
0
220
0
230
1
50
360
0
POINT
5
7C
100
AcDbEntity
8
1
62
256
6
ByLayer
370
18
48
1
60
1
100
AcDbPoint
10
22
20
11.708
30
0
39
0
210
0
220
0
230
1
50
360
0
SPLINE
5
C5
100
AcDbEntity
8
1
62
256
6
ByLayer
370
18
48
1
60
0
100
AcDbSpline
70
4
71
3
72
24
73
20
40
0
40
0
40
0
40
0
40
0.249999999999997
40
0.249999999999997
40
0.312499999999998
40
0.312499999999998
40
0.374999999999998
40
0.374999999999998
40
0.5
40
0.5
40
0.749999999999997
40
0.749999999999997
40
0.812499999999998
40
0.812499999999998
40
0.874999999999998
40
0.874999999999998
40
0.937499999999999
40
0.937499999999999
40
1
40
1
40
1
40
1
41
1
10
100.238636497207
20
-1.67120715387924
30
0
41
1
10
99.3343371210917
20
-1.34577311706124
30
0
41
1
10
98.4305281099445
20
-1.01933950517662
30
0
41
1
10
97.301663312516
20
-0.60926225065603
30
0
41
1
10
97.0759355169728
20
-0.527144159773798
30
0
41
1
10
96.6245758332307
20
-0.36268747888866
30
0
41
1
10
96.3989479551412
20
-0.280337828215977
30
0
41
1
10
95.7220681242426
20
-0.0333454700188724
30
0
41
1
10
95.2707441860645
20
0.131031337334747
30
0
41
1
10
93.9165416192779
20
0.623258793551116
30
0
41
1
10
93.0134672128801
20
0.950303957455645
30
0
41
1
10
91.8845630966881
20
1.35849762410277
30
0
41
1
10
91.6587797014253
20
1.44010698592382
30
0
41
1
10
91.2072128377783
20
1.60328067372092
30
0
41
1
10
90.9814363910688
20
1.68486430664001
30
0
41
1
10
90.5298117952998
20
1.84778916922622
30
0
41
1
10
90.3039512082981
20
1.92909618449707
30
0
41
1
10
89.8520760175808
20
2.09124157296725
30
0
41
1
10
89.6260698626641
20
2.17210319611001
30
0
41
1
10
89.4000000000004
20
2.25276716327443
30
0
0
SPLINE
5
C6
100
AcDbEntity
8
1
62
256
6
ByLayer
370
18
48
1
60
0
100
AcDbSpline
70
4
71
3
72
92
73
88
40
0
40
0
40
0
40
0
40
0.0312499999999973
40
0.0312499999999973
40
0.0624999999999945
40
0.0624999999999945
40
0.124999999999988
40
0.124999999999988
40
0.140624999999987
40
0.140624999999987
40
0.148437499999986
40
0.148437499999986
40
0.156249999999986
40
0.156249999999986
40
0.187499999999985
40
0.187499999999985
40
0.218749999999984
40
0.218749999999984
40
0.249999999999984
40
0.249999999999984
40
0.281249999999983
40
0.281249999999983
40
0.296874999999982
40
0.296874999999982
40
0.304687499999983
40
0.304687499999983
40
0.312499999999983
40
0.312499999999983
40
0.343749999999984
40
0.343749999999984
40
0.374999999999984
40
0.374999999999984
40
0.406249999999985
40
0.406249999999985
40
0.437499999999986
40
0.437499999999986
40
0.445312499999986
40
0.445312499999986
40
0.453124999999986
40
0.468749999999986
40
0.468749999999986
40
0.499999999999985
40
0.499999999999985
40
0.531249999999985
40
0.531249999999985
40
0.535156249999985
40
0.535156249999985
40
0.539062499999985
40
0.539062499999985
40
0.546874999999986
40
0.562499999999987
40
0.562499999999987
40
0.59374999999999
40
0.59374999999999
40
0.624999999999992
40
0.624999999999992
40
0.632812499999993
40
0.632812499999993
40
0.640624999999994
40
0.656249999999995
40
0.656249999999995
40
0.687499999999996
40
0.687499999999996
40
0.718749999999998
40
0.718749999999998
40
0.726562499999998
40
0.726562499999998
40
0.734374999999998
40
0.734374999999998
40
0.749999999999998
40
0.749999999999998
40
0.781249999999999
40
0.781249999999999
40
0.812499999999999
40
0.812499999999999
40
0.843749999999999
40
0.843749999999999
40
0.8515625
40
0.8515625
40
0.859375000000001
40
0.875000000000001
40
0.875000000000001
40
0.906250000000001
40
0.9375
40
0.96875
40
0.96875
40
1
40
1
40
1
40
1
41
1
10
100.238636497211
20
11.3362269876467
30
0
41
1
10
100.311762968062
20
11.1549015132062
30
0
41
1
10
100.385003222728
20
10.9708522580827
30
0
41
1
10
100.531836386433
20
10.5977336648804
30
0
41
1
10
100.605429169492
20
10.4086633681205
30
0
41
1
10
100.82686795142
20
9.8343841974077
30
0
41
1
10
100.975395973618
20
9.44213716739324
30
0
41
1
10
101.162335629303
20
8.94099836419875
30
0
41
1
10
101.199785845527
20
8.84022637427788
30
0
41
1
10
101.256051849844
20
8.68826079192127
30
0
41
1
10
101.274835079995
20
8.63743621531086
30
0
41
1
10
101.312365638594
20
8.53569581856317
30
0
41
1
10
101.331103632173
20
8.48480545858726
30
0
41
1
10
101.424657140697
20
8.23025373733455
30
0
41
1
10
101.499067298211
20
8.02629440835463
30
0
41
1
10
101.646961507128
20
7.61773605696584
30
0
41
1
10
101.720446266924
20
7.41313717980478
30
0
41
1
10
101.866321722946
20
7.00325191222697
30
0
41
1
10
101.938714087119
20
6.79796610519179
30
0
41
1
10
102.082093497202
20
6.38660378864103
30
0
41
1
10
102.153083442087
20
6.18052832596328
30
0
41
1
10
102.258123684521
20
5.87068541835632
30
0
41
1
10
102.292894416942
20
5.76728211662567
30
0
41
1
10
102.344615737889
20
5.61196841937647
30
0
41
1
10
102.361793371365
20
5.56013244884298
30
0
41
1
10
102.395937656595
20
5.45654261158023
30
0
41
1
10
102.412899062899
20
5.404805024604
30
0
41
1
10
102.49711750462
20
5.14639203580899
30
0
41
1
10
102.562629381322
20
4.94054411880455
30
0
41
1
10
102.688728754696
20
4.53027596098624
30
0
41
1
10
102.749324500389
20
4.32585711113373
30
0
41
1
10
102.863749325941
20
3.91802170570827
30
0
41
1
10
102.917588136191
20
3.7146060019989
30
0
41
1
10
103.015724387985
20
3.3082238267977
30
0
41
1
10
103.060026279742
20
3.10525571022944
30
0
41
1
10
103.1069685435
20
2.85140189333111
30
0
41
1
10
103.115941253649
20
2.80056937953179
30
0
41
1
10
103.132919962769
20
2.69914648118359
30
0
41
1
10
103.156913988221
20
2.54754108402233
30
0
41
1
10
103.176227409879
20
2.3975423663899
30
0
41
1
10
103.207983118573
20
2.09976880744438
30
0
41
1
10
103.219924648727
20
1.90420779088311
30
0
41
1
10
103.223102461963
20
1.51968466303532
30
0
41
1
10
103.21431974186
20
1.33072572202258
30
0
41
1
10
103.192855855413
20
1.12241380156851
30
0
41
1
10
103.190311707499
20
1.09932744037786
30
0
41
1
10
103.184907806294
20
1.05327567889705
30
0
41
1
10
103.182045577336
20
1.03029277463287
30
0
41
1
10
103.173019755679
20
0.961742080839457
30
0
41
1
10
103.15319796014
20
0.826092782032333
30
0
41
1
10
103.128371400537
20
0.69474702925308
30
0
41
1
10
103.072875500027
20
0.437657048101471
30
0
41
1
10
103.028119682727
20
0.273722074404361
30
0
41
1
10
102.927114510473
20
-0.0398010129707984
30
0
41
1
10
102.870873753577
20
-0.189393374654287
30
0
41
1
10
102.795252915598
20
-0.367545938332512
30
0
41
1
10
102.779842571654
20
-0.40277173029412
30
0
41
1
10
102.748610254232
20
-0.472137149589571
30
0
41
1
10
102.701176206657
20
-0.574490635459426
30
0
41
1
10
102.652166616044
20
-0.671859045471024
30
0
41
1
10
102.552426482285
20
-0.86014639731539
30
0
41
1
10
102.483661116261
20
-0.977089895394414
30
0
41
1
10
102.342917754298
20
-1.19437637221495
30
0
41
1
10
102.270930296279
20
-1.29471629773107
30
0
41
1
10
102.179369955836
20
-1.40977559405195
30
0
41
1
10
102.160977923507
20
-1.43226795712837
30
0
41
1
10
102.124040740235
20
-1.47620922712127
30
0
41
1
10
102.105494391843
20
-1.49765772968774
30
0
41
1
10
102.049881950519
20
-1.56016004615896
30
0
41
1
10
102.012760893766
20
-1.59947134063478
30
0
41
1
10
101.901317509239
20
-1.71049094131402
30
0
41
1
10
101.826920503601
20
-1.77529918909082
30
0
41
1
10
101.678058857858
20
-1.88696007064104
30
0
41
1
10
101.603591908346
20
-1.93381089926166
30
0
41
1
10
101.45456722413
20
-2.00956960778328
30
0
41
1
10
101.380008435661
20
-2.03847754552376
30
0
41
1
10
101.286674897671
20
-2.06315069664518
30
0
41
1
10
101.268003915655
20
-2.06750877390408
30
0
41
1
10
101.230817785765
20
-2.07503900053121
30
0
41
1
10
101.175207388078
20
-2.08457339028888
30
0
41
1
10
101.120085297835
20
-2.08888284104822
30
0
41
1
10
101.010444181902
20
-2.09065140948945
30
0
41
1
10
100.86586379751
20
-2.07476587945254
30
0
41
1
10
100.653058219552
20
-1.99716228756239
30
0
41
1
10
100.513399214935
20
-1.90948911357842
30
0
41
1
10
100.374594553906
20
-1.80344179468443
30
0
41
1
10
100.3061764016
20
-1.74165250005345
30
0
41
1
10
100.238636497211
20
-1.67120715388074
30
0
0
SPLINE
5
C7
100
AcDbEntity
8
1
62
256
6
ByLayer
370
18
48
1
60
0
100
AcDbSpline
70
4
71
3
72
20
73
16
40
0
40
0
40
0
40
0
40
0.0003331755636088
40
0.0003331755636088
40
0.333555450375742
40
0.333555450375742
40
0.416861019078775
40
0.416861019078775
40
0.500166587781809
40
0.500166587781809
40
0.583472156484842
40
0.583472156484842
40
0.666777725187876
40
0.666777725187876
40
1
40
1
40
1
40
1
41
1
10
92.10753731003
20
11.7065364021464
30
0
41
1
10
92.108440418994
20
11.7065365636768
30
0
41
1
10
92.1093435278648
20
11.7065367114145
30
0
41
1
10
93.0134820296755
20
11.7066708096158
30
0
41
1
10
93.9166305821847
20
11.6930416419152
30
0
41
1
10
95.0450285567467
20
11.658709312048
30
0
41
1
10
95.2706804692488
20
11.6509749127482
30
0
41
1
10
95.7219161177999
20
11.6337550065882
30
0
41
1
10
95.9474918363424
20
11.6242657729351
30
0
41
1
10
96.3986908080383
20
11.6035641310179
30
0
41
1
10
96.6243330249613
20
11.5923591787961
30
0
41
1
10
97.0757468087378
20
11.5682705387816
30
0
41
1
10
97.3015079437213
20
11.5553833010504
30
0
41
1
10
98.4305161003425
20
11.4867237652264
30
0
41
1
10
99.3344026356781
20
11.418341272628
30
0
41
1
10
100.238636497207
20
11.3362269876471
30
0
0
SPLINE
5
C8
100
AcDbEntity
8
1
62
256
6
ByLayer
370
18
48
1
60
0
100
AcDbSpline
70
4
71
3
72
54
73
50
40
0
40
0
40
0
40
0
40
0.0176295498109847
40
0.0176295498109847
40
0.0441801025187977
40
0.0441801025187977
40
0.0972812079344238
40
0.0972812079344238
40
0.150382313350049
40
0.150382313350049
40
0.203483418765675
40
0.203483418765675
40
0.230033971473489
40
0.230033971473489
40
0.256584524181302
40
0.256584524181302
40
0.283135076889114
40
0.283135076889114
40
0.309685629596927
40
0.309685629596927
40
0.362786735012549
40
0.362786735012549
40
0.415887840428171
40
0.415887840428171
40
0.468988945843793
40
0.468988945843793
40
0.495539498551604
40
0.495539498551604
40
0.522090051259415
40
0.522090051259415
40
0.548640603967227
40
0.548640603967227
40
0.575191156675038
40
0.575191156675038
40
0.681393367506279
40
0.681393367506279
40
0.734494472921899
40
0.734494472921899
40
0.761045025629709
40
0.761045025629709
40
0.787595578337519
40
0.787595578337519
40
0.814146131045329
40
0.814146131045329
40
0.840696683753139
40
0.840696683753139
40
0.89379778916876
40
0.89379778916876
40
1
40
1
40
1
40
1
41
1
10
68.6067271835234
20
8.31671120778722
30
0
41
1
10
68.7289096259557
20
8.34587909247165
30
0
41
1
10
68.8511034948863
20
8.37485382805178
30
0
41
1
10
69.15737835371
20
8.44693391114825
30
0
41
1
10
69.3414788230654
20
8.48978576842956
30
0
41
1
10
69.8938801130986
20
8.61699507243708
30
0
41
1
10
70.262327128976
20
8.70002792164127
30
0
41
1
10
70.9991446245011
20
8.86256682252179
30
0
41
1
10
71.3675011856367
20
8.94206520347257
30
0
41
1
10
72.1040643597297
20
9.09760237919636
30
0
41
1
10
72.4722701711418
20
9.17364262712221
30
0
41
1
10
73.0244267907226
20
9.28515766804392
30
0
41
1
10
73.2084535029184
20
9.32190513444948
30
0
41
1
10
73.5764490060891
20
9.39455747721402
30
0
41
1
10
73.7604138364033
20
9.43046818973528
30
0
41
1
10
74.1283437676133
20
9.50135071522314
30
0
41
1
10
74.3123135753289
20
9.53631517785954
30
0
41
1
10
74.6803308682821
20
9.60519097786977
30
0
41
1
10
74.864370514403
20
9.63911478446096
30
0
41
1
10
75.4165594789941
20
9.73938664820864
30
0
41
1
10
75.7847736130825
20
9.8042434991257
30
0
41
1
10
76.5213293137347
20
9.9300636950899
30
0
41
1
10
76.8896734130053
20
9.99102347056126
30
0
41
1
10
77.6264485348215
20
10.1090989824061
30
0
41
1
10
77.9948997967273
20
10.1662182005414
30
0
41
1
10
78.5471982118578
20
10.2489813849407
30
0
41
1
10
78.7312509405176
20
10.2760858175986
30
0
41
1
10
79.099255886446
20
10.3293310988215
30
0
41
1
10
79.2832043200641
20
10.3554758584228
30
0
41
1
10
79.6510587804561
20
10.4067299003382
30
0
41
1
10
79.8349695856238
20
10.4318337352579
30
0
41
1
10
80.2028247738286
20
10.4809275773331
30
0
41
1
10
80.386761396143
20
10.5049267071189
30
0
41
1
10
81.3064523385299
20
10.6222410168575
30
0
41
1
10
82.0422063711237
20
10.7075553649541
30
0
41
1
10
83.1455826272895
20
10.8230456151656
30
0
41
1
10
83.513331079584
20
10.8594593738514
30
0
41
1
10
84.0648503037705
20
10.9109645205667
30
0
41
1
10
84.2486726618561
20
10.9276134993019
30
0
41
1
10
84.6162758032234
20
10.9598712074306
30
0
41
1
10
84.800052760851
20
10.975482090322
30
0
41
1
10
85.1676235671425
20
11.00561800801
30
0
41
1
10
85.3514221565145
20
11.02013987775
30
0
41
1
10
85.7191126203097
20
11.0480540221478
30
0
41
1
10
85.9029966866235
20
11.0614517760438
30
0
41
1
10
86.4547424632403
20
11.0999898331354
30
0
41
1
10
86.822692583631
20
11.1234786324793
30
0
41
1
10
87.9268288491919
20
11.1874018620357
30
0
41
1
10
88.6633133833163
20
11.2213042502629
30
0
41
1
10
89.4
20
11.246475055562
30
0
0
SPLINE
5
C9
100
AcDbEntity
8
1
62
256
6
ByLayer
370
18
48
1
60
0
100
AcDbSpline
70
4
71
3
72
75
73
71
40
0
40
0
40
0
40
0
40
0.052943668097447
40
0.052943668097447
40
0.0794155021461705
40
0.0794155021461705
40
0.105887336194894
40
0.105887336194894
40
0.158831004292341
40
0.158831004292341
40
0.185302838341064
40
0.185302838341064
40
0.211774672389787
40
0.211774672389787
40
0.225010589414148
40
0.225010589414148
40
0.238246506438509
40
0.238246506438509
40
0.264718340487232
40
0.264718340487232
40
0.317662008584677
40
0.317662008584677
40
0.344133842633399
40
0.344133842633399
40
0.370605676682121
40
0.370605676682121
40
0.423549344779566
40
0.423549344779566
40
0.45002117882829
40
0.45002117882829
40
0.476493012877012
40
0.476493012877012
40
0.502964846925735
40
0.502964846925735
40
0.529436680974458
40
0.529436680974458
40
0.55590851502318
40
0.55590851502318
40
0.582380349071903
40
0.582380349071903
40
0.595616266096264
40
0.595616266096264
40
0.608852183120625
40
0.635324017169347
40
0.635324017169347
40
0.661795851218068
40
0.661795851218068
40
0.68826768526679
40
0.68826768526679
40
0.714739519315512
40
0.714739519315512
40
0.741211353364234
40
0.741211353364234
40
0.794155021461677
40
0.794155021461677
40
0.820626855510399
40
0.820626855510399
40
0.847098689559121
40
0.847098689559121
40
0.900042357656565
40
0.900042357656565
40
0.926514191705286
40
0.926514191705286
40
0.952986025754008
40
0.952986025754008
40
0.96622194277837
40
0.96622194277837
40
0.979457859802731
40
0.979457859802731
40
1
40
1
40
1
40
1
41
1
10
89.4
20
2.02984478372363
30
0
41
1
10
88.6103918297549
20
2.30254679488664
30
0
41
1
10
87.820953143343
20
2.57274749085266
30
0
41
1
10
86.6372307247939
20
2.97481665588259
30
0
41
1
10
86.2427327763364
20
3.10830973915034
30
0
41
1
10
85.4539134525074
20
3.37429109665482
30
0
41
1
10
85.0595973215844
20
3.50679116079533
30
0
41
1
10
83.8762159830778
20
3.90088302565502
30
0
41
1
10
83.0868810756625
20
4.15952293624267
30
0
41
1
10
81.9024349874397
20
4.54185431133408
30
0
41
1
10
81.5075899897955
20
4.66834328267777
30
0
41
1
10
80.7182634198899
20
4.91938482209306
30
0
41
1
10
80.3237422160951
20
5.04399223855623
30
0
41
1
10
79.7321100427306
20
5.22935604381252
30
0
41
1
10
79.5349156192581
20
5.29086393321003
30
0
41
1
10
79.140485707752
20
5.41313522405085
30
0
41
1
10
78.9432547983499
20
5.47391048243654
30
0
41
1
10
78.3515222150578
20
5.6551797256694
30
0
41
1
10
77.9569821913908
20
5.7746213888156
30
0
41
1
10
76.7732479024482
20
6.12885171692764
30
0
41
1
10
75.9839338163199
20
6.35954122361176
30
0
41
1
10
74.7999342334307
20
6.69781443229306
30
0
41
1
10
74.4052650505196
20
6.80937184331523
30
0
41
1
10
73.6161140334407
20
7.02910999681873
30
0
41
1
10
73.2215223021832
20
7.13718153511087
30
0
41
1
10
72.0377410810588
20
7.4561487786475
30
0
41
1
10
71.2485449919184
20
7.66180733542922
30
0
41
1
10
70.0649216119254
20
7.96021943498707
30
0
41
1
10
69.6704124277796
20
8.05801504618103
30
0
41
1
10
68.8814811711253
20
8.25027334260818
30
0
41
1
10
68.487059700933
20
8.34473127652154
30
0
41
1
10
67.6978353959025
20
8.52939720198265
30
0
41
1
10
67.3030130092762
20
8.61970271397129
30
0
41
1
10
66.5134586903791
20
8.79624170113743
30
0
41
1
10
66.1187302905612
20
8.88247163618183
30
0
41
1
10
65.3293982536235
20
9.05091134317519
30
0
41
1
10
64.9347950716968
20
9.13312208065395
30
0
41
1
10
64.1457541931096
20
9.2935769806694
30
0
41
1
10
63.7513323044146
20
9.37184533316707
30
0
41
1
10
63.1597767379375
20
9.48616995519455
30
0
41
1
10
62.9625952342666
20
9.5237504689965
30
0
41
1
10
62.568167827946
20
9.59774807429545
30
0
41
1
10
61.9764447892277
20
9.70702301000006
30
0
41
1
10
61.384505588491
20
9.8112016288139
30
0
41
1
10
60.5950886050383
20
9.94563336166618
30
0
41
1
10
60.2002680327901
20
10.0106159894056
30
0
41
1
10
59.4106167310687
20
10.136122342133
30
0
41
1
10
59.0159073511098
20
10.1966296674007
30
0
41
1
10
58.2267542089093
20
10.3131691896153
30
0
41
1
10
57.8323501725228
20
10.3692425586295
30
0
41
1
10
57.0435214098528
20
10.4765567905184
30
0
41
1
10
56.6490442672066
20
10.5277464293319
30
0
41
1
10
55.465474675168
20
10.6740290557084
30
0
41
1
10
54.6762405611564
20
10.7618477029124
30
0
41
1
10
53.4922923994412
20
10.8791862818228
30
0
41
1
10
53.0976302034168
20
10.9158995803008
30
0
41
1
10
52.3083023274533
20
10.9844996637303
30
0
41
1
10
51.9137265336159
20
11.0163664446887
30
0
41
1
10
50.7299573947551
20
11.1042063832173
30
0
41
1
10
49.9407374555688
20
11.1525882722608
30
0
41
1
10
48.7570193463697
20
11.2101181403061
30
0
41
1
10
48.3624653181676
20
11.2267837251708
30
0
41
1
10
47.5734340586401
20
11.2550834475029
30
0
41
1
10
47.1789737035188
20
11.266720026713
30
0
41
1
10
46.5872879541738
20
11.2803531859937
30
0
41
1
10
46.3900503565645
20
11.2842584655874
30
0
41
1
10
45.9954874916329
20
11.2907827356099
30
0
41
1
10
45.7981678141895
20
11.2934031342115
30
0
41
1
10
45.2945174888515
20
11.2984599839732
30
0
41
1
10
44.9881316686688
20
11.2999964825795
30
0
41
1
10
44.6817792627211
20
11.3000000157592
30
0
0
SPLINE
5
CA
100
AcDbEntity
8
1
62
256
6
ByLayer
370
18
48
1
60
0
100
AcDbSpline
70
4
71
3
72
12
73
8
40
0
40
0
40
0
40
0
40
0.250250216878995
40
0.250250216878995
40
0.500500433757989
40
0.500500433757989
40
1
40
1
40
1
40
1
41
1
10
89.4
20
-11.6644485346126
30
0
41
1
10
89.6260469489506
20
-11.6714217076978
30
0
41
1
10
89.8520180620895
20
-11.6775356330075
30
0
41
1
10
90.3037956491163
20
-11.6880371131527
30
0
41
1
10
90.5296013290484
20
-11.6924232416104
30
0
41
1
10
91.2060847529117
20
-11.7029398193703
30
0
41
1
10
91.6568226164909
20
-11.7064557870721
30
0
41
1
10
92.1075372911645
20
-11.706536402143
30
0
0
SPLINE
5
CB
100
AcDbEntity
8
1
62
256
6
ByLayer
370
18
48
1
60
0
100
AcDbSpline
70
4
71
3
72
166
73
162
40
0
40
0
40
0
40
0
40
0.031249999999998
40
0.031249999999998
40
0.0624999999999961
40
0.0624999999999961
40
0.0703124999999957
40
0.0703124999999957
40
0.0781249999999954
40
0.0781249999999954
40
0.085937499999995
40
0.085937499999995
40
0.0937499999999946
40
0.0937499999999946
40
0.109374999999994
40
0.109374999999994
40
0.124999999999993
40
0.124999999999993
40
0.140624999999993
40
0.140624999999993
40
0.148437499999992
40
0.148437499999992
40
0.156249999999992
40
0.156249999999992
40
0.164062499999991
40
0.164062499999991
40
0.171874999999991
40
0.171874999999991
40
0.187499999999991
40
0.187499999999991
40
0.203124999999991
40
0.203124999999991
40
0.218749999999991
40
0.218749999999991
40
0.22656249999999
40
0.22656249999999
40
0.23437499999999
40
0.23437499999999
40
0.24218749999999
40
0.24218749999999
40
0.24999999999999
40
0.24999999999999
40
0.28124999999999
40
0.28124999999999
40
0.296874999999989
40
0.296874999999989
40
0.304687499999989
40
0.304687499999989
40
0.312499999999989
40
0.312499999999989
40
0.320312499999989
40
0.320312499999989
40
0.328124999999989
40
0.328124999999989
40
0.343749999999988
40
0.343749999999988
40
0.374999999999987
40
0.374999999999987
40
0.382812499999987
40
0.382812499999987
40
0.390624999999987
40
0.390624999999987
40
0.398437499999987
40
0.398437499999987
40
0.406249999999987
40
0.406249999999987
40
0.421874999999987
40
0.421874999999987
40
0.437499999999987
40
0.437499999999987
40
0.453124999999988
40
0.453124999999988
40
0.460937499999988
40
0.460937499999988
40
0.468749999999988
40
0.468749999999988
40
0.476562499999988
40
0.476562499999988
40
0.484374999999987
40
0.484374999999987
40
0.499999999999988
40
0.499999999999988
40
0.515624999999988
40
0.515624999999988
40
0.531249999999988
40
0.531249999999988
40
0.539062499999989
40
0.539062499999989
40
0.546874999999989
40
0.546874999999989
40
0.554687499999989
40
0.554687499999989
40
0.562499999999989
40
0.562499999999989
40
0.593749999999989
40
0.593749999999989
40
0.609374999999989
40
0.609374999999989
40
0.617187499999989
40
0.617187499999989
40
0.624999999999989
40
0.624999999999989
40
0.63281249999999
40
0.63281249999999
40
0.64062499999999
40
0.64062499999999
40
0.65624999999999
40
0.65624999999999
40
0.68749999999999
40
0.68749999999999
40
0.69531249999999
40
0.69531249999999
40
0.70312499999999
40
0.70312499999999
40
0.71093749999999
40
0.71093749999999
40
0.718749999999989
40
0.718749999999989
40
0.734374999999988
40
0.734374999999988
40
0.749999999999987
40
0.749999999999987
40
0.765624999999985
40
0.765624999999985
40
0.773437499999985
40
0.773437499999985
40
0.781249999999984
40
0.781249999999984
40
0.789062499999984
40
0.789062499999984
40
0.796874999999983
40
0.796874999999983
40
0.812499999999983
40
0.812499999999983
40
0.828124999999983
40
0.828124999999983
40
0.843749999999982
40
0.843749999999982
40
0.851562499999983
40
0.851562499999983
40
0.859374999999983
40
0.859374999999983
40
0.867187499999984
40
0.867187499999984
40
0.874999999999984
40
0.874999999999984
40
0.906249999999989
40
0.906249999999989
40
0.921874999999991
40
0.921874999999991
40
0.929687499999992
40
0.929687499999992
40
0.937499999999994
40
0.937499999999994
40
0.945312499999995
40
0.945312499999995
40
0.953124999999996
40
0.953124999999996
40
0.968749999999997
40
0.968749999999997
40
1
40
1
40
1
40
1
41
1
10
18.71655047232
20
7.48372147118801
30
0
41
1
10
19.4528744374086
20
7.28895060126311
30
0
41
1
10
20.1893690131634
20
7.08939402954056
30
0
41
1
10
21.6622788384201
20
6.67999484862608
30
0
41
1
10
22.3986967771387
20
6.47015737787149
30
0
41
1
10
23.318931137655
20
6.20083608890309
30
0
41
1
10
23.50296339875
20
6.14661934694252
30
0
41
1
10
23.8709917245233
20
6.0374604429453
30
0
41
1
10
24.0549828034771
20
5.98250597641064
30
0
41
1
10
24.4229796876489
20
5.87199133502153
30
0
41
1
10
24.6069890180258
20
5.81643966000919
30
0
41
1
10
24.9751058794772
20
5.70493746750714
30
0
41
1
10
25.1592061919548
20
5.64896962042741
30
0
41
1
10
25.711609675703
20
5.48036422817358
30
0
41
1
10
26.0800625339455
20
5.36699506671582
30
0
41
1
10
26.8168666441411
20
5.13833582403345
30
0
41
1
10
27.1852186622202
20
5.02305394988809
30
0
41
1
10
27.921777758093
20
4.7904720750538
30
0
41
1
10
28.2899839077385
20
4.67316971666637
30
0
41
1
10
28.8421447678516
20
4.49559219958948
30
0
41
1
10
29.0261735212428
20
4.43612856546764
30
0
41
1
10
29.3941743411688
20
4.31663845081644
30
0
41
1
10
29.5781415036408
20
4.25659885374586
30
0
41
1
10
29.946071052688
20
4.13609183572305
30
0
41
1
10
30.1300371101046
20
4.07563410023224
30
0
41
1
10
30.4980478315429
20
3.95451444747718
30
0
41
1
10
30.6820851385817
20
3.89383317507324
30
0
41
1
10
31.2342698668734
20
3.71136714187207
30
0
41
1
10
31.6024845601189
20
3.58914559963256
30
0
41
1
10
32.3390453936489
20
3.34341630787432
30
0
41
1
10
32.7073943753282
20
3.21991625805077
30
0
41
1
10
33.4441846006506
20
2.97152041200513
30
0
41
1
10
33.8126294317586
20
2.84662028795103
30
0
41
1
10
34.3650100618639
20
2.65821595334541
30
0
41
1
10
34.5491021835621
20
2.59523395916338
30
0
41
1
10
34.9172098894659
20
2.46888840984613
30
0
41
1
10
35.1012206789331
20
2.40551140485371
30
0
41
1
10
35.4692182179913
20
2.27852157313879
30
0
41
1
10
35.6532087661663
20
2.21491934695195
30
0
41
1
10
36.0212483452106
20
2.08771084253786
30
0
41
1
10
36.2052899475342
20
2.02408385959819
30
0
41
1
10
37.1255689432128
20
1.70573112772629
30
0
41
1
10
37.8619917015632
20
1.45027730901481
30
0
41
1
10
38.9666618379133
20
1.0652057144033
30
0
41
1
10
39.3348903330941
20
0.936530266055797
30
0
41
1
10
39.8872031479581
20
0.742928978826683
30
0
41
1
10
40.0713022999523
20
0.678296780353946
30
0
41
1
10
40.4394836452243
20
0.548815241872234
30
0
41
1
10
40.6235611549987
20
0.483952415148451
30
0
41
1
10
40.9917526825179
20
0.354161848074682
30
0
41
1
10
41.1758371100697
20
0.289257191201926
30
0
41
1
10
41.5440380716357
20
0.159647787241226
30
0
41
1
10
41.7281502573962
20
0.0949204081630342
30
0
41
1
10
42.2804993005566
20
-0.0990954428612838
30
0
41
1
10
42.6487432207252
20
-0.228233211681697
30
0
41
1
10
43.7534335463669
20
-0.615246101743168
30
0
41
1
10
44.4898531555579
20
-0.872680383239128
30
0
41
1
10
45.4100801440407
20
-1.19445192708221
30
0
41
1
10
45.5941104146754
20
-1.25880577652262
30
0
41
1
10
45.962133859881
20
-1.38753144141171
30
0
41
1
10
46.1461224456694
20
-1.45191622050768
30
0
41
1
10
46.5141166881607
20
-1.58054983581667
30
0
41
1
10
46.6981263823672
20
-1.64478723543022
30
0
41
1
10
47.0662438502262
20
-1.7728973010606
30
0
41
1
10
47.2503440401728
20
-1.83679146422665
30
0
41
1
10
47.8027458712431
20
-2.02805737686461
30
0
41
1
10
48.1711956885943
20
-2.15504584566165
30
0
41
1
10
48.9080059592579
20
-2.40798513417377
30
0
41
1
10
49.2763600467255
20
-2.53392540920851
30
0
41
1
10
50.0129209185559
20
-2.78487450052037
30
0
41
1
10
50.3811268351746
20
-2.90988575704324
30
0
41
1
10
50.9332855866336
20
-3.09680756565427
30
0
41
1
10
51.1173133410281
20
-3.15901596434526
30
0
41
1
10
51.4853115828172
20
-3.28325213650709
30
0
41
1
10
51.66927759175
20
-3.34529198955221
30
0
41
1
10
52.0372073692486
20
-3.46903925698786
30
0
41
1
10
52.2211753168588
20
-3.53073527749922
30
0
41
1
10
52.5891894638482
20
-3.65357805791081
30
0
41
1
10
52.7732280035628
20
-3.71474576706558
30
0
41
1
10
53.3254150243204
20
-3.89755297626354
30
0
41
1
10
53.6936295231451
20
-4.01851129383203
30
0
41
1
10
54.4301879343777
20
-4.25874285836747
30
0
41
1
10
54.7985345308638
20
-4.37800893754985
30
0
41
1
10
55.5353172854421
20
-4.61495969789471
30
0
41
1
10
55.9037632503794
20
-4.73264979950753
30
0
41
1
10
56.4561442863004
20
-4.90799129433933
30
0
41
1
10
56.6402362030652
20
-4.96624397104864
30
0
41
1
10
57.0083428272311
20
-5.08237532741708
30
0
41
1
10
57.1923531836642
20
-5.14026485369325
30
0
41
1
10
57.5603523507043
20
-5.25552544346576
30
0
41
1
10
57.7443454754981
20
-5.31288553689978
30
0
41
1
10
58.1123898260248
20
-5.4268892480934
30
0
41
1
10
58.2964333498662
20
-5.48355256984075
30
0
41
1
10
59.2167196660914
20
-5.76528057661403
30
0
41
1
10
59.9531426010793
20
-5.98565375228276
30
0
41
1
10
61.057806157758
20
-6.30937099220472
30
0
41
1
10
61.4260312042925
20
-6.41613667891738
30
0
41
1
10
61.9783368815707
20
-6.57465133006184
30
0
41
1
10
62.1624333239963
20
-6.62721740782558
30
0
41
1
10
62.5306085992457
20
-6.73181721380323
30
0
41
1
10
62.7146832141626
20
-6.78386038595482
30
0
41
1
10
63.0828714520723
20
-6.88728113486087
30
0
41
1
10
63.2669620747025
20
-6.93864079167423
30
0
41
1
10
63.6351695363089
20
-7.04049391561722
30
0
41
1
10
63.8192845067514
20
-7.09100693236283
30
0
41
1
10
64.3716405299284
20
-7.24136359764265
30
0
41
1
10
64.7398874320133
20
-7.34003708507757
30
0
41
1
10
65.8445837327106
20
-7.63155330872559
30
0
41
1
10
66.5810025605282
20
-7.8198741674598
30
0
41
1
10
67.5012219233407
20
-8.04820856091752
30
0
41
1
10
67.6852503374442
20
-8.09352166553128
30
0
41
1
10
68.0532694165458
20
-8.18344928272359
30
0
41
1
10
68.237255983023
20
-8.22807150051912
30
0
41
1
10
68.6052486902853
20
-8.3165008865877
30
0
41
1
10
68.7892593898024
20
-8.36029916218533
30
0
41
1
10
69.15737835371
20
-8.44693391114828
30
0
41
1
10
69.3414788230655
20
-8.48978576842958
30
0
41
1
10
69.8938801130986
20
-8.61699507243713
30
0
41
1
10
70.262327128976
20
-8.70002792164129
30
0
41
1
10
70.9991446245012
20
-8.86256682252181
30
0
41
1
10
71.3675011856367
20
-8.94206520347257
30
0
41
1
10
72.1040643597298
20
-9.09760237919639
30
0
41
1
10
72.4722701711419
20
-9.17364262712221
30
0
41
1
10
73.0244267907226
20
-9.28515766804398
30
0
41
1
10
73.2084535029185
20
-9.32190513444948
30
0
41
1
10
73.5764490060891
20
-9.39455747721405
30
0
41
1
10
73.7604138364034
20
-9.43046818973528
30
0
41
1
10
74.1283437676134
20
-9.50135071522314
30
0
41
1
10
74.3123135753289
20
-9.53631517785954
30
0
41
1
10
74.6803308682821
20
-9.6051909778698
30
0
41
1
10
74.8643705144031
20
-9.63911478446096
30
0
41
1
10
75.4165594789943
20
-9.73938664820867
30
0
41
1
10
75.7847736130826
20
-9.80424349912573
30
0
41
1
10
76.5213293137347
20
-9.9300636950899
30
0
41
1
10
76.8896734130053
20
-9.99102347056129
30
0
41
1
10
77.6264485348215
20
-10.1090989824061
30
0
41
1
10
77.9948997967273
20
-10.1662182005415
30
0
41
1
10
78.5471982118578
20
-10.2489813849407
30
0
41
1
10
78.7312509405177
20
-10.2760858175987
30
0
41
1
10
79.0992558864461
20
-10.3293310988215
30
0
41
1
10
79.2832043200641
20
-10.3554758584228
30
0
41
1
10
79.6510587804561
20
-10.4067299003382
30
0
41
1
10
79.8349695856239
20
-10.4318337352579
30
0
41
1
10
80.2028247738287
20
-10.4809275773331
30
0
41
1
10
80.3867613961429
20
-10.5049267071189
30
0
41
1
10
81.3064523385298
20
-10.6222410168575
30
0
41
1
10
82.0422063711237
20
-10.7075553649541
30
0
41
1
10
83.1455826272896
20
-10.8230456151656
30
0
41
1
10
83.513331079584
20
-10.8594593738514
30
0
41
1
10
84.0648503037705
20
-10.9109645205667
30
0
41
1
10
84.2486726618561
20
-10.9276134993019
30
0
41
1
10
84.6162758032234
20
-10.9598712074306
30
0
41
1
10
84.8000527608511
20
-10.975482090322
30
0
41
1
10
85.1676235671424
20
-11.00561800801
30
0
41
1
10
85.3514221565146
20
-11.02013987775
30
0
41
1
10
85.7191126203097
20
-11.0480540221478
30
0
41
1
10
85.9029966866236
20
-11.0614517760439
30
0
41
1
10
86.4547424632405
20
-11.0999898331354
30
0
41
1
10
86.822692583631
20
-11.1234786324793
30
0
41
1
10
87.9268288491919
20
-11.1874018620357
30
0
41
1
10
88.6633133833163
20
-11.2213042502629
30
0
41
1
10
89.4
20
-11.246475055562
30
0
0
SPLINE
5
CC
100
AcDbEntity
8
1
62
256
6
ByLayer
370
18
48
1
60
0
100
AcDbSpline
70
4
71
3
72
88
73
84
40
0
40
0
40
0
40
0
40
0.0093466069239003
40
0.0093466069239003
40
0.0308825502516415
40
0.0308825502516415
40
0.0524184935793829
40
0.0524184935793829
40
0.0739544369071242
40
0.0739544369071242
40
0.0954903802348656
40
0.0954903802348656
40
0.106258351898736
40
0.106258351898736
40
0.117026323562606
40
0.138562266890347
40
0.138562266890347
40
0.160098210218088
40
0.160098210218088
40
0.181634153545828
40
0.181634153545828
40
0.203170096873569
40
0.203170096873569
40
0.224706040201309
40
0.224706040201309
40
0.267777926856791
40
0.267777926856791
40
0.289313870184531
40
0.289313870184531
40
0.310849813512272
40
0.310849813512272
40
0.353921700167754
40
0.353921700167754
40
0.375457643495495
40
0.375457643495495
40
0.396993586823236
40
0.396993586823236
40
0.407761558487106
40
0.407761558487106
40
0.418529530150977
40
0.418529530150977
40
0.440065473478719
40
0.440065473478719
40
0.483137360134201
40
0.483137360134201
40
0.504673303461943
40
0.504673303461943
40
0.526209246789685
40
0.547745190117426
40
0.547745190117426
40
0.569281133445168
40
0.569281133445168
40
0.59081707677291
40
0.59081707677291
40
0.612353020100652
40
0.612353020100652
40
0.655424906756136
40
0.655424906756136
40
0.676960850083878
40
0.676960850083878
40
0.69849679341162
40
0.69849679341162
40
0.709264765075491
40
0.709264765075491
40
0.720032736739363
40
0.720032736739363
40
0.741568680067105
40
0.741568680067105
40
0.784640566722588
40
0.784640566722588
40
0.806176510050329
40
0.806176510050329
40
0.82771245337807
40
0.82771245337807
40
0.870784340033554
40
0.870784340033554
40
0.892320283361295
40
0.892320283361295
40
0.913856226689036
40
0.913856226689036
40
0.956928113344518
40
0.956928113344518
40
1
40
1
40
1
40
1
41
1
10
68.6061444331309
20
-8.31568296303772
30
0
41
1
10
68.4349352561554
20
-8.3565189114064
30
0
41
1
10
68.2637093603953
20
-8.39699170118732
30
0
41
1
10
67.6978353959025
20
-8.52939720198262
30
0
41
1
10
67.3030130092762
20
-8.61970271397129
30
0
41
1
10
66.5134586903791
20
-8.79624170113743
30
0
41
1
10
66.1187302905611
20
-8.88247163618183
30
0
41
1
10
65.3293982536234
20
-9.05091134317519
30
0
41
1
10
64.9347950716967
20
-9.13312208065395
30
0
41
1
10
64.1457541931096
20
-9.2935769806694
30
0
41
1
10
63.7513323044146
20
-9.37184533316707
30
0
41
1
10
63.1597767379375
20
-9.48616995519453
30
0
41
1
10
62.9625952342666
20
-9.5237504689965
30
0
41
1
10
62.568167827946
20
-9.59774807429545
30
0
41
1
10
61.9764447892276
20
-9.70702301000006
30
0
41
1
10
61.384505588491
20
-9.81120162881388
30
0
41
1
10
60.5950886050383
20
-9.94563336166618
30
0
41
1
10
60.2002680327901
20
-10.0106159894056
30
0
41
1
10
59.4106167310687
20
-10.136122342133
30
0
41
1
10
59.0159073511098
20
-10.1966296674007
30
0
41
1
10
58.2267542089093
20
-10.3131691896153
30
0
41
1
10
57.8323501725228
20
-10.3692425586295
30
0
41
1
10
57.0435214098527
20
-10.4765567905184
30
0
41
1
10
56.6490442672067
20
-10.5277464293319
30
0
41
1
10
55.4654746751679
20
-10.6740290557084
30
0
41
1
10
54.6762405611564
20
-10.7618477029123
30
0
41
1
10
53.4922923994412
20
-10.8791862818228
30
0
41
1
10
53.0976302034167
20
-10.9158995803008
30
0
41
1
10
52.3083023274532
20
-10.9844996637303
30
0
41
1
10
51.9137265336159
20
-11.0163664446887
30
0
41
1
10
50.729957394755
20
-11.1042063832173
30
0
41
1
10
49.9407374555688
20
-11.1525882722608
30
0
41
1
10
48.7570193463697
20
-11.2101181403061
30
0
41
1
10
48.3624653181676
20
-11.2267837251708
30
0
41
1
10
47.57343405864
20
-11.2550834475029
30
0
41
1
10
47.1789737035187
20
-11.266720026713
30
0
41
1
10
46.5872879541738
20
-11.2803531859937
30
0
41
1
10
46.3900503565644
20
-11.2842584655874
30
0
41
1
10
45.9954874916329
20
-11.2907827356099
30
0
41
1
10
45.7981678141895
20
-11.2934031342115
30
0
41
1
10
45.2061023317024
20
-11.2993477073476
30
0
41
1
10
44.8112414631936
20
-11.3007553118001
30
0
41
1
10
43.6270037482303
20
-11.297349422218
30
0
41
1
10
42.8377251893852
20
-11.2849292135369
30
0
41
1
10
41.6543385434597
20
-11.2509625831447
30
0
41
1
10
41.2600044620454
20
-11.2370634850842
30
0
41
1
10
40.4712142316291
20
-11.2041979165099
30
0
41
1
10
39.6822073626599
20
-11.1663116053359
30
0
41
1
10
38.8928412445881
20
-11.1184360157442
30
0
41
1
10
38.1033209255621
20
-11.0655638786731
30
0
41
1
10
37.7084259279569
20
-11.0366249711783
30
0
41
1
10
36.9189315982505
20
-10.9737441631561
30
0
41
1
10
36.5243092425974
20
-10.9398000055232
30
0
41
1
10
35.7353377088132
20
-10.8668527188362
30
0
41
1
10
35.3409793741039
20
-10.8278485313579
30
0
41
1
10
34.1576052939276
20
-10.7038130274018
30
0
41
1
10
33.3684691559923
20
-10.6116544272666
30
0
41
1
10
32.1846089690896
20
-10.4591585739056
30
0
41
1
10
31.7899630091692
20
-10.4059464893651
30
0
41
1
10
31.0006581059218
20
-10.2946938190459
30
0
41
1
10
30.6059683105588
20
-10.2366226188426
30
0
41
1
10
30.0140390774056
20
-10.145955363902
30
0
41
1
10
29.8167533367184
20
-10.1151550755844
30
0
41
1
10
29.4221628192918
20
-10.0524879099233
30
0
41
1
10
29.2248639324998
20
-10.0206139640428
30
0
41
1
10
28.6329642937692
20
-9.92336881912647
30
0
41
1
10
28.2383618919413
20
-9.85637331530512
30
0
41
1
10
27.0545855047464
20
-9.64887166817584
30
0
41
1
10
26.2654377874173
20
-9.50187237097359
30
0
41
1
10
25.0819811404531
20
-9.2679650978414
30
0
41
1
10
24.6875795585227
20
-9.18768730573225
30
0
41
1
10
23.8985522059529
20
-9.02314067247551
30
0
41
1
10
23.5038844084372
20
-8.93894945604112
30
0
41
1
10
22.3194791333923
20
-8.68056504434782
30
0
41
1
10
21.5300885877371
20
-8.50075290468234
30
0
41
1
10
20.3466654013124
20
-8.21942463289287
30
0
41
1
10
19.9522962755021
20
-8.12370167764564
30
0
41
1
10
19.1637908911493
20
-7.92829157647213
30
0
41
1
10
18.7696409953389
20
-7.82862630194794
30
0
41
1
10
17.5868348487744
20
-7.52512831001638
30
0
41
1
10
16.7980026836302
20
-7.31645087287504
30
0
41
1
10
15.2199826065227
20
-6.88599441833281
30
0
41
1
10
14.430788802906
20
-6.66423018095978
30
0
41
1
10
13.6415522953702
20
-6.43548424038454
30
0
0
SPLINE
5
CD
100
AcDbEntity
8
1
62
256
6
ByLayer
370
18
48
1
60
0
100
AcDbSpline
70
4
71
3
72
99
73
95
40
0
40
0
40
0
40
0
40
0.0625000000000052
40
0.0625000000000052
40
0.0937500000000078
40
0.0937500000000078
40
0.12500000000001
40
0.12500000000001
40
0.156250000000013
40
0.156250000000013
40
0.171875000000014
40
0.171875000000014
40
0.179687500000014
40
0.179687500000014
40
0.187500000000014
40
0.187500000000014
40
0.218750000000015
40
0.218750000000015
40
0.250000000000016
40
0.250000000000016
40
0.281250000000017
40
0.281250000000017
40
0.289062500000017
40
0.289062500000017
40
0.296875000000017
40
0.296875000000017
40
0.312500000000017
40
0.312500000000017
40
0.343750000000018
40
0.343750000000018
40
0.375000000000018
40
0.375000000000018
40
0.382812500000018
40
0.382812500000018
40
0.386718750000018
40
0.386718750000018
40
0.390625000000018
40
0.406250000000018
40
0.406250000000018
40
0.437500000000017
40
0.437500000000017
40
0.453125000000017
40
0.453125000000017
40
0.457031250000017
40
0.457031250000017
40
0.460937500000017
40
0.460937500000017
40
0.468750000000016
40
0.468750000000016
40
0.500000000000015
40
0.500000000000015
40
0.531250000000013
40
0.531250000000013
40
0.535156250000012
40
0.535156250000012
40
0.539062500000012
40
0.546875000000012
40
0.562500000000011
40
0.562500000000011
40
0.593750000000009
40
0.593750000000009
40
0.601562500000009
40
0.601562500000009
40
0.609375000000009
40
0.609375000000009
40
0.625000000000008
40
0.625000000000008
40
0.656250000000007
40
0.656250000000007
40
0.687500000000006
40
0.687500000000006
40
0.703125000000005
40
0.703125000000005
40
0.718750000000005
40
0.718750000000005
40
0.750000000000004
40
0.750000000000004
40
0.781250000000004
40
0.781250000000004
40
0.812500000000003
40
0.812500000000003
40
0.843750000000002
40
0.843750000000002
40
0.859375000000003
40
0.859375000000003
40
0.875000000000003
40
0.875000000000003
40
0.906250000000002
40
0.906250000000002
40
0.937500000000002
40
0.937500000000002
40
0.968750000000001
40
0.968750000000001
40
1
40
1
40
1
40
1
41
1
10
10
20
8.07178682693149
30
0
41
1
10
9.55877916261534
20
8.03598205083193
30
0
41
1
10
9.12753695207886
20
7.98187337230237
30
0
41
1
10
8.49571086219177
20
7.86991858126856
30
0
41
1
10
8.28761308736966
20
7.82744921204082
30
0
41
1
10
7.87652267509989
20
7.73136931929534
30
0
41
1
10
7.67352943126377
20
7.67776112874563
30
0
41
1
10
7.27279632047265
20
7.55831271382544
30
0
41
1
10
7.07505550853207
20
7.49247621494376
30
0
41
1
10
6.78256178957466
20
7.38347183774897
30
0
41
1
10
6.6857509089491
20
7.34542575507069
30
0
41
1
10
6.54159581573271
20
7.2856220325161
30
0
41
1
10
6.49372105447077
20
7.26523143691219
30
0
41
1
10
6.39833137811951
20
7.22350689648681
30
0
41
1
10
6.35082826959191
20
7.20217665524771
30
0
41
1
10
6.11519681810688
20
7.09354620149932
30
0
41
1
10
5.93193819578156
20
6.99998799366816
30
0
41
1
10
5.57622231426367
20
6.79842065326514
30
0
41
1
10
5.40376246141935
20
6.69041637281956
30
0
41
1
10
5.070208211573
20
6.45840298109957
30
0
41
1
10
4.9091091680485
20
6.33440231185813
30
0
41
1
10
4.71541820608473
20
6.16804712635764
30
0
41
1
10
4.67706526767915
20
6.13420647911369
30
0
41
1
10
4.6011494236987
20
6.06534354602397
30
0
41
1
10
4.56355037742634
20
6.03028641881016
30
0
41
1
10
4.45222243387093
20
5.9235149335799
30
0
41
1
10
4.3802172198281
20
5.85045453926205
30
0
41
1
10
4.17095425250517
20
5.62542486101253
30
0
41
1
10
4.04042750606675
20
5.46762638282092
30
0
41
1
10
3.79839424676598
20
5.13495350145331
30
0
41
1
10
3.68687682557925
20
4.96009002751575
30
0
41
1
10
3.56053122372222
20
4.72943325879768
30
0
41
1
10
3.53591719340312
20
4.68269568962444
30
0
41
1
10
3.50000927202669
20
4.61164557322806
30
0
41
1
10
3.48819978609964
20
4.58778557000318
30
0
41
1
10
3.46499929813709
20
4.53990194600618
30
0
41
1
10
3.40801182739932
20
4.41972224049687
30
0
41
1
10
3.35609151593653
20
4.29718157809643
30
0
41
1
10
3.24130656486341
20
3.99844990863258
30
0
41
1
10
3.17784513749589
20
3.79313181420363
30
0
41
1
10
3.10322644010392
20
3.47526254044902
30
0
41
1
10
3.08179108051141
20
3.36765389414583
30
0
41
1
10
3.05947088657513
20
3.2309790237141
30
0
41
1
10
3.0552307717565
20
3.2035357510193
30
0
41
1
10
3.04720374790043
20
3.14842974002153
30
0
41
1
10
3.04341329764347
20
3.12073738763217
30
0
41
1
10
3.0327682671932
20
3.0376340221388
30
0
41
1
10
3.02663154567046
20
2.98215587574683
30
0
41
1
10
3.00068870979098
20
2.7043881645142
30
0
41
1
10
2.99505754617394
20
2.48096918397928
30
0
41
1
10
3.01331733501956
20
2.03176139202853
30
0
41
1
10
3.03721119958942
20
1.80597249826417
30
0
41
1
10
3.08093782436419
20
1.55062835719124
30
0
41
1
10
3.08603633584656
20
1.52221047085044
30
0
41
1
10
3.09667684885574
20
1.46548446453218
30
0
41
1
10
3.11329335095905
20
1.3806023434683
30
0
41
1
10
3.15659364898687
20
1.18397296382409
30
0
41
1
10
3.20127367893639
20
1.01782121361654
30
0
41
1
10
3.30030089980954
20
0.688570356941852
30
0
41
1
10
3.37918308787587
20
0.473131869849112
30
0
41
1
10
3.49293987321045
20
0.208625527312051
30
0
41
1
10
3.51645098984798
20
0.155964500927979
30
0
41
1
10
3.56497719641709
20
0.0511182037877802
30
0
41
1
10
3.59000497201831
20
-0.0010860223230509
30
0
41
1
10
3.66680688668819
20
-0.155986199755119
30
0
41
1
10
3.72045290303163
20
-0.257317266463048
30
0
41
1
10
3.88824027049549
20
-0.555908505220884
30
0
41
1
10
4.00921126041845
20
-0.747782771401717
30
0
41
1
10
4.26741887203625
20
-1.1188111518976
30
0
41
1
10
4.40466494046007
20
-1.29795777430306
30
0
41
1
10
4.62167567538233
20
-1.55803948857169
30
0
41
1
10
4.6958727730609
20
-1.64329100215821
30
0
41
1
10
4.84783982196092
20
-1.81103535345602
30
0
41
1
10
4.92514941450423
20
-1.89301944325331
30
0
41
1
10
5.16052722683284
20
-2.13348680786376
30
0
41
1
10
5.32214834090723
20
-2.28662374367744
30
0
41
1
10
5.65359473714233
20
-2.58055740774935
30
0
41
1
10
5.82342374050265
20
-2.72134798383507
30
0
41
1
10
6.17031453682196
20
-2.99217816807084
30
0
41
1
10
6.34737839050041
20
-3.12221430016797
30
0
41
1
10
6.70790125410457
20
-3.37286425806786
30
0
41
1
10
6.89136125095584
20
-3.49347625063382
30
0
41
1
10
7.17078683241385
20
-3.66818576137038
30
0
41
1
10
7.26463915582997
20
-3.72538855951447
30
0
41
1
10
7.45365450507765
20
-3.83784187114131
30
0
41
1
10
7.54861406397032
20
-3.89297177610098
30
0
41
1
10
7.83474842368804
20
-4.05531419202538
30
0
41
1
10
8.02717621132138
20
-4.15948673411904
30
0
41
1
10
8.4149058070274
20
-4.3608306274964
30
0
41
1
10
8.61020722492043
20
-4.45800173385138
30
0
41
1
10
9.00330589451286
20
-4.64621933421395
30
0
41
1
10
9.20110253596604
20
-4.73726601667454
30
0
41
1
10
9.59892009497315
20
-4.91387901969597
30
0
41
1
10
9.7989403952165
20
-4.9994455526984
30
0
41
1
10
10
20
-5.08247407862072
30
0
0
SPLINE
5
CE
100
AcDbEntity
8
1
62
256
6
ByLayer
370
18
48
1
60
0
100
AcDbSpline
70
4
71
3
72
14
73
10
40
0
40
0
40
0
40
0
40
0.25
40
0.25
40
0.5
40
0.5
40
0.75
40
0.75
40
1
40
1
40
1
40
1
41
1
10
13.64155229537
20
-6.43548424038445
30
0
41
1
10
13.3301871996044
20
-6.34247680477083
30
0
41
1
10
13.0211742900725
20
-6.24411159391485
30
0
41
1
10
12.4070632554284
20
-6.03771431080122
30
0
41
1
10
12.1019615677506
20
-5.9296912407433
30
0
41
1
10
11.4952636355606
20
-5.70434654305134
30
0
41
1
10
11.193666250784
20
-5.58703036619445
30
0
41
1
10
10.5940323251099
20
-5.34254034823252
30
0
41
1
10
10.2959971567418
20
-5.21536757038103
30
0
41
1
10
10
20
-5.08247407862075
30
0
0
SPLINE
5
CF
100
AcDbEntity
8
1
62
256
6
ByLayer
370
18
48
1
60
0
100
AcDbSpline
70
4
71
4
72
16
73
11
40
0
40
0
40
0
40
0
40
0
40
0.290708078348076
40
0.290708078348076
40
0.290708078348076
40
0.70929192165192
40
0.70929192165192
40
0.70929192165192
40
1
40
1
40
1
40
1
40
1
41
0.996768041689617
10
18.71655047232
20
7.48372147118801
30
0
41
0.994710313047097
10
18.563564824564
20
6.98346567637835
30
0
41
0.99422831085211
10
18.2924043376291
20
6.16386676821243
30
0
41
1
10
17.9152522103408
20
5.07045437847745
30
0
41
1
10
16.9358607068713
20
2.28683818615775
30
0
41
0.988033871712585
10
16.1790513838451
20
0.180643953303703
30
0
41
1
10
15.4222420608188
20
-1.86456612349653
30
0
41
1
10
14.4428505573494
20
-4.45330725373668
30
0
41
0.994228310852109
10
14.065698430061
20
-5.42872636353903
30
0
41
0.994710313047097
10
13.7945379431262
20
-6.09655206791327
30
0
41
0.996768041689617
10
13.6415522953702
20
-6.43548424038454
30
0
0
SPLINE
5
D0
100
AcDbEntity
8
1
62
256
6
ByLayer
370
18
48
1
60
0
100
AcDbSpline
70
4
71
3
72
26
73
22
40
0
40
0
40
0
40
0
40
0.12500000000001
40
0.12500000000001
40
0.25000000000002
40
0.25000000000002
40
0.37500000000003
40
0.37500000000003
40
0.437500000000035
40
0.437500000000035
40
0.453125000000036
40
0.453125000000036
40
0.468750000000037
40
0.500000000000035
40
0.625000000000026
40
0.625000000000026
40
0.750000000000018
40
0.750000000000018
40
0.875000000000009
40
0.875000000000009
40
1
40
1
40
1
40
1
41
1
10
10
20
8.07178682693151
30
0
41
1
10
10.3630538169503
20
8.13455623997552
30
0
41
1
10
10.7275313668062
20
8.18361686406971
30
0
41
1
10
11.4591295837129
20
8.25763948976737
30
0
41
1
10
11.8262516641402
20
8.28258241153301
30
0
41
1
10
12.5630056417521
20
8.31025726279071
30
0
41
1
10
12.9326386748062
20
8.31297565097884
30
0
41
1
10
13.4888932435725
20
8.30113198941478
30
0
41
1
10
13.6746124044748
20
8.29452465577208
30
0
41
1
10
13.9071294670655
20
8.28298569657031
30
0
41
1
10
13.9536746164926
20
8.28051245054354
30
0
41
1
10
14.0466404866769
20
8.27524816302528
30
0
41
1
10
14.1859272020711
20
8.26687435116247
30
0
41
1
10
14.6948889381972
20
8.23097807703545
30
0
41
1
10
15.1524198845625
20
8.18298347326777
30
0
41
1
10
15.8786671080889
20
8.08808651650301
30
0
41
1
10
16.2388883218542
20
8.03157599404662
30
0
41
1
10
16.9543525886136
20
7.90188669922608
30
0
41
1
10
17.3095967958323
20
7.82870658684411
30
0
41
1
10
18.0159609011193
20
7.66719577645483
30
0
41
1
10
18.3670846805519
20
7.5788743502591
30
0
41
1
10
18.7165504723198
20
7.48372147118806
30
0
0
SPLINE
5
D1
100
AcDbEntity
8
1
62
256
6
ByLayer
370
13
48
1
60
0
100
AcDbSpline
70
4
71
3
72
140
73
136
40
0
40
0
40
0
40
0
40
0.0156250000000002
40
0.0156250000000002
40
0.0312500000000004
40
0.0312500000000004
40
0.0468750000000007
40
0.0468750000000007
40
0.0625000000000009
40
0.0625000000000009
40
0.0781250000000011
40
0.0781250000000011
40
0.0937500000000014
40
0.0937500000000014
40
0.109375000000002
40
0.109375000000002
40
0.125000000000002
40
0.125000000000002
40
0.140625000000002
40
0.140625000000002
40
0.156250000000002
40
0.156250000000002
40
0.171875000000002
40
0.171875000000002
40
0.187500000000003
40
0.187500000000003
40
0.203125000000003
40
0.203125000000003
40
0.210937500000003
40
0.210937500000003
40
0.218750000000003
40
0.218750000000003
40
0.234375000000003
40
0.234375000000003
40
0.250000000000003
40
0.250000000000003
40
0.265625000000002
40
0.265625000000002
40
0.281250000000002
40
0.281250000000002
40
0.296875000000002
40
0.296875000000002
40
0.312500000000002
40
0.312500000000002
40
0.328125000000002
40
0.328125000000002
40
0.343750000000002
40
0.343750000000002
40
0.359375000000001
40
0.359375000000001
40
0.375000000000001
40
0.375000000000001
40
0.390625000000001
40
0.390625000000001
40
0.406250000000001
40
0.406250000000001
40
0.421875000000001
40
0.421875000000001
40
0.437500000000001
40
0.437500000000001
40
0.453125
40
0.453125
40
0.46875
40
0.46875
40
0.4765625
40
0.4765625
40
0.484375
40
0.484375
40
0.5
40
0.5
40
0.515625
40
0.515625
40
0.531249999999999
40
0.531249999999999
40
0.546874999999999
40
0.546874999999999
40
0.562499999999999
40
0.562499999999999
40
0.578124999999999
40
0.578124999999999
40
0.593749999999998
40
0.593749999999998
40
0.609374999999998
40
0.609374999999998
40
0.624999999999998
40
0.624999999999998
40
0.640624999999998
40
0.640624999999998
40
0.656249999999998
40
0.656249999999998
40
0.671874999999997
40
0.671874999999997
40
0.687499999999997
40
0.687499999999997
40
0.703124999999997
40
0.703124999999997
40
0.718749999999997
40
0.718749999999997
40
0.734374999999996
40
0.734374999999996
40
0.742187499999996
40
0.742187499999996
40
0.749999999999996
40
0.749999999999996
40
0.765624999999997
40
0.765624999999997
40
0.781249999999997
40
0.781249999999997
40
0.796874999999997
40
0.796874999999997
40
0.812499999999997
40
0.812499999999997
40
0.828124999999998
40
0.828124999999998
40
0.843749999999998
40
0.843749999999998
40
0.859374999999998
40
0.859374999999998
40
0.874999999999998
40
0.874999999999998
40
0.890624999999998
40
0.890624999999998
40
0.906249999999999
40
0.906249999999999
40
0.921874999999999
40
0.921874999999999
40
0.937499999999999
40
0.937499999999999
40
0.953124999999999
40
0.953124999999999
40
0.96875
40
0.96875
40
0.984375
40
0.984375
40
1
40
1
40
1
40
1
41
1
10
89.4
20
11.294460601097
30
0
41
1
10
89.4539159538504
20
11.1994716434371
30
0
41
1
10
89.5078319077006
20
11.0872114302483
30
0
41
1
10
89.6156638154013
20
10.8273492460503
30
0
41
1
10
89.6695797692515
20
10.6797435101434
30
0
41
1
10
89.7774116769522
20
10.3493411896843
30
0
41
1
10
89.8313276308025
20
10.1665428986408
30
0
41
1
10
89.9391595385032
20
9.76695128572345
30
0
41
1
10
89.9930754923535
20
9.55015873449275
30
0
41
1
10
90.1009074000541
20
9.08483475631525
30
0
41
1
10
90.1548233539045
20
8.83630670099998
30
0
41
1
10
90.2626552616051
20
8.31076623125375
30
0
41
1
10
90.3165712154554
20
8.03375956546898
30
0
41
1
10
90.424403123156
20
7.4553767306902
30
0
41
1
10
90.4783190770063
20
7.15400813373901
30
0
41
1
10
90.586150984707
20
6.53167437161059
30
0
41
1
10
90.6400669385574
20
6.21071780830687
30
0
41
1
10
90.747898846258
20
5.55439324875633
30
0
41
1
10
90.8018148001082
20
5.21903399021642
30
0
41
1
10
90.9096467078089
20
4.53923776734416
30
0
41
1
10
90.9635626616592
20
4.19480883493469
30
0
41
1
10
91.0713945693598
20
3.5021008683305
30
0
41
1
10
91.1253105232102
20
3.15382849895559
30
0
41
1
10
91.2331424309108
20
2.45833232092173
30
0
41
1
10
91.2870583847611
20
2.11111340504499
30
0
41
1
10
91.3948902924618
20
1.42211916731947
30
0
41
1
10
91.4488062463121
20
1.08034683329612
30
0
41
1
10
91.5296801770875
20
0.574600718402337
30
0
41
1
10
91.5566381540127
20
0.407165617609934
30
0
41
1
10
91.6105541078629
20
0.0749967816928176
30
0
41
1
10
91.6375120847881
20
-0.0890607329604336
30
0
41
1
10
91.7183860155637
20
-0.587543153583795
30
0
41
1
10
91.772301969414
20
-0.925266932843726
30
0
41
1
10
91.8801338771146
20
-1.60807801151296
30
0
41
1
10
91.9340498309649
20
-1.95316322353105
30
0
41
1
10
92.0418817386655
20
-2.64659689674562
30
0
41
1
10
92.0957976925158
20
-2.99494138993848
30
0
41
1
10
92.2036296002165
20
-3.69022493723929
30
0
41
1
10
92.2575455540668
20
-4.03715815397058
30
0
41
1
10
92.3653774617675
20
-4.72452940497243
30
0
41
1
10
92.4192934156177
20
-5.0649600036659
30
0
41
1
10
92.5271253233184
20
-5.73401564700325
30
0
41
1
10
92.5810412771687
20
-6.06263220037295
30
0
41
1
10
92.6888731848694
20
-6.7027700319251
30
0
41
1
10
92.7427891387197
20
-7.01428253036573
30
0
41
1
10
92.8506210464203
20
-7.61520542320162
30
0
41
1
10
92.9045370002706
20
-7.90460763630057
30
0
41
1
10
93.0123689079712
20
-8.4568439534909
30
0
41
1
10
93.0662848618215
20
-8.71967133628178
30
0
41
1
10
93.1741167695221
20
-9.21505961652039
30
0
41
1
10
93.2280327233725
20
-9.44761593787231
30
0
41
1
10
93.3358646310732
20
-9.87970324934062
30
0
41
1
10
93.3897805849235
20
-10.079232199642
30
0
41
1
10
93.4976124926241
20
-10.4435458987198
30
0
41
1
10
93.5515284464744
20
-10.6083311865956
30
0
41
1
10
93.6593603541751
20
-10.902501007481
30
0
41
1
10
93.7132763080254
20
-11.0318883725623
30
0
41
1
10
93.8211082157261
20
-11.2556161448445
30
0
41
1
10
93.8750241695763
20
-11.3499611450424
30
0
41
1
10
93.9828560772769
20
-11.5048546995264
30
0
41
1
10
94.0367720311272
20
-11.5654089469836
30
0
41
1
10
94.1446039388278
20
-11.6547112857047
30
0
41
1
10
94.1985198926782
20
-11.6834655007296
30
0
41
1
10
94.2793938234536
20
-11.7046548852052
30
0
41
1
10
94.3063518003789
20
-11.7080648441303
30
0
41
1
10
94.3602677542292
20
-11.7079332897077
30
0
41
1
10
94.3872257311543
20
-11.7043883877411
30
0
41
1
10
94.4680996619298
20
-11.682784305728
30
0
41
1
10
94.5220156157801
20
-11.6537405422749
30
0
41
1
10
94.6298475234807
20
-11.5638373658498
30
0
41
1
10
94.6837634773311
20
-11.5029718302652
30
0
41
1
10
94.7915953850318
20
-11.3474401211065
30
0
41
1
10
94.845511338882
20
-11.252768261558
30
0
41
1
10
94.9533432465827
20
-11.0283789773324
30
0
41
1
10
95.007259200433
20
-10.8986569733224
30
0
41
1
10
95.1150911081337
20
-10.6038191770687
30
0
41
1
10
95.169007061984
20
-10.4387005722491
30
0
41
1
10
95.2768389696846
20
-10.0737314470255
30
0
41
1
10
95.3307549235349
20
-9.87388041104271
30
0
41
1
10
95.4385868312355
20
-9.44117019730038
30
0
41
1
10
95.4925027850859
20
-9.20831308409964
30
0
41
1
10
95.6003346927865
20
-8.71235397100145
30
0
41
1
10
95.6542506466369
20
-8.44925656984998
30
0
41
1
10
95.7620825543376
20
-7.89651914488419
30
0
41
1
10
95.8159985081878
20
-7.60688585977496
30
0
41
1
10
95.9238304158885
20
-7.00554601372423
30
0
41
1
10
95.9777463697387
20
-6.69384764393743
30
0
41
1
10
96.0855782774394
20
-6.05338718929687
30
0
41
1
10
96.1394942312896
20
-5.72463388552828
30
0
41
1
10
96.2473261389902
20
-5.05535528633473
30
0
41
1
10
96.3012420928406
20
-4.71483847550465
30
0
41
1
10
96.4090740005412
20
-4.0273443503489
30
0
41
1
10
96.4629899543916
20
-3.68037445861543
30
0
41
1
10
96.5708218620923
20
-2.98506399906637
30
0
41
1
10
96.6247378159425
20
-2.6367292517823
30
0
41
1
10
96.7325697236432
20
-1.94335673564271
30
0
41
1
10
96.7864856774934
20
-1.59832291668007
30
0
41
1
10
96.8943175851941
20
-0.915650391091987
30
0
41
1
10
96.9482335390444
20
-0.578013754731984
30
0
41
1
10
97.0291074698199
20
-0.0796840082547021
30
0
41
1
10
97.056065446745
20
0.0843719923252593
30
0
41
1
10
97.1099814005953
20
0.416642749278566
30
0
41
1
10
97.1369393775205
20
0.584125157035601
30
0
41
1
10
97.2178133082961
20
1.09000100728795
30
0
41
1
10
97.2717292621463
20
1.43184356440423
30
0
41
1
10
97.3795611698469
20
2.12093948948552
30
0
41
1
10
97.4334771236973
20
2.46818985176631
30
0
41
1
10
97.541309031398
20
3.16370475438717
30
0
41
1
10
97.5952249852483
20
3.51196438414874
30
0
41
1
10
97.7030568929489
20
4.20459868410128
30
0
41
1
10
97.7569728467992
20
4.54896667421087
30
0
41
1
10
97.8648047544997
20
5.22859070191652
30
0
41
1
10
97.9187207083501
20
5.563838697454
30
0
41
1
10
98.0265526160507
20
6.21989058428574
30
0
41
1
10
98.080468569901
20
6.54068573501951
30
0
41
1
10
98.1883004776017
20
7.16264917867804
30
0
41
1
10
98.2422164314521
20
7.46380887531785
30
0
41
1
10
98.3500483391527
20
8.04173152134896
30
0
41
1
10
98.4039642930029
20
8.31848691250485
30
0
41
1
10
98.5117962007035
20
8.84348970863815
30
0
41
1
10
98.5657121545539
20
9.09173138532708
30
0
41
1
10
98.6735440622546
20
9.55645638393148
30
0
41
1
10
98.7274600161048
20
9.77293635832388
30
0
41
1
10
98.8352919238055
20
10.1718864567936
30
0
41
1
10
98.8892078776558
20
10.3543558347627
30
0
41
1
10
98.9970397853565
20
10.6840940465853
30
0
41
1
10
99.0509557392068
20
10.8313646087535
30
0
41
1
10
99.1587876469074
20
11.0905597508837
30
0
41
1
10
99.2127036007577
20
11.2024881125042
30
0
41
1
10
99.3205355084583
20
11.391814140626
30
0
41
1
10
99.3744514623086
20
11.4692170307776
30
0
41
1
10
99.4822833700092
20
11.5911305375639
30
0
41
1
10
99.5361993238596
20
11.6356471407306
30
0
41
1
10
99.6440312315603
20
11.6940788153524
30
0
41
1
10
99.6979471854106
20
11.708
30
0
41
1
10
99.7518631392609
20
11.708
30
0
0
SPLINE
5
D2
100
AcDbEntity
8
1
62
256
6
ByLayer
370
13
48
1
60
0
100
AcDbSpline
70
4
71
3
72
14
73
10
40
0
40
0
40
0
40
0
40
0.25
40
0.25
40
0.5
40
0.5
40
0.75
40
0.75
40
1
40
1
40
1
40
1
41
1
10
99.1354785395763
20
11.708
30
0
41
1
10
99.2274083693792
20
11.708
30
0
41
1
10
99.3193381991821
20
11.6674270651574
30
0
41
1
10
99.5031978587879
20
11.4922764908135
30
0
41
1
10
99.5951276885908
20
11.3576119477478
30
0
41
1
10
99.7789873481967
20
10.9862870446608
30
0
41
1
10
99.8709171779997
20
10.7495596403431
30
0
41
1
10
100.054776837606
20
10.173562114099
30
0
41
1
10
100.146706667408
20
9.83427147153449
30
0
41
1
10
100.238636497211
20
9.44786432723382
30
0
0
SPLINE
5
D3
100
AcDbEntity
8
1
62
256
6
ByLayer
370
13
48
1
60
0
100
AcDbSpline
70
4
71
3
72
126
73
122
40
0
40
0
40
0
40
0
40
0.015625
40
0.015625
40
0.03125
40
0.03125
40
0.0468750000000001
40
0.0468750000000001
40
0.0625000000000001
40
0.0625000000000001
40
0.0781250000000001
40
0.0781250000000001
40
0.0937500000000001
40
0.0937500000000001
40
0.109375
40
0.109375
40
0.125
40
0.125
40
0.15625
40
0.15625
40
0.171875000000001
40
0.171875000000001
40
0.179687500000001
40
0.179687500000001
40
0.187500000000001
40
0.187500000000001
40
0.218750000000001
40
0.218750000000001
40
0.234375000000001
40
0.234375000000001
40
0.250000000000001
40
0.250000000000001
40
0.265625000000001
40
0.265625000000001
40
0.281250000000001
40
0.281250000000001
40
0.296875
40
0.296875
40
0.3125
40
0.3125
40
0.328125
40
0.328125
40
0.34375
40
0.34375
40
0.359375
40
0.359375
40
0.375
40
0.375
40
0.390625
40
0.390625
40
0.40625
40
0.40625
40
0.4375
40
0.4375
40
0.4453125
40
0.4453125
40
0.44921875
40
0.44921875
40
0.453125
40
0.453125
40
0.46875
40
0.46875
40
0.5
40
0.5
40
0.515625
40
0.515625
40
0.53125
40
0.53125
40
0.546875
40
0.546875
40
0.5625
40
0.5625
40
0.578125
40
0.578125
40
0.59375
40
0.59375
40
0.609375
40
0.609375
40
0.625
40
0.625
40
0.640625
40
0.640625
40
0.65625
40
0.65625
40
0.6875
40
0.6875
40
0.71875
40
0.71875
40
0.722656250000001
40
0.722656250000001
40
0.726562500000001
40
0.726562500000001
40
0.734375000000001
40
0.734375000000001
40
0.750000000000001
40
0.750000000000001
40
0.781250000000001
40
0.781250000000001
40
0.796875000000001
40
0.796875000000001
40
0.812500000000001
40
0.812500000000001
40
0.828125000000001
40
0.828125000000001
40
0.84375
40
0.84375
40
0.859375
40
0.859375
40
0.875
40
0.875
40
0.890625
40
0.890625
40
0.90625
40
0.90625
40
0.921875
40
0.921875
40
0.9375
40
0.9375
40
0.96875
40
0.96875
40
1
40
1
40
1
40
1
41
1
10
89.4
20
9.96107166660536
30
0
41
1
10
89.4513806731218
20
9.77036518935853
30
0
41
1
10
89.5027613462435
20
9.56423391461053
30
0
41
1
10
89.6055226924871
20
9.12306055321477
30
0
41
1
10
89.6569033656088
20
8.88802104199047
30
0
41
1
10
89.7596647118522
20
8.39179773653692
30
0
41
1
10
89.8110453849741
20
8.13061831800229
30
0
41
1
10
89.9138067312176
20
7.58560313391163
30
0
41
1
10
89.9651874043394
20
7.30177316648235
30
0
41
1
10
90.0679487505829
20
6.7155119427342
30
0
41
1
10
90.1193294237047
20
6.41308735671819
30
0
41
1
10
90.2220907699482
20
5.7940697708386
30
0
41
1
10
90.27347144307
20
5.47748367866348
30
0
41
1
10
90.3762327893135
20
4.83474758798462
30
0
41
1
10
90.4276134624353
20
4.50860411517382
30
0
41
1
10
90.5303748086788
20
3.85132554200788
30
0
41
1
10
90.5817554818005
20
3.52019607023672
30
0
41
1
10
90.7358975011658
20
2.5258539967268
30
0
41
1
10
90.8386588474094
20
1.86194010119277
30
0
41
1
10
90.9928008667747
20
0.887016350012544
30
0
41
1
10
91.0441815398965
20
0.565474317896275
30
0
41
1
10
91.1212525495791
20
0.0905303116766447
30
0
41
1
10
91.14694288614
20
-0.0658445157777976
30
0
41
1
10
91.1983235592618
20
-0.382217400834293
30
0
41
1
10
91.2240138958227
20
-0.541636323307586
30
0
41
1
10
91.3524655786271
20
-1.34401706057929
30
0
41
1
10
91.4552269248707
20
-2.00316582857121
30
0
41
1
10
91.6093689442359
20
-2.99684403322277
30
0
41
1
10
91.6607496173576
20
-3.32882828425119
30
0
41
1
10
91.7635109636012
20
-3.99014439222074
30
0
41
1
10
91.8148916367229
20
-4.31947124528165
30
0
41
1
10
91.9176529829664
20
-4.97099522997027
30
0
41
1
10
91.9690336560882
20
-5.29318625312374
30
0
41
1
10
92.0717950023317
20
-5.92582783735617
30
0
41
1
10
92.1231756754535
20
-6.23627161932924
30
0
41
1
10
92.2259370216971
20
-6.84086974232341
30
0
41
1
10
92.2773176948188
20
-7.13501720767869
30
0
41
1
10
92.3800790410623
20
-7.70274265205302
30
0
41
1
10
92.4314597141841
20
-7.97631429779759
30
0
41
1
10
92.5342210604275
20
-8.49907764119638
30
0
41
1
10
92.5856017335493
20
-8.74826415497401
30
0
41
1
10
92.688363079793
20
-9.2190914062455
30
0
41
1
10
92.7397437529146
20
-9.4407285871593
30
0
41
1
10
92.8425050991581
20
-9.8540687866126
30
0
41
1
10
92.8938857722799
20
-10.0457701502384
30
0
41
1
10
92.9966471185235
20
-10.3977067960739
30
0
41
1
10
93.0480277916452
20
-10.5579423615739
30
0
41
1
10
93.1507891378888
20
-10.8462924468445
30
0
41
1
10
93.2021698110105
20
-10.9744089986751
30
0
41
1
10
93.304931157254
20
-11.1987073800755
30
0
41
1
10
93.3563118303758
20
-11.2948926264785
30
0
41
1
10
93.5104538497412
20
-11.5369627662986
30
0
41
1
10
93.6132151959847
20
-11.6361244573112
30
0
41
1
10
93.7416668787891
20
-11.6914675564362
30
0
41
1
10
93.76735721535
20
-11.6991245215374
30
0
41
1
10
93.8058927201913
20
-11.7057136540409
30
0
41
1
10
93.8187378884717
20
-11.7070941387864
30
0
41
1
10
93.8444282250326
20
-11.7082619161268
30
0
41
1
10
93.857273393313
20
-11.7080550108819
30
0
41
1
10
93.9214992347153
20
-11.7030287270539
30
0
41
1
10
93.972879907837
20
-11.6861675038965
30
0
41
1
10
94.1270219272022
20
-11.5935607077716
30
0
41
1
10
94.2297832734458
20
-11.4755048498834
30
0
41
1
10
94.3839252928111
20
-11.2039377606232
30
0
41
1
10
94.4353059659329
20
-11.0977333968715
30
0
41
1
10
94.5380673121764
20
-10.8532504582544
30
0
41
1
10
94.5894479852983
20
-10.7149688570274
30
0
41
1
10
94.6922093315417
20
-10.4064008959016
30
0
41
1
10
94.7435900046635
20
-10.2361130239825
30
0
41
1
10
94.846351350907
20
-9.86445955168244
30
0
41
1
10
94.8977320240288
20
-9.66309426983904
30
0
41
1
10
95.0004933702722
20
-9.23108956398215
30
0
41
1
10
95.051874043394
20
-9.0004524110465
30
0
41
1
10
95.1546353896375
20
-8.51254552166824
30
0
41
1
10
95.2060160627593
20
-8.25527989628617
30
0
41
1
10
95.3087774090028
20
-7.7174991856929
30
0
41
1
10
95.3601580821246
20
-7.4369897070095
30
0
41
1
10
95.4629194283681
20
-6.85669865910137
30
0
41
1
10
95.5143001014899
20
-6.55692366363749
30
0
41
1
10
95.6170614477334
20
-5.94248828652476
30
0
41
1
10
95.6684421208552
20
-5.62783481781352
30
0
41
1
10
95.7712034670988
20
-4.98823372941888
30
0
41
1
10
95.8225841402204
20
-4.66329273358627
30
0
41
1
10
95.9767261595858
20
-3.67991397739473
30
0
41
1
10
96.0794875058293
20
-3.01311105573257
30
0
41
1
10
96.2850101983164
20
-1.69086588671848
30
0
41
1
10
96.3877715445599
20
-1.03552578489484
30
0
41
1
10
96.5033780590838
20
-0.319710567383652
30
0
41
1
10
96.5162232273644
20
-0.240467772316521
30
0
41
1
10
96.5419135639252
20
-0.0826087494624801
30
0
41
1
10
96.5547587322056
20
-0.0042098736801677
30
0
41
1
10
96.593294237047
20
0.231878523002564
30
0
41
1
10
96.6189845736079
20
0.390554919614459
30
0
41
1
10
96.6960555832906
20
0.869927666929811
30
0
41
1
10
96.7474362564122
20
1.19398482514959
30
0
41
1
10
96.9015782757775
20
2.17487713472667
30
0
41
1
10
97.0043396220211
20
2.84065122818632
30
0
41
1
10
97.1584816413863
20
3.83373454112151
30
0
41
1
10
97.209862314508
20
4.16377305909532
30
0
41
1
10
97.3126236607516
20
4.81744116203731
30
0
41
1
10
97.3640043338734
20
5.14106478850067
30
0
41
1
10
97.466765680117
20
5.77730100372747
30
0
41
1
10
97.5181463532388
20
6.08990688400169
30
0
41
1
10
97.6209076994822
20
6.69953519461956
30
0
41
1
10
97.6722883726039
20
6.99655072264343
30
0
41
1
10
97.7750497188475
20
7.57066206280581
30
0
41
1
10
97.8264303919692
20
7.84775141360396
30
0
41
1
10
97.9291917382128
20
8.37811324951218
30
0
41
1
10
97.9805724113345
20
8.63138033304855
30
0
41
1
10
98.083333757578
20
9.1108198985543
30
0
41
1
10
98.1347144306999
20
9.33698854279348
30
0
41
1
10
98.2374757769434
20
9.75971331322953
30
0
41
1
10
98.2888564500652
20
9.95626747550693
30
0
41
1
10
98.3916177963087
20
10.3180932070617
30
0
41
1
10
98.4429984694304
20
10.483364760714
30
0
41
1
10
98.545759815674
20
10.7818327948808
30
0
41
1
10
98.5971404887958
20
10.915031051766
30
0
41
1
10
98.751282508161
20
11.2666000456454
30
0
41
1
10
98.8540438544045
20
11.4366245825353
30
0
41
1
10
99.0595665468917
20
11.657249795552
30
0
41
1
10
99.1623278931352
20
11.708
30
0
41
1
10
99.2650892393787
20
11.708
30
0
0
SPLINE
5
D4
100
AcDbEntity
8
1
62
256
6
ByLayer
370
13
48
1
60
0
100
AcDbSpline
70
4
71
3
72
22
73
18
40
0
40
0
40
0
40
0
40
0.125
40
0.125
40
0.25
40
0.25
40
0.375
40
0.375
40
0.5
40
0.5
40
0.625
40
0.625
40
0.75
40
0.75
40
0.875
40
0.875
40
1
40
1
40
1
40
1
41
1
10
98.6487046396941
20
11.708
30
0
41
1
10
98.7149518004239
20
11.708
30
0
41
1
10
98.7811989611539
20
11.6869696591002
30
0
41
1
10
98.9136932826136
20
11.5978390913124
30
0
41
1
10
98.9799404433435
20
11.5297217204586
30
0
41
1
10
99.1124347648033
20
11.342536412588
30
0
41
1
10
99.1786819255331
20
11.2234524982758
30
0
41
1
10
99.3111762469929
20
10.9321204700318
30
0
41
1
10
99.3774234077229
20
10.7598603421291
30
0
41
1
10
99.5099177291826
20
10.3620603171301
30
0
41
1
10
99.5761648899124
20
10.1365150649973
30
0
41
1
10
99.7086592113723
20
9.634397860837
30
0
41
1
10
99.7749063721021
20
9.35782905002526
30
0
41
1
10
99.9074006935618
20
8.75832558591236
30
0
41
1
10
99.9736478542918
20
8.43540289066215
30
0
41
1
10
100.106142175752
20
7.75003335307855
30
0
41
1
10
100.172389336481
20
7.38760582016462
30
0
41
1
10
100.238636497211
20
7.00968926969338
30
0
0
SPLINE
5
D5
100
AcDbEntity
8
1
62
256
6
ByLayer
370
13
48
1
60
0
100
AcDbSpline
70
4
71
3
72
82
73
78
40
0
40
0
40
0
40
0
40
0.0312500000000003
40
0.0312500000000003
40
0.0625000000000005
40
0.0625000000000005
40
0.0937500000000008
40
0.0937500000000008
40
0.125000000000001
40
0.125000000000001
40
0.132812500000001
40
0.132812500000001
40
0.140625000000001
40
0.140625000000001
40
0.156250000000001
40
0.156250000000001
40
0.187500000000001
40
0.187500000000001
40
0.21875
40
0.21875
40
0.25
40
0.25
40
0.28125
40
0.28125
40
0.3125
40
0.3125
40
0.34375
40
0.34375
40
0.375
40
0.375
40
0.40625
40
0.40625
40
0.421875
40
0.421875
40
0.429687499999999
40
0.429687499999999
40
0.437499999999999
40
0.437499999999999
40
0.468749999999999
40
0.468749999999999
40
0.499999999999999
40
0.499999999999999
40
0.531249999999999
40
0.531249999999999
40
0.562499999999999
40
0.562499999999999
40
0.593749999999999
40
0.593749999999999
40
0.624999999999998
40
0.624999999999998
40
0.656249999999998
40
0.656249999999998
40
0.687499999999998
40
0.687499999999998
40
0.703124999999998
40
0.703124999999998
40
0.710937499999998
40
0.710937499999998
40
0.718749999999998
40
0.718749999999998
40
0.749999999999998
40
0.749999999999998
40
0.781249999999998
40
0.781249999999998
40
0.812499999999999
40
0.812499999999999
40
0.843749999999999
40
0.843749999999999
40
0.874999999999999
40
0.874999999999999
40
0.906249999999999
40
0.906249999999999
40
0.9375
40
0.9375
40
0.96875
40
0.96875
40
1
40
1
40
1
40
1
41
1
10
89.4
20
7.72813866750022
30
0
41
1
10
89.4976907847864
20
7.2033182858134
30
0
41
1
10
89.5953815695729
20
6.63852224677692
30
0
41
1
10
89.7907631391456
20
5.45841728205363
30
0
41
1
10
89.888453923932
20
4.8432779263035
30
0
41
1
10
90.0838354935049
20
3.59434828693605
30
0
41
1
10
90.1815262782914
20
2.96069781771601
30
0
41
1
10
90.3769078478642
20
1.70390427729313
30
0
41
1
10
90.4745986326507
20
1.08083982813491
30
0
41
1
10
90.5967121136337
20
0.323003695050886
30
0
41
1
10
90.6211348098303
20
0.172468918222819
30
0
41
1
10
90.6699802022235
20
-0.126248396671343
30
0
41
1
10
90.69440289842
20
-0.276328176538868
30
0
41
1
10
90.76767098701
20
-0.730386539823684
30
0
41
1
10
90.8165163794032
20
-1.0372981716267
30
0
41
1
10
90.9630525565827
20
-1.96671818720969
30
0
41
1
10
91.0607433413692
20
-2.59809969420627
30
0
41
1
10
91.2561249109419
20
-3.85835812814295
30
0
41
1
10
91.3538156957284
20
-4.48712540779041
30
0
41
1
10
91.5491972653012
20
-5.71128206392109
30
0
41
1
10
91.6468880500877
20
-6.30651186663076
30
0
41
1
10
91.8422696196606
20
-7.43210564509516
30
0
41
1
10
91.939960404447
20
-7.96230387701934
30
0
41
1
10
92.1353419740198
20
-8.93080346585469
30
0
41
1
10
92.2330327588062
20
-9.36898727751901
30
0
41
1
10
92.4284143283791
20
-10.1353397183748
30
0
41
1
10
92.5261051131655
20
-10.4634755537244
30
0
41
1
10
92.7214866827384
20
-11.002892839183
30
0
41
1
10
92.8191774675248
20
-11.2142264504893
30
0
41
1
10
93.0145590370976
20
-11.5241531649166
30
0
41
1
10
93.112249821884
20
-11.6228521011305
30
0
41
1
10
93.2587859990637
20
-11.6957618188405
30
0
41
1
10
93.3076313914569
20
-11.707596935749
30
0
41
1
10
93.3808994800467
20
-11.70818633057
30
0
41
1
10
93.4053221762433
20
-11.7055328808537
30
0
41
1
10
93.4541675686365
20
-11.6942629552964
30
0
41
1
10
93.4785902648331
20
-11.6856460558725
30
0
41
1
10
93.6007037458161
20
-11.6270276671116
30
0
41
1
10
93.6983945306025
20
-11.5301752174886
30
0
41
1
10
93.8937761001754
20
-11.2240965871574
30
0
41
1
10
93.9914668849619
20
-11.0147640182269
30
0
41
1
10
94.1868484545347
20
-10.4793341659434
30
0
41
1
10
94.2845392393211
20
-10.1531834700456
30
0
41
1
10
94.4799208088939
20
-9.39058859500088
30
0
41
1
10
94.5776115936803
20
-8.95417563921833
30
0
41
1
10
94.7729931632532
20
-7.98882287171611
30
0
41
1
10
94.8706839480395
20
-7.45999936680184
30
0
41
1
10
95.0660655176123
20
-6.33663859552328
30
0
41
1
10
95.1637563023988
20
-5.74226669368466
30
0
41
1
10
95.3591378719717
20
-4.5192744150973
30
0
41
1
10
95.4568286567582
20
-3.89081415424692
30
0
41
1
10
95.6522102263309
20
-2.63066722756426
30
0
41
1
10
95.7499010111173
20
-1.99909128870385
30
0
41
1
10
95.896437188297
20
-1.06908272887648
30
0
41
1
10
95.9452825806902
20
-0.761925771002979
30
0
41
1
10
96.0185506692801
20
-0.307437462918159
30
0
41
1
10
96.0429733654767
20
-0.156978994973002
30
0
41
1
10
96.0918187578699
20
0.141576338910284
30
0
41
1
10
96.1162414540664
20
0.291878944914146
30
0
41
1
10
96.2383549350495
20
1.04900205832044
30
0
41
1
10
96.336045719836
20
1.67166254704114
30
0
41
1
10
96.5314272894088
20
2.92810105823162
30
0
41
1
10
96.6291180741952
20
3.56180160804124
30
0
41
1
10
96.824499643768
20
4.81136631906307
30
0
41
1
10
96.9221904285545
20
5.42709153707702
30
0
41
1
10
97.1175719981273
20
6.60891299591589
30
0
41
1
10
97.2152627829137
20
7.1748397654234
30
0
41
1
10
97.4106443524865
20
8.22720814469454
30
0
41
1
10
97.508335137273
20
8.71350219112301
30
0
41
1
10
97.7037167068459
20
9.58365427930812
30
0
41
1
10
97.8014074916322
20
9.9674354201164
30
0
41
1
10
97.9967890612051
20
10.6200530647909
30
0
41
1
10
98.0944798459917
20
10.8889023246939
30
0
41
1
10
98.2898614155644
20
11.3105889776083
30
0
41
1
10
98.3875522003508
20
11.4635109473069
30
0
41
1
10
98.5829337699236
20
11.6621579828572
30
0
41
1
10
98.68062455471
20
11.708
30
0
41
1
10
98.7783153394964
20
11.708
30
0
0
SPLINE
5
D6
100
AcDbEntity
8
1
62
256
6
ByLayer
370
13
48
1
60
0
100
AcDbSpline
70
4
71
3
72
22
73
18
40
0
40
0
40
0
40
0
40
0.125
40
0.125
40
0.25
40
0.25
40
0.375000000000001
40
0.375000000000001
40
0.500000000000001
40
0.500000000000001
40
0.625000000000001
40
0.625000000000001
40
0.75
40
0.75
40
0.875
40
0.875
40
1
40
1
40
1
40
1
41
1
10
98.1619307398119
20
11.708
30
0
41
1
10
98.2484601463701
20
11.708
30
0
41
1
10
98.3349895529284
20
11.672070580505
30
0
41
1
10
98.5080483660451
20
11.5175330769201
30
0
41
1
10
98.5945777726034
20
11.3988604473528
30
0
41
1
10
98.76763658572
20
11.0717259134264
30
0
41
1
10
98.8541659922784
20
10.8632115630482
30
0
41
1
10
99.027224805395
20
10.3549353024991
30
0
41
1
10
99.1137542119533
20
10.0551509001053
30
0
41
1
10
99.2868130250699
20
9.36972029142603
30
0
41
1
10
99.3733424316282
20
8.98409368198116
30
0
41
1
10
99.5464012447449
20
8.13928914356995
30
0
41
1
10
99.6329306513032
20
7.68017231408328
30
0
41
1
10
99.8059894644198
20
6.70639525012592
30
0
41
1
10
99.8925188709781
20
6.19182282753786
30
0
41
1
10
100.065577684095
20
5.12853686420192
30
0
41
1
10
100.152107090653
20
4.57991474325618
30
0
41
1
10
100.238636497211
20
4.02522970743524
30
0
0
SPLINE
5
D7
100
AcDbEntity
8
1
62
256
6
ByLayer
370
13
48
1
60
0
100
AcDbSpline
70
4
71
3
72
80
73
76
40
0
40
0
40
0
40
0
40
0.0312499999999996
40
0.0312499999999996
40
0.0624999999999991
40
0.0624999999999991
40
0.078124999999999
40
0.078124999999999
40
0.0859374999999989
40
0.0859374999999989
40
0.0937499999999987
40
0.0937499999999987
40
0.124999999999999
40
0.124999999999999
40
0.156249999999999
40
0.156249999999999
40
0.187499999999999
40
0.187499999999999
40
0.218749999999999
40
0.218749999999999
40
0.249999999999999
40
0.249999999999999
40
0.281249999999999
40
0.281249999999999
40
0.312499999999999
40
0.312499999999999
40
0.343749999999999
40
0.343749999999999
40
0.374999999999999
40
0.374999999999999
40
0.390624999999999
40
0.390624999999999
40
0.406249999999999
40
0.406249999999999
40
0.4375
40
0.4375
40
0.46875
40
0.46875
40
0.500000000000001
40
0.500000000000001
40
0.531250000000001
40
0.531250000000001
40
0.562500000000002
40
0.562500000000002
40
0.593750000000002
40
0.593750000000002
40
0.625000000000003
40
0.625000000000003
40
0.656250000000004
40
0.656250000000004
40
0.687500000000004
40
0.687500000000004
40
0.695312500000004
40
0.695312500000004
40
0.703125000000004
40
0.703125000000004
40
0.718750000000004
40
0.718750000000004
40
0.750000000000003
40
0.750000000000003
40
0.781250000000003
40
0.781250000000003
40
0.812500000000003
40
0.812500000000003
40
0.843750000000002
40
0.843750000000002
40
0.875000000000002
40
0.875000000000002
40
0.906250000000001
40
0.906250000000001
40
0.937500000000001
40
0.937500000000001
40
0.96875
40
0.96875
40
1
40
1
40
1
40
1
41
1
10
89.4
20
4.85018263077143
30
0
41
1
10
89.4926202233294
20
4.26584525457505
30
0
41
1
10
89.5852404466586
20
3.66843166907952
30
0
41
1
10
89.7704808933173
20
2.47330206196358
30
0
41
1
10
89.8631011166466
20
1.87566603387944
30
0
41
1
10
90.0020314516405
20
0.995527748340635
30
0
41
1
10
90.0483415633051
20
0.704828744030749
30
0
41
1
10
90.1178067308022
20
0.274466128381789
30
0
41
1
10
90.1409617866346
20
0.132048495723012
30
0
41
1
10
90.1872718982992
20
-0.151028426251486
30
0
41
1
10
90.2104269541315
20
-0.293627693745435
30
0
41
1
10
90.3262022332932
20
-1.01131937943117
30
0
41
1
10
90.4188224566225
20
-1.6007228175406
30
0
41
1
10
90.604062903281
20
-2.79076593555951
30
0
41
1
10
90.6966831266104
20
-3.39134910074154
30
0
41
1
10
90.8819235732691
20
-4.57942053411637
30
0
41
1
10
90.9745437965984
20
-5.16680657525117
30
0
41
1
10
91.1597842432569
20
-6.30150580136529
30
0
41
1
10
91.2524044665863
20
-6.84869024753257
30
0
41
1
10
91.4376449132449
20
-7.87692004326158
30
0
41
1
10
91.5302651365743
20
-8.35784505257431
30
0
41
1
10
91.7155055832329
20
-9.23228263152575
30
0
41
1
10
91.8081258065622
20
-9.62571935741181
30
0
41
1
10
91.9933662532208
20
-10.3117742196812
30
0
41
1
10
92.0859864765502
20
-10.6043807790187
30
0
41
1
10
92.2712269232088
20
-11.0846018959369
30
0
41
1
10
92.3638471465381
20
-11.2722642214458
30
0
41
1
10
92.5490875931968
20
-11.5470714731691
30
0
41
1
10
92.641707816526
20
-11.6342997494
30
0
41
1
10
92.7806381515201
20
-11.6980434671352
30
0
41
1
10
92.8269482631846
20
-11.7081512313034
30
0
41
1
10
92.919568486514
20
-11.7078453503545
30
0
41
1
10
92.9658785981786
20
-11.6974180823207
30
0
41
1
10
93.1048089331725
20
-11.6326784972528
30
0
41
1
10
93.1974291565019
20
-11.5447362667998
30
0
41
1
10
93.3826696031606
20
-11.2684399374988
30
0
41
1
10
93.4752898264899
20
-11.0800026450249
30
0
41
1
10
93.6605302731485
20
-10.5982281414153
30
0
41
1
10
93.7531504964779
20
-10.3048435320941
30
0
41
1
10
93.9383909431364
20
-9.61729778966139
30
0
41
1
10
94.0310111664658
20
-9.22314872458139
30
0
41
1
10
94.2162516131243
20
-8.34741793620395
30
0
41
1
10
94.3088718364537
20
-7.86591249029925
30
0
41
1
10
94.4941122831123
20
-6.83670251078962
30
0
41
1
10
94.5867325064416
20
-6.2891185237041
30
0
41
1
10
94.7719729531002
20
-5.15382290898498
30
0
41
1
10
94.8645931764296
20
-4.56623993893876
30
0
41
1
10
95.0498336230882
20
-3.37797015594077
30
0
41
1
10
95.1424538464175
20
-2.77738527574226
30
0
41
1
10
95.3276942930761
20
-1.58750388904011
30
0
41
1
10
95.4203145164056
20
-0.998263534862105
30
0
41
1
10
95.5360897955672
20
-0.280852006101213
30
0
41
1
10
95.5592448513994
20
-0.138343879734521
30
0
41
1
10
95.6055549630642
20
0.144669816205834
30
0
41
1
10
95.6287100188964
20
0.287239195372877
30
0
41
1
10
95.6981751863934
20
0.717770244628213
30
0
41
1
10
95.7444852980581
20
1.00856635208342
30
0
41
1
10
95.8834156330521
20
1.88894213225325
30
0
41
1
10
95.9760358563814
20
2.48666431286503
30
0
41
1
10
96.16127630304
20
3.68178440808816
30
0
41
1
10
96.2538965263693
20
4.27910198175672
30
0
41
1
10
96.439136973028
20
5.44738261833567
30
0
41
1
10
96.5317571963573
20
6.01822669178733
30
0
41
1
10
96.7169976430158
20
7.10654468475889
30
0
41
1
10
96.8096178663452
20
7.6238891592979
30
0
41
1
10
96.9948583130039
20
8.58105892414932
30
0
41
1
10
97.0874785363332
20
9.02078210609736
30
0
41
1
10
97.2727189829918
20
9.80504771995436
30
0
41
1
10
97.3653392063211
20
10.1495452455989
30
0
41
1
10
97.5505796529797
20
10.7344897734944
30
0
41
1
10
97.643199876309
20
10.9749567236138
30
0
41
1
10
97.8284403229677
20
11.3521416808914
30
0
41
1
10
97.921060546297
20
11.4889287355067
30
0
41
1
10
98.1063009929557
20
11.6668128212466
30
0
41
1
10
98.1989212162849
20
11.708
30
0
41
1
10
98.2915414396142
20
11.708
30
0
0
SPLINE
5
D8
100
AcDbEntity
8
1
62
256
6
ByLayer
370
13
48
1
60
0
100
AcDbSpline
70
4
71
3
72
36
73
32
40
0
40
0
40
0
40
0
40
0.125
40
0.125
40
0.1875
40
0.1875
40
0.25
40
0.25
40
0.3125
40
0.3125
40
0.375
40
0.375
40
0.4375
40
0.4375
40
0.5
40
0.5
40
0.5625
40
0.5625
40
0.625
40
0.625
40
0.6875
40
0.6875
40
0.75
40
0.75
40
0.8125
40
0.8125
40
0.875
40
0.875
40
0.9375
40
0.9375
40
1
40
1
40
1
40
1
41
1
10
97.6751568399296
20
11.708
30
0
41
1
10
97.7819684923164
20
11.708
30
0
41
1
10
97.888780144703
20
11.6531465331445
30
0
41
1
10
98.0489976232832
20
11.4738516672398
30
0
41
1
10
98.1024034494765
20
11.3979694694689
30
0
41
1
10
98.2092151018633
20
11.2123713598455
30
0
41
1
10
98.2626209280567
20
11.1026504366311
30
0
41
1
10
98.3694325804435
20
10.8485510244187
30
0
41
1
10
98.4228384066369
20
10.7041688653488
30
0
41
1
10
98.5296500590236
20
10.3808426434956
30
0
41
1
10
98.5830558852169
20
10.2018968287105
30
0
41
1
10
98.6898675376036
20
9.81054194268768
30
0
41
1
10
98.743273363797
20
9.59813344260786
30
0
41
1
10
98.8500850161837
20
9.14197389236659
30
0
41
1
10
98.9034908423771
20
8.89822587299912
30
0
41
1
10
99.0103024947639
20
8.38247625516988
30
0
41
1
10
99.0637083209572
20
8.1104799624834
30
0
41
1
10
99.170519973344
20
7.54216494443983
30
0
41
1
10
99.2239257995373
20
7.24585330551719
30
0
41
1
10
99.330737451924
20
6.63349282924816
30
0
41
1
10
99.3841432781174
20
6.3174521323468
30
0
41
1
10
99.4909549305041
20
5.67064145042678
30
0
41
1
10
99.5443607566975
20
5.33987982607886
30
0
41
1
10
99.6511724090842
20
4.66880706618727
30
0
41
1
10
99.7045782352776
20
4.32850371149317
30
0
41
1
10
99.8113898876643
20
3.64345398140253
30
0
41
1
10
99.8647957138577
20
3.2987141623795
30
0
41
1
10
99.9716073662445
20
2.60960732269948
30
0
41
1
10
100.025013192438
20
2.26524522120485
30
0
41
1
10
100.131824844825
20
1.5812454561283
30
0
41
1
10
100.185230671018
20
1.24161091518829
30
0
41
1
10
100.238636497211
20
0.906221814313824
30
0
0
SPLINE
5
D9
100
AcDbEntity
8
1
62
256
6
ByLayer
370
13
48
1
60
0
100
AcDbSpline
70
4
71
3
72
85
73
81
40
0
40
0
40
0
40
0
40
0.0312499999999981
40
0.0312499999999981
40
0.0351562499999981
40
0.0351562499999981
40
0.039062499999998
40
0.046874999999998
40
0.046874999999998
40
0.0624999999999979
40
0.0624999999999979
40
0.0937499999999978
40
0.0937499999999978
40
0.124999999999998
40
0.124999999999998
40
0.156249999999998
40
0.156249999999998
40
0.187499999999997
40
0.187499999999997
40
0.218749999999997
40
0.218749999999997
40
0.249999999999997
40
0.249999999999997
40
0.281249999999997
40
0.281249999999997
40
0.312499999999997
40
0.312499999999997
40
0.343749999999997
40
0.343749999999997
40
0.351562499999997
40
0.351562499999997
40
0.359374999999997
40
0.359374999999997
40
0.374999999999997
40
0.374999999999997
40
0.406249999999998
40
0.406249999999998
40
0.437499999999998
40
0.437499999999998
40
0.468749999999998
40
0.468749999999998
40
0.499999999999999
40
0.499999999999999
40
0.531249999999999
40
0.531249999999999
40
0.562499999999999
40
0.562499999999999
40
0.59375
40
0.59375
40
0.625
40
0.625
40
0.656250000000001
40
0.656250000000001
40
0.671875000000001
40
0.671875000000001
40
0.675781250000001
40
0.675781250000001
40
0.679687500000001
40
0.679687500000001
40
0.687500000000001
40
0.687500000000001
40
0.718750000000001
40
0.718750000000001
40
0.750000000000001
40
0.750000000000001
40
0.781250000000001
40
0.781250000000001
40
0.812500000000001
40
0.812500000000001
40
0.843750000000001
40
0.843750000000001
40
0.875000000000001
40
0.875000000000001
40
0.90625
40
0.90625
40
0.9375
40
0.9375
40
0.96875
40
0.96875
40
1
40
1
40
1
40
1
41
1
10
89.4
20
1.72751606229471
30
0
41
1
10
89.4875496618722
20
1.16845195565546
30
0
41
1
10
89.5750993237444
20
0.616897702357051
30
0
41
1
10
89.6735926933508
20
0.0133531215748235
30
0
41
1
10
89.6845364010848
20
-0.0534178409040749
30
0
41
1
10
89.7064238165528
20
-0.18772328062181
30
0
41
1
10
89.7392549397547
20
-0.38987097663923
30
0
41
1
10
89.772086062957
20
-0.593973688538057
30
0
41
1
10
89.8377483093611
20
-1.00445644274134
30
0
41
1
10
89.8815231402971
20
-1.28115705861239
30
0
41
1
10
90.0128476331054
20
-2.11742717644344
30
0
41
1
10
90.1003972949777
20
-2.68328311985627
30
0
41
1
10
90.2754966187221
20
-3.81265730537612
30
0
41
1
10
90.3630462805943
20
-4.37611169532926
30
0
41
1
10
90.5381456043386
20
-5.47856277853907
30
0
41
1
10
90.625695266211
20
-6.01746882280517
30
0
41
1
10
90.8007945899553
20
-7.04802444848917
30
0
41
1
10
90.8883442518276
20
-7.53957608635522
30
0
41
1
10
91.063443575572
20
-8.45486013383163
30
0
41
1
10
91.1509932374442
20
-8.87851294535275
30
0
41
1
10
91.3260925611885
20
-9.64243616153649
30
0
41
1
10
91.4136422230608
20
-9.98266639608906
30
0
41
1
10
91.5887415468052
20
-10.57104924427
30
0
41
1
10
91.6762912086774
20
-10.8192084761173
30
0
41
1
10
91.8513905324219
20
-11.2221383024008
30
0
41
1
10
91.938940194294
20
-11.3769540775725
30
0
41
1
10
92.1140395180385
20
-11.5984483721513
30
0
41
1
10
92.2015891799107
20
-11.6651926587363
30
0
41
1
10
92.3110262572509
20
-11.6998340922831
30
0
41
1
10
92.332913672719
20
-11.7043318097649
30
0
41
1
10
92.3766885036551
20
-11.7086527708494
30
0
41
1
10
92.3985759191232
20
-11.7085019760406
30
0
41
1
10
92.4642381655273
20
-11.7010870168243
30
0
41
1
10
92.5080129964633
20
-11.6867639875357
30
0
41
1
10
92.6393374892717
20
-11.6134873613617
30
0
41
1
10
92.726887151144
20
-11.5240845241252
30
0
41
1
10
92.9019864748883
20
-11.2553118497006
30
0
41
1
10
92.9895361367605
20
-11.0758797740984
30
0
41
1
10
93.164635460505
20
-10.6233529222498
30
0
41
1
10
93.2521851223772
20
-10.35022173551
30
0
41
1
10
93.4272844461216
20
-9.71346230723088
30
0
41
1
10
93.5148341079939
20
-9.34983970803566
30
0
41
1
10
93.6899334317382
20
-8.54264101054261
30
0
41
1
10
93.7774830936104
20
-8.09911698628093
30
0
41
1
10
93.9525824173548
20
-7.14917307673642
30
0
41
1
10
94.040132079227
20
-6.64284013386637
30
0
41
1
10
94.2152314029714
20
-5.58870505020917
30
0
41
1
10
94.3027810648437
20
-5.04100133251762
30
0
41
1
10
94.4778803885881
20
-3.92704234735152
30
0
41
1
10
94.5654300504602
20
-3.3608720417522
30
0
41
1
10
94.7405293742047
20
-2.23154504915942
30
0
41
1
10
94.8280790360769
20
-1.6684432866023
30
0
41
1
10
94.9594035288853
20
-0.83959669999058
30
0
41
1
10
95.0031783598213
20
-0.565916460053444
30
0
41
1
10
95.0578968984915
20
-0.228207459163002
30
0
41
1
10
95.0688406062255
20
-0.16088449558282
30
0
41
1
10
95.0907280216935
20
-0.0267017828734595
30
0
41
1
10
95.1016717294276
20
0.0400566965461735
30
0
41
1
10
95.1345028526296
20
0.241422976840738
30
0
41
1
10
95.1563902680977
20
0.376590858921844
30
0
41
1
10
95.265827345438
20
1.05652455923664
30
0
41
1
10
95.3533770073102
20
1.61375236103871
30
0
41
1
10
95.5284763310546
20
2.73841890990121
30
0
41
1
10
95.6160259929267
20
3.3058154155726
30
0
41
1
10
95.7911253166712
20
4.43040587580862
30
0
41
1
10
95.8786749785435
20
4.98752460333913
30
0
41
1
10
96.0537743022879
20
6.06887465194339
30
0
41
1
10
96.1413239641601
20
6.59300986217281
30
0
41
1
10
96.3164232879045
20
7.5860664242428
30
0
41
1
10
96.4039729497766
20
8.05489357478803
30
0
41
1
10
96.5790722735211
20
8.91831652925777
30
0
41
1
10
96.6666219353933
20
9.31284533017296
30
0
41
1
10
96.8417212591377
20
10.0144760285849
30
0
41
1
10
96.92927092101
20
10.3215549335215
30
0
41
1
10
97.1043702447544
20
10.8423144491624
30
0
41
1
10
97.1919199066266
20
11.0560174736365
30
0
41
1
10
97.3670192303709
20
11.391276560584
30
0
41
1
10
97.4545688922431
20
11.5128876749378
30
0
41
1
10
97.6296682159876
20
11.6712152049179
30
0
41
1
10
97.7172178778599
20
11.708
30
0
41
1
10
97.804767539732
20
11.708
30
0
0
SPLINE
5
DA
100
AcDbEntity
8
1
62
256
6
ByLayer
370
13
48
1
60
0
100
AcDbSpline
70
4
71
3
72
41
73
37
40
0
40
0
40
0
40
0
40
0.0625
40
0.0625
40
0.125
40
0.125
40
0.1875
40
0.1875
40
0.25
40
0.25
40
0.3125
40
0.3125
40
0.375
40
0.375
40
0.4375
40
0.4375
40
0.5
40
0.5
40
0.562499999999999
40
0.562499999999999
40
0.624999999999999
40
0.624999999999999
40
0.687499999999999
40
0.687499999999999
40
0.749999999999999
40
0.749999999999999
40
0.812499999999999
40
0.812499999999999
40
0.874999999999999
40
0.874999999999999
40
0.890624999999999
40
0.890624999999999
40
0.906249999999999
40
0.937499999999999
40
0.937499999999999
40
1
40
1
40
1
40
1
41
1
10
97.1883829400474
20
11.708
30
0
41
1
10
97.251929889155
20
11.708
30
0
41
1
10
97.3154768382627
20
11.6886520109897
30
0
41
1
10
97.4425707364777
20
11.6068216386285
30
0
41
1
10
97.5061176855852
20
11.5443253296338
30
0
41
1
10
97.6332115838003
20
11.3726988309142
30
0
41
1
10
97.696758532908
20
11.2635554970541
30
0
41
1
10
97.8238524311232
20
10.9965136071879
30
0
41
1
10
97.8873993802308
20
10.8386047669801
30
0
41
1
10
98.014493278446
20
10.4736484133298
30
0
41
1
10
98.0780402275535
20
10.2665955348001
30
0
41
1
10
98.2051341257686
20
9.80494804855175
30
0
41
1
10
98.2686810748762
20
9.55035451645895
30
0
41
1
10
98.3957749730914
20
8.99727254508667
30
0
41
1
10
98.4593219221991
20
8.69879212431084
30
0
41
1
10
98.5864158204141
20
8.06349744015296
30
0
41
1
10
98.6499627695218
20
7.72669736508809
30
0
41
1
10
98.777056667737
20
7.02190130167392
30
0
41
1
10
98.8406036168445
20
6.65392372318345
30
0
41
1
10
98.9676975150596
20
5.8949899072982
30
0
41
1
10
99.0312444641673
20
5.50405362638006
30
0
41
1
10
99.1583383623826
20
4.70791265822379
30
0
41
1
10
99.22188531149
20
4.30272671617766
30
0
41
1
10
99.3489792097051
20
3.48669863597695
30
0
41
1
10
99.4125261588127
20
3.07587180206104
30
0
41
1
10
99.5396200570278
20
2.2565574017454
30
0
41
1
10
99.6031670061356
20
1.84808038349314
30
0
41
1
10
99.7302609043507
20
1.04045236495205
30
0
41
1
10
99.7938078534582
20
0.641306839360311
30
0
41
1
10
99.8732415398426
20
0.151789530882922
30
0
41
1
10
99.8891282771195
20
0.0545820263968437
30
0
41
1
10
99.9209017516733
20
-0.139863681793116
30
0
41
1
10
99.9685619635041
20
-0.433015481038666
30
0
41
1
10
100.016222175335
20
-0.730274899820074
30
0
41
1
10
100.111542598996
20
-1.3292411479822
30
0
41
1
10
100.175089548104
20
-1.73452019007593
30
0
41
1
10
100.238636497211
20
-2.14253883820675
30
0
0
SPLINE
5
DB
100
AcDbEntity
8
1
62
256
6
ByLayer
370
13
48
1
60
0
100
AcDbSpline
70
4
71
3
72
80
73
76
40
0
40
0
40
0
40
0
40
0.0312499999999999
40
0.0312499999999999
40
0.0624999999999997
40
0.0624999999999997
40
0.0937499999999996
40
0.0937499999999996
40
0.124999999999999
40
0.124999999999999
40
0.156249999999999
40
0.156249999999999
40
0.187499999999999
40
0.187499999999999
40
0.218749999999999
40
0.218749999999999
40
0.249999999999999
40
0.249999999999999
40
0.281249999999999
40
0.281249999999999
40
0.312499999999999
40
0.312499999999999
40
0.316406249999999
40
0.316406249999999
40
0.320312499999999
40
0.328124999999999
40
0.328124999999999
40
0.343749999999999
40
0.343749999999999
40
0.374999999999998
40
0.374999999999998
40
0.406249999999998
40
0.406249999999998
40
0.437499999999998
40
0.437499999999998
40
0.468749999999997
40
0.468749999999997
40
0.499999999999997
40
0.499999999999997
40
0.531249999999997
40
0.531249999999997
40
0.562499999999997
40
0.562499999999997
40
0.593749999999996
40
0.593749999999996
40
0.624999999999996
40
0.624999999999996
40
0.656249999999996
40
0.656249999999996
40
0.660156249999996
40
0.660156249999996
40
0.664062499999995
40
0.671874999999995
40
0.671874999999995
40
0.687499999999996
40
0.687499999999996
40
0.718749999999996
40
0.718749999999996
40
0.749999999999997
40
0.749999999999997
40
0.781249999999997
40
0.781249999999997
40
0.812499999999997
40
0.812499999999997
40
0.843749999999998
40
0.843749999999998
40
0.874999999999998
40
0.874999999999998
40
0.906249999999999
40
0.906249999999999
40
0.937499999999999
40
0.937499999999999
40
0.968749999999999
40
0.968749999999999
40
1
40
1
40
1
40
1
41
1
10
89.4
20
-1.31514795885559
30
0
41
1
10
89.4824791004152
20
-1.83794278923906
30
0
41
1
10
89.5649582008302
20
-2.36921514960051
30
0
41
1
10
89.7299164016604
20
-3.43338854397092
30
0
41
1
10
89.8123955020756
20
-3.96624723532307
30
0
41
1
10
89.9773537029057
20
-5.01554536717106
30
0
41
1
10
90.0598328033209
20
-5.5319216197361
30
0
41
1
10
90.2247910041509
20
-6.52912517311788
30
0
41
1
10
90.3072701045661
20
-7.00987942977912
30
0
41
1
10
90.4722283053964
20
-7.91772095438202
30
0
41
1
10
90.5547074058114
20
-8.34474169546763
30
0
41
1
10
90.7196656066416
20
-9.13016979832278
30
0
41
1
10
90.8021447070568
20
-9.48853315173622
30
0
41
1
10
90.967102907887
20
-10.1265881494197
30
0
41
1
10
91.049582008302
20
-10.4062676395317
30
0
41
1
10
91.2145402091322
20
-10.8826545242954
30
0
41
1
10
91.2970193095473
20
-11.0793810390184
30
0
41
1
10
91.4619775103777
20
-11.391203272923
30
0
41
1
10
91.5444566107926
20
-11.5063403237903
30
0
41
1
10
91.7094148116229
20
-11.661018625186
30
0
41
1
10
91.7918939120379
20
-11.7006105858738
30
0
41
1
10
91.8846829000049
20
-11.7078586252206
30
0
41
1
10
91.8949927875568
20
-11.7081482387642
30
0
41
1
10
91.9156125626606
20
-11.7077114877212
30
0
41
1
10
91.9465422253163
20
-11.7055244194843
30
0
41
1
10
91.9774718879719
20
-11.69865015637
30
0
41
1
10
92.0393312132833
20
-11.678418772571
30
0
41
1
10
92.0805707634908
20
-11.6562822269085
30
0
41
1
10
92.2042894141134
20
-11.5622213931523
30
0
41
1
10
92.2867685145286
20
-11.4625251685315
30
0
41
1
10
92.4517267153588
20
-11.1824460694808
30
0
41
1
10
92.534205815774
20
-11.0020189839651
30
0
41
1
10
92.6991640166041
20
-10.5580795642645
30
0
41
1
10
92.7816431170192
20
-10.2945428352821
30
0
41
1
10
92.9466013178494
20
-9.68747703055081
30
0
41
1
10
93.0290804182646
20
-9.34395360437463
30
0
41
1
10
93.1940386190947
20
-8.58581425173443
30
0
41
1
10
93.2765177195098
20
-8.1712365186595
30
0
41
1
10
93.4414759203401
20
-7.28503790494162
30
0
41
1
10
93.5239550207551
20
-6.81348026064163
30
0
41
1
10
93.6889132215852
20
-5.83096070979715
30
0
41
1
10
93.7713923220003
20
-5.320071943719
30
0
41
1
10
93.9363505228307
20
-4.27800934604809
30
0
41
1
10
94.0188296232457
20
-3.74690173487588
30
0
41
1
10
94.1837878240759
20
-2.68284690374418
30
0
41
1
10
94.266266924491
20
-2.14994662034041
30
0
41
1
10
94.4312251253212
20
-1.09833918234898
30
0
41
1
10
94.5137042257363
20
-0.579654958487367
30
0
41
1
10
94.6064932137033
20
-0.0111844322194656
30
0
41
1
10
94.6168031012552
20
0.0517267018051086
30
0
41
1
10
94.637422876359
20
0.178229584411895
30
0
41
1
10
94.6683525390146
20
0.368596828347677
30
0
41
1
10
94.6992822016704
20
0.560708009162852
30
0
41
1
10
94.7611415269816
20
0.946981916190254
30
0
41
1
10
94.8023810771892
20
1.20724038265504
30
0
41
1
10
94.9260997278118
20
1.99379047728203
30
0
41
1
10
95.008578828227
20
2.5259529262303
30
0
41
1
10
95.1735370290571
20
3.59023191404748
30
0
41
1
10
95.2560161294723
20
4.12230379472578
30
0
41
1
10
95.4209743303024
20
5.16816611646371
30
0
41
1
10
95.5034534307175
20
5.68189179582362
30
0
41
1
10
95.6684116315478
20
6.67193377119463
30
0
41
1
10
95.7508907319628
20
7.1481768921374
30
0
41
1
10
95.9158489327931
20
8.04535485562698
30
0
41
1
10
95.9983280332082
20
8.46622473866856
30
0
41
1
10
96.1632862340384
20
9.23812520349949
30
0
41
1
10
96.2457653344534
20
9.58911464254518
30
0
41
1
10
96.4107235352836
20
10.2117388088223
30
0
41
1
10
96.4932026356988
20
10.4833646425079
30
0
41
1
10
96.658160836529
20
10.9435359958897
30
0
41
1
10
96.740639936944
20
11.1321033217865
30
0
41
1
10
96.9055981377743
20
11.4280128293466
30
0
41
1
10
96.9880772381894
20
11.5353978467393
30
0
41
1
10
97.1530354390195
20
11.6753659564771
30
0
41
1
10
97.2355145394347
20
11.708
30
0
41
1
10
97.3179936398498
20
11.708
30
0
0
SPLINE
5
DC
100
AcDbEntity
8
1
62
256
6
ByLayer
370
13
48
1
60
0
100
AcDbSpline
70
4
71
3
72
42
73
38
40
0
40
0
40
0
40
0
40
0.0625
40
0.0625
40
0.125
40
0.125
40
0.1875
40
0.1875
40
0.25
40
0.25
40
0.3125
40
0.3125
40
0.375
40
0.375
40
0.4375
40
0.4375
40
0.5
40
0.5
40
0.5625
40
0.5625
40
0.625
40
0.625
40
0.6875
40
0.6875
40
0.75
40
0.75
40
0.765625
40
0.765625
40
0.78125
40
0.78125
40
0.8125
40
0.8125
40
0.875
40
0.875
40
0.9375
40
0.9375
40
1
40
1
40
1
40
1
41
1
10
96.7016090401652
20
11.708
30
0
41
1
10
96.775297112187
20
11.708
30
0
41
1
10
96.8489851842088
20
11.6819681453935
30
0
41
1
10
96.9963613282523
20
11.571022244193
30
0
41
1
10
97.0700494002742
20
11.4860790577663
30
0
41
1
10
97.2174255443177
20
11.2523018471092
30
0
41
1
10
97.2911136163395
20
11.1034417615941
30
0
41
1
10
97.4384897603831
20
10.7395354031084
30
0
41
1
10
97.5121778324049
20
10.5244720759938
30
0
41
1
10
97.6595539764485
20
10.02924720645
30
0
41
1
10
97.7332420484703
20
9.74908281656411
30
0
41
1
10
97.8806181925139
20
9.12844415341658
30
0
41
1
10
97.9543062645357
20
8.78798377465958
30
0
41
1
10
98.1016824085793
20
8.05508250715678
30
0
41
1
10
98.175370480601
20
7.66267081696199
30
0
41
1
10
98.3227466246447
20
6.83708122618
30
0
41
1
10
98.3964346966664
20
6.40394251372865
30
0
41
1
10
98.54381084071
20
5.50994843828835
30
0
41
1
10
98.6174989127319
20
5.04913467189724
30
0
41
1
10
98.7648750567754
20
4.11343299698433
30
0
41
1
10
98.8385631287972
20
3.63858165088163
30
0
41
1
10
98.9859392728407
20
2.6878402129575
30
0
41
1
10
99.0596273448626
20
2.21197643669024
30
0
41
1
10
99.2070034889061
20
1.27067775077947
30
0
41
1
10
99.2806915609281
20
0.805256891319658
30
0
41
1
10
99.3728016509552
20
0.235804803201802
30
0
41
1
10
99.3912236689606
20
0.122524838764747
30
0
41
1
10
99.4280677049716
20
-0.102692778894749
30
0
41
1
10
99.4464897229769
20
-0.215821700827945
30
0
41
1
10
99.5017557769934
20
-0.557277384369712
30
0
41
1
10
99.5385998130042
20
-0.787375769539977
30
0
41
1
10
99.649131921037
20
-1.48343488825185
30
0
41
1
10
99.7228199930587
20
-1.95522710005537
30
0
41
1
10
99.8701961371023
20
-2.90395812653924
30
0
41
1
10
99.9438842091241
20
-3.38087688891892
30
0
41
1
10
100.091260353168
20
-4.32755660343813
30
0
41
1
10
100.16494842519
20
-4.79728581070788
30
0
41
1
10
100.238636497211
20
-5.25670991510256
30
0
0
SPLINE
5
DD
100
AcDbEntity
8
1
62
256
6
ByLayer
370
13
48
1
60
0
100
AcDbSpline
70
4
71
3
72
81
73
77
40
0
40
0
40
0
40
0
40
0.0312500000000025
40
0.0312500000000025
40
0.062500000000005
40
0.062500000000005
40
0.0937500000000075
40
0.0937500000000075
40
0.12500000000001
40
0.12500000000001
40
0.156250000000013
40
0.156250000000013
40
0.187500000000015
40
0.187500000000015
40
0.218750000000018
40
0.218750000000018
40
0.25000000000002
40
0.25000000000002
40
0.265625000000021
40
0.265625000000021
40
0.269531250000022
40
0.269531250000022
40
0.273437500000022
40
0.273437500000022
40
0.281250000000022
40
0.281250000000022
40
0.312500000000022
40
0.312500000000022
40
0.343750000000022
40
0.343750000000022
40
0.375000000000022
40
0.375000000000022
40
0.406250000000023
40
0.406250000000023
40
0.437500000000023
40
0.437500000000023
40
0.468750000000023
40
0.468750000000023
40
0.500000000000023
40
0.500000000000023
40
0.531250000000024
40
0.531250000000024
40
0.562500000000024
40
0.562500000000024
40
0.593750000000024
40
0.593750000000024
40
0.625000000000024
40
0.625000000000024
40
0.632812500000024
40
0.632812500000024
40
0.636718750000024
40
0.636718750000024
40
0.640625000000024
40
0.656250000000023
40
0.656250000000023
40
0.687500000000021
40
0.687500000000021
40
0.718750000000019
40
0.718750000000019
40
0.750000000000017
40
0.750000000000017
40
0.781250000000015
40
0.781250000000015
40
0.812500000000013
40
0.812500000000013
40
0.843750000000011
40
0.843750000000011
40
0.875000000000009
40
0.875000000000009
40
0.906250000000006
40
0.906250000000006
40
0.937500000000004
40
0.937500000000004
40
0.968750000000002
40
0.968750000000002
40
1
40
1
40
1
40
1
41
1
10
89.4
20
-4.43934147337308
30
0
41
1
10
89.4774085389581
20
-4.93223635027755
30
0
41
1
10
89.554817077916
20
-5.4181173672232
30
0
41
1
10
89.709634155832
20
-6.36014329098069
30
0
41
1
10
89.78704269479
20
-6.81623514445161
30
0
41
1
10
89.9418597727059
20
-7.68350855007532
30
0
41
1
10
90.019268311664
20
-8.09464001966128
30
0
41
1
10
90.17408538958
20
-8.85903339784261
30
0
41
1
10
90.2514939285379
20
-9.21225884877586
30
0
41
1
10
90.4063110064539
20
-9.85143375097982
30
0
41
1
10
90.483719545412
20
-10.137367603743
30
0
41
1
10
90.6385366233279
20
-10.6369098066167
30
0
41
1
10
90.7159451622859
20
-10.8505248503648
30
0
41
1
10
90.870762240202
20
-11.2048700652888
30
0
41
1
10
90.9481707791599
20
-11.3456249471857
30
0
41
1
10
91.102987857076
20
-11.5576883374513
30
0
41
1
10
91.1803963960339
20
-11.6290318400323
30
0
41
1
10
91.2965092044709
20
-11.6888440100024
30
0
41
1
10
91.3352134739499
20
-11.7009347252694
30
0
41
1
10
91.3835938107986
20
-11.706867042639
30
0
41
1
10
91.3932698781683
20
-11.7075947019156
30
0
41
1
10
91.4126220129079
20
-11.7081490230166
30
0
41
1
10
91.4222980802776
20
-11.707978173326
30
0
41
1
10
91.4513262823868
20
-11.7061078599656
30
0
41
1
10
91.4706784171264
20
-11.7030460119123
30
0
41
1
10
91.5674390908239
20
-11.6783357423501
30
0
41
1
10
91.6448476297819
20
-11.6284033597994
30
0
41
1
10
91.7996647076978
20
-11.4610093724851
30
0
41
1
10
91.8770732466559
20
-11.3435112428114
30
0
41
1
10
92.0318903245718
20
-11.0364115624788
30
0
41
1
10
92.1092988635298
20
-10.8467810040879
30
0
41
1
10
92.2641159414459
20
-10.3945563688065
30
0
41
1
10
92.3415244804038
20
-10.1319490055431
30
0
41
1
10
92.4963415583198
20
-9.53729013857389
30
0
41
1
10
92.5737500972779
20
-9.20524679409192
30
0
41
1
10
92.7285671751938
20
-8.47970999169374
30
0
41
1
10
92.8059757141518
20
-8.08624670872328
30
0
41
1
10
92.9607927920678
20
-7.24975996561955
30
0
41
1
10
93.0382013310257
20
-6.80678320755396
30
0
41
1
10
93.1930184089418
20
-5.88587534742229
30
0
41
1
10
93.2704269478998
20
-5.40799755919932
30
0
41
1
10
93.4252440258157
20
-4.43306784430669
30
0
41
1
10
93.5026525647737
20
-3.93606497011848
30
0
41
1
10
93.6574696426898
20
-2.93826285656627
30
0
41
1
10
93.7348781816478
20
-2.43750011425448
30
0
41
1
10
93.8896952595637
20
-1.44584184627291
30
0
41
1
10
93.9671037985217
20
-0.954966526308738
30
0
41
1
10
94.0638644722192
20
-0.354469918489798
30
0
41
1
10
94.0832166069587
20
-0.235018557751857
30
0
41
1
10
94.112244809068
20
-0.0569218082861482
30
0
41
1
10
94.1219208764377
20
0.0021403134335571
30
0
41
1
10
94.1412730111772
20
0.120647796414005
30
0
41
1
10
94.189653348026
20
0.417827794520065
30
0
41
1
10
94.2380336848747
20
0.719365470291166
30
0
41
1
10
94.3541464933118
20
1.44957351124111
30
0
41
1
10
94.4315550322697
20
1.94515149975939
30
0
41
1
10
94.5863721101857
20
2.94188439064311
30
0
41
1
10
94.6637806491437
20
3.44301348815134
30
0
41
1
10
94.8185977270597
20
4.43651871037713
30
0
41
1
10
94.8960062660177
20
4.92885345295309
30
0
41
1
10
95.0508233439338
20
5.88911242108244
30
0
41
1
10
95.1282318828916
20
6.35698504547628
30
0
41
1
10
95.2830489608076
20
7.25275495140505
30
0
41
1
10
95.3604574997657
20
7.68059989644934
30
0
41
1
10
95.5152745776817
20
8.48244136518187
30
0
41
1
10
95.5926831166396
20
8.85639580011247
30
0
41
1
10
95.7475001945555
20
9.53973365389649
30
0
41
1
10
95.8249087335136
20
9.84909398425506
30
0
41
1
10
95.9797258114297
20
10.3966792594737
30
0
41
1
10
96.0571343503877
20
10.6349036218264
30
0
41
1
10
96.2119514283037
20
11.0381736411475
30
0
41
1
10
96.2893599672616
20
11.2032387004491
30
0
41
1
10
96.4441770451776
20
11.4623704744965
30
0
41
1
10
96.5215855841356
20
11.5564696746587
30
0
41
1
10
96.6764026620515
20
11.6792658295594
30
0
41
1
10
96.7538112010096
20
11.708
30
0
41
1
10
96.8312197399675
20
11.708
30
0
0
SPLINE
5
DE
100
AcDbEntity
8
1
62
256
6
ByLayer
370
13
48
1
60
0
100
AcDbSpline
70
4
71
3
72
44
73
40
40
0
40
0
40
0
40
0
40
0.0624999999999996
40
0.0624999999999996
40
0.124999999999999
40
0.124999999999999
40
0.187499999999999
40
0.187499999999999
40
0.249999999999998
40
0.249999999999998
40
0.312499999999998
40
0.312499999999998
40
0.374999999999998
40
0.374999999999998
40
0.437499999999997
40
0.437499999999997
40
0.499999999999997
40
0.499999999999997
40
0.562499999999996
40
0.562499999999996
40
0.624999999999996
40
0.624999999999996
40
0.656249999999996
40
0.656249999999996
40
0.671874999999996
40
0.671874999999996
40
0.679687499999996
40
0.679687499999996
40
0.687499999999997
40
0.687499999999997
40
0.749999999999997
40
0.749999999999997
40
0.812499999999998
40
0.812499999999998
40
0.874999999999999
40
0.874999999999999
40
0.937499999999999
40
0.937499999999999
40
1
40
1
40
1
40
1
41
1
10
96.214835140283
20
11.708
30
0
41
1
10
96.298664335219
20
11.708
30
0
41
1
10
96.382493530155
20
11.674285308237
30
0
41
1
10
96.550151920027
20
11.5295451958025
30
0
41
1
10
96.633981114963
20
11.4184645699639
30
0
41
1
10
96.8016395048351
20
11.1123292859365
30
0
41
1
10
96.8854686997711
20
10.917228720488
30
0
41
1
10
97.053127089643
20
10.4412818479363
30
0
41
1
10
97.136956284579
20
10.1604133510677
30
0
41
1
10
97.304614674451
20
9.51712708352844
30
0
41
1
10
97.3884438693871
20
9.15472131648048
30
0
41
1
10
97.556102259259
20
8.35871153861549
30
0
41
1
10
97.6399314541951
20
7.92515473035454
30
0
41
1
10
97.8075898440671
20
7.00245311006108
30
0
41
1
10
97.8914190390032
20
6.5133804225907
30
0
41
1
10
98.0590774288751
20
5.49867662604476
30
0
41
1
10
98.1429066238111
20
4.97312466867274
30
0
41
1
10
98.3105650136831
20
3.90556863024156
30
0
41
1
10
98.3943942086191
20
3.36363246684536
30
0
41
1
10
98.5620525984912
20
2.28221744958742
30
0
41
1
10
98.6458817934272
20
1.74278324658047
30
0
41
1
10
98.7716255858312
20
0.947463848185464
30
0
41
1
10
98.8135401832992
20
0.684635773093532
30
0
41
1
10
98.8764120795012
20
0.295037864705989
30
0
41
1
10
98.8973693782351
20
0.165943989830367
30
0
41
1
10
98.9288053263362
20
-0.0264030421414532
30
0
41
1
10
98.9392839757032
20
-0.0904471844741579
30
0
41
1
10
98.9602412744372
20
-0.219194158580763
30
0
41
1
10
98.9707199238042
20
-0.283776493623947
30
0
41
1
10
99.0650277681071
20
-0.866794930729384
30
0
41
1
10
99.1488569630432
20
-1.39783395324614
30
0
41
1
10
99.3165153529152
20
-2.47164743026886
30
0
41
1
10
99.4003445478513
20
-3.01439189295479
30
0
41
1
10
99.5680029377232
20
-4.09419840489898
30
0
41
1
10
99.6518321326593
20
-4.63120438371402
30
0
41
1
10
99.8194905225313
20
-5.67986742000664
30
0
41
1
10
99.9033197174673
20
-6.19144951588842
30
0
41
1
10
100.070978107339
20
-7.16935216870161
30
0
41
1
10
100.154807302275
20
-7.63559432194197
30
0
41
1
10
100.238636497211
20
-8.07030987993255
30
0
0
SPLINE
5
DF
100
AcDbEntity
8
1
62
256
6
ByLayer
370
13
48
1
60
0
100
AcDbSpline
70
4
71
3
72
78
73
74
40
0
40
0
40
0
40
0
40
0.0312500000000014
40
0.0312500000000014
40
0.0625000000000029
40
0.0625000000000029
40
0.0937500000000043
40
0.0937500000000043
40
0.125000000000006
40
0.125000000000006
40
0.156250000000007
40
0.156250000000007
40
0.187500000000008
40
0.187500000000008
40
0.21875000000001
40
0.21875000000001
40
0.22656250000001
40
0.22656250000001
40
0.23437500000001
40
0.23437500000001
40
0.25000000000001
40
0.25000000000001
40
0.281250000000011
40
0.281250000000011
40
0.312500000000011
40
0.312500000000011
40
0.343750000000011
40
0.343750000000011
40
0.375000000000011
40
0.375000000000011
40
0.406250000000011
40
0.406250000000011
40
0.437500000000011
40
0.437500000000011
40
0.468750000000012
40
0.468750000000012
40
0.500000000000012
40
0.500000000000012
40
0.531250000000012
40
0.531250000000012
40
0.562500000000012
40
0.562500000000012
40
0.593750000000012
40
0.593750000000012
40
0.609375000000012
40
0.609375000000012
40
0.617187500000012
40
0.617187500000012
40
0.625000000000012
40
0.625000000000012
40
0.656250000000011
40
0.656250000000011
40
0.68750000000001
40
0.68750000000001
40
0.718750000000009
40
0.718750000000009
40
0.750000000000008
40
0.750000000000008
40
0.781250000000007
40
0.781250000000007
40
0.812500000000006
40
0.812500000000006
40
0.843750000000005
40
0.843750000000005
40
0.875000000000004
40
0.875000000000004
40
0.906250000000003
40
0.906250000000003
40
0.937500000000002
40
0.937500000000002
40
0.968750000000001
40
0.968750000000001
40
1
40
1
40
1
40
1
41
1
10
89.4
20
-7.37429482547594
30
0
41
1
10
89.4723379775009
20
-7.77544343821435
30
0
41
1
10
89.5446759550018
20
-8.15635748810786
30
0
41
1
10
89.6893519100036
20
-8.86737302326162
30
0
41
1
10
89.7616898875044
20
-9.19744889196201
30
0
41
1
10
89.9063658425061
20
-9.79911085858225
30
0
41
1
10
89.9787038200071
20
-10.0706852711136
30
0
41
1
10
90.1233797750089
20
-10.550977484849
30
0
41
1
10
90.1957177525098
20
-10.7596985577295
30
0
41
1
10
90.3403937075116
20
-11.1133543301412
30
0
41
1
10
90.4127316850125
20
-11.2583048846405
30
0
41
1
10
90.5574076400143
20
-11.4866279834554
30
0
41
1
10
90.6297456175151
20
-11.570024348123
30
0
41
1
10
90.7744215725169
20
-11.6799711117922
30
0
41
1
10
90.8467595500178
20
-11.7065480823864
30
0
41
1
10
90.9371820218939
20
-11.7082904068337
30
0
41
1
10
90.9552665162691
20
-11.7070777288577
30
0
41
1
10
90.9914355050195
20
-11.7014290366212
30
0
41
1
10
91.0095199993948
20
-11.6969917883553
30
0
41
1
10
91.0637734825206
20
-11.6786848974279
30
0
41
1
10
91.0999424712709
20
-11.6598171069706
30
0
41
1
10
91.2084494375222
20
-11.582068155538
30
0
41
1
10
91.2807874150232
20
-11.5019733920699
30
0
41
1
10
91.4254633700249
20
-11.2804575545898
30
0
41
1
10
91.4978013475258
20
-11.1390123726907
30
0
41
1
10
91.6424773025276
20
-10.7924133954089
30
0
41
1
10
91.7148152800284
20
-10.5872431681566
30
0
41
1
10
91.8594912350302
20
-10.1139133445026
30
0
41
1
10
91.9318292125311
20
-9.84574968730178
30
0
41
1
10
92.0765051675328
20
-9.25057812281585
30
0
41
1
10
92.1488431450337
20
-8.92358106269194
30
0
41
1
10
92.2935191000355
20
-8.21821888485667
30
0
41
1
10
92.3658570775364
20
-7.83987869797218
30
0
41
1
10
92.5105330325382
20
-7.04209408849613
30
0
41
1
10
92.5828710100391
20
-6.62268441464829
30
0
41
1
10
92.7275469650409
20
-5.75489754366029
30
0
41
1
10
92.7998849425418
20
-5.30655841972842
30
0
41
1
10
92.9445608975436
20
-4.39380342278764
30
0
41
1
10
93.0168988750444
20
-3.92942222584742
30
0
41
1
10
93.1615748300462
20
-2.99711130942512
30
0
41
1
10
93.2339128075471
20
-2.5292078056338
30
0
41
1
10
93.3785887625488
20
-1.60108710703824
30
0
41
1
10
93.4509267400498
20
-1.14088529130541
30
0
41
1
10
93.5594337063011
20
-0.463330490085951
30
0
41
1
10
93.5956026950515
20
-0.239587145589382
30
0
41
1
10
93.6498561781773
20
0.0921491500874083
30
0
41
1
10
93.6679406725524
20
0.2031032842755
30
0
41
1
10
93.7041096613028
20
0.426464580372055
30
0
41
1
10
93.7221941556782
20
0.538739691763993
30
0
41
1
10
93.8126166275541
20
1.10278055742595
30
0
41
1
10
93.8849546050551
20
1.56262566898971
30
0
41
1
10
94.0296305600568
20
2.49031918003362
30
0
41
1
10
94.1019685375578
20
2.9581525085224
30
0
41
1
10
94.2466444925595
20
3.89065582626947
30
0
41
1
10
94.3189824700604
20
4.35529988211783
30
0
41
1
10
94.4636584250622
20
5.26893812954521
30
0
41
1
10
94.5359964025631
20
5.71789782285148
30
0
41
1
10
94.6806723575648
20
6.58727918637945
30
0
41
1
10
94.7530103350658
20
7.00766279090419
30
0
41
1
10
94.8976862900674
20
7.80771247053181
30
0
41
1
10
94.9700242675685
20
8.18734361085671
30
0
41
1
10
95.1147002225703
20
8.89553943439759
30
0
41
1
10
95.1870382000711
20
9.22407884219859
30
0
41
1
10
95.331714155073
20
9.82250019793855
30
0
41
1
10
95.4040521325738
20
10.0923708792477
30
0
41
1
10
95.5487280875755
20
10.569183851066
30
0
41
1
10
95.6210660650764
20
10.776129808802
30
0
41
1
10
95.7657420200782
20
11.1262565825309
30
0
41
1
10
95.8380799975791
20
11.2694535437971
30
0
41
1
10
95.9827559525809
20
11.4943702265772
30
0
41
1
10
96.0550939300819
20
11.5761139142678
30
0
41
1
10
96.1997698850836
20
11.6829155114825
30
0
41
1
10
96.2721078625845
20
11.708
30
0
41
1
10
96.3444458400853
20
11.708
30
0
0
SPLINE
5
E0
100
AcDbEntity
8
1
62
256
6
ByLayer
370
13
48
1
60
0
100
AcDbSpline
70
4
71
3
72
42
73
38
40
0
40
0
40
0
40
0
40
0.0624999999999991
40
0.0624999999999991
40
0.124999999999998
40
0.124999999999998
40
0.187499999999998
40
0.187499999999998
40
0.249999999999997
40
0.249999999999997
40
0.312499999999996
40
0.312499999999996
40
0.374999999999995
40
0.374999999999995
40
0.437499999999994
40
0.437499999999994
40
0.499999999999994
40
0.499999999999994
40
0.562499999999993
40
0.562499999999993
40
0.593749999999993
40
0.593749999999993
40
0.609374999999993
40
0.609374999999993
40
0.624999999999993
40
0.624999999999993
40
0.687499999999994
40
0.687499999999994
40
0.749999999999995
40
0.749999999999995
40
0.812499999999996
40
0.812499999999996
40
0.874999999999997
40
0.874999999999997
40
0.937499999999999
40
0.937499999999999
40
1
40
1
40
1
40
1
41
1
10
95.7280612404007
20
11.708
30
0
41
1
10
95.822031558251
20
11.708
30
0
41
1
10
95.9160018761012
20
11.6655981138422
30
0
41
1
10
96.1039425118016
20
11.4823038733832
30
0
41
1
10
96.1979128296518
20
11.3413147562818
30
0
41
1
10
96.3858534653523
20
10.9525321961642
30
0
41
1
10
96.4798237832025
20
10.70466570619
30
0
41
1
10
96.6677644189029
20
10.1020382509335
30
0
41
1
10
96.7617347367532
20
9.74725871361889
30
0
41
1
10
96.9496753724536
20
8.94042610868232
30
0
41
1
10
97.0436456903038
20
8.48842538381348
30
0
41
1
10
97.2315863260043
20
7.50601721017466
30
0
41
1
10
97.3255566438546
20
6.97572292724576
30
0
41
1
10
97.5134972795548
20
5.86229068038645
30
0
41
1
10
97.6074675974052
20
5.27929242364621
30
0
41
1
10
97.7954082331057
20
4.088769014446
30
0
41
1
10
97.8893785509558
20
3.48136858196548
30
0
41
1
10
98.0773191866563
20
2.26898776378911
30
0
41
1
10
98.1712895045064
20
1.66408783685111
30
0
41
1
10
98.3122449812818
20
0.775356292649576
30
0
41
1
10
98.3592301402068
20
0.482172653098985
30
0
41
1
10
98.4297078785946
20
0.0486524602540328
30
0
41
1
10
98.4532004580572
20
-0.0944031380636829
30
0
41
1
10
98.5001856169823
20
-0.38385385892559
30
0
41
1
10
98.5236781964448
20
-0.52960521196934
30
0
41
1
10
98.6411410937576
20
-1.26282260918657
30
0
41
1
10
98.7351114116078
20
-1.86390306191385
30
0
41
1
10
98.9230520473082
20
-3.0741069621827
30
0
41
1
10
99.0170223651585
20
-3.68316166781162
30
0
41
1
10
99.2049630008589
20
-4.883252775888
30
0
41
1
10
99.2989333187091
20
-5.47417252703801
30
0
41
1
10
99.4868739544096
20
-6.60969027575879
30
0
41
1
10
99.5808442722598
20
-7.15414848023838
30
0
41
1
10
99.7687849079603
20
-8.17016126970009
30
0
41
1
10
99.8627552258105
20
-8.64159319025811
30
0
41
1
10
100.050695861511
20
-9.49079351636939
30
0
41
1
10
100.144666179361
20
-9.86849409178492
30
0
41
1
10
100.238636497211
20
-10.1933890426565
30
0
0
SPLINE
5
E1
100
AcDbEntity
8
1
62
256
6
ByLayer
370
13
48
1
60
0
100
AcDbSpline
70
4
71
3
72
78
73
74
40
0
40
0
40
0
40
0
40
0.03125
40
0.03125
40
0.0625
40
0.0625
40
0.09375
40
0.09375
40
0.125
40
0.125
40
0.15625
40
0.15625
40
0.1640625
40
0.1640625
40
0.171875
40
0.1875
40
0.1875
40
0.21875
40
0.21875
40
0.25
40
0.25
40
0.28125
40
0.28125
40
0.3125
40
0.3125
40
0.34375
40
0.34375
40
0.375
40
0.375
40
0.40625
40
0.40625
40
0.4375
40
0.4375
40
0.46875
40
0.46875
40
0.5
40
0.5
40
0.53125
40
0.53125
40
0.5625
40
0.5625
40
0.578125
40
0.578125
40
0.58203125
40
0.58203125
40
0.5859375
40
0.59375
40
0.59375
40
0.625
40
0.625
40
0.65625
40
0.65625
40
0.6875
40
0.6875
40
0.71875
40
0.71875
40
0.75
40
0.75
40
0.78125
40
0.78125
40
0.8125
40
0.8125
40
0.84375
40
0.84375
40
0.875
40
0.875
40
0.90625
40
0.90625
40
0.9375
40
0.9375
40
0.96875
40
0.96875
40
1
40
1
40
1
40
1
41
1
10
89.4
20
-9.71243237613649
30
0
41
1
10
89.4672674160439
20
-9.97885730428123
30
0
41
1
10
89.5345348320876
20
-10.2194073858206
30
0
41
1
10
89.6690696641752
20
-10.645838746119
30
0
41
1
10
89.7363370802189
20
-10.8317240018148
30
0
41
1
10
89.8708719123065
20
-11.1484478063748
30
0
41
1
10
89.9381393283502
20
-11.2792981360341
30
0
41
1
10
90.0726741604378
20
-11.4878819174724
30
0
41
1
10
90.1399415764816
20
-11.565632075484
30
0
41
1
10
90.2744764085692
20
-11.6718138952254
30
0
41
1
10
90.3417438246129
20
-11.7002640425786
30
0
41
1
10
90.4258280946677
20
-11.7082069993225
30
0
41
1
10
90.4426449486786
20
-11.7084260840638
30
0
41
1
10
90.4762786567005
20
-11.7061464920757
30
0
41
1
10
90.5267292187333
20
-11.698613856743
30
0
41
1
10
90.5771797807662
20
-11.6783482124763
30
0
41
1
10
90.6780809048319
20
-11.6198746601199
30
0
41
1
10
90.7453483208757
20
-11.5569224788128
30
0
41
1
10
90.8798831529632
20
-11.3788711039494
30
0
41
1
10
90.947150569007
20
-11.2637543714299
30
0
41
1
10
91.0816854010947
20
-10.9788410852571
30
0
41
1
10
91.1489528171384
20
-10.8090309933791
30
0
41
1
10
91.283487649226
20
-10.4143881828189
30
0
41
1
10
91.3507550652697
20
-10.1895489718541
30
0
41
1
10
91.4852898973573
20
-9.68700700566532
30
0
41
1
10
91.5525573134011
20
-9.40930696057251
30
0
41
1
10
91.6870921454886
20
-8.80576812128726
30
0
41
1
10
91.7543595615324
20
-8.47994173066488
30
0
41
1
10
91.88889439362
20
-7.787214007089
30
0
41
1
10
91.9561618096637
20
-7.42033324874532
30
0
41
1
10
92.0906966417513
20
-6.65439706912039
30
0
41
1
10
92.1579640577951
20
-6.25536714706917
30
0
41
1
10
92.2924988898826
20
-5.43516431185603
30
0
41
1
10
92.3597663059264
20
-5.01401770804387
30
0
41
1
10
92.494301138014
20
-4.15995110583117
30
0
41
1
10
92.5615685540578
20
-3.72705433292612
30
0
41
1
10
92.6961033861454
20
-2.85943742374008
30
0
41
1
10
92.7633708021891
20
-2.4247346578224
30
0
41
1
10
92.8979056342766
20
-1.56241784418765
30
0
41
1
10
92.9651730503206
20
-1.13481409157055
30
0
41
1
10
93.0660741743862
20
-0.504316911554241
30
0
41
1
10
93.099707882408
20
-0.295956967126415
30
0
41
1
10
93.1417500174354
20
-0.0382493840710936
30
0
41
1
10
93.1501584444409
20
0.0130679621236141
30
0
41
1
10
93.1669752984517
20
0.116061354340673
30
0
41
1
10
93.1922005794682
20
0.270964682903355
30
0
41
1
10
93.2174258604846
20
0.427056947141182
30
0
41
1
10
93.3015101305394
20
0.949765456108935
30
0
41
1
10
93.3687775465831
20
1.3756786012186
30
0
41
1
10
93.5033123786707
20
2.23579385113098
30
0
41
1
10
93.5705797947145
20
2.66998669950417
30
0
41
1
10
93.705114626802
20
3.5379544051242
30
0
41
1
10
93.7723820428458
20
3.97171288281908
30
0
41
1
10
93.9069168749334
20
4.82899088341512
30
0
41
1
10
93.9741842909772
20
5.25248789466968
30
0
41
1
10
94.1087191230648
20
6.07889678651947
30
0
41
1
10
94.1759865391086
20
6.48178258275823
30
0
41
1
10
94.3105213711961
20
7.25683805103827
30
0
41
1
10
94.3777887872398
20
7.62898184365699
30
0
41
1
10
94.5123236193274
20
8.33343252536119
30
0
41
1
10
94.5795910353712
20
8.66571789003407
30
0
41
1
10
94.7141258674588
20
9.28306821625307
30
0
41
1
10
94.7813932835027
20
9.56811944432815
30
0
41
1
10
94.9159281155902
20
10.0858963266292
30
0
41
1
10
94.983195531634
20
10.3186178450731
30
0
41
1
10
95.1177303637215
20
10.7291816808213
30
0
41
1
10
95.1849977797654
20
10.9070292540881
30
0
41
1
10
95.3195326118529
20
11.2078236146659
30
0
41
1
10
95.3868000278966
20
11.3307830936836
30
0
41
1
10
95.5213348599841
20
11.524033529335
30
0
41
1
10
95.5886022760279
20
11.5943416421359
30
0
41
1
10
95.7231371081156
20
11.6863156259275
30
0
41
1
10
95.7904045241594
20
11.708
30
0
41
1
10
95.8576719402031
20
11.708
30
0
0
SPLINE
5
E2
100
AcDbEntity
8
1
62
256
6
ByLayer
370
13
48
1
60
0
100
AcDbSpline
70
4
71
3
72
68
73
64
40
0
40
0
40
0
40
0
40
0.0624999999999981
40
0.0624999999999981
40
0.0937499999999973
40
0.0937499999999973
40
0.124999999999997
40
0.124999999999997
40
0.156249999999996
40
0.156249999999996
40
0.187499999999995
40
0.187499999999995
40
0.218749999999994
40
0.218749999999994
40
0.249999999999993
40
0.249999999999993
40
0.281249999999993
40
0.281249999999993
40
0.312499999999992
40
0.312499999999992
40
0.343749999999991
40
0.343749999999991
40
0.37499999999999
40
0.37499999999999
40
0.40624999999999
40
0.40624999999999
40
0.437499999999989
40
0.437499999999989
40
0.499999999999987
40
0.499999999999987
40
0.531249999999986
40
0.531249999999986
40
0.539062499999986
40
0.539062499999986
40
0.546874999999986
40
0.546874999999986
40
0.562499999999986
40
0.562499999999986
40
0.624999999999988
40
0.624999999999988
40
0.656249999999989
40
0.656249999999989
40
0.68749999999999
40
0.68749999999999
40
0.718749999999991
40
0.718749999999991
40
0.749999999999992
40
0.749999999999992
40
0.781249999999993
40
0.781249999999993
40
0.812499999999994
40
0.812499999999994
40
0.843749999999995
40
0.843749999999995
40
0.874999999999996
40
0.874999999999996
40
0.906249999999997
40
0.906249999999997
40
0.937499999999998
40
0.937499999999998
40
0.968749999999999
40
0.968749999999999
40
1
40
1
40
1
40
1
41
1
10
95.2412873405185
20
11.708
30
0
41
1
10
95.3453987812829
20
11.708
30
0
41
1
10
95.4495102220474
20
11.6559001043325
30
0
41
1
10
95.605677383194
20
11.4858877848547
30
0
41
1
10
95.6577331035762
20
11.4139529969187
30
0
41
1
10
95.7618445443407
20
11.2380330921104
30
0
41
1
10
95.8139002647229
20
11.1340434980397
30
0
41
1
10
95.9180117054874
20
10.8931814111984
30
0
41
1
10
95.9700674258696
20
10.7563055440857
30
0
41
1
10
96.074178866634
20
10.4496580234216
30
0
41
1
10
96.1262345870161
20
10.2798845904221
30
0
41
1
10
96.2303460277806
20
9.90832787926644
30
0
41
1
10
96.2824017481628
20
9.70654477887138
30
0
41
1
10
96.3865131889273
20
9.27277877426604
30
0
41
1
10
96.4385689093095
20
9.04079815749645
30
0
41
1
10
96.5426803500739
20
8.54933464303971
30
0
41
1
10
96.5947360704561
20
8.28985603657506
30
0
41
1
10
96.6988475112206
20
7.74688219213164
30
0
41
1
10
96.7509032316028
20
7.46339288438446
30
0
41
1
10
96.8550146723672
20
6.87651643124147
30
0
41
1
10
96.9070703927495
20
6.57313628307551
30
0
41
1
10
97.0111818335138
20
5.95103377933759
30
0
41
1
10
97.0632375538961
20
5.6323188017509
30
0
41
1
10
97.1673489946605
20
4.98432073850637
30
0
41
1
10
97.2194047150428
20
4.65504472286466
30
0
41
1
10
97.3235161558073
20
3.99069779061273
30
0
41
1
10
97.3755718761895
20
3.65563304847714
30
0
41
1
10
97.5317390373361
20
2.648603702853
30
0
41
1
10
97.6358504781005
20
1.97506487629659
30
0
41
1
10
97.7920176392471
20
0.985197228979445
30
0
41
1
10
97.8440733596293
20
0.658587901696052
30
0
41
1
10
97.9091430101071
20
0.256469708273585
30
0
41
1
10
97.9221569402027
20
0.176351794322017
30
0
41
1
10
97.9481848003937
20
0.0167705820360027
30
0
41
1
10
97.9611987304893
20
-0.0626079287007713
30
0
41
1
10
98.0002405207759
20
-0.302354093097847
30
0
41
1
10
98.0262683809671
20
-0.463479079601484
30
0
41
1
10
98.1564076819226
20
-1.27467914259375
30
0
41
1
10
98.260519122687
20
-1.94182842818086
30
0
41
1
10
98.4166862838338
20
-2.94830492936239
30
0
41
1
10
98.468742004216
20
-3.28468402667676
30
0
41
1
10
98.5728534449804
20
-3.95489902056434
30
0
41
1
10
98.6249091653626
20
-4.2887296302753
30
0
41
1
10
98.729020606127
20
-4.94919923298181
30
0
41
1
10
98.7810763265093
20
-5.27583173256258
30
0
41
1
10
98.8851877672738
20
-5.91711093053763
30
0
41
1
10
98.9372434876558
20
-6.23175039937098
30
0
41
1
10
99.0413549284203
20
-6.84431145038002
30
0
41
1
10
99.0934106488025
20
-7.14222569392839
30
0
41
1
10
99.197522089567
20
-7.7168874005142
30
0
41
1
10
99.2495778099492
20
-7.99362811555162
30
0
41
1
10
99.3536892507137
20
-8.52199111745333
30
0
41
1
10
99.4057449710958
20
-8.77360791050663
30
0
41
1
10
99.5098564118603
20
-9.24845479740108
30
0
41
1
10
99.5619121322425
20
-9.47168117009173
30
0
41
1
10
99.6660235730069
20
-9.88730238601903
30
0
41
1
10
99.7180792933891
20
-10.0796955715207
30
0
41
1
10
99.8221907341536
20
-10.4321105979394
30
0
41
1
10
99.8742464545358
20
-10.5921328710153
30
0
41
1
10
99.9783578953002
20
-10.8791895059371
30
0
41
1
10
100.030413615682
20
-11.0062261679368
30
0
41
1
10
100.134525056447
20
-11.227576196701
30
0
41
1
10
100.186580776829
20
-11.3218933213982
30
0
41
1
10
100.238636497211
20
-11.4003753902791
30
0
0
SPLINE
5
E3
100
AcDbEntity
8
1
62
256
6
ByLayer
370
13
48
1
60
0
100
AcDbSpline
70
4
71
3
72
78
73
74
40
0
40
0
40
0
40
0
40
0.0312500000000003
40
0.0312500000000003
40
0.0625000000000006
40
0.0625000000000006
40
0.0781250000000009
40
0.0781250000000009
40
0.0859375000000013
40
0.0859375000000013
40
0.0937500000000016
40
0.0937500000000016
40
0.125000000000002
40
0.125000000000002
40
0.156250000000002
40
0.156250000000002
40
0.187500000000002
40
0.187500000000002
40
0.218750000000003
40
0.218750000000003
40
0.250000000000003
40
0.250000000000003
40
0.281250000000003
40
0.281250000000003
40
0.312500000000003
40
0.312500000000003
40
0.343750000000004
40
0.343750000000004
40
0.375000000000004
40
0.375000000000004
40
0.406250000000004
40
0.406250000000004
40
0.437500000000005
40
0.437500000000005
40
0.468750000000005
40
0.468750000000005
40
0.500000000000005
40
0.500000000000005
40
0.531250000000006
40
0.531250000000006
40
0.539062500000006
40
0.539062500000006
40
0.546875000000005
40
0.546875000000005
40
0.562500000000005
40
0.562500000000005
40
0.593750000000005
40
0.593750000000005
40
0.625000000000004
40
0.625000000000004
40
0.656250000000004
40
0.656250000000004
40
0.687500000000004
40
0.687500000000004
40
0.718750000000003
40
0.718750000000003
40
0.750000000000003
40
0.750000000000003
40
0.781250000000002
40
0.781250000000002
40
0.812500000000002
40
0.812500000000002
40
0.843750000000002
40
0.843750000000002
40
0.875000000000001
40
0.875000000000001
40
0.906250000000001
40
0.906250000000001
40
0.937500000000001
40
0.937500000000001
40
0.96875
40
0.96875
40
1
40
1
40
1
40
1
41
1
10
89.4
20
-11.1719478544662
30
0
41
1
10
89.4621968545866
20
-11.2975614787261
30
0
41
1
10
89.5243937091734
20
-11.3998962507649
30
0
41
1
10
89.6487874183467
20
-11.5601125394135
30
0
41
1
10
89.7109842729334
20
-11.618005995835
30
0
41
1
10
89.8042795548134
20
-11.6740267789265
30
0
41
1
10
89.8353779821067
20
-11.6875723073962
30
0
41
1
10
89.8820256230468
20
-11.7005759291895
30
0
41
1
10
89.8975748366935
20
-11.7036917420573
30
0
41
1
10
89.9286732639868
20
-11.707552938307
30
0
41
1
10
89.9442224776334
20
-11.7083001126374
30
0
41
1
10
90.0219685458667
20
-11.7062635552286
30
0
41
1
10
90.0841654004535
20
-11.686002303467
30
0
41
1
10
90.2085591096268
20
-11.6040771040148
30
0
41
1
10
90.2707559642136
20
-11.5424006426568
30
0
41
1
10
90.3951496733869
20
-11.3743768167814
30
0
41
1
10
90.4573465279735
20
-11.2680176432881
30
0
41
1
10
90.5817402371468
20
-11.0086251782143
30
0
41
1
10
90.6439370917335
20
-10.8555825726886
30
0
41
1
10
90.7683308009068
20
-10.5024090302006
30
0
41
1
10
90.8305276554935
20
-10.3022730533408
30
0
41
1
10
90.9549213646669
20
-9.85630959058091
30
0
41
1
10
91.0171182192536
20
-9.61048267903027
30
0
41
1
10
91.1415119284269
20
-9.07641676585979
30
0
41
1
10
91.2037087830136
20
-8.78818445109854
30
0
41
1
10
91.328102492187
20
-8.17436179072178
30
0
41
1
10
91.3902993467736
20
-7.84878367300362
30
0
41
1
10
91.514693055947
20
-7.16681108587861
30
0
41
1
10
91.5768899105336
20
-6.81043280020864
30
0
41
1
10
91.7012836197071
20
-6.07445596107186
30
0
41
1
10
91.7634804742937
20
-5.69487529286056
30
0
41
1
10
91.887874183467
20
-4.92062394242708
30
0
41
1
10
91.9500710380537
20
-4.52597044540826
30
0
41
1
10
92.074464747227
20
-3.72970256195828
30
0
41
1
10
92.1366616018137
20
-3.32810263288855
30
0
41
1
10
92.261055310987
20
-2.52558789445649
30
0
41
1
10
92.3232521655738
20
-2.12468351874668
30
0
41
1
10
92.4476458747472
20
-1.33034514523968
30
0
41
1
10
92.5098427293339
20
-0.936917109356443
30
0
41
1
10
92.5875887975672
20
-0.453349550144594
30
0
41
1
10
92.6031380112139
20
-0.35704401706775
30
0
41
1
10
92.6342364385072
20
-0.165325684778225
30
0
41
1
10
92.6497856521538
20
-0.0700589906295477
30
0
41
1
10
92.6964332930938
20
0.215237146896328
30
0
41
1
10
92.7275317203872
20
0.407341803726297
30
0
41
1
10
92.8208270022672
20
0.988474856920732
30
0
41
1
10
92.8830238568539
20
1.38235887913299
30
0
41
1
10
93.0074175660272
20
2.17733365201244
30
0
41
1
10
93.0696144206139
20
2.57841824592697
30
0
41
1
10
93.1940081297873
20
3.3809738762632
30
0
41
1
10
93.256204984374
20
3.78243428688938
30
0
41
1
10
93.3805986935473
20
4.57807348039617
30
0
41
1
10
93.442795548134
20
4.97223765282993
30
0
41
1
10
93.5671892573072
20
5.74514978014281
30
0
41
1
10
93.629386111894
20
6.12388047218917
30
0
41
1
10
93.7537798210674
20
6.85780864908952
30
0
41
1
10
93.8159766756539
20
7.21298827206485
30
0
41
1
10
93.9403703848274
20
7.89225037006469
30
0
41
1
10
94.002567239414
20
8.21631679087483
30
0
41
1
10
94.1269609485873
20
8.82685982528383
30
0
41
1
10
94.1891578031741
20
9.11332442753061
30
0
41
1
10
94.3135515123473
20
9.64367171207684
30
0
41
1
10
94.3757483669341
20
9.88754797195065
30
0
41
1
10
94.5001420761074
20
10.3295086714372
30
0
41
1
10
94.5623389306941
20
10.5275928009617
30
0
41
1
10
94.6867326398674
20
10.8766435281263
30
0
41
1
10
94.7489294944542
20
11.0276153862256
30
0
41
1
10
94.8733232036275
20
11.2829227390455
30
0
41
1
10
94.935520058214
20
11.3872676961239
30
0
41
1
10
95.0599137673875
20
11.5513825110172
30
0
41
1
10
95.1221106219742
20
11.6111642449699
30
0
41
1
10
95.2465043311475
20
11.6894667356416
30
0
41
1
10
95.3087011857343
20
11.708
30
0
41
1
10
95.3708980403209
20
11.708
30
0
0
SPLINE
5
E4
100
AcDbEntity
8
1
62
256
6
ByLayer
370
13
48
1
60
0
100
AcDbSpline
70
4
71
3
72
78
73
74
40
0
40
0
40
0
40
0
40
0.0312499999999997
40
0.0312499999999997
40
0.0624999999999993
40
0.0624999999999993
40
0.0937499999999989
40
0.0937499999999989
40
0.124999999999999
40
0.124999999999999
40
0.156249999999998
40
0.156249999999998
40
0.187499999999998
40
0.187499999999998
40
0.218749999999997
40
0.218749999999997
40
0.249999999999997
40
0.249999999999997
40
0.281249999999997
40
0.281249999999997
40
0.312499999999996
40
0.312499999999996
40
0.343749999999996
40
0.343749999999996
40
0.374999999999996
40
0.374999999999996
40
0.406249999999995
40
0.406249999999995
40
0.437499999999995
40
0.437499999999995
40
0.468749999999994
40
0.468749999999994
40
0.484374999999994
40
0.484374999999994
40
0.492187499999994
40
0.492187499999994
40
0.499999999999994
40
0.499999999999994
40
0.531249999999995
40
0.531249999999995
40
0.562499999999995
40
0.562499999999995
40
0.593749999999995
40
0.593749999999995
40
0.624999999999996
40
0.624999999999996
40
0.656249999999996
40
0.656249999999996
40
0.687499999999997
40
0.687499999999997
40
0.718749999999997
40
0.718749999999997
40
0.749999999999997
40
0.749999999999997
40
0.781249999999998
40
0.781249999999998
40
0.812499999999998
40
0.812499999999998
40
0.843749999999998
40
0.843749999999998
40
0.874999999999999
40
0.874999999999999
40
0.906249999999999
40
0.906249999999999
40
0.937499999999999
40
0.937499999999999
40
0.96875
40
0.96875
40
0.984375
40
0.984375
40
0.9921875
40
0.9921875
40
1
40
1
40
1
40
1
41
1
10
94.7545134406363
20
11.708
30
0
41
1
10
94.8116397224756
20
11.708
30
0
41
1
10
94.8687660043149
20
11.6923693513451
30
0
41
1
10
94.9830185679936
20
11.626593441547
30
0
41
1
10
95.0401448498329
20
11.5764400101581
30
0
41
1
10
95.1543974135114
20
11.4389526992732
30
0
41
1
10
95.2115236953509
20
11.3516109052594
30
0
41
1
10
95.3257762590295
20
11.1379283625182
30
0
41
1
10
95.3829025408688
20
11.0115809216852
30
0
41
1
10
95.4971551045476
20
10.7191389085485
30
0
41
1
10
95.5542813863868
20
10.5530398768477
30
0
41
1
10
95.6685339500655
20
10.1815880086006
30
0
41
1
10
95.7256602319048
20
9.97623380735919
30
0
41
1
10
95.8399127955835
20
9.52809690840283
30
0
41
1
10
95.8970390774228
20
9.28531645210325
30
0
41
1
10
96.0112916411014
20
8.76547274541778
30
0
41
1
10
96.0684179229407
20
8.48841535008995
30
0
41
1
10
96.1826704866194
20
7.90436190557057
30
0
41
1
10
96.2397967684587
20
7.59737477948593
30
0
41
1
10
96.3540493321374
20
6.95878012800665
30
0
41
1
10
96.4111756139766
20
6.62718357640046
30
0
41
1
10
96.5254281776553
20
5.94535963992556
30
0
41
1
10
96.5825544594945
20
5.59514398562058
30
0
41
1
10
96.6968070231732
20
4.88239695644856
30
0
41
1
10
96.7539333050127
20
4.51987675167052
30
0
41
1
10
96.8681858686913
20
3.78881272781632
30
0
41
1
10
96.9253121505304
20
3.42027841588251
30
0
41
1
10
97.0395647142091
20
2.68314111101594
30
0
41
1
10
97.0966909960485
20
2.31454523622054
30
0
41
1
10
97.2109435597272
20
1.58265075071427
30
0
41
1
10
97.2680698415665
20
1.21935657562764
30
0
41
1
10
97.3537592643254
20
0.681840439015815
30
0
41
1
10
97.3823224052451
20
0.503899555720068
30
0
41
1
10
97.4251671166247
20
0.239206296638144
30
0
41
1
10
97.4394486870845
20
0.151344464677351
30
0
41
1
10
97.4680118280041
20
-0.0235839160881426
30
0
41
1
10
97.482293398464
20
-0.110815014779206
30
0
41
1
10
97.5537012507631
20
-0.550136803514107
30
0
41
1
10
97.6108275326023
20
-0.907760896606192
30
0
41
1
10
97.725080096281
20
-1.63127168714473
30
0
41
1
10
97.7822063781205
20
-1.997155588921
30
0
41
1
10
97.8964589417991
20
-2.73228460766205
30
0
41
1
10
97.9535852236384
20
-3.10152426681896
30
0
41
1
10
98.067837787317
20
-3.8377565301484
30
0
41
1
10
98.1249640691564
20
-4.20474105494532
30
0
41
1
10
98.239216632835
20
-4.93035149723536
30
0
41
1
10
98.2963429146743
20
-5.28896717069733
30
0
41
1
10
98.4105954783529
20
-5.99150214590892
30
0
41
1
10
98.4677217601923
20
-6.33540991985683
30
0
41
1
10
98.5819743238709
20
-7.00229552748092
30
0
41
1
10
98.6391006057103
20
-7.32526175743971
30
0
41
1
10
98.7533531693889
20
-7.94448683372033
30
0
41
1
10
98.8104794512282
20
-8.24073533923448
30
0
41
1
10
98.9247320149069
20
-8.80153805317906
30
0
41
1
10
98.9818582967462
20
-9.06608440123932
30
0
41
1
10
99.0961108604249
20
-9.55956394552433
30
0
41
1
10
99.1532371422642
20
-9.78849261847668
30
0
41
1
10
99.2674897059429
20
-10.2080746728374
30
0
41
1
10
99.3246159877821
20
-10.3987272069055
30
0
41
1
10
99.4388685514608
20
-10.7404329065575
30
0
41
1
10
99.4959948333001
20
-10.8914886902769
30
0
41
1
10
99.6102473969787
20
-11.1539869938548
30
0
41
1
10
99.6673736788181
20
-11.2654349313124
30
0
41
1
10
99.7816262424967
20
-11.4498903357464
30
0
41
1
10
99.8387525243361
20
-11.5229050772882
30
0
41
1
10
99.9530050880146
20
-11.6326593458872
30
0
41
1
10
100.010131369854
20
-11.669406990298
30
0
41
1
10
100.095820792613
20
-11.6995142228
30
0
41
1
10
100.124383933533
20
-11.7053860656739
30
0
41
1
10
100.167228644912
20
-11.7082590000363
30
0
41
1
10
100.181510215372
20
-11.7082346753096
30
0
41
1
10
100.210073356292
20
-11.7062200638944
30
0
41
1
10
100.224354926752
20
-11.7042231665456
30
0
41
1
10
100.238636497211
20
-11.7012103452244
30
0
0
SPLINE
5
E5
100
AcDbEntity
8
1
62
256
6
ByLayer
370
13
48
1
60
0
100
AcDbSpline
70
4
71
3
72
77
73
73
40
0
40
0
40
0
40
0
40
0.0078124999999997
40
0.0078124999999997
40
0.0156249999999995
40
0.0156249999999995
40
0.0312499999999993
40
0.0312499999999993
40
0.0624999999999994
40
0.0624999999999994
40
0.0937499999999994
40
0.0937499999999994
40
0.125
40
0.125
40
0.15625
40
0.15625
40
0.1875
40
0.1875
40
0.21875
40
0.21875
40
0.25
40
0.25
40
0.28125
40
0.28125
40
0.3125
40
0.3125
40
0.34375
40
0.34375
40
0.375
40
0.375
40
0.40625
40
0.40625
40
0.4375
40
0.4375
40
0.46875
40
0.46875
40
0.5
40
0.5
40
0.5078125
40
0.5078125
40
0.515625
40
0.53125
40
0.53125
40
0.5625
40
0.5625
40
0.59375
40
0.59375
40
0.625
40
0.625
40
0.65625
40
0.65625
40
0.6875
40
0.6875
40
0.71875
40
0.71875
40
0.75
40
0.75
40
0.78125
40
0.78125
40
0.8125
40
0.8125
40
0.84375
40
0.84375
40
0.875
40
0.875
40
0.90625
40
0.90625
40
0.9375
40
0.9375
40
0.96875
40
0.96875
40
1
40
1
40
1
40
1
41
1
10
89.4
20
-11.701210116572
30
0
41
1
10
89.4142815732824
20
-11.7042229898858
30
0
41
1
10
89.4285631465648
20
-11.70621993817
30
0
41
1
10
89.4571262931295
20
-11.708234649331
30
0
41
1
10
89.471407866412
20
-11.7082590225169
30
0
41
1
10
89.5142525862592
20
-11.7053862353344
30
0
41
1
10
89.5428157328239
20
-11.6995144916847
30
0
41
1
10
89.6285051725182
20
-11.6694075592773
30
0
41
1
10
89.6856314656479
20
-11.632660118189
30
0
41
1
10
89.799884051907
20
-11.5229062572144
30
0
41
1
10
89.8570103450367
20
-11.4498917199641
30
0
41
1
10
89.9712629312957
20
-11.2654367186886
30
0
41
1
10
90.0283892244253
20
-11.1539889800831
30
0
41
1
10
90.1426418106844
20
-10.8914910619047
30
0
41
1
10
90.1997681038139
20
-10.7404354647143
30
0
41
1
10
90.3140206900731
20
-10.3987301189641
30
0
41
1
10
90.3711469832026
20
-10.2080777522492
30
0
41
1
10
90.4853995694617
20
-9.78849600719519
30
0
41
1
10
90.5425258625913
20
-9.55956747617844
30
0
41
1
10
90.6567784488504
20
-9.0660881853054
30
0
41
1
10
90.7139047419801
20
-8.80154194870815
30
0
41
1
10
90.8281573282392
20
-8.2407394238349
30
0
41
1
10
90.8852836213688
20
-7.94449099592259
30
0
41
1
10
90.9995362076279
20
-7.3252660395635
30
0
41
1
10
91.0566625007575
20
-7.00229985192584
30
0
41
1
10
91.1709150870166
20
-6.33541429427859
30
0
41
1
10
91.2280413801462
20
-5.99150652799523
30
0
41
1
10
91.3422939664054
20
-5.2889715359492
30
0
41
1
10
91.399420259535
20
-4.93035583800261
30
0
41
1
10
91.5136728457941
20
-4.20474531861012
30
0
41
1
10
91.5707991389236
20
-3.83776074121255
30
0
41
1
10
91.6850517251827
20
-3.10152834962338
30
0
41
1
10
91.7421780183123
20
-2.73228861482463
30
0
41
1
10
91.8564306045715
20
-1.99715942733363
30
0
41
1
10
91.9135568977011
20
-1.63127543246426
30
0
41
1
10
92.0278094839602
20
-0.907764443891125
30
0
41
1
10
92.0849357770898
20
-0.550140245868874
30
0
41
1
10
92.1563436435017
20
-0.110818321842629
30
0
41
1
10
92.1706252167841
20
-0.0235871905537408
30
0
41
1
10
92.1991883633489
20
0.151341204986807
30
0
41
1
10
92.2420330831961
20
0.414925878043448
30
0
41
1
10
92.2848778030433
20
0.681837231191224
30
0
41
1
10
92.3705672427376
20
1.21935343031797
30
0
41
1
10
92.4276935358671
20
1.58264765525257
30
0
41
1
10
92.5419461221263
20
2.31454225641744
30
0
41
1
10
92.5990724152558
20
2.68313819702652
30
0
41
1
10
92.713325001515
20
3.42027564814376
30
0
41
1
10
92.7704512946445
20
3.78881004051428
30
0
41
1
10
92.8847038809037
20
4.51987423751123
30
0
41
1
10
92.9418301740334
20
4.88239453499088
30
0
41
1
10
93.0560827602924
20
5.59514175853553
30
0
41
1
10
93.1132090534221
20
5.94535751450309
30
0
41
1
10
93.2274616396811
20
6.62718165922101
30
0
41
1
10
93.2845879328107
20
6.95877831739591
30
0
41
1
10
93.3988405190698
20
7.59737318243455
30
0
41
1
10
93.4559668121994
20
7.90436041549646
30
0
41
1
10
93.5702193984586
20
8.48841406983522
30
0
41
1
10
93.6273456915881
20
8.76547156799217
30
0
41
1
10
93.7415982778473
20
9.28531547198523
30
0
41
1
10
93.7987245709769
20
9.52809602275278
30
0
41
1
10
93.912977157236
20
9.97623309878023
30
0
41
1
10
93.9701034503656
20
10.1815873826182
30
0
41
1
10
94.0843560366247
20
10.5530394016425
30
0
41
1
10
94.1414823297542
20
10.7191385015221
30
0
41
1
10
94.2557349160134
20
11.0115806351444
30
0
41
1
10
94.312861209143
20
11.1379281282865
30
0
41
1
10
94.4271137954021
20
11.3516107594076
30
0
41
1
10
94.4842400885316
20
11.4389525894977
30
0
41
1
10
94.5984926747908
20
11.5764399568985
30
0
41
1
10
94.6556189679204
20
11.6265934087346
30
0
41
1
10
94.7698715541795
20
11.6923693451585
30
0
41
1
10
94.8269978473091
20
11.708
30
0
41
1
10
94.8841241404386
20
11.708
30
0
0
SPLINE
5
E6
100
AcDbEntity
8
1
62
256
6
ByLayer
370
13
48
1
60
0
100
AcDbSpline
70
4
71
3
72
77
73
73
40
0
40
0
40
0
40
0
40
0.0312500000000002
40
0.0312500000000002
40
0.0625000000000004
40
0.0625000000000004
40
0.0937500000000006
40
0.0937500000000006
40
0.125000000000001
40
0.125000000000001
40
0.156250000000001
40
0.156250000000001
40
0.187500000000001
40
0.187500000000001
40
0.218750000000001
40
0.218750000000001
40
0.250000000000002
40
0.250000000000002
40
0.281250000000002
40
0.281250000000002
40
0.312500000000002
40
0.312500000000002
40
0.343750000000003
40
0.343750000000003
40
0.375000000000003
40
0.375000000000003
40
0.406250000000004
40
0.406250000000004
40
0.437500000000004
40
0.437500000000004
40
0.453125000000004
40
0.453125000000004
40
0.460937500000004
40
0.460937500000004
40
0.468750000000004
40
0.468750000000004
40
0.500000000000004
40
0.500000000000004
40
0.531250000000004
40
0.531250000000004
40
0.562500000000003
40
0.562500000000003
40
0.593750000000003
40
0.593750000000003
40
0.625000000000003
40
0.625000000000003
40
0.656250000000003
40
0.656250000000003
40
0.687500000000002
40
0.687500000000002
40
0.718750000000002
40
0.718750000000002
40
0.750000000000002
40
0.750000000000002
40
0.781250000000002
40
0.781250000000002
40
0.812500000000001
40
0.812500000000001
40
0.843750000000001
40
0.843750000000001
40
0.875000000000001
40
0.875000000000001
40
0.90625
40
0.90625
40
0.9140625
40
0.9140625
40
0.921875
40
0.9375
40
0.9375
40
0.96875
40
0.96875
40
1
40
1
40
1
40
1
41
1
10
94.2677395407541
20
11.708
30
0
41
1
10
94.3299363840505
20
11.708
30
0
41
1
10
94.392133227347
20
11.6894667423811
30
0
41
1
10
94.5165269139397
20
11.6111642808718
30
0
41
1
10
94.5787237572363
20
11.5513825693534
30
0
41
1
10
94.7031174438291
20
11.3872678165327
30
0
41
1
10
94.7653142871255
20
11.2829228991029
30
0
41
1
10
94.8897079737184
20
11.0276156432687
30
0
41
1
10
94.9519048170148
20
10.8766438425133
30
0
41
1
10
95.0762985036077
20
10.5275932469094
30
0
41
1
10
95.1384953469041
20
10.3295091916029
30
0
41
1
10
95.262889033497
20
9.88754865518459
30
0
41
1
10
95.3250858767934
20
9.64367248415525
30
0
41
1
10
95.4494795633864
20
9.11332538832949
30
0
41
1
10
95.5116764066827
20
8.82686088594627
30
0
41
1
10
95.6360700932756
20
8.21631805760975
30
0
41
1
10
95.698266936572
20
7.89225174299133
30
0
41
1
10
95.8226606231649
20
7.21298985840133
30
0
41
1
10
95.8848574664613
20
6.85781034262521
30
0
41
1
10
96.0092511530542
20
6.12388237575169
30
0
41
1
10
96.0714479963506
20
5.74515178651578
30
0
41
1
10
96.1958416829434
20
4.97223985552893
30
0
41
1
10
96.2580385262398
20
4.57807577659821
30
0
41
1
10
96.3824322128327
20
3.78243675680861
30
0
41
1
10
96.4446290561291
20
3.38097642639025
30
0
41
1
10
96.5690227427219
20
2.57842094040313
30
0
41
1
10
96.6312195860183
20
2.17733641062981
30
0
41
1
10
96.7556132726112
20
1.3823617485009
30
0
41
1
10
96.8178101159077
20
0.988477772902854
30
0
41
1
10
96.9111053808523
20
0.407344776308008
30
0
41
1
10
96.9422038025006
20
0.215240136133417
30
0
41
1
10
96.988851434973
20
-0.0700559796738105
30
0
41
1
10
97.004400645797
20
-0.165322631798489
30
0
41
1
10
97.0354990674452
20
-0.357040910172799
30
0
41
1
10
97.0510482782693
20
-0.453346416528177
30
0
41
1
10
97.1287943323898
20
-0.936913843547558
30
0
41
1
10
97.1909911756862
20
-1.33034177818209
30
0
41
1
10
97.3153848622791
20
-2.12467996459856
30
0
41
1
10
97.3775817055755
20
-2.52558425448481
30
0
41
1
10
97.5019753921683
20
-3.32809884338425
30
0
41
1
10
97.5641722354648
20
-3.72969870876793
30
0
41
1
10
97.6885659220577
20
-4.52596649332807
30
0
41
1
10
97.7507627653541
20
-4.92061995516769
30
0
41
1
10
97.875156451947
20
-5.69487126902561
30
0
41
1
10
97.9373532952434
20
-6.07445193586238
30
0
41
1
10
98.0617469818362
20
-6.81042880955235
30
0
41
1
10
98.1239438251328
20
-7.16680713116449
30
0
41
1
10
98.2483375117256
20
-7.84877982865291
30
0
41
1
10
98.310534355022
20
-8.17435802079586
30
0
41
1
10
98.4349280416147
20
-8.78818086705286
30
0
41
1
10
98.4971248849112
20
-9.07641329326103
30
0
41
1
10
98.6215185715041
20
-9.61047946235351
30
0
41
1
10
98.6837154148005
20
-9.85630651836016
30
0
41
1
10
98.8081091013934
20
-10.3022702969253
30
0
41
1
10
98.8703059446899
20
-10.5024064451085
30
0
41
1
10
98.9946996312827
20
-10.855580349557
30
0
41
1
10
99.0568964745791
20
-11.0086231456924
30
0
41
1
10
99.181290161172
20
-11.2680160030942
30
0
41
1
10
99.2434870044684
20
-11.3743753782813
30
0
41
1
10
99.3678806910612
20
-11.5423996106195
30
0
41
1
10
99.4300775343577
20
-11.6040762767281
30
0
41
1
10
99.5544712209506
20
-11.686001881551
30
0
41
1
10
99.6166680642471
20
-11.7062633339218
30
0
41
1
10
99.6944141183676
20
-11.7083001357996
30
0
41
1
10
99.7099633291917
20
-11.7075530106235
30
0
41
1
10
99.7410617508399
20
-11.703691915754
30
0
41
1
10
99.7877093833122
20
-11.694345400861
30
0
41
1
10
99.8343570157846
20
-11.6740272740237
30
0
41
1
10
99.9276522807291
20
-11.61800683608
30
0
41
1
10
99.9898491240256
20
-11.5601136277316
30
0
41
1
10
100.114242810618
20
-11.3998978671768
30
0
41
1
10
100.176439653915
20
-11.2975633751617
30
0
41
1
10
100.238636497211
20
-11.1719500434497
30
0
0
SPLINE
5
E7
100
AcDbEntity
8
1
62
256
6
ByLayer
370
13
48
1
60
0
100
AcDbSpline
70
4
71
3
72
68
73
64
40
0
40
0
40
0
40
0
40
0.03125
40
0.03125
40
0.0625
40
0.0625
40
0.0937499999999999
40
0.0937499999999999
40
0.125
40
0.125
40
0.15625
40
0.15625
40
0.1875
40
0.1875
40
0.21875
40
0.21875
40
0.25
40
0.25
40
0.28125
40
0.28125
40
0.3125
40
0.3125
40
0.34375
40
0.34375
40
0.375
40
0.375
40
0.437500000000001
40
0.437500000000001
40
0.453125000000001
40
0.453125000000001
40
0.460937500000001
40
0.460937500000001
40
0.468750000000001
40
0.468750000000001
40
0.500000000000001
40
0.500000000000001
40
0.562500000000001
40
0.562500000000001
40
0.593750000000001
40
0.593750000000001
40
0.625000000000001
40
0.625000000000001
40
0.65625
40
0.65625
40
0.6875
40
0.6875
40
0.71875
40
0.71875
40
0.75
40
0.75
40
0.78125
40
0.78125
40
0.8125
40
0.8125
40
0.84375
40
0.84375
40
0.875
40
0.875
40
0.90625
40
0.90625
40
0.9375
40
0.9375
40
1
40
1
40
1
40
1
41
1
10
89.4
20
-11.4003770243693
30
0
41
1
10
89.4520557316724
20
-11.3218951578574
30
0
41
1
10
89.504111463345
20
-11.2275782335286
30
0
41
1
10
89.6082229266898
20
-11.0062285958582
30
0
41
1
10
89.6602786583624
20
-10.8791921245717
30
0
41
1
10
89.7643901217072
20
-10.5921358556917
30
0
41
1
10
89.8164458533797
20
-10.4321137579308
30
0
41
1
10
89.9205573167246
20
-10.079699061326
30
0
41
1
10
89.9726130483971
20
-9.88730603030984
30
0
41
1
10
90.076724511742
20
-9.47168509782088
30
0
41
1
10
90.1287802434144
20
-9.24845885407197
30
0
41
1
10
90.2328917067595
20
-8.77361219589773
30
0
41
1
10
90.2849474384319
20
-8.52199550261545
30
0
41
1
10
90.3890589017769
20
-7.99363266883168
30
0
41
1
10
90.4411146334492
20
-7.71689202213835
30
0
41
1
10
90.5452260967942
20
-7.14223042008214
30
0
41
1
10
90.5972818284667
20
-6.84431621272145
30
0
41
1
10
90.7013932918117
20
-6.23175520272974
30
0
41
1
10
90.753449023484
20
-5.91711573873278
30
0
41
1
10
90.8575604868289
20
-5.27583652127154
30
0
41
1
10
90.9096162185014
20
-4.94920399737828
30
0
41
1
10
91.0137276818464
20
-4.28873432022931
30
0
41
1
10
91.0657834135188
20
-3.95490366040028
30
0
41
1
10
91.1698948768637
20
-3.28468854460874
30
0
41
1
10
91.2219506085362
20
-2.94830937552055
30
0
41
1
10
91.3781178035536
20
-1.94183263340793
30
0
41
1
10
91.4822292668986
20
-1.27468315318563
30
0
41
1
10
91.6123685960796
20
-0.463482827315602
30
0
41
1
10
91.6383964619159
20
-0.302357787248269
30
0
41
1
10
91.6774382606703
20
-0.0626115414156345
30
0
41
1
10
91.6904521935883
20
0.0167669922645075
30
0
41
1
10
91.7164800594245
20
0.176348219574635
30
0
41
1
10
91.7294939923427
20
0.256466141494428
30
0
41
1
10
91.7945636569332
20
0.658584377056485
30
0
41
1
10
91.8466193886057
20
0.985193745430706
30
0
41
1
10
92.0027865836231
20
1.97506153826814
30
0
41
1
10
92.1068980469681
20
2.64860049188809
30
0
41
1
10
92.2630652419855
20
3.65563006730142
30
0
41
1
10
92.3151209736579
20
3.99069489247068
30
0
41
1
10
92.4192324370029
20
4.65504200154777
30
0
41
1
10
92.4712881686753
20
4.98431811097748
30
0
41
1
10
92.5753996320202
20
5.63231636973811
30
0
41
1
10
92.6274553636928
20
5.95103144904681
30
0
41
1
10
92.7315668270377
20
6.57313416079518
30
0
41
1
10
92.7836225587101
20
6.87651441524142
30
0
41
1
10
92.887734022055
20
7.46339108179544
30
0
41
1
10
92.9397897537275
20
7.74688049666412
30
0
41
1
10
93.0439012170725
20
8.28985455240471
30
0
41
1
10
93.0959569487449
20
8.54933326303592
30
0
41
1
10
93.2000684120899
20
9.04079697928248
30
0
41
1
10
93.2521241437623
20
9.27277769366745
30
0
41
1
10
93.3562356071072
20
9.7065438838209
30
0
41
1
10
93.4082913387796
20
9.90832707214309
30
0
41
1
10
93.5124028021245
20
10.2798839469958
30
0
41
1
10
93.5644585337971
20
10.4496574557623
30
0
41
1
10
93.668569997142
20
10.7563051141237
30
0
41
1
10
93.7206257288145
20
10.8931810431667
30
0
41
1
10
93.8247371921594
20
11.1340432391911
30
0
41
1
10
93.8767929238318
20
11.238032880517
30
0
41
1
10
93.9809043871768
20
11.4139528651182
30
0
41
1
10
94.0329601188491
20
11.4858876855963
30
0
41
1
10
94.1891273138666
20
11.6559000816079
30
0
41
1
10
94.2932387772115
20
11.708
30
0
41
1
10
94.3973502405564
20
11.708
30
0
0
SPLINE
5
E8
100
AcDbEntity
8
1
62
256
6
ByLayer
370
13
48
1
60
0
100
AcDbSpline
70
4
71
3
72
79
73
75
40
0
40
0
40
0
40
0
40
0.0312499999999994
40
0.0312499999999994
40
0.0624999999999988
40
0.0624999999999988
40
0.0937499999999982
40
0.0937499999999982
40
0.124999999999998
40
0.124999999999998
40
0.156249999999997
40
0.156249999999997
40
0.187499999999996
40
0.187499999999996
40
0.218749999999996
40
0.218749999999996
40
0.249999999999995
40
0.249999999999995
40
0.281249999999995
40
0.281249999999995
40
0.312499999999994
40
0.312499999999994
40
0.343749999999994
40
0.343749999999994
40
0.374999999999993
40
0.374999999999993
40
0.406249999999993
40
0.406249999999993
40
0.414062499999993
40
0.417968749999993
40
0.417968749999993
40
0.421874999999993
40
0.421874999999993
40
0.437499999999993
40
0.437499999999993
40
0.468749999999993
40
0.468749999999993
40
0.499999999999994
40
0.499999999999994
40
0.531249999999994
40
0.531249999999994
40
0.562499999999994
40
0.562499999999994
40
0.593749999999995
40
0.593749999999995
40
0.624999999999995
40
0.624999999999995
40
0.656249999999996
40
0.656249999999996
40
0.687499999999996
40
0.687499999999996
40
0.718749999999997
40
0.718749999999997
40
0.749999999999997
40
0.749999999999997
40
0.781249999999997
40
0.781249999999997
40
0.812499999999998
40
0.812499999999998
40
0.828124999999998
40
0.828124999999998
40
0.835937499999998
40
0.835937499999998
40
0.843749999999998
40
0.843749999999998
40
0.874999999999998
40
0.874999999999998
40
0.906249999999999
40
0.906249999999999
40
0.937499999999999
40
0.937499999999999
40
0.96875
40
0.96875
40
1
40
1
40
1
40
1
41
1
10
93.7809656408718
20
11.708
30
0
41
1
10
93.8482330456254
20
11.708
30
0
41
1
10
93.9155004503789
20
11.6863156332208
30
0
41
1
10
94.050035259886
20
11.5943416811537
30
0
41
1
10
94.1173026646396
20
11.5240335927992
30
0
41
1
10
94.2518374741467
20
11.3307832248317
30
0
41
1
10
94.3191048789
20
11.2078237890649
30
0
41
1
10
94.4536396884072
20
10.9070295340603
30
0
41
1
10
94.5209070931608
20
10.7291820231235
30
0
41
1
10
94.6554419026679
20
10.3186183296854
30
0
41
1
10
94.7227093074214
20
10.0858968912203
30
0
41
1
10
94.8572441169284
20
9.5681201833016
30
0
41
1
10
94.924511521682
20
9.28306904961829
30
0
41
1
10
95.059046331189
20
8.66571892177188
30
0
41
1
10
95.1263137359425
20
8.33343366105925
30
0
41
1
10
95.2608485454497
20
7.62898319091209
30
0
41
1
10
95.3281159502032
20
7.2568395058648
30
0
41
1
10
95.4626507597102
20
6.48178425000197
30
0
41
1
10
95.5299181644638
20
6.07889855858426
30
0
41
1
10
95.6644529739709
20
5.25248986765294
30
0
41
1
10
95.7317203787244
20
4.82899295247674
30
0
41
1
10
95.8662551882315
20
3.97171513035534
30
0
41
1
10
95.9335225929851
20
3.53795673504644
30
0
41
1
10
96.0680574024922
20
2.6699891770474
30
0
41
1
10
96.1353248072456
20
2.23579639390823
30
0
41
1
10
96.2698596167526
20
1.37568125550249
30
0
41
1
10
96.3371270215063
20
0.949768156671979
30
0
41
1
10
96.4212112774482
20
0.427059693550177
30
0
41
1
10
96.4464365542306
20
0.270967442171127
30
0
41
1
10
96.4716618310134
20
0.116064125135125
30
0
41
1
10
96.4884786822016
20
0.0130707403081942
30
0
41
1
10
96.4968871077958
20
-0.0382465948265462
30
0
41
1
10
96.5389292357669
20
-0.295954109822446
30
0
41
1
10
96.5725629381436
20
-0.504314000704653
30
0
41
1
10
96.6734640452739
20
-1.13481102410231
30
0
41
1
10
96.7407314500274
20
-1.56241467764829
30
0
41
1
10
96.8752662595345
20
-2.42473131140753
30
0
41
1
10
96.9425336642881
20
-2.85943399654752
30
0
41
1
10
97.0770684737951
20
-3.72705077026774
30
0
41
1
10
97.1443358785487
20
-4.15994748851728
30
0
41
1
10
97.2788706880558
20
-5.01401401463019
30
0
41
1
10
97.3461380928093
20
-5.43516059703092
30
0
41
1
10
97.4806729023163
20
-6.2553634280454
30
0
41
1
10
97.5479403070698
20
-6.65439336733519
30
0
41
1
10
97.6824751165769
20
-7.42032962285609
30
0
41
1
10
97.7497425213304
20
-7.78721043986917
30
0
41
1
10
97.8842773308376
20
-8.47993832178673
30
0
41
1
10
97.951544735591
20
-8.80576481207589
30
0
41
1
10
98.0860795450981
20
-9.40930388796372
30
0
41
1
10
98.1533469498517
20
-9.68700406997002
30
0
41
1
10
98.2878817593588
20
-10.1895463406278
30
0
41
1
10
98.3551491641123
20
-10.4143857191143
30
0
41
1
10
98.4896839736193
20
-10.809028886705
30
0
41
1
10
98.5569513783729
20
-10.9788391680542
30
0
41
1
10
98.6914861878799
20
-11.263752845576
30
0
41
1
10
98.7587535926335
20
-11.3788697799395
30
0
41
1
10
98.8932884021406
20
-11.5569215614927
30
0
41
1
10
98.9605558068941
20
-11.6198739476209
30
0
41
1
10
99.0614569140245
20
-11.6783478032104
30
0
41
1
10
99.0950906164012
20
-11.6918583331436
30
0
41
1
10
99.1455411699665
20
-11.7036351115002
30
0
41
1
10
99.1623580211548
20
-11.7061463816027
30
0
41
1
10
99.1959917235315
20
-11.7084260717165
30
0
41
1
10
99.2128085747199
20
-11.7082070354709
30
0
41
1
10
99.2968928306618
20
-11.7002643299209
30
0
41
1
10
99.3641602354154
20
-11.6718144036546
30
0
41
1
10
99.4986950449224
20
-11.5656330640733
30
0
41
1
10
99.5659624496759
20
-11.4878831651488
30
0
41
1
10
99.700497259183
20
-11.2792999341334
30
0
41
1
10
99.7677646639366
20
-11.1484498958074
30
0
41
1
10
99.9022994734436
20
-10.8317266967163
30
0
41
1
10
99.9695668781972
20
-10.6458417551332
30
0
41
1
10
100.104101687704
20
-10.2194110330693
30
0
41
1
10
100.171369092458
20
-9.97886127560844
30
0
41
1
10
100.238636497211
20
-9.71243666897482
30
0
0
SPLINE
5
E9
100
AcDbEntity
8
1
62
256
6
ByLayer
370
13
48
1
60
0
100
AcDbSpline
70
4
71
3
72
42
73
38
40
0
40
0
40
0
40
0
40
0.0624999999999995
40
0.0624999999999995
40
0.124999999999999
40
0.124999999999999
40
0.187499999999998
40
0.187499999999998
40
0.249999999999998
40
0.249999999999998
40
0.312499999999997
40
0.312499999999997
40
0.374999999999997
40
0.374999999999997
40
0.390624999999997
40
0.390624999999997
40
0.406249999999996
40
0.406249999999996
40
0.437499999999996
40
0.437499999999996
40
0.499999999999997
40
0.499999999999997
40
0.562499999999997
40
0.562499999999997
40
0.624999999999998
40
0.624999999999998
40
0.687499999999998
40
0.687499999999998
40
0.749999999999998
40
0.749999999999998
40
0.812499999999999
40
0.812499999999999
40
0.874999999999999
40
0.874999999999999
40
0.9375
40
0.9375
40
1
40
1
40
1
40
1
41
1
10
89.4
20
-10.1933927900271
30
0
41
1
10
89.4939703404307
20
-9.86849816403935
30
0
41
1
10
89.5879406808615
20
-9.49079787444066
30
0
41
1
10
89.7758813617228
20
-8.64159801477712
30
0
41
1
10
89.8698517021536
20
-8.17016627468729
30
0
41
1
10
90.057792383015
20
-7.1541537291983
30
0
41
1
10
90.1517627234457
20
-6.60969558824112
30
0
41
1
10
90.3397034043072
20
-5.47417785601502
30
0
41
1
10
90.4336737447379
20
-4.88325805801793
30
0
41
1
10
90.6216144255993
20
-3.68316676716506
30
0
41
1
10
90.71558476603
20
-3.07411192585911
30
0
41
1
10
90.9035254468914
20
-1.86390769478913
30
0
41
1
10
90.9974957873222
20
-1.26282704716004
30
0
41
1
10
91.1149587128605
20
-0.529609388105911
30
0
41
1
10
91.1384512979683
20
-0.383857981777453
30
0
41
1
10
91.1854364681836
20
-0.0944071529411303
30
0
41
1
10
91.2089290532913
20
0.0486484859484051
30
0
41
1
10
91.2794068086142
20
0.482168726074519
30
0
41
1
10
91.3263919788296
20
0.775352403773013
30
0
41
1
10
91.4673474894757
20
1.66408408254009
30
0
41
1
10
91.5613178299063
20
2.2689841262947
30
0
41
1
10
91.7492585107678
20
3.48136522759529
30
0
41
1
10
91.8432288511985
20
4.08876582638649
30
0
41
1
10
92.0311695320599
20
5.27928960412018
30
0
41
1
10
92.1251398724907
20
5.86228806298942
30
0
41
1
10
92.3130805533522
20
6.97572072872524
30
0
41
1
10
92.4070508937828
20
7.50601522822734
30
0
41
1
10
92.5949915746443
20
8.48842382476036
30
0
41
1
10
92.688961915075
20
8.94042475575895
30
0
41
1
10
92.8769025959364
20
9.74725774001871
30
0
41
1
10
92.9708729363672
20
10.1020374503961
30
0
41
1
10
93.1588136172285
20
10.704665203458
30
0
41
1
10
93.2527839576592
20
10.9525318181488
30
0
41
1
10
93.4407246385207
20
11.3413145737647
30
0
41
1
10
93.5346949789513
20
11.4823037617156
30
0
41
1
10
93.7226356598128
20
11.6655980933763
30
0
41
1
10
93.8166060002435
20
11.708
30
0
41
1
10
93.9105763406742
20
11.708
30
0
0
SPLINE
5
EA
100
AcDbEntity
8
1
62
256
6
ByLayer
370
13
48
1
60
0
100
AcDbSpline
70
4
71
3
72
78
73
74
40
0
40
0
40
0
40
0
40
0.03125
40
0.03125
40
0.0625000000000001
40
0.0625000000000001
40
0.0937500000000001
40
0.0937500000000001
40
0.125
40
0.125
40
0.15625
40
0.15625
40
0.1875
40
0.1875
40
0.21875
40
0.21875
40
0.25
40
0.25
40
0.28125
40
0.28125
40
0.3125
40
0.3125
40
0.34375
40
0.34375
40
0.375
40
0.375
40
0.3828125
40
0.3828125
40
0.390625
40
0.390625
40
0.40625
40
0.40625
40
0.4375
40
0.4375
40
0.46875
40
0.46875
40
0.5
40
0.5
40
0.53125
40
0.53125
40
0.5625
40
0.5625
40
0.59375
40
0.59375
40
0.625
40
0.625
40
0.65625
40
0.65625
40
0.6875
40
0.6875
40
0.718750000000001
40
0.718750000000001
40
0.750000000000001
40
0.750000000000001
40
0.765625000000001
40
0.765625000000001
40
0.773437500000001
40
0.773437500000001
40
0.781250000000001
40
0.781250000000001
40
0.812500000000001
40
0.812500000000001
40
0.84375
40
0.84375
40
0.875
40
0.875
40
0.90625
40
0.90625
40
0.9375
40
0.9375
40
0.96875
40
0.96875
40
1
40
1
40
1
40
1
41
1
10
93.2941917409896
20
11.708
30
0
41
1
10
93.3665297072002
20
11.708
30
0
41
1
10
93.4388676734109
20
11.6829155193309
30
0
41
1
10
93.5835436058321
20
11.576113956427
30
0
41
1
10
93.655881572043
20
11.4943702952194
30
0
41
1
10
93.8005575044642
20
11.2694536857799
30
0
41
1
10
93.8728954706747
20
11.1262567713883
30
0
41
1
10
94.0175714030961
20
10.776130111763
30
0
41
1
10
94.0899093693067
20
10.5691842212638
30
0
41
1
10
94.2345853017279
20
10.0923714020805
30
0
41
1
10
94.3069232679385
20
9.82250080616348
30
0
41
1
10
94.4515992003599
20
9.22407963496471
30
0
41
1
10
94.5239371665706
20
8.89554032629218
30
0
41
1
10
94.6686130989919
20
8.18734470854892
30
0
41
1
10
94.7409510652025
20
7.80771367486193
30
0
41
1
10
94.8856269976237
20
7.00766420881911
30
0
41
1
10
94.9579649638344
20
6.5872807112068
30
0
41
1
10
95.1026408962557
20
5.7178995545805
30
0
41
1
10
95.1749788624663
20
5.26893996123428
30
0
41
1
10
95.3196547948876
20
4.35530190055596
30
0
41
1
10
95.3919927610982
20
3.89065793147884
30
0
41
1
10
95.5366686935195
20
2.95815476956392
30
0
41
1
10
95.6090066597302
20
2.49032151013176
30
0
41
1
10
95.7536825921514
20
1.56262811699466
30
0
41
1
10
95.8260205583621
20
1.10278305428835
30
0
41
1
10
95.9164430161254
20
0.538742236751972
30
0
41
1
10
95.9345275076781
20
0.426467134342232
30
0
41
1
10
95.9706964907834
20
0.203105854933057
30
0
41
1
10
95.9887809823361
20
0.0921517115710344
30
0
41
1
10
96.0430344569941
20
-0.239584502129333
30
0
41
1
10
96.0792034400993
20
-0.463327792892301
30
0
41
1
10
96.1877103894153
20
-1.14088243717211
30
0
41
1
10
96.2600483556259
20
-1.60108415394035
30
0
41
1
10
96.4047242880473
20
-2.52920467470949
30
0
41
1
10
96.4770622542579
20
-2.99710809967516
30
0
41
1
10
96.6217381866792
20
-3.9294188875723
30
0
41
1
10
96.6940761528899
20
-4.39380003485712
30
0
41
1
10
96.8387520853112
20
-5.30655496960497
30
0
41
1
10
96.9110900515218
20
-5.75489408104212
30
0
41
1
10
97.055765983943
20
-6.62268096977527
30
0
41
1
10
97.1281039501536
20
-7.04209067389311
30
0
41
1
10
97.2727798825749
20
-7.83987538874828
30
0
41
1
10
97.3451178487856
20
-8.21821565074987
30
0
41
1
10
97.4897937812069
20
-8.92357802164796
30
0
41
1
10
97.5621317474175
20
-9.25057519970011
30
0
41
1
10
97.7068076798388
20
-9.84574703688418
30
0
41
1
10
97.7791456460494
20
-10.1139108488162
30
0
41
1
10
97.9238215784708
20
-10.5872410096793
30
0
41
1
10
97.9961595446814
20
-10.79241141936
30
0
41
1
10
98.1408354771027
20
-11.1390107784082
30
0
41
1
10
98.2131734433133
20
-11.2804561595975
30
0
41
1
10
98.3578493757345
20
-11.5019724014967
30
0
41
1
10
98.4301873419453
20
-11.5820673700568
30
0
41
1
10
98.5386942912612
20
-11.6598166260059
30
0
41
1
10
98.5748632743665
20
-11.6786845174601
30
0
41
1
10
98.6291167490245
20
-11.6969915583183
30
0
41
1
10
98.6472012405771
20
-11.7014288563014
30
0
41
1
10
98.6833702236825
20
-11.7070776473318
30
0
41
1
10
98.7014547152352
20
-11.7082903740661
30
0
41
1
10
98.7918771729985
20
-11.7065482950319
30
0
41
1
10
98.8642151392091
20
-11.6799715424711
30
0
41
1
10
99.0088910716305
20
-11.5700252559282
30
0
41
1
10
99.081229037841
20
-11.4866291503728
30
0
41
1
10
99.2259049702623
20
-11.2583066042222
30
0
41
1
10
99.298242936473
20
-11.1133563432711
30
0
41
1
10
99.4429188688942
20
-10.7597011811688
30
0
41
1
10
99.5152568351049
20
-10.5509804250158
30
0
41
1
10
99.6599327675262
20
-10.0706888526584
30
0
41
1
10
99.7322707337369
20
-9.79911476471551
30
0
41
1
10
99.8769466661581
20
-9.19745343729224
30
0
41
1
10
99.9492846323687
20
-8.86737788312081
30
0
41
1
10
100.09396056479
20
-8.15636294870586
30
0
41
1
10
100.166298531001
20
-7.77544918494326
30
0
41
1
10
100.238636497211
20
-7.37430083601561
30
0
0
SPLINE
5
EB
100
AcDbEntity
8
1
62
256
6
ByLayer
370
13
48
1
60
0
100
AcDbSpline
70
4
71
3
72
44
73
40
40
0
40
0
40
0
40
0
40
0.0625000000000003
40
0.0625000000000003
40
0.125000000000001
40
0.125000000000001
40
0.187500000000001
40
0.187500000000001
40
0.250000000000001
40
0.250000000000001
40
0.312500000000002
40
0.312500000000002
40
0.320312500000002
40
0.320312500000002
40
0.328125000000002
40
0.328125000000002
40
0.343750000000002
40
0.343750000000002
40
0.375000000000002
40
0.375000000000002
40
0.437500000000002
40
0.437500000000002
40
0.500000000000002
40
0.500000000000002
40
0.562500000000002
40
0.562500000000002
40
0.625000000000001
40
0.625000000000001
40
0.687500000000001
40
0.687500000000001
40
0.750000000000001
40
0.750000000000001
40
0.812500000000001
40
0.812500000000001
40
0.875000000000001
40
0.875000000000001
40
0.9375
40
0.9375
40
1
40
1
40
1
40
1
41
1
10
89.4
20
-8.07031550055481
30
0
41
1
10
89.4838292175165
20
-7.63560009595705
30
0
41
1
10
89.567658435033
20
-7.16935804467172
30
0
41
1
10
89.735316870066
20
-6.19145549340644
30
0
41
1
10
89.8191460875825
20
-5.67987339719815
30
0
41
1
10
89.9868045226156
20
-4.63121027030906
30
0
41
1
10
90.0706337401321
20
-4.09420420137101
30
0
41
1
10
90.238292175165
20
-3.014397440024
30
0
41
1
10
90.3221213926815
20
-2.47165281821768
30
0
41
1
10
90.4897798277145
20
-1.39783897814411
30
0
41
1
10
90.573609045231
20
-0.86679975182355
30
0
41
1
10
90.6679169149371
20
-0.283781073428258
30
0
41
1
10
90.6783955671266
20
-0.21919871140642
30
0
41
1
10
90.6993528715058
20
-0.0904516830469504
30
0
41
1
10
90.7098315236953
20
-0.0264075051916279
30
0
41
1
10
90.7412674802639
20
0.165939548643678
30
0
41
1
10
90.7622247846432
20
0.295033439561337
30
0
41
1
10
90.8250966977805
20
0.684631400527564
30
0
41
1
10
90.8670113065388
20
0.947459516619205
30
0
41
1
10
90.9927551328135
20
1.74277905593135
30
0
41
1
10
91.07658435033
20
2.28221337697059
30
0
41
1
10
91.244242785363
20
3.3636286745429
30
0
41
1
10
91.3280720028795
20
3.90556500022493
30
0
41
1
10
91.4957304379125
20
4.97312139724409
30
0
41
1
10
91.579559655429
20
5.49867355086735
30
0
41
1
10
91.7472180904621
20
6.51337775796858
30
0
41
1
10
91.8310473079786
20
7.00245065964197
30
0
41
1
10
91.9987057430115
20
7.92515270702125
30
0
41
1
10
92.0825349605281
20
8.35870972804142
30
0
41
1
10
92.250193395561
20
9.15471991081918
30
0
41
1
10
92.3340226130775
20
9.51712586991459
30
0
41
1
10
92.5016810481105
20
10.1604124853502
30
0
41
1
10
92.585510265627
20
10.4412811380121
30
0
41
1
10
92.75316870066
20
10.9172282765893
30
0
41
1
10
92.8369979181765
20
11.1123289522753
30
0
41
1
10
93.0046563532095
20
11.4184644088557
30
0
41
1
10
93.088485570726
20
11.5295450970623
30
0
41
1
10
93.256144005759
20
11.6742852900142
30
0
41
1
10
93.3399732232755
20
11.708
30
0
41
1
10
93.423802440792
20
11.708
30
0
0
SPLINE
5
EC
100
AcDbEntity
8
1
62
256
6
ByLayer
370
13
48
1
60
0
100
AcDbSpline
70
4
71
3
72
81
73
77
40
0
40
0
40
0
40
0
40
0.0312500000000008
40
0.0312500000000008
40
0.0625000000000016
40
0.0625000000000016
40
0.0937500000000024
40
0.0937500000000024
40
0.125000000000003
40
0.125000000000003
40
0.156250000000004
40
0.156250000000004
40
0.187500000000005
40
0.187500000000005
40
0.218750000000006
40
0.218750000000006
40
0.250000000000006
40
0.250000000000006
40
0.281250000000007
40
0.281250000000007
40
0.312500000000008
40
0.312500000000008
40
0.343750000000009
40
0.343750000000009
40
0.359375000000009
40
0.359375000000009
40
0.363281250000009
40
0.363281250000009
40
0.367187500000009
40
0.367187500000009
40
0.375000000000009
40
0.375000000000009
40
0.406250000000007
40
0.406250000000007
40
0.437500000000006
40
0.437500000000006
40
0.468750000000004
40
0.468750000000004
40
0.500000000000003
40
0.500000000000003
40
0.531250000000001
40
0.531250000000001
40
0.562499999999999
40
0.562499999999999
40
0.593749999999998
40
0.593749999999998
40
0.624999999999996
40
0.624999999999996
40
0.656249999999995
40
0.656249999999995
40
0.687499999999993
40
0.687499999999993
40
0.718749999999992
40
0.718749999999992
40
0.726562499999992
40
0.726562499999992
40
0.730468749999991
40
0.730468749999991
40
0.734374999999991
40
0.749999999999992
40
0.749999999999992
40
0.781249999999993
40
0.781249999999993
40
0.812499999999994
40
0.812499999999994
40
0.843749999999995
40
0.843749999999995
40
0.874999999999996
40
0.874999999999996
40
0.906249999999997
40
0.906249999999997
40
0.937499999999998
40
0.937499999999998
40
0.968749999999999
40
0.968749999999999
40
1
40
1
40
1
40
1
41
1
10
92.8074178411074
20
11.708
30
0
41
1
10
92.8848263687752
20
11.708
30
0
41
1
10
92.9622348964429
20
11.6792658379642
30
0
41
1
10
93.1170519517784
20
11.5564697199843
30
0
41
1
10
93.1944604794462
20
11.4623705483652
30
0
41
1
10
93.3492775347817
20
11.2032388533507
30
0
41
1
10
93.4266860624494
20
11.0381738445601
30
0
41
1
10
93.5815031177849
20
10.634903947776
30
0
41
1
10
93.6589116454527
20
10.3966796574561
30
0
41
1
10
93.8137287007881
20
9.84909454467422
30
0
41
1
10
93.8911372284558
20
9.5397343047062
30
0
41
1
10
94.0459542837914
20
8.85639664430298
30
0
41
1
10
94.1233628114592
20
8.48244231232997
30
0
41
1
10
94.2781798667947
20
7.68060105441484
30
0
41
1
10
94.3555883944624
20
7.2527562171864
30
0
41
1
10
94.5104054497978
20
6.35698652335486
30
0
41
1
10
94.5878139774657
20
5.8891140031995
30
0
41
1
10
94.742631032801
20
4.92885523218919
30
0
41
1
10
94.8200395604688
20
4.43652058246337
30
0
41
1
10
94.9748566158044
20
3.44301552851195
30
0
41
1
10
95.0522651434721
20
2.94188650641581
30
0
41
1
10
95.2070821988077
20
1.9451537452729
30
0
41
1
10
95.2844907264753
20
1.44957581108881
30
0
41
1
10
95.4006035179769
20
0.719367834960877
30
0
41
1
10
95.4393077818108
20
0.47813771319025
30
0
41
1
10
95.4876881116031
20
0.18008655725464
30
0
41
1
10
95.4973641775617
20
0.120650203932229
30
0
41
1
10
95.5167163094786
20
0.0021427283298578
30
0
41
1
10
95.5263923754371
20
-0.0569193801443646
30
0
41
1
10
95.5554205733125
20
-0.235016088833106
30
0
41
1
10
95.5747727052294
20
-0.354467422651538
30
0
41
1
10
95.6715333648141
20
-0.954963897556723
30
0
41
1
10
95.7489418924819
20
-1.44583911653621
30
0
41
1
10
95.9037589478174
20
-2.43749720318499
30
0
41
1
10
95.9811674754851
20
-2.93825986519488
30
0
41
1
10
96.1359845308206
20
-3.93606184913932
30
0
41
1
10
96.2133930584884
20
-4.43306467407936
30
0
41
1
10
96.3682101138238
20
-5.40799433059942
30
0
41
1
10
96.4456186414915
20
-5.88587210975351
30
0
41
1
10
96.600435696827
20
-6.80677999801006
30
0
41
1
10
96.6778442244948
20
-7.24975679330578
30
0
41
1
10
96.8326612798303
20
-8.08624365883881
30
0
41
1
10
96.9100698074981
20
-8.47970702701244
30
0
41
1
10
97.0648868628336
20
-9.20524404440997
30
0
41
1
10
97.1422953905013
20
-9.53728751865697
30
0
41
1
10
97.2971124458368
20
-10.1319466816994
30
0
41
1
10
97.3745209735046
20
-10.3945542112139
30
0
41
1
10
97.5293380288401
20
-10.8467792041871
30
0
41
1
10
97.6067465565078
20
-11.0364099539529
30
0
41
1
10
97.7615636118434
20
-11.3435100294817
30
0
41
1
10
97.8389721395112
20
-11.4610083629196
30
0
41
1
10
97.9937891948465
20
-11.6284027579815
30
0
41
1
10
98.0711977225143
20
-11.6783353444785
30
0
41
1
10
98.1679583820991
20
-11.7030458626988
30
0
41
1
10
98.187310514016
20
-11.7061077601761
30
0
41
1
10
98.2163387118914
20
-11.7079781471108
30
0
41
1
10
98.2260147778497
20
-11.7081490210799
30
0
41
1
10
98.2453669097667
20
-11.7075947492067
30
0
41
1
10
98.2937472395591
20
-11.7039575762447
30
0
41
1
10
98.3421275693515
20
-11.6888443160291
30
0
41
1
10
98.4582403608531
20
-11.6290324841978
30
0
41
1
10
98.5356488885208
20
-11.5576892296898
30
0
41
1
10
98.6904659438563
20
-11.3456263746962
30
0
41
1
10
98.7678744715241
20
-11.2048717800018
30
0
41
1
10
98.9226915268596
20
-10.8505271668614
30
0
41
1
10
99.0001000545274
20
-10.6369124376575
30
0
41
1
10
99.1549171098628
20
-10.1373708743257
30
0
41
1
10
99.2323256375305
20
-9.8514373464825
30
0
41
1
10
99.387142692866
20
-9.21226308420341
30
0
41
1
10
99.4645512205337
20
-8.85903794817131
30
0
41
1
10
99.6193682758692
20
-8.0946451688599
30
0
41
1
10
99.696776803537
20
-7.68351398313979
30
0
41
1
10
99.8515938588725
20
-6.81624109586147
30
0
41
1
10
99.9290023865402
20
-6.36014947679624
30
0
41
1
10
100.083819441876
20
-5.4181239593311
30
0
41
1
10
100.161227969544
20
-4.93224311424521
30
0
41
1
10
100.238636497211
20
-4.43934837481837
30
0
0
SPLINE
5
ED
100
AcDbEntity
8
1
62
256
6
ByLayer
370
13
48
1
60
0
100
AcDbSpline
70
4
71
3
72
42
73
38
40
0
40
0
40
0
40
0
40
0.0625000000000001
40
0.0625000000000001
40
0.125
40
0.125
40
0.1875
40
0.1875
40
0.21875
40
0.21875
40
0.234375
40
0.234375
40
0.25
40
0.25
40
0.3125
40
0.3125
40
0.375
40
0.375
40
0.4375
40
0.4375
40
0.5
40
0.5
40
0.562500000000001
40
0.562500000000001
40
0.625000000000001
40
0.625000000000001
40
0.687500000000001
40
0.687500000000001
40
0.75
40
0.75
40
0.8125
40
0.8125
40
0.875
40
0.875
40
0.9375
40
0.9375
40
1
40
1
40
1
40
1
41
1
10
89.4
20
-5.25671667268233
30
0
41
1
10
89.4736880946023
20
-4.79729252876527
30
0
41
1
10
89.5473761892047
20
-4.32756324213449
30
0
41
1
10
89.6947523784091
20
-3.38088330446834
30
0
41
1
10
89.7684404730114
20
-2.90396439839927
30
0
41
1
10
89.915816662216
20
-1.95523303855956
30
0
41
1
10
89.9895047568183
20
-1.48344063717349
30
0
41
1
10
90.1000368987217
20
-0.787381213616669
30
0
41
1
10
90.1368809460229
20
-0.55728272341338
30
0
41
1
10
90.1921470169747
20
-0.215826878815818
30
0
41
1
10
90.2105690406252
20
-0.102697865803179
30
0
41
1
10
90.2474130879264
20
0.122519780583957
30
0
41
1
10
90.2658351115768
20
0.235799760672279
30
0
41
1
10
90.3579452298297
20
0.805251933556946
30
0
41
1
10
90.431633324432
20
1.27067288180649
30
0
41
1
10
90.5790095136365
20
2.21197178696423
30
0
41
1
10
90.6526976082389
20
2.68783569370837
30
0
41
1
10
90.8000737974434
20
3.63857742996044
30
0
41
1
10
90.8737618920458
20
4.11342894391012
30
0
41
1
10
91.0211380812503
20
5.04913098325244
30
0
41
1
10
91.0948261758526
20
5.5099449461926
30
0
41
1
10
91.2422023650572
20
6.40393943103066
30
0
41
1
10
91.3158904596595
20
6.83707835627098
30
0
41
1
10
91.4632666488641
20
7.66266837411629
30
0
41
1
10
91.5369547434663
20
8.05508027851195
30
0
41
1
10
91.6843309326709
20
8.78798196076511
30
0
41
1
10
91.7580190272731
20
9.12844254000277
30
0
41
1
10
91.9053952164777
20
9.74908157721049
30
0
41
1
10
91.97908331108
20
10.0292461406291
30
0
41
1
10
92.1264595002846
20
10.5244713207727
30
0
41
1
10
92.2001475948869
20
10.7395347849391
30
0
41
1
10
92.3475237840914
20
11.1034413761455
30
0
41
1
10
92.4212118786937
20
11.2523015573445
30
0
41
1
10
92.5685880678983
20
11.4860789177079
30
0
41
1
10
92.6422761625006
20
11.5710221581932
30
0
41
1
10
92.7896523517052
20
11.6819681294007
30
0
41
1
10
92.8633404463075
20
11.708
30
0
41
1
10
92.9370285409098
20
11.708
30
0
0
SPLINE
5
EE
100
AcDbEntity
8
1
62
256
6
ByLayer
370
13
48
1
60
0
100
AcDbSpline
70
4
71
3
72
80
73
76
40
0
40
0
40
0
40
0
40
0.0312500000000013
40
0.0312500000000013
40
0.0625000000000026
40
0.0625000000000026
40
0.0937500000000039
40
0.0937500000000039
40
0.125000000000005
40
0.125000000000005
40
0.156250000000006
40
0.156250000000006
40
0.187500000000008
40
0.187500000000008
40
0.218750000000009
40
0.218750000000009
40
0.25000000000001
40
0.25000000000001
40
0.281250000000012
40
0.281250000000012
40
0.312500000000013
40
0.312500000000013
40
0.328125000000014
40
0.328125000000014
40
0.335937500000014
40
0.339843750000014
40
0.339843750000014
40
0.343750000000014
40
0.343750000000014
40
0.375000000000013
40
0.375000000000013
40
0.406250000000013
40
0.406250000000013
40
0.437500000000012
40
0.437500000000012
40
0.468750000000011
40
0.468750000000011
40
0.50000000000001
40
0.50000000000001
40
0.53125000000001
40
0.53125000000001
40
0.562500000000009
40
0.562500000000009
40
0.593750000000008
40
0.593750000000008
40
0.625000000000007
40
0.625000000000007
40
0.656250000000006
40
0.656250000000006
40
0.671875000000006
40
0.671875000000006
40
0.679687500000006
40
0.683593750000006
40
0.683593750000006
40
0.687500000000006
40
0.687500000000006
40
0.718750000000005
40
0.718750000000005
40
0.750000000000005
40
0.750000000000005
40
0.781250000000004
40
0.781250000000004
40
0.812500000000003
40
0.812500000000003
40
0.843750000000003
40
0.843750000000003
40
0.875000000000002
40
0.875000000000002
40
0.906250000000002
40
0.906250000000002
40
0.937500000000001
40
0.937500000000001
40
0.968750000000001
40
0.968750000000001
40
1
40
1
40
1
40
1
41
1
10
92.3206439412252
20
11.708
30
0
41
1
10
92.4031230303501
20
11.708
30
0
41
1
10
92.4856021194748
20
11.6753659654397
30
0
41
1
10
92.6505602977246
20
11.5353978952558
30
0
41
1
10
92.7330393868494
20
11.4280129084888
30
0
41
1
10
92.8979975650992
20
11.1321034856797
30
0
41
1
10
92.9804766542241
20
10.9435362139333
30
0
41
1
10
93.1454348324737
20
10.483364991384
30
0
41
1
10
93.2279139215986
20
10.2117392343843
30
0
41
1
10
93.3928720998484
20
9.5891152397266
30
0
41
1
10
93.4753511889732
20
9.23812589559012
30
0
41
1
10
93.6403093672229
20
8.46622563151502
30
0
41
1
10
93.7227884563476
20
8.04535585427166
30
0
41
1
10
93.8877466345974
20
7.1481781040948
30
0
41
1
10
93.9702257237223
20
6.67193509060851
30
0
41
1
10
94.135183901972
20
5.68189332239328
30
0
41
1
10
94.2176629910969
20
5.16816774268332
30
0
41
1
10
94.3826211693466
20
4.12230560444362
30
0
41
1
10
94.4651002584715
20
3.59023380758634
30
0
41
1
10
94.6300584367211
20
2.52595496618775
30
0
41
1
10
94.712537525846
20
1.99379257983529
30
0
41
1
10
94.8362561595332
20
1.20724256141281
30
0
41
1
10
94.8774957040957
20
0.946984117425131
30
0
41
1
10
94.9393550209394
20
0.560710239704946
30
0
41
1
10
94.9702846793612
20
0.368599072443231
30
0
41
1
10
95.001214337783
20
0.178231840423081
30
0
41
1
10
95.0218341100642
20
0.0517289653985245
30
0
41
1
10
95.0321439962048
20
-0.0111821632476392
30
0
41
1
10
95.1249329714702
20
-0.57965256690747
30
0
41
1
10
95.2074120605951
20
-1.0983366861019
30
0
41
1
10
95.3723702388448
20
-2.14994393437002
30
0
41
1
10
95.4548493279697
20
-2.68284413277252
30
0
41
1
10
95.6198075062194
20
-3.74689882532726
30
0
41
1
10
95.7022865953444
20
-4.27800638299678
30
0
41
1
10
95.8672447735939
20
-5.3200689157249
30
0
41
1
10
95.9497238627189
20
-5.83095767043545
30
0
41
1
10
96.1146820409686
20
-6.81347724780369
30
0
41
1
10
96.1971611300934
20
-7.2850349300424
30
0
41
1
10
96.3621193083432
20
-8.17123367075891
30
0
41
1
10
96.4445983974679
20
-8.58581149289665
30
0
41
1
10
96.6095565757176
20
-9.34395107049377
30
0
41
1
10
96.6920356648425
20
-9.68747463251927
30
0
41
1
10
96.8569938430921
20
-10.2945407459717
30
0
41
1
10
96.939472932217
20
-10.5580776477487
30
0
41
1
10
97.1044311104669
20
-11.0020174366374
30
0
41
1
10
97.1869101995918
20
-11.1824447184627
30
0
41
1
10
97.3518683778414
20
-11.462524219211
30
0
41
1
10
97.4343474669662
20
-11.5622206491531
30
0
41
1
10
97.5580661006535
20
-11.6562817877423
30
0
41
1
10
97.5993056452159
20
-11.6784184345071
30
0
41
1
10
97.6611649620595
20
-11.6986499681485
30
0
41
1
10
97.6920946204814
20
-11.7055243057335
30
0
41
1
10
97.7230242789033
20
-11.7077114475903
30
0
41
1
10
97.7436440511846
20
-11.7081482475061
30
0
41
1
10
97.753953937325
20
-11.7078586584317
30
0
41
1
10
97.8467429125906
20
-11.7006108440353
30
0
41
1
10
97.9292220017153
20
-11.6610191080831
30
0
41
1
10
98.0941801799651
20
-11.5063413018498
30
0
41
1
10
98.1766592690899
20
-11.391204521434
30
0
41
1
10
98.3416174473396
20
-11.0793828637631
30
0
41
1
10
98.4240965364645
20
-10.8826566547975
30
0
41
1
10
98.5890547147142
20
-10.4062703998339
30
0
41
1
10
98.671533803839
20
-10.1265912336823
30
0
41
1
10
98.8364919820887
20
-9.48853688005994
30
0
41
1
10
98.9189710712136
20
-9.13017384662049
30
0
41
1
10
99.0839292494633
20
-8.34474635581944
30
0
41
1
10
99.1664083385882
20
-7.91772590667776
30
0
41
1
10
99.3313665168379
20
-7.00988491623889
30
0
41
1
10
99.4138456059627
20
-6.52913090169434
30
0
41
1
10
99.5788037842125
20
-5.53192776694945
30
0
41
1
10
99.6612828733374
20
-5.01555169086353
30
0
41
1
10
99.8262410515871
20
-3.9662538387237
30
0
41
1
10
99.9087201407119
20
-3.43339525062569
30
0
41
1
10
100.073678318962
20
-2.3692219903111
30
0
41
1
10
100.156157408086
20
-1.8379496608232
30
0
41
1
10
100.238636497211
20
-1.31515482893954
30
0
0
SPLINE
5
EF
100
AcDbEntity
8
1
62
256
6
ByLayer
370
13
48
1
60
0
100
AcDbSpline
70
4
71
3
72
42
73
38
40
0
40
0
40
0
40
0
40
0.0624999999999982
40
0.0624999999999982
40
0.0937499999999972
40
0.0937499999999972
40
0.109374999999997
40
0.109374999999997
40
0.124999999999996
40
0.124999999999996
40
0.187499999999997
40
0.187499999999997
40
0.249999999999997
40
0.249999999999997
40
0.312499999999997
40
0.312499999999997
40
0.374999999999997
40
0.374999999999997
40
0.437499999999998
40
0.437499999999998
40
0.499999999999998
40
0.499999999999998
40
0.562499999999998
40
0.562499999999998
40
0.624999999999998
40
0.624999999999998
40
0.687499999999999
40
0.687499999999999
40
0.749999999999999
40
0.749999999999999
40
0.812499999999999
40
0.812499999999999
40
0.875
40
0.875
40
0.9375
40
0.9375
40
1
40
1
40
1
40
1
41
1
10
89.4
20
-2.1425457974172
30
0
41
1
10
89.4635469716879
20
-1.7345269737275
30
0
41
1
10
89.5270939433761
20
-1.32924773795875
30
0
41
1
10
89.6224144009083
20
-0.730281182363569
30
0
41
1
10
89.6541878867522
20
-0.53210813120603
30
0
41
1
10
89.7018481155183
20
-0.23758739574788
30
0
41
1
10
89.7177348584404
20
-0.13986964386936
30
0
41
1
10
89.7495083442844
20
0.054576173486879
30
0
41
1
10
89.7653950872065
20
0.151783670210079
30
0
41
1
10
89.8448288018166
20
0.641301059643922
30
0
41
1
10
89.9083757735046
20
1.04044666800331
30
0
41
1
10
90.0354697168808
20
1.8480748882624
30
0
41
1
10
90.0990166885688
20
2.25655202547804
30
0
41
1
10
90.2261106319451
20
3.07586669759226
30
0
41
1
10
90.2896576036331
20
3.48669368434625
30
0
41
1
10
90.4167515470092
20
4.30272209900218
30
0
41
1
10
90.4802985186973
20
4.70790822265496
30
0
41
1
10
90.6073924620734
20
5.50404957503181
30
0
41
1
10
90.6709394337615
20
5.8949860585393
30
0
41
1
10
90.7980333771376
20
6.65392029068445
30
0
41
1
10
90.8615803488257
20
7.02189808280968
30
0
41
1
10
90.9886742922018
20
7.72669457341263
30
0
41
1
10
91.0522212638899
20
8.06349486199053
30
0
41
1
10
91.1793152072661
20
8.69878996187359
30
0
41
1
10
91.2428621789542
20
8.99727058482313
30
0
41
1
10
91.3699561223302
20
9.55035293918718
30
0
41
1
10
91.4335030940183
20
9.80494665206939
30
0
41
1
10
91.5605970373946
20
10.2665944706853
30
0
41
1
10
91.6241440090826
20
10.473647500779
30
0
41
1
10
91.7512379524587
20
10.8386041233468
30
0
41
1
10
91.8147849241468
20
10.9965130809095
30
0
41
1
10
91.941878867523
20
11.2635551693269
30
0
41
1
10
92.0054258392111
20
11.3726985843974
30
0
41
1
10
92.1325197825872
20
11.5443252102406
30
0
41
1
10
92.1960667542752
20
11.6068215651705
30
0
41
1
10
92.3231606976514
20
11.6886519972159
30
0
41
1
10
92.3867076693394
20
11.708
30
0
41
1
10
92.4502546410275
20
11.708
30
0
0
SPLINE
5
F0
100
AcDbEntity
8
1
62
256
6
ByLayer
370
13
48
1
60
0
100
AcDbSpline
70
4
71
3
72
84
73
80
40
0
40
0
40
0
40
0
40
0.0312500000000003
40
0.0312500000000003
40
0.0625000000000006
40
0.0625000000000006
40
0.093750000000001
40
0.093750000000001
40
0.125000000000001
40
0.125000000000001
40
0.156250000000002
40
0.156250000000002
40
0.187500000000002
40
0.187500000000002
40
0.218750000000002
40
0.218750000000002
40
0.250000000000003
40
0.250000000000003
40
0.281250000000003
40
0.281250000000003
40
0.312500000000004
40
0.312500000000004
40
0.320312500000004
40
0.320312500000004
40
0.324218750000004
40
0.324218750000004
40
0.328125000000004
40
0.343750000000004
40
0.343750000000004
40
0.375000000000004
40
0.375000000000004
40
0.406250000000004
40
0.406250000000004
40
0.437500000000004
40
0.437500000000004
40
0.468750000000003
40
0.468750000000003
40
0.500000000000003
40
0.500000000000003
40
0.531250000000003
40
0.531250000000003
40
0.562500000000003
40
0.562500000000003
40
0.593750000000003
40
0.593750000000003
40
0.625000000000003
40
0.625000000000003
40
0.640625000000003
40
0.640625000000003
40
0.648437500000003
40
0.648437500000003
40
0.656250000000003
40
0.656250000000003
40
0.687500000000003
40
0.687500000000003
40
0.718750000000003
40
0.718750000000003
40
0.750000000000003
40
0.750000000000003
40
0.781250000000003
40
0.781250000000003
40
0.812500000000003
40
0.812500000000003
40
0.843750000000003
40
0.843750000000003
40
0.875000000000003
40
0.875000000000003
40
0.906250000000003
40
0.906250000000003
40
0.937500000000003
40
0.937500000000003
40
0.953125000000003
40
0.953125000000003
40
0.960937500000003
40
0.964843750000003
40
0.964843750000003
40
0.968750000000003
40
0.968750000000003
40
1
40
1
40
1
40
1
41
1
10
91.833870041343
20
11.708
30
0
41
1
10
91.9214196919249
20
11.708
30
0
41
1
10
92.0089693425068
20
11.6712152144399
30
0
41
1
10
92.1840686436707
20
11.5128877266687
30
0
41
1
10
92.2716182942528
20
11.391276645045
30
0
41
1
10
92.4467175954167
20
11.0560176485819
30
0
41
1
10
92.5342672459986
20
10.8423146818911
30
0
41
1
10
92.7093665471626
20
10.3215553051986
30
0
41
1
10
92.7969161977445
20
10.0144764814257
30
0
41
1
10
92.9720154989084
20
9.31284596310442
30
0
41
1
10
93.0595651494904
20
8.91831726107694
30
0
41
1
10
93.2346644506544
20
8.05489451315074
30
0
41
1
10
93.3222141012363
20
7.58606747019397
30
0
41
1
10
93.4973134024003
20
6.59301112135159
30
0
41
1
10
93.5848630529822
20
6.0688760166893
30
0
41
1
10
93.7599623541461
20
4.98752616702106
30
0
41
1
10
93.847512004728
20
4.43040753280755
30
0
41
1
10
94.0226113058919
20
3.30581723917734
30
0
41
1
10
94.110160956474
20
2.73842080677642
30
0
41
1
10
94.2852602576379
20
1.61375438010762
30
0
41
1
10
94.3728099082199
20
1.05652662724191
30
0
41
1
10
94.4822469714474
20
0.37659297241126
30
0
41
1
10
94.5041343840928
20
0.241425098650495
30
0
41
1
10
94.536965503061
20
0.0400588296847104
30
0
41
1
10
94.5479092093838
20
-0.0266996421394481
30
0
41
1
10
94.5697966220292
20
-0.160882327630901
30
0
41
1
10
94.6245151536431
20
-0.497494164442571
30
0
41
1
10
94.6792336852567
20
-0.839594398809112
30
0
41
1
10
94.8105581611296
20
-1.66844083445261
30
0
41
1
10
94.8981078117116
20
-2.23154250483887
30
0
41
1
10
95.0732071128755
20
-3.36086934317791
30
0
41
1
10
95.1607567634575
20
-3.92703958678257
30
0
41
1
10
95.3358560646214
20
-5.04099849057502
30
0
41
1
10
95.4234057152033
20
-5.58870218898196
30
0
41
1
10
95.5985050163673
20
-6.64283728564024
30
0
41
1
10
95.6860546669492
20
-7.14917026086226
30
0
41
1
10
95.8611539681133
20
-8.09911428951719
30
0
41
1
10
95.9487036186952
20
-8.54263840054588
30
0
41
1
10
96.1238029198591
20
-9.34983732147688
30
0
41
1
10
96.211352570441
20
-9.71346005728722
30
0
41
1
10
96.386451871605
20
-10.3502197975698
30
0
41
1
10
96.474001522187
20
-10.623351159599
30
0
41
1
10
96.6491008233509
20
-11.0758783854673
30
0
41
1
10
96.7366504739329
20
-11.2553106596947
30
0
41
1
10
96.9117497750968
20
-11.5240837384845
30
0
41
1
10
96.9992994256787
20
-11.613486781382
30
0
41
1
10
97.1306239015516
20
-11.686763710547
30
0
41
1
10
97.1743987268426
20
-11.7010868399379
30
0
41
1
10
97.240060964779
20
-11.7085019468675
30
0
41
1
10
97.2619483774246
20
-11.7086527899194
30
0
41
1
10
97.3057232027155
20
-11.7043319294418
30
0
41
1
10
97.327610615361
20
-11.6998342638913
30
0
41
1
10
97.4370476785885
20
-11.6651930980581
30
0
41
1
10
97.5245973291704
20
-11.5984490517265
30
0
41
1
10
97.6996966303344
20
-11.3769552831865
30
0
41
1
10
97.7872462809163
20
-11.2221397938122
30
0
41
1
10
97.9623455820803
20
-10.8192105700195
30
0
41
1
10
98.0498952326623
20
-10.571051654804
30
0
41
1
10
98.2249945338261
20
-9.98266944868126
30
0
41
1
10
98.3125441844081
20
-9.64243953942
30
0
41
1
10
98.4876434855721
20
-8.87851695602851
30
0
41
1
10
98.575193136154
20
-8.45486445183468
30
0
41
1
10
98.750292437318
20
-7.53958097495331
30
0
41
1
10
98.8378420879
20
-7.0480296002014
30
0
41
1
10
99.0129413890639
20
-6.01747443587715
30
0
41
1
10
99.1004910396458
20
-5.47856858977528
30
0
41
1
10
99.2755903408097
20
-4.37611782638047
30
0
41
1
10
99.3631399913917
20
-3.81266355808773
30
0
41
1
10
99.5382392925557
20
-2.68328953800326
30
0
41
1
10
99.6257889431375
20
-2.1174336384465
30
0
41
1
10
99.7571134190105
20
-1.28116353356094
30
0
41
1
10
99.8008882443015
20
-1.00446291325866
30
0
41
1
10
99.866550482238
20
-0.593980140406188
30
0
41
1
10
99.8993816012061
20
-0.389877416185811
30
0
41
1
10
99.9322127201744
20
-0.187729703589071
30
0
41
1
10
99.95410013282
20
-0.0534242519002248
30
0
41
1
10
99.9650438391427
20
0.01334671097419
30
0
41
1
10
100.063537196047
20
0.616891080146672
30
0
41
1
10
100.151086846629
20
1.16844516693087
30
0
41
1
10
100.238636497211
20
1.72750914108897
30
0
0
SPLINE
5
F1
100
AcDbEntity
8
1
62
256
6
ByLayer
370
13
48
1
60
0
100
AcDbSpline
70
4
71
3
72
36
73
32
40
0
40
0
40
0
40
0
40
0.0625
40
0.0625
40
0.125
40
0.125
40
0.1875
40
0.1875
40
0.25
40
0.25
40
0.3125
40
0.3125
40
0.375
40
0.375
40
0.4375
40
0.4375
40
0.5
40
0.5
40
0.5625
40
0.5625
40
0.625
40
0.625
40
0.6875
40
0.6875
40
0.75
40
0.75
40
0.8125
40
0.8125
40
0.875
40
0.875
40
1
40
1
40
1
40
1
41
1
10
89.4
20
0.906215007640355
30
0
41
1
10
89.4534058487739
20
1.24160419323556
30
0
41
1
10
89.5068116975478
20
1.58123883416781
30
0
41
1
10
89.6136233950955
20
2.26523882909294
30
0
41
1
10
89.6670292438694
20
2.60960106044868
30
0
41
1
10
89.773840941417
20
3.29870818747079
30
0
41
1
10
89.8272467901909
20
3.64344816397477
30
0
41
1
10
89.9340584877386
20
4.32849823274381
30
0
41
1
10
89.9874643365124
20
4.66880176862955
30
0
41
1
10
90.0942760340602
20
5.33987490914123
30
0
41
1
10
90.147681882834
20
5.67063673290593
30
0
41
1
10
90.2544935803818
20
6.31744782510185
30
0
41
1
10
90.3078994291557
20
6.63348873284562
30
0
41
1
10
90.4147111267034
20
7.24584963456326
30
0
41
1
10
90.4681169754772
20
7.54216148807217
30
0
41
1
10
90.5749286730249
20
8.11047693104678
30
0
41
1
10
90.6283345217988
20
8.3824734340576
30
0
41
1
10
90.7351462193465
20
8.8982234605779
30
0
41
1
10
90.7885520681203
20
9.14197167829397
30
0
41
1
10
90.8953637656681
20
9.59813160643895
30
0
41
1
10
90.948769614442
20
9.81054028606036
30
0
41
1
10
91.0555813119896
20
10.2018955069028
30
0
41
1
10
91.1089871607635
20
10.3808414769585
30
0
41
1
10
91.2157988583112
20
10.7041679813043
30
0
41
1
10
91.2692047070851
20
10.8485502675954
30
0
41
1
10
91.3760164046329
20
11.1026499042263
30
0
41
1
10
91.4294222534068
20
11.212370924643
30
0
41
1
10
91.5362339509545
20
11.3979691984173
30
0
41
1
10
91.5896397997283
20
11.4738514631461
30
0
41
1
10
91.74985734605
20
11.6531464864865
30
0
41
1
10
91.8566690435977
20
11.708
30
0
41
1
10
91.9634807411453
20
11.708
30
0
0
SPLINE
5
F2
100
AcDbEntity
8
1
62
256
6
ByLayer
370
13
48
1
60
0
100
AcDbSpline
70
4
71
3
72
80
73
76
40
0
40
0
40
0
40
0
40
0.0312500000000001
40
0.0312500000000001
40
0.0625000000000002
40
0.0625000000000002
40
0.0937500000000002
40
0.0937500000000002
40
0.125
40
0.125
40
0.15625
40
0.15625
40
0.187500000000001
40
0.187500000000001
40
0.218750000000001
40
0.218750000000001
40
0.250000000000001
40
0.250000000000001
40
0.281250000000001
40
0.281250000000001
40
0.296875000000001
40
0.296875000000001
40
0.304687500000001
40
0.304687500000001
40
0.312500000000001
40
0.312500000000001
40
0.343750000000001
40
0.343750000000001
40
0.375
40
0.375
40
0.40625
40
0.40625
40
0.4375
40
0.4375
40
0.46875
40
0.46875
40
0.5
40
0.5
40
0.53125
40
0.53125
40
0.562499999999999
40
0.562499999999999
40
0.593749999999999
40
0.593749999999999
40
0.609374999999999
40
0.609374999999999
40
0.624999999999999
40
0.624999999999999
40
0.656249999999999
40
0.656249999999999
40
0.687499999999999
40
0.687499999999999
40
0.718749999999999
40
0.718749999999999
40
0.749999999999998
40
0.749999999999998
40
0.781249999999998
40
0.781249999999998
40
0.812499999999998
40
0.812499999999998
40
0.843749999999998
40
0.843749999999998
40
0.874999999999998
40
0.874999999999998
40
0.906249999999998
40
0.906249999999998
40
0.914062499999998
40
0.914062499999998
40
0.921874999999998
40
0.921874999999998
40
0.937499999999998
40
0.937499999999998
40
0.968749999999999
40
0.968749999999999
40
1
40
1
40
1
40
1
41
1
10
91.3470961414607
20
11.708
30
0
41
1
10
91.4397163534998
20
11.708
30
0
41
1
10
91.5323365655389
20
11.6668128313298
30
0
41
1
10
91.717576989617
20
11.4889287904748
30
0
41
1
10
91.8101972016561
20
11.3521417707149
30
0
41
1
10
91.9954376257342
20
10.9749569096594
30
0
41
1
10
92.0880578377733
20
10.7344900209396
30
0
41
1
10
92.2732982618514
20
10.1495456398873
30
0
41
1
10
92.3659184738905
20
9.80504819967632
30
0
41
1
10
92.5511588979687
20
9.02078277358288
30
0
41
1
10
92.6437791100076
20
8.58105969390564
30
0
41
1
10
92.8290195340858
20
7.62389013970173
30
0
41
1
10
92.9216397461249
20
7.10654577345011
30
0
41
1
10
93.1068801702031
20
6.01822799104974
30
0
41
1
10
93.1995003822421
20
5.44738401979754
30
0
41
1
10
93.3847408063203
20
4.27910357093427
30
0
41
1
10
93.4773610183594
20
3.68178608273311
30
0
41
1
10
93.6626014424374
20
2.48666613461418
30
0
41
1
10
93.7552216544766
20
1.88894401563587
30
0
41
1
10
93.8941519725352
20
1.00856830793214
30
0
41
1
10
93.9404620785547
20
0.717772221335338
30
0
41
1
10
94.0099272375838
20
0.287241198436163
30
0
41
1
10
94.0330822905938
20
0.14467182723439
30
0
41
1
10
94.0793923966132
20
-0.138341854393531
30
0
41
1
10
94.1025474496232
20
-0.280849933947053
30
0
41
1
10
94.2183227146719
20
-0.998261329331115
30
0
41
1
10
94.3109429267109
20
-1.58750158299031
30
0
41
1
10
94.496183350789
20
-2.77738279532366
30
0
41
1
10
94.5888035628282
20
-3.37796760177162
30
0
41
1
10
94.7740439869063
20
-4.56623727857817
30
0
41
1
10
94.8666641989453
20
-5.15382021630333
30
0
41
1
10
95.0519046230235
20
-6.28911581915258
30
0
41
1
10
95.1445248350625
20
-6.83669982678478
30
0
41
1
10
95.3297652591406
20
-7.86590990502847
30
0
41
1
10
95.4223854711797
20
-8.34741542914665
30
0
41
1
10
95.6076258952579
20
-9.22314642788427
30
0
41
1
10
95.7002461072969
20
-9.61729562505099
30
0
41
1
10
95.8854865313751
20
-10.3048416737924
30
0
41
1
10
95.9781067434142
20
-10.5982264572144
30
0
41
1
10
96.1633471674923
20
-11.0800013341227
30
0
41
1
10
96.2559673795313
20
-11.2684388256629
30
0
41
1
10
96.4412078036096
20
-11.5447355599117
30
0
41
1
10
96.5338280156486
20
-11.6326779961495
30
0
41
1
10
96.6727583337072
20
-11.6974178830476
30
0
41
1
10
96.7190684397268
20
-11.7078452505777
30
0
41
1
10
96.8116886517657
20
-11.7081513267163
30
0
41
1
10
96.8579987577853
20
-11.6980436667999
30
0
41
1
10
96.9969290758439
20
-11.6343002824982
30
0
41
1
10
97.089549287883
20
-11.5470722559087
30
0
41
1
10
97.2747897119611
20
-11.2722655491117
30
0
41
1
10
97.3674099240002
20
-11.0846035188846
30
0
41
1
10
97.5526503480784
20
-10.6043830195854
30
0
41
1
10
97.6452705601175
20
-10.3117767824811
30
0
41
1
10
97.8305109841955
20
-9.62572256500439
30
0
41
1
10
97.9231311962345
20
-9.23228616148609
30
0
41
1
10
98.1083716203127
20
-8.35784919726734
30
0
41
1
10
98.2009918323517
20
-7.87692448010313
30
0
41
1
10
98.3862322564299
20
-6.84869521114766
30
0
41
1
10
98.478852468469
20
-6.30151099944777
30
0
41
1
10
98.6640928925472
20
-5.16681216596271
30
0
41
1
10
98.7567131045862
20
-4.57942628294563
30
0
41
1
10
98.9419535286644
20
-3.39135508264511
30
0
41
1
10
99.0345737407034
20
-2.79077199248727
30
0
41
1
10
99.2198141647816
20
-1.60072894600705
30
0
41
1
10
99.3124343768206
20
-1.01132550454369
30
0
41
1
10
99.4282096418694
20
-0.293633773696428
30
0
41
1
10
99.4513646948792
20
-0.151034495136003
30
0
41
1
10
99.4976748008987
20
0.132042452792888
30
0
41
1
10
99.5208298539085
20
0.27445998268513
30
0
41
1
10
99.5902950129379
20
0.704822464421625
30
0
41
1
10
99.6366051189573
20
0.995521385847468
30
0
41
1
10
99.7755354370159
20
1.87565944714484
30
0
41
1
10
99.868155649055
20
2.47329535841771
30
0
41
1
10
100.053396073133
20
3.66842482399042
30
0
41
1
10
100.146016285172
20
4.26583838497899
30
0
41
1
10
100.238636497211
20
4.85017579271744
30
0
0
SPLINE
5
F3
100
AcDbEntity
8
1
62
256
6
ByLayer
370
13
48
1
60
0
100
AcDbSpline
70
4
71
3
72
22
73
18
40
0
40
0
40
0
40
0
40
0.125
40
0.125
40
0.25
40
0.25
40
0.375
40
0.375
40
0.5
40
0.5
40
0.625
40
0.625
40
0.75
40
0.75
40
0.875
40
0.875
40
1
40
1
40
1
40
1
41
1
10
89.4
20
4.02522275947393
30
0
41
1
10
89.4865294517193
20
4.57990813576822
30
0
41
1
10
89.5730589034386
20
5.12853063559854
30
0
41
1
10
89.7461178068772
20
6.19181740229979
30
0
41
1
10
89.8326472585965
20
6.70639024916122
30
0
41
1
10
90.0057061620352
20
7.68016816692904
30
0
41
1
10
90.0922356137544
20
8.13928542567552
30
0
41
1
10
90.265294517193
20
8.98409078613321
30
0
41
1
10
90.3518239689122
20
9.36971778811161
30
0
41
1
10
90.5248828723508
20
10.0551491105814
30
0
41
1
10
90.6114123240702
20
10.3549338340886
30
0
41
1
10
90.7844712275088
20
10.8632106439655
30
0
41
1
10
90.871000679228
20
11.0717252225571
30
0
41
1
10
91.0440595826666
20
11.3988601138035
30
0
41
1
10
91.1305890343859
20
11.5175328725911
30
0
41
1
10
91.3036479378245
20
11.6720705428677
30
0
41
1
10
91.3901773895439
20
11.708
30
0
41
1
10
91.4767068412631
20
11.708
30
0
0
SPLINE
5
F4
100
AcDbEntity
8
1
62
256
6
ByLayer
370
13
48
1
60
0
100
AcDbSpline
70
4
71
3
72
82
73
78
40
0
40
0
40
0
40
0
40
0.0312500000000001
40
0.0312500000000001
40
0.0625000000000001
40
0.0625000000000001
40
0.0937500000000002
40
0.0937500000000002
40
0.125
40
0.125
40
0.15625
40
0.15625
40
0.187500000000001
40
0.187500000000001
40
0.218750000000001
40
0.218750000000001
40
0.250000000000001
40
0.250000000000001
40
0.281250000000001
40
0.281250000000001
40
0.289062500000001
40
0.289062500000001
40
0.296875000000001
40
0.296875000000001
40
0.312500000000001
40
0.312500000000001
40
0.343750000000001
40
0.343750000000001
40
0.375000000000001
40
0.375000000000001
40
0.406250000000001
40
0.406250000000001
40
0.4375
40
0.4375
40
0.46875
40
0.46875
40
0.5
40
0.5
40
0.53125
40
0.53125
40
0.5625
40
0.5625
40
0.5703125
40
0.5703125
40
0.578125
40
0.578125
40
0.59375
40
0.59375
40
0.625
40
0.625
40
0.65625
40
0.65625
40
0.6875
40
0.6875
40
0.71875
40
0.71875
40
0.75
40
0.75
40
0.78125
40
0.78125
40
0.8125
40
0.8125
40
0.84375
40
0.84375
40
0.859375
40
0.859375
40
0.8671875
40
0.8671875
40
0.875
40
0.875
40
0.90625
40
0.90625
40
0.9375
40
0.9375
40
0.96875
40
0.96875
40
1
40
1
40
1
40
1
41
1
10
90.8603222415785
20
11.708
30
0
41
1
10
90.9580130150747
20
11.708
30
0
41
1
10
91.0557037885709
20
11.6621579935035
30
0
41
1
10
91.2510853355633
20
11.4635110055343
30
0
41
1
10
91.3487761090594
20
11.3105890728362
30
0
41
1
10
91.5441576560518
20
10.888902521875
30
0
41
1
10
91.6418484295478
20
10.6200533269606
30
0
41
1
10
91.8372299765402
20
9.96743583676115
30
0
41
1
10
91.9349207500364
20
9.58365478541651
30
0
41
1
10
92.1303022970288
20
8.71350289178937
30
0
41
1
10
92.2279930705249
20
8.22720895037097
30
0
41
1
10
92.4233746175172
20
7.17484078409984
30
0
41
1
10
92.5210653910135
20
6.60891412246897
30
0
41
1
10
92.7164469380058
20
5.42709286904633
30
0
41
1
10
92.8141377115019
20
4.81136774847897
30
0
41
1
10
93.0095192584944
20
3.56180321131419
30
0
41
1
10
93.1072100319906
20
2.92810273787634
30
0
41
1
10
93.3025915789829
20
1.67166435239253
30
0
41
1
10
93.4002823524791
20
1.04900391302374
30
0
41
1
10
93.5223958193493
20
0.29188084378336
30
0
41
1
10
93.5468185127233
20
0.14157822656486
30
0
41
1
10
93.5956638994714
20
-0.156977052637814
30
0
41
1
10
93.6200865928455
20
-0.307435493550372
30
0
41
1
10
93.6933546729675
20
-0.761923721799576
30
0
41
1
10
93.7422000597156
20
-1.06908062812784
30
0
41
1
10
93.8887362199599
20
-1.99908904126613
30
0
41
1
10
93.9864269934561
20
-2.63066489293922
30
0
41
1
10
94.1818085404485
20
-3.89081168285898
30
0
41
1
10
94.2794993139447
20
-4.51927189427715
30
0
41
1
10
94.474880860937
20
-5.74226412616571
30
0
41
1
10
94.5725716344332
20
-6.33663603087285
30
0
41
1
10
94.7679531814255
20
-7.45999686815168
30
0
41
1
10
94.8656439549217
20
-7.98882043625875
30
0
41
1
10
95.0610255019141
20
-8.95417338885989
30
0
41
1
10
95.1587162754103
20
-9.39058646649832
30
0
41
1
10
95.3540978224025
20
-10.1531816325152
30
0
41
1
10
95.4517885958987
20
-10.479332497389
30
0
41
1
10
95.6471701428911
20
-11.0147627165258
30
0
41
1
10
95.7448609163873
20
-11.224095483169
30
0
41
1
10
95.9402424633795
20
-11.5301745174073
30
0
41
1
10
96.0379332368758
20
-11.627027173101
30
0
41
1
10
96.160046703746
20
-11.6856458135459
30
0
41
1
10
96.18446939712
20
-11.6942627630219
30
0
41
1
10
96.2333147838681
20
-11.705532787884
30
0
41
1
10
96.2577374772422
20
-11.7081862867017
30
0
41
1
10
96.3310055573644
20
-11.7075970386059
30
0
41
1
10
96.3798509441124
20
-11.6957620268121
30
0
41
1
10
96.5263871043567
20
-11.6228526457797
30
0
41
1
10
96.6240778778528
20
-11.5241539628174
30
0
41
1
10
96.819459424845
20
-11.2142278017037
30
0
41
1
10
96.9171501983413
20
-11.0028944904445
30
0
41
1
10
97.1125317453337
20
-10.463477829952
30
0
41
1
10
97.2102225188298
20
-10.1353423193739
30
0
41
1
10
97.4056040658222
20
-9.36899052202628
30
0
41
1
10
97.5032948393184
20
-8.93080702884765
30
0
41
1
10
97.6986763863108
20
-7.96230803724339
30
0
41
1
10
97.7963671598069
20
-7.43211008380658
30
0
41
1
10
97.9917487067992
20
-6.30651679413
30
0
41
1
10
98.0894394802954
20
-5.71128720156582
30
0
41
1
10
98.2848210272878
20
-4.48713088094351
30
0
41
1
10
98.3825118007839
20
-3.85836372665938
30
0
41
1
10
98.5778933477763
20
-2.59810545636191
30
0
41
1
10
98.6755841212726
20
-1.9667239877671
30
0
41
1
10
98.8221202815168
20
-1.03730397190142
30
0
41
1
10
98.8709656682649
20
-0.730392330438121
30
0
41
1
10
98.944233748387
20
-0.276333939787747
30
0
41
1
10
98.968656441761
20
-0.12625409736674
30
0
41
1
10
99.0175018285091
20
0.172463122715868
30
0
41
1
10
99.0419245218831
20
0.322997853615249
30
0
41
1
10
99.1640379887534
20
1.08083376563269
30
0
41
1
10
99.2617287622496
20
1.70389806541385
30
0
41
1
10
99.4571103092419
20
2.96069139291512
30
0
41
1
10
99.5548010827382
20
3.59434179886
30
0
41
1
10
99.7501826297305
20
4.84327142374644
30
0
41
1
10
99.8478734032266
20
5.45841082854585
30
0
41
1
10
100.043254950219
20
6.63851601636554
30
0
41
1
10
100.140945723715
20
7.20331222956534
30
0
41
1
10
100.238636497211
20
7.72813284470038
30
0
0
SPLINE
5
F5
100
AcDbEntity
8
1
62
256
6
ByLayer
370
13
48
1
60
0
100
AcDbSpline
70
4
71
3
72
22
73
18
40
0
40
0
40
0
40
0
40
0.125
40
0.125
40
0.25
40
0.25
40
0.375
40
0.375
40
0.5
40
0.5
40
0.625
40
0.625
40
0.75
40
0.75
40
0.875
40
0.875
40
1
40
1
40
1
40
1
41
1
10
89.4
20
7.00968308663445
30
0
41
1
10
89.4662472058908
20
7.38760006307626
30
0
41
1
10
89.5324944117817
20
7.75002802581815
30
0
41
1
10
89.6649888235635
20
8.43539840631098
30
0
41
1
10
89.7312360294543
20
8.75832151454796
30
0
41
1
10
89.8637304412361
20
9.35782576507205
30
0
41
1
10
89.929977647127
20
9.63439494923333
30
0
41
1
10
90.0624720589087
20
10.1365128421662
30
0
41
1
10
90.1287192647996
20
10.3620584096807
30
0
41
1
10
90.2612136765813
20
10.7598589953927
30
0
41
1
10
90.3274608824722
20
10.9321193686236
30
0
41
1
10
90.4599552942539
20
11.2234518122622
30
0
41
1
10
90.5262025001448
20
11.3425358966707
30
0
41
1
10
90.6586969119265
20
11.5297214707452
30
0
41
1
10
90.7249441178174
20
11.5978389377576
30
0
41
1
10
90.8574385295991
20
11.6869696303729
30
0
41
1
10
90.92368573549
20
11.708
30
0
41
1
10
90.9899329413809
20
11.708
30
0
0
SPLINE
5
F6
100
AcDbEntity
8
1
62
256
6
ByLayer
370
13
48
1
60
0
100
AcDbSpline
70
4
71
3
72
125
73
121
40
0
40
0
40
0
40
0
40
0.0312499999999986
40
0.0312499999999986
40
0.0624999999999971
40
0.0624999999999971
40
0.0781249999999965
40
0.0781249999999965
40
0.0937499999999958
40
0.0937499999999958
40
0.109374999999995
40
0.109374999999995
40
0.124999999999995
40
0.124999999999995
40
0.140624999999994
40
0.140624999999994
40
0.156249999999993
40
0.156249999999993
40
0.171874999999993
40
0.171874999999993
40
0.187499999999992
40
0.187499999999992
40
0.203124999999991
40
0.203124999999991
40
0.218749999999991
40
0.218749999999991
40
0.24999999999999
40
0.24999999999999
40
0.265624999999989
40
0.265624999999989
40
0.273437499999989
40
0.273437499999989
40
0.277343749999989
40
0.277343749999989
40
0.281249999999989
40
0.281249999999989
40
0.312499999999991
40
0.312499999999991
40
0.343749999999992
40
0.343749999999992
40
0.359374999999993
40
0.359374999999993
40
0.374999999999994
40
0.374999999999994
40
0.390624999999994
40
0.390624999999994
40
0.406249999999995
40
0.406249999999995
40
0.421874999999996
40
0.421874999999996
40
0.437499999999996
40
0.437499999999996
40
0.453124999999997
40
0.453124999999997
40
0.468749999999997
40
0.468749999999997
40
0.484374999999998
40
0.484374999999998
40
0.499999999999999
40
0.499999999999999
40
0.53125
40
0.53125
40
0.546875000000001
40
0.546875000000001
40
0.55078125
40
0.55078125
40
0.5546875
40
0.562500000000001
40
0.562500000000001
40
0.593750000000001
40
0.593750000000001
40
0.609375000000001
40
0.609375000000001
40
0.625000000000001
40
0.625000000000001
40
0.640625000000001
40
0.640625000000001
40
0.656250000000002
40
0.656250000000002
40
0.671875000000002
40
0.671875000000002
40
0.687500000000002
40
0.687500000000002
40
0.703125000000002
40
0.703125000000002
40
0.718750000000002
40
0.718750000000002
40
0.734375000000002
40
0.734375000000002
40
0.750000000000003
40
0.750000000000003
40
0.765625000000003
40
0.765625000000003
40
0.781250000000003
40
0.781250000000003
40
0.812500000000003
40
0.812500000000003
40
0.820312500000003
40
0.820312500000003
40
0.828125000000003
40
0.828125000000003
40
0.843750000000003
40
0.843750000000003
40
0.875000000000002
40
0.875000000000002
40
0.890625000000002
40
0.890625000000002
40
0.906250000000002
40
0.906250000000002
40
0.921875000000001
40
0.921875000000001
40
0.937500000000001
40
0.937500000000001
40
0.953125000000001
40
0.953125000000001
40
0.968750000000001
40
0.968750000000001
40
0.984375
40
0.984375
40
1
40
1
40
1
40
1
41
1
10
90.3735483416963
20
11.708
30
0
41
1
10
90.4763096766496
20
11.708
30
0
41
1
10
90.5790710116029
20
11.6572498067634
30
0
41
1
10
90.7845936815094
20
11.4366246440432
30
0
41
1
10
90.8873550164627
20
11.2666001463178
30
0
41
1
10
91.0414970188926
20
10.9150312331882
30
0
41
1
10
91.0928776863693
20
10.7818330068461
30
0
41
1
10
91.1956390213226
20
10.4833650406327
30
0
41
1
10
91.2470196887992
20
10.3180935243907
30
0
41
1
10
91.3497810237524
20
9.95626787373715
30
0
41
1
10
91.401161691229
20
9.75971375494939
30
0
41
1
10
91.5039230261823
20
9.33698907640138
30
0
41
1
10
91.555303693659
20
9.11082048055803
30
0
41
1
10
91.6580650286123
20
8.63138101525334
30
0
41
1
10
91.7094456960889
20
8.37811398351855
30
0
41
1
10
91.8122070310422
20
7.8477522528907
30
0
41
1
10
91.8635876985188
20
7.57066295556703
30
0
41
1
10
91.9663490334722
20
6.99655172218658
30
0
41
1
10
92.0177297009487
20
6.69953624746577
30
0
41
1
10
92.1204910359021
20
6.08990804146291
30
0
41
1
10
92.1718717033787
20
5.77730221249666
30
0
41
1
10
92.274633038332
20
5.1410660962174
30
0
41
1
10
92.3260137058086
20
4.81744251739056
30
0
41
1
10
92.4287750407619
20
4.16377450462866
30
0
41
1
10
92.4801557082386
20
3.83373602919656
30
0
41
1
10
92.6342977106685
20
2.84065283460089
30
0
41
1
10
92.7370590456218
20
2.17487880746845
30
0
41
1
10
92.8912010480518
20
1.1939865752413
30
0
41
1
10
92.9425817155283
20
0.869929439161439
30
0
41
1
10
93.0196527167433
20
0.39055671956757
30
0
41
1
10
93.0453430504816
20
0.231880331283946
30
0
41
1
10
93.0838785510891
20
-0.0042080542568783
30
0
41
1
10
93.0967237179582
20
-0.0826069159111
30
0
41
1
10
93.1224140516965
20
-0.240465911649011
30
0
41
1
10
93.1352592185656
20
-0.319708693249083
30
0
41
1
10
93.2508657203881
20
-1.03552379051749
30
0
41
1
10
93.3536270553415
20
-1.69086379219607
30
0
41
1
10
93.5591497252481
20
-3.01310879205789
30
0
41
1
10
93.6619110602013
20
-3.67991164486824
30
0
41
1
10
93.8160530626312
20
-4.66329033444839
30
0
41
1
10
93.8674337301078
20
-4.98823131417171
30
0
41
1
10
93.970195065061
20
-5.62783238428685
30
0
41
1
10
94.0215757325377
20
-5.94248585083298
30
0
41
1
10
94.124337067491
20
-6.55692123881343
30
0
41
1
10
94.1757177349676
20
-6.85669624731386
30
0
41
1
10
94.278479069921
20
-7.43698733711378
30
0
41
1
10
94.3298597373977
20
-7.71749684465416
30
0
41
1
10
94.4326210723509
20
-8.25527762867728
30
0
41
1
10
94.4840017398275
20
-8.51254329863175
30
0
41
1
10
94.5867630747808
20
-9.00045029202454
30
0
41
1
10
94.6381437422575
20
-9.23108750439954
30
0
41
1
10
94.7409050772108
20
-9.66309234246532
30
0
41
1
10
94.7922857446874
20
-9.86445769707356
30
0
41
1
10
94.8950470796407
20
-10.2361113261151
30
0
41
1
10
94.9464277471173
20
-10.4063992820048
30
0
41
1
10
95.0491890820706
20
-10.7149674197492
30
0
41
1
10
95.1005697495472
20
-10.8532491136177
30
0
41
1
10
95.2033310845005
20
-11.097732243434
30
0
41
1
10
95.2547117519771
20
-11.2039367057373
30
0
41
1
10
95.408853754407
20
-11.4755040953306
30
0
41
1
10
95.5116150893603
20
-11.5935601595275
30
0
41
1
10
95.6657570917903
20
-11.686167259114
30
0
41
1
10
95.717137759267
20
-11.7030285824574
30
0
41
1
10
95.7813635936128
20
-11.7080549890461
30
0
41
1
10
95.7942087604818
20
-11.7082619185184
30
0
41
1
10
95.8198990942201
20
-11.7070941906654
30
0
41
1
10
95.8584345948276
20
-11.7029531316314
30
0
41
1
10
95.8969700954352
20
-11.6914677639332
30
0
41
1
10
96.0254217641268
20
-11.6361249407014
30
0
41
1
10
96.12818309908
20
-11.5369635009212
30
0
41
1
10
96.28232510151
20
-11.2948937751329
30
0
41
1
10
96.3337057689866
20
-11.1987086728366
30
0
41
1
10
96.4364671039399
20
-10.9744105891843
30
0
41
1
10
96.4878477714165
20
-10.846294190992
30
0
41
1
10
96.5906091063698
20
-10.5579444190993
30
0
41
1
10
96.6419897738464
20
-10.3977090133329
30
0
41
1
10
96.7447511087998
20
-10.0457726889926
30
0
41
1
10
96.7961317762764
20
-9.85407148712005
30
0
41
1
10
96.8988931112297
20
-9.44073160870215
30
0
41
1
10
96.9502737787062
20
-9.2190945870606
30
0
41
1
10
97.0530351136595
20
-8.7482676472155
30
0
41
1
10
97.1044157811361
20
-8.49908128558155
30
0
41
1
10
97.2071771160894
20
-7.97631823486785
30
0
41
1
10
97.2585577835662
20
-7.70274672965499
30
0
41
1
10
97.3613191185195
20
-7.13502155072788
30
0
41
1
10
97.4126997859961
20
-6.84087421028042
30
0
41
1
10
97.5154611209493
20
-6.23627631820793
30
0
41
1
10
97.5668417884259
20
-5.92583264224382
30
0
41
1
10
97.6696031233792
20
-5.29319124878569
30
0
41
1
10
97.7209837908559
20
-4.97100031039591
30
0
41
1
10
97.8237451258092
20
-4.3194764726683
30
0
41
1
10
97.8751257932858
20
-3.99014968180623
30
0
41
1
10
97.9778871282392
20
-3.32883367537397
30
0
41
1
10
98.0292677957158
20
-2.99684946368808
30
0
41
1
10
98.1834097981456
20
-2.00317134374717
30
0
41
1
10
98.2861711330989
20
-1.34402258752337
30
0
41
1
10
98.4146228017905
20
-0.541641817775627
30
0
41
1
10
98.4403131355289
20
-0.382222886470174
30
0
41
1
10
98.4916938030054
20
-0.0658499793692897
30
0
41
1
10
98.5173841367439
20
0.0905248263080409
30
0
41
1
10
98.5944551379588
20
0.565468694937948
30
0
41
1
10
98.6458358054355
20
0.887010642040281
30
0
41
1
10
98.7999778078654
20
1.8619341647487
30
0
41
1
10
98.9027391428186
20
2.52584794358472
30
0
41
1
10
99.0568811452486
20
3.52018992006134
30
0
41
1
10
99.1082618127252
20
3.85131937245734
30
0
41
1
10
99.2110231476785
20
4.50859793608146
30
0
41
1
10
99.2624038151552
20
4.83474141873552
30
0
41
1
10
99.3651651501084
20
5.47747756063688
30
0
41
1
10
99.4165458175851
20
5.79406369419902
30
0
41
1
10
99.5193071525384
20
6.41308139547957
30
0
41
1
10
99.5706878200151
20
6.71550605551386
30
0
41
1
10
99.6734491549682
20
7.30176745959332
30
0
41
1
10
99.7248298224449
20
7.5855975333356
30
0
41
1
10
99.8275911573983
20
8.13061296052427
30
0
41
1
10
99.8789718248748
20
8.39179251583928
30
0
41
1
10
99.9817331598281
20
8.88801612208269
30
0
41
1
10
100.033113827305
20
9.12305579730764
30
0
41
1
10
100.135875162258
20
9.56422950947496
30
0
41
1
10
100.187255829735
20
9.77036097098204
30
0
41
1
10
100.238636497211
20
9.96106764369324
30
0
0
SPLINE
5
F7
100
AcDbEntity
8
1
62
256
6
ByLayer
370
13
48
1
60
0
100
AcDbSpline
70
4
71
3
72
14
73
10
40
0
40
0
40
0
40
0
40
0.25
40
0.25
40
0.5
40
0.5
40
0.75
40
0.75
40
1
40
1
40
1
40
1
41
1
10
89.4
20
9.44785977144539
30
0
41
1
10
89.4919299201248
20
9.8342676628215
30
0
41
1
10
89.5838598402498
20
10.1735589843113
30
0
41
1
10
89.7677196804996
20
10.7495576768186
30
0
41
1
10
89.8596496006244
20
10.986285568405
30
0
41
1
10
90.0435094408741
20
11.35761123502
30
0
41
1
10
90.1354393609991
20
11.4922760546053
30
0
41
1
10
90.3192992012489
20
11.6674269851039
30
0
41
1
10
90.4112291213737
20
11.708
30
0
41
1
10
90.5031590414986
20
11.708
30
0
0
SPLINE
5
F8
100
AcDbEntity
8
1
62
256
6
ByLayer
370
13
48
1
60
0
100
AcDbSpline
70
4
71
3
72
140
73
136
40
0
40
0
40
0
40
0
40
0.015625
40
0.015625
40
0.03125
40
0.03125
40
0.046875
40
0.046875
40
0.0625
40
0.0625
40
0.078125
40
0.078125
40
0.09375
40
0.09375
40
0.109375
40
0.109375
40
0.125
40
0.125
40
0.140625
40
0.140625
40
0.15625
40
0.15625
40
0.171875
40
0.171875
40
0.1875
40
0.1875
40
0.203125
40
0.203125
40
0.21875
40
0.21875
40
0.234375
40
0.234375
40
0.25
40
0.25
40
0.2578125
40
0.2578125
40
0.265625
40
0.265625
40
0.28125
40
0.28125
40
0.296875
40
0.296875
40
0.3125
40
0.3125
40
0.328125
40
0.328125
40
0.34375
40
0.34375
40
0.359375
40
0.359375
40
0.375
40
0.375
40
0.390625
40
0.390625
40
0.40625
40
0.40625
40
0.421875
40
0.421875
40
0.4375
40
0.4375
40
0.453125
40
0.453125
40
0.46875
40
0.46875
40
0.484375
40
0.484375
40
0.5
40
0.5
40
0.515625
40
0.515625
40
0.5234375
40
0.5234375
40
0.53125
40
0.53125
40
0.546875
40
0.546875
40
0.5625
40
0.5625
40
0.578125
40
0.578125
40
0.59375
40
0.59375
40
0.609375
40
0.609375
40
0.625
40
0.625
40
0.640625
40
0.640625
40
0.65625
40
0.65625
40
0.671875
40
0.671875
40
0.6875
40
0.6875
40
0.703125
40
0.703125
40
0.71875
40
0.71875
40
0.734375
40
0.734375
40
0.75
40
0.75
40
0.765625
40
0.765625
40
0.78125
40
0.78125
40
0.7890625
40
0.7890625
40
0.796875
40
0.796875
40
0.8125
40
0.8125
40
0.828125
40
0.828125
40
0.84375
40
0.84375
40
0.859375
40
0.859375
40
0.875
40
0.875
40
0.890625
40
0.890625
40
0.90625
40
0.90625
40
0.921875
40
0.921875
40
0.9375
40
0.9375
40
0.953125
40
0.953125
40
0.96875
40
0.96875
40
0.984375
40
0.984375
40
1
40
1
40
1
40
1
41
1
10
89.8867744418141
20
11.708
30
0
41
1
10
89.9406903900192
20
11.708
30
0
41
1
10
89.9946063382245
20
11.694078818271
30
0
41
1
10
90.1024382346347
20
11.6356471561658
30
0
41
1
10
90.15635418284
20
11.5911305626003
30
0
41
1
10
90.2641860792504
20
11.4692170823289
30
0
41
1
10
90.3181020274557
20
11.3918142090942
30
0
41
1
10
90.425933923866
20
11.2024882224417
30
0
41
1
10
90.4798498720711
20
11.0905598853761
30
0
41
1
10
90.5876817684815
20
10.8313647999209
30
0
41
1
10
90.6415977166869
20
10.684094269874
30
0
41
1
10
90.7494296130972
20
10.3543561293391
30
0
41
1
10
90.8033455613024
20
10.1718867905362
30
0
41
1
10
90.9111774577128
20
9.77293677645898
30
0
41
1
10
90.965093405918
20
9.556456847291
30
0
41
1
10
91.0729253023283
20
9.09173194378056
30
0
41
1
10
91.1268412505336
20
8.84349031695757
30
0
41
1
10
91.2346731469439
20
8.31848762344109
30
0
41
1
10
91.2885890951492
20
8.04173228503132
30
0
41
1
10
91.3964209915596
20
7.46380974540048
30
0
41
1
10
91.4503369397647
20
7.16265010240951
30
0
41
1
10
91.5581688361751
20
6.54068676491761
30
0
41
1
10
91.6120847843803
20
6.21989166669653
30
0
41
1
10
91.7199166807907
20
5.5638398818173
30
0
41
1
10
91.7738326289958
20
5.22859193571549
30
0
41
1
10
91.8816645254062
20
4.54896800210645
30
0
41
1
10
91.9355804736115
20
4.20460005665501
30
0
41
1
10
92.0434123700218
20
3.51196583989011
30
0
41
1
10
92.097328318227
20
3.16370624865678
30
0
41
1
10
92.2051602146374
20
2.46819141602046
30
0
41
1
10
92.2590761628426
20
2.12094108519619
30
0
41
1
10
92.366908059253
20
1.43184521543967
30
0
41
1
10
92.4208240074581
20
1.09000268219302
30
0
41
1
10
92.501697929766
20
0.584126861968059
30
0
41
1
10
92.5286559038685
20
0.416644463260326
30
0
41
1
10
92.5825718520738
20
0.0843737225045516
30
0
41
1
10
92.6095298261763
20
-0.0796822612447556
30
0
41
1
10
92.6904037484841
20
-0.578011926773655
30
0
41
1
10
92.7443196966894
20
-0.91564851078013
30
0
41
1
10
92.8521515930998
20
-1.59832093721417
30
0
41
1
10
92.9060675413049
20
-1.94335470938088
30
0
41
1
10
93.0138994377153
20
-2.63672713997639
30
0
41
1
10
93.0678153859205
20
-2.98506184851814
30
0
41
1
10
93.1756472823311
20
-3.68037224112834
30
0
41
1
10
93.2295632305361
20
-4.02734210467199
30
0
41
1
10
93.3373951269464
20
-4.71483618630285
30
0
41
1
10
93.3913110751516
20
-5.05535298180476
30
0
41
1
10
93.4991429715621
20
-5.7246315651085
30
0
41
1
10
93.5530589197673
20
-6.05338486832153
30
0
41
1
10
93.6608908161777
20
-6.6938453379334
30
0
41
1
10
93.7148067643828
20
-7.00554372325138
30
0
41
1
10
93.8226386607932
20
-7.60688361700852
30
0
41
1
10
93.8765546089984
20
-7.89651693429468
30
0
41
1
10
93.9843865054088
20
-8.44925443997394
30
0
41
1
10
94.0383024536141
20
-8.71235188966071
30
0
41
1
10
94.1461343500245
20
-9.20831111505197
30
0
41
1
10
94.2000502982295
20
-9.44116829200635
30
0
41
1
10
94.3078821946399
20
-9.87387864657063
30
0
41
1
10
94.3617981428451
20
-10.0737297596154
30
0
41
1
10
94.4696300392556
20
-10.4386990497581
30
0
41
1
10
94.5235459874607
20
-10.6038177424272
30
0
41
1
10
94.631377883871
20
-10.8986557222565
30
0
41
1
10
94.6852938320762
20
-11.0283778219846
30
0
41
1
10
94.7931257284868
20
-11.2527673024384
30
0
41
1
10
94.8470416766919
20
-11.34743926249
30
0
41
1
10
94.9548735731022
20
-11.5029711744199
30
0
41
1
10
95.0087895213076
20
-11.5638368122671
30
0
41
1
10
95.1166214177179
20
-11.653740192202
30
0
41
1
10
95.1705373659231
20
-11.6827840568986
30
0
41
1
10
95.2514112882309
20
-11.7043882882173
30
0
41
1
10
95.2783692623335
20
-11.7079332395291
30
0
41
1
10
95.3322852105387
20
-11.7080648915392
30
0
41
1
10
95.3592431846413
20
-11.7046549833212
30
0
41
1
10
95.4401171069491
20
-11.6834657570857
30
0
41
1
10
95.4940330551542
20
-11.6547116555493
30
0
41
1
10
95.6018649515646
20
-11.5654095589044
30
0
41
1
10
95.6557808997698
20
-11.5048554400377
30
0
41
1
10
95.7636127961802
20
-11.3499621560422
30
0
41
1
10
95.8175287443854
20
-11.2556172977425
30
0
41
1
10
95.9253606407958
20
-11.0318898198164
30
0
41
1
10
95.979276589001
20
-10.9025026071899
30
0
41
1
10
96.0871084854114
20
-10.6083330981136
30
0
41
1
10
96.1410244336166
20
-10.4435479695854
30
0
41
1
10
96.2488563300269
20
-10.0792345916781
30
0
41
1
10
96.3027722782322
20
-9.87970580318961
30
0
41
1
10
96.4106041746425
20
-9.44761881288457
30
0
41
1
10
96.4645201228477
20
-9.21506265087095
30
0
41
1
10
96.5723520192581
20
-8.71967468172807
30
0
41
1
10
96.6262679674633
20
-8.45684745068195
30
0
41
1
10
96.7340998638737
20
-7.90461142447833
30
0
41
1
10
96.7880158120788
20
-7.61520935060977
30
0
41
1
10
96.8958477084892
20
-7.01428671937757
30
0
41
1
10
96.9497636566945
20
-6.70277434330129
30
0
41
1
10
97.0575955531049
20
-6.0626367361489
30
0
41
1
10
97.11151150131
20
-5.73402028480939
30
0
41
1
10
97.2193433977205
20
-5.06496482283154
30
0
41
1
10
97.2732593459257
20
-4.72453430346627
30
0
41
1
10
97.3810912423361
20
-4.03716318724446
30
0
41
1
10
97.4350071905411
20
-3.69023002596776
30
0
41
1
10
97.5428390869516
20
-2.99494656569544
30
0
41
1
10
97.5967550351568
20
-2.64660210408221
30
0
41
1
10
97.7045869315672
20
-1.95316847118281
30
0
41
1
10
97.7585028797724
20
-1.6080832679078
30
0
41
1
10
97.8663347761827
20
-0.925272185754977
30
0
41
1
10
97.920250724388
20
-0.587548394276524
30
0
41
1
10
98.0011246466958
20
-0.0890659414513664
30
0
41
1
10
98.0280826207983
20
0.0749915586181089
30
0
41
1
10
98.0819985690035
20
0.407160302699055
30
0
41
1
10
98.1089565431062
20
0.574595359330573
30
0
41
1
10
98.1898304654139
20
1.08034134789338
30
0
41
1
10
98.2437464136191
20
1.42211360590108
30
0
41
1
10
98.3515783100295
20
2.11110771273852
30
0
41
1
10
98.4054942582347
20
2.4583265737547
30
0
41
1
10
98.5133261546451
20
3.15382266773747
30
0
41
1
10
98.5672421028503
20
3.50209500793486
30
0
41
1
10
98.6750739992607
20
4.19480294577764
30
0
41
1
10
98.7289899474658
20
4.53923187861582
30
0
41
1
10
98.8368218438762
20
5.21902813486886
30
0
41
1
10
98.8907377920814
20
5.55438742637119
30
0
41
1
10
98.9985696884918
20
6.21071208595305
30
0
41
1
10
99.052485636697
20
6.53166871633204
30
0
41
1
10
99.1603175331074
20
7.15400264669626
30
0
41
1
10
99.2142334813127
20
7.45537134480898
30
0
41
1
10
99.3220653777231
20
8.03375441425561
30
0
41
1
10
99.3759813259283
20
8.31076121354187
30
0
41
1
10
99.4838132223387
20
8.83630197923347
30
0
41
1
10
99.5377291705438
20
9.08483019698235
30
0
41
1
10
99.6455610669541
20
9.55015452413556
30
0
41
1
10
99.6994770151593
20
9.76694726189413
30
0
41
1
10
99.8073089115699
20
10.1665392660843
30
0
41
1
10
99.861224859775
20
10.3493377618566
30
0
41
1
10
99.9690567561854
20
10.6797405035059
30
0
41
1
10
100.022972704391
20
10.8273464558585
30
0
41
1
10
100.130804600801
20
11.0872090780927
30
0
41
1
10
100.184720549006
20
11.1994695128585
30
0
41
1
10
100.238636497211
20
11.2944586915471
30
0
0
SPLINE
5
F9
100
AcDbEntity
8
1
62
256
6
ByLayer
370
13
48
1
60
0
100
AcDbSpline
70
4
71
3
72
8
73
4
40
0
40
0
40
0
40
0
40
1
40
1
40
1
40
1
41
1
10
100.109026339341
20
11.708
30
0
41
1
10
100.152229725298
20
11.708
30
0
41
1
10
100.195433111254
20
11.69906492445
30
0
41
1
10
100.238636497211
20
11.6804782793014
30
0
0
SPLINE
5
FA
100
AcDbEntity
8
1
62
256
6
ByLayer
370
13
48
1
60
0
100
AcDbSpline
70
4
71
3
72
10
73
6
40
0
40
0
40
0
40
0
40
0.5
40
0.5
40
1
40
1
40
1
40
1
41
1
10
89.4
20
11.0326378911923
30
0
41
1
10
89.502730856936
20
11.2668718670799
30
0
41
1
10
89.605461713872
20
11.436790657874
30
0
41
1
10
89.8109234277442
20
11.6572800675026
30
0
41
1
10
89.9136542846803
20
11.708
30
0
41
1
10
90.0163851416164
20
11.708
30
0
0
SPLINE
5
FB
100
AcDbEntity
8
1
62
256
6
ByLayer
370
13
48
1
60
0
100
AcDbSpline
70
4
71
3
72
134
73
130
40
0
40
0
40
0
40
0
40
0.015625
40
0.015625
40
0.0312500000000001
40
0.0312500000000001
40
0.0468750000000001
40
0.0468750000000001
40
0.0625000000000002
40
0.0625000000000002
40
0.0781250000000002
40
0.0781250000000002
40
0.0937500000000003
40
0.0937500000000003
40
0.109375
40
0.109375
40
0.125
40
0.125
40
0.140625
40
0.140625
40
0.15625
40
0.15625
40
0.171875
40
0.171875
40
0.1875
40
0.1875
40
0.203125
40
0.203125
40
0.21875
40
0.21875
40
0.234375
40
0.234375
40
0.25
40
0.25
40
0.265625
40
0.265625
40
0.28125
40
0.28125
40
0.296875
40
0.296875
40
0.3125
40
0.3125
40
0.328125
40
0.328125
40
0.34375
40
0.34375
40
0.359375
40
0.359375
40
0.375
40
0.375
40
0.390625
40
0.390625
40
0.40625
40
0.40625
40
0.421875
40
0.421875
40
0.4375
40
0.4375
40
0.453125
40
0.453125
40
0.46875
40
0.46875
40
0.484375
40
0.484375
40
0.5
40
0.5
40
0.515625
40
0.515625
40
0.53125
40
0.53125
40
0.546875
40
0.546875
40
0.5625
40
0.5625
40
0.578125
40
0.578125
40
0.59375
40
0.59375
40
0.609375
40
0.609375
40
0.625
40
0.625
40
0.640625
40
0.640625
40
0.65625
40
0.65625
40
0.671875
40
0.671875
40
0.687499999999999
40
0.687499999999999
40
0.703124999999999
40
0.703124999999999
40
0.718749999999999
40
0.718749999999999
40
0.734374999999999
40
0.734374999999999
40
0.749999999999999
40
0.749999999999999
40
0.765624999999999
40
0.765624999999999
40
0.781249999999999
40
0.781249999999999
40
0.796874999999999
40
0.796874999999999
40
0.8125
40
0.8125
40
0.828125
40
0.828125
40
0.84375
40
0.84375
40
0.859375
40
0.859375
40
0.875
40
0.875
40
0.890625
40
0.890625
40
0.90625
40
0.90625
40
0.921875
40
0.921875
40
0.9375
40
0.9375
40
0.953125
40
0.953125
40
0.96875
40
0.96875
40
0.984375
40
0.984375
40
1
40
1
40
1
40
1
41
1
10
89.4000005419318
20
11.708
30
0
41
1
10
89.4564517708657
20
11.708
30
0
41
1
10
89.5129029997994
20
11.6927370617156
30
0
41
1
10
89.6258054576668
20
11.6285430879926
30
0
41
1
10
89.6822566866006
20
11.5796043549358
30
0
41
1
10
89.795159144468
20
11.4454741921457
30
0
41
1
10
89.8516103734017
20
11.3602752878346
30
0
41
1
10
89.9645128312693
20
11.1518428108675
30
0
41
1
10
90.020964060203
20
11.0286028738329
30
0
41
1
10
90.1338665180705
20
10.7433201550146
30
0
41
1
10
90.1903177470042
20
10.5812730506301
30
0
41
1
10
90.3032202048717
20
10.218785525161
30
0
41
1
10
90.3596714338056
20
10.0183436277792
30
0
41
1
10
90.472573891673
20
9.58074365675679
30
0
41
1
10
90.5290251206068
20
9.34358744785709
30
0
41
1
10
90.6419275784742
20
8.83549932588801
30
0
41
1
10
90.698378807408
20
8.56457266141533
30
0
41
1
10
90.8112812652754
20
7.99304041268761
30
0
41
1
10
90.8677324942092
20
7.69244299956978
30
0
41
1
10
90.9806349520767
20
7.06661877305734
30
0
41
1
10
91.0370861810105
20
6.74140215135282
30
0
41
1
10
91.1499886388781
20
6.07206243792331
30
0
41
1
10
91.2064398678117
20
5.72795038349153
30
0
41
1
10
91.3193423256791
20
5.02689296425263
30
0
41
1
10
91.375793554613
20
4.66995825980499
30
0
41
1
10
91.4886960124805
20
3.94934875639299
30
0
41
1
10
91.5451472414142
20
3.5856831898916
30
0
41
1
10
91.6580496992817
20
2.857422989035
30
0
41
1
10
91.7145009282154
20
2.49283543638268
30
0
41
1
10
91.827403386083
20
1.76801292102743
30
0
41
1
10
91.8838546150167
20
1.40778255865939
30
0
41
1
10
91.9967570728843
20
0.696250560100282
30
0
41
1
10
92.053208301818
20
0.344951078825289
30
0
41
1
10
92.1661107596855
20
-0.344949423064065
30
0
41
1
10
92.2225619886192
20
-0.696248866606339
30
0
41
1
10
92.3354644464866
20
-1.40778083679973
30
0
41
1
10
92.3919156754205
20
-1.7680111883318
30
0
41
1
10
92.5048181332881
20
-2.49283368993017
30
0
41
1
10
92.5612693622218
20
-2.8574212396656
30
0
41
1
10
92.6741718200893
20
-3.58568144361195
30
0
41
1
10
92.730623049023
20
-3.94934701612374
30
0
41
1
10
92.8435255068904
20
-4.66995654114845
30
0
41
1
10
92.8999767358242
20
-5.0268912612014
30
0
41
1
10
93.0128791936917
20
-5.72794872146699
30
0
41
1
10
93.0693304226254
20
-6.07206080132164
30
0
41
1
10
93.1822328804929
20
-6.74140057512364
30
0
41
1
10
93.2386841094267
20
-7.0666172317774
30
0
41
1
10
93.3515865672941
20
-7.69244153689317
30
0
41
1
10
93.4080377962279
20
-7.99303899366276
30
0
41
1
10
93.5209402540954
20
-8.56457133708506
30
0
41
1
10
93.5773914830291
20
-8.83549805259645
30
0
41
1
10
93.6902939408965
20
-9.3435862823253
30
0
41
1
10
93.7467451698303
20
-9.58074254794087
30
0
41
1
10
93.8596476276979
20
-10.0183426361149
30
0
41
1
10
93.9160988566316
20
-10.218784593927
30
0
41
1
10
94.0290013144992
20
-10.5812722419237
30
0
41
1
10
94.0854525434329
20
-10.7433194084006
30
0
41
1
10
94.1983550013003
20
-11.0286022510896
30
0
41
1
10
94.2548062302341
20
-11.1518422498984
30
0
41
1
10
94.3677086881016
20
-11.3602748483275
30
0
41
1
10
94.4241599170354
20
-11.4454738123238
30
0
41
1
10
94.5370623749029
20
-11.5796040909327
30
0
41
1
10
94.5935136038366
20
-11.6285428801221
30
0
41
1
10
94.7064160617041
20
-11.6927369614548
30
0
41
1
10
94.7628672906379
20
-11.7079999512166
30
0
41
1
10
94.8757697485054
20
-11.7080000487832
30
0
41
1
10
94.9322209774391
20
-11.6927371619762
30
0
41
1
10
95.0451234353066
20
-11.6285432958629
30
0
41
1
10
95.1015746642403
20
-11.5796046189387
30
0
41
1
10
95.2144771221078
20
-11.4454745719674
30
0
41
1
10
95.2709283510416
20
-11.3602757273415
30
0
41
1
10
95.3838308089091
20
-11.1518433718363
30
0
41
1
10
95.4402820378428
20
-11.028603496576
30
0
41
1
10
95.5531844957103
20
-10.7433209016283
30
0
41
1
10
95.609635724644
20
-10.5812738593362
30
0
41
1
10
95.7225381825115
20
-10.2187864563948
30
0
41
1
10
95.7789894114454
20
-10.0183446194432
30
0
41
1
10
95.8918918693128
20
-9.5807447655724
30
0
41
1
10
95.9483430982465
20
-9.34358861338859
30
0
41
1
10
96.0612455561139
20
-8.83550059917928
30
0
41
1
10
96.1176967850478
20
-8.56457398574537
30
0
41
1
10
96.2305992429153
20
-7.99304183171222
30
0
41
1
10
96.2870504718491
20
-7.69244446224619
30
0
41
1
10
96.3999529297165
20
-7.06662031433714
30
0
41
1
10
96.4564041586503
20
-6.74140372758183
30
0
41
1
10
96.5693066165178
20
-6.07206407452483
30
0
41
1
10
96.6257578454515
20
-5.72795204551599
30
0
41
1
10
96.738660303319
20
-5.02689466730376
30
0
41
1
10
96.7951115322527
20
-4.66995997846141
30
0
41
1
10
96.9080139901202
20
-3.94935049666219
30
0
41
1
10
96.964465219054
20
-3.58568493617125
30
0
41
1
10
97.0773676769215
20
-2.8574247384044
30
0
41
1
10
97.1338189058553
20
-2.49283718283519
30
0
41
1
10
97.2467213637227
20
-1.7680146537231
30
0
41
1
10
97.3031725926564
20
-1.40778428051911
30
0
41
1
10
97.416075050524
20
-0.696252253594309
30
0
41
1
10
97.4725262794577
20
-0.344952754793297
30
0
41
1
10
97.5854287373252
20
0.344947787509483
30
0
41
1
10
97.641879966259
20
0.696247173112482
30
0
41
1
10
97.7547824241265
20
1.40777911494013
30
0
41
1
10
97.8112336530602
20
1.76800945563622
30
0
41
1
10
97.9241361109276
20
2.49283194347768
30
0
41
1
10
97.9805873398614
20
2.85741949029622
30
0
41
1
10
98.0934897977289
20
3.58567969733224
30
0
41
1
10
98.1499410266626
20
3.94934527585445
30
0
41
1
10
98.2628434845302
20
4.66995482249189
30
0
41
1
10
98.3192947134639
20
5.02688955815009
30
0
41
1
10
98.4321971713314
20
5.7279470594423
30
0
41
1
10
98.4886484002652
20
6.07205916471983
30
0
41
1
10
98.6015508581327
20
6.74139899889428
30
0
41
1
10
98.6580020870664
20
7.06661569049729
30
0
41
1
10
98.7709045449338
20
7.69244007421636
30
0
41
1
10
98.8273557738677
20
7.99303757463775
30
0
41
1
10
98.9402582317351
20
8.56457001275456
30
0
41
1
10
98.9967094606689
20
8.83549677930469
30
0
41
1
10
99.1096119185364
20
9.34358511679326
30
0
41
1
10
99.1660631474701
20
9.58074143912469
30
0
41
1
10
99.2789656053377
20
10.0183416444503
30
0
41
1
10
99.3354168342714
20
10.2187836626926
30
0
41
1
10
99.4483192921388
20
10.581271433217
30
0
41
1
10
99.5047705210726
20
10.7433186617862
30
0
41
1
10
99.6176729789401
20
11.0286016283459
30
0
41
1
10
99.6741242078739
20
11.151841688929
30
0
41
1
10
99.7870266657413
20
11.3602744088201
30
0
41
1
10
99.8434778946751
20
11.4454734325016
30
0
41
1
10
99.9563803525425
20
11.5796038269293
30
0
41
1
10
100.012831581476
20
11.6285426722513
30
0
41
1
10
100.125734039344
20
11.6927368611938
30
0
41
1
10
100.182185268277
20
11.7079999024328
30
0
41
1
10
100.238636497211
20
11.7079999999995
30
0
0
SPLINE
5
FC
100
AcDbEntity
8
1
62
256
6
ByLayer
370
13
48
1
60
0
100
AcDbSpline
70
4
71
3
72
10
73
6
40
0
40
0
40
0
40
0
40
0.5
40
0.5
40
1
40
1
40
1
40
1
41
1
10
99.6222524394585
20
11.708
30
0
41
1
10
99.7249831157507
20
11.708
30
0
41
1
10
99.8277137920428
20
11.6572802468313
30
0
41
1
10
100.033175144627
20
11.4367916416828
30
0
41
1
10
100.135905820919
20
11.2668734773111
30
0
41
1
10
100.238636497211
20
11.0326403624795
30
0
0
SPLINE
5
FD
100
AcDbEntity
8
1
62
256
6
ByLayer
370
13
48
1
60
0
100
AcDbSpline
70
4
71
3
72
8
73
4
40
0
40
0
40
0
40
0
40
1
40
1
40
1
40
1
41
1
10
89.4
20
11.6804778130075
30
0
41
1
10
89.4432037472448
20
11.6990647749031
30
0
41
1
10
89.4864074944895
20
11.708
30
0
41
1
10
89.5296112417342
20
11.708
30
0
0
SPLINE
5
FE
100
AcDbEntity
8
1
62
256
6
ByLayer
370
13
48
1
60
0
100
AcDbSpline
70
4
71
3
72
8
73
4
40
0
40
0
40
0
40
0
40
1
40
1
40
1
40
1
41
1
10
100.238636497212
20
7.98324393694509
30
0
41
1
10
101.659090998141
20
5.30999760479861
30
0
41
1
10
103.07954549907
20
2.64889216775936
30
0
41
1
10
104.499999999999
20
1.2221E-12
30
0
0
SPLINE
5
FF
100
AcDbEntity
8
1
62
256
6
ByLayer
370
13
48
1
60
0
100
AcDbSpline
70
4
71
3
72
8
73
4
40
0
40
0
40
0
40
0
40
1
40
1
40
1
40
1
41
1
10
100.238636497211
20
-0.905521597351651
30
0
41
1
10
101.659090998141
20
-0.587100198952584
30
0
41
1
10
103.07954549907
20
-0.285256976094587
30
0
41
1
10
104.5
20
0
30
0
0
SPLINE
5
100
100
AcDbEntity
8
1
62
256
6
ByLayer
370
13
48
1
60
0
100
AcDbSpline
70
4
71
3
72
8
73
4
40
0
40
0
40
0
40
0
40
1
40
1
40
1
40
1
41
1
10
100.238636497211
20
1.50345983701501
30
0
41
1
10
101.659090998141
20
1.01879955012407
30
0
41
1
10
103.07954549907
20
0.517641670933301
30
0
41
1
10
104.5
20
2.84E-14
30
0
0
SPLINE
5
101
100
AcDbEntity
8
1
62
256
6
ByLayer
370
13
48
1
60
0
100
AcDbSpline
70
4
71
3
72
8
73
4
40
0
40
0
40
0
40
0
40
1
40
1
40
1
40
1
41
1
10
100.238636497211
20
-10.9601888231615
30
0
41
1
10
101.659090998141
20
-7.30094422087916
30
0
41
1
10
103.079545499071
20
-3.64751479283081
30
0
41
1
10
104.5
20
6.537E-13
30
0
0
SPLINE
5
102
100
AcDbEntity
8
1
62
256
6
ByLayer
370
13
48
1
60
0
100
AcDbSpline
70
4
71
3
72
8
73
4
40
0
40
0
40
0
40
0
40
1
40
1
40
1
40
1
41
1
10
100.238636497212
20
-3.24271228514988
30
0
41
1
10
101.659090998141
20
-2.17778827678563
30
0
41
1
10
103.07954549907
20
-1.09687431919926
30
0
41
1
10
104.5
20
-1.421E-13
30
0
0
SPLINE
5
103
100
AcDbEntity
8
1
62
256
6
ByLayer
370
13
48
1
60
0
100
AcDbSpline
70
4
71
3
72
8
73
4
40
0
40
0
40
0
40
0
40
1
40
1
40
1
40
1
41
1
10
100.238636497211
20
10.7325689094865
30
0
41
1
10
101.659090998141
20
7.16169166755711
30
0
41
1
10
103.07954549907
20
3.58413619515255
30
0
41
1
10
104.5
20
0
30
0
0
SPLINE
5
104
100
AcDbEntity
8
1
62
256
6
ByLayer
370
13
48
1
60
0
100
AcDbSpline
70
4
71
3
72
8
73
4
40
0
40
0
40
0
40
0
40
1
40
1
40
1
40
1
41
1
10
100.238636497212
20
-0.870815869614802
30
0
41
1
10
101.659090998141
20
-0.597128529575144
30
0
41
1
10
103.07954549907
20
-0.30685388729097
30
0
41
1
10
104.5
20
-5.68E-14
30
0
0
SPLINE
5
105
100
AcDbEntity
8
1
62
256
6
ByLayer
370
13
48
1
60
0
100
AcDbSpline
70
4
71
3
72
8
73
4
40
0
40
0
40
0
40
0
40
1
40
1
40
1
40
1
41
1
10
100.238636497211
20
-8.39127739461799
30
0
41
1
10
101.659090998141
20
-5.58258722296077
30
0
41
1
10
103.07954549907
20
-2.78546939672017
30
0
41
1
10
104.5
20
5.68E-14
30
0
0
SPLINE
5
106
100
AcDbEntity
8
1
62
256
6
ByLayer
370
13
48
1
60
0
100
AcDbSpline
70
4
71
3
72
8
73
4
40
0
40
0
40
0
40
0
40
1
40
1
40
1
40
1
41
1
10
100.238636497211
20
2.69038951907604
30
0
41
1
10
101.659090998141
20
1.80977865814862
30
0
41
1
10
103.07954549907
20
0.912973960253822
30
0
41
1
10
104.5
20
-2.84E-14
30
0
0
SPLINE
5
107
100
AcDbEntity
8
1
62
256
6
ByLayer
370
13
48
1
60
0
100
AcDbSpline
70
4
71
3
72
8
73
4
40
0
40
0
40
0
40
0
40
1
40
1
40
1
40
1
41
1
10
100.238636497211
20
3.84875004360506
30
0
41
1
10
101.659090998141
20
2.58153978631708
30
0
41
1
10
103.07954549907
20
1.29861140921454
30
0
41
1
10
104.5
20
-2.84E-14
30
0
0
SPLINE
5
108
100
AcDbEntity
8
1
62
256
6
ByLayer
370
13
48
1
60
0
100
AcDbSpline
70
4
71
3
72
8
73
4
40
0
40
0
40
0
40
0
40
1
40
1
40
1
40
1
41
1
10
100.238636497211
20
-11.5655937997447
30
0
41
1
10
101.659090998141
20
-7.71298183661173
30
0
41
1
10
103.07954549907
20
-3.85774889189852
30
0
41
1
10
104.5
20
-5.4E-13
30
0
0
SPLINE
5
109
100
AcDbEntity
8
1
62
256
6
ByLayer
370
13
48
1
60
0
100
AcDbSpline
70
4
71
3
72
8
73
4
40
0
40
0
40
0
40
0
40
1
40
1
40
1
40
1
41
1
10
100.238636497211
20
-6.54195902102421
30
0
41
1
10
101.659090998141
20
-4.34751369805977
30
0
41
1
10
103.079545499071
20
-2.16684093334678
30
0
41
1
10
104.5
20
3.979E-13
30
0
0
SPLINE
5
10A
100
AcDbEntity
8
1
62
256
6
ByLayer
370
13
48
1
60
0
100
AcDbSpline
70
4
71
3
72
8
73
4
40
0
40
0
40
0
40
0
40
1
40
1
40
1
40
1
41
1
10
100.238636497211
20
-5.50797548893678
30
0
41
1
10
101.659090998141
20
-3.65730826264104
30
0
41
1
10
103.07954549907
20
-1.82129980734746
30
0
41
1
10
104.5
20
2.84E-14
30
0
0
SPLINE
5
10B
100
AcDbEntity
8
1
62
256
6
ByLayer
370
13
48
1
60
0
100
AcDbSpline
70
4
71
3
72
8
73
4
40
0
40
0
40
0
40
0
40
1
40
1
40
1
40
1
41
1
10
100.238636497212
20
11.6508653348584
30
0
41
1
10
101.659090998141
20
7.76560257750219
30
0
41
1
10
103.07954549907
20
3.88194554246709
30
0
41
1
10
104.5
20
5.4E-13
30
0
0
SPLINE
5
10C
100
AcDbEntity
8
1
62
256
6
ByLayer
370
13
48
1
60
0
100
AcDbSpline
70
4
71
3
72
8
73
4
40
0
40
0
40
0
40
0
40
1
40
1
40
1
40
1
41
1
10
100.238636497212
20
7.05950503711867
30
0
41
1
10
101.659090998141
20
4.69306926216973
30
0
41
1
10
103.079545499071
20
2.33987959080048
30
0
41
1
10
104.5
20
-4.263E-13
30
0
0
SPLINE
5
10D
100
AcDbEntity
8
1
62
256
6
ByLayer
370
13
48
1
60
0
100
AcDbSpline
70
4
71
3
72
8
73
4
40
0
40
0
40
0
40
0
40
1
40
1
40
1
40
1
41
1
10
100.238636497211
20
11.4630855462085
30
0
41
1
10
101.659090998141
20
7.64544085448793
30
0
41
1
10
103.07954549907
20
3.82437763544971
30
0
41
1
10
104.5
20
0
30
0
0
SPLINE
5
10E
100
AcDbEntity
8
1
62
256
6
ByLayer
370
13
48
1
60
0
100
AcDbSpline
70
4
71
3
72
8
73
4
40
0
40
0
40
0
40
0
40
1
40
1
40
1
40
1
41
1
10
100.238636497212
20
4.99773848435046
30
0
41
1
10
101.659090998141
20
3.31678627773107
30
0
41
1
10
103.07954549907
20
1.65085836931652
30
0
41
1
10
104.5
20
2.274E-13
30
0
0
SPLINE
5
10F
100
AcDbEntity
8
1
62
256
6
ByLayer
370
13
48
1
60
0
100
AcDbSpline
70
4
71
3
72
8
73
4
40
0
40
0
40
0
40
0
40
1
40
1
40
1
40
1
41
1
10
100.238636497211
20
-11.6933325728936
30
0
41
1
10
101.659090998141
20
-7.79472285457516
30
0
41
1
10
103.079545499071
20
-3.89690994255162
30
0
41
1
10
104.5
20
7.105E-13
30
0
0
SPLINE
5
110
100
AcDbEntity
8
1
62
256
6
ByLayer
370
13
48
1
60
0
100
AcDbSpline
70
4
71
3
72
8
73
4
40
0
40
0
40
0
40
0
40
1
40
1
40
1
40
1
41
1
10
100.238636497211
20
11.6473794822712
30
0
41
1
10
101.659090998141
20
7.76660982571556
30
0
41
1
10
103.07954549907
20
3.88411474201087
30
0
41
1
10
104.5
20
-2.84E-14
30
0
0
SPLINE
5
111
100
AcDbEntity
8
1
62
256
6
ByLayer
370
13
48
1
60
0
100
AcDbSpline
70
4
71
3
72
8
73
4
40
0
40
0
40
0
40
0
40
1
40
1
40
1
40
1
41
1
10
100.238636497211
20
-9.86642024463569
30
0
41
1
10
101.659090998141
20
-6.58656698245309
30
0
41
1
10
103.079545499071
20
-3.2977303461073
30
0
41
1
10
104.5
20
5.969E-13
30
0
0
SPLINE
5
112
100
AcDbEntity
8
1
62
256
6
ByLayer
370
13
48
1
60
0
100
AcDbSpline
70
4
71
3
72
8
73
4
40
0
40
0
40
0
40
0
40
1
40
1
40
1
40
1
41
1
10
100.238636497211
20
-9.88511519818303
30
0
41
1
10
101.659090998141
20
-6.58116501605255
30
0
41
1
10
103.07954549907
20
-3.28609672601348
30
0
41
1
10
104.5
20
5.68E-14
30
0
0
SPLINE
5
113
100
AcDbEntity
8
1
62
256
6
ByLayer
370
13
48
1
60
0
100
AcDbSpline
70
4
71
3
72
8
73
4
40
0
40
0
40
0
40
0
40
1
40
1
40
1
40
1
41
1
10
100.238636497211
20
-9.16535730137656
30
0
41
1
10
101.659090998141
20
-6.12058643272852
30
0
41
1
10
103.07954549907
20
-3.06543956170424
30
0
41
1
10
104.5
20
-4.263E-13
30
0
0
SPLINE
5
114
100
AcDbEntity
8
1
62
256
6
ByLayer
370
13
48
1
60
0
100
AcDbSpline
70
4
71
3
72
8
73
4
40
0
40
0
40
0
40
0
40
1
40
1
40
1
40
1
41
1
10
100.238636497212
20
-4.38324759228078
30
0
41
1
10
101.659090998141
20
-2.93758627894979
30
0
41
1
10
103.07954549907
20
-1.47649043547807
30
0
41
1
10
104.5
20
-1.99E-13
30
0
0
SPLINE
5
115
100
AcDbEntity
8
1
62
256
6
ByLayer
370
13
48
1
60
0
100
AcDbSpline
70
4
71
3
72
8
73
4
40
0
40
0
40
0
40
0
40
1
40
1
40
1
40
1
41
1
10
100.238636497212
20
10.746430179846
30
0
41
1
10
101.659090998141
20
7.1576864093166
30
0
41
1
10
103.07954549907
20
3.57551051159763
30
0
41
1
10
104.499999999999
20
1.6485E-12
30
0
0
SPLINE
5
116
100
AcDbEntity
8
1
62
256
6
ByLayer
370
13
48
1
60
0
100
AcDbSpline
70
4
71
3
72
8
73
4
40
0
40
0
40
0
40
0
40
1
40
1
40
1
40
1
41
1
10
100.238636497211
20
0.300564964552308
30
0
41
1
10
101.659090998141
20
0.21700184329265
30
0
41
1
10
103.07954549907
20
0.116812561789033
30
0
41
1
10
104.5
20
0
30
0
0
SPLINE
5
117
100
AcDbEntity
8
1
62
256
6
ByLayer
370
13
48
1
60
0
100
AcDbSpline
70
4
71
3
72
8
73
4
40
0
40
0
40
0
40
0
40
1
40
1
40
1
40
1
41
1
10
100.238636497211
20
6.03099524583425
30
0
41
1
10
101.659090998141
20
4.03491798004197
30
0
41
1
10
103.07954549907
20
2.02456793528936
30
0
41
1
10
104.5
20
-2.84E-14
30
0
0
SPLINE
5
118
100
AcDbEntity
8
1
62
256
6
ByLayer
370
13
48
1
60
0
100
AcDbSpline
70
4
71
3
72
8
73
4
40
0
40
0
40
0
40
0
40
1
40
1
40
1
40
1
41
1
10
100.238636497211
20
11.1570654829622
30
0
41
1
10
101.659090998141
20
7.44308519909251
30
0
41
1
10
103.07954549907
20
3.72402958896541
30
0
41
1
10
104.5
20
0
30
0
0
SPLINE
5
119
100
AcDbEntity
8
1
62
256
6
ByLayer
370
13
48
1
60
0
100
AcDbSpline
70
4
71
3
72
8
73
4
40
0
40
0
40
0
40
0
40
1
40
1
40
1
40
1
41
1
10
100.238636497212
20
1.53797101052572
30
0
41
1
10
101.659090998141
20
1.00882743656504
30
0
41
1
10
103.07954549907
20
0.49616582823532
30
0
41
1
10
104.5
20
5.68E-14
30
0
0
SPLINE
5
11A
100
AcDbEntity
8
1
62
256
6
ByLayer
370
13
48
1
60
0
100
AcDbSpline
70
4
71
3
72
8
73
4
40
0
40
0
40
0
40
0
40
1
40
1
40
1
40
1
41
1
10
100.238636497211
20
-11.3257054639404
30
0
41
1
10
101.659090998141
20
-7.54625520546116
30
0
41
1
10
103.07954549907
20
-3.77098578596278
30
0
41
1
10
104.5
20
-5.4E-13
30
0
0
SPLINE
5
11B
100
AcDbEntity
8
1
62
256
6
ByLayer
370
13
48
1
60
0
100
AcDbSpline
70
4
71
3
72
8
73
4
40
0
40
0
40
0
40
0
40
1
40
1
40
1
40
1
41
1
10
100.238636497211
20
-10.9479005556246
30
0
41
1
10
101.659090998141
20
-7.30449495494184
30
0
41
1
10
103.07954549907
20
-3.65516161772317
30
0
41
1
10
104.5
20
5.68E-14
30
0
0
SPLINE
5
11C
100
AcDbEntity
8
1
62
256
6
ByLayer
370
13
48
1
60
0
100
AcDbSpline
70
4
71
3
72
8
73
4
40
0
40
0
40
0
40
0
40
1
40
1
40
1
40
1
41
1
10
100.238636497212
20
11.1675675161874
30
0
41
1
10
101.659090998141
20
7.44005060312568
30
0
41
1
10
103.079545499071
20
3.71749431384603
30
0
41
1
10
104.5
20
-6.537E-13
30
0
0
SPLINE
5
11D
100
AcDbEntity
8
1
62
256
6
ByLayer
370
13
48
1
60
0
100
AcDbSpline
70
4
71
3
72
8
73
4
40
0
40
0
40
0
40
0
40
1
40
1
40
1
40
1
41
1
10
100.238636497212
20
8.82220903281714
30
0
41
1
10
101.659090998141
20
5.87053925806794
30
0
41
1
10
103.07954549907
20
2.92977624618899
30
0
41
1
10
104.5
20
4.263E-13
30
0
0
SPLINE
5
11E
100
AcDbEntity
8
1
62
256
6
ByLayer
370
13
48
1
60
0
100
AcDbSpline
70
4
71
3
72
8
73
4
40
0
40
0
40
0
40
0
40
1
40
1
40
1
40
1
41
1
10
100.238636497212
20
-6.51306448086777
30
0
41
1
10
101.659090998141
20
-4.355862867513
30
0
41
1
10
103.07954549907
20
-2.18482162006674
30
0
41
1
10
104.5
20
-3.126E-13
30
0
0
SPLINE
5
11F
100
AcDbEntity
8
1
62
256
6
ByLayer
370
13
48
1
60
0
100
AcDbSpline
70
4
71
3
72
8
73
4
40
0
40
0
40
0
40
0
40
1
40
1
40
1
40
1
41
1
10
100.238636497212
20
-2.06774272325825
30
0
41
1
10
101.659090998141
20
-1.39486441276776
30
0
41
1
10
103.07954549907
20
-0.705610530716939
30
0
41
1
10
104.5
20
-8.53E-14
30
0
0
SPLINE
5
120
100
AcDbEntity
8
1
62
256
6
ByLayer
370
13
48
1
60
0
100
AcDbSpline
70
4
71
3
72
8
73
4
40
0
40
0
40
0
40
0
40
1
40
1
40
1
40
1
41
1
10
100.238636497211
20
-9.18697438533451
30
0
41
1
10
101.659090998141
20
-6.11434010743386
30
0
41
1
10
103.07954549907
20
-3.05198753885327
30
0
41
1
10
104.5
20
5.68E-14
30
0
0
SPLINE
5
121
100
AcDbEntity
8
1
62
256
6
ByLayer
370
13
48
1
60
0
100
AcDbSpline
70
4
71
3
72
8
73
4
40
0
40
0
40
0
40
0
40
1
40
1
40
1
40
1
41
1
10
100.238636497211
20
-11.6915392209279
30
0
41
1
10
101.659090998141
20
-7.79524104934052
30
0
41
1
10
103.07954549907
20
-3.89802592154663
30
0
41
1
10
104.5
20
8.53E-14
30
0
0
SPLINE
5
122
100
AcDbEntity
8
1
62
256
6
ByLayer
370
13
48
1
60
0
100
AcDbSpline
70
4
71
3
72
8
73
4
40
0
40
0
40
0
40
0
40
1
40
1
40
1
40
1
41
1
10
100.238636497212
20
6.06080148623579
30
0
41
1
10
101.659090998141
20
4.02630537189739
30
0
41
1
10
103.07954549907
20
2.00601990967425
30
0
41
1
10
104.5
20
2.842E-13
30
0
0
SPLINE
5
123
100
AcDbEntity
8
1
62
256
6
ByLayer
370
13
48
1
60
0
100
AcDbSpline
70
4
71
3
72
8
73
4
40
0
40
0
40
0
40
0
40
1
40
1
40
1
40
1
41
1
10
100.238636497212
20
-5.47723733785722
30
0
41
1
10
101.659090998141
20
-3.66619014934526
30
0
41
1
10
103.07954549907
20
-1.84042774854026
30
0
41
1
10
104.5
20
-2.558E-13
30
0
0
SPLINE
5
124
100
AcDbEntity
8
1
62
256
6
ByLayer
370
13
48
1
60
0
100
AcDbSpline
70
4
71
3
72
8
73
4
40
0
40
0
40
0
40
0
40
1
40
1
40
1
40
1
41
1
10
100.238636497211
20
7.03170673373646
30
0
41
1
10
101.659090998141
20
4.70110167051439
30
0
41
1
10
103.07954549907
20
2.35717810400641
30
0
41
1
10
104.5
20
-5.68E-14
30
0
0
SPLINE
5
125
100
AcDbEntity
8
1
62
256
6
ByLayer
370
13
48
1
60
0
100
AcDbSpline
70
4
71
3
72
8
73
4
40
0
40
0
40
0
40
0
40
1
40
1
40
1
40
1
41
1
10
100.238636497211
20
9.5473873231511
30
0
41
1
10
101.659090998141
20
6.37455098054483
30
0
41
1
10
103.07954549907
20
3.19205961488839
30
0
41
1
10
104.5
20
-5.68E-14
30
0
0
SPLINE
5
126
100
AcDbEntity
8
1
62
256
6
ByLayer
370
13
48
1
60
0
100
AcDbSpline
70
4
71
3
72
8
73
4
40
0
40
0
40
0
40
0
40
1
40
1
40
1
40
1
41
1
10
100.238636497211
20
-7.47972960705897
30
0
41
1
10
101.659090998141
20
-4.99928082161515
30
0
41
1
10
103.07954549907
20
-2.50601494289913
30
0
41
1
10
104.5
20
5.68E-14
30
0
0
SPLINE
5
127
100
AcDbEntity
8
1
62
256
6
ByLayer
370
13
48
1
60
0
100
AcDbSpline
70
4
71
3
72
8
73
4
40
0
40
0
40
0
40
0
40
1
40
1
40
1
40
1
41
1
10
100.238636497212
20
11.4701168215551
30
0
41
1
10
101.659090998141
20
7.64340914507079
30
0
41
1
10
103.07954549907
20
3.82000216663988
30
0
41
1
10
104.499999999999
20
1.7621E-12
30
0
0
SPLINE
5
128
100
AcDbEntity
8
1
62
256
6
ByLayer
370
13
48
1
60
0
100
AcDbSpline
70
4
71
3
72
8
73
4
40
0
40
0
40
0
40
0
40
1
40
1
40
1
40
1
41
1
10
100.238636497211
20
-11.5709548120964
30
0
41
1
10
101.659090998141
20
-7.71143275500916
30
0
41
1
10
103.07954549907
20
-3.85441280545842
30
0
41
1
10
104.5
20
8.53E-14
30
0
0
SPLINE
5
129
100
AcDbEntity
8
1
62
256
6
ByLayer
370
13
48
1
60
0
100
AcDbSpline
70
4
71
3
72
8
73
4
40
0
40
0
40
0
40
0
40
1
40
1
40
1
40
1
41
1
10
100.238636497211
20
8.79928771445077
30
0
41
1
10
101.659090998141
20
5.87716244605113
30
0
41
1
10
103.07954549907
20
2.94403987670623
30
0
41
1
10
104.5
20
5.68E-14
30
0
0
SPLINE
5
12A
100
AcDbEntity
8
1
62
256
6
ByLayer
370
13
48
1
60
0
100
AcDbSpline
70
4
71
3
72
8
73
4
40
0
40
0
40
0
40
0
40
1
40
1
40
1
40
1
41
1
10
100.238636497212
20
3.88160466240328
30
0
41
1
10
101.659090998141
20
2.57204633952091
30
0
41
1
10
103.07954549907
20
1.27816641840613
30
0
41
1
10
104.5
20
1.705E-13
30
0
0
SPLINE
5
12B
100
AcDbEntity
8
1
62
256
6
ByLayer
370
13
48
1
60
0
100
AcDbSpline
70
4
71
3
72
8
73
4
40
0
40
0
40
0
40
0
40
1
40
1
40
1
40
1
41
1
10
100.238636497211
20
10.1941035408888
30
0
41
1
10
101.659090998141
20
6.80424836850841
30
0
41
1
10
103.07954549907
20
3.40618297734415
30
0
41
1
10
104.5
20
0
30
0
0
SPLINE
5
12C
100
AcDbEntity
8
1
62
256
6
ByLayer
370
13
48
1
60
0
100
AcDbSpline
70
4
71
3
72
8
73
4
40
0
40
0
40
0
40
0
40
1
40
1
40
1
40
1
41
1
10
100.238636497211
20
-3.27614232470532
30
0
41
1
10
101.659090998141
20
-2.16812856032826
30
0
41
1
10
103.079545499071
20
-1.07607125173314
30
0
41
1
10
104.5
20
1.137E-13
30
0
0
SPLINE
5
12D
100
AcDbEntity
8
1
62
256
6
ByLayer
370
13
48
1
60
0
100
AcDbSpline
70
4
71
3
72
8
73
4
40
0
40
0
40
0
40
0
40
1
40
1
40
1
40
1
41
1
10
100.238636497211
20
-8.36696773135074
30
0
41
1
10
101.659090998141
20
-5.58961157762681
30
0
41
1
10
103.07954549907
20
-2.80059697574052
30
0
41
1
10
104.5
20
5.68E-14
30
0
0
SPLINE
5
12E
100
AcDbEntity
8
1
62
256
6
ByLayer
370
13
48
1
60
0
100
AcDbSpline
70
4
71
3
72
8
73
4
40
0
40
0
40
0
40
0
40
1
40
1
40
1
40
1
41
1
10
100.238636497211
20
-4.41550294687133
30
0
41
1
10
101.659090998141
20
-2.92826599145636
30
0
41
1
10
103.07954549907
20
-1.45641835878868
30
0
41
1
10
104.5
20
-8.53E-14
30
0
0
SPLINE
5
12F
100
AcDbEntity
8
1
62
256
6
ByLayer
370
13
48
1
60
0
100
AcDbSpline
70
4
71
3
72
8
73
4
40
0
40
0
40
0
40
0
40
1
40
1
40
1
40
1
41
1
10
100.238636497211
20
-10.4782862989075
30
0
41
1
10
101.659090998141
20
-6.9781047505152
30
0
41
1
10
103.079545499071
20
-3.48531096046656
30
0
41
1
10
104.5
20
6.253E-13
30
0
0
SPLINE
5
130
100
AcDbEntity
8
1
62
256
6
ByLayer
370
13
48
1
60
0
100
AcDbSpline
70
4
71
3
72
8
73
4
40
0
40
0
40
0
40
0
40
1
40
1
40
1
40
1
41
1
10
100.238636497211
20
-2.10199245529159
30
0
41
1
10
101.659090998141
20
-1.38496784355689
30
0
41
1
10
103.07954549907
20
-0.684297379561286
30
0
41
1
10
104.5
20
-2.84E-14
30
0
0
SPLINE
5
131
100
AcDbEntity
8
1
62
256
6
ByLayer
370
13
48
1
60
0
100
AcDbSpline
70
4
71
3
72
8
73
4
40
0
40
0
40
0
40
0
40
1
40
1
40
1
40
1
41
1
10
100.238636497211
20
7.95774875984861
30
0
41
1
10
101.659090998141
20
5.31736451746332
30
0
41
1
10
103.079545499071
20
2.66475747621351
30
0
41
1
10
104.5
20
-1.705E-13
30
0
0
SPLINE
5
132
100
AcDbEntity
8
1
62
256
6
ByLayer
370
13
48
1
60
0
100
AcDbSpline
70
4
71
3
72
8
73
4
40
0
40
0
40
0
40
0
40
1
40
1
40
1
40
1
41
1
10
100.238636497212
20
10.2111768560099
30
0
41
1
10
101.659090998141
20
6.79931497969775
30
0
41
1
10
103.079545499071
20
3.39555848119971
30
0
41
1
10
104.5
20
-5.969E-13
30
0
0
SPLINE
5
133
100
AcDbEntity
8
1
62
256
6
ByLayer
370
13
48
1
60
0
100
AcDbSpline
70
4
71
3
72
8
73
4
40
0
40
0
40
0
40
0
40
1
40
1
40
1
40
1
41
1
10
100.238636497212
20
2.724252208622
30
0
41
1
10
101.659090998141
20
1.79999392609764
30
0
41
1
10
103.07954549907
20
0.891901660472598
30
0
41
1
10
104.5
20
1.137E-13
30
0
0
SPLINE
5
134
100
AcDbEntity
8
1
62
256
6
ByLayer
370
13
48
1
60
0
100
AcDbSpline
70
4
71
3
72
8
73
4
40
0
40
0
40
0
40
0
40
1
40
1
40
1
40
1
41
1
10
100.238636497211
20
-7.50647370612341
30
0
41
1
10
101.659090998141
20
-4.99155302896793
30
0
41
1
10
103.07954549907
20
-2.4893724469716
30
0
41
1
10
104.5
20
5.68E-14
30
0
0
SPLINE
5
135
100
AcDbEntity
8
1
62
256
6
ByLayer
370
13
48
1
60
0
100
AcDbSpline
70
4
71
3
72
8
73
4
40
0
40
0
40
0
40
0
40
1
40
1
40
1
40
1
41
1
10
100.238636497211
20
4.96624081841293
30
0
41
1
10
101.659090998141
20
3.32588762867414
30
0
41
1
10
103.07954549907
20
1.67045894646941
30
0
41
1
10
104.5
20
1.137E-13
30
0
0
SPLINE
5
136
100
AcDbEntity
8
1
62
256
6
ByLayer
370
13
48
1
60
0
100
AcDbSpline
70
4
71
3
72
8
73
4
40
0
40
0
40
0
40
0
40
1
40
1
40
1
40
1
41
1
10
100.238636497212
20
0.335358149014979
30
0
41
1
10
101.659090998141
20
0.206948241770448
30
0
41
1
10
103.07954549907
20
0.0951612274393199
30
0
41
1
10
104.5
20
0
30
0
0
SPLINE
5
137
100
AcDbEntity
8
1
62
256
6
ByLayer
370
13
48
1
60
0
100
AcDbSpline
70
4
71
3
72
8
73
4
40
0
40
0
40
0
40
0
40
1
40
1
40
1
40
1
41
1
10
100.238636497211
20
-10.4627119968657
30
0
41
1
10
101.659090998141
20
-6.98260499471934
30
0
41
1
10
103.07954549907
20
-3.49500264077673
30
0
41
1
10
104.5
20
5.68E-14
30
0
0
SPLINE
5
138
100
AcDbEntity
8
1
62
256
6
ByLayer
370
13
48
1
60
0
100
AcDbSpline
70
4
71
3
72
8
73
4
40
0
40
0
40
0
40
0
40
1
40
1
40
1
40
1
41
1
10
100.238636497211
20
-11.316833719616
30
0
41
1
10
101.659090998141
20
-7.54881872425435
30
0
41
1
10
103.07954549907
20
-3.77650655405572
30
0
41
1
10
104.5
20
-5.4E-13
30
0
0
SPLINE
5
139
100
AcDbEntity
8
1
62
256
6
ByLayer
370
13
48
1
60
0
100
AcDbSpline
70
4
71
3
72
8
73
4
40
0
40
0
40
0
40
0
40
1
40
1
40
1
40
1
41
1
10
100.238636497212
20
9.56749138206396
30
0
41
1
10
101.659090998141
20
6.3687418486582
30
0
41
1
10
103.07954549907
20
3.17954912733069
30
0
41
1
10
104.5
20
4.547E-13
30
0
0
LINE
5
7D
100
AcDbEntity
8
80
62
256
6
ByLayer
370
18
48
1
60
0
100
AcDbLine
10
0
20
0
30
0
11
-5
21
0
31
0
39
0
210
0
220
0
230
1
0
LINE
5
7E
100
AcDbEntity
8
81
62
256
6
ByLayer
370
18
48
1
60
0
100
AcDbLine
10
104.5
20
0
30
0
11
109.5
21
0
31
0
39
0
210
0
220
0
230
1
0
LINE
5
7F
100
AcDbEntity
8
4
62
256
6
ByLayer
370
18
48
0.05
60
0
100
AcDbLine
10
-5
20
0
30
0
11
109.5
21
0
31
0
39
0
210
0
220
0
230
1
0
LINE
5
81
100
AcDbEntity
8
SK4
62
256
6
ByLayer
370
18
48
0.05
60
0
100
AcDbLine
10
-61
20
0
30
0
11
109.5
21
0
31
0
39
0
210
0
220
0
230
1
0
LINE
5
83
100
AcDbEntity
8
1
62
256
6
ByLayer
370
18
48
1
60
0
100
AcDbLine
10
10
20
-11.3
30
0
11
44.681255
21
-11.3
31
0
39
0
210
0
220
0
230
1
0
LINE
5
84
100
AcDbEntity
8
1
62
256
6
ByLayer
370
18
48
1
60
0
100
AcDbLine
10
44.681255
20
11.3
30
0
11
10
21
11.3
31
0
39
0
210
0
220
0
230
1
0
LINE
5
85
100
AcDbEntity
8
1
62
256
6
ByLayer
370
18
48
1
60
0
100
AcDbLine
10
104.5
20
0
30
0
11
100.238636
21
11.708
31
0
39
0
210
0
220
0
230
1
0
LINE
5
86
100
AcDbEntity
8
1
62
256
6
ByLayer
370
18
48
1
60
0
100
AcDbLine
10
100.238636
20
-11.708
30
0
11
104.5
21
0
31
0
39
0
210
0
220
0
230
1
0
LINE
5
87
100
AcDbEntity
8
1
62
256
6
ByLayer
370
18
48
1
60
0
100
AcDbLine
10
10
20
11.3
30
0
11
0
21
12.7
31
0
39
0
210
0
220
0
230
1
0
LINE
5
88
100
AcDbEntity
8
1
62
256
6
ByLayer
370
18
48
1
60
0
100
AcDbLine
10
0
20
-12.7
30
0
11
10
21
-11.3
31
0
39
0
210
0
220
0
230
1
0
LINE
5
89
100
AcDbEntity
8
1
62
256
6
ByLayer
370
18
48
1
60
0
100
AcDbLine
10
100.238636
20
11.708
30
0
11
89.4
21
11.708
31
0
39
0
210
0
220
0
230
1
0
LINE
5
8A
100
AcDbEntity
8
1
62
256
6
ByLayer
370
18
48
1
60
0
100
AcDbLine
10
89.4
20
-11.708
30
0
11
100.238636
21
-11.708
31
0
39
0
210
0
220
0
230
1
0
LINE
5
8B
100
AcDbEntity
8
1
62
256
6
ByLayer
370
18
48
1
60
0
100
AcDbLine
10
104.5
20
0
30
0
11
100.238636
21
11.708
31
0
39
0
210
0
220
0
230
1
0
LINE
5
8C
100
AcDbEntity
8
1
62
256
6
ByLayer
370
18
48
1
60
0
100
AcDbLine
10
100.238636
20
-11.708
30
0
11
104.5
21
0
31
0
39
0
210
0
220
0
230
1
0
LINE
5
8D
100
AcDbEntity
8
SK1
62
256
6
ByLayer
370
18
48
1
60
0
100
AcDbLine
10
-56
20
-11.7
30
0
11
-55
21
-12.7
31
0
39
0
210
0
220
0
230
1
0
LINE
5
8F
100
AcDbEntity
8
SK1
62
256
6
ByLayer
370
18
48
1
60
0
100
AcDbLine
10
-55
20
12.7
30
0
11
-56
21
11.7
31
0
39
0
210
0
220
0
230
1
0
LINE
5
90
100
AcDbEntity
8
SK1
62
256
6
ByLayer
370
18
48
1
60
0
100
AcDbLine
10
-55
20
-12.7
30
0
11
0
21
-12.7
31
0
39
0
210
0
220
0
230
1
0
LINE
5
91
100
AcDbEntity
8
SK1
62
256
6
ByLayer
370
18
48
1
60
0
100
AcDbLine
10
0
20
12.7
30
0
11
-55
21
12.7
31
0
39
0
210
0
220
0
230
1
0
LINE
5
92
100
AcDbEntity
8
1
62
256
6
ByLayer
370
18
48
1
60
0
100
AcDbLine
10
0
20
12.7
30
0
11
0
21
-12.7
31
0
39
0
210
0
220
0
230
1
0
LINE
5
93
100
AcDbEntity
8
1
62
256
6
ByLayer
370
18
48
1
60
0
100
AcDbLine
10
100.238636
20
11.708
30
0
11
100.238636
21
11.336227
31
0
39
0
210
0
220
0
230
1
0
LINE
5
94
100
AcDbEntity
8
1
62
256
6
ByLayer
370
18
48
1
60
0
100
AcDbLine
10
100.238636
20
-11.708
30
0
11
100.238636
21
-1.671207
31
0
39
0
210
0
220
0
230
1
0
LINE
5
95
100
AcDbEntity
8
1
62
256
6
ByLayer
370
18
48
1
60
0
100
AcDbLine
10
10
20
-11.3
30
0
11
10
21
-5.082474
31
0
39
0
210
0
220
0
230
1
0
LINE
5
96
100
AcDbEntity
8
1
62
256
6
ByLayer
370
18
48
1
60
0
100
AcDbLine
10
10
20
11.3
30
0
11
10
21
8.071787
31
0
39
0
210
0
220
0
230
1
0
LINE
5
97
100
AcDbEntity
8
SK1
62
256
6
ByLayer
370
18
48
1
60
0
100
AcDbLine
10
-9.573685
20
-7.42967
30
0
11
-9.573685
21
7.42967
31
0
39
0
210
0
220
0
230
1
0
LINE
5
98
100
AcDbEntity
8
SK1
62
256
6
ByLayer
370
18
48
1
60
0
100
AcDbLine
10
-56
20
-11.7
30
0
11
-56
21
11.7
31
0
39
0
210
0
220
0
230
1
0
LINE
5
99
100
AcDbEntity
8
SK1
62
256
6
ByLayer
370
18
48
1
60
0
100
AcDbLine
10
0
20
12.7
30
0
11
0
21
-12.7
31
0
39
0
210
0
220
0
230
1
0
LINE
5
9A
100
AcDbEntity
8
SK1
62
256
6
ByLayer
370
18
48
1
60
0
100
AcDbLine
10
-55
20
-12.7
30
0
11
-55
21
12.7
31
0
39
0
210
0
220
0
230
1
0
LINE
5
9B
100
AcDbEntity
8
SK1
62
256
6
ByLayer
370
18
48
1
60
0
100
AcDbLine
10
-9.573685
20
-7.42967
30
0
11
-46.761964
21
-7.42967
31
0
39
0
210
0
220
0
230
1
0
LINE
5
9C
100
AcDbEntity
8
SK1
62
256
6
ByLayer
370
18
48
1
60
0
100
AcDbLine
10
-46.761964
20
7.42967
30
0
11
-9.573685
21
7.42967
31
0
39
0
210
0
220
0
230
1
0
LINE
5
9D
100
AcDbEntity
8
SK1
62
256
6
ByLayer
370
18
48
1
60
0
100
AcDbLine
10
-46.761964
20
-7.42967
30
0
11
-46.761964
21
7.42967
31
0
39
0
210
0
220
0
230
1
0
LINE
5
9E
100
AcDbEntity
8
1
62
256
6
ByLayer
370
18
48
1
60
0
100
AcDbLine
10
100.238636
20
11.708
30
0
11
100.238636
21
-11.708
31
0
39
0
210
0
220
0
230
1
0
LINE
5
9F
100
AcDbEntity
8
1
62
256
6
ByLayer
370
18
48
1
60
0
100
AcDbLine
10
100.238636
20
11.708
30
0
11
100.238636
21
-11.708
31
0
39
0
210
0
220
0
230
1
0
LINE
5
A0
100
AcDbEntity
8
1
62
256
6
ByLayer
370
18
48
1
60
0
100
AcDbLine
10
100.238636
20
11.708
30
0
11
100.238636
21
-11.708
31
0
39
0
210
0
220
0
230
1
0
LINE
5
A1
100
AcDbEntity
8
1
62
256
6
ByLayer
370
18
48
1
60
0
100
AcDbLine
10
89.4
20
11.708
30
0
11
89.4
21
-11.708
31
0
39
0
210
0
220
0
230
1
0
LINE
5
A2
100
AcDbEntity
8
1
62
256
6
ByLayer
370
18
48
1
60
0
100
AcDbLine
10
89.4
20
11.708
30
0
11
89.4
21
-11.708
31
0
39
0
210
0
220
0
230
1
0
LINE
5
A3
100
AcDbEntity
8
1
62
256
6
ByLayer
370
18
48
1
60
0
100
AcDbLine
10
100.238636
20
11.708
30
0
11
100.238636
21
-11.708
31
0
39
0
210
0
220
0
230
1
0
LINE
5
A4
100
AcDbEntity
8
1
62
256
6
ByLayer
370
18
48
1
60
0
100
AcDbLine
10
89.4
20
11.708
30
0
11
89.4
21
-11.708
31
0
39
0
210
0
220
0
230
1
0
LINE
5
A5
100
AcDbEntity
8
1
62
256
6
ByLayer
370
18
48
1
60
0
100
AcDbLine
10
100.238636
20
11.708
30
0
11
100.238636
21
-11.708
31
0
39
0
210
0
220
0
230
1
0
LINE
5
A6
100
AcDbEntity
8
SK2
62
256
6
ByLayer
370
13
48
1
60
0
100
AcDbLine
10
-62.5
20
-12.7
30
0
11
-62.5
21
42.040455
31
0
39
0
210
0
220
0
230
1
0
LINE
5
A8
100
AcDbEntity
8
SK2
62
256
6
ByLayer
370
13
48
1
60
0
100
AcDbLine
10
-57.5875
20
12.7
30
0
11
-64.5
21
12.7
31
0
39
0
210
0
220
0
230
1
0
LINE
5
A9
100
AcDbEntity
8
SK2
62
256
6
ByLayer
370
13
48
1
60
0
100
AcDbLine
10
-57.5875
20
-12.7
30
0
11
-64.5
21
-12.7
31
0
39
0
210
0
220
0
230
1
0
LINE
5
AA
100
AcDbEntity
8
1
62
256
6
ByLayer
370
18
48
1
60
1
100
AcDbLine
10
-62.5
20
12.7
30
0
11
-62.039216
21
9.200002
31
0
39
0
210
0
220
0
230
1
0
LINE
5
AB
100
AcDbEntity
8
1
62
256
6
ByLayer
370
18
48
1
60
1
100
AcDbLine
10
-62.039216
20
9.200002
30
0
11
-62.960784
21
9.199998
31
0
39
0
210
0
220
0
230
1
0
LINE
5
AC
100
AcDbEntity
8
1
62
256
6
ByLayer
370
18
48
1
60
1
100
AcDbLine
10
-62.960784
20
9.199998
30
0
11
-62.5
21
12.7
31
0
39
0
210
0
220
0
230
1
0
LINE
5
AD
100
AcDbEntity
8
1
62
256
6
ByLayer
370
18
48
1
60
1
100
AcDbLine
10
-62.5
20
-12.7
30
0
11
-62.960784
21
-9.200002
31
0
39
0
210
0
220
0
230
1
0
LINE
5
AE
100
AcDbEntity
8
1
62
256
6
ByLayer
370
18
48
1
60
1
100
AcDbLine
10
-62.960784
20
-9.200002
30
0
11
-62.039216
21
-9.199998
31
0
39
0
210
0
220
0
230
1
0
LINE
5
AF
100
AcDbEntity
8
1
62
256
6
ByLayer
370
18
48
1
60
1
100
AcDbLine
10
-62.039216
20
-9.199998
30
0
11
-62.5
21
-12.7
31
0
39
0
210
0
220
0
230
1
0
LINE
5
B0
100
AcDbEntity
8
2
62
256
6
ByLayer
370
13
48
1
60
0
100
AcDbLine
10
112
20
-11.708
30
0
11
112
21
40.298569
31
0
39
0
210
0
220
0
230
1
0
LINE
5
B2
100
AcDbEntity
8
2
62
256
6
ByLayer
370
13
48
1
60
0
100
AcDbLine
10
101.826136
20
11.708
30
0
11
114
21
11.708
31
0
39
0
210
0
220
0
230
1
0
LINE
5
B3
100
AcDbEntity
8
2
62
256
6
ByLayer
370
13
48
1
60
0
100
AcDbLine
10
101.826136
20
-11.708
30
0
11
114
21
-11.708
31
0
39
0
210
0
220
0
230
1
0
LINE
5
B4
100
AcDbEntity
8
1
62
256
6
ByLayer
370
18
48
1
60
1
100
AcDbLine
10
112
20
11.708
30
0
11
112.460784
21
8.208002
31
0
39
0
210
0
220
0
230
1
0
LINE
5
B5
100
AcDbEntity
8
1
62
256
6
ByLayer
370
18
48
1
60
1
100
AcDbLine
10
112.460784
20
8.208002
30
0
11
111.539216
21
8.207998
31
0
39
0
210
0
220
0
230
1
0
LINE
5
B6
100
AcDbEntity
8
1
62
256
6
ByLayer
370
18
48
1
60
1
100
AcDbLine
10
111.539216
20
8.207998
30
0
11
112
21
11.708
31
0
39
0
210
0
220
0
230
1
0
LINE
5
B7
100
AcDbEntity
8
1
62
256
6
ByLayer
370
18
48
1
60
1
100
AcDbLine
10
112
20
-11.708
30
0
11
111.539216
21
-8.208002
31
0
39
0
210
0
220
0
230
1
0
LINE
5
B8
100
AcDbEntity
8
1
62
256
6
ByLayer
370
18
48
1
60
1
100
AcDbLine
10
111.539216
20
-8.208002
30
0
11
112.460784
21
-8.207998
31
0
39
0
210
0
220
0
230
1
0
LINE
5
B9
100
AcDbEntity
8
1
62
256
6
ByLayer
370
18
48
1
60
1
100
AcDbLine
10
112.460784
20
-8.207998
30
0
11
112
21
-11.708
31
0
39
0
210
0
220
0
230
1
0
LINE
5
BA
100
AcDbEntity
8
SK2
62
256
6
ByLayer
370
13
48
1
60
0
100
AcDbLine
10
105.042957
20
-1.491762
30
0
11
111.682423
21
-19.733545
31
0
39
0
210
0
220
0
230
1
0
LINE
5
BB
100
AcDbEntity
8
SK2
62
256
6
ByLayer
370
13
48
1
60
0
100
AcDbLine
10
105.042957
20
1.491762
30
0
11
111.682423
21
19.733545
31
0
39
0
210
0
220
0
230
1
0
LINE
5
BC
100
AcDbEntity
8
1
62
256
6
ByLayer
370
18
48
1
60
1
100
AcDbLine
10
110.998383
20
-17.85416
30
0
11
114.051575
21
-16.082064
31
0
39
0
210
0
220
0
230
1
0
LINE
5
BD
100
AcDbEntity
8
1
62
256
6
ByLayer
370
18
48
1
60
1
100
AcDbLine
10
114.051575
20
-16.082064
30
0
11
114.406196
21
-16.93267
31
0
39
0
210
0
220
0
230
1
0
LINE
5
BE
100
AcDbEntity
8
1
62
256
6
ByLayer
370
18
48
1
60
1
100
AcDbLine
10
114.406196
20
-16.93267
30
0
11
110.998383
21
-17.85416
31
0
39
0
210
0
220
0
230
1
0
LINE
5
BF
100
AcDbEntity
8
1
62
256
6
ByLayer
370
18
48
1
60
1
100
AcDbLine
10
110.998383
20
17.85416
30
0
11
114.406193
21
16.932671
31
0
39
0
210
0
220
0
230
1
0
LINE
5
C0
100
AcDbEntity
8
1
62
256
6
ByLayer
370
18
48
1
60
1
100
AcDbLine
10
114.406193
20
16.932671
30
0
11
114.051579
21
16.082063
31
0
39
0
210
0
220
0
230
1
0
LINE
5
C1
100
AcDbEntity
8
1
62
256
6
ByLayer
370
18
48
1
60
1
100
AcDbLine
10
114.051579
20
16.082063
30
0
11
110.998383
21
17.85416
31
0
39
0
210
0
220
0
230
1
0
LINE
5
13E
100
AcDbEntity
8
1
62
256
6
ByLayer
370
18
48
1
60
1
100
AcDbLine
10
-62.5
20
12.7
30
0
11
-62.039216
21
9.200002
31
0
39
0
210
0
220
0
230
1
0
LINE
5
13F
100
AcDbEntity
8
1
62
256
6
ByLayer
370
18
48
1
60
1
100
AcDbLine
10
-62.039216
20
9.200002
30
0
11
-62.960784
21
9.199998
31
0
39
0
210
0
220
0
230
1
0
LINE
5
140
100
AcDbEntity
8
1
62
256
6
ByLayer
370
18
48
1
60
1
100
AcDbLine
10
-62.960784
20
9.199998
30
0
11
-62.5
21
12.7
31
0
39
0
210
0
220
0
230
1
0
LINE
5
142
100
AcDbEntity
8
1
62
256
6
ByLayer
370
18
48
1
60
1
100
AcDbLine
10
-62.5
20
-12.7
30
0
11
-62.960784
21
-9.200002
31
0
39
0
210
0
220
0
230
1
0
LINE
5
143
100
AcDbEntity
8
1
62
256
6
ByLayer
370
18
48
1
60
1
100
AcDbLine
10
-62.960784
20
-9.200002
30
0
11
-62.039216
21
-9.199998
31
0
39
0
210
0
220
0
230
1
0
LINE
5
144
100
AcDbEntity
8
1
62
256
6
ByLayer
370
18
48
1
60
1
100
AcDbLine
10
-62.039216
20
-9.199998
30
0
11
-62.5
21
-12.7
31
0
39
0
210
0
220
0
230
1
0
LINE
5
148
100
AcDbEntity
8
1
62
256
6
ByLayer
370
18
48
1
60
1
100
AcDbLine
10
112
20
11.708
30
0
11
112.460784
21
8.208002
31
0
39
0
210
0
220
0
230
1
0
LINE
5
149
100
AcDbEntity
8
1
62
256
6
ByLayer
370
18
48
1
60
1
100
AcDbLine
10
112.460784
20
8.208002
30
0
11
111.539216
21
8.207998
31
0
39
0
210
0
220
0
230
1
0
LINE
5
14A
100
AcDbEntity
8
1
62
256
6
ByLayer
370
18
48
1
60
1
100
AcDbLine
10
111.539216
20
8.207998
30
0
11
112
21
11.708
31
0
39
0
210
0
220
0
230
1
0
LINE
5
14C
100
AcDbEntity
8
1
62
256
6
ByLayer
370
18
48
1
60
1
100
AcDbLine
10
112
20
-11.708
30
0
11
111.539216
21
-8.208002
31
0
39
0
210
0
220
0
230
1
0
LINE
5
14D
100
AcDbEntity
8
1
62
256
6
ByLayer
370
18
48
1
60
1
100
AcDbLine
10
111.539216
20
-8.208002
30
0
11
112.460784
21
-8.207998
31
0
39
0
210
0
220
0
230
1
0
LINE
5
14E
100
AcDbEntity
8
1
62
256
6
ByLayer
370
18
48
1
60
1
100
AcDbLine
10
112.460784
20
-8.207998
30
0
11
112
21
-11.708
31
0
39
0
210
0
220
0
230
1
0
LINE
5
151
100
AcDbEntity
8
1
62
256
6
ByLayer
370
18
48
1
60
1
100
AcDbLine
10
110.998383
20
-17.85416
30
0
11
114.051575
21
-16.082064
31
0
39
0
210
0
220
0
230
1
0
LINE
5
152
100
AcDbEntity
8
1
62
256
6
ByLayer
370
18
48
1
60
1
100
AcDbLine
10
114.051575
20
-16.082064
30
0
11
114.406196
21
-16.93267
31
0
39
0
210
0
220
0
230
1
0
LINE
5
153
100
AcDbEntity
8
1
62
256
6
ByLayer
370
18
48
1
60
1
100
AcDbLine
10
114.406196
20
-16.93267
30
0
11
110.998383
21
-17.85416
31
0
39
0
210
0
220
0
230
1
0
LINE
5
155
100
AcDbEntity
8
1
62
256
6
ByLayer
370
18
48
1
60
1
100
AcDbLine
10
110.998383
20
17.85416
30
0
11
114.406193
21
16.932671
31
0
39
0
210
0
220
0
230
1
0
LINE
5
156
100
AcDbEntity
8
1
62
256
6
ByLayer
370
18
48
1
60
1
100
AcDbLine
10
114.406193
20
16.932671
30
0
11
114.051579
21
16.082063
31
0
39
0
210
0
220
0
230
1
0
LINE
5
157
100
AcDbEntity
8
1
62
256
6
ByLayer
370
18
48
1
60
1
100
AcDbLine
10
114.051579
20
16.082063
30
0
11
110.998383
21
17.85416
31
0
39
0
210
0
220
0
230
1
0
MTEXT
5
13A
100
AcDbEntity
8
SK2
62
256
6
ByLayer
370
18
48
1
60
0
100
AcDbMText
10
-63.841114
20
24.358437
30
0
210
0
220
0
230
1
1
%%c
40
3
41
0
44
1.084337
50
90
71
7
72
5
7
iso_b_vert
0
MTEXT
5
13D
100
AcDbEntity
8
SK2
62
256
6
ByLayer
370
18
48
1
60
0
100
AcDbMText
10
-63.841114
20
30.335
30
0
210
0
220
0
230
1
1
\W0.7728;25.400
40
3
41
0
44
1.084337
50
90
71
7
72
5
7
iso_b_vert
0
MTEXT
5
146
100
AcDbEntity
8
2
62
256
6
ByLayer
370
18
48
1
60
0
100
AcDbMText
10
110.658886
20
23.366437
30
0
210
0
220
0
230
1
1
%%c
40
3
41
0
44
1.084337
50
90
71
7
72
5
7
iso_b_vert
0
MTEXT
5
147
100
AcDbEntity
8
2
62
256
6
ByLayer
370
18
48
1
60
0
100
AcDbMText
10
110.658886
20
29.343
30
0
210
0
220
0
230
1
1
\W0.7237;23.416
40
3
41
0
44
1.084337
50
90
71
7
72
5
7
iso_b_vert
0
MTEXT
5
150
100
AcDbEntity
8
SK2
62
256
6
ByLayer
370
18
48
1
60
0
100
AcDbMText
10
124.409114
20
3.734657
30
0
210
0
220
0
230
1
1
\W0.7071;140%%d
40
3
41
0
44
1.084337
50
270
71
7
72
5
7
iso_b_vert
0
MTEXT
5
159
100
AcDbEntity
8
SK6
62
256
6
ByLayer
370
18
48
1
60
0
100
AcDbMText
10
-4.292397
20
-67.114886
30
0
210
0
220
0
230
1
1
\W0.7930;H85359/64
40
3
41
0
44
1.084337
50
0
71
7
72
5
7
iso_b_vert
0
HATCH
5
141
100
AcDbEntity
8
SK2
62
256
6
ByLayer
370
13
48
1
60
0
100
AcDbHatch
10
0
20
0
30
0
210
0
220
0
230
1
2
ANSI31
70
0
71
0
91
1
92
5
93
3
72
1
10
-62.5
20
12.7
11
-62.0392162584472
21
9.20000169255317
72
1
10
-62.0392162584472
20
9.20000169255317
11
-62.9607837415528
21
9.1999983074468
72
1
10
-62.9607837415528
20
9.1999983074468
11
-62.5
21
12.7
97
0
75
0
76
1
52
0
41
0.0062
77
0
78
1
53
45
43
0
44
0
45
-0.0139193969876572
46
0.0139193969876572
79
0
47
0
98
1
10
0
20
0
0
HATCH
5
145
100
AcDbEntity
8
SK2
62
256
6
ByLayer
370
13
48
1
60
0
100
AcDbHatch
10
0
20
0
30
0
210
0
220
0
230
1
2
ANSI31
70
0
71
0
91
1
92
5
93
3
72
1
10
-62.5
20
-12.7
11
-62.9607837415528
21
-9.20000169255317
72
1
10
-62.9607837415528
20
-9.20000169255317
11
-62.0392162584472
21
-9.1999983074468
72
1
10
-62.0392162584472
20
-9.1999983074468
11
-62.5
21
-12.7
97
0
75
0
76
1
52
0
41
0.0062
77
0
78
1
53
45
43
0
44
0
45
-0.0139193969876572
46
0.0139193969876572
79
0
47
0
98
1
10
0
20
0
0
HATCH
5
14B
100
AcDbEntity
8
2
62
256
6
ByLayer
370
13
48
1
60
0
100
AcDbHatch
10
0
20
0
30
0
210
0
220
0
230
1
2
ANSI31
70
0
71
0
91
1
92
5
93
3
72
1
10
112
20
11.708
11
112.460783741553
21
8.20800169255318
72
1
10
112.460783741553
20
8.20800169255318
11
111.539216258447
21
8.20799830744681
72
1
10
111.539216258447
20
8.20799830744681
11
112
21
11.708
97
0
75
0
76
1
52
0
41
0.0062
77
0
78
1
53
45
43
0
44
0
45
-0.0139193969876572
46
0.0139193969876572
79
0
47
0
98
1
10
0
20
0
0
HATCH
5
14F
100
AcDbEntity
8
2
62
256
6
ByLayer
370
13
48
1
60
0
100
AcDbHatch
10
0
20
0
30
0
210
0
220
0
230
1
2
ANSI31
70
0
71
0
91
1
92
5
93
3
72
1
10
112
20
-11.708
11
111.539216258447
21
-8.20800169255318
72
1
10
111.539216258447
20
-8.20800169255318
11
112.460783741553
21
-8.20799830744681
72
1
10
112.460783741553
20
-8.20799830744681
11
112
21
-11.708
97
0
75
0
76
1
52
0
41
0.0062
77
0
78
1
53
45
43
0
44
0
45
-0.0139193969876572
46
0.0139193969876572
79
0
47
0
98
1
10
0
20
0
0
HATCH
5
154
100
AcDbEntity
8
SK2
62
256
6
ByLayer
370
13
48
1
60
0
100
AcDbHatch
10
0
20
0
30
0
210
0
220
0
230
1
2
ANSI31
70
0
71
0
91
1
92
5
93
3
72
1
10
110.998382723188
20
-17.8541597949323
11
114.051575425693
21
-16.0820638240608
72
1
10
114.051575425693
20
-16.0820638240608
11
114.406195833975
21
-16.9326700737196
72
1
10
114.406195833975
20
-16.9326700737196
11
110.998382723188
21
-17.8541597949323
97
0
75
0
76
1
52
0
41
0.0062
77
0
78
1
53
45
43
0
44
0
45
-0.0139193969876572
46
0.0139193969876572
79
0
47
0
98
1
10
0
20
0
0
HATCH
5
158
100
AcDbEntity
8
SK2
62
256
6
ByLayer
370
13
48
1
60
0
100
AcDbHatch
10
0
20
0
30
0
210
0
220
0
230
1
2
ANSI31
70
0
71
0
91
1
92
5
93
3
72
1
10
110.998382723188
20
17.8541597949323
11
114.406192709519
21
16.9326713763016
72
1
10
114.406192709519
20
16.9326713763016
11
114.051578550149
21
16.0820625214788
72
1
10
114.051578550149
20
16.0820625214788
11
110.998382723188
21
17.8541597949323
97
0
75
0
76
1
52
0
41
0.0062
77
0
78
1
53
45
43
0
44
0
45
-0.0139193969876572
46
0.0139193969876572
79
0
47
0
98
1
10
0
20
0
0
DIMENSION
5
15C
100
AcDbEntity
8
SK2
62
256
6
ByLayer
370
18
48
1
60
0
100
AcDbDimension
2
_U0
10
104.5
20
-45.952229
30
0
11
24.25
21
-45.952229
31
0
70
32
71
1
72
1
41
1
210
0
220
0
230
1
3
Standard
100
AcDbAlignedDimension
13
-56
23
-12.7
33
0
14
104.5
24
0
34
0
50
0
100
AcDbRotatedDimension
1001
ACAD
1000
DSTYLE
1002
{
1070
   371
1070
    13
1070
   372
1070
    13
1070
     3
1000

1070
   170
1070
     0
1070
   144
1040
1.0
1070
   277
1070
     2
1070
   284
1070
     8
1070
   278
1070
    46
1070
   146
1040
1.166667
1070
   345
1005
16
1070
   347
1005
16
1070
   346
1005
16
1070
   344
1005
0
1070
   343
1005
0
1070
   172
1070
     1
1070
    76
1070
     0
1070
    75
1070
     0
1070
   282
1070
     0
1070
   281
1070
     0
1070
    71
1070
     0
1070
    74
1070
     0
1070
   279
1070
     0
1070
   173
1070
     1
1070
   340
1005
13B
1070
   271
1070
     2
1070
   272
1070
     3
1070
    77
1070
     1
1070
    73
1070
     1
1070
   171
1070
     3
1070
   274
1070
     4
1070
   177
1070
     2
1070
   176
1070
     2
1070
   178
1070
     2
1070
    78
1070
     8
1070
    48
1040
-0.1
1070
    41
1040
3.5
1070
   147
1040
1.5
1070
    42
1040
1.5875
1070
    44
1040
2.0
1070
   140
1040
3.0
1002
}
1001
ACAD_DSTYLE_DIM_LINETYPE
1070
   380
1005
16
1001
ACAD_DSTYLE_DIM_EXT1_LINETYPE
1070
   381
1005
16
1001
ACAD_DSTYLE_DIM_EXT2_LINETYPE
1070
   382
1005
16
0
DIMENSION
5
175
100
AcDbEntity
8
SK2
62
256
6
ByLayer
370
18
48
1
60
0
100
AcDbDimension
2
_U1
10
3
20
-35.952229
30
0
11
53.75
21
-35.952229
31
0
70
32
71
1
72
1
41
1
210
0
220
0
230
1
3
Standard
100
AcDbAlignedDimension
13
104.5
23
0
33
0
14
3
24
-11.708
34
0
50
0
100
AcDbRotatedDimension
1001
ACAD
1000
DSTYLE
1002
{
1070
   371
1070
    13
1070
   372
1070
    13
1070
     3
1000

1070
   170
1070
     0
1070
   144
1040
1.0
1070
   277
1070
     2
1070
   284
1070
     8
1070
   278
1070
    46
1070
   146
1040
1.166667
1070
   345
1005
16
1070
   347
1005
16
1070
   346
1005
16
1070
   344
1005
0
1070
   343
1005
0
1070
   172
1070
     1
1070
    76
1070
     0
1070
    75
1070
     0
1070
   282
1070
     0
1070
   281
1070
     0
1070
    71
1070
     0
1070
    74
1070
     0
1070
   279
1070
     0
1070
   173
1070
     1
1070
   340
1005
13B
1070
   271
1070
     2
1070
   272
1070
     3
1070
    77
1070
     1
1070
    73
1070
     1
1070
   171
1070
     3
1070
   274
1070
     4
1070
   177
1070
     2
1070
   176
1070
     2
1070
   178
1070
     2
1070
    78
1070
     8
1070
    48
1040
-0.1
1070
    41
1040
3.5
1070
   147
1040
1.5
1070
    42
1040
1.5875
1070
    44
1040
2.0
1070
   140
1040
3.0
1002
}
1001
ACAD_DSTYLE_DIM_LINETYPE
1070
   380
1005
16
1001
ACAD_DSTYLE_DIM_EXT1_LINETYPE
1070
   381
1005
16
1001
ACAD_DSTYLE_DIM_EXT2_LINETYPE
1070
   382
1005
16
0
DIMENSION
5
18D
100
AcDbEntity
8
SK2
62
256
6
ByLayer
370
18
48
1
60
0
100
AcDbDimension
2
_U2
10
0
20
-35.952229
30
0
11
-28
21
-35.952229
31
0
70
32
71
1
72
1
41
1
210
0
220
0
230
1
3
Standard
100
AcDbAlignedDimension
13
-56
23
-12.7
33
0
14
0
24
-12.7
34
0
50
0
100
AcDbRotatedDimension
1001
ACAD
1000
DSTYLE
1002
{
1070
   371
1070
    13
1070
   372
1070
    13
1070
     3
1000

1070
   170
1070
     0
1070
   144
1040
1.0
1070
   277
1070
     2
1070
   284
1070
     8
1070
   278
1070
    46
1070
   146
1040
1.166667
1070
   345
1005
16
1070
   347
1005
16
1070
   346
1005
16
1070
   344
1005
0
1070
   343
1005
0
1070
   172
1070
     1
1070
    76
1070
     0
1070
    75
1070
     0
1070
   282
1070
     0
1070
   281
1070
     0
1070
    71
1070
     0
1070
    74
1070
     0
1070
   279
1070
     0
1070
   173
1070
     1
1070
   340
1005
13B
1070
   271
1070
     2
1070
   272
1070
     3
1070
    77
1070
     1
1070
    73
1070
     1
1070
   171
1070
     3
1070
   274
1070
     4
1070
   177
1070
     2
1070
   176
1070
     2
1070
   178
1070
     2
1070
    78
1070
     8
1070
    48
1040
-0.1
1070
    41
1040
3.5
1070
   147
1040
1.5
1070
    42
1040
1.5875
1070
    44
1040
2.0
1070
   140
1040
3.0
1002
}
1001
ACAD_DSTYLE_DIM_LINETYPE
1070
   380
1005
16
1001
ACAD_DSTYLE_DIM_EXT1_LINETYPE
1070
   381
1005
16
1001
ACAD_DSTYLE_DIM_EXT2_LINETYPE
1070
   382
1005
16
0
DIMENSION
5
1A5
100
AcDbEntity
8
SK2
62
256
6
ByLayer
370
18
48
1
60
0
100
AcDbDimension
2
_U3
10
22
20
32.952229
30
0
11
63.25
21
32.952229
31
0
70
32
71
1
72
1
41
1
210
0
220
0
230
1
3
Standard
100
AcDbAlignedDimension
13
104.5
23
0
33
0
14
22
24
11.708
34
0
50
0
100
AcDbRotatedDimension
1001
ACAD
1000
DSTYLE
1002
{
1070
   371
1070
    13
1070
   372
1070
    13
1070
     3
1000

1070
   170
1070
     0
1070
   144
1040
1.0
1070
   277
1070
     2
1070
   284
1070
     8
1070
   278
1070
    46
1070
   146
1040
1.166667
1070
   345
1005
16
1070
   347
1005
16
1070
   346
1005
16
1070
   344
1005
0
1070
   343
1005
0
1070
   172
1070
     1
1070
    76
1070
     0
1070
    75
1070
     0
1070
   282
1070
     0
1070
   281
1070
     0
1070
    71
1070
     0
1070
    74
1070
     0
1070
   279
1070
     0
1070
   173
1070
     1
1070
   340
1005
13B
1070
   271
1070
     2
1070
   272
1070
     3
1070
    77
1070
     1
1070
    73
1070
     1
1070
   171
1070
     3
1070
   274
1070
     4
1070
   177
1070
     2
1070
   176
1070
     2
1070
   178
1070
     2
1070
    78
1070
     8
1070
    48
1040
-0.1
1070
    41
1040
3.5
1070
   147
1040
1.5
1070
    42
1040
1.5875
1070
    44
1040
2.0
1070
   140
1040
3.0
1002
}
1001
ACAD_DSTYLE_DIM_LINETYPE
1070
   380
1005
16
1001
ACAD_DSTYLE_DIM_EXT1_LINETYPE
1070
   381
1005
16
1001
ACAD_DSTYLE_DIM_EXT2_LINETYPE
1070
   382
1005
16
0
ENDSEC
0
SECTION
2
OBJECTS
0
DICTIONARY
5
22d
330
0
100
AcDbDictionary
280
0
281
1
3
ACAD_GROUP
350
22e
3
ACAD_MLINESTYLE
350
22f
0
DICTIONARY
5
22e
330
0
100
AcDbDictionary
280
0
281
1
0
DICTIONARY
5
22f
330
0
100
AcDbDictionary
280
0
281
1
3
Standard
350
18
0
MLINESTYLE
5
18
330
22f
100
AcDbMlineStyle
2
Standard
70
0
3

62
256
51
90
52
90
71
2
49
-0.5
62
256
6
ByLayer
49
0.5
62
256
6
ByLayer
0
RASTERVARIABLES
5
21b
330

100
AcDbRasterVariables
90
0
70
1
71
1
72
1
0
ENDSEC
0
EOF
