0
SECTION
2
HEADER
9
$ACADVER
1
AC1015
9
$DWGCODEPAGE
3
ANSI_1252
9
$HANDSEED
5
237
9
$ANGBASE
50
0
9
$ANGDIR
70
0
9
$ATTMODE
70
1
9
$AUNITS
70
0
9
$AUPREC
70
0
9
$CECOLOR
62
256
9
$CELTSCALE
40
1
9
$CELTYPE
6
ByLayer
9
$CELWEIGHT
370
18
9
$CLAYER
8
0
9
$CMLJUST
70
0
9
$CMLSCALE
40
1
9
$CMLSTYLE
2
Standard
9
$DIMSTYLE
2
Standard
9
$TEXTSIZE
40
0.2
9
$TEXTSTYLE
7
Standard
9
$LUNITS
70
2
9
$LUPREC
70
4
9
$EXTNAMES
290
1
9
$INSUNITS
70
4
9
$LTSCALE
40
1
9
$LWDISPLAY
290
1
9
$PDMODE
70
0
9
$PDSIZE
40
0
9
$PLINEGEN
70
0
0
ENDSEC
0
SECTION
2
CLASSES
0
CLASS
1
RASTERVARIABLES
2
AcDbRasterVariables
3
ISM
90
0
280
0
281
0
0
ENDSEC
0
SECTION
2
TABLES
0
TABLE
2
VPORT
5
22d
100
AcDbSymbolTable
0
VPORT
5
1
100
AcDbSymbolTableRecord
100
AcDbViewportTableRecord
2
*Active
70
0
10
0
20
0
11
1
21
1
12
-1
22
1
13
0
23
0
14
0.5
24
0.5
15
10
25
10
16
0
26
0
36
1
17
0
27
0
37
0
0
ENDTAB
0
TABLE
2
LTYPE
5
22e
100
AcDbSymbolTable
0
LTYPE
5
14
100
AcDbSymbolTableRecord
100
AcDbLinetypeTableRecord
70
0
2
ByBlock
3

72
65
73
0
40
0
0
LTYPE
5
15
100
AcDbSymbolTableRecord
100
AcDbLinetypeTableRecord
70
0
2
ByLayer
3

72
65
73
0
40
0
0
LTYPE
5
16
100
AcDbSymbolTableRecord
100
AcDbLinetypeTableRecord
70
0
2
Continuous
3
Solid line
72
65
73
0
40
0
0
LTYPE
5
6E
100
AcDbSymbolTableRecord
100
AcDbLinetypeTableRecord
70
0
2
CENTER
3
____ _ ____ _ ____ _ ____
72
65
73
4
40
47.5
49
22
74
0
49
-8.5
74
0
49
8.5
74
0
49
-8.5
74
0
0
LTYPE
5
6F
100
AcDbSymbolTableRecord
100
AcDbLinetypeTableRecord
70
0
2
DASHED
3
__ __ __ __ __ __ __ __ __
72
65
73
2
40
25.72
49
12.86
74
0
49
-12.86
74
0
0
ENDTAB
0
TABLE
2
LAYER
5
22f
100
AcDbSymbolTable
0
LAYER
5
10
100
AcDbSymbolTableRecord
100
AcDbLayerTableRecord
2
0
70
0
62
7
6
Continuous
290
1
370
-3
390
0
0
LAYER
5
71
100
AcDbSymbolTableRecord
100
AcDbLayerTableRecord
2
81
70
0
62
-3
6
Continuous
290
1
370
-3
390
0
0
LAYER
5
73
100
AcDbSymbolTableRecord
100
AcDbLayerTableRecord
2
80
70
0
62
-6
6
Continuous
290
1
370
-3
390
0
0
LAYER
5
75
100
AcDbSymbolTableRecord
100
AcDbLayerTableRecord
2
1
70
0
62
4
6
Continuous
290
1
370
-3
390
0
0
LAYER
5
7E
100
AcDbSymbolTableRecord
100
AcDbLayerTableRecord
2
4
70
0
62
-2
6
CENTER
290
1
370
-3
390
0
0
LAYER
5
B1
100
AcDbSymbolTableRecord
100
AcDbLayerTableRecord
2
2
70
0
62
7
6
Continuous
290
1
370
-3
390
0
0
LAYER
5
15C
100
AcDbSymbolTableRecord
100
AcDbLayerTableRecord
2
Defpoints
70
0
62
7
6
Continuous
290
0
370
-3
390
0
0
LAYER
5
219
100
AcDbSymbolTableRecord
100
AcDbLayerTableRecord
2
SK4
70
0
62
2
6
CENTER
290
1
370
-3
390
0
0
LAYER
5
21a
100
AcDbSymbolTableRecord
100
AcDbLayerTableRecord
2
SK1
70
0
62
4
6
Continuous
290
1
370
-3
390
0
0
LAYER
5
21b
100
AcDbSymbolTableRecord
100
AcDbLayerTableRecord
2
SK2
70
0
62
7
6
Continuous
290
1
370
-3
390
0
0
LAYER
5
21c
100
AcDbSymbolTableRecord
100
AcDbLayerTableRecord
2
SK6
70
0
62
5
6
Continuous
290
1
370
-3
390
0
0
ENDTAB
0
TABLE
2
STYLE
5
230
100
AcDbSymbolTable
0
STYLE
5
11
100
AcDbSymbolTableRecord
100
AcDbTextStyleTableRecord
2
Standard
3
txt
70
0
71
0
40
0
41
1
42
0
50
0
0
STYLE
5
138
100
AcDbSymbolTableRecord
100
AcDbTextStyleTableRecord
2
iso_b_vert
3
simplex.shx
70
0
71
0
40
0
41
1
42
0
50
0
0
STYLE
5
139
100
AcDbSymbolTableRecord
100
AcDbTextStyleTableRecord
2
DWGDirectTextStyle
3
simplex
70
0
71
0
40
0
41
1
42
0
50
0
0
ENDTAB
0
TABLE
2
DIMSTYLE
5
231
100
AcDbSymbolTable
100
AcDbDimStyleTable
0
DIMSTYLE
105
27
100
AcDbSymbolTableRecord
100
AcDbDimStyleTableRecord
2
Standard
70
0
3
<>
41
0.18
42
0.0625
44
0.18
140
0.18
147
0.09
73
0
74
0
77
1
271
2
275
0
278
52
280
0
340
11
0
ENDTAB
0
TABLE
2
VIEW
5
232
100
AcDbSymbolTable
0
ENDTAB
0
TABLE
2
UCS
5
233
100
AcDbSymbolTable
0
ENDTAB
0
TABLE
2
APPID
5
234
100
AcDbSymbolTable
0
APPID
5
12
100
AcDbSymbolTableRecord
100
AcDbRegAppTableRecord
2
ACAD
70
0
0
APPID
5
158
100
AcDbSymbolTableRecord
100
AcDbRegAppTableRecord
2
ACAD_DSTYLE_DIMBREAK
70
0
0
APPID
5
1D8
100
AcDbSymbolTableRecord
100
AcDbRegAppTableRecord
2
ACAD_DSTYLE_DIM_LINETYPE
70
0
0
APPID
5
1D9
100
AcDbSymbolTableRecord
100
AcDbRegAppTableRecord
2
ACAD_DSTYLE_DIM_EXT1_LINETYPE
70
0
0
APPID
5
1DA
100
AcDbSymbolTableRecord
100
AcDbRegAppTableRecord
2
ACAD_DSTYLE_DIM_EXT2_LINETYPE
70
0
0
APPID
5
215
100
AcDbSymbolTableRecord
100
AcDbRegAppTableRecord
2
ACAD_MLEADERVER
70
0
0
ENDTAB
0
TABLE
2
BLOCK_RECORD
5
235
100
AcDbSymbolTable
0
BLOCK_RECORD
5
1F
100
AcDbSymbolTableRecord
100
AcDbBlockTableRecord
2
*Model_Space
340
0
70
0
0
BLOCK_RECORD
5
1B
100
AcDbSymbolTableRecord
100
AcDbBlockTableRecord
2
*Paper_Space
340
0
70
0
0
BLOCK_RECORD
5
23
100
AcDbSymbolTableRecord
100
AcDbBlockTableRecord
2
*Paper_Space0
340
0
70
0
0
BLOCK_RECORD
5
15D
100
AcDbSymbolTableRecord
100
AcDbBlockTableRecord
2
*D1
340
0
70
0
0
BLOCK_RECORD
5
169
100
AcDbSymbolTableRecord
100
AcDbBlockTableRecord
2
_U0
340
0
70
0
0
BLOCK_RECORD
5
175
100
AcDbSymbolTableRecord
100
AcDbBlockTableRecord
2
*D3
340
0
70
0
0
BLOCK_RECORD
5
181
100
AcDbSymbolTableRecord
100
AcDbBlockTableRecord
2
_U1
340
0
70
0
0
BLOCK_RECORD
5
18D
100
AcDbSymbolTableRecord
100
AcDbBlockTableRecord
2
*D5
340
0
70
0
0
BLOCK_RECORD
5
199
100
AcDbSymbolTableRecord
100
AcDbBlockTableRecord
2
_U2
340
0
70
0
0
BLOCK_RECORD
5
1A5
100
AcDbSymbolTableRecord
100
AcDbBlockTableRecord
2
*D7
340
0
70
0
0
BLOCK_RECORD
5
1B1
100
AcDbSymbolTableRecord
100
AcDbBlockTableRecord
2
_U3
340
0
70
0
0
ENDTAB
0
ENDSEC
0
SECTION
2
BLOCKS
0
BLOCK
5
20
100
AcDbEntity
8
0
100
AcDbBlockBegin
2
*Model_Space
70
0
10
0
20
0
30
0
3
*Model_Space
0
ENDBLK
5
21
100
AcDbEntity
8
0
100
AcDbBlockEnd
0
BLOCK
5
1C
100
AcDbEntity
8
0
100
AcDbBlockBegin
2
*Paper_Space
70
0
10
0
20
0
30
0
3
*Paper_Space
0
ENDBLK
5
1D
100
AcDbEntity
8
0
100
AcDbBlockEnd
0
BLOCK
5
24
100
AcDbEntity
8
0
100
AcDbBlockBegin
2
*Paper_Space0
70
0
10
0
20
0
30
0
3
*Paper_Space0
0
ENDBLK
5
25
100
AcDbEntity
8
0
100
AcDbBlockEnd
0
BLOCK
5
15E
100
AcDbEntity
8
0
100
AcDbBlockBegin
2
*D1
70
1
10
0
20
0
30
0
3
*D1
0
LINE
5
160
100
AcDbEntity
8
0
62
256
6
ByLayer
370
-2
48
1
60
0
100
AcDbLine
10
-56
20
-14.2875
30
0
11
-56
21
-47.952229
31
0
39
0
210
0
220
0
230
1
0
LINE
5
161
100
AcDbEntity
8
0
62
256
6
ByLayer
370
-2
48
1
60
0
100
AcDbLine
10
105.5
20
-1.5875
30
0
11
105.5
21
-47.952229
31
0
39
0
210
0
220
0
230
1
0
LINE
5
162
100
AcDbEntity
8
0
62
256
6
ByLayer
370
-2
48
1
60
0
100
AcDbLine
10
-52.5
20
-45.952229
30
0
11
102
21
-45.952229
31
0
39
0
210
0
220
0
230
1
0
SOLID
5
163
100
AcDbEntity
8
0
62
256
6
ByLayer
370
-1
48
1
60
0
100
AcDbTrace
10
-52.5
20
-45.368896
30
0
11
-52.5
21
-46.535563
31
0
12
-56
22
-45.952229
32
0
13
-56
23
-45.952229
33
0
39
0
210
0
220
0
230
1
0
SOLID
5
164
100
AcDbEntity
8
0
62
256
6
ByLayer
370
-1
48
1
60
0
100
AcDbTrace
10
102
20
-46.535563
30
0
11
102
21
-45.368896
31
0
12
105.5
22
-45.952229
32
0
13
105.5
23
-45.952229
33
0
39
0
210
0
220
0
230
1
0
MTEXT
5
165
100
AcDbEntity
8
0
62
256
6
ByLayer
370
18
48
1
60
0
100
AcDbMText
10
24.75
20
-39.952229
30
0
210
0
220
0
230
1
1
\A1;161.5
40
3
41
0
44
1
50
0
71
5
72
5
7
iso_b_vert
0
POINT
5
166
100
AcDbEntity
8
Defpoints
62
0
6
ByLayer
370
-1
48
1
60
0
100
AcDbPoint
10
-56
20
-12.7
30
0
39
0
210
0
220
0
230
1
50
360
0
POINT
5
167
100
AcDbEntity
8
Defpoints
62
0
6
ByLayer
370
-1
48
1
60
0
100
AcDbPoint
10
105.5
20
0
30
0
39
0
210
0
220
0
230
1
50
360
0
POINT
5
168
100
AcDbEntity
8
Defpoints
62
0
6
ByLayer
370
-1
48
1
60
0
100
AcDbPoint
10
105.5
20
-45.952229
30
0
39
0
210
0
220
0
230
1
50
360
0
ENDBLK
5
15F
100
AcDbEntity
8
0
100
AcDbBlockEnd
0
BLOCK
5
170
100
AcDbEntity
8
0
100
AcDbBlockBegin
2
_U0
70
0
10
0
20
0
30
0
3
_U0
0
MTEXT
5
16A
100
AcDbEntity
8
SK2
62
256
6
ByLayer
370
18
48
1
60
0
100
AcDbMText
10
19.896601
20
-45.067115
30
0
210
0
220
0
230
1
1
\W0.6532;161.50
40
3
41
0
44
1.084337
50
0
71
7
72
5
7
iso_b_vert
0
LINE
5
16B
100
AcDbEntity
8
SK2
62
256
6
ByLayer
370
13
48
1
60
0
100
AcDbLine
10
-56
20
-14.2875
30
0
11
-56
21
-47.952229
31
0
39
0
210
0
220
0
230
1
0
LINE
5
16C
100
AcDbEntity
8
SK2
62
256
6
ByLayer
370
13
48
1
60
0
100
AcDbLine
10
105.5
20
-1.5875
30
0
11
105.5
21
-47.952229
31
0
39
0
210
0
220
0
230
1
0
LINE
5
16D
100
AcDbEntity
8
SK2
62
256
6
ByLayer
370
13
48
1
60
0
100
AcDbLine
10
-56
20
-45.952229
30
0
11
105.5
21
-45.952229
31
0
39
0
210
0
220
0
230
1
0
SOLID
5
16E
100
AcDbEntity
8
SK2
62
256
6
ByLayer
370
18
48
1
60
0
100
AcDbTrace
10
-56
20
-45.952229
30
0
11
-52.500002
21
-45.491446
31
0
12
-52.499998
22
-46.413013
32
0
13
-52.499998
23
-46.413013
33
0
39
0
210
0
220
0
230
1
0
SOLID
5
16F
100
AcDbEntity
8
SK2
62
256
6
ByLayer
370
18
48
1
60
0
100
AcDbTrace
10
105.5
20
-45.952229
30
0
11
102.000002
21
-46.413013
31
0
12
101.999998
22
-45.491446
32
0
13
101.999998
23
-45.491446
33
0
39
0
210
0
220
0
230
1
0
ENDBLK
5
171
100
AcDbEntity
8
0
100
AcDbBlockEnd
0
BLOCK
5
176
100
AcDbEntity
8
0
100
AcDbBlockBegin
2
*D3
70
1
10
0
20
0
30
0
3
*D3
0
LINE
5
178
100
AcDbEntity
8
0
62
256
6
ByLayer
370
-2
48
1
60
0
100
AcDbLine
10
105.5
20
-1.5875
30
0
11
105.5
21
-37.952229
31
0
39
0
210
0
220
0
230
1
0
LINE
5
179
100
AcDbEntity
8
0
62
256
6
ByLayer
370
-2
48
1
60
0
100
AcDbLine
10
3
20
-12.8985
30
0
11
3
21
-37.952229
31
0
39
0
210
0
220
0
230
1
0
LINE
5
17A
100
AcDbEntity
8
0
62
256
6
ByLayer
370
-2
48
1
60
0
100
AcDbLine
10
102
20
-35.952229
30
0
11
6.5
21
-35.952229
31
0
39
0
210
0
220
0
230
1
0
SOLID
5
17B
100
AcDbEntity
8
0
62
256
6
ByLayer
370
-1
48
1
60
0
100
AcDbTrace
10
102
20
-36.535563
30
0
11
102
21
-35.368896
31
0
12
105.5
22
-35.952229
32
0
13
105.5
23
-35.952229
33
0
39
0
210
0
220
0
230
1
0
SOLID
5
17C
100
AcDbEntity
8
0
62
256
6
ByLayer
370
-1
48
1
60
0
100
AcDbTrace
10
6.5
20
-35.368896
30
0
11
6.5
21
-36.535563
31
0
12
3
22
-35.952229
32
0
13
3
23
-35.952229
33
0
39
0
210
0
220
0
230
1
0
MTEXT
5
17D
100
AcDbEntity
8
0
62
256
6
ByLayer
370
18
48
1
60
0
100
AcDbMText
10
54.25
20
-29.952229
30
0
210
0
220
0
230
1
1
\A1;102.5
40
3
41
0
44
1
50
0
71
5
72
5
7
iso_b_vert
0
POINT
5
17E
100
AcDbEntity
8
Defpoints
62
0
6
ByLayer
370
-1
48
1
60
0
100
AcDbPoint
10
105.5
20
0
30
0
39
0
210
0
220
0
230
1
50
360
0
POINT
5
17F
100
AcDbEntity
8
Defpoints
62
0
6
ByLayer
370
-1
48
1
60
0
100
AcDbPoint
10
3
20
-11.311
30
0
39
0
210
0
220
0
230
1
50
360
0
POINT
5
180
100
AcDbEntity
8
Defpoints
62
0
6
ByLayer
370
-1
48
1
60
0
100
AcDbPoint
10
3
20
-35.952229
30
0
39
0
210
0
220
0
230
1
50
360
0
ENDBLK
5
177
100
AcDbEntity
8
0
100
AcDbBlockEnd
0
BLOCK
5
188
100
AcDbEntity
8
0
100
AcDbBlockBegin
2
_U1
70
0
10
0
20
0
30
0
3
_U1
0
MTEXT
5
182
100
AcDbEntity
8
SK2
62
256
6
ByLayer
370
18
48
1
60
0
100
AcDbMText
10
49.021658
20
-35.067115
30
0
210
0
220
0
230
1
1
\W0.7022;102.50
40
3
41
0
44
1.084337
50
0
71
7
72
5
7
iso_b_vert
0
LINE
5
183
100
AcDbEntity
8
SK2
62
256
6
ByLayer
370
13
48
1
60
0
100
AcDbLine
10
105.5
20
-1.5875
30
0
11
105.5
21
-37.952229
31
0
39
0
210
0
220
0
230
1
0
LINE
5
184
100
AcDbEntity
8
SK2
62
256
6
ByLayer
370
13
48
1
60
0
100
AcDbLine
10
3
20
-12.8985
30
0
11
3
21
-37.952229
31
0
39
0
210
0
220
0
230
1
0
LINE
5
185
100
AcDbEntity
8
SK2
62
256
6
ByLayer
370
13
48
1
60
0
100
AcDbLine
10
105.5
20
-35.952229
30
0
11
3
21
-35.952229
31
0
39
0
210
0
220
0
230
1
0
SOLID
5
186
100
AcDbEntity
8
SK2
62
256
6
ByLayer
370
18
48
1
60
0
100
AcDbTrace
10
105.5
20
-35.952229
30
0
11
102.000002
21
-36.413013
31
0
12
101.999998
22
-35.491446
32
0
13
101.999998
23
-35.491446
33
0
39
0
210
0
220
0
230
1
0
SOLID
5
187
100
AcDbEntity
8
SK2
62
256
6
ByLayer
370
18
48
1
60
0
100
AcDbTrace
10
3
20
-35.952229
30
0
11
6.499998
21
-35.491446
31
0
12
6.500002
22
-36.413013
32
0
13
6.500002
23
-36.413013
33
0
39
0
210
0
220
0
230
1
0
ENDBLK
5
189
100
AcDbEntity
8
0
100
AcDbBlockEnd
0
BLOCK
5
18E
100
AcDbEntity
8
0
100
AcDbBlockBegin
2
*D5
70
1
10
0
20
0
30
0
3
*D5
0
LINE
5
190
100
AcDbEntity
8
0
62
256
6
ByLayer
370
-2
48
1
60
0
100
AcDbLine
10
-56
20
-14.2875
30
0
11
-56
21
-37.952229
31
0
39
0
210
0
220
0
230
1
0
LINE
5
191
100
AcDbEntity
8
0
62
256
6
ByLayer
370
-2
48
1
60
0
100
AcDbLine
10
0
20
-14.2875
30
0
11
0
21
-37.952229
31
0
39
0
210
0
220
0
230
1
0
LINE
5
192
100
AcDbEntity
8
0
62
256
6
ByLayer
370
-2
48
1
60
0
100
AcDbLine
10
-52.5
20
-35.952229
30
0
11
-3.5
21
-35.952229
31
0
39
0
210
0
220
0
230
1
0
SOLID
5
193
100
AcDbEntity
8
0
62
256
6
ByLayer
370
-1
48
1
60
0
100
AcDbTrace
10
-52.5
20
-35.368896
30
0
11
-52.5
21
-36.535563
31
0
12
-56
22
-35.952229
32
0
13
-56
23
-35.952229
33
0
39
0
210
0
220
0
230
1
0
SOLID
5
194
100
AcDbEntity
8
0
62
256
6
ByLayer
370
-1
48
1
60
0
100
AcDbTrace
10
-3.5
20
-36.535563
30
0
11
-3.5
21
-35.368896
31
0
12
0
22
-35.952229
32
0
13
0
23
-35.952229
33
0
39
0
210
0
220
0
230
1
0
MTEXT
5
195
100
AcDbEntity
8
0
62
256
6
ByLayer
370
18
48
1
60
0
100
AcDbMText
10
-28
20
-29.952229
30
0
210
0
220
0
230
1
1
\A1;56
40
3
41
0
44
1
50
0
71
5
72
5
7
iso_b_vert
0
POINT
5
196
100
AcDbEntity
8
Defpoints
62
0
6
ByLayer
370
-1
48
1
60
0
100
AcDbPoint
10
-56
20
-12.7
30
0
39
0
210
0
220
0
230
1
50
360
0
POINT
5
197
100
AcDbEntity
8
Defpoints
62
0
6
ByLayer
370
-1
48
1
60
0
100
AcDbPoint
10
0
20
-12.7
30
0
39
0
210
0
220
0
230
1
50
360
0
POINT
5
198
100
AcDbEntity
8
Defpoints
62
0
6
ByLayer
370
-1
48
1
60
0
100
AcDbPoint
10
0
20
-35.952229
30
0
39
0
210
0
220
0
230
1
50
360
0
ENDBLK
5
18F
100
AcDbEntity
8
0
100
AcDbBlockEnd
0
BLOCK
5
1A0
100
AcDbEntity
8
0
100
AcDbBlockBegin
2
_U2
70
0
10
0
20
0
30
0
3
_U2
0
MTEXT
5
19A
100
AcDbEntity
8
SK2
62
256
6
ByLayer
370
18
48
1
60
0
100
AcDbMText
10
-32.48237
20
-35.067115
30
0
210
0
220
0
230
1
1
\W0.7468;56.00
40
3
41
0
44
1.084337
50
0
71
7
72
5
7
iso_b_vert
0
LINE
5
19B
100
AcDbEntity
8
SK2
62
256
6
ByLayer
370
13
48
1
60
0
100
AcDbLine
10
-56
20
-14.2875
30
0
11
-56
21
-37.952229
31
0
39
0
210
0
220
0
230
1
0
LINE
5
19C
100
AcDbEntity
8
SK2
62
256
6
ByLayer
370
13
48
1
60
0
100
AcDbLine
10
0
20
-14.2875
30
0
11
0
21
-37.952229
31
0
39
0
210
0
220
0
230
1
0
LINE
5
19D
100
AcDbEntity
8
SK2
62
256
6
ByLayer
370
13
48
1
60
0
100
AcDbLine
10
-56
20
-35.952229
30
0
11
0
21
-35.952229
31
0
39
0
210
0
220
0
230
1
0
SOLID
5
19E
100
AcDbEntity
8
SK2
62
256
6
ByLayer
370
18
48
1
60
0
100
AcDbTrace
10
-56
20
-35.952229
30
0
11
-52.500002
21
-35.491446
31
0
12
-52.499998
22
-36.413013
32
0
13
-52.499998
23
-36.413013
33
0
39
0
210
0
220
0
230
1
0
SOLID
5
19F
100
AcDbEntity
8
SK2
62
256
6
ByLayer
370
18
48
1
60
0
100
AcDbTrace
10
0
20
-35.952229
30
0
11
-3.499998
21
-36.413013
31
0
12
-3.500002
22
-35.491446
32
0
13
-3.500002
23
-35.491446
33
0
39
0
210
0
220
0
230
1
0
ENDBLK
5
1A1
100
AcDbEntity
8
0
100
AcDbBlockEnd
0
BLOCK
5
1A6
100
AcDbEntity
8
0
100
AcDbBlockBegin
2
*D7
70
1
10
0
20
0
30
0
3
*D7
0
LINE
5
1A8
100
AcDbEntity
8
0
62
256
6
ByLayer
370
-2
48
1
60
0
100
AcDbLine
10
105.5
20
1.5875
30
0
11
105.5
21
34.952229
31
0
39
0
210
0
220
0
230
1
0
LINE
5
1A9
100
AcDbEntity
8
0
62
256
6
ByLayer
370
-2
48
1
60
0
100
AcDbLine
10
25.4
20
12.8985
30
0
11
25.4
21
34.952229
31
0
39
0
210
0
220
0
230
1
0
LINE
5
1AA
100
AcDbEntity
8
0
62
256
6
ByLayer
370
-2
48
1
60
0
100
AcDbLine
10
102
20
32.952229
30
0
11
28.9
21
32.952229
31
0
39
0
210
0
220
0
230
1
0
SOLID
5
1AB
100
AcDbEntity
8
0
62
256
6
ByLayer
370
-1
48
1
60
0
100
AcDbTrace
10
102
20
32.368896
30
0
11
102
21
33.535563
31
0
12
105.5
22
32.952229
32
0
13
105.5
23
32.952229
33
0
39
0
210
0
220
0
230
1
0
SOLID
5
1AC
100
AcDbEntity
8
0
62
256
6
ByLayer
370
-1
48
1
60
0
100
AcDbTrace
10
28.9
20
33.535563
30
0
11
28.9
21
32.368896
31
0
12
25.4
22
32.952229
32
0
13
25.4
23
32.952229
33
0
39
0
210
0
220
0
230
1
0
MTEXT
5
1AD
100
AcDbEntity
8
0
62
256
6
ByLayer
370
18
48
1
60
0
100
AcDbMText
10
65.45
20
38.952229
30
0
210
0
220
0
230
1
1
\A1;80.1
40
3
41
0
44
1
50
0
71
5
72
5
7
iso_b_vert
0
POINT
5
1AE
100
AcDbEntity
8
Defpoints
62
0
6
ByLayer
370
-1
48
1
60
0
100
AcDbPoint
10
105.5
20
0
30
0
39
0
210
0
220
0
230
1
50
360
0
POINT
5
1AF
100
AcDbEntity
8
Defpoints
62
0
6
ByLayer
370
-1
48
1
60
0
100
AcDbPoint
10
25.4
20
11.311
30
0
39
0
210
0
220
0
230
1
50
360
0
POINT
5
1B0
100
AcDbEntity
8
Defpoints
62
0
6
ByLayer
370
-1
48
1
60
0
100
AcDbPoint
10
25.4
20
32.952229
30
0
39
0
210
0
220
0
230
1
50
360
0
ENDBLK
5
1A7
100
AcDbEntity
8
0
100
AcDbBlockEnd
0
BLOCK
5
1B8
100
AcDbEntity
8
0
100
AcDbBlockBegin
2
_U3
70
0
10
0
20
0
30
0
3
_U3
0
MTEXT
5
1B2
100
AcDbEntity
8
SK2
62
256
6
ByLayer
370
18
48
1
60
0
100
AcDbMText
10
61.342572
20
33.837344
30
0
210
0
220
0
230
1
1
\W0.6864;80.10
40
3
41
0
44
1.084337
50
0
71
7
72
5
7
iso_b_vert
0
LINE
5
1B3
100
AcDbEntity
8
SK2
62
256
6
ByLayer
370
13
48
1
60
0
100
AcDbLine
10
105.5
20
1.5875
30
0
11
105.5
21
34.952229
31
0
39
0
210
0
220
0
230
1
0
LINE
5
1B4
100
AcDbEntity
8
SK2
62
256
6
ByLayer
370
13
48
1
60
0
100
AcDbLine
10
25.4
20
12.8985
30
0
11
25.4
21
34.952229
31
0
39
0
210
0
220
0
230
1
0
LINE
5
1B5
100
AcDbEntity
8
SK2
62
256
6
ByLayer
370
13
48
1
60
0
100
AcDbLine
10
105.5
20
32.952229
30
0
11
25.4
21
32.952229
31
0
39
0
210
0
220
0
230
1
0
SOLID
5
1B6
100
AcDbEntity
8
SK2
62
256
6
ByLayer
370
18
48
1
60
0
100
AcDbTrace
10
105.5
20
32.952229
30
0
11
102.000002
21
32.491446
31
0
12
101.999998
22
33.413013
32
0
13
101.999998
23
33.413013
33
0
39
0
210
0
220
0
230
1
0
SOLID
5
1B7
100
AcDbEntity
8
SK2
62
256
6
ByLayer
370
18
48
1
60
0
100
AcDbTrace
10
25.4
20
32.952229
30
0
11
28.899998
21
33.413013
31
0
12
28.900002
22
32.491446
32
0
13
28.900002
23
32.491446
33
0
39
0
210
0
220
0
230
1
0
ENDBLK
5
1B9
100
AcDbEntity
8
0
100
AcDbBlockEnd
0
ENDSEC
0
SECTION
2
ENTITIES
0
ARC
5
C2
100
AcDbEntity
8
SK2
62
256
6
ByLayer
370
13
48
1
60
0
100
AcDbCircle
39
0
10
105.5
20
0
30
0
40
18.9999999999999
210
0
220
0
230
1
100
AcDbArc
50
290
51
70
0
ELLIPSE
5
C3
100
AcDbEntity
8
SK1
62
256
6
ByLayer
370
18
48
1
60
0
100
AcDbEllipse
10
-20.619083
20
0
30
0
11
13.6190826173124
21
-1.54317782980885E-14
31
0
210
0
220
0
230
1
40
0.932515
41
-0.624896586633934
42
0.624896586633934
0
ELLIPSE
5
C4
100
AcDbEntity
8
SK1
62
256
6
ByLayer
370
18
48
1
60
0
100
AcDbEllipse
10
-37.157058
20
0
30
0
11
-2.33287510403163E-15
21
-12.7
31
0
210
0
220
0
230
1
40
0.932515
41
-2.1956929134288
42
-0.945899740160989
0
POINT
5
70
100
AcDbEntity
8
81
62
256
6
ByLayer
370
18
48
1
60
0
100
AcDbPoint
10
105.5
20
0
30
0
39
0
210
0
220
0
230
1
50
360
0
POINT
5
72
100
AcDbEntity
8
80
62
256
6
ByLayer
370
18
48
1
60
0
100
AcDbPoint
10
0
20
0
30
0
39
0
210
0
220
0
230
1
50
360
0
POINT
5
74
100
AcDbEntity
8
1
62
256
6
ByLayer
370
18
48
1
60
1
100
AcDbPoint
10
-56
20
-12.7
30
0
39
0
210
0
220
0
230
1
50
360
0
POINT
5
76
100
AcDbEntity
8
1
62
256
6
ByLayer
370
18
48
1
60
1
100
AcDbPoint
10
105.5
20
0
30
0
39
0
210
0
220
0
230
1
50
360
0
POINT
5
77
100
AcDbEntity
8
1
62
256
6
ByLayer
370
18
48
1
60
1
100
AcDbPoint
10
105.5
20
0
30
0
39
0
210
0
220
0
230
1
50
360
0
POINT
5
78
100
AcDbEntity
8
1
62
256
6
ByLayer
370
18
48
1
60
1
100
AcDbPoint
10
3
20
-11.311
30
0
39
0
210
0
220
0
230
1
50
360
0
POINT
5
79
100
AcDbEntity
8
1
62
256
6
ByLayer
370
18
48
1
60
1
100
AcDbPoint
10
-56
20
-12.7
30
0
39
0
210
0
220
0
230
1
50
360
0
POINT
5
7A
100
AcDbEntity
8
1
62
256
6
ByLayer
370
18
48
1
60
1
100
AcDbPoint
10
0
20
-12.7
30
0
39
0
210
0
220
0
230
1
50
360
0
POINT
5
7B
100
AcDbEntity
8
1
62
256
6
ByLayer
370
18
48
1
60
1
100
AcDbPoint
10
105.5
20
0
30
0
39
0
210
0
220
0
230
1
50
360
0
POINT
5
7C
100
AcDbEntity
8
1
62
256
6
ByLayer
370
18
48
1
60
1
100
AcDbPoint
10
25.4
20
11.311
30
0
39
0
210
0
220
0
230
1
50
360
0
SPLINE
5
C5
100
AcDbEntity
8
1
62
256
6
ByLayer
370
18
48
1
60
0
100
AcDbSpline
70
4
71
3
72
12
73
8
40
0
40
0
40
0
40
0
40
0.448430510766584
40
0.448430510766584
40
0.896861021533168
40
0.896861021533168
40
1
40
1
40
1
40
1
41
1
10
90.5
20
-11.2552332067006
30
0
41
1
10
90.9538892431975
20
-11.2714473179815
30
0
41
1
10
91.4077567707519
20
-11.2839914493716
30
0
41
1
10
92.3152650073669
20
-11.3018765848119
30
0
41
1
10
92.7689196860621
20
-11.3072133344637
30
0
41
1
10
93.3267407363996
20
-11.3093568220174
30
0
41
1
10
93.4310410946958
20
-11.3095675337676
30
0
41
1
10
93.5353332021196
20
-11.3095877493542
30
0
0
SPLINE
5
C6
100
AcDbEntity
8
1
62
256
6
ByLayer
370
18
48
1
60
0
100
AcDbSpline
70
4
71
3
72
132
73
128
40
0
40
0
40
0
40
0
40
0.0312499999999969
40
0.0312499999999969
40
0.0624999999999938
40
0.0624999999999938
40
0.0703124999999931
40
0.0703124999999931
40
0.0781249999999925
40
0.0781249999999925
40
0.0937499999999917
40
0.0937499999999917
40
0.109374999999991
40
0.109374999999991
40
0.12499999999999
40
0.140624999999989
40
0.140624999999989
40
0.148437499999989
40
0.148437499999989
40
0.156249999999989
40
0.156249999999989
40
0.187499999999989
40
0.187499999999989
40
0.203124999999989
40
0.203124999999989
40
0.21874999999999
40
0.21874999999999
40
0.23437499999999
40
0.23437499999999
40
0.24999999999999
40
0.24999999999999
40
0.281249999999991
40
0.281249999999991
40
0.296874999999991
40
0.296874999999991
40
0.312499999999991
40
0.312499999999991
40
0.328124999999991
40
0.328124999999991
40
0.343749999999991
40
0.343749999999991
40
0.37499999999999
40
0.37499999999999
40
0.39062499999999
40
0.39062499999999
40
0.406249999999989
40
0.406249999999989
40
0.437499999999988
40
0.437499999999988
40
0.453124999999988
40
0.453124999999988
40
0.460937499999988
40
0.460937499999988
40
0.468749999999988
40
0.468749999999988
40
0.484374999999987
40
0.484374999999987
40
0.499999999999986
40
0.499999999999986
40
0.515624999999985
40
0.515624999999985
40
0.531249999999984
40
0.531249999999984
40
0.539062499999984
40
0.539062499999984
40
0.546874999999983
40
0.546874999999983
40
0.562499999999982
40
0.562499999999982
40
0.59374999999998
40
0.59374999999998
40
0.601562499999979
40
0.601562499999979
40
0.609374999999978
40
0.609374999999978
40
0.617187499999978
40
0.617187499999978
40
0.624999999999977
40
0.624999999999977
40
0.656249999999975
40
0.656249999999975
40
0.671874999999973
40
0.671874999999973
40
0.679687499999973
40
0.679687499999973
40
0.687499999999972
40
0.687499999999972
40
0.695312499999972
40
0.695312499999972
40
0.703124999999972
40
0.703124999999972
40
0.718749999999973
40
0.718749999999973
40
0.749999999999976
40
0.749999999999976
40
0.757812499999976
40
0.757812499999976
40
0.765624999999976
40
0.765624999999976
40
0.781249999999977
40
0.781249999999977
40
0.796874999999978
40
0.796874999999978
40
0.812499999999979
40
0.82812499999998
40
0.82812499999998
40
0.835937499999981
40
0.835937499999981
40
0.843749999999981
40
0.843749999999981
40
0.859374999999983
40
0.859374999999983
40
0.874999999999985
40
0.874999999999985
40
0.890624999999987
40
0.890624999999987
40
0.906249999999989
40
0.906249999999989
40
0.921874999999991
40
0.921874999999991
40
0.937499999999993
40
0.937499999999993
40
0.968749999999996
40
0.968749999999996
40
0.984374999999998
40
0.984374999999998
40
1
40
1
40
1
40
1
41
1
10
18.5557652149325
20
8.11990700847525
30
0
41
1
10
19.3051200487333
20
7.95098275144278
30
0
41
1
10
20.0546710236442
20
7.77600368060183
30
0
41
1
10
21.5536973926674
20
7.41329630620075
30
0
41
1
10
22.3031758594408
20
7.22557299946286
30
0
41
1
10
23.2397108440399
20
6.98231879137785
30
0
41
1
10
23.4270019080818
20
6.9332362554843
30
0
41
1
10
23.8015445721914
20
6.83418546979766
30
0
41
1
10
23.9887959387332
20
6.78421617351134
30
0
41
1
10
24.5506101934106
20
6.63324277026825
30
0
41
1
10
24.925305020198
20
6.53133788229761
30
0
41
1
10
25.6750190678224
20
6.3251019191992
30
0
41
1
10
26.0500167434002
20
6.22070817113169
30
0
41
1
10
26.7997997330478
20
6.00939756197425
30
0
41
1
10
27.5494831031519
20
5.79554228170889
30
0
41
1
10
28.2988590499442
20
5.57633212139501
30
0
41
1
10
28.8607318635538
20
5.40979329258619
30
0
41
1
10
29.0479941944258
20
5.35391970788208
30
0
41
1
10
29.4224670695626
20
5.24146096302149
30
0
41
1
10
29.6096822304952
20
5.18488712617278
30
0
41
1
10
30.5458707735226
20
4.90085252866663
30
0
41
1
10
31.2953828549255
20
4.67043016533989
30
0
41
1
10
32.4200456968162
20
4.31895145691442
30
0
41
1
10
32.7950611489875
20
4.20081806213634
30
0
41
1
10
33.5448769842651
20
3.96257913695311
30
0
41
1
10
33.9196673535106
20
3.84247848684998
30
0
41
1
10
34.6689529206682
20
3.60013985386277
30
0
41
1
10
35.0433924440267
20
3.47774648168456
30
0
41
1
10
35.7924235228242
20
3.2320436593117
30
0
41
1
10
36.1670517132937
20
3.10883895103001
30
0
41
1
10
37.2910846232055
20
2.73766238850956
30
0
41
1
10
38.0406608435586
20
2.48819680868931
30
0
41
1
10
39.1650607700404
20
2.11013866308068
30
0
41
1
10
39.5398656352925
20
1.98347168515914
30
0
41
1
10
40.2894262747409
20
1.72865801007549
30
0
41
1
10
40.6640053070601
20
1.6004393575098
30
0
41
1
10
41.413313228595
20
1.34425325320845
30
0
41
1
10
41.7880323851261
20
1.21621294488915
30
0
41
1
10
42.5374850283242
20
0.959905139461682
30
0
41
1
10
42.9122245324283
20
0.831654996296521
30
0
41
1
10
44.0364181038134
20
0.446430122237359
30
0
41
1
10
44.785846829747
20
0.188981078130013
30
0
41
1
10
45.9095936587426
20
-0.199160041716993
30
0
41
1
10
46.2841101496093
20
-0.328868584098757
30
0
41
1
10
47.0336235226245
20
-0.587155615396227
30
0
41
1
10
47.4085802312579
20
-0.715909632354851
30
0
41
1
10
48.5331892158185
20
-1.1012145852466
30
0
41
1
10
49.2828257149255
20
-1.35679007251912
30
0
41
1
10
50.4068172846657
20
-1.73910272646333
30
0
41
1
10
50.7813994408975
20
-1.86637726511176
30
0
41
1
10
51.343120198613
20
-2.05712317971972
30
0
41
1
10
51.5303410951067
20
-2.12065998684133
30
0
41
1
10
51.9048306398565
20
-2.24739611482212
30
0
41
1
10
52.0921093668908
20
-2.31056680355218
30
0
41
1
10
52.6540622550584
20
-2.4994467397425
30
0
41
1
10
53.0288320726806
20
-2.62458413012175
30
0
41
1
10
53.7785527884656
20
-2.87354944239135
30
0
41
1
10
54.1535610891022
20
-2.997378147684
30
0
41
1
10
54.9034529500591
20
-3.24373230766216
30
0
41
1
10
55.278307391294
20
-3.36625284991328
30
0
41
1
10
56.0277774263143
20
-3.6101273189029
30
0
41
1
10
56.4023791269991
20
-3.73151900724304
30
0
41
1
10
56.964102607339
20
-3.91271512942248
30
0
41
1
10
57.1513237851148
20
-3.9729381292299
30
0
41
1
10
57.5258202953027
20
-4.09277890816747
30
0
41
1
10
57.7130998265636
20
-4.1523857376757
30
0
41
1
10
58.275009557508
20
-4.33033184062353
30
0
41
1
10
58.6497035711866
20
-4.44781683909244
30
0
41
1
10
59.7739398558301
20
-4.79714183191845
30
0
41
1
10
60.5236589997332
20
-5.0257996498589
30
0
41
1
10
61.4608277682809
20
-5.30699211636727
30
0
41
1
10
61.6482470964199
20
-5.3629945370613
30
0
41
1
10
62.0229752142187
20
-5.47452114658435
30
0
41
1
10
62.2102887179859
20
-5.53006393301729
30
0
41
1
10
62.5848730503054
20
-5.64055877208412
30
0
41
1
10
62.7721473280273
20
-5.69550207623445
30
0
41
1
10
63.1467500345082
20
-5.80456162753867
30
0
41
1
10
63.3340716399515
20
-5.8586952016052
30
0
41
1
10
64.2707395396117
20
-6.12749582675954
30
0
41
1
10
65.0202345705564
20
-6.33664967284867
30
0
41
1
10
66.1444193852377
20
-6.64230827046219
30
0
41
1
10
66.5191373792344
20
-6.74284780591253
30
0
41
1
10
67.081156971228
20
-6.89171572100889
30
0
41
1
10
67.2684871151934
20
-6.94101494726655
30
0
41
1
10
67.6431205252943
20
-7.03897825006928
30
0
41
1
10
67.8304212792954
20
-7.0876474309004
30
0
41
1
10
68.2050686898995
20
-7.18418740945023
30
0
41
1
10
68.3924307733273
20
-7.23204448574069
30
0
41
1
10
68.7672349490047
20
-7.32680356445493
30
0
41
1
10
68.954645556492
20
-7.37371783084601
30
0
41
1
10
69.5168785274276
20
-7.5131258995286
30
0
41
1
10
69.8916978509972
20
-7.60429443765725
30
0
41
1
10
71.0160758221598
20
-7.87267189849419
30
0
41
1
10
71.7655646418935
20
-8.0447482192061
30
0
41
1
10
72.7020256200005
20
-8.25175312622477
30
0
41
1
10
72.8892964210009
20
-8.29275090116195
30
0
41
1
10
73.2637950116595
20
-8.37393419029269
30
0
41
1
10
73.4510268511488
20
-8.41411173229957
30
0
41
1
10
74.0127980575735
20
-8.53316907754896
30
0
41
1
10
74.3874740460629
20
-8.6104682479544
30
0
41
1
10
75.1370889113879
20
-8.76107231518893
30
0
41
1
10
75.512064170934
20
-8.83440618439943
30
0
41
1
10
76.2619720973709
20
-8.97716096019735
30
0
41
1
10
77.0117436599246
20
-9.11598245549229
30
0
41
1
10
77.7611330311714
20
-9.24710193472882
30
0
41
1
10
78.3229872775685
20
-9.34259197971301
30
0
41
1
10
78.5102362565682
20
-9.37395293833532
30
0
41
1
10
78.8846876956444
20
-9.43569477770254
30
0
41
1
10
79.0718944429177
20
-9.46606916856408
30
0
41
1
10
79.6335974179092
20
-9.55551484184898
30
0
41
1
10
80.0082005349173
20
-9.6128815436868
30
0
41
1
10
80.7575531307482
20
-9.72329777624506
30
0
41
1
10
81.1323051453977
20
-9.77634290070378
30
0
41
1
10
81.8819167548207
20
-9.87817324733552
30
0
41
1
10
82.2567771243182
20
-9.92695778431141
30
0
41
1
10
83.0065507227731
20
-10.020311413597
30
0
41
1
10
83.381478132852
20
-10.0648806305617
30
0
41
1
10
84.1308726801658
20
-10.1497630852753
30
0
41
1
10
84.5053484517248
20
-10.1901172235017
30
0
41
1
10
85.2544848033239
20
-10.2660809950577
30
0
41
1
10
85.6291356894621
20
-10.3017117840477
30
0
41
1
10
86.7531568834496
20
-10.4017758000922
30
0
41
1
10
87.5026256545494
20
-10.4593723359486
30
0
41
1
10
88.626709990198
20
-10.5322799935082
30
0
41
1
10
89.0013839992151
20
-10.5543306515383
30
0
41
1
10
89.7506304950255
20
-10.5939035664883
30
0
41
1
10
90.1251899067731
20
-10.6114197470861
30
0
41
1
10
90.5
20
-10.6265450652362
30
0
0
SPLINE
5
C7
100
AcDbEntity
8
1
62
256
6
ByLayer
370
18
48
1
60
0
100
AcDbSpline
70
4
71
3
72
93
73
89
40
0
40
0
40
0
40
0
40
0.0126880024679289
40
0.0126880024679289
40
0.0336946407132919
40
0.0336946407132919
40
0.0547012789586555
40
0.0547012789586555
40
0.0757079172040191
40
0.0757079172040191
40
0.117721193694746
40
0.117721193694746
40
0.128224512817427
40
0.128224512817427
40
0.138727831940109
40
0.138727831940109
40
0.159734470185472
40
0.159734470185472
40
0.201747746676199
40
0.201747746676199
40
0.222754384921563
40
0.222754384921563
40
0.243761023166927
40
0.243761023166927
40
0.26476766141229
40
0.26476766141229
40
0.285774299657654
40
0.285774299657654
40
0.306780937903018
40
0.306780937903018
40
0.327787576148381
40
0.327787576148381
40
0.338290895271063
40
0.338290895271063
40
0.348794214393744
40
0.369800852639108
40
0.369800852639108
40
0.390807490884471
40
0.390807490884471
40
0.411814129129835
40
0.411814129129835
40
0.432820767375198
40
0.432820767375198
40
0.453827405620562
40
0.453827405620562
40
0.49584068211129
40
0.49584068211129
40
0.516847320356654
40
0.516847320356654
40
0.527350639479336
40
0.527350639479336
40
0.537853958602017
40
0.537853958602017
40
0.579867235092744
40
0.579867235092744
40
0.600873873338108
40
0.600873873338108
40
0.621880511583472
40
0.621880511583472
40
0.642887149828835
40
0.642887149828835
40
0.663893788074199
40
0.663893788074199
40
0.705907064564926
40
0.705907064564926
40
0.726913702810289
40
0.726913702810289
40
0.747920341055653
40
0.747920341055653
40
0.768926979301016
40
0.768926979301016
40
0.789933617546379
40
0.789933617546379
40
0.800436936669061
40
0.800436936669061
40
0.810940255791743
40
0.810940255791743
40
0.831946894037105
40
0.831946894037105
40
0.87396017052783
40
0.87396017052783
40
0.894966808773192
40
0.894966808773192
40
0.915973447018554
40
0.915973447018554
40
0.957986723509277
40
0.957986723509277
40
1
40
1
40
1
40
1
41
1
10
70.8231174458155
20
-7.82675182869386
30
0
41
1
10
70.5814605785116
20
-7.88338683011321
30
0
41
1
10
70.3397922714151
20
-7.93933048431958
30
0
41
1
10
69.6979912056026
20
-8.08607799874267
30
0
41
1
10
69.2978027259705
20
-8.17570503733418
30
0
41
1
10
68.4976156376869
20
-8.35115601941266
30
0
41
1
10
68.0976712729799
20
-8.43690315317895
30
0
41
1
10
67.2976512973621
20
-8.60368526175421
30
0
41
1
10
66.8976239287917
20
-8.68481262564089
30
0
41
1
10
65.69753726195
20
-8.92153258246185
30
0
41
1
10
64.8974624538163
20
-9.07046127552687
30
0
41
1
10
63.8975206136668
20
-9.24573377292418
30
0
41
1
10
63.6975395719514
20
-9.2802421742212
30
0
41
1
10
63.2975945227931
20
-9.34816441984404
30
0
41
1
10
63.0976313646475
20
-9.38157896272639
30
0
41
1
10
62.4976747406536
20
-9.48004388415359
30
0
41
1
10
62.0975040852327
20
-9.5432484381472
30
0
41
1
10
60.8968960280878
20
-9.72542754171306
30
0
41
1
10
60.0966222088434
20
-9.83702274944133
30
0
41
1
10
58.8965836031109
20
-9.98989156833989
30
0
41
1
10
58.4966366809306
20
-10.0384269828083
30
0
41
1
10
57.6968984458078
20
-10.1306407271958
30
0
41
1
10
57.2971234794233
20
-10.1743256530038
30
0
41
1
10
56.4972575778203
20
-10.256391181159
30
0
41
1
10
56.0972029281283
20
-10.294812799288
30
0
41
1
10
55.296887184678
20
-10.3664963820184
30
0
41
1
10
54.8965645780663
20
-10.3997612865166
30
0
41
1
10
54.0960556422897
20
-10.461125268504
30
0
41
1
10
53.6958970550273
20
-10.4892236842915
30
0
41
1
10
52.8958114621053
20
-10.5402581061009
30
0
41
1
10
52.4959033658335
20
-10.5632013144644
30
0
41
1
10
51.8961516328536
20
-10.5936797124217
30
0
41
1
10
51.6962411278398
20
-10.6031778738125
30
0
41
1
10
51.2963667464999
20
-10.6208295072292
30
0
41
1
10
50.6964941312891
20
-10.6452985577058
30
0
41
1
10
50.0964668293544
20
-10.6637833632359
30
0
41
1
10
49.2963187977593
20
-10.6831403647797
30
0
41
1
10
48.8961882180925
20
-10.6901741613714
30
0
41
1
10
48.0958472988257
20
-10.6989473770051
30
0
41
1
10
47.6955766356705
20
-10.7006865134348
30
0
41
1
10
46.8953522308816
20
-10.6988278322343
30
0
41
1
10
46.4954442055415
20
-10.6952206878092
30
0
41
1
10
45.6955529692399
20
-10.6826828391485
30
0
41
1
10
45.295569222978
20
-10.6737620278982
30
0
41
1
10
44.0955626084621
20
-10.6391022841391
30
0
41
1
10
43.2954712805289
20
-10.6054876931072
30
0
41
1
10
42.0953997185696
20
-10.539206677495
30
0
41
1
10
41.6953976632155
20
-10.5144586257972
30
0
41
1
10
41.0953969364578
20
-10.4733319664718
30
0
41
1
10
40.8953909263833
20
-10.4589584671223
30
0
41
1
10
40.4952876966337
20
-10.4289316099506
30
0
41
1
10
40.2951984914466
20
-10.4132798541811
30
0
41
1
10
39.2948441116041
20
-10.3318594206347
30
0
41
1
10
38.4946227259374
20
-10.2566057951971
30
0
41
1
10
37.2945497143858
20
-10.1285203527607
30
0
41
1
10
36.8945711186765
20
-10.0832845272187
30
0
41
1
10
36.0947381715582
20
-9.98766816671591
30
0
41
1
10
35.6949245071988
20
-9.93723939150871
30
0
41
1
10
34.8951311978196
20
-9.83150909018809
30
0
41
1
10
34.4950951939492
20
-9.77627764767058
30
0
41
1
10
33.6947781852649
20
-9.6610836332616
30
0
41
1
10
33.2944402089475
20
-9.60111105260228
30
0
41
1
10
32.0937487708607
20
-9.41416295680881
30
0
41
1
10
31.2936058025617
20
-9.2801473481365
30
0
41
1
10
30.0940471599546
20
-9.06465788912729
30
0
41
1
10
29.6942688703734
20
-8.99045861618433
30
0
41
1
10
28.8944384326296
20
-8.83800122275355
30
0
41
1
10
28.4944348220204
20
-8.75967210765018
30
0
41
1
10
27.6942831264092
20
-8.5987860341115
30
0
41
1
10
27.2941335531299
20
-8.51623156848677
30
0
41
1
10
26.4937161217556
20
-8.34684738766467
30
0
41
1
10
26.0933802932449
20
-8.2599997885701
30
0
41
1
10
25.4932894554515
20
-8.12655345772828
30
0
41
1
10
25.2933129354849
20
-8.08153982397741
30
0
41
1
10
24.8934700482575
20
-7.99044109114908
30
0
41
1
10
24.6936041310013
20
-7.94435470985698
30
0
41
1
10
24.094078190004
20
-7.80467020644824
30
0
41
1
10
23.6944355363308
20
-7.70975683275896
30
0
41
1
10
22.4955722302641
20
-7.41981992102484
30
0
41
1
10
21.6964600986063
20
-7.21952380914729
30
0
41
1
10
20.4981607433712
20
-6.90823793792973
30
0
41
1
10
20.0987929807649
20
-6.8026574829677
30
0
41
1
10
19.3002116695518
20
-6.58778020797666
30
0
41
1
10
18.9010136977495
20
-6.47844164405646
30
0
41
1
10
17.7029507397465
20
-6.14646065873413
30
0
41
1
10
16.9037676683709
20
-5.91953459931088
30
0
41
1
10
15.3046869978902
20
-5.45399245758392
30
0
41
1
10
14.5047815439634
20
-5.21539777019072
30
0
41
1
10
13.7046482327154
20
-4.97049627370041
30
0
0
SPLINE
5
C8
100
AcDbEntity
8
1
62
256
6
ByLayer
370
18
48
1
60
0
100
AcDbSpline
70
4
71
3
72
24
73
20
40
0
40
0
40
0
40
0
40
0.0624999999999987
40
0.0624999999999987
40
0.124999999999998
40
0.250000000000002
40
0.250000000000002
40
0.375000000000006
40
0.375000000000006
40
0.50000000000001
40
0.50000000000001
40
0.562500000000009
40
0.562500000000009
40
0.625000000000008
40
0.750000000000005
40
0.750000000000005
40
0.875000000000003
40
0.875000000000003
40
1
40
1
40
1
40
1
41
1
10
101.383132680217
20
-1.61355010542957
30
0
41
1
10
101.156218093611
20
-1.53155239987879
30
0
41
1
10
100.929351236801
20
-1.44945213279041
30
0
41
1
10
100.475622978131
20
-1.28529596802477
30
0
41
1
10
99.7950710028711
20
-1.03903877075607
30
0
41
1
10
99.1146830123247
20
-0.792592295994126
30
0
41
1
10
98.2076882740761
20
-0.463706854480222
30
0
41
1
10
97.7542849632786
20
-0.299120614303263
30
0
41
1
10
96.847737505542
20
0.0305348633876577
30
0
41
1
10
96.3946202011417
20
0.195678186976181
30
0
41
1
10
95.7150805191078
20
0.443593101088197
30
0
41
1
10
95.4885697431872
20
0.526208763675612
30
0
41
1
10
95.0354501837286
20
0.691111000665614
30
0
41
1
10
94.3556563933691
20
0.938060641538982
30
0
41
1
10
93.6755669435776
20
1.18393219471741
30
0
41
1
10
92.7685636890424
20
1.51092878039952
30
0
41
1
10
92.3149526248995
20
1.67400887738447
30
0
41
1
10
91.4075803554148
20
1.99952058584185
30
0
41
1
10
90.9538418320168
20
2.16201444415725
30
0
41
1
10
90.4999999999999
20
2.32410494553116
30
0
0
SPLINE
5
C9
100
AcDbEntity
8
1
62
256
6
ByLayer
370
18
48
1
60
0
100
AcDbSpline
70
4
71
3
72
92
73
88
40
0
40
0
40
0
40
0
40
0.0312500000000027
40
0.0312500000000027
40
0.0625000000000054
40
0.0625000000000054
40
0.093750000000008
40
0.093750000000008
40
0.125000000000011
40
0.125000000000011
40
0.140625000000012
40
0.140625000000012
40
0.148437500000013
40
0.148437500000013
40
0.156250000000013
40
0.187500000000016
40
0.187500000000016
40
0.218750000000019
40
0.218750000000019
40
0.250000000000021
40
0.250000000000021
40
0.281250000000024
40
0.281250000000024
40
0.296875000000025
40
0.296875000000025
40
0.312500000000025
40
0.312500000000025
40
0.343750000000027
40
0.343750000000027
40
0.375000000000028
40
0.375000000000028
40
0.406250000000029
40
0.406250000000029
40
0.43750000000003
40
0.43750000000003
40
0.44531250000003
40
0.44531250000003
40
0.45312500000003
40
0.468750000000029
40
0.468750000000029
40
0.500000000000028
40
0.500000000000028
40
0.531250000000027
40
0.531250000000027
40
0.539062500000027
40
0.539062500000027
40
0.546875000000027
40
0.562500000000026
40
0.562500000000026
40
0.593750000000026
40
0.593750000000026
40
0.625000000000026
40
0.625000000000026
40
0.632812500000026
40
0.632812500000026
40
0.640625000000025
40
0.656250000000024
40
0.656250000000024
40
0.687500000000023
40
0.687500000000023
40
0.718750000000021
40
0.718750000000021
40
0.726562500000021
40
0.726562500000021
40
0.73437500000002
40
0.73437500000002
40
0.750000000000019
40
0.750000000000019
40
0.781250000000017
40
0.781250000000017
40
0.812500000000015
40
0.812500000000015
40
0.843750000000014
40
0.843750000000014
40
0.851562500000013
40
0.851562500000013
40
0.859375000000012
40
0.875000000000011
40
0.875000000000011
40
0.906250000000009
40
0.937500000000007
40
0.968750000000005
40
0.968750000000005
40
0.976562500000004
40
0.976562500000004
40
0.984375000000003
40
1
40
1
40
1
40
1
41
1
10
101.383132680215
20
10.9518422259888
30
0
41
1
10
101.453788741021
20
10.7766133663511
30
0
41
1
10
101.524555131103
20
10.5987621995291
30
0
41
1
10
101.666428091705
20
10.238229757753
30
0
41
1
10
101.737534537767
20
10.0555475520324
30
0
41
1
10
101.880171367408
20
9.6856518412321
30
0
41
1
10
101.95170180353
20
9.49843780914318
30
0
41
1
10
102.095236274223
20
9.11968581126706
30
0
41
1
10
102.167240555278
20
8.92814762528027
30
0
41
1
10
102.275610446286
20
8.63769360279946
30
0
41
1
10
102.311793998399
20
8.54035052530577
30
0
41
1
10
102.366157357381
20
8.39355483813429
30
0
41
1
10
102.384305668275
20
8.344458700882
30
0
41
1
10
102.420566457288
20
8.24618125107364
30
0
41
1
10
102.511085419072
20
8.00039038046836
30
0
41
1
10
102.600948270115
20
7.75412099650828
30
0
41
1
10
102.743830280895
20
7.35947329282308
30
0
41
1
10
102.814822893933
20
7.16184138475836
30
0
41
1
10
102.955748301595
20
6.76591519909877
30
0
41
1
10
103.025682702336
20
6.56762148111389
30
0
41
1
10
103.164191161557
20
6.17027212163694
30
0
41
1
10
103.232768004419
20
5.97121747857994
30
0
41
1
10
103.334235247173
20
5.6719319836898
30
0
41
1
10
103.367822817594
20
5.57205220812781
30
0
41
1
10
103.434437058776
20
5.37202425631611
30
0
41
1
10
103.467480806066
20
5.27182135385419
30
0
41
1
10
103.565128153502
20
4.97220602154135
30
0
41
1
10
103.628419621656
20
4.77332899724919
30
0
41
1
10
103.750231994587
20
4.37697939207442
30
0
41
1
10
103.80876084447
20
4.17950813535967
30
0
41
1
10
103.919269175689
20
3.78555786867901
30
0
41
1
10
103.971257940743
20
3.5890796873353
30
0
41
1
10
104.066008295995
20
3.19658194585909
30
0
41
1
10
104.10877348168
20
3.00056104140006
30
0
41
1
10
104.154083590083
20
2.75541168436501
30
0
41
1
10
104.162741940108
20
2.70633653579273
30
0
41
1
10
104.17913898636
20
2.60833828257478
30
0
41
1
10
104.202309866747
20
2.46185490400251
30
0
41
1
10
104.220957980858
20
2.31693248996103
30
0
41
1
10
104.251617721331
20
2.02924795744374
30
0
41
1
10
104.263143834816
20
1.84032849181651
30
0
41
1
10
104.266211309705
20
1.46890106975874
30
0
41
1
10
104.257734465032
20
1.28639632974185
30
0
41
1
10
104.234721956336
20
1.06287128960895
30
0
41
1
10
104.229497741804
20
1.01834599007788
30
0
41
1
10
104.217875360283
20
0.930005476850312
30
0
41
1
10
104.198731132921
20
0.798902143828116
30
0
41
1
10
104.174751000941
20
0.671969818580095
30
0
41
1
10
104.121146773477
20
0.423533076594765
30
0
41
1
10
104.07791619906
20
0.265135806248509
30
0
41
1
10
103.980360763743
20
-0.0377650488989332
30
0
41
1
10
103.926044165405
20
-0.182272793143085
30
0
41
1
10
103.85301766001
20
-0.354354956285761
30
0
41
1
10
103.838139994728
20
-0.38837176636261
30
0
41
1
10
103.807961541613
20
-0.455412315408722
30
0
41
1
10
103.762128707961
20
-0.554332162649729
30
0
41
1
10
103.714775860191
20
-0.648425631885289
30
0
41
1
10
103.618411178446
20
-0.830370468352527
30
0
41
1
10
103.551978007153
20
-0.943361567219
30
0
41
1
10
103.416020281676
20
-1.15328704982048
30
0
41
1
10
103.346486545912
20
-1.25021843637916
30
0
41
1
10
103.258055523928
20
-1.36136249597089
30
0
41
1
10
103.240292502369
20
-1.38308912307176
30
0
41
1
10
103.204619429817
20
-1.42553383958929
30
0
41
1
10
103.186697482202
20
-1.44626413339793
30
0
41
1
10
103.132950937738
20
-1.506679415246
30
0
41
1
10
103.097077205974
20
-1.54467516174401
30
0
41
1
10
102.989384032531
20
-1.65197264841581
30
0
41
1
10
102.917497959341
20
-1.71459844274929
30
0
41
1
10
102.773675153732
20
-1.82248764290117
30
0
41
1
10
102.701736180151
20
-1.86774926559494
30
0
41
1
10
102.557785321903
20
-1.94093133183986
30
0
41
1
10
102.4857724135
20
-1.96885180249157
30
0
41
1
10
102.395635368691
20
-1.99268032625702
30
0
41
1
10
102.377590979053
20
-1.99689236577265
30
0
41
1
10
102.341650259669
20
-2.0041693215876
30
0
41
1
10
102.287904002473
20
-2.0133810100628
30
0
41
1
10
102.234634599407
20
-2.01753817585299
30
0
41
1
10
102.128684904293
20
-2.01922722797238
30
0
41
1
10
101.988989190642
20
-2.00383502774775
30
0
41
1
10
101.78342107678
20
-1.92876133760805
30
0
41
1
10
101.648542817953
20
-1.84398667343069
30
0
41
1
10
101.564769193299
20
-1.77991147300963
30
0
41
1
10
101.54805474867
20
-1.76655103258466
30
0
41
1
10
101.514762622409
20
-1.73878986657863
30
0
41
1
10
101.465002317315
20
-1.69556671792174
30
0
41
1
10
101.415754550722
20
-1.64761506242334
30
0
41
1
10
101.383132680215
20
-1.61355010542857
30
0
0
SPLINE
5
CA
100
AcDbEntity
8
1
62
256
6
ByLayer
370
18
48
1
60
0
100
AcDbSpline
70
4
71
3
72
22
73
18
40
0
40
0
40
0
40
0
40
0.1334488645557
40
0.1334488645557
40
0.220103978100134
40
0.220103978100134
40
0.306759091644568
40
0.306759091644568
40
0.480069318733426
40
0.480069318733426
40
0.653379545822284
40
0.653379545822284
40
0.826689772911142
40
0.826689772911142
40
0.913344886455571
40
0.913344886455571
40
1
40
1
40
1
40
1
41
1
10
93.5353334013234
20
11.3095877493928
30
0
41
1
10
93.8844853442868
20
11.3096554268691
30
0
41
1
10
94.2335448119117
20
11.3075880335784
30
0
41
1
10
94.8090741592642
20
11.3006323567809
30
0
41
1
10
95.0356033297763
20
11.2969853619447
30
0
41
1
10
95.4885919526837
20
11.2878670331023
30
0
41
1
10
95.715061489594
20
11.2823959731111
30
0
41
1
10
96.3946527973116
20
11.2633061556144
30
0
41
1
10
96.8479035894209
20
11.2470114382613
30
0
41
1
10
97.7545871189828
20
11.2073122661609
30
0
41
1
10
98.2080341176702
20
11.1839102801355
30
0
41
1
10
99.1150552305575
20
11.1299678797857
30
0
41
1
10
99.5686268557993
20
11.0994267779295
30
0
41
1
10
100.249000124058
20
11.0481625478645
30
0
41
1
10
100.475787535306
20
11.0301608973861
30
0
41
1
10
100.929385610532
20
10.992333276295
30
0
41
1
10
101.156205141198
20
10.9725114639243
30
0
41
1
10
101.383132680216
20
10.9518422259891
30
0
0
SPLINE
5
CB
100
AcDbEntity
8
1
62
256
6
ByLayer
370
18
48
1
60
0
100
AcDbSpline
70
4
71
3
72
41
73
37
40
0
40
0
40
0
40
0
40
0.0859754475483587
40
0.0859754475483587
40
0.114538714812475
40
0.114538714812475
40
0.143101982076592
40
0.143101982076592
40
0.200228516604822
40
0.200228516604822
40
0.257355051133052
40
0.257355051133052
40
0.314481585661282
40
0.371608120189513
40
0.371608120189513
40
0.400171387453628
40
0.400171387453628
40
0.428734654717743
40
0.428734654717743
40
0.485861189245969
40
0.485861189245969
40
0.542987723774195
40
0.542987723774195
40
0.600114258302421
40
0.600114258302421
40
0.657240792830647
40
0.657240792830647
40
0.714367327358873
40
0.714367327358873
40
0.771493861887099
40
0.771493861887099
40
0.885746930943548
40
0.885746930943548
40
0.942873465471774
40
0.942873465471774
40
1
40
1
40
1
40
1
41
1
10
70.8230362245213
20
7.82534863411215
30
0
41
1
10
71.3870530120132
20
7.95745316355161
30
0
41
1
10
71.9509838297698
20
8.08573517183211
30
0
41
1
10
72.7020256200006
20
8.25175312622474
30
0
41
1
10
72.8892964210009
20
8.29275090116192
30
0
41
1
10
73.2637950116595
20
8.37393419029263
30
0
41
1
10
73.4510268511488
20
8.41411173229957
30
0
41
1
10
74.0127980575734
20
8.53316907754893
30
0
41
1
10
74.3874740460629
20
8.6104682479544
30
0
41
1
10
75.1370889113879
20
8.7610723151889
30
0
41
1
10
75.512064170934
20
8.8344061843994
30
0
41
1
10
76.2619720973708
20
8.97716096019732
30
0
41
1
10
77.0117439792294
20
9.11598202280004
30
0
41
1
10
77.7611330311714
20
9.24710193472882
30
0
41
1
10
78.3229872775685
20
9.34259197971298
30
0
41
1
10
78.5102362565682
20
9.37395293833532
30
0
41
1
10
78.8846876956445
20
9.43569477770251
30
0
41
1
10
79.0718944429176
20
9.46606916856402
30
0
41
1
10
79.6335974179091
20
9.555514841849
30
0
41
1
10
80.0082005349174
20
9.61288154368677
30
0
41
1
10
80.7575531307483
20
9.72329777624506
30
0
41
1
10
81.1323051453976
20
9.77634290070375
30
0
41
1
10
81.8819167548206
20
9.87817324733552
30
0
41
1
10
82.2567771243181
20
9.92695778431138
30
0
41
1
10
83.0065507227729
20
10.020311413597
30
0
41
1
10
83.3814781328518
20
10.0648806305616
30
0
41
1
10
84.1308726801658
20
10.1497630852753
30
0
41
1
10
84.5053484517248
20
10.1901172235017
30
0
41
1
10
85.2544848033239
20
10.2660809950577
30
0
41
1
10
85.629135689462
20
10.3017117840477
30
0
41
1
10
86.7531568834495
20
10.4017758000922
30
0
41
1
10
87.5026256545494
20
10.4593723359486
30
0
41
1
10
88.626709990198
20
10.5322799935082
30
0
41
1
10
89.0013839992149
20
10.5543306515383
30
0
41
1
10
89.7506304950255
20
10.5939035664883
30
0
41
1
10
90.1251899067731
20
10.6114197470861
30
0
41
1
10
90.5
20
10.6265450652362
30
0
0
SPLINE
5
CC
100
AcDbEntity
8
1
62
256
6
ByLayer
370
18
48
1
60
0
100
AcDbSpline
70
4
71
3
72
75
73
71
40
0
40
0
40
0
40
0
40
0.0139567340726086
40
0.0139567340726086
40
0.0279134681452171
40
0.0279134681452171
40
0.0558269362904326
40
0.0558269362904326
40
0.111653872580863
40
0.111653872580863
40
0.139567340726078
40
0.139567340726078
40
0.167480808871292
40
0.167480808871292
40
0.223307745161722
40
0.223307745161722
40
0.251221213306935
40
0.251221213306935
40
0.265177947379542
40
0.265177947379542
40
0.279134681452149
40
0.279134681452149
40
0.307048149597361
40
0.307048149597361
40
0.334961617742573
40
0.334961617742573
40
0.362875085887785
40
0.362875085887785
40
0.390788554032997
40
0.390788554032997
40
0.446615490323421
40
0.446615490323421
40
0.474528958468632
40
0.474528958468632
40
0.502442426613843
40
0.502442426613843
40
0.530355894759055
40
0.530355894759055
40
0.558269362904267
40
0.558269362904267
40
0.614096299194691
40
0.614096299194691
40
0.628053033267298
40
0.628053033267298
40
0.642009767339904
40
0.642009767339904
40
0.669923235485116
40
0.669923235485116
40
0.72575017177554
40
0.72575017177554
40
0.753663639920752
40
0.753663639920752
40
0.781577108065964
40
0.781577108065964
40
0.809490576211176
40
0.809490576211176
40
0.837404044356388
40
0.837404044356388
40
0.8653175125016
40
0.8653175125016
40
0.893230980646812
40
0.893230980646812
40
0.907187714719418
40
0.907187714719418
40
0.921144448792024
40
0.949057916937238
40
0.949057916937238
40
0.976971385082451
40
0.976971385082451
40
1
40
1
40
1
40
1
41
1
10
90.5
20
1.99272634650393
30
0
41
1
10
90.2999512857419
20
2.0606048877996
30
0
41
1
10
90.0999281639803
20
2.12835645849779
30
0
41
1
10
89.6998644522184
20
2.26341024907933
30
0
41
1
10
89.4998302915507
20
2.33073107232255
30
0
41
1
10
88.8997287117464
20
2.53210075378763
30
0
41
1
10
88.4996634041834
20
2.665560567396
30
0
41
1
10
87.2995123076039
20
3.06369939450678
30
0
41
1
10
86.4994687413014
20
3.32613647153519
30
0
41
1
10
85.2996940215032
20
3.71583906492475
30
0
41
1
10
84.8998571353594
20
3.84518537491363
30
0
41
1
10
84.0998804293121
20
4.10145819356751
30
0
41
1
10
83.699718976406
20
4.2283845222066
30
0
41
1
10
82.4989467871162
20
4.60566204526737
30
0
41
1
10
81.6986298834862
20
4.85229906030722
30
0
41
1
10
80.4986460388103
20
5.21544630499181
30
0
41
1
10
80.098743941503
20
5.33538475588583
30
0
41
1
10
79.4990029194382
20
5.51354129331406
30
0
41
1
10
79.2991019297136
20
5.57261952187449
30
0
41
1
10
78.8992458494577
20
5.68996419349406
30
0
41
1
10
78.6992894989563
20
5.74822791944402
30
0
41
1
10
78.0993433618467
20
5.92181764222209
30
0
41
1
10
77.6992781652649
20
6.03594683297408
30
0
41
1
10
76.8989743082309
20
6.26109332034673
30
0
41
1
10
76.4987010116671
20
6.37211706602716
30
0
41
1
10
75.6981563381516
20
6.59107661715981
30
0
41
1
10
75.298000195382
20
6.69898575313192
30
0
41
1
10
74.4979538882062
20
6.91172035672415
30
0
41
1
10
74.0981040757031
20
7.01663155837798
30
0
41
1
10
72.8985302277392
20
7.32576790000095
30
0
41
1
10
72.0985472648089
20
7.52391902809055
30
0
41
1
10
70.8983474427156
20
7.80973585721435
30
0
41
1
10
70.4982420781216
20
7.90310100990209
30
0
41
1
10
69.6979912056026
20
8.0860779987427
30
0
41
1
10
69.2978027259705
20
8.17570503733421
30
0
41
1
10
68.4976156376869
20
8.35115601941266
30
0
41
1
10
68.0976712729799
20
8.43690315317897
30
0
41
1
10
67.2976512973621
20
8.60368526175424
30
0
41
1
10
66.8976239287917
20
8.68481262564089
30
0
41
1
10
65.69753726195
20
8.92153258246188
30
0
41
1
10
64.8974624538163
20
9.0704612755269
30
0
41
1
10
63.8975206136668
20
9.24573377292421
30
0
41
1
10
63.6975395719514
20
9.2802421742212
30
0
41
1
10
63.2975945227931
20
9.34816441984404
30
0
41
1
10
63.0976313646475
20
9.38157896272637
30
0
41
1
10
62.4976747406537
20
9.48004388415362
30
0
41
1
10
62.0975040852327
20
9.5432484381472
30
0
41
1
10
60.8968960280878
20
9.72542754171306
30
0
41
1
10
60.0966222088433
20
9.83702274944133
30
0
41
1
10
58.8965836031108
20
9.98989156833989
30
0
41
1
10
58.4966366809305
20
10.0384269828083
30
0
41
1
10
57.6968984458077
20
10.1306407271958
30
0
41
1
10
57.2971234794233
20
10.1743256530038
30
0
41
1
10
56.4972575778203
20
10.256391181159
30
0
41
1
10
56.0972029281283
20
10.294812799288
30
0
41
1
10
55.296887184678
20
10.3664963820184
30
0
41
1
10
54.8965645780663
20
10.3997612865166
30
0
41
1
10
54.0960556422898
20
10.461125268504
30
0
41
1
10
53.6958970550272
20
10.4892236842915
30
0
41
1
10
52.8958114621053
20
10.5402581061009
30
0
41
1
10
52.4959033658334
20
10.5632013144644
30
0
41
1
10
51.8961516328535
20
10.5936797124217
30
0
41
1
10
51.6962411278399
20
10.6031778738125
30
0
41
1
10
51.2963667464999
20
10.6208295072292
30
0
41
1
10
50.6964941312891
20
10.6452985577058
30
0
41
1
10
50.0964668293544
20
10.6637833632359
30
0
41
1
10
49.2963187977594
20
10.6831403647797
30
0
41
1
10
48.8961882180926
20
10.6901741613714
30
0
41
1
10
48.1658770762502
20
10.6981797212183
30
0
41
1
10
47.8356681929975
20
10.6999967374567
30
0
41
1
10
47.505536352807
20
10.7000000229012
30
0
0
SPLINE
5
CD
100
AcDbEntity
8
1
62
256
6
ByLayer
370
18
48
1
60
0
100
AcDbSpline
70
4
71
3
72
100
73
96
40
0
40
0
40
0
40
0
40
0.0624999999999892
40
0.0624999999999892
40
0.0937499999999838
40
0.0937499999999838
40
0.124999999999978
40
0.124999999999978
40
0.156249999999973
40
0.156249999999973
40
0.17187499999997
40
0.17187499999997
40
0.17968749999997
40
0.17968749999997
40
0.18749999999997
40
0.18749999999997
40
0.218749999999971
40
0.218749999999971
40
0.249999999999971
40
0.249999999999971
40
0.281249999999972
40
0.281249999999972
40
0.289062499999971
40
0.289062499999971
40
0.296874999999971
40
0.296874999999971
40
0.312499999999972
40
0.312499999999972
40
0.343749999999973
40
0.343749999999973
40
0.374999999999973
40
0.374999999999973
40
0.378906249999973
40
0.378906249999973
40
0.382812499999973
40
0.390624999999973
40
0.406249999999974
40
0.406249999999974
40
0.437499999999976
40
0.437499999999976
40
0.445312499999976
40
0.445312499999976
40
0.449218749999977
40
0.449218749999977
40
0.453124999999977
40
0.468749999999977
40
0.468749999999977
40
0.499999999999978
40
0.499999999999978
40
0.515624999999978
40
0.515624999999978
40
0.523437499999978
40
0.523437499999978
40
0.531249999999978
40
0.531249999999978
40
0.562499999999979
40
0.562499999999979
40
0.578124999999979
40
0.578124999999979
40
0.585937499999979
40
0.585937499999979
40
0.593749999999979
40
0.593749999999979
40
0.624999999999977
40
0.624999999999977
40
0.656249999999976
40
0.656249999999976
40
0.671874999999976
40
0.671874999999976
40
0.679687499999975
40
0.679687499999975
40
0.687499999999975
40
0.687499999999975
40
0.718749999999975
40
0.718749999999975
40
0.749999999999975
40
0.749999999999975
40
0.781249999999975
40
0.781249999999975
40
0.796874999999976
40
0.804687499999977
40
0.804687499999977
40
0.812499999999977
40
0.812499999999977
40
0.843749999999981
40
0.843749999999981
40
0.874999999999985
40
0.874999999999985
40
0.906249999999989
40
0.906249999999989
40
0.937499999999992
40
0.937499999999992
40
0.968749999999996
40
0.968749999999996
40
1
40
1
40
1
40
1
41
1
10
10
20
8.58988269088573
30
0
41
1
10
9.56663096869747
20
8.59266023029244
30
0
41
1
10
9.14215684009955
20
8.57964001603318
30
0
41
1
10
8.51885482316686
20
8.53269949264072
30
0
41
1
10
8.31332597724003
20
8.51246618029933
30
0
41
1
10
7.90681343361558
20
8.46193519065756
30
0
41
1
10
7.70582919584027
20
8.43163994739689
30
0
41
1
10
7.30852728839366
20
8.35984613208893
30
0
41
1
10
7.11220877658823
20
8.31835146489234
30
0
41
1
10
6.82137759920542
20
8.2465954878727
30
0
41
1
10
6.72504229357753
20
8.22108813380589
30
0
41
1
10
6.58147755608007
20
8.18027146599528
30
0
41
1
10
6.53373461529151
20
8.16622576698973
30
0
41
1
10
6.43886357600229
20
8.13734182998525
30
0
41
1
10
6.39172307755044
20
8.12250110104821
30
0
41
1
10
6.15750407449843
20
8.04625958157672
30
0
41
1
10
5.97486791225859
20
7.9787600824144
30
0
41
1
10
5.61941107103078
20
7.8293973486829
30
0
41
1
10
5.44658756169889
20
7.74754013828405
30
0
41
1
10
5.11133905699256
20
7.56764840980659
30
0
41
1
10
4.9489089445531
20
7.46962455393168
30
0
41
1
10
4.75296161496783
20
7.33540703356857
30
0
41
1
10
4.7141278002037
20
7.30797689465106
30
0
41
1
10
4.63719145684138
20
7.25189356027357
30
0
41
1
10
4.599204520564
20
7.22332370629127
30
0
41
1
10
4.48685704776068
20
7.13611059961272
30
0
41
1
10
4.41404179399868
20
7.07591630117764
30
0
41
1
10
4.20199537948923
20
6.88888010295659
30
0
41
1
10
4.06913927272143
20
6.75561120507123
30
0
41
1
10
3.82174316496111
20
6.46980644561384
30
0
41
1
10
3.70718835924791
20
6.31728808054791
30
0
41
1
10
3.58987040118859
20
6.1331061337608
30
0
41
1
10
3.57698515931148
20
6.1124467992492
30
0
41
1
10
3.55162135063188
20
6.07089802076001
30
0
41
1
10
3.51417247967868
20
6.00821149102717
30
0
41
1
10
3.43098058810312
20
5.85938224956863
30
0
41
1
10
3.36689842382242
20
5.7273624297203
30
0
41
1
10
3.24858017277677
20
5.45717053883848
30
0
41
1
10
3.18278234740069
20
5.26886649799278
30
0
41
1
10
3.11821329673245
20
5.02220008974675
30
0
41
1
10
3.1061870864358
20
4.97230038719846
30
0
41
1
10
3.08951613700603
20
4.89657425437929
30
0
41
1
10
3.08418204721284
20
4.87115946241889
30
0
41
1
10
3.07400305141533
20
4.82016501427151
30
0
41
1
10
3.0498010167519
20
4.69239046954786
30
0
41
1
10
3.03178256192862
20
4.56317935895151
30
0
41
1
10
3.00023688549948
20
4.2503331226599
30
0
41
1
10
2.99476239290294
20
4.03812273523528
30
0
41
1
10
3.00997668919302
20
3.71429276792136
30
0
41
1
10
3.01896305398904
20
3.60542875405784
30
0
41
1
10
3.03842348547914
20
3.44073096382371
30
0
41
1
10
3.04592728275387
20
3.38548984849274
30
0
41
1
10
3.06280229365853
20
3.27546426958745
30
0
41
1
10
3.07217919905912
20
3.2205987545928
30
0
41
1
10
3.12364269240354
20
2.94699123779873
30
0
41
1
10
3.17941379719207
20
2.73040004045029
30
0
41
1
10
3.28339794963293
20
2.40876594322569
30
0
41
1
10
3.32145772882299
20
2.30209856811555
30
0
41
1
10
3.38352811086347
20
2.1429041480676
30
0
41
1
10
3.40506936542539
20
2.08992556975332
30
0
41
1
10
3.44970992810207
20
1.98444622411966
30
0
41
1
10
3.47272706597238
20
1.93213517294427
30
0
41
1
10
3.59116306012365
20
1.67264017083755
30
0
41
1
10
3.69658910123204
20
1.47161003107846
30
0
41
1
10
3.92616322470917
20
1.08105171937348
30
0
41
1
10
4.05032673010351
20
0.891533033099478
30
0
41
1
10
4.24928117877363
20
0.615055052235334
30
0
41
1
10
4.31772250636502
20
0.524198806779424
30
0
41
1
10
4.42343561404385
20
0.389786088848439
30
0
41
1
10
4.45914066438326
20
0.34534878911353
30
0
41
1
10
4.53118445990137
20
0.257511372837001
30
0
41
1
10
4.56756245344721
20
0.214061065473857
30
0
41
1
10
4.75116299192547
20
-0.0009462875577242
30
0
41
1
10
4.90350046956758
20
-0.16579488804453
30
0
41
1
10
5.21760336921383
20
-0.483247886582177
30
0
41
1
10
5.37937444220404
20
-0.635844515419024
30
0
41
1
10
5.71119161300996
20
-0.930379197414794
30
0
41
1
10
5.8812407892847
20
-1.07231298139377
30
0
41
1
10
6.14179774340559
20
-1.2781946104941
30
0
41
1
10
6.27344884432341
20
-1.37937784976754
30
0
41
1
10
6.40703642341646
20
-1.47808689447066
30
0
41
1
10
6.49651232600561
20
-1.54335986420117
30
0
41
1
10
6.54147575636003
20
-1.57574143430037
30
0
41
1
10
6.76683347092276
20
-1.73602621979654
30
0
41
1
10
6.9491699141841
20
-1.85931494232369
30
0
41
1
10
7.31734501171758
20
-2.09747038949851
30
0
41
1
10
7.50318403110123
20
-2.2123352368001
30
0
41
1
10
7.87786785178054
20
-2.43480789504133
30
0
41
1
10
8.06671250029083
20
-2.54241501543692
30
0
41
1
10
8.4470085710235
20
-2.75128932680485
30
0
41
1
10
8.63845954391977
20
-2.8525564631282
30
0
41
1
10
9.02367655042582
20
-3.04942921971076
30
0
41
1
10
9.21744204288501
20
-3.14503498994856
30
0
41
1
10
9.6071193279937
20
-3.33102168569408
30
0
41
1
10
9.80303068211515
20
-3.42140261605604
30
0
41
1
10
10
20
-3.50926678580885
30
0
0
SPLINE
5
CE
100
AcDbEntity
8
1
62
256
6
ByLayer
370
18
48
1
60
0
100
AcDbSpline
70
4
71
3
72
14
73
10
40
0
40
0
40
0
40
0
40
0.25
40
0.25
40
0.5
40
0.5
40
0.75
40
0.75
40
1
40
1
40
1
40
1
41
1
10
13.7046482327153
20
-4.97049627370035
30
0
41
1
10
13.3873367210202
20
-4.87041015931703
30
0
41
1
10
13.0725699001163
20
-4.76435067967111
30
0
41
1
10
12.4473062372778
20
-4.54156683398605
30
0
41
1
10
12.136805715674
20
-4.42485185261629
30
0
41
1
10
11.5196321022341
20
-4.18129595596099
30
0
41
1
10
11.2129574882105
20
-4.05446097525771
30
0
41
1
10
10.6034617474005
20
-3.79020047358472
30
0
41
1
10
10.3006414258989
20
-3.65277660575805
30
0
41
1
10
10
20
-3.50926678580885
30
0
0
SPLINE
5
CF
100
AcDbEntity
8
1
62
256
6
ByLayer
370
18
48
1
60
0
100
AcDbSpline
70
4
71
4
72
16
73
11
40
0
40
0
40
0
40
0
40
0
40
0.285487288322271
40
0.285487288322271
40
0.285487288322271
40
0.714512711677725
40
0.714512711677725
40
0.714512711677725
40
1
40
1
40
1
40
1
40
1
41
0.996441385530921
10
18.5557652149325
20
8.11990700847526
30
0
41
0.994681775408317
10
18.40043162283
20
7.46432716601662
30
0
41
0.994701399837242
10
18.1411911126713
20
6.5446917628006
30
0
41
1
10
17.7913025409329
20
5.42867925712701
30
0
41
1
10
16.8613538243322
20
2.6239845250339
30
0
41
0.988033871712585
10
16.1302067238239
20
0.557012846620411
30
0
41
1
10
15.3990596233157
20
-1.32191512625496
30
0
41
1
10
14.469110906715
20
-3.53602483720869
30
0
41
0.994701399837242
10
14.1192223349766
20
-4.30831250020578
30
0
41
0.994681775408317
10
13.8599818248179
20
-4.78776223036999
30
0
41
0.996441385530921
10
13.7046482327155
20
-4.97049627370045
30
0
0
SPLINE
5
D0
100
AcDbEntity
8
1
62
256
6
ByLayer
370
18
48
1
60
0
100
AcDbSpline
70
4
71
3
72
25
73
21
40
0
40
0
40
0
40
0
40
0.125000000000008
40
0.125000000000008
40
0.250000000000017
40
0.250000000000017
40
0.375000000000025
40
0.375000000000025
40
0.437500000000027
40
0.437500000000027
40
0.468750000000025
40
0.468750000000025
40
0.500000000000024
40
0.625000000000018
40
0.625000000000018
40
0.750000000000012
40
0.750000000000012
40
0.875000000000006
40
0.875000000000006
40
1
40
1
40
1
40
1
41
1
10
10
20
8.58988269088573
30
0
41
1
10
10.355953822452
20
8.6423589052865
30
0
41
1
10
10.7133780421212
20
8.68329603521263
30
0
41
1
10
11.4309501113968
20
8.74531451844598
30
0
41
1
10
11.791099455419
20
8.76637787434672
30
0
41
1
10
12.5139807676358
20
8.79044521344312
30
0
41
1
10
12.8767138931792
20
8.79343714324526
30
0
41
1
10
13.4226699330483
20
8.78502334783039
30
0
41
1
10
13.604964830999
20
8.78006215369186
30
0
41
1
10
13.8788616064363
20
8.76942134501491
30
0
41
1
10
13.9700315148906
20
8.76534854195683
30
0
41
1
10
14.1519074034653
20
8.75618115694164
30
0
41
1
10
14.6056116811657
20
8.7306981771616
30
0
41
1
10
15.0545335539091
20
8.69266937257649
30
0
41
1
10
15.7674033412208
20
8.61673798734
30
0
41
1
10
16.1211344936611
20
8.57122085265542
30
0
41
1
10
16.82391667849
20
8.46588316106457
30
0
41
1
10
17.1729685461858
20
8.40605977736706
30
0
41
1
10
17.867137708613
20
8.27290912966558
30
0
41
1
10
18.2122580247575
20
8.19958720026392
30
0
41
1
10
18.5557652149323
20
8.11990700847528
30
0
0
SPLINE
5
D1
100
AcDbEntity
8
1
62
256
6
ByLayer
370
13
48
1
60
0
100
AcDbSpline
70
4
71
3
72
80
73
76
40
0
40
0
40
0
40
0
40
0.0312500000000017
40
0.0312500000000017
40
0.0625000000000033
40
0.0625000000000033
40
0.093750000000005
40
0.093750000000005
40
0.125000000000007
40
0.125000000000007
40
0.156250000000008
40
0.156250000000008
40
0.18750000000001
40
0.18750000000001
40
0.218750000000011
40
0.218750000000011
40
0.250000000000013
40
0.250000000000013
40
0.281250000000015
40
0.281250000000015
40
0.312500000000016
40
0.312500000000016
40
0.343750000000018
40
0.343750000000018
40
0.359375000000019
40
0.359375000000019
40
0.363281250000019
40
0.363281250000019
40
0.367187500000019
40
0.367187500000019
40
0.375000000000019
40
0.375000000000019
40
0.406250000000018
40
0.406250000000018
40
0.437500000000017
40
0.437500000000017
40
0.468750000000016
40
0.468750000000016
40
0.500000000000016
40
0.500000000000016
40
0.531250000000015
40
0.531250000000015
40
0.562500000000014
40
0.562500000000014
40
0.593750000000013
40
0.593750000000013
40
0.625000000000012
40
0.625000000000012
40
0.656250000000012
40
0.656250000000012
40
0.687500000000011
40
0.687500000000011
40
0.71875000000001
40
0.71875000000001
40
0.72656250000001
40
0.72656250000001
40
0.73437500000001
40
0.73437500000001
40
0.750000000000009
40
0.750000000000009
40
0.781250000000008
40
0.781250000000008
40
0.812500000000007
40
0.812500000000007
40
0.843750000000006
40
0.843750000000006
40
0.875000000000005
40
0.875000000000005
40
0.906250000000003
40
0.906250000000003
40
0.937500000000002
40
0.937500000000002
40
0.968750000000001
40
0.968750000000001
40
1
40
1
40
1
40
1
41
1
10
93.9246353003915
20
11.311
30
0
41
1
10
94.0023279814313
20
11.311
30
0
41
1
10
94.0800206624712
20
11.2832642535967
30
0
41
1
10
94.2354060245508
20
11.164737760622
30
0
41
1
10
94.3130987055906
20
11.073911137406
30
0
41
1
10
94.4684840676702
20
10.8237926691628
30
0
41
1
10
94.5461767487101
20
10.6644695003542
30
0
41
1
10
94.7015621107898
20
10.2752250008803
30
0
41
1
10
94.7792547918297
20
10.045284944713
30
0
41
1
10
94.9346401539093
20
9.51673308522609
30
0
41
1
10
95.0123328349492
20
9.21812180631707
30
0
41
1
10
95.1677181970288
20
8.55850926319957
30
0
41
1
10
95.2454108780685
20
8.1975302110425
30
0
41
1
10
95.4007962401482
20
7.42348236160532
30
0
41
1
10
95.4784889211882
20
7.01045410000282
30
0
41
1
10
95.6338742832677
20
6.14566651588976
30
0
41
1
10
95.7115669643075
20
5.69395763223875
30
0
41
1
10
95.8669523263873
20
4.76682484447332
30
0
41
1
10
95.9446450074271
20
4.29145070438705
30
0
41
1
10
96.1000303695067
20
3.33211636743039
30
0
41
1
10
96.1777230505464
20
2.848196114692
30
0
41
1
10
96.3331084126262
20
1.88563313609086
30
0
41
1
10
96.410801093666
20
1.40701535559933
30
0
41
1
10
96.5273401152259
20
0.701753614701971
30
0
41
1
10
96.5661864557457
20
0.46875732515926
30
0
41
1
10
96.6147443813956
20
0.180870453583395
30
0
41
1
10
96.6244559665255
20
0.123460572852252
30
0
41
1
10
96.6438791367855
20
0.0089926872893216
30
0
41
1
10
96.6535907219155
20
-0.048030499877683
30
0
41
1
10
96.6827254773054
20
-0.219971326321257
30
0
41
1
10
96.7021486475653
20
-0.335295075844925
30
0
41
1
10
96.7992644988652
20
-0.915048586239976
30
0
41
1
10
96.8769571799049
20
-1.38898942524369
30
0
41
1
10
97.0323425419846
20
-2.34650185245712
30
0
41
1
10
97.1100352230244
20
-2.83005405224105
30
0
41
1
10
97.2654205851042
20
-3.7936501010409
30
0
41
1
10
97.343113266144
20
-4.27365885576529
30
0
41
1
10
97.4984986282236
20
-5.21536211558694
30
0
41
1
10
97.5761913092634
20
-5.67700939060313
30
0
41
1
10
97.7315766713431
20
-6.56677043191667
30
0
41
1
10
97.809269352383
20
-6.99483279661473
30
0
41
1
10
97.9646547144625
20
-7.80330561050852
30
0
41
1
10
98.0423473955024
20
-8.18367095314929
30
0
41
1
10
98.1977327575821
20
-8.88522140182249
30
0
41
1
10
98.2754254386219
20
-9.2063772671288
30
0
41
1
10
98.4308108007016
20
-9.78172023696067
30
0
41
1
10
98.5085034817415
20
-10.0358992956348
30
0
41
1
10
98.663888843821
20
-10.4738146642524
30
0
41
1
10
98.7415815248609
20
-10.6575636216188
30
0
41
1
10
98.8969668869405
20
-10.9553828263349
30
0
41
1
10
98.9746595679803
20
-11.0694809340486
30
0
41
1
10
99.13004493006
20
-11.2323679501051
30
0
41
1
10
99.2077376110998
20
-11.2811920377371
30
0
41
1
10
99.3048534623996
20
-11.3057775565106
30
0
41
1
10
99.3242766326595
20
-11.3088773312962
30
0
41
1
10
99.3631229731795
20
-11.311567882274
30
0
41
1
10
99.3825461434394
20
-11.3111776248383
30
0
41
1
10
99.4408156542194
20
-11.3047355484706
30
0
41
1
10
99.4796619947391
20
-11.2933615389585
30
0
41
1
10
99.5962010162989
20
-11.2365460273538
30
0
41
1
10
99.6738936973388
20
-11.1683322980182
30
0
41
1
10
99.8292790594185
20
-10.9649931958356
30
0
41
1
10
99.9069717404583
20
-10.8298340257147
30
0
41
1
10
100.062357102538
20
-10.4892286879877
30
0
41
1
10
100.140049783578
20
-10.2837585423199
30
0
41
1
10
100.295435145657
20
-9.80298841102666
30
0
41
1
10
100.373127826697
20
-9.5276817365548
30
0
41
1
10
100.528513188777
20
-8.91201541834766
30
0
41
1
10
100.606205869817
20
-8.57167054723763
30
0
41
1
10
100.761591231896
20
-7.8349147612044
30
0
41
1
10
100.839283912936
20
-7.4385387724522
30
0
41
1
10
100.994669275016
20
-6.60216129357991
30
0
41
1
10
101.072361956056
20
-6.16220797540188
30
0
41
1
10
101.227747318135
20
-5.2532919974478
30
0
41
1
10
101.305439999175
20
-4.78438051399954
30
0
41
1
10
101.383132680215
20
-4.30859446647909
30
0
0
SPLINE
5
D2
100
AcDbEntity
8
1
62
256
6
ByLayer
370
13
48
1
60
0
100
AcDbSpline
70
4
71
3
72
42
73
38
40
0
40
0
40
0
40
0
40
0.0625000000000009
40
0.0625000000000009
40
0.125000000000002
40
0.125000000000002
40
0.187500000000003
40
0.187500000000003
40
0.218750000000003
40
0.218750000000003
40
0.234375000000004
40
0.234375000000004
40
0.250000000000004
40
0.250000000000004
40
0.312500000000003
40
0.312500000000003
40
0.375000000000003
40
0.375000000000003
40
0.437500000000002
40
0.437500000000002
40
0.500000000000002
40
0.500000000000002
40
0.562500000000002
40
0.562500000000002
40
0.625000000000001
40
0.625000000000001
40
0.687500000000001
40
0.687500000000001
40
0.750000000000001
40
0.750000000000001
40
0.812500000000001
40
0.812500000000001
40
0.875000000000001
40
0.875000000000001
40
0.9375
40
0.9375
40
1
40
1
40
1
40
1
41
1
10
90.5
20
-5.03693567156347
30
0
41
1
10
90.5738464619853
20
-4.5933402050704
30
0
41
1
10
90.6476929239707
20
-4.140032852731
30
0
41
1
10
90.7953858479414
20
-3.22683539187344
30
0
41
1
10
90.8692323099267
20
-2.76697536160606
30
0
41
1
10
91.0169252338974
20
-1.8524691274568
30
0
41
1
10
91.0907716958828
20
-1.39784178451666
30
0
41
1
10
91.2015413888608
20
-0.727260185300679
30
0
41
1
10
91.2384646198535
20
-0.505609954177231
30
0
41
1
10
91.2938494663425
20
-0.176722593135537
30
0
41
1
10
91.3123110818389
20
-0.067953320223495
30
0
41
1
10
91.3492343128316
20
0.149449592487287
30
0
41
1
10
91.367695928328
20
0.258791543036608
30
0
41
1
10
91.4600040058096
20
0.808410105661011
30
0
41
1
10
91.5338504677949
20
1.25750109129996
30
0
41
1
10
91.6815433917657
20
2.16552996509932
30
0
41
1
10
91.755389853751
20
2.62445416042399
30
0
41
1
10
91.9030827777217
20
3.54112097474868
30
0
41
1
10
91.976929239707
20
3.99883819722635
30
0
41
1
10
92.1246221636777
20
4.90057066446306
30
0
41
1
10
92.1984686256631
20
5.34455079260971
30
0
41
1
10
92.3461615496338
20
6.20571526929376
30
0
41
1
10
92.4200080116191
20
6.62285979816366
30
0
41
1
10
92.5677009355898
20
7.41783221317689
30
0
41
1
10
92.6415473975752
20
7.79562268988246
30
0
41
1
10
92.7892403215459
20
8.50112640047436
30
0
41
1
10
92.8630867835313
20
8.82881184656515
30
0
41
1
10
93.010779707502
20
9.42611010071863
30
0
41
1
10
93.0846261694874
20
9.69570977136709
30
0
41
1
10
93.232319093458
20
10.1722366625137
30
0
41
1
10
93.3061655554434
20
10.3791667273757
30
0
41
1
10
93.4538584794142
20
10.7293059146829
30
0
41
1
10
93.5277049413994
20
10.8725314205185
30
0
41
1
10
93.6753978653701
20
11.0974632470068
30
0
41
1
10
93.7492443273555
20
11.1791945243996
30
0
41
1
10
93.8969372513262
20
11.2859489608332
30
0
41
1
10
93.9707837133114
20
11.311
30
0
41
1
10
94.0446301752969
20
11.311
30
0
0
SPLINE
5
D3
100
AcDbEntity
8
1
62
256
6
ByLayer
370
13
48
1
60
0
100
AcDbSpline
70
4
71
3
72
80
73
76
40
0
40
0
40
0
40
0
40
0.031249999999999
40
0.031249999999999
40
0.062499999999998
40
0.062499999999998
40
0.093749999999997
40
0.093749999999997
40
0.124999999999996
40
0.124999999999996
40
0.156249999999995
40
0.156249999999995
40
0.187499999999994
40
0.187499999999994
40
0.218749999999993
40
0.218749999999993
40
0.249999999999992
40
0.249999999999992
40
0.281249999999991
40
0.281249999999991
40
0.31249999999999
40
0.31249999999999
40
0.328124999999989
40
0.328124999999989
40
0.335937499999989
40
0.339843749999989
40
0.339843749999989
40
0.343749999999989
40
0.343749999999989
40
0.37499999999999
40
0.37499999999999
40
0.40624999999999
40
0.40624999999999
40
0.437499999999991
40
0.437499999999991
40
0.468749999999992
40
0.468749999999992
40
0.499999999999993
40
0.499999999999993
40
0.531249999999993
40
0.531249999999993
40
0.562499999999994
40
0.562499999999994
40
0.593749999999995
40
0.593749999999995
40
0.624999999999995
40
0.624999999999995
40
0.656249999999996
40
0.656249999999996
40
0.671874999999996
40
0.671874999999996
40
0.679687499999997
40
0.683593749999997
40
0.683593749999997
40
0.687499999999997
40
0.687499999999997
40
0.718749999999997
40
0.718749999999997
40
0.749999999999997
40
0.749999999999997
40
0.781249999999998
40
0.781249999999998
40
0.812499999999998
40
0.812499999999998
40
0.843749999999998
40
0.843749999999998
40
0.874999999999999
40
0.874999999999999
40
0.906249999999999
40
0.906249999999999
40
0.937499999999999
40
0.937499999999999
40
0.96875
40
0.96875
40
1
40
1
40
1
40
1
41
1
10
93.4354017637866
20
11.311
30
0
41
1
10
93.5181906274993
20
11.311
30
0
41
1
10
93.6009794912121
20
11.2794945500336
30
0
41
1
10
93.7665572186377
20
11.1443697361903
30
0
41
1
10
93.8493460823505
20
11.0407012334589
30
0
41
1
10
94.0149238097761
20
10.7550338136275
30
0
41
1
10
94.0977126734889
20
10.5729935750262
30
0
41
1
10
94.2632904009145
20
10.1287474124305
30
0
41
1
10
94.3460792646273
20
9.86652043092118
30
0
41
1
10
94.5116569920528
20
9.26543021694906
30
0
41
1
10
94.5944458557657
20
8.92657551695461
30
0
41
1
10
94.7600235831914
20
8.18134235674108
30
0
41
1
10
94.8428124469041
20
7.77500352554674
30
0
41
1
10
95.0083901743296
20
6.90877173051828
30
0
41
1
10
95.0911790380425
20
6.44894138103055
30
0
41
1
10
95.2567567654681
20
5.49297936993639
30
0
41
1
10
95.3395456291809
20
4.99691828080193
30
0
41
1
10
95.5051233566064
20
3.98697062021114
30
0
41
1
10
95.5879122203193
20
3.47314654746998
30
0
41
1
10
95.7534899477448
20
2.44531562260803
30
0
41
1
10
95.8362788114575
20
1.93135191015205
30
0
41
1
10
95.9604621070267
20
1.17165994390646
30
0
41
1
10
96.0018565388832
20
0.920281730829601
30
0
41
1
10
96.0639481866679
20
0.547177878207407
30
0
41
1
10
96.09499401056
20
0.36161423868424
30
0
41
1
10
96.1260398344525
20
0.17773137692862
30
0
41
1
10
96.1467370503806
20
0.0555366718722041
30
0
41
1
10
96.1570856583447
20
-0.0052291490907521
30
0
41
1
10
96.2502231300215
20
-0.554122338957029
30
0
41
1
10
96.3330119937344
20
-1.05496147599365
30
0
41
1
10
96.49858972116
20
-2.07044404963094
30
0
41
1
10
96.5813785848728
20
-2.58506546763877
30
0
41
1
10
96.7469563122984
20
-3.61269892196353
30
0
41
1
10
96.8297451760112
20
-4.12566579240945
30
0
41
1
10
96.9953229034368
20
-5.13223355907408
30
0
41
1
10
97.0781117671496
20
-5.6257706583298
30
0
41
1
10
97.2436894945752
20
-6.57503906738617
30
0
41
1
10
97.3264783582881
20
-7.03069983336331
30
0
41
1
10
97.4920560857136
20
-7.88716027573554
30
0
41
1
10
97.5748449494263
20
-8.28789886760683
30
0
41
1
10
97.7404226768519
20
-9.02088311599303
30
0
41
1
10
97.8232115405647
20
-9.35309176457886
30
0
41
1
10
97.9887892679903
20
-9.9403311154752
30
0
41
1
10
98.0715781317032
20
-10.1953561703523
30
0
41
1
10
98.2371558591287
20
-10.62514929428
30
0
41
1
10
98.3199447228415
20
-10.7999407251556
30
0
41
1
10
98.4855224502671
20
-11.0715099019201
30
0
41
1
10
98.5683113139798
20
-11.1683301959097
30
0
41
1
10
98.6924946095492
20
-11.2599508358551
30
0
41
1
10
98.7338890414056
20
-11.2815852830375
30
0
41
1
10
98.7959806891902
20
-11.3014989959726
30
0
41
1
10
98.8270265130823
20
-11.3083232329175
30
0
41
1
10
98.8580723369747
20
-11.3106171257754
30
0
41
1
10
98.8787695529029
20
-11.3111592163939
30
0
41
1
10
98.889118160867
20
-11.3109394835518
30
0
41
1
10
98.9822556325438
20
-11.3044895701853
30
0
41
1
10
99.0650444962566
20
-11.266791990201
30
0
41
1
10
99.2306222236822
20
-11.1185746926813
30
0
41
1
10
99.313411087395
20
-11.0080060463047
30
0
41
1
10
99.4789888148206
20
-10.7081727506492
30
0
41
1
10
99.5617776785335
20
-10.5188681119782
30
0
41
1
10
99.7273554059591
20
-10.0601822829356
30
0
41
1
10
99.8101442696719
20
-9.7907824193756
30
0
41
1
10
99.9757219970975
20
-9.17594591277779
30
0
41
1
10
100.05851086081
20
-8.83052070099919
30
0
41
1
10
100.224088588236
20
-8.07323016668272
30
0
41
1
10
100.306877451949
20
-7.66140702574248
30
0
41
1
10
100.472455179374
20
-6.78566302102797
30
0
41
1
10
100.555244043087
20
-6.32180617375201
30
0
41
1
10
100.720821770513
20
-5.35944675888689
30
0
41
1
10
100.803610634225
20
-4.86101465666977
30
0
41
1
10
100.969188361651
20
-3.84798590519682
30
0
41
1
10
101.051977225364
20
-3.33345036192389
30
0
41
1
10
101.217554952789
20
-2.30569280901511
30
0
41
1
10
101.300343816502
20
-1.79251188216711
30
0
41
1
10
101.383132680215
20
-1.28744140179387
30
0
0
SPLINE
5
D4
100
AcDbEntity
8
1
62
256
6
ByLayer
370
13
48
1
60
0
100
AcDbSpline
70
4
71
3
72
42
73
38
40
0
40
0
40
0
40
0
40
0.0624999999999987
40
0.0624999999999987
40
0.0937499999999984
40
0.0937499999999984
40
0.109374999999998
40
0.109374999999998
40
0.124999999999997
40
0.124999999999997
40
0.187499999999998
40
0.187499999999998
40
0.249999999999998
40
0.249999999999998
40
0.312499999999998
40
0.312499999999998
40
0.374999999999998
40
0.374999999999998
40
0.437499999999999
40
0.437499999999999
40
0.499999999999999
40
0.499999999999999
40
0.562499999999999
40
0.562499999999999
40
0.624999999999999
40
0.624999999999999
40
0.687499999999999
40
0.687499999999999
40
0.749999999999999
40
0.749999999999999
40
0.812499999999999
40
0.812499999999999
40
0.875
40
0.875
40
0.9375
40
0.9375
40
1
40
1
40
1
40
1
41
1
10
90.5
20
-2.02431414086914
30
0
41
1
10
90.5636540966394
20
-1.63128532666752
30
0
41
1
10
90.6273081932789
20
-1.24102086504919
30
0
41
1
10
90.722789338238
20
-0.664382459714886
30
0
41
1
10
90.7546163865577
20
-0.473620152136874
30
0
41
1
10
90.8023569590372
20
-0.190142274729112
30
0
41
1
10
90.8182704831971
20
-0.0960932927364979
30
0
41
1
10
90.8500975315169
20
0.0910432372253354
30
0
41
1
10
90.8660110556767
20
0.185058493368871
30
0
41
1
10
90.9455786764759
20
0.657441780003779
30
0
41
1
10
91.0092327731153
20
1.04250684710158
30
0
41
1
10
91.1365409663941
20
1.8214207238355
30
0
41
1
10
91.2001950630336
20
2.21526416018111
30
0
41
1
10
91.3275032563124
20
3.0050101049917
30
0
41
1
10
91.3911573529518
20
3.40090240519388
30
0
41
1
10
91.5184655462306
20
4.18706445037927
30
0
41
1
10
91.5821196428701
20
4.57731947950688
30
0
41
1
10
91.7094278361488
20
5.34394443974784
30
0
41
1
10
91.7730819327883
20
5.72029642204475
30
0
41
1
10
91.9003901260671
20
6.45076772160161
30
0
41
1
10
91.9640442227065
20
6.80486799283219
30
0
41
1
10
92.0913524159854
20
7.48296724579762
30
0
41
1
10
92.1550065126248
20
7.80694870939132
30
0
41
1
10
92.2823147059036
20
8.41797958255401
30
0
41
1
10
92.345968802543
20
8.70501553543068
30
0
41
1
10
92.4732769958218
20
9.23683658418986
30
0
41
1
10
92.5369310924613
20
9.48161411970801
30
0
41
1
10
92.6642392857401
20
9.92543297593929
30
0
41
1
10
92.7278933823795
20
10.1244733493048
30
0
41
1
10
92.8552015756584
20
10.4752952020425
30
0
41
1
10
92.9188556722978
20
10.6270818561994
30
0
41
1
10
93.0461638655765
20
10.8837698630479
30
0
41
1
10
93.1098179622159
20
10.9886810596567
30
0
41
1
10
93.2371261554949
20
11.1536563560234
30
0
41
1
10
93.3007802521343
20
11.21373301063
30
0
41
1
10
93.4280884454131
20
11.2923981865329
30
0
41
1
10
93.4917425420525
20
11.311
30
0
41
1
10
93.5553966386919
20
11.311
30
0
0
SPLINE
5
D5
100
AcDbEntity
8
1
62
256
6
ByLayer
370
13
48
1
60
0
100
AcDbSpline
70
4
71
3
72
84
73
80
40
0
40
0
40
0
40
0
40
0.03125
40
0.03125
40
0.0625
40
0.0625
40
0.09375
40
0.09375
40
0.125
40
0.125
40
0.15625
40
0.15625
40
0.1875
40
0.1875
40
0.21875
40
0.21875
40
0.25
40
0.25
40
0.28125
40
0.28125
40
0.3125
40
0.3125
40
0.3203125
40
0.3203125
40
0.32421875
40
0.32421875
40
0.328125
40
0.34375
40
0.34375
40
0.375
40
0.375
40
0.40625
40
0.40625
40
0.4375
40
0.4375
40
0.46875
40
0.46875
40
0.5
40
0.5
40
0.53125
40
0.53125
40
0.5625
40
0.5625
40
0.59375
40
0.59375
40
0.625
40
0.625
40
0.640625
40
0.640625
40
0.6484375
40
0.6484375
40
0.65625
40
0.65625
40
0.6875
40
0.6875
40
0.71875
40
0.71875
40
0.750000000000001
40
0.750000000000001
40
0.781250000000001
40
0.781250000000001
40
0.812500000000001
40
0.812500000000001
40
0.843750000000001
40
0.843750000000001
40
0.875000000000001
40
0.875000000000001
40
0.906250000000001
40
0.906250000000001
40
0.937500000000001
40
0.937500000000001
40
0.953125
40
0.953125
40
0.9609375
40
0.964843750000001
40
0.964843750000001
40
0.968750000000001
40
0.968750000000001
40
1
40
1
40
1
40
1
41
1
10
92.9461682271815
20
11.311
30
0
41
1
10
93.0340532735673
20
11.311
30
0
41
1
10
93.1219383199531
20
11.2754820211451
30
0
41
1
10
93.2977084127246
20
11.1226095739999
30
0
41
1
10
93.3855934591104
20
11.00518913372
30
0
41
1
10
93.5613635518819
20
10.6814834701951
30
0
41
1
10
93.6492485982677
20
10.4751451216668
30
0
41
1
10
93.8250186910392
20
9.97232831762119
30
0
41
1
10
93.9129037374249
20
9.67582820525294
30
0
41
1
10
94.0886738301965
20
8.99835754897609
30
0
41
1
10
94.1765588765824
20
8.6174091375899
30
0
41
1
10
94.3523289693538
20
7.78368654661287
30
0
41
1
10
94.4402140157396
20
7.33097696013672
30
0
41
1
10
94.6159841085111
20
6.37203015643567
30
0
41
1
10
94.7038691548968
20
5.86588379871694
30
0
41
1
10
94.8796392476684
20
4.82160816986229
30
0
41
1
10
94.9675242940541
20
4.28357164419253
30
0
41
1
10
95.1432943868256
20
3.19745563779779
30
0
41
1
10
95.2311794332115
20
2.64944879562185
30
0
41
1
10
95.4069495259831
20
1.5631683439878
30
0
41
1
10
95.4948345723687
20
1.02493557031909
30
0
41
1
10
95.6046908803509
20
0.368150612273979
30
0
41
1
10
95.6266621419475
20
0.237583122108958
30
0
41
1
10
95.6596190343421
20
0.043068089158055
30
0
41
1
10
95.6706046651403
20
-0.0214118503294856
30
0
41
1
10
95.6925759267367
20
-0.150988879445634
30
0
41
1
10
95.7475040807278
20
-0.476048163268416
30
0
41
1
10
95.8024322347189
20
-0.806414074188268
30
0
41
1
10
95.9342598042975
20
-1.60684646044973
30
0
41
1
10
96.0221448506833
20
-2.15066545335046
30
0
41
1
10
96.1979149434549
20
-3.2413825707641
30
0
41
1
10
96.2857999898406
20
-3.78822781377562
30
0
41
1
10
96.4615700826122
20
-4.86424720281914
30
0
41
1
10
96.5494551289979
20
-5.39333946109579
30
0
41
1
10
96.7252252217694
20
-6.41175669940392
30
0
41
1
10
96.8131102681552
20
-6.90098672940303
30
0
41
1
10
96.9888803609267
20
-7.81896304611422
30
0
41
1
10
97.0767654073125
20
-8.24762535629483
30
0
41
1
10
97.252535500084
20
-9.02791043250409
30
0
41
1
10
97.3404205464698
20
-9.37948277625355
30
0
41
1
10
97.5161906392414
20
-9.99528939819015
30
0
41
1
10
97.6040756856271
20
-10.2595180229924
30
0
41
1
10
97.7798457783986
20
-10.6974662659438
30
0
41
1
10
97.8677308247844
20
-10.8712208447682
30
0
41
1
10
98.0435009175559
20
-11.131708041916
30
0
41
1
10
98.1313859639417
20
-11.2185006266738
30
0
41
1
10
98.2632135335203
20
-11.2899132326176
30
0
41
1
10
98.3071560567132
20
-11.3039556588655
30
0
41
1
10
98.3730698415025
20
-11.3114218050626
30
0
41
1
10
98.3950411030989
20
-11.3116662878649
30
0
41
1
10
98.4389836262918
20
-11.3076977659245
30
0
41
1
10
98.4609548878883
20
-11.3034588538698
30
0
41
1
10
98.5708111958705
20
-11.2705400364453
30
0
41
1
10
98.6586962422563
20
-11.2065507532511
30
0
41
1
10
98.8344663350277
20
-10.9936439167291
30
0
41
1
10
98.9223513814135
20
-10.8446628514083
30
0
41
1
10
99.098121474185
20
-10.4566294385769
30
0
41
1
10
99.1860065205708
20
-10.2175333170528
30
0
41
1
10
99.3617766133424
20
-9.65041662823771
30
0
41
1
10
99.4496616597281
20
-9.32238939102405
30
0
41
1
10
99.6254317524997
20
-8.58566601687244
30
0
41
1
10
99.7133167988854
20
-8.17700833258161
30
0
41
1
10
99.8890868916569
20
-7.29392952416251
30
0
41
1
10
99.9769719380428
20
-6.81958498426823
30
0
41
1
10
100.152742030814
20
-5.82491986383326
30
0
41
1
10
100.2406270772
20
-5.30469373851986
30
0
41
1
10
100.416397169972
20
-4.2402813131354
30
0
41
1
10
100.504282216357
20
-3.69618260739054
30
0
41
1
10
100.680052309129
20
-2.605443850033
30
0
41
1
10
100.767937355515
20
-2.05886565098459
30
0
41
1
10
100.899764925093
20
-1.2509795437351
30
0
41
1
10
100.943707448286
20
-0.983652621945055
30
0
41
1
10
101.009621233075
20
-0.587050907323629
30
0
41
1
10
101.04257812547
20
-0.389843961889312
30
0
41
1
10
101.075535017865
20
-0.194517012321626
30
0
41
1
10
101.097506279461
20
-0.0647412669879657
30
0
41
1
10
101.108491910259
20
-0.0002273504084087
30
0
41
1
10
101.207362587443
20
0.582418114386087
30
0
41
1
10
101.295247633829
20
1.11492846560782
30
0
41
1
10
101.383132680215
20
1.65476361114432
30
0
0
SPLINE
5
D6
100
AcDbEntity
8
1
62
256
6
ByLayer
370
13
48
1
60
0
100
AcDbSpline
70
4
71
3
72
36
73
32
40
0
40
0
40
0
40
0
40
0.0625
40
0.0625
40
0.125
40
0.125
40
0.1875
40
0.1875
40
0.25
40
0.25
40
0.3125
40
0.3125
40
0.375
40
0.375
40
0.4375
40
0.4375
40
0.5
40
0.5
40
0.5625
40
0.5625
40
0.625
40
0.625
40
0.6875
40
0.6875
40
0.750000000000001
40
0.750000000000001
40
0.8125
40
0.8125
40
0.875
40
0.875
40
1
40
1
40
1
40
1
41
1
10
90.5
20
0.922896344981666
30
0
41
1
10
90.5534617312935
20
1.24631811115609
30
0
41
1
10
90.6069234625869
20
1.57373523174988
30
0
41
1
10
90.7138469251738
20
2.23293244262592
30
0
41
1
10
90.7673086564674
20
2.56470948366265
30
0
41
1
10
90.8742321190544
20
3.22844174910185
30
0
41
1
10
90.9276938503479
20
3.56039222183571
30
0
41
1
10
91.0346173129348
20
4.2198493112692
30
0
41
1
10
91.0880790442283
20
4.54734963448684
30
0
41
1
10
91.1950025068153
20
5.19301367002382
30
0
41
1
10
91.2484642381087
20
5.51116994679356
30
0
41
1
10
91.3553877006957
20
6.13319015155446
30
0
41
1
10
91.4088494319891
20
6.43704611857868
30
0
41
1
10
91.515772894576
20
7.02568052666695
30
0
41
1
10
91.5692346258696
20
7.31045124114425
30
0
41
1
10
91.6761580884565
20
7.85653889948574
30
0
41
1
10
91.7296198197499
20
8.11784913863747
30
0
41
1
10
91.8365432823369
20
8.61326804372933
30
0
41
1
10
91.8900050136305
20
8.84737170951325
30
0
41
1
10
91.9969284762174
20
9.28543618430126
30
0
41
1
10
92.0503902075109
20
9.48939415873446
30
0
41
1
10
92.1573136700979
20
9.86515155092701
30
0
41
1
10
92.2107754013913
20
10.0369504677384
30
0
41
1
10
92.3176988639782
20
10.3473500215654
30
0
41
1
10
92.3711605952718
20
10.485952356899
30
0
41
1
10
92.4780840578587
20
10.7298762426151
30
0
41
1
10
92.5315457891522
20
10.8352013041872
30
0
41
1
10
92.6384692517391
20
11.0133655022374
30
0
41
1
10
92.6919309830325
20
11.0862094159176
30
0
41
1
10
92.8523161769131
20
11.2583307597045
30
0
41
1
10
92.9592396395
20
11.311
30
0
41
1
10
93.0661631020869
20
11.311
30
0
0
SPLINE
5
D7
100
AcDbEntity
8
1
62
256
6
ByLayer
370
13
48
1
60
0
100
AcDbSpline
70
4
71
3
72
82
73
78
40
0
40
0
40
0
40
0
40
0.0312499999999997
40
0.0312499999999997
40
0.0624999999999995
40
0.0624999999999995
40
0.0937499999999992
40
0.0937499999999992
40
0.124999999999999
40
0.124999999999999
40
0.156249999999999
40
0.156249999999999
40
0.187499999999998
40
0.187499999999998
40
0.218749999999998
40
0.218749999999998
40
0.249999999999998
40
0.249999999999998
40
0.281249999999998
40
0.281249999999998
40
0.296874999999997
40
0.296874999999997
40
0.304687499999997
40
0.304687499999997
40
0.312499999999997
40
0.312499999999997
40
0.343749999999997
40
0.343749999999997
40
0.374999999999997
40
0.374999999999997
40
0.406249999999997
40
0.406249999999997
40
0.437499999999996
40
0.437499999999996
40
0.468749999999996
40
0.468749999999996
40
0.499999999999996
40
0.499999999999996
40
0.531249999999995
40
0.531249999999995
40
0.562499999999995
40
0.562499999999995
40
0.593749999999995
40
0.593749999999995
40
0.609374999999995
40
0.609374999999995
40
0.617187499999995
40
0.617187499999995
40
0.624999999999995
40
0.624999999999995
40
0.656249999999995
40
0.656249999999995
40
0.687499999999995
40
0.687499999999995
40
0.718749999999996
40
0.718749999999996
40
0.749999999999996
40
0.749999999999996
40
0.781249999999996
40
0.781249999999996
40
0.812499999999996
40
0.812499999999996
40
0.843749999999996
40
0.843749999999996
40
0.874999999999997
40
0.874999999999997
40
0.906249999999997
40
0.906249999999997
40
0.914062499999997
40
0.914062499999997
40
0.921874999999997
40
0.921874999999997
40
0.937499999999998
40
0.937499999999998
40
0.968749999999999
40
0.968749999999999
40
1
40
1
40
1
40
1
41
1
10
92.4569346905765
20
11.311
30
0
41
1
10
92.5499159196353
20
11.311
30
0
41
1
10
92.642897148694
20
11.2712259371271
30
0
41
1
10
92.8288596068115
20
11.0994471735246
30
0
41
1
10
92.9218408358702
20
10.9673554700809
30
0
41
1
10
93.1078032939877
20
10.6031179399488
30
0
41
1
10
93.2007845230464
20
10.3709054611582
30
0
41
1
10
93.3867469811639
20
9.80603611644685
30
0
41
1
10
93.4797282102227
20
9.47335996259562
30
0
41
1
10
93.6656906683401
20
8.71599526194214
30
0
41
1
10
93.7586718973989
20
8.29135000185028
30
0
41
1
10
93.9446343555164
20
7.36698157542983
30
0
41
1
10
94.0376155845751
20
6.86735690874775
30
0
41
1
10
94.2235780426924
20
5.81628718296273
30
0
41
1
10
94.3165592717512
20
5.26496704124196
30
0
41
1
10
94.5025217298688
20
4.13660865068994
30
0
41
1
10
94.5955029589275
20
3.55968527647556
30
0
41
1
10
94.781465417045
20
2.40533098066925
30
0
41
1
10
94.8744466461036
20
1.82797767011209
30
0
41
1
10
95.0139184896916
20
0.977572878138375
30
0
41
1
10
95.0604091042212
20
0.696671416801621
30
0
41
1
10
95.1301450260152
20
0.280782228241776
30
0
41
1
10
95.1533903332797
20
0.143060218512119
30
0
41
1
10
95.1998809478092
20
-0.130333447856202
30
0
41
1
10
95.2231262550739
20
-0.267933029738202
30
0
41
1
10
95.3393527913973
20
-0.960799644777865
30
0
41
1
10
95.4323340204561
20
-1.52989501139777
30
0
41
1
10
95.6182964785736
20
-2.67914351695475
30
0
41
1
10
95.7112777076322
20
-3.2592425704452
30
0
41
1
10
95.8972401657497
20
-4.40704578309263
30
0
41
1
10
95.9902213948085
20
-4.97465166210378
30
0
41
1
10
96.1761838529259
20
-6.07143149199987
30
0
41
1
10
96.2691650819847
20
-6.60048130440089
30
0
41
1
10
96.4551275401021
20
-7.59495391901979
30
0
41
1
10
96.5481087691609
20
-8.06026030510216
30
0
41
1
10
96.7340712272783
20
-8.90664090462769
30
0
41
1
10
96.827052456337
20
-9.28764132900031
30
0
41
1
10
97.0130149144545
20
-9.95237523221272
30
0
41
1
10
97.1059961435133
20
-10.2360968538839
30
0
41
1
10
97.2919586016308
20
-10.7021467674175
30
0
41
1
10
97.3849398306894
20
-10.8845206346043
30
0
41
1
10
97.5709022888069
20
-11.1521117863953
30
0
41
1
10
97.6638835178656
20
-11.2374092851699
30
0
41
1
10
97.8033553614538
20
-11.3004483439116
30
0
41
1
10
97.849845975983
20
-11.3106851173112
30
0
41
1
10
97.9195818977772
20
-11.3111466990305
30
0
41
1
10
97.9428272050419
20
-11.3088262887907
30
0
41
1
10
97.9893178195712
20
-11.2990198340816
30
0
41
1
10
98.0125631268359
20
-11.2915334973617
30
0
41
1
10
98.1287896631593
20
-11.2406700806497
30
0
41
1
10
98.221770892218
20
-11.1568085199021
30
0
41
1
10
98.4077333503355
20
-10.892212277196
30
0
41
1
10
98.5007145793942
20
-10.7113970669165
30
0
41
1
10
98.6866770375117
20
-10.2484714766244
30
0
41
1
10
98.7796582665704
20
-9.96631477842979
30
0
41
1
10
98.9656207246878
20
-9.30457967403868
30
0
41
1
10
99.0586019537466
20
-8.9250121383611
30
0
41
1
10
99.2445644118641
20
-8.08123306022367
30
0
41
1
10
99.3375456409228
20
-7.61709443508306
30
0
41
1
10
99.5235080990403
20
-6.624594082427
30
0
41
1
10
99.6164893280991
20
-6.09634835587377
30
0
41
1
10
99.8024517862165
20
-5.00076912608014
30
0
41
1
10
99.8954330152752
20
-4.43355992382945
30
0
41
1
10
100.081395473393
20
-3.28615685900343
30
0
41
1
10
100.174376702451
20
-2.70606186757351
30
0
41
1
10
100.360339160569
20
-1.55648923064612
30
0
41
1
10
100.453320389628
20
-0.987066398910144
30
0
41
1
10
100.569546925951
20
-0.293636905165926
30
0
41
1
10
100.592792233216
20
-0.155854898006339
30
0
41
1
10
100.639282847745
20
0.117665710998608
30
0
41
1
10
100.66252815501
20
0.255089331037794
30
0
41
1
10
100.732264076804
20
0.67063937071589
30
0
41
1
10
100.778754691333
20
0.95134524648654
30
0
41
1
10
100.918226534921
20
1.80127142697123
30
0
41
1
10
101.01120776398
20
2.3784507077678
30
0
41
1
10
101.197170222097
20
3.53282240780411
30
0
41
1
10
101.290151451156
20
4.10993791449175
30
0
41
1
10
101.383132680215
20
4.67451241258027
30
0
0
SPLINE
5
D8
100
AcDbEntity
8
1
62
256
6
ByLayer
370
13
48
1
60
0
100
AcDbSpline
70
4
71
3
72
22
73
18
40
0
40
0
40
0
40
0
40
0.125
40
0.125
40
0.25
40
0.25
40
0.375
40
0.375
40
0.5
40
0.5
40
0.625
40
0.625
40
0.75
40
0.75
40
0.875
40
0.875
40
1
40
1
40
1
40
1
41
1
10
90.5
20
3.93992473207385
30
0
41
1
10
90.5865387318951
20
4.47328329914532
30
0
41
1
10
90.6730774637902
20
5.00050353790965
30
0
41
1
10
90.8461549275803
20
6.02180567858983
30
0
41
1
10
90.9326936594755
20
6.51580078736365
30
0
41
1
10
91.1057711232656
20
7.45026568825372
30
0
41
1
10
91.1923098551606
20
7.89065267570518
30
0
41
1
10
91.3653873189509
20
8.70075853467003
30
0
41
1
10
91.4519260508459
20
9.07042022421237
30
0
41
1
10
91.6250035146361
20
9.72735699211819
30
0
41
1
10
91.7115422465312
20
10.0146141799575
30
0
41
1
10
91.8846197103213
20
10.501615422749
30
0
41
1
10
91.9711584422164
20
10.7013812079389
30
0
41
1
10
92.1442359060065
20
11.0147956182624
30
0
41
1
10
92.2307746379016
20
11.1284940770427
30
0
41
1
10
92.4038521016918
20
11.2765656961333
30
0
41
1
10
92.4903908335869
20
11.311
30
0
41
1
10
92.576929565482
20
11.311
30
0
0
SPLINE
5
D9
100
AcDbEntity
8
1
62
256
6
ByLayer
370
13
48
1
60
0
100
AcDbSpline
70
4
71
3
72
80
73
76
40
0
40
0
40
0
40
0
40
0.0312500000000004
40
0.0312500000000004
40
0.0625000000000008
40
0.0625000000000008
40
0.0937500000000012
40
0.0937500000000012
40
0.125000000000002
40
0.125000000000002
40
0.156250000000002
40
0.156250000000002
40
0.187500000000002
40
0.187500000000002
40
0.218750000000003
40
0.218750000000003
40
0.250000000000003
40
0.250000000000003
40
0.281250000000004
40
0.281250000000004
40
0.289062500000004
40
0.289062500000004
40
0.296875000000004
40
0.296875000000004
40
0.312500000000003
40
0.312500000000003
40
0.343750000000003
40
0.343750000000003
40
0.375000000000003
40
0.375000000000003
40
0.406250000000003
40
0.406250000000003
40
0.437500000000002
40
0.437500000000002
40
0.468750000000002
40
0.468750000000002
40
0.500000000000002
40
0.500000000000002
40
0.531250000000001
40
0.531250000000001
40
0.562500000000001
40
0.562500000000001
40
0.578125000000001
40
0.578125000000001
40
0.593750000000001
40
0.593750000000001
40
0.625000000000001
40
0.625000000000001
40
0.656250000000001
40
0.656250000000001
40
0.687500000000001
40
0.687500000000001
40
0.718750000000002
40
0.718750000000002
40
0.750000000000002
40
0.750000000000002
40
0.781250000000002
40
0.781250000000002
40
0.812500000000002
40
0.812500000000002
40
0.843750000000002
40
0.843750000000002
40
0.859375000000002
40
0.859375000000002
40
0.867187500000002
40
0.867187500000002
40
0.875000000000002
40
0.875000000000002
40
0.906250000000002
40
0.906250000000002
40
0.937500000000001
40
0.937500000000001
40
0.968750000000001
40
0.968750000000001
40
1
40
1
40
1
40
1
41
1
10
91.9677011539716
20
11.311
30
0
41
1
10
92.0657785657033
20
11.311
30
0
41
1
10
92.163855977435
20
11.2667255013036
30
0
41
1
10
92.3600108008984
20
11.0748727664312
30
0
41
1
10
92.4580882126301
20
10.9271816255047
30
0
41
1
10
92.6542430360935
20
10.5199190364957
30
0
41
1
10
92.7523204478252
20
10.260265923837
30
0
41
1
10
92.9484752712887
20
9.62996741787845
30
0
41
1
10
93.0465526830203
20
9.25930967316762
30
0
41
1
10
93.2427075064838
20
8.41890225573445
30
0
41
1
10
93.3407849182154
20
7.94922677285791
30
0
41
1
10
93.5369397416789
20
6.93280441478396
30
0
41
1
10
93.6350171534106
20
6.38619996007034
30
0
41
1
10
93.8311719768739
20
5.24470476461107
30
0
41
1
10
93.9292493886056
20
4.6499776343266
30
0
41
1
10
94.125404212069
20
3.44299747191025
30
0
41
1
10
94.2234816238007
20
2.83087862397738
30
0
41
1
10
94.419636447264
20
1.61719855899693
30
0
41
1
10
94.5177138589959
20
1.01571220853469
30
0
41
1
10
94.6403106236604
20
0.28431628202074
30
0
41
1
10
94.6648299765934
20
0.139096222437445
30
0
41
1
10
94.7138686824593
20
-0.149268339590833
30
0
41
1
10
94.7383880353922
20
-0.29459176035499
30
0
41
1
10
94.8119460941909
20
-0.733570923624427
30
0
41
1
10
94.8609848000567
20
-1.03024929310746
30
0
41
1
10
95.0081009176544
20
-1.92854235128456
30
0
41
1
10
95.1061783293861
20
-2.53859532348275
30
0
41
1
10
95.3023331528495
20
-3.75584442897448
30
0
41
1
10
95.4004105645812
20
-4.3629337661404
30
0
41
1
10
95.5965653880446
20
-5.54439876385041
30
0
41
1
10
95.6946427997763
20
-6.11861990397168
30
0
41
1
10
95.8907976232397
20
-7.20397026411254
30
0
41
1
10
95.9888750349714
20
-7.71493980201882
30
0
41
1
10
96.1850298584347
20
-8.64778637246948
30
0
41
1
10
96.2831072701665
20
-9.069550980385
30
0
41
1
10
96.4792620936299
20
-9.80664503910211
30
0
41
1
10
96.5773395053616
20
-10.1219441530157
30
0
41
1
10
96.7734943288251
20
-10.6396693294618
30
0
41
1
10
96.8715717405566
20
-10.8421467912198
30
0
41
1
10
97.0677265640201
20
-11.1383432966705
30
0
41
1
10
97.1658039757518
20
-11.2321649690227
30
0
41
1
10
97.3129200933494
20
-11.3004931622036
30
0
41
1
10
97.3619587992152
20
-11.3112548272966
30
0
41
1
10
97.4600362109469
20
-11.310736023094
30
0
41
1
10
97.5090749168128
20
-11.2994313918346
30
0
41
1
10
97.6561910344103
20
-11.2294076830612
30
0
41
1
10
97.754268446142
20
-11.1343667173472
30
0
41
1
10
97.9504232696055
20
-10.8356291932784
30
0
41
1
10
98.0485006813371
20
-10.6318303725161
30
0
41
1
10
98.2446555048004
20
-10.1114721061736
30
0
41
1
10
98.3427329165321
20
-9.79486208706803
30
0
41
1
10
98.5388877399956
20
-9.05528659411362
30
0
41
1
10
98.6369651517273
20
-8.63235249360463
30
0
41
1
10
98.8331199751907
20
-7.69742759384238
30
0
41
1
10
98.9311973869225
20
-7.18555003682798
30
0
41
1
10
99.1273522103859
20
-6.09872457742847
30
0
41
1
10
99.2254296221175
20
-5.52393660800533
30
0
41
1
10
99.421584445581
20
-4.34170203314849
30
0
41
1
10
99.5196618573127
20
-3.73440959084729
30
0
41
1
10
99.715816680776
20
-2.51708612917179
30
0
41
1
10
99.8138940925077
20
-1.90716119357435
30
0
41
1
10
99.9610102101053
20
-1.00925629164087
30
0
41
1
10
100.010048915971
20
-0.712739767760098
30
0
41
1
10
100.08360697477
20
-0.274044300101537
30
0
41
1
10
100.108126327703
20
-0.128974817934846
30
0
41
1
10
100.157165033569
20
0.159496841886693
30
0
41
1
10
100.181684386502
20
0.304870724147292
30
0
41
1
10
100.304281151166
20
1.03673787188714
30
0
41
1
10
100.402358562898
20
1.63849135826575
30
0
41
1
10
100.598513386361
20
2.85240678471928
30
0
41
1
10
100.696590798093
20
3.46449309964103
30
0
41
1
10
100.892745621557
20
4.67105507983217
30
0
41
1
10
100.990823033288
20
5.26539598533179
30
0
41
1
10
101.186977856752
20
6.40575900861632
30
0
41
1
10
101.285055268483
20
6.95161744970855
30
0
41
1
10
101.383132680215
20
7.45892864720838
30
0
0
SPLINE
5
DA
100
AcDbEntity
8
1
62
256
6
ByLayer
370
13
48
1
60
0
100
AcDbSpline
70
4
71
3
72
22
73
18
40
0
40
0
40
0
40
0
40
0.125
40
0.125
40
0.25
40
0.25
40
0.375
40
0.375
40
0.5
40
0.5
40
0.625
40
0.625
40
0.75
40
0.75
40
0.875
40
0.875
40
1
40
1
40
1
40
1
41
1
10
90.5000000000001
20
6.8200124285211
30
0
41
1
10
90.5661540012032
20
7.18179957670526
30
0
41
1
10
90.6323080024065
20
7.52859508593582
30
0
41
1
10
90.7646160048129
20
8.18417298351702
30
0
41
1
10
90.8307700060161
20
8.49293744330012
30
0
41
1
10
90.9630780084225
20
9.06600538491236
30
0
41
1
10
91.0292320096256
20
9.33029788712409
30
0
41
1
10
91.161540012032
20
9.8100434839113
30
0
41
1
10
91.2276940132354
20
10.0254938570656
30
0
41
1
10
91.3600020156418
20
10.4054552521718
30
0
41
1
10
91.426156016845
20
10.5699714682847
30
0
41
1
10
91.5584640192513
20
10.8482031384309
30
0
41
1
10
91.6246180204546
20
10.9619299684095
30
0
41
1
10
91.756926022861
20
11.1407036169092
30
0
41
1
10
91.8230800240641
20
11.2057654792271
30
0
41
1
10
91.9553880264706
20
11.2909056139646
30
0
41
1
10
92.0215420276738
20
11.311
30
0
41
1
10
92.087696028877
20
11.311
30
0
0
SPLINE
5
DB
100
AcDbEntity
8
1
62
256
6
ByLayer
370
13
48
1
60
0
100
AcDbSpline
70
4
71
3
72
117
73
113
40
0
40
0
40
0
40
0
40
0.031250000000001
40
0.031250000000001
40
0.0625000000000019
40
0.0625000000000019
40
0.0781250000000024
40
0.0781250000000024
40
0.0937500000000028
40
0.0937500000000028
40
0.109375000000003
40
0.109375000000003
40
0.125000000000004
40
0.125000000000004
40
0.140625000000004
40
0.140625000000004
40
0.156250000000005
40
0.156250000000005
40
0.171875000000005
40
0.171875000000005
40
0.187500000000005
40
0.187500000000005
40
0.203125000000006
40
0.203125000000006
40
0.218750000000006
40
0.218750000000006
40
0.250000000000007
40
0.250000000000007
40
0.265625000000008
40
0.265625000000008
40
0.273437500000008
40
0.273437500000008
40
0.277343750000008
40
0.277343750000008
40
0.281250000000009
40
0.281250000000009
40
0.312500000000009
40
0.312500000000009
40
0.34375000000001
40
0.34375000000001
40
0.35937500000001
40
0.35937500000001
40
0.37500000000001
40
0.37500000000001
40
0.390625000000011
40
0.390625000000011
40
0.406250000000011
40
0.406250000000011
40
0.421875000000011
40
0.421875000000011
40
0.437500000000011
40
0.437500000000011
40
0.453125000000011
40
0.453125000000011
40
0.468750000000012
40
0.468750000000012
40
0.500000000000012
40
0.500000000000012
40
0.531250000000012
40
0.531250000000012
40
0.546875000000012
40
0.546875000000012
40
0.550781250000012
40
0.550781250000012
40
0.554687500000012
40
0.562500000000012
40
0.562500000000012
40
0.593750000000011
40
0.593750000000011
40
0.625000000000009
40
0.625000000000009
40
0.640625000000009
40
0.640625000000009
40
0.656250000000008
40
0.656250000000008
40
0.671875000000008
40
0.671875000000008
40
0.687500000000007
40
0.687500000000007
40
0.703125000000007
40
0.703125000000007
40
0.718750000000006
40
0.718750000000006
40
0.734375000000006
40
0.734375000000006
40
0.750000000000005
40
0.750000000000005
40
0.781250000000004
40
0.781250000000004
40
0.812500000000003
40
0.812500000000003
40
0.820312500000003
40
0.820312500000003
40
0.828125000000002
40
0.828125000000002
40
0.843750000000002
40
0.843750000000002
40
0.875000000000002
40
0.875000000000002
40
0.906250000000002
40
0.906250000000002
40
0.921875000000001
40
0.921875000000001
40
0.937500000000001
40
0.937500000000001
40
0.953125000000001
40
0.953125000000001
40
0.96875
40
0.96875
40
0.984375
40
0.984375
40
1
40
1
40
1
40
1
41
1
10
91.4784676173666
20
11.311
30
0
41
1
10
91.5816412117713
20
11.311
30
0
41
1
10
91.684814806176
20
11.2619798475823
30
0
41
1
10
91.8911619949853
20
11.0488769269926
30
0
41
1
10
91.9943355893899
20
10.8846497659684
30
0
41
1
10
92.149095980997
20
10.5450681311664
30
0
41
1
10
92.2006827781993
20
10.4164114602911
30
0
41
1
10
92.3038563726039
20
10.1281197234976
30
0
41
1
10
92.3554431698063
20
9.96848294149825
30
0
41
1
10
92.458616764211
20
9.61899248369281
30
0
41
1
10
92.5102035614133
20
9.42913882194384
30
0
41
1
10
92.6133771558179
20
9.02082332484918
30
0
41
1
10
92.6649639530203
20
8.80236338471579
30
0
41
1
10
92.768137547425
20
8.33926301905836
30
0
41
1
10
92.8197243446274
20
8.09462629814249
30
0
41
1
10
92.9228979390321
20
7.58233452221089
30
0
41
1
10
92.9744847362343
20
7.31468468209692
30
0
41
1
10
93.0776583306391
20
6.76012811171233
30
0
41
1
10
93.1292451278414
20
6.47322762009784
30
0
41
1
10
93.2324187222461
20
5.88435662912556
30
0
41
1
10
93.2840055194484
20
5.58239279482092
30
0
41
1
10
93.387179113853
20
4.96781148668313
30
0
41
1
10
93.4387659110554
20
4.65520049137987
30
0
41
1
10
93.5419395054601
20
4.02377119687608
30
0
41
1
10
93.5935263026624
20
3.70495865260682
30
0
41
1
10
93.7482866942694
20
2.74564628073256
30
0
41
1
10
93.851460288674
20
2.10250193700213
30
0
41
1
10
94.0062206802811
20
1.15493358665179
30
0
41
1
10
94.0578074774834
20
0.841882857855751
30
0
41
1
10
94.1351876732867
20
0.37878762787426
30
0
41
1
10
94.160981071888
20
0.22549853085647
30
0
41
1
10
94.1996711697898
20
-0.0025753380458013
30
0
41
1
10
94.2125678690903
20
-0.078304327713056
30
0
41
1
10
94.2383612676914
20
-0.230788364075579
30
0
41
1
10
94.2512579669921
20
-0.307333117513792
30
0
41
1
10
94.3673282606974
20
-0.998777566320882
30
0
41
1
10
94.470501855102
20
-1.63181399176472
30
0
41
1
10
94.6768490439115
20
-2.90908517980881
30
0
41
1
10
94.780022638316
20
-3.55322138777041
30
0
41
1
10
94.9347830299231
20
-4.50320066044628
30
0
41
1
10
94.9863698271254
20
-4.81711019517334
30
0
41
1
10
95.0895434215301
20
-5.43500839751127
30
0
41
1
10
95.1411302187324
20
-5.73899067005462
30
0
41
1
10
95.2443038131371
20
-6.33260038554485
30
0
41
1
10
95.2958906103394
20
-6.62222115303388
30
0
41
1
10
95.3990642047441
20
-7.1828697544897
30
0
41
1
10
95.4506510019464
20
-7.4538912390687
30
0
41
1
10
95.5538245963511
20
-7.97349681946835
30
0
41
1
10
95.6054113935535
20
-8.22207549845146
30
0
41
1
10
95.7085849879581
20
-8.6935234779377
30
0
41
1
10
95.7601717851604
20
-8.91638880448721
30
0
41
1
10
95.8633453795651
20
-9.33385327491729
30
0
41
1
10
95.9149321767675
20
-9.52845022086825
30
0
41
1
10
96.0181057711721
20
-9.88762999172232
30
0
41
1
10
96.0696925683744
20
-10.0522125039974
30
0
41
1
10
96.2244529599815
20
-10.4995870435779
30
0
41
1
10
96.3276265543861
20
-10.7356294555522
30
0
41
1
10
96.5339737431955
20
-11.0857693287418
30
0
41
1
10
96.6371473376001
20
-11.199991248218
30
0
41
1
10
96.7919077292071
20
-11.2897067080198
30
0
41
1
10
96.8434945264096
20
-11.3060783397958
30
0
41
1
10
96.9079780229124
20
-11.3110348481479
30
0
41
1
10
96.9208747222129
20
-11.3112546024506
30
0
41
1
10
96.9466681208141
20
-11.3101669870401
30
0
41
1
10
96.9853582187159
20
-11.3062282935691
30
0
41
1
10
97.0240483166176
20
-11.2951978378291
30
0
41
1
10
97.1530153096235
20
-11.2419574900615
30
0
41
1
10
97.2561889040281
20
-11.146364161815
30
0
41
1
10
97.4625360928375
20
-10.8350008183496
30
0
41
1
10
97.5657096872421
20
-10.6190988266387
30
0
41
1
10
97.7204700788492
20
-10.2016253303874
30
0
41
1
10
97.7720568760515
20
-10.0469540618586
30
0
41
1
10
97.8752304704562
20
-9.7072146257874
30
0
41
1
10
97.9268172676585
20
-9.52214617775519
30
0
41
1
10
98.0299908620632
20
-9.12308492393552
30
0
41
1
10
98.0815776592655
20
-8.90909370878862
30
0
41
1
10
98.1847512536702
20
-8.45448683624758
30
0
41
1
10
98.2363380508725
20
-8.21387460625422
30
0
41
1
10
98.3395116452772
20
-7.70907736290246
30
0
41
1
10
98.3910984424795
20
-7.44489734969488
30
0
41
1
10
98.4942720368842
20
-6.89664028231499
30
0
41
1
10
98.5458588340865
20
-6.61256934033048
30
0
41
1
10
98.6490324284912
20
-6.02866159443113
30
0
41
1
10
98.7006192256936
20
-5.72883142903231
30
0
41
1
10
98.8037928200983
20
-5.11779822488325
30
0
41
1
10
98.8553796173006
20
-4.80660173401671
30
0
41
1
10
99.0101400089076
20
-3.86263486214216
30
0
41
1
10
99.1133136033123
20
-3.21964968802138
30
0
41
1
10
99.3196607921216
20
-1.93976362518879
30
0
41
1
10
99.4228343865262
20
-1.3029752934109
30
0
41
1
10
99.551801379532
20
-0.527775499850378
30
0
41
1
10
99.5775947781332
20
-0.373755000747337
30
0
41
1
10
99.6291815753356
20
-0.0680917871570443
30
0
41
1
10
99.6549749739368
20
0.0829634773488408
30
0
41
1
10
99.7323551697403
20
0.54169002333532
30
0
41
1
10
99.7839419669426
20
0.852259332569901
30
0
41
1
10
99.9387023585496
20
1.79393750798908
30
0
41
1
10
100.041875952954
20
2.43524334666591
30
0
41
1
10
100.248223141764
20
3.71597103038775
30
0
41
1
10
100.351396736168
20
4.35525845982272
30
0
41
1
10
100.506157127775
20
5.28673411698634
30
0
41
1
10
100.557743924978
20
5.59261913011713
30
0
41
1
10
100.660917519382
20
6.19074126689367
30
0
41
1
10
100.712504316585
20
6.48297172063539
30
0
41
1
10
100.815677910989
20
7.04950144780622
30
0
41
1
10
100.867264708192
20
7.32379427709176
30
0
41
1
10
100.970438302596
20
7.85052802185319
30
0
41
1
10
101.022025099799
20
8.10296333199935
30
0
41
1
10
101.125198694203
20
8.58260696900922
30
0
41
1
10
101.176785491406
20
8.80981106133572
30
0
41
1
10
101.27995908581
20
9.23631241119776
30
0
41
1
10
101.331545883013
20
9.43560717093186
30
0
41
1
10
101.383132680215
20
9.62000730804621
30
0
0
SPLINE
5
DC
100
AcDbEntity
8
1
62
256
6
ByLayer
370
13
48
1
60
0
100
AcDbSpline
70
4
71
3
72
14
73
10
40
0
40
0
40
0
40
0
40
0.25
40
0.25
40
0.5
40
0.5
40
0.75
40
0.75
40
1
40
1
40
1
40
1
41
1
10
90.5
20
9.16465591013844
30
0
41
1
10
90.5915385410226
20
9.53186158253641
30
0
41
1
10
90.6830770820454
20
9.85410888727921
30
0
41
1
10
90.8661541640907
20
10.4010641085523
30
0
41
1
10
90.9576927051133
20
10.6257923705946
30
0
41
1
10
91.1407697871587
20
10.978302551009
30
0
41
1
10
91.2323083281814
20
11.1061471278166
30
0
41
1
10
91.4153854102267
20
11.2724555598972
30
0
41
1
10
91.5069239512493
20
11.311
30
0
41
1
10
91.598462492272
20
11.311
30
0
0
SPLINE
5
DD
100
AcDbEntity
8
1
62
256
6
ByLayer
370
13
48
1
60
0
100
AcDbSpline
70
4
71
3
72
138
73
134
40
0
40
0
40
0
40
0
40
0.0312500000000011
40
0.0312500000000011
40
0.0468750000000017
40
0.0468750000000017
40
0.0625000000000022
40
0.0625000000000022
40
0.0781250000000028
40
0.0781250000000028
40
0.0937500000000033
40
0.0937500000000033
40
0.109375000000004
40
0.109375000000004
40
0.125000000000004
40
0.125000000000004
40
0.140625000000005
40
0.140625000000005
40
0.156250000000005
40
0.156250000000005
40
0.171875000000006
40
0.171875000000006
40
0.187500000000006
40
0.187500000000006
40
0.203125000000007
40
0.203125000000007
40
0.218750000000007
40
0.218750000000007
40
0.234375000000008
40
0.234375000000008
40
0.250000000000008
40
0.250000000000008
40
0.257812500000009
40
0.257812500000009
40
0.265625000000009
40
0.265625000000009
40
0.281250000000009
40
0.281250000000009
40
0.296875000000009
40
0.296875000000009
40
0.312500000000009
40
0.312500000000009
40
0.328125000000009
40
0.328125000000009
40
0.343750000000009
40
0.343750000000009
40
0.359375000000009
40
0.359375000000009
40
0.375000000000009
40
0.375000000000009
40
0.390625000000009
40
0.390625000000009
40
0.406250000000009
40
0.406250000000009
40
0.421875000000009
40
0.421875000000009
40
0.43750000000001
40
0.43750000000001
40
0.45312500000001
40
0.45312500000001
40
0.46875000000001
40
0.46875000000001
40
0.48437500000001
40
0.48437500000001
40
0.50000000000001
40
0.50000000000001
40
0.51562500000001
40
0.51562500000001
40
0.52343750000001
40
0.52343750000001
40
0.53125000000001
40
0.53125000000001
40
0.54687500000001
40
0.54687500000001
40
0.562500000000009
40
0.562500000000009
40
0.578125000000009
40
0.578125000000009
40
0.593750000000009
40
0.593750000000009
40
0.609375000000008
40
0.609375000000008
40
0.625000000000008
40
0.625000000000008
40
0.640625000000008
40
0.640625000000008
40
0.656250000000007
40
0.656250000000007
40
0.671875000000007
40
0.671875000000007
40
0.687500000000006
40
0.687500000000006
40
0.703125000000006
40
0.703125000000006
40
0.718750000000006
40
0.718750000000006
40
0.734375000000005
40
0.734375000000005
40
0.750000000000005
40
0.750000000000005
40
0.765625000000005
40
0.765625000000005
40
0.781250000000004
40
0.781250000000004
40
0.789062500000004
40
0.789062500000004
40
0.796875000000004
40
0.796875000000004
40
0.812500000000004
40
0.812500000000004
40
0.828125000000004
40
0.828125000000004
40
0.843750000000003
40
0.843750000000003
40
0.859375000000003
40
0.859375000000003
40
0.875000000000003
40
0.875000000000003
40
0.890625000000002
40
0.890625000000002
40
0.906250000000002
40
0.906250000000002
40
0.921875000000002
40
0.921875000000002
40
0.937500000000001
40
0.937500000000001
40
0.953125000000001
40
0.953125000000001
40
0.968750000000001
40
0.968750000000001
40
0.984375
40
0.984375
40
1
40
1
40
1
40
1
41
1
10
90.9892340807616
20
11.311
30
0
41
1
10
91.0975038578392
20
11.311
30
0
41
1
10
91.205773634917
20
11.2569880379463
30
0
41
1
10
91.3681783005334
20
11.0803349463128
30
0
41
1
10
91.4223131890722
20
11.0055636103777
30
0
41
1
10
91.5305829661497
20
10.8226743522414
30
0
41
1
10
91.5847178546886
20
10.7145513844931
30
0
41
1
10
91.6929876317662
20
10.464168405656
30
0
41
1
10
91.7471225203052
20
10.3219047416447
30
0
41
1
10
91.8553922973828
20
10.0033766959491
30
0
41
1
10
91.9095271859216
20
9.82711064442881
30
0
41
1
10
92.0177969629993
20
9.4417229577368
30
0
41
1
10
92.071931851538
20
9.23260204254461
30
0
41
1
10
92.1802016286156
20
8.78367417215628
30
0
41
1
10
92.2343365171545
20
8.54387044948868
30
0
41
1
10
92.3426062942322
20
8.03671179537878
30
0
41
1
10
92.3967411827709
20
7.76936239601841
30
0
41
1
10
92.5050109598487
20
7.21107987461878
30
0
41
1
10
92.5591458483873
20
6.92015405234034
30
0
41
1
10
92.667415625465
20
6.31932399245358
30
0
41
1
10
92.7215505140038
20
6.00942805754462
30
0
41
1
10
92.8298202910814
20
5.37566371117143
30
0
41
1
10
92.8839551796204
20
5.05180374215516
30
0
41
1
10
92.992224956698
20
4.3952633255079
30
0
41
1
10
93.0463598452368
20
4.06259064606758
30
0
41
1
10
93.1546296223144
20
3.39347663819277
30
0
41
1
10
93.2087645108533
20
3.05704176279517
30
0
41
1
10
93.3170342879309
20
2.38513941035109
30
0
41
1
10
93.3711691764697
20
2.04967667745001
30
0
41
1
10
93.4794389535473
20
1.38396962845283
30
0
41
1
10
93.5335738420861
20
1.05372821669394
30
0
41
1
10
93.6147761748944
20
0.565018152601851
30
0
41
1
10
93.6418436191638
20
0.403218526490946
30
0
41
1
10
93.6959785077026
20
0.0822212012602677
30
0
41
1
10
93.7230459519721
20
-0.0762650267355411
30
0
41
1
10
93.8042482847802
20
-0.557663964935784
30
0
41
1
10
93.858383173319
20
-0.883830381809275
30
0
41
1
10
93.9666529503968
20
-1.54331385003891
30
0
41
1
10
94.0207878389355
20
-1.87662890317429
30
0
41
1
10
94.1290576160131
20
-2.54645512697016
30
0
41
1
10
94.1831925045519
20
-2.88296248408426
30
0
41
1
10
94.2914622816297
20
-3.55466857380299
30
0
41
1
10
94.3455971701684
20
-3.8898616860223
30
0
41
1
10
94.4538669472461
20
-4.55402608984369
30
0
41
1
10
94.5080018357849
20
-4.88299021337582
30
0
41
1
10
94.6162716128625
20
-5.52956809263097
30
0
41
1
10
94.6704065014013
20
-5.84717365394954
30
0
41
1
10
94.778676278479
20
-6.46592323255547
30
0
41
1
10
94.8328111670179
20
-6.76705876825781
30
0
41
1
10
94.9410809440955
20
-7.34802769205237
30
0
41
1
10
94.9952158326343
20
-7.62785316742534
30
0
41
1
10
95.1034856097119
20
-8.16188124936747
30
0
41
1
10
95.1576204982507
20
-8.41607734520284
30
0
41
1
10
95.2658902753283
20
-8.89526534072078
30
0
41
1
10
95.3200251638672
20
-9.12025279590725
30
0
41
1
10
95.4282949409448
20
-9.53834827334012
30
0
41
1
10
95.4824298294836
20
-9.73145429844246
30
0
41
1
10
95.5906996065612
20
-10.0841155732031
30
0
41
1
10
95.6448344951001
20
-10.2436713178545
30
0
41
1
10
95.7531042721778
20
-10.5285869660606
30
0
41
1
10
95.8072391607167
20
-10.6539495836471
30
0
41
1
10
95.9155089377942
20
-10.870810713479
30
0
41
1
10
95.969643826333
20
-10.9623136469313
30
0
41
1
10
96.0779136034107
20
-11.1126547416161
30
0
41
1
10
96.1320484919494
20
-11.1714983937831
30
0
41
1
10
96.2403182690272
20
-11.2584366215577
30
0
41
1
10
96.294453157566
20
-11.2865371106853
30
0
41
1
10
96.3756554903741
20
-11.3074699134435
30
0
41
1
10
96.4027229346435
20
-11.3109148668127
30
0
41
1
10
96.4568578231824
20
-11.3110820148981
30
0
41
1
10
96.4839252674518
20
-11.3078084886992
30
0
41
1
10
96.5651276002601
20
-11.2874025427095
30
0
41
1
10
96.6192624887989
20
-11.2596699127073
30
0
41
1
10
96.7275322658765
20
-11.1734950233244
30
0
41
1
10
96.7816671544153
20
-11.1150468489654
30
0
41
1
10
96.8899369314929
20
-10.9655165017914
30
0
41
1
10
96.9440718200318
20
-10.8744288289012
30
0
41
1
10
97.0523415971094
20
-10.6584081224431
30
0
41
1
10
97.1064764856483
20
-10.5334706503129
30
0
41
1
10
97.2147462627258
20
-10.2494036407562
30
0
41
1
10
97.2688811512646
20
-10.0902713645349
30
0
41
1
10
97.3771509283422
20
-9.73844279138015
30
0
41
1
10
97.4312858168811
20
-9.54574596957764
30
0
41
1
10
97.5395555939587
20
-9.12844188199392
30
0
41
1
10
97.5936904824976
20
-8.9038365819261
30
0
41
1
10
97.7019602595752
20
-8.42537383438417
30
0
41
1
10
97.7560951481141
20
-8.17152080263355
30
0
41
1
10
97.8643649251917
20
-7.63812939680636
30
0
41
1
10
97.9184998137305
20
-7.35859751135257
30
0
41
1
10
98.0267695908082
20
-6.77815835949269
30
0
41
1
10
98.0809044793469
20
-6.47725899327892
30
0
41
1
10
98.1891742564246
20
-5.85891935340951
30
0
41
1
10
98.2433091449635
20
-5.54148755962754
30
0
41
1
10
98.3515789220411
20
-4.89519300297252
30
0
41
1
10
98.4057138105798
20
-4.56633844298344
30
0
41
1
10
98.5139835876575
20
-3.90233021598618
30
0
41
1
10
98.5681184761963
20
-3.5671837335382
30
0
41
1
10
98.676388253274
20
-2.89551190548585
30
0
41
1
10
98.7305231418128
20
-2.55899220166222
30
0
41
1
10
98.8387929188904
20
-1.88908834820379
30
0
41
1
10
98.8929278074293
20
-1.55570803512026
30
0
41
1
10
99.0011975845068
20
-0.896048602913055
30
0
41
1
10
99.0553324730457
20
-0.569771503765566
30
0
41
1
10
99.1365348058539
20
-0.0881786396635675
30
0
41
1
10
99.1636022501233
20
0.0703101181637749
30
0
41
1
10
99.2177371386622
20
0.391177928435127
30
0
41
1
10
99.2448045829316
20
0.552917437773601
30
0
41
1
10
99.3260069157399
20
1.04146262972952
30
0
41
1
10
99.3801418042787
20
1.37161478939734
30
0
41
1
10
99.4884115813563
20
2.03719256748243
30
0
41
1
10
99.5425464698951
20
2.37261530424635
30
0
41
1
10
99.6508162469728
20
3.04449377070253
30
0
41
1
10
99.7049511355116
20
3.38094477885633
30
0
41
1
10
99.8132209125893
20
4.0501522661921
30
0
41
1
10
99.867355801128
20
4.38290231172746
30
0
41
1
10
99.9756255782057
20
5.03966137415509
30
0
41
1
10
100.029760466745
20
5.36366263573913
30
0
41
1
10
100.138030243822
20
5.99777327569916
30
0
41
1
10
100.192165132361
20
6.30787421526227
30
0
41
1
10
100.300434909439
20
6.90917462544797
30
0
41
1
10
100.354569797977
20
7.20036578628375
30
0
41
1
10
100.462839575055
20
7.7592328435754
30
0
41
1
10
100.516974463594
20
8.0269014227423
30
0
41
1
10
100.625244240672
20
8.53474307044488
30
0
41
1
10
100.67937912921
20
8.77491058104712
30
0
41
1
10
100.787648906288
20
9.22459935452613
30
0
41
1
10
100.841783794827
20
9.43411735425408
30
0
41
1
10
100.950053571904
20
9.8203200105267
30
0
41
1
10
101.004188460443
20
9.99700391592475
30
0
41
1
10
101.112458237521
20
10.3163756667061
30
0
41
1
10
101.16659312606
20
10.4590651541979
30
0
41
1
10
101.274862903137
20
10.7102955960206
30
0
41
1
10
101.328997791676
20
10.8188401819738
30
0
41
1
10
101.383132680215
20
10.9106989304712
30
0
0
SPLINE
5
DE
100
AcDbEntity
8
1
62
256
6
ByLayer
370
13
48
1
60
0
100
AcDbSpline
70
4
71
3
72
10
73
6
40
0
40
0
40
0
40
0
40
0.5
40
0.5
40
1
40
1
40
1
40
1
41
1
10
90.5
20
10.6796072031533
30
0
41
1
10
90.6015381592778
20
10.8985568183347
30
0
41
1
10
90.7030763185556
20
11.057374795063
30
0
41
1
10
90.9061526371113
20
11.263529568815
30
0
41
1
10
91.0076907963892
20
11.311
30
0
41
1
10
91.1092289556669
20
11.311
30
0
0
SPLINE
5
DF
100
AcDbEntity
8
1
62
256
6
ByLayer
370
13
48
1
60
0
100
AcDbSpline
70
4
71
3
72
134
73
130
40
0
40
0
40
0
40
0
40
0.015625
40
0.015625
40
0.0312500000000001
40
0.0312500000000001
40
0.0468750000000001
40
0.0468750000000001
40
0.0625000000000001
40
0.0625000000000001
40
0.0781250000000001
40
0.0781250000000001
40
0.0937500000000002
40
0.0937500000000002
40
0.109375
40
0.109375
40
0.125
40
0.125
40
0.140625
40
0.140625
40
0.15625
40
0.15625
40
0.171875
40
0.171875
40
0.1875
40
0.1875
40
0.203125
40
0.203125
40
0.21875
40
0.21875
40
0.234375000000001
40
0.234375000000001
40
0.250000000000001
40
0.250000000000001
40
0.265625000000001
40
0.265625000000001
40
0.281250000000001
40
0.281250000000001
40
0.296875000000001
40
0.296875000000001
40
0.312500000000001
40
0.312500000000001
40
0.328125000000001
40
0.328125000000001
40
0.343750000000001
40
0.343750000000001
40
0.359375000000001
40
0.359375000000001
40
0.375000000000001
40
0.375000000000001
40
0.390625000000001
40
0.390625000000001
40
0.406250000000001
40
0.406250000000001
40
0.421875000000001
40
0.421875000000001
40
0.437500000000001
40
0.437500000000001
40
0.453125000000001
40
0.453125000000001
40
0.468750000000001
40
0.468750000000001
40
0.484375000000001
40
0.484375000000001
40
0.500000000000001
40
0.500000000000001
40
0.515625000000001
40
0.515625000000001
40
0.531250000000001
40
0.531250000000001
40
0.546875000000001
40
0.546875000000001
40
0.562500000000001
40
0.562500000000001
40
0.578125000000001
40
0.578125000000001
40
0.593750000000001
40
0.593750000000001
40
0.609375000000001
40
0.609375000000001
40
0.625000000000001
40
0.625000000000001
40
0.640625000000001
40
0.640625000000001
40
0.656250000000001
40
0.656250000000001
40
0.671875000000001
40
0.671875000000001
40
0.687500000000002
40
0.687500000000002
40
0.703125000000001
40
0.703125000000001
40
0.718750000000001
40
0.718750000000001
40
0.734375000000001
40
0.734375000000001
40
0.750000000000001
40
0.750000000000001
40
0.765625000000001
40
0.765625000000001
40
0.781250000000001
40
0.781250000000001
40
0.796875000000001
40
0.796875000000001
40
0.812500000000001
40
0.812500000000001
40
0.828125000000001
40
0.828125000000001
40
0.843750000000001
40
0.843750000000001
40
0.859375000000001
40
0.859375000000001
40
0.875000000000001
40
0.875000000000001
40
0.890625000000001
40
0.890625000000001
40
0.90625
40
0.90625
40
0.921875
40
0.921875
40
0.9375
40
0.9375
40
0.953125
40
0.953125
40
0.96875
40
0.96875
40
0.984375
40
0.984375
40
1
40
1
40
1
40
1
41
1
10
90.5000005441566
20
11.311
30
0
41
1
10
90.556683524032
20
11.311
30
0
41
1
10
90.6133665039073
20
11.2962546041224
30
0
41
1
10
90.7267324636579
20
11.2342373478207
30
0
41
1
10
90.7834154435332
20
11.1869580507925
30
0
41
1
10
90.8967814032837
20
11.0573760324018
30
0
41
1
10
90.9534643831591
20
10.9750660899126
30
0
41
1
10
91.0668303429097
20
10.7737012328086
30
0
41
1
10
91.123513322785
20
10.6546401696211
30
0
41
1
10
91.2368792825356
20
10.3790309423787
30
0
41
1
10
91.2935622624109
20
10.2224786022956
30
0
41
1
10
91.4069282221615
20
9.87228246285414
30
0
41
1
10
91.4636112020368
20
9.67863723725742
30
0
41
1
10
91.5769771617875
20
9.25587559801639
30
0
41
1
10
91.6336601416627
20
9.02676098588242
30
0
41
1
10
91.7470261014133
20
8.53590133883833
30
0
41
1
10
91.8037090812886
20
8.27416137455319
30
0
41
1
10
91.9170750410392
20
7.72200889203188
30
0
41
1
10
91.9737580209146
20
7.43160426786247
30
0
41
1
10
92.0871239806652
20
6.82700076375571
30
0
41
1
10
92.1438069605405
20
6.51281172992412
30
0
41
1
10
92.2571729202911
20
5.8661682811198
30
0
41
1
10
92.3138559001664
20
5.53372452918285
30
0
41
1
10
92.427221859917
20
4.85643887245143
30
0
41
1
10
92.4839048397923
20
4.51160726654032
30
0
41
1
10
92.5972707995429
20
3.81543250628297
30
0
41
1
10
92.6539537794183
20
3.4640982713413
30
0
41
1
10
92.7673197391688
20
2.76053223684446
30
0
41
1
10
92.8240027190441
20
2.40830727886268
30
0
41
1
10
92.9373686787947
20
1.70806236331919
30
0
41
1
10
92.99405165867
20
1.36004685010218
30
0
41
1
10
93.1074176184206
20
0.672641790681098
30
0
41
1
10
93.164100598296
20
0.333254326323271
30
0
41
1
10
93.2774665580465
20
-0.333252726706348
30
0
41
1
10
93.3341495379218
20
-0.672640154610889
30
0
41
1
10
93.4475154976725
20
-1.3600451866281
30
0
41
1
10
93.5041984775477
20
-1.7080606893766
30
0
41
1
10
93.6175644372984
20
-2.40830559162967
30
0
41
1
10
93.6742474171737
20
-2.76053054679346
30
0
41
1
10
93.7876133769242
20
-3.46409658427527
30
0
41
1
10
93.8442963567996
20
-3.81543082502355
30
0
41
1
10
93.9576623165502
20
-4.51160560616077
30
0
41
1
10
94.0143452964255
20
-4.85643722714801
30
0
41
1
10
94.127711256176
20
-5.53372292351494
30
0
41
1
10
94.1843942360514
20
-5.86616670001274
30
0
41
1
10
94.2977601958021
20
-6.51281020714242
30
0
41
1
10
94.3544431756773
20
-6.82699927473817
30
0
41
1
10
94.4678091354279
20
-7.43160285478297
30
0
41
1
10
94.5244921153032
20
-7.722007521124
30
0
41
1
10
94.6378580750537
20
-8.27416009512891
30
0
41
1
10
94.6945410549291
20
-8.53590010872213
30
0
41
1
10
94.8079070146797
20
-9.02675985987202
30
0
41
1
10
94.864589994555
20
-9.25587452679872
30
0
41
1
10
94.9779559543057
20
-9.67863627921895
30
0
41
1
10
95.034638934181
20
-9.87228156319679
30
0
41
1
10
95.1480048939316
20
-10.2224778210112
30
0
41
1
10
95.204687873807
20
-10.3790302210812
30
0
41
1
10
95.3180538335575
20
-10.654639567994
30
0
41
1
10
95.3747368134328
20
-10.7737006908611
30
0
41
1
10
95.4881027731833
20
-10.9750656653085
30
0
41
1
10
95.5447857530586
20
-11.057375665459
30
0
41
1
10
95.6581517128094
20
-11.1869577957414
30
0
41
1
10
95.7148346926846
20
-11.2342371469987
30
0
41
1
10
95.8282006524352
20
-11.2962545072613
30
0
41
1
10
95.8848836323104
20
-11.3109999528707
30
0
41
1
10
95.9982495920611
20
-11.3110000471291
30
0
41
1
10
96.0549325719364
20
-11.2962547009834
30
0
41
1
10
96.168298531687
20
-11.2342375486424
30
0
41
1
10
96.2249815115624
20
-11.1869583058435
30
0
41
1
10
96.338347471313
20
-11.0573763993443
30
0
41
1
10
96.3950304511883
20
-10.9750665145165
30
0
41
1
10
96.5083964109389
20
-10.7737017747558
30
0
41
1
10
96.5650793908142
20
-10.654640771248
30
0
41
1
10
96.6784453505647
20
-10.3790316636759
30
0
41
1
10
96.73512833044
20
-10.2224793835797
30
0
41
1
10
96.8484942901907
20
-9.87228336251124
30
0
41
1
10
96.905177270066
20
-9.67863819529566
30
0
41
1
10
97.0185432298166
20
-9.2558766692338
30
0
41
1
10
97.0752262096919
20
-9.02676211189257
30
0
41
1
10
97.1885921694425
20
-8.5359025689543
30
0
41
1
10
97.2452751493178
20
-8.27416265397724
30
0
41
1
10
97.3586411090683
20
-7.72201026293959
30
0
41
1
10
97.4153240889437
20
-7.43160568094177
30
0
41
1
10
97.5286900486943
20
-6.82700225277307
30
0
41
1
10
97.5853730285696
20
-6.51281325270566
30
0
41
1
10
97.6987389883202
20
-5.86616986222671
30
0
41
1
10
97.7554219681955
20
-5.53372613485064
30
0
41
1
10
97.8687879279461
20
-4.85644051775475
30
0
41
1
10
97.9254709078215
20
-4.51160892691979
30
0
41
1
10
98.0388368675721
20
-3.81543418754237
30
0
41
1
10
98.0955198474473
20
-3.4640999584073
30
0
41
1
10
98.2088858071979
20
-2.76053392689545
30
0
41
1
10
98.2655687870732
20
-2.40830896609572
30
0
41
1
10
98.3789347468238
20
-1.70806403726183
30
0
41
1
10
98.4356177266992
20
-1.36004851357629
30
0
41
1
10
98.5489836864497
20
-0.672643426751364
30
0
41
1
10
98.6056666663251
20
-0.333255945461787
30
0
41
1
10
98.7190326260756
20
0.333251146610877
30
0
41
1
10
98.7757156059511
20
0.672638518540793
30
0
41
1
10
98.8890815657016
20
1.36004352315408
30
0
41
1
10
98.9457645455769
20
1.70805901543403
30
0
41
1
10
99.0591305053275
20
2.40830390439669
30
0
41
1
10
99.1158134852028
20
2.76052885674247
30
0
41
1
10
99.2291794449534
20
3.46409489720918
30
0
41
1
10
99.2858624248288
20
3.81542914376411
30
0
41
1
10
99.3992283845793
20
4.51160394578119
30
0
41
1
10
99.4559113644546
20
4.85643558184452
30
0
41
1
10
99.5692773242052
20
5.53372131784695
30
0
41
1
10
99.6259603040805
20
5.86616511890557
30
0
41
1
10
99.7393262638311
20
6.51280868436058
30
0
41
1
10
99.7960092437065
20
6.82699778572044
30
0
41
1
10
99.909375203457
20
7.43160144170324
30
0
41
1
10
99.9660581833325
20
7.72200615021589
30
0
41
1
10
100.079424143083
20
8.2741588157044
30
0
41
1
10
100.136107122958
20
8.53589887860568
30
0
41
1
10
100.249473082709
20
9.02675873386136
30
0
41
1
10
100.306156062584
20
9.25587345558077
30
0
41
1
10
100.419522022335
20
9.67863532118017
30
0
41
1
10
100.47620500221
20
9.87228066353916
30
0
41
1
10
100.589570961961
20
10.2224770397265
30
0
41
1
10
100.646253941836
20
10.3790294997834
30
0
41
1
10
100.759619901587
20
10.6546389663666
30
0
41
1
10
100.816302881462
20
10.7737001489133
30
0
41
1
10
100.929668841212
20
10.9750652407042
30
0
41
1
10
100.986351821088
20
11.057375298516
30
0
41
1
10
101.099717780838
20
11.1869575406899
30
0
41
1
10
101.156400760714
20
11.2342369461765
30
0
41
1
10
101.269766720464
20
11.2962544103999
30
0
41
1
10
101.32644970034
20
11.3109999057412
30
0
41
1
10
101.383132680215
20
11.3109999999996
30
0
0
SPLINE
5
E0
100
AcDbEntity
8
1
62
256
6
ByLayer
370
13
48
1
60
0
100
AcDbSpline
70
4
71
3
72
10
73
6
40
0
40
0
40
0
40
0
40
0.5
40
0.5
40
1
40
1
40
1
40
1
41
1
10
100.773904812861
20
11.311
30
0
41
1
10
100.875442790753
20
11.311
30
0
41
1
10
100.976980768646
20
11.2635297392893
30
0
41
1
10
101.18005672443
20
11.0573757293987
30
0
41
1
10
101.281594702323
20
10.8985583472156
30
0
41
1
10
101.383132680215
20
10.6796095499118
30
0
0
SPLINE
5
E1
100
AcDbEntity
8
1
62
256
6
ByLayer
370
13
48
1
60
0
100
AcDbSpline
70
4
71
3
72
8
73
4
40
0
40
0
40
0
40
0
40
1
40
1
40
1
40
1
41
1
10
90.5
20
11.2884419100577
30
0
41
1
10
90.5399984730207
20
11.3036622499012
30
0
41
1
10
90.5799969460413
20
11.311
30
0
41
1
10
90.619995419062
20
11.311
30
0
0
SPLINE
5
E2
100
AcDbEntity
8
1
62
256
6
ByLayer
370
13
48
1
60
0
100
AcDbSpline
70
4
71
3
72
138
73
134
40
0
40
0
40
0
40
0
40
0.0156249999999999
40
0.0156249999999999
40
0.0312499999999997
40
0.0312499999999997
40
0.0468749999999996
40
0.0468749999999996
40
0.0624999999999994
40
0.0624999999999994
40
0.0781249999999993
40
0.0781249999999993
40
0.0937499999999991
40
0.0937499999999991
40
0.109374999999999
40
0.109374999999999
40
0.124999999999999
40
0.124999999999999
40
0.140624999999999
40
0.140624999999999
40
0.156249999999998
40
0.156249999999998
40
0.171874999999998
40
0.171874999999998
40
0.187499999999998
40
0.187499999999998
40
0.203124999999998
40
0.203124999999998
40
0.210937499999998
40
0.210937499999998
40
0.218749999999998
40
0.218749999999998
40
0.234374999999998
40
0.234374999999998
40
0.249999999999998
40
0.249999999999998
40
0.265624999999998
40
0.265624999999998
40
0.281249999999998
40
0.281249999999998
40
0.296874999999999
40
0.296874999999999
40
0.312499999999999
40
0.312499999999999
40
0.328124999999999
40
0.328124999999999
40
0.343749999999999
40
0.343749999999999
40
0.359374999999999
40
0.359374999999999
40
0.375
40
0.375
40
0.390625
40
0.390625
40
0.40625
40
0.40625
40
0.421875
40
0.421875
40
0.4375
40
0.4375
40
0.453125
40
0.453125
40
0.46875
40
0.46875
40
0.4765625
40
0.4765625
40
0.484375
40
0.484375
40
0.5
40
0.5
40
0.515625
40
0.515625
40
0.53125
40
0.53125
40
0.546875
40
0.546875
40
0.5625
40
0.5625
40
0.578125
40
0.578125
40
0.59375
40
0.59375
40
0.609375
40
0.609375
40
0.625
40
0.625
40
0.640625
40
0.640625
40
0.65625
40
0.65625
40
0.671875
40
0.671875
40
0.6875
40
0.6875
40
0.703125
40
0.703125
40
0.71875
40
0.71875
40
0.734375
40
0.734375
40
0.7421875
40
0.7421875
40
0.75
40
0.75
40
0.765625
40
0.765625
40
0.78125
40
0.78125
40
0.796875
40
0.796875
40
0.8125
40
0.8125
40
0.828125
40
0.828125
40
0.84375
40
0.84375
40
0.859375
40
0.859375
40
0.875
40
0.875
40
0.890625
40
0.890625
40
0.90625
40
0.90625
40
0.921875
40
0.921875
40
0.9375
40
0.9375
40
0.953125
40
0.953125
40
0.96875
40
0.96875
40
1
40
1
40
1
40
1
41
1
10
90.5
20
10.9107007771726
30
0
41
1
10
90.5541348942071
20
10.8188422422121
30
0
41
1
10
90.6082697884142
20
10.710297870317
30
0
41
1
10
90.7165395768284
20
10.4590678516496
30
0
41
1
10
90.7706744710356
20
10.3163785732415
30
0
41
1
10
90.8789442594498
20
9.99700722930632
30
0
41
1
10
90.933079153657
20
9.82032352165533
30
0
41
1
10
91.0413489420712
20
9.43412124329308
30
0
41
1
10
91.0954838362783
20
9.22460342371284
30
0
41
1
10
91.2037536246926
20
8.77491498725277
30
0
41
1
10
91.2578885188996
20
8.53474763350806
30
0
41
1
10
91.3661583073138
20
8.02690627156997
30
0
41
1
10
91.420293201521
20
7.75923782130019
30
0
41
1
10
91.5285629899353
20
7.20037099055904
30
0
41
1
10
91.5826978841424
20
6.90917992737192
30
0
41
1
10
91.6909676725566
20
6.30787967955152
30
0
41
1
10
91.7451025667638
20
5.99777880470594
30
0
41
1
10
91.853372355178
20
5.36366826122219
30
0
41
1
10
91.907507249385
20
5.03966703140298
30
0
41
1
10
92.0157770377993
20
4.38290800107137
30
0
41
1
10
92.0699119320063
20
4.05015795587718
30
0
41
1
10
92.1781817204206
20
3.38095044061856
30
0
41
1
10
92.2323166146277
20
3.04449940421296
30
0
41
1
10
92.340586403042
20
2.37262085643926
30
0
41
1
10
92.3947212972491
20
2.03719806662221
30
0
41
1
10
92.5029910856633
20
1.37162016199304
30
0
41
1
10
92.5571259798705
20
1.04146792884572
30
0
41
1
10
92.6383283211812
20
0.552922614788713
30
0
41
1
10
92.6653957682847
20
0.39118306277021
30
0
41
1
10
92.7195306624918
20
0.0703151637463009
30
0
41
1
10
92.7465981095954
20
-0.088173607402922
30
0
41
1
10
92.827800450906
20
-0.569766440454373
30
0
41
1
10
92.8819353451133
20
-0.896043527839737
30
0
41
1
10
92.9902051335275
20
-1.55570295676932
30
0
41
1
10
93.0443400277345
20
-1.88908327834528
30
0
41
1
10
93.1526098161487
20
-2.55898717084554
30
0
41
1
10
93.2067447103559
20
-2.89550690522589
30
0
41
1
10
93.3150144987702
20
-3.5671788174516
30
0
41
1
10
93.3691493929773
20
-3.90232535352175
30
0
41
1
10
93.4774191813915
20
-4.56633371082268
30
0
41
1
10
93.5315540755986
20
-4.89518834749586
30
0
41
1
10
93.6398238640128
20
-5.54148307944797
30
0
41
1
10
93.6939587582199
20
-5.85891497184184
30
0
41
1
10
93.8022285466342
20
-6.47725482857837
30
0
41
1
10
93.8563634408414
20
-6.77815431304225
30
0
41
1
10
93.9646332292556
20
-7.35859371769715
30
0
41
1
10
94.0187681234626
20
-7.63812573768718
30
0
41
1
10
94.1270379118769
20
-8.17151742467908
30
0
41
1
10
94.1811728060841
20
-8.42537060304696
30
0
41
1
10
94.2894425944983
20
-8.90383365116247
30
0
41
1
10
94.3435774887055
20
-9.12843910517435
30
0
41
1
10
94.4518472771196
20
-9.54574350303972
30
0
41
1
10
94.5059821713268
20
-9.7384404811682
30
0
41
1
10
94.614251959741
20
-10.0902693645949
30
0
41
1
10
94.6683868539482
20
-10.2494017947527
30
0
41
1
10
94.7766566423623
20
-10.5334691055233
30
0
41
1
10
94.8307915365694
20
-10.6584067249244
30
0
41
1
10
94.9390613249836
20
-10.8744277157242
30
0
41
1
10
94.9931962191908
20
-10.9655155256821
30
0
41
1
10
95.101466007605
20
-11.1150461341319
30
0
41
1
10
95.1556009018121
20
-11.1734944326992
30
0
41
1
10
95.2638706902264
20
-11.2596695559048
30
0
41
1
10
95.3180055844334
20
-11.2874022955241
30
0
41
1
10
95.3992079257441
20
-11.3078083943534
30
0
41
1
10
95.4262753728477
20
-11.3110819695142
30
0
41
1
10
95.4804102670548
20
-11.3109149157135
30
0
41
1
10
95.5074777141583
20
-11.3074700100191
30
0
41
1
10
95.588680055469
20
-11.2865373515109
30
0
41
1
10
95.6428149496762
20
-11.258436960197
30
0
41
1
10
95.7510847380904
20
-11.1714989290342
30
0
41
1
10
95.8052196322975
20
-11.1126553756618
30
0
41
1
10
95.9134894207118
20
-10.9623144768678
30
0
41
1
10
95.9676243149189
20
-10.8708116405063
30
0
41
1
10
96.0758941033331
20
-10.6539507002365
30
0
41
1
10
96.1300289975403
20
-10.5285881751145
30
0
41
1
10
96.2382987859545
20
-10.2436727042397
30
0
41
1
10
96.2924336801616
20
-10.0841170444475
30
0
41
1
10
96.4007034685758
20
-9.731455928988
30
0
41
1
10
96.454838362783
20
-9.53834997832024
30
0
41
1
10
96.5631081511971
20
-9.12025463690355
30
0
41
1
10
96.6172430454043
20
-8.89526724329261
30
0
41
1
10
96.7255128338186
20
-8.41607935622625
30
0
41
1
10
96.7796477280256
20
-8.16188330726297
30
0
41
1
10
96.8879175164399
20
-7.62785530326255
30
0
41
1
10
96.9420524106471
20
-7.34802985895794
30
0
41
1
10
97.0503221990613
20
-6.76706098121804
30
0
41
1
10
97.1044570932684
20
-6.46592546050363
30
0
41
1
10
97.2127268816826
20
-5.84717589632979
30
0
41
1
10
97.2668617758897
20
-5.52957033445949
30
0
41
1
10
97.3751315643039
20
-4.88299243982556
30
0
41
1
10
97.4292664585111
20
-4.55402830147219
30
0
41
1
10
97.5375362469254
20
-3.88986385557868
30
0
41
1
10
97.5916711411325
20
-3.55467071611511
30
0
41
1
10
97.6999409295466
20
-2.88296456170926
30
0
41
1
10
97.7540758237539
20
-2.54645716715882
30
0
41
1
10
97.862345612168
20
-1.8766308607064
30
0
41
1
10
97.9164805063751
20
-1.54331576235649
30
0
41
1
10
98.0247502947893
20
-0.883832198326388
30
0
41
1
10
98.0788851889965
20
-0.557665730871321
30
0
41
1
10
98.1600875303071
20
-0.0762667144639977
30
0
41
1
10
98.1871549774106
20
0.0822195297065207
30
0
41
1
10
98.2412898716178
20
0.403216870590853
30
0
41
1
10
98.2683573187214
20
0.565016505446863
30
0
41
1
10
98.3495596600321
20
1.0537265985561
30
0
41
1
10
98.4036945542392
20
1.38396803338034
30
0
41
1
10
98.5119643426535
20
2.04967513583603
30
0
41
1
10
98.5660992368605
20
2.38513789913156
30
0
41
1
10
98.6743690252748
20
3.05704031919558
30
0
41
1
10
98.7285039194819
20
3.39347523181883
30
0
41
1
10
98.8367737078961
20
4.0625893200673
30
0
41
1
10
98.8909086021033
20
4.39526204265442
30
0
41
1
10
98.9991783905175
20
5.05180255021253
30
0
41
1
10
99.0533132847246
20
5.37566256699009
30
0
41
1
10
99.1615830731388
20
6.00942701186165
30
0
41
1
10
99.215717967346
20
6.3193229975036
30
0
41
1
10
99.3239877557602
20
6.92015315995803
30
0
41
1
10
99.3781226499673
20
7.21107903406619
30
0
41
1
10
99.4863924383816
20
7.76936165825754
30
0
41
1
10
99.5405273325887
20
8.03671110857476
30
0
41
1
10
99.648797121003
20
8.54386986181996
30
0
41
1
10
99.70293201521
20
8.78367363266136
30
0
41
1
10
99.8112018036243
20
9.23260159491639
30
0
41
1
10
99.8653366978314
20
9.44172255379797
30
0
41
1
10
99.9736064862456
20
9.82711032201786
30
0
41
1
10
100.027741380453
20
10.0033764113746
30
0
41
1
10
100.136011168867
20
10.3219045259377
30
0
41
1
10
100.190146063074
20
10.4641682209797
30
0
41
1
10
100.298415851488
20
10.7145512545674
30
0
41
1
10
100.352550745695
20
10.8226742460369
30
0
41
1
10
100.46082053411
20
11.0055635442344
30
0
41
1
10
100.514955428317
20
11.0803348965118
30
0
41
1
10
100.677360110938
20
11.2569880265674
30
0
41
1
10
100.785629899352
20
11.311
30
0
41
1
10
100.893899687767
20
11.311
30
0
0
SPLINE
5
E3
100
AcDbEntity
8
1
62
256
6
ByLayer
370
13
48
1
60
0
100
AcDbSpline
70
4
71
3
72
14
73
10
40
0
40
0
40
0
40
0
40
0.25
40
0.25
40
0.5
40
0.5
40
0.75
40
0.75
40
1
40
1
40
1
40
1
41
1
10
100.284671276256
20
11.311
30
0
41
1
10
100.376209726586
20
11.311
30
0
41
1
10
100.467748176916
20
11.2724556365808
30
0
41
1
10
100.650825077576
20
11.1061475454483
30
0
41
1
10
100.742363527906
20
10.9783032332967
30
0
41
1
10
100.925440428565
20
10.6257937838247
30
0
41
1
10
101.016978878895
20
10.4010659883157
30
0
41
1
10
101.200055779555
20
9.85411188462797
30
0
41
1
10
101.291594229885
20
9.53186523088141
30
0
41
1
10
101.383132680215
20
9.16466027589087
30
0
0
SPLINE
5
E4
100
AcDbEntity
8
1
62
256
6
ByLayer
370
13
48
1
60
0
100
AcDbSpline
70
4
71
3
72
118
73
114
40
0
40
0
40
0
40
0
40
0.0156250000000006
40
0.0156250000000006
40
0.0312500000000013
40
0.0312500000000013
40
0.0468750000000019
40
0.0468750000000019
40
0.0625000000000026
40
0.0625000000000026
40
0.0781250000000032
40
0.0781250000000032
40
0.0937500000000039
40
0.0937500000000039
40
0.125000000000005
40
0.125000000000005
40
0.156250000000006
40
0.156250000000006
40
0.171875000000007
40
0.171875000000007
40
0.179687500000007
40
0.179687500000007
40
0.187500000000007
40
0.187500000000007
40
0.218750000000007
40
0.218750000000007
40
0.250000000000007
40
0.250000000000007
40
0.265625000000007
40
0.265625000000007
40
0.281250000000008
40
0.281250000000008
40
0.296875000000008
40
0.296875000000008
40
0.312500000000008
40
0.312500000000008
40
0.328125000000008
40
0.328125000000008
40
0.343750000000008
40
0.343750000000008
40
0.359375000000008
40
0.359375000000008
40
0.375000000000009
40
0.375000000000009
40
0.406250000000009
40
0.406250000000009
40
0.437500000000009
40
0.437500000000009
40
0.445312500000009
40
0.445312500000009
40
0.449218750000009
40
0.449218750000009
40
0.453125000000009
40
0.453125000000009
40
0.468750000000009
40
0.468750000000009
40
0.500000000000009
40
0.500000000000009
40
0.531250000000008
40
0.531250000000008
40
0.546875000000008
40
0.546875000000008
40
0.562500000000008
40
0.562500000000008
40
0.578125000000008
40
0.578125000000008
40
0.593750000000008
40
0.593750000000008
40
0.609375000000007
40
0.609375000000007
40
0.625000000000007
40
0.625000000000007
40
0.640625000000007
40
0.640625000000007
40
0.656250000000007
40
0.656250000000007
40
0.687500000000007
40
0.687500000000007
40
0.718750000000007
40
0.718750000000007
40
0.722656250000007
40
0.722656250000007
40
0.726562500000007
40
0.726562500000007
40
0.734375000000007
40
0.734375000000007
40
0.750000000000007
40
0.750000000000007
40
0.781250000000006
40
0.781250000000006
40
0.796875000000006
40
0.796875000000006
40
0.812500000000005
40
0.812500000000005
40
0.828125000000005
40
0.828125000000005
40
0.843750000000004
40
0.843750000000004
40
0.859375000000004
40
0.859375000000004
40
0.875000000000003
40
0.875000000000003
40
0.890625000000003
40
0.890625000000003
40
0.906250000000002
40
0.906250000000002
40
0.921875000000002
40
0.921875000000002
40
0.937500000000002
40
0.937500000000002
40
0.968750000000001
40
0.968750000000001
40
1
40
1
40
1
40
1
41
1
10
90.5
20
9.62001119828582
30
0
41
1
10
90.5515868028706
20
9.43561124990791
30
0
41
1
10
90.6031736057413
20
9.23631667048457
30
0
41
1
10
90.7063472114825
20
8.8098156592427
30
0
41
1
10
90.7579340143532
20
8.58261172521409
30
0
41
1
10
90.8611076200943
20
8.10296837849205
30
0
41
1
10
90.9126944229652
20
7.85053320032733
30
0
41
1
10
91.0158680287063
20
7.32379969008761
30
0
41
1
10
91.067454831577
20
7.04950696333793
30
0
41
1
10
91.1706284373183
20
6.48297741003626
30
0
41
1
10
91.2222152401889
20
6.19074702762782
30
0
41
1
10
91.3253888459301
20
5.59262500199401
30
0
41
1
10
91.3769756488008
20
5.28674002867683
30
0
41
1
10
91.5317360574127
20
4.3552644452495
30
0
41
1
10
91.634909663154
20
3.71597700358919
30
0
41
1
10
91.8412568746364
20
2.43524919435535
30
0
41
1
10
91.9444304803778
20
1.79394324271942
30
0
41
1
10
92.0991908889896
20
0.852264846317439
30
0
41
1
10
92.1507776918602
20
0.541695454876873
30
0
41
1
10
92.2281578961662
20
0.0829687758701141
30
0
41
1
10
92.2539512976016
20
-0.0680865079815476
30
0
41
1
10
92.3055381004723
20
-0.373749700357649
30
0
41
1
10
92.3313315019075
20
-0.527770190970671
30
0
41
1
10
92.4602985090842
20
-1.30296995337503
30
0
41
1
10
92.5634721148253
20
-1.93975829671518
30
0
41
1
10
92.7698193263079
20
-3.21964446906389
30
0
41
1
10
92.8729929320491
20
-3.86262974131392
30
0
41
1
10
93.027753340661
20
-4.80659682644642
30
0
41
1
10
93.0793401435317
20
-5.11779339929674
30
0
41
1
10
93.1825137492729
20
-5.72882678793019
30
0
41
1
10
93.2341005521436
20
-6.02865705582798
30
0
41
1
10
93.3372741578849
20
-6.61256502497457
30
0
41
1
10
93.3888609607555
20
-6.89663608770263
30
0
41
1
10
93.4920345664967
20
-7.44489341165479
30
0
41
1
10
93.5436213693673
20
-7.70907356068369
30
0
41
1
10
93.6467949751086
20
-8.21387108688759
30
0
41
1
10
93.6983817779793
20
-8.45448346390245
30
0
41
1
10
93.8015553837205
20
-8.90909063736487
30
0
41
1
10
93.8531421865911
20
-9.12308200640157
30
0
41
1
10
93.9563157923324
20
-9.52214357038963
30
0
41
1
10
94.0079025952031
20
-9.70721217469082
30
0
41
1
10
94.1110762009443
20
-10.0469519213411
30
0
41
1
10
94.1626630038151
20
-10.201623344172
30
0
41
1
10
94.3174234124269
20
-10.6190972944855
30
0
41
1
10
94.4205970181682
20
-10.8349995767209
30
0
41
1
10
94.6269442296507
20
-11.146363453344
30
0
41
1
10
94.730117835392
20
-11.241957024208
30
0
41
1
10
94.8590848425685
20
-11.2951976383923
30
0
41
1
10
94.8848782440039
20
-11.3025513270229
30
0
41
1
10
94.9235683461568
20
-11.3088539129803
30
0
41
1
10
94.9364650468745
20
-11.3101669378715
30
0
41
1
10
94.9622584483098
20
-11.3112546010672
30
0
41
1
10
94.9751551490274
20
-11.3110348701724
30
0
41
1
10
95.0396386526156
20
-11.3060784804337
30
0
41
1
10
95.0912254554864
20
-11.2897069454557
30
0
41
1
10
95.2459858640983
20
-11.1999917788432
30
0
41
1
10
95.3491594698395
20
-11.0857700586776
30
0
41
1
10
95.5555066813221
20
-10.7356305723177
30
0
41
1
10
95.6586802870634
20
-10.4995883477044
30
0
41
1
10
95.8134406956752
20
-10.0522140639985
30
0
41
1
10
95.8650274985458
20
-9.88763163282013
30
0
41
1
10
95.9682011042871
20
-9.52845201333434
30
0
41
1
10
96.0197879071579
20
-9.33385513764918
30
0
41
1
10
96.1229615128991
20
-8.91639079487808
30
0
41
1
10
96.1745483157697
20
-8.69352552571723
30
0
41
1
10
96.2777219215109
20
-8.2220776466466
30
0
41
1
10
96.3293087243816
20
-7.9734990106877
30
0
41
1
10
96.4324823301228
20
-7.45389350115479
30
0
41
1
10
96.4840691329935
20
-7.18287204441782
30
0
41
1
10
96.5872427387346
20
-6.62222348336238
30
0
41
1
10
96.6388295416054
20
-6.33260272843344
30
0
41
1
10
96.7420031473467
20
-5.73899302337699
30
0
41
1
10
96.7935899502173
20
-5.43501074871097
30
0
41
1
10
96.8967635559586
20
-4.81711252865583
30
0
41
1
10
96.9483503588292
20
-4.50320297833915
30
0
41
1
10
97.1031107674412
20
-3.55322364123842
30
0
41
1
10
97.2062843731824
20
-2.90908736672171
30
0
41
1
10
97.412631584665
20
-1.6318160152048
30
0
41
1
10
97.5158051904062
20
-0.998779492993265
30
0
41
1
10
97.6318754968652
20
-0.307334928008203
30
0
41
1
10
97.6447721975827
20
-0.230790161558275
30
0
41
1
10
97.6705655990181
20
-0.0783060989967908
30
0
41
1
10
97.6834622997357
20
-0.0025770958713167
30
0
41
1
10
97.7221524018887
20
0.22549678380355
30
0
41
1
10
97.747945803324
20
0.378785888872869
30
0
41
1
10
97.8253260076299
20
0.841881145652565
30
0
41
1
10
97.8769128105005
20
1.1549318958487
30
0
41
1
10
98.0316732191125
20
2.10250032095755
30
0
41
1
10
98.1348468248537
20
2.74564472878509
30
0
41
1
10
98.2896072334656
20
3.70495721500947
30
0
41
1
10
98.3411940363363
20
4.02376980038483
30
0
41
1
10
98.4443676420775
20
4.6551991820227
30
0
41
1
10
98.4959544449482
20
4.9678102233521
30
0
41
1
10
98.5991280506894
20
5.58239162709017
30
0
41
1
10
98.6507148535601
20
5.88435551096597
30
0
41
1
10
98.7538884593014
20
6.47322660300981
30
0
41
1
10
98.805475262172
20
6.76012714612094
30
0
41
1
10
98.9086488679133
20
7.31468381966698
30
0
41
1
10
98.960235670784
20
7.58233371144149
30
0
41
1
10
99.0634092765251
20
8.09462558908086
30
0
41
1
10
99.1149960793957
20
8.33926236003978
30
0
41
1
10
99.218169685137
20
8.80236282249575
30
0
41
1
10
99.2697564880076
20
9.02082280938109
30
0
41
1
10
99.3729300937489
20
9.42913839524186
30
0
41
1
10
99.4245168966195
20
9.61899209900253
30
0
41
1
10
99.5276905023609
20
9.96848263495946
30
0
41
1
10
99.5792773052315
20
10.1281194530974
30
0
41
1
10
99.6824509109727
20
10.4164112555339
30
0
41
1
10
99.7340377138434
20
10.5450679559137
30
0
41
1
10
99.8887981224553
20
10.8846496687196
30
0
41
1
10
99.9919717281965
20
11.0488768675763
30
0
41
1
10
100.198318939679
20
11.261979836752
30
0
41
1
10
100.30149254542
20
11.311
30
0
41
1
10
100.404666151162
20
11.311
30
0
0
SPLINE
5
E5
100
AcDbEntity
8
1
62
256
6
ByLayer
370
13
48
1
60
0
100
AcDbSpline
70
4
71
3
72
22
73
18
40
0
40
0
40
0
40
0
40
0.125
40
0.125
40
0.25
40
0.25
40
0.375
40
0.375
40
0.5
40
0.5
40
0.625
40
0.625
40
0.75
40
0.75
40
0.875
40
0.875
40
1
40
1
40
1
40
1
41
1
10
99.7954377396512
20
11.311
30
0
41
1
10
99.861591695508
20
11.311
30
0
41
1
10
99.9277456513649
20
11.2909056415642
30
0
41
1
10
100.060053563079
20
11.2057656267097
30
0
41
1
10
100.126207518935
20
11.1407038567302
30
0
41
1
10
100.258515430649
20
10.9619304638489
30
0
41
1
10
100.324669386506
20
10.8482037971985
30
0
41
1
10
100.456977298219
20
10.5699725259841
30
0
41
1
10
100.523131254076
20
10.4054565455033
30
0
41
1
10
100.65543916579
20
10.025495689145
30
0
41
1
10
100.721593121647
20
9.81004561910433
30
0
41
1
10
100.85390103336
20
9.33030068467608
30
0
41
1
10
100.920054989217
20
9.06600854167169
30
0
41
1
10
101.052362900931
20
8.4929413572836
30
0
41
1
10
101.118516856788
20
8.18417729544737
30
0
41
1
10
101.250824768501
20
7.52860021092033
30
0
41
1
10
101.316978724358
20
7.18180511670812
30
0
41
1
10
101.383132680215
20
6.82001838035546
30
0
0
SPLINE
5
E6
100
AcDbEntity
8
1
62
256
6
ByLayer
370
13
48
1
60
0
100
AcDbSpline
70
4
71
3
72
80
73
76
40
0
40
0
40
0
40
0
40
0.0312500000000002
40
0.0312500000000002
40
0.0625000000000003
40
0.0625000000000003
40
0.0937500000000005
40
0.0937500000000005
40
0.125000000000001
40
0.125000000000001
40
0.132812500000001
40
0.132812500000001
40
0.140625
40
0.140625
40
0.15625
40
0.15625
40
0.1875
40
0.1875
40
0.21875
40
0.21875
40
0.249999999999999
40
0.249999999999999
40
0.281249999999999
40
0.281249999999999
40
0.312499999999999
40
0.312499999999999
40
0.343749999999998
40
0.343749999999998
40
0.374999999999998
40
0.374999999999998
40
0.406249999999998
40
0.406249999999998
40
0.421874999999998
40
0.421874999999998
40
0.437499999999998
40
0.437499999999998
40
0.468749999999998
40
0.468749999999998
40
0.499999999999998
40
0.499999999999998
40
0.531249999999998
40
0.531249999999998
40
0.562499999999998
40
0.562499999999998
40
0.593749999999998
40
0.593749999999998
40
0.624999999999999
40
0.624999999999999
40
0.656249999999999
40
0.656249999999999
40
0.687499999999999
40
0.687499999999999
40
0.703124999999999
40
0.703124999999999
40
0.710937499999999
40
0.710937499999999
40
0.718749999999999
40
0.718749999999999
40
0.749999999999999
40
0.749999999999999
40
0.781249999999999
40
0.781249999999999
40
0.812499999999999
40
0.812499999999999
40
0.843749999999999
40
0.843749999999999
40
0.874999999999999
40
0.874999999999999
40
0.90625
40
0.90625
40
0.9375
40
0.9375
40
0.96875
40
0.96875
40
1
40
1
40
1
40
1
41
1
10
90.5
20
7.4589342765714
30
0
41
1
10
90.5980774230683
20
6.95162330407277
30
0
41
1
10
90.6961548461366
20
6.40576503067769
30
0
41
1
10
90.8923096922732
20
5.26540222183735
30
0
41
1
10
90.9903871153416
20
4.67106136319788
30
0
41
1
10
91.1865419614782
20
3.46449936806974
30
0
41
1
10
91.2846193845464
20
2.85241299159748
30
0
41
1
10
91.4807742306831
20
1.63849735873731
30
0
41
1
10
91.5788516537513
20
1.03674372776248
30
0
41
1
10
91.7014484325867
20
0.30487636617957
30
0
41
1
10
91.7259677883538
20
0.159502439497174
30
0
41
1
10
91.775006499888
20
-0.128969312013965
30
0
41
1
10
91.799525855655
20
-0.274038730963042
30
0
41
1
10
91.8730839229562
20
-0.712734172384756
30
0
41
1
10
91.9221226344903
20
-1.00925068707386
30
0
41
1
10
92.0692387690928
20
-1.90715558917367
30
0
41
1
10
92.1673161921611
20
-2.51708056218581
30
0
41
1
10
92.3634710382977
20
-3.73440418258656
30
0
41
1
10
92.461548461366
20
-4.34169674631943
30
0
41
1
10
92.6577033075025
20
-5.52393164590154
30
0
41
1
10
92.7557807305708
20
-6.09871981861824
30
0
41
1
10
92.9519355767075
20
-7.18554575069047
30
0
41
1
10
93.0500129997757
20
-7.69742357693394
30
0
41
1
10
93.2461678459124
20
-8.63234905393415
30
0
41
1
10
93.3442452689807
20
-9.05528346220268
30
0
41
1
10
93.5404001151173
20
-9.79485957688522
30
0
41
1
10
93.6384775381856
20
-10.1114699097171
30
0
41
1
10
93.8346323843222
20
-10.6318287796906
30
0
41
1
10
93.9327098073904
20
-10.8356278902157
30
0
41
1
10
94.128864653527
20
-11.1343659485754
30
0
41
1
10
94.2269420765954
20
-11.2294071588036
30
0
41
1
10
94.3740582111978
20
-11.299431192609
30
0
41
1
10
94.4230969227319
20
-11.3107359253416
30
0
41
1
10
94.5211743458003
20
-11.3112549183914
30
0
41
1
10
94.5702130573344
20
-11.3004933492572
30
0
41
1
10
94.7173291919369
20
-11.2321654478907
30
0
41
1
10
94.8154066150051
20
-11.1383439746242
30
0
41
1
10
95.0115614611418
20
-10.8421478593434
30
0
41
1
10
95.10963888421
20
-10.63967058855
30
0
41
1
10
95.3057937303466
20
-10.1219457663878
30
0
41
1
10
95.4038711534149
20
-9.80664681563474
30
0
41
1
10
95.6000259995516
20
-9.06955303782502
30
0
41
1
10
95.6981034226199
20
-8.64778854752106
30
0
41
1
10
95.8942582687563
20
-7.71494215566287
30
0
41
1
10
95.9923356918247
20
-7.20397267868921
30
0
41
1
10
96.1884905379613
20
-6.11862238209088
30
0
41
1
10
96.2865679610296
20
-5.54440124463866
30
0
41
1
10
96.4827228071662
20
-4.36293620163696
30
0
41
1
10
96.5808002302345
20
-3.75584681664086
30
0
41
1
10
96.7769550763711
20
-2.53859757890632
30
0
41
1
10
96.8750324994394
20
-1.92854452243395
30
0
41
1
10
97.0221486340417
20
-1.03025132249655
30
0
41
1
10
97.0711873455761
20
-0.733572903204276
30
0
41
1
10
97.1447454128772
20
-0.294593662792693
30
0
41
1
10
97.1692647686443
20
-0.1492702159087
30
0
41
1
10
97.2183034801784
20
0.139094398952523
30
0
41
1
10
97.2428228359454
20
0.28431444739752
30
0
41
1
10
97.3654196147809
20
1.01571041662399
30
0
41
1
10
97.4634970378492
20
1.61719681479877
30
0
41
1
10
97.6596518839858
20
2.83087700128382
30
0
41
1
10
97.7577293070541
20
3.44299592302514
30
0
41
1
10
97.9538841531906
20
4.64997625344444
30
0
41
1
10
98.0519615762589
20
5.24470347788596
30
0
41
1
10
98.2481164223956
20
6.38619887181355
30
0
41
1
10
98.3461938454639
20
6.93280343074852
30
0
41
1
10
98.5423486916005
20
7.94922599459599
30
0
41
1
10
98.6404261146687
20
8.41890157891532
30
0
41
1
10
98.8365809608054
20
9.25930918429202
30
0
41
1
10
98.9346583838736
20
9.62996701542221
30
0
41
1
10
99.1308132300102
20
10.2602656705972
30
0
41
1
10
99.2288906530785
20
10.5199188460311
30
0
41
1
10
99.4250454992151
20
10.9271815335205
30
0
41
1
10
99.5231229222834
20
11.0748727101871
30
0
41
1
10
99.7192777684199
20
11.2667254910199
30
0
41
1
10
99.8173551914883
20
11.311
30
0
41
1
10
99.9154326145566
20
11.311
30
0
0
SPLINE
5
E7
100
AcDbEntity
8
1
62
256
6
ByLayer
370
13
48
1
60
0
100
AcDbSpline
70
4
71
3
72
22
73
18
40
0
40
0
40
0
40
0
40
0.125
40
0.125
40
0.25
40
0.25
40
0.375
40
0.375
40
0.5
40
0.5
40
0.625
40
0.625
40
0.75
40
0.75
40
0.875
40
0.875
40
1
40
1
40
1
40
1
41
1
10
99.3062042030463
20
11.311
30
0
41
1
10
99.392742889595
20
11.311
30
0
41
1
10
99.4792815761436
20
11.2765657323474
30
0
41
1
10
99.652358949241
20
11.1284942735975
30
0
41
1
10
99.7388976357898
20
11.0147959391019
30
0
41
1
10
99.9119750088872
20
10.701381872476
30
0
41
1
10
99.9985136954358
20
10.5016163068081
30
0
41
1
10
100.171591068533
20
10.0146155926002
30
0
41
1
10
100.258129755082
20
9.72735871382343
30
0
41
1
10
100.431207128179
20
9.07042263333267
30
0
41
1
10
100.517745814728
20
8.70076132200848
30
0
41
1
10
100.690823187826
20
7.89065625581003
30
0
41
1
10
100.777361874374
20
7.45026968266745
30
0
41
1
10
100.950439247471
20
6.5158056068388
30
0
41
1
10
101.03697793402
20
6.02181090855331
30
0
41
1
10
101.210055307118
20
5.00050954637595
30
0
41
1
10
101.296593993666
20
4.47328967542617
30
0
41
1
10
101.383132680215
20
3.93993143960421
30
0
0
SPLINE
5
E8
100
AcDbEntity
8
1
62
256
6
ByLayer
370
13
48
1
60
0
100
AcDbSpline
70
4
71
3
72
82
73
78
40
0
40
0
40
0
40
0
40
0.03125
40
0.03125
40
0.0625
40
0.0625
40
0.0781250000000001
40
0.0781250000000001
40
0.0859375000000001
40
0.0859375000000001
40
0.09375
40
0.09375
40
0.125
40
0.125
40
0.156250000000001
40
0.156250000000001
40
0.187500000000001
40
0.187500000000001
40
0.218750000000002
40
0.218750000000002
40
0.250000000000002
40
0.250000000000002
40
0.281250000000003
40
0.281250000000003
40
0.312500000000003
40
0.312500000000003
40
0.343750000000004
40
0.343750000000004
40
0.375000000000004
40
0.375000000000004
40
0.382812500000004
40
0.382812500000004
40
0.390625000000004
40
0.390625000000004
40
0.406250000000004
40
0.406250000000004
40
0.437500000000004
40
0.437500000000004
40
0.468750000000004
40
0.468750000000004
40
0.500000000000004
40
0.500000000000004
40
0.531250000000004
40
0.531250000000004
40
0.562500000000004
40
0.562500000000004
40
0.593750000000004
40
0.593750000000004
40
0.625000000000004
40
0.625000000000004
40
0.656250000000004
40
0.656250000000004
40
0.687500000000004
40
0.687500000000004
40
0.695312500000004
40
0.695312500000004
40
0.703125000000004
40
0.703125000000004
40
0.718750000000004
40
0.718750000000004
40
0.750000000000004
40
0.750000000000004
40
0.781250000000003
40
0.781250000000003
40
0.812500000000003
40
0.812500000000003
40
0.843750000000002
40
0.843750000000002
40
0.875000000000002
40
0.875000000000002
40
0.906250000000001
40
0.906250000000001
40
0.937500000000001
40
0.937500000000001
40
0.96875
40
0.96875
40
1
40
1
40
1
40
1
41
1
10
90.5
20
4.67451902072978
30
0
41
1
10
90.5929812403953
20
4.10994455240382
30
0
41
1
10
90.6859624807907
20
3.53282902138713
30
0
41
1
10
90.8719249615814
20
2.37845718347285
30
0
41
1
10
90.9649062019768
20
1.80127778934451
30
0
41
1
10
91.1043780625697
20
0.951351391637928
30
0
41
1
10
91.1508686827674
20
0.670645435621623
30
0
41
1
10
91.2206046130638
20
0.255095266346274
30
0
41
1
10
91.2438499231627
20
0.117671551227488
30
0
41
1
10
91.2903405433603
20
-0.155849032881775
30
0
41
1
10
91.3135858534592
20
-0.293631029442025
30
0
41
1
10
91.4298124039534
20
-0.987060480027367
30
0
41
1
10
91.5227936443486
20
-1.55648330893891
30
0
41
1
10
91.7087561251392
20
-2.70605601584825
30
0
41
1
10
91.8017373655346
20
-3.28615108021137
30
0
41
1
10
91.9876998463253
20
-4.43355437109426
30
0
41
1
10
92.0806810867208
20
-5.00076372653348
30
0
41
1
10
92.2666435675113
20
-6.09634333642501
30
0
41
1
10
92.3596248079066
20
-6.62458928984458
30
0
41
1
10
92.5455872886973
20
-7.61709015198025
30
0
41
1
10
92.6385685290927
20
-8.0812290595814
30
0
41
1
10
92.8245310098832
20
-8.92500873189354
30
0
41
1
10
92.9175122502786
20
-9.3045765790763
30
0
41
1
10
93.1034747310692
20
-9.96631230639696
30
0
41
1
10
93.1964559714646
20
-10.2484693158311
30
0
41
1
10
93.3824184522553
20
-10.7113955025682
30
0
41
1
10
93.4753996926506
20
-10.8922109979532
30
0
41
1
10
93.6613621734413
20
-11.1568077667316
30
0
41
1
10
93.7543434138365
20
-11.2406695684435
30
0
41
1
10
93.8705699643307
20
-11.2915332533256
30
0
41
1
10
93.8938152744295
20
-11.2990196420496
30
0
41
1
10
93.9403058946272
20
-11.3088261974552
30
0
41
1
10
93.963551204726
20
-11.311146656262
30
0
41
1
10
94.0332871350225
20
-11.3106852160151
30
0
41
1
10
94.0797777552202
20
-11.3004485387615
30
0
41
1
10
94.2192496158132
20
-11.2374097716655
30
0
41
1
10
94.3122308562085
20
-11.1521124717037
30
0
41
1
10
94.4981933369992
20
-10.8845217110795
30
0
41
1
10
94.5911745773946
20
-10.7021480361531
30
0
41
1
10
94.7771370581852
20
-10.2360984830912
30
0
41
1
10
94.8701182985806
20
-9.95237702950433
30
0
41
1
10
95.0560807793712
20
-9.2876434219483
30
0
41
1
10
95.1490620197665
20
-8.90664312503094
30
0
41
1
10
95.3350245005572
20
-8.06026272841376
30
0
41
1
10
95.4280057409525
20
-7.59495641772679
30
0
41
1
10
95.6139682217432
20
-6.60048389817558
30
0
41
1
10
95.7069494621385
20
-6.07143410547221
30
0
41
1
10
95.8929119429292
20
-4.97465426383718
30
0
41
1
10
95.9858931833245
20
-4.40704835348174
30
0
41
1
10
96.1718556641152
20
-3.25924503804649
30
0
41
1
10
96.2648369045104
20
-2.67914591322818
30
0
41
1
10
96.4507993853011
20
-1.52989723909747
30
0
41
1
10
96.5437806256964
20
-0.960801775327582
30
0
41
1
10
96.6600071761906
20
-0.267935031402459
30
0
41
1
10
96.6832524862895
20
-0.130335404769312
30
0
41
1
10
96.7297431064871
20
0.143058275451324
30
0
41
1
10
96.7529884165859
20
0.280780292888693
30
0
41
1
10
96.8227243468824
20
0.696669506948325
30
0
41
1
10
96.8692149670801
20
0.977570988460627
30
0
41
1
10
97.0086868276731
20
1.82797585051412
30
0
41
1
10
97.1016680680685
20
2.40532922065873
30
0
41
1
10
97.2876305488591
20
3.55968365865621
30
0
41
1
10
97.3806117892544
20
4.13660711547095
30
0
41
1
10
97.5665742700451
20
5.26496568741948
30
0
41
1
10
97.6595555104404
20
5.81628592788914
30
0
41
1
10
97.8455179912311
20
6.86735585711955
30
0
41
1
10
97.9384992316263
20
7.36698062841657
30
0
41
1
10
98.1244617124171
20
8.29134925832997
30
0
41
1
10
98.2174429528123
20
8.71599461721362
30
0
41
1
10
98.403405433603
20
9.47335949923746
30
0
41
1
10
98.4963866739984
20
9.80603573561021
30
0
41
1
10
98.6823491547891
20
10.3709052221572
30
0
41
1
10
98.7753303951843
20
10.6031177602522
30
0
41
1
10
98.961292875975
20
10.9673553833228
30
0
41
1
10
99.0542741163703
20
11.0994471204323
30
0
41
1
10
99.240236597161
20
11.2712259273879
30
0
41
1
10
99.3332178375563
20
11.311
30
0
41
1
10
99.4261990779517
20
11.311
30
0
0
SPLINE
5
E9
100
AcDbEntity
8
1
62
256
6
ByLayer
370
13
48
1
60
0
100
AcDbSpline
70
4
71
3
72
36
73
32
40
0
40
0
40
0
40
0
40
0.125000000000001
40
0.125000000000001
40
0.187500000000001
40
0.187500000000001
40
0.250000000000001
40
0.250000000000001
40
0.312500000000001
40
0.312500000000001
40
0.375000000000001
40
0.375000000000001
40
0.437500000000001
40
0.437500000000001
40
0.500000000000001
40
0.500000000000001
40
0.562500000000001
40
0.562500000000001
40
0.625
40
0.625
40
0.6875
40
0.6875
40
0.75
40
0.75
40
0.8125
40
0.8125
40
0.875
40
0.875
40
0.9375
40
0.9375
40
1
40
1
40
1
40
1
41
1
10
98.8169706664413
20
11.311
30
0
41
1
10
98.9238940836819
20
11.311
30
0
41
1
10
99.0308175009225
20
11.2583308046396
30
0
41
1
10
99.1912026267833
20
11.0862096124407
30
0
41
1
10
99.2446643354035
20
11.0133657632293
30
0
41
1
10
99.3515877526442
20
10.8352017232322
30
0
41
1
10
99.4050494612645
20
10.729876755253
30
0
41
1
10
99.511972878505
20
10.4859530856422
30
0
41
1
10
99.5654345871253
20
10.3473508728257
30
0
41
1
10
99.6723580043658
20
10.0369515910907
30
0
41
1
10
99.725819712986
20
9.86515282385338
30
0
41
1
10
99.8327431302267
20
9.48939575427343
30
0
41
1
10
99.8862048388471
20
9.2854379528718
30
0
41
1
10
99.9931282560876
20
8.84737384240043
30
0
41
1
10
100.046589964708
20
8.61327036788867
30
0
41
1
10
100.153513381948
20
8.11785185706512
30
0
41
1
10
100.206975090569
20
7.8565418208922
30
0
41
1
10
100.313898507809
20
7.31045457284276
30
0
41
1
10
100.36736021643
20
7.02568406565919
30
0
41
1
10
100.47428363367
20
6.43705006880498
30
0
41
1
10
100.52774534229
20
6.13319430570198
30
0
41
1
10
100.634668759531
20
5.51117449803235
30
0
41
1
10
100.688130468151
20
5.19301841441657
30
0
41
1
10
100.795053885392
20
4.54735474786514
30
0
41
1
10
100.848515594012
20
4.21985460046781
30
0
41
1
10
100.955439011253
20
3.56039784002593
30
0
41
1
10
101.008900719873
20
3.22844752045765
30
0
41
1
10
101.115824137114
20
2.5647155348766
30
0
41
1
10
101.169285845734
20
2.23293862053217
30
0
41
1
10
101.276209262974
20
1.57374163433363
30
0
41
1
10
101.329670971595
20
1.24632461172939
30
0
41
1
10
101.383132680215
20
0.922902928835498
30
0
0
SPLINE
5
EA
100
AcDbEntity
8
1
62
256
6
ByLayer
370
13
48
1
60
0
100
AcDbSpline
70
4
71
3
72
85
73
81
40
0
40
0
40
0
40
0
40
0.031250000000003
40
0.031250000000003
40
0.0351562500000032
40
0.0351562500000032
40
0.0390625000000033
40
0.0468750000000036
40
0.0468750000000036
40
0.0625000000000039
40
0.0625000000000039
40
0.0937500000000042
40
0.0937500000000042
40
0.125000000000005
40
0.125000000000005
40
0.156250000000005
40
0.156250000000005
40
0.187500000000005
40
0.187500000000005
40
0.218750000000005
40
0.218750000000005
40
0.250000000000006
40
0.250000000000006
40
0.281250000000006
40
0.281250000000006
40
0.312500000000006
40
0.312500000000006
40
0.343750000000007
40
0.343750000000007
40
0.351562500000007
40
0.351562500000007
40
0.359375000000007
40
0.359375000000007
40
0.375000000000007
40
0.375000000000007
40
0.406250000000007
40
0.406250000000007
40
0.437500000000007
40
0.437500000000007
40
0.468750000000008
40
0.468750000000008
40
0.500000000000008
40
0.500000000000008
40
0.531250000000008
40
0.531250000000008
40
0.562500000000008
40
0.562500000000008
40
0.593750000000009
40
0.593750000000009
40
0.625000000000009
40
0.625000000000009
40
0.656250000000009
40
0.656250000000009
40
0.671875000000009
40
0.671875000000009
40
0.675781250000009
40
0.675781250000009
40
0.679687500000009
40
0.679687500000009
40
0.687500000000008
40
0.687500000000008
40
0.718750000000008
40
0.718750000000008
40
0.750000000000007
40
0.750000000000007
40
0.781250000000006
40
0.781250000000006
40
0.812500000000005
40
0.812500000000005
40
0.843750000000004
40
0.843750000000004
40
0.875000000000003
40
0.875000000000003
40
0.906250000000003
40
0.906250000000003
40
0.937500000000002
40
0.937500000000002
40
0.968750000000001
40
0.968750000000001
40
1
40
1
40
1
40
1
41
1
10
90.5000000000001
20
1.65477029612438
30
0
41
1
10
90.5878850577224
20
1.11493502202481
30
0
41
1
10
90.6757701154448
20
0.582424509475658
30
0
41
1
10
90.7746408053824
20
-0.0002211601503461
30
0
41
1
10
90.7856264375976
20
-0.0647350704587097
30
0
41
1
10
90.8075977020283
20
-0.19451080434709
30
0
41
1
10
90.8405545986741
20
-0.389837738079848
30
0
41
1
10
90.87351149532
20
-0.587044671799504
30
0
41
1
10
90.9394252886118
20
-0.983646368790431
30
0
41
1
10
90.983367817473
20
-1.2509732865681
30
0
41
1
10
91.1151954040565
20
-2.05885940715473
30
0
41
1
10
91.2030804617789
20
-2.60543764915934
30
0
41
1
10
91.3788505772236
20
-3.69617656752328
30
0
41
1
10
91.466735634946
20
-4.24027539139612
30
0
41
1
10
91.6425057503907
20
-5.30468812686959
30
0
41
1
10
91.730390808113
20
-5.82491444415268
30
0
41
1
10
91.9061609235578
20
-6.81958001121794
30
0
41
1
10
91.9940459812801
20
-7.29392480569368
30
0
41
1
10
92.1698160967248
20
-8.17700416595952
30
0
41
1
10
92.2577011544473
20
-8.58566214736709
30
0
41
1
10
92.433471269892
20
-9.32238613308945
30
0
41
1
10
92.5213563276143
20
-9.65041368458961
30
0
41
1
10
92.697126443059
20
-10.2175309935854
30
0
41
1
10
92.7850115007815
20
-10.4566274208738
30
0
41
1
10
92.9607816162262
20
-10.8446614153986
30
0
41
1
10
93.0486666739485
20
-10.9936427565897
30
0
41
1
10
93.2244367893932
20
-11.2065501007916
30
0
41
1
10
93.3123218471156
20
-11.2705396158075
30
0
41
1
10
93.4221781692685
20
-11.3034586915106
30
0
41
1
10
93.4441494336991
20
-11.307697653664
30
0
41
1
10
93.4880919625603
20
-11.3116662726574
30
0
41
1
10
93.5100632269908
20
-11.3114218364491
30
0
41
1
10
93.5759770202826
20
-11.3039558330089
30
0
41
1
10
93.6199195491439
20
-11.2899135034963
30
0
41
1
10
93.7517471357274
20
-11.2185011903253
30
0
41
1
10
93.8396321934497
20
-11.1317088042573
30
0
41
1
10
94.0154023088944
20
-10.8712219976907
30
0
41
1
10
94.1032873666168
20
-10.6974676106815
30
0
41
1
10
94.2790574820615
20
-10.259519728846
30
0
41
1
10
94.366942539784
20
-9.99529127324303
30
0
41
1
10
94.5427126552286
20
-9.37948495238592
30
0
41
1
10
94.630597712951
20
-9.02791274042141
30
0
41
1
10
94.8063678283958
20
-8.24762787965693
30
0
41
1
10
94.8942528861181
20
-7.81896565308253
30
0
41
1
10
95.0700230015628
20
-6.90098945101659
30
0
41
1
10
95.1579080592851
20
-6.41175945206507
30
0
41
1
10
95.3336781747299
20
-5.39334222593928
30
0
41
1
10
95.4215632324523
20
-4.86424994886139
30
0
41
1
10
95.597333347897
20
-3.78823048091246
30
0
41
1
10
95.6852184056193
20
-3.24138517788788
30
0
41
1
10
95.860988521064
20
-2.15066791126034
30
0
41
1
10
95.9488735787864
20
-1.60684882924389
30
0
41
1
10
96.0807011653699
20
-0.806416297059286
30
0
41
1
10
96.1246436942311
20
-0.542123517638288
30
0
41
1
10
96.1795718553076
20
-0.216003405835522
30
0
41
1
10
96.1905574875229
20
-0.15099097356287
30
0
41
1
10
96.2125287519535
20
-0.0214139181452708
30
0
41
1
10
96.2235143841688
20
0.0430660280258337
30
0
41
1
10
96.2564712808147
20
0.237581071946323
30
0
41
1
10
96.2784425452453
20
0.368148570166085
30
0
41
1
10
96.3882988673982
20
1.024933572235
30
0
41
1
10
96.4761839251206
20
1.56316639324399
30
0
41
1
10
96.6519540405652
20
2.64944696304261
30
0
41
1
10
96.7398390982877
20
3.19745387605542
30
0
41
1
10
96.9156092137325
20
4.2835700434901
30
0
41
1
10
97.0034942714548
20
4.82160665934509
30
0
41
1
10
97.1792643868995
20
5.86588248043472
30
0
41
1
10
97.2671494446217
20
6.37202894015297
30
0
41
1
10
97.4429195600666
20
7.3309759498577
30
0
41
1
10
97.5308046177889
20
7.7836856402684
30
0
41
1
10
97.7065747332336
20
8.61740843076279
30
0
41
1
10
97.7944597909559
20
8.99835693766673
30
0
41
1
10
97.9702299064007
20
9.67582776789078
30
0
41
1
10
98.0581149641231
20
9.9723279586506
30
0
41
1
10
98.2338850795678
20
10.4751448968966
30
0
41
1
10
98.3217701372902
20
10.6814833012324
30
0
41
1
10
98.497540252735
20
11.0051890521473
30
0
41
1
10
98.5854253104574
20
11.1226095240378
30
0
41
1
10
98.7611954259019
20
11.2754820119485
30
0
41
1
10
98.8490804836243
20
11.311
30
0
41
1
10
98.9369655413467
20
11.311
30
0
0
SPLINE
5
EB
100
AcDbEntity
8
1
62
256
6
ByLayer
370
13
48
1
60
0
100
AcDbSpline
70
4
71
3
72
41
73
37
40
0
40
0
40
0
40
0
40
0.0625000000000001
40
0.0625000000000001
40
0.125
40
0.125
40
0.1875
40
0.1875
40
0.25
40
0.25
40
0.3125
40
0.3125
40
0.375
40
0.375
40
0.437500000000001
40
0.437500000000001
40
0.5
40
0.5
40
0.5625
40
0.5625
40
0.625000000000001
40
0.625000000000001
40
0.687500000000001
40
0.687500000000001
40
0.750000000000001
40
0.750000000000001
40
0.812500000000001
40
0.812500000000001
40
0.875000000000001
40
0.875000000000001
40
0.890625000000001
40
0.890625000000001
40
0.906250000000001
40
0.937500000000001
40
0.937500000000001
40
1
40
1
40
1
40
1
41
1
10
98.3277371298363
20
11.311
30
0
41
1
10
98.3913912038025
20
11.311
30
0
41
1
10
98.4550452777687
20
11.2923981998073
30
0
41
1
10
98.5823534257012
20
11.2137330814157
30
0
41
1
10
98.6460074996675
20
11.1536564710697
30
0
41
1
10
98.7733156475998
20
10.9886812971894
30
0
41
1
10
98.836969721566
20
10.8837701788273
30
0
41
1
10
98.9642778694986
20
10.6270823632958
30
0
41
1
10
99.0279319434648
20
10.4752958222226
30
0
41
1
10
99.1552400913972
20
10.1244742286511
30
0
41
1
10
99.2188941653634
20
9.92543400136958
30
0
41
1
10
99.3462023132959
20
9.48161546556
30
0
41
1
10
99.4098563872622
20
9.2368381043662
30
0
41
1
10
99.5371645351945
20
8.70501742501801
30
0
41
1
10
99.6008186091607
20
8.41798166720068
30
0
41
1
10
99.7281267570932
20
7.80695119529722
30
0
41
1
10
99.7917808310594
20
7.48296993786664
30
0
41
1
10
99.9190889789919
20
6.80487109759596
30
0
41
1
10
99.9827430529581
20
6.45077103285772
30
0
41
1
10
100.11005120089
20
5.72030013589983
30
0
41
1
10
100.173705274857
20
5.34394834967517
30
0
41
1
10
100.301013422789
20
4.57732376159015
30
0
41
1
10
100.364667496755
20
4.18706890852252
30
0
41
1
10
100.491975644688
20
3.40090718790918
30
0
41
1
10
100.555629718654
20
3.00501503620879
30
0
41
1
10
100.682937866586
20
2.21526935585729
30
0
41
1
10
100.746591940553
20
1.82142603547146
30
0
41
1
10
100.873900088485
20
1.04251235579281
30
0
41
1
10
100.937554162452
20
0.657447369802696
30
0
41
1
10
101.017121754909
20
0.185064162839183
30
0
41
1
10
101.033035273401
20
0.091048883546847
30
0
41
1
10
101.064862310384
20
-0.0960875407349988
30
0
41
1
10
101.112602865859
20
-0.378233088981688
30
0
41
1
10
101.160343421333
20
-0.664376397259019
30
0
41
1
10
101.255824532282
20
-1.24101450441162
30
0
41
1
10
101.319478606249
20
-1.63127877788338
30
0
41
1
10
101.383132680215
20
-2.02430742113742
30
0
0
SPLINE
5
EC
100
AcDbEntity
8
1
62
256
6
ByLayer
370
13
48
1
60
0
100
AcDbSpline
70
4
71
3
72
80
73
76
40
0
40
0
40
0
40
0
40
0.0312500000000001
40
0.0312500000000001
40
0.0625000000000002
40
0.0625000000000002
40
0.0937500000000002
40
0.0937500000000002
40
0.125
40
0.125
40
0.15625
40
0.15625
40
0.1875
40
0.1875
40
0.218750000000001
40
0.218750000000001
40
0.250000000000001
40
0.250000000000001
40
0.281250000000001
40
0.281250000000001
40
0.312500000000001
40
0.312500000000001
40
0.316406250000001
40
0.316406250000001
40
0.320312500000001
40
0.328125000000001
40
0.328125000000001
40
0.343750000000001
40
0.343750000000001
40
0.375
40
0.375
40
0.40625
40
0.40625
40
0.437499999999999
40
0.437499999999999
40
0.468749999999999
40
0.468749999999999
40
0.499999999999998
40
0.499999999999998
40
0.531249999999998
40
0.531249999999998
40
0.562499999999997
40
0.562499999999997
40
0.593749999999996
40
0.593749999999996
40
0.624999999999996
40
0.624999999999996
40
0.656249999999995
40
0.656249999999995
40
0.660156249999995
40
0.660156249999995
40
0.664062499999995
40
0.671874999999995
40
0.671874999999995
40
0.687499999999995
40
0.687499999999995
40
0.718749999999996
40
0.718749999999996
40
0.749999999999996
40
0.749999999999996
40
0.781249999999997
40
0.781249999999997
40
0.812499999999997
40
0.812499999999997
40
0.843749999999998
40
0.843749999999998
40
0.874999999999998
40
0.874999999999998
40
0.906249999999999
40
0.906249999999999
40
0.937499999999999
40
0.937499999999999
40
0.96875
40
0.96875
40
1
40
1
40
1
40
1
41
1
10
90.5000000000001
20
-1.2874347623156
30
0
41
1
10
90.5827888750495
20
-1.79250524193205
30
0
41
1
10
90.6655777500988
20
-2.30568619934374
30
0
41
1
10
90.8311555001976
20
-3.33344388326066
30
0
41
1
10
90.913944375247
20
-3.84797952704696
30
0
41
1
10
91.0795221253458
20
-4.86100855020692
30
0
41
1
10
91.1623110003952
20
-5.35944082362121
30
0
41
1
10
91.3278887504939
20
-6.32180064419401
30
0
41
1
10
91.4106776255434
20
-6.7856577259401
30
0
41
1
10
91.5762553756422
20
-7.66140224763345
30
0
41
1
10
91.6590442506915
20
-8.0732256709822
30
0
41
1
10
91.8246220007903
20
-8.83051679710263
30
0
41
1
10
91.9074108758397
20
-9.1759423181453
30
0
41
1
10
92.0729886259385
20
-9.79077944703548
30
0
41
1
10
92.1557775009879
20
-10.0601796235019
30
0
41
1
10
92.3213552510866
20
-10.5188660606885
30
0
41
1
10
92.4041441261361
20
-10.7081709945182
30
0
41
1
10
92.5697218762348
20
-11.008004846306
30
0
41
1
10
92.6525107512842
20
-11.1185737536331
30
0
41
1
10
92.818088501383
20
-11.2667915288256
30
0
41
1
10
92.9008773764324
20
-11.3044893255567
30
0
41
1
10
92.994014860863
20
-11.3109394558375
30
0
41
1
10
93.0043634702441
20
-11.3111592122586
30
0
41
1
10
93.0250606890065
20
-11.3106171688801
30
0
41
1
10
93.0561065171499
20
-11.3083233471804
30
0
41
1
10
93.0871523452935
20
-11.3014991822107
30
0
41
1
10
93.1492440015805
20
-11.2815856140889
30
0
41
1
10
93.1906384391052
20
-11.2599512646052
30
0
41
1
10
93.3148217516793
20
-11.1683309191985
30
0
41
1
10
93.3976106267287
20
-11.0715108235527
30
0
41
1
10
93.5631883768275
20
-10.7999420347418
30
0
41
1
10
93.645977251877
20
-10.6251507934112
30
0
41
1
10
93.8115550019758
20
-10.195358025853
30
0
41
1
10
93.8943438770251
20
-9.94033313771942
30
0
41
1
10
94.0599216271239
20
-9.35309408463178
30
0
41
1
10
94.1427105021733
20
-9.02088556703677
30
0
41
1
10
94.3082882522721
20
-8.28790153544946
30
0
41
1
10
94.3910771273215
20
-7.88716302934327
30
0
41
1
10
94.5566548774203
20
-7.03070270911851
30
0
41
1
10
94.6394437524697
20
-6.57504197952684
30
0
41
1
10
94.8050215025685
20
-5.62577359560191
30
0
41
1
10
94.8878103776178
20
-5.13223648513807
30
0
41
1
10
95.0533881277166
20
-4.1256686553389
30
0
41
1
10
95.1361770027661
20
-3.61270173303652
30
0
41
1
10
95.3017547528648
20
-2.58506814455947
30
0
41
1
10
95.3845436279142
20
-2.07044664432612
30
0
41
1
10
95.550121378013
20
-1.05496388723975
30
0
41
1
10
95.6329102530623
20
-0.55412464903236
30
0
41
1
10
95.7260477374929
20
-0.0052313406790461
30
0
41
1
10
95.7363963468741
20
0.0555344845962225
30
0
41
1
10
95.7570935656365
20
0.177729196998939
30
0
41
1
10
95.7881393937799
20
0.361612070297838
30
0
41
1
10
95.8191852219235
20
0.547175722946236
30
0
41
1
10
95.8812768782105
20
0.920279603943982
30
0
41
1
10
95.9226713157353
20
1.17165783877641
30
0
41
1
10
96.0468546283093
20
1.93134987876027
30
0
41
1
10
96.1296435033587
20
2.44531365176249
30
0
41
1
10
96.2952212534576
20
3.47314471820513
30
0
41
1
10
96.3780101285068
20
3.98696887197903
30
0
41
1
10
96.5435878786057
20
4.99691670992988
30
0
41
1
10
96.6263767536551
20
5.49297789536533
30
0
41
1
10
96.7919545037539
20
6.44894010662711
30
0
41
1
10
96.8747433788033
20
6.9087705599338
30
0
41
1
10
97.0403211289021
20
7.77500256103519
30
0
41
1
10
97.1231100039514
20
8.18134149442761
30
0
41
1
10
97.2886877540502
20
8.92657484855349
30
0
41
1
10
97.3714766290996
20
9.26542964021567
30
0
41
1
10
97.5370543791984
20
9.86652001993946
30
0
41
1
10
97.6198432542478
20
10.1287470755093
30
0
41
1
10
97.7854210043466
20
10.5729933644563
30
0
41
1
10
97.868209879396
20
10.7550336553519
30
0
41
1
10
98.0337876294948
20
11.0407011570293
30
0
41
1
10
98.1165765045441
20
11.1443696893365
30
0
41
1
10
98.2821542546429
20
11.279494541378
30
0
41
1
10
98.3649431296923
20
11.311
30
0
41
1
10
98.4477320047417
20
11.311
30
0
0
SPLINE
5
ED
100
AcDbEntity
8
1
62
256
6
ByLayer
370
13
48
1
60
0
100
AcDbSpline
70
4
71
3
72
42
73
38
40
0
40
0
40
0
40
0
40
0.0624999999999997
40
0.0624999999999997
40
0.124999999999999
40
0.124999999999999
40
0.187499999999999
40
0.187499999999999
40
0.249999999999999
40
0.249999999999999
40
0.312499999999999
40
0.312499999999999
40
0.374999999999998
40
0.374999999999998
40
0.437499999999998
40
0.437499999999998
40
0.499999999999998
40
0.499999999999998
40
0.562499999999997
40
0.562499999999997
40
0.624999999999997
40
0.624999999999997
40
0.687499999999997
40
0.687499999999997
40
0.749999999999997
40
0.749999999999997
40
0.765624999999997
40
0.765624999999997
40
0.781249999999997
40
0.781249999999997
40
0.812499999999997
40
0.812499999999997
40
0.874999999999998
40
0.874999999999998
40
0.937499999999999
40
0.937499999999999
40
1
40
1
40
1
40
1
41
1
10
97.8385035932313
20
11.311
30
0
41
1
10
97.9123500325435
20
11.311
30
0
41
1
10
97.9861964718556
20
11.2859489762534
30
0
41
1
10
98.1338893504799
20
11.1791946073103
30
0
41
1
10
98.2077357897921
20
11.0974633820307
30
0
41
1
10
98.3554286684165
20
10.8725316998615
30
0
41
1
10
98.4292751077287
20
10.7293062862666
30
0
41
1
10
98.5769679863529
20
10.3791673233259
30
0
41
1
10
98.6508144256651
20
10.1722373906043
30
0
41
1
10
98.7985073042894
20
9.69571079898162
30
0
41
1
10
98.8723537436016
20
9.42611129570201
30
0
41
1
10
99.0200466222259
20
8.82881340242238
30
0
41
1
10
99.0938930615381
20
8.50112814979184
30
0
41
1
10
99.2415859401623
20
7.79562483957849
30
0
41
1
10
99.3154323794745
20
7.41783456972541
30
0
41
1
10
99.4631252580988
20
6.6228625673283
30
0
41
1
10
99.536971697411
20
6.20571824415151
30
0
41
1
10
99.6846645760353
20
5.34455416346319
30
0
41
1
10
99.7585110153475
20
4.9005742255616
30
0
41
1
10
99.9062038939718
20
3.99884211135583
30
0
41
1
10
99.9800503332839
20
3.5411250516315
30
0
41
1
10
100.127743211908
20
2.62445852690982
30
0
41
1
10
100.20158965122
20
2.16553445843033
30
0
41
1
10
100.349282529845
20
1.25750579815485
30
0
41
1
10
100.423128969157
20
0.808414899213034
30
0
41
1
10
100.515437018297
20
0.2587964196575
30
0
41
1
10
100.533898628125
20
0.149454484465423
30
0
41
1
10
100.570821847781
20
-0.0679484000167747
30
0
41
1
10
100.589283457609
20
-0.176717596170306
30
0
41
1
10
100.644668287093
20
-0.505604801290076
30
0
41
1
10
100.681591506749
20
-0.72725493067054
30
0
41
1
10
100.792361165718
20
-1.39783623438134
30
0
41
1
10
100.86620760503
20
-1.85246339325761
30
0
41
1
10
101.013900483654
20
-2.7669693029508
30
0
41
1
10
101.087746922966
20
-3.22682919290585
30
0
41
1
10
101.235439801591
20
-4.1400264345792
30
0
41
1
10
101.309286240903
20
-4.59333370813908
30
0
41
1
10
101.383132680215
20
-5.0369291340684
30
0
0
SPLINE
5
EE
100
AcDbEntity
8
1
62
256
6
ByLayer
370
13
48
1
60
0
100
AcDbSpline
70
4
71
3
72
79
73
75
40
0
40
0
40
0
40
0
40
0.0312499999999993
40
0.0312499999999993
40
0.0624999999999986
40
0.0624999999999986
40
0.093749999999998
40
0.093749999999998
40
0.124999999999997
40
0.124999999999997
40
0.156249999999997
40
0.156249999999997
40
0.187499999999996
40
0.187499999999996
40
0.218749999999995
40
0.218749999999995
40
0.249999999999995
40
0.249999999999995
40
0.265624999999994
40
0.265624999999994
40
0.273437499999994
40
0.273437499999994
40
0.281249999999994
40
0.281249999999994
40
0.312499999999994
40
0.312499999999994
40
0.343749999999994
40
0.343749999999994
40
0.374999999999994
40
0.374999999999994
40
0.406249999999994
40
0.406249999999994
40
0.437499999999994
40
0.437499999999994
40
0.468749999999994
40
0.468749999999994
40
0.499999999999994
40
0.499999999999994
40
0.531249999999994
40
0.531249999999994
40
0.562499999999993
40
0.562499999999993
40
0.593749999999993
40
0.593749999999993
40
0.624999999999993
40
0.624999999999993
40
0.632812499999993
40
0.632812499999993
40
0.636718749999994
40
0.636718749999994
40
0.640624999999994
40
0.656249999999994
40
0.656249999999994
40
0.687499999999994
40
0.687499999999994
40
0.718749999999995
40
0.718749999999995
40
0.749999999999996
40
0.749999999999996
40
0.781249999999996
40
0.781249999999996
40
0.812499999999997
40
0.812499999999997
40
0.843749999999997
40
0.843749999999997
40
0.874999999999998
40
0.874999999999998
40
0.906249999999998
40
0.906249999999998
40
0.937499999999999
40
0.937499999999999
40
0.968749999999999
40
0.968749999999999
40
1
40
1
40
1
40
1
41
1
10
90.5
20
-4.30858780170328
30
0
41
1
10
90.5776926923764
20
-4.78437398295151
30
0
41
1
10
90.6553853847529
20
-5.25328563331109
30
0
41
1
10
90.8107707695057
20
-6.16220200538567
30
0
41
1
10
90.8884634618822
20
-6.60215555074626
30
0
41
1
10
91.043848846635
20
-7.43853353161478
30
0
41
1
10
91.1215415390114
20
-7.83490979510887
30
0
41
1
10
91.2769269237643
20
-8.57166616044961
30
0
41
1
10
91.3546196161407
20
-8.91201133602578
30
0
41
1
10
91.5100050008935
20
-9.52767827269165
30
0
41
1
10
91.5876976932699
20
-9.80298526105625
30
0
41
1
10
91.7430830780228
20
-10.2837560099751
30
0
41
1
10
91.8207757703992
20
-10.4892264593012
30
0
41
1
10
91.9761611551521
20
-10.8298323778193
30
0
41
1
10
92.0538538475284
20
-10.9649918250378
30
0
41
1
10
92.2092392322813
20
-11.168331443533
30
0
41
1
10
92.2869319246578
20
-11.2365454120871
30
0
41
1
10
92.4034709632224
20
-11.2933612496896
30
0
41
1
10
92.4423173094107
20
-11.3047353624379
30
0
41
1
10
92.5005868286929
20
-11.311177585313
30
0
41
1
10
92.5200100017869
20
-11.3115678896246
30
0
41
1
10
92.5588563479752
20
-11.3088774334775
30
0
41
1
10
92.5782795210694
20
-11.3057777064663
30
0
41
1
10
92.6753953865399
20
-11.2811924280369
30
0
41
1
10
92.7530880789164
20
-11.2323685374844
30
0
41
1
10
92.9084734636692
20
-11.0694819153423
30
0
41
1
10
92.9861661560456
20
-10.9553840044271
30
0
41
1
10
93.1415515407984
20
-10.6575651812875
30
0
41
1
10
93.2192442331749
20
-10.4738164086438
30
0
41
1
10
93.3746296179277
20
-10.0359013851702
30
0
41
1
10
93.4523223103041
20
-9.78172248685388
30
0
41
1
10
93.607707695057
20
-9.2063798024798
30
0
41
1
10
93.6854003874334
20
-8.88522406221858
30
0
41
1
10
93.8407857721862
20
-8.18367382058921
30
0
41
1
10
93.9184784645626
20
-7.80330855991735
30
0
41
1
10
94.0738638493155
20
-6.99483586362544
30
0
41
1
10
94.1515565416919
20
-6.56677353456448
30
0
41
1
10
94.3069419264448
20
-5.67701251980782
30
0
41
1
10
94.3846346188212
20
-5.21536523574667
30
0
41
1
10
94.540020003574
20
-4.2736619190313
30
0
41
1
10
94.6177126959505
20
-3.79365311651173
30
0
41
1
10
94.7730980807033
20
-2.83005694213699
30
0
41
1
10
94.8507907730798
20
-2.34650466462898
30
0
41
1
10
95.0061761578327
20
-1.38899206200668
30
0
41
1
10
95.083868850209
20
-0.91505112536268
30
0
41
1
10
95.1809847156796
20
-0.335297486493289
30
0
41
1
10
95.2004078887736
20
-0.219973710951052
30
0
41
1
10
95.2295426484148
20
-0.0480328450975946
30
0
41
1
10
95.2392542349619
20
0.0089903536880342
30
0
41
1
10
95.258677408056
20
0.123458246405164
30
0
41
1
10
95.3072353407912
20
0.410505945028802
30
0
41
1
10
95.3557932735265
20
0.701751329781047
30
0
41
1
10
95.4723323120911
20
1.40701313345446
30
0
41
1
10
95.5500250044676
20
1.88563096653442
30
0
41
1
10
95.7054103892204
20
2.84819407065155
30
0
41
1
10
95.7831030815968
20
3.33211439632268
30
0
41
1
10
95.9384884663497
20
4.29144889597742
30
0
41
1
10
96.0161811587261
20
4.76682312581733
30
0
41
1
10
96.1715665434789
20
5.69395610409296
30
0
41
1
10
96.2492592358554
20
6.14566508847116
30
0
41
1
10
96.4046446206083
20
7.01045287751012
30
0
41
1
10
96.4823373129847
20
7.42348124326995
30
0
41
1
10
96.6377226977376
20
8.19752929635192
30
0
41
1
10
96.715415390114
20
8.55850844795407
30
0
41
1
10
96.8708007748668
20
9.21812117784322
30
0
41
1
10
96.9484934672432
20
9.51673254404733
30
0
41
1
10
97.1038788519961
20
10.0452845604023
30
0
41
1
10
97.1815715443724
20
10.2752246861297
30
0
41
1
10
97.3369569291253
20
10.6644693039322
30
0
41
1
10
97.4146496215017
20
10.8237925215157
30
0
41
1
10
97.5700350062547
20
11.0739110660756
30
0
41
1
10
97.6477276986311
20
11.1647377168535
30
0
41
1
10
97.8031130833839
20
11.2832642454805
30
0
41
1
10
97.8808057757603
20
11.311
30
0
41
1
10
97.9584984681367
20
11.311
30
0
0
SPLINE
5
EF
100
AcDbEntity
8
1
62
256
6
ByLayer
370
13
48
1
60
0
100
AcDbSpline
70
4
71
3
72
44
73
40
40
0
40
0
40
0
40
0
40
0.0625000000000008
40
0.0625000000000008
40
0.125000000000001
40
0.125000000000001
40
0.187500000000002
40
0.187500000000002
40
0.250000000000003
40
0.250000000000003
40
0.312500000000004
40
0.312500000000004
40
0.375000000000005
40
0.375000000000005
40
0.437500000000005
40
0.437500000000005
40
0.500000000000006
40
0.500000000000006
40
0.562500000000007
40
0.562500000000007
40
0.625000000000008
40
0.625000000000008
40
0.656250000000008
40
0.656250000000008
40
0.671875000000008
40
0.671875000000008
40
0.679687500000007
40
0.679687500000007
40
0.687500000000007
40
0.687500000000007
40
0.750000000000006
40
0.750000000000006
40
0.812500000000004
40
0.812500000000004
40
0.875000000000003
40
0.875000000000003
40
0.937500000000001
40
0.937500000000001
40
1
40
1
40
1
40
1
41
1
10
97.3492700566263
20
11.311
30
0
41
1
10
97.4333088612844
20
11.311
30
0
41
1
10
97.5173476659425
20
11.2785328988539
30
0
41
1
10
97.6854252752587
20
11.139161864976
30
0
41
1
10
97.7694640799168
20
11.032205018474
30
0
41
1
10
97.9375416892331
20
10.7374386019948
30
0
41
1
10
98.0215804938912
20
10.5495849816196
30
0
41
1
10
98.1896581032073
20
10.0913004880666
30
0
41
1
10
98.2736969078654
20
9.82084820832105
30
0
41
1
10
98.4417745171817
20
9.20136779052982
30
0
41
1
10
98.5258133218397
20
8.85235093226606
30
0
41
1
10
98.693890931156
20
8.08565284269397
30
0
41
1
10
98.7779297358141
20
7.66801660765296
30
0
41
1
10
98.9460073451302
20
6.77905056106178
30
0
41
1
10
99.0300461497882
20
6.30778972181966
30
0
41
1
10
99.1981237591046
20
5.32984759930974
30
0
41
1
10
99.2821625637627
20
4.82324220512575
30
0
41
1
10
99.4502401730788
20
3.79394339544476
30
0
41
1
10
99.5342789777369
20
3.27131530154827
30
0
41
1
10
99.7023565870531
20
2.22817989524444
30
0
41
1
10
99.7863953917112
20
1.70771573888908
30
0
41
1
10
99.9124535986983
20
0.940175467845393
30
0
41
1
10
99.9544730010274
20
0.686495639549491
30
0
41
1
10
100.017502104521
20
0.31041151052105
30
0
41
1
10
100.038511805686
20
0.185787544358931
30
0
41
1
10
100.070026357432
20
8.88995272987E-05
30
0
41
1
10
100.080531208015
20
-0.0616038836768382
30
0
41
1
10
100.101540909179
20
-0.185674008195463
30
0
41
1
10
100.112045759761
20
-0.247911675092666
30
0
41
1
10
100.206589415002
20
-0.80977644750763
30
0
41
1
10
100.29062821966
20
-1.32163877362447
30
0
41
1
10
100.458705828976
20
-2.35695480649915
30
0
41
1
10
100.542744633634
20
-2.880380259492
30
0
41
1
10
100.71082224295
20
-3.9221343424089
30
0
41
1
10
100.794861047608
20
-4.44040971349293
30
0
41
1
10
100.962938656925
20
-5.45298345943561
30
0
41
1
10
101.046977461583
20
-5.94721025673186
30
0
41
1
10
101.215055070899
20
-6.89252196580117
30
0
41
1
10
101.299093875557
20
-7.34353159888465
30
0
41
1
10
101.383132680215
20
-7.76437849354414
30
0
0
SPLINE
5
F0
100
AcDbEntity
8
1
62
256
6
ByLayer
370
13
48
1
60
0
100
AcDbSpline
70
4
71
3
72
76
73
72
40
0
40
0
40
0
40
0
40
0.0312499999999993
40
0.0312499999999993
40
0.0624999999999986
40
0.0624999999999986
40
0.0937499999999979
40
0.0937499999999979
40
0.124999999999997
40
0.124999999999997
40
0.156249999999997
40
0.156249999999997
40
0.187499999999996
40
0.187499999999996
40
0.218749999999995
40
0.218749999999995
40
0.226562499999995
40
0.226562499999995
40
0.234374999999995
40
0.234374999999995
40
0.249999999999995
40
0.249999999999995
40
0.281249999999995
40
0.281249999999995
40
0.312499999999994
40
0.312499999999994
40
0.343749999999994
40
0.343749999999994
40
0.374999999999994
40
0.374999999999994
40
0.406249999999994
40
0.406249999999994
40
0.437499999999994
40
0.437499999999994
40
0.468749999999994
40
0.468749999999994
40
0.499999999999994
40
0.499999999999994
40
0.531249999999994
40
0.531249999999994
40
0.562499999999993
40
0.562499999999993
40
0.593749999999993
40
0.593749999999993
40
0.609374999999993
40
0.609374999999993
40
0.624999999999994
40
0.624999999999994
40
0.656249999999994
40
0.656249999999994
40
0.687499999999995
40
0.687499999999995
40
0.718749999999995
40
0.718749999999995
40
0.749999999999996
40
0.749999999999996
40
0.781249999999996
40
0.781249999999996
40
0.812499999999997
40
0.812499999999997
40
0.843749999999997
40
0.843749999999997
40
0.874999999999998
40
0.874999999999998
40
0.906249999999998
40
0.906249999999998
40
0.937499999999999
40
0.937499999999999
40
0.96875
40
0.96875
40
1
40
1
40
1
40
1
41
1
10
90.5
20
-7.14391617010637
30
0
41
1
10
90.5725965097035
20
-7.5305970579798
30
0
41
1
10
90.6451930194069
20
-7.89765661205328
30
0
41
1
10
90.7903860388138
20
-8.58259334803122
30
0
41
1
10
90.8629825485173
20
-8.90044604085674
30
0
41
1
10
91.0081755679242
20
-9.47961223030921
30
0
41
1
10
91.0807720776277
20
-9.74091469802633
30
0
41
1
10
91.2259650970346
20
-10.2028203573203
30
0
41
1
10
91.2985616067381
20
-10.4034269121411
30
0
41
1
10
91.4437546261449
20
-10.7430926699463
30
0
41
1
10
91.5163511358484
20
-10.8821672996374
30
0
41
1
10
91.6615441552552
20
-11.1009395326547
30
0
41
1
10
91.7341406649588
20
-11.1806601608019
30
0
41
1
10
91.8793336843656
20
-11.2853176980884
30
0
41
1
10
91.9519301940691
20
-11.3102802141256
30
0
41
1
10
92.0426758311985
20
-11.3111607175402
30
0
41
1
10
92.0608249586243
20
-11.3098291658746
30
0
41
1
10
92.097123213476
20
-11.3040482799898
30
0
41
1
10
92.1152723409019
20
-11.2995985821733
30
0
41
1
10
92.1697197231794
20
-11.2814211841221
30
0
41
1
10
92.2060179780312
20
-11.2628622661705
30
0
41
1
10
92.3149127425864
20
-11.1867520210401
30
0
41
1
10
92.3875092522899
20
-11.1087013326785
30
0
41
1
10
92.5327022716967
20
-10.8933722183321
30
0
41
1
10
92.6052987814002
20
-10.7560706225492
30
0
41
1
10
92.7504918008071
20
-10.4199743535166
30
0
41
1
10
92.8230883105106
20
-10.2211639625712
30
0
41
1
10
92.9682813299174
20
-9.76278041107639
30
0
41
1
10
93.040877839621
20
-9.503203489105
30
0
41
1
10
93.186070859028
20
-8.92732124412314
30
0
41
1
10
93.2586673687313
20
-8.61102652683533
30
0
41
1
10
93.4038603881382
20
-7.92895105592245
30
0
41
1
10
93.4764568978417
20
-7.56319444483597
30
0
41
1
10
93.6216499172486
20
-6.79211766033657
30
0
41
1
10
93.6942464269521
20
-6.38683103099294
30
0
41
1
10
93.8394394463589
20
-5.54841258046258
30
0
41
1
10
93.9120359560625
20
-5.11531744280796
30
0
41
1
10
94.0572289754695
20
-4.23371729457699
30
0
41
1
10
94.1298254851728
20
-3.78524564415747
30
0
41
1
10
94.2750185045797
20
-2.88496970503297
30
0
41
1
10
94.3476150142832
20
-2.43319059872928
30
0
41
1
10
94.4928080336901
20
-1.53712402456685
30
0
41
1
10
94.5654045433935
20
-1.09285129583157
30
0
41
1
10
94.6742993079487
20
-0.438785604889716
30
0
41
1
10
94.7105975628004
20
-0.222805115903014
30
0
41
1
10
94.7831940725038
20
0.204153608267262
30
0
41
1
10
94.8194923273556
20
0.419858181900082
30
0
41
1
10
94.9283870919109
20
1.07356683002357
30
0
41
1
10
95.0009836016143
20
1.5176590609783
30
0
41
1
10
95.1461766210213
20
2.41350932015155
30
0
41
1
10
95.2187731307247
20
2.86525276475143
30
0
41
1
10
95.3639661501316
20
3.76562558216793
30
0
41
1
10
95.436562659835
20
4.21422991511363
30
0
41
1
10
95.581755679242
20
5.09627617231121
30
0
41
1
10
95.6543521889453
20
5.529684826286
30
0
41
1
10
95.7995452083524
20
6.36890897516054
30
0
41
1
10
95.8721417180558
20
6.77468779055008
30
0
41
1
10
96.0173347374626
20
7.54690939112942
30
0
41
1
10
96.0899312471661
20
7.91331853861897
30
0
41
1
10
96.2351242665729
20
8.59682648643982
30
0
41
1
10
96.3077207762765
20
8.91390097050808
30
0
41
1
10
96.4529137956833
20
9.4914264022612
30
0
41
1
10
96.5255103053869
20
9.75186653253695
30
0
41
1
10
96.6707033247937
20
10.2120116539924
30
0
41
1
10
96.7432998344972
20
10.4117202077673
30
0
41
1
10
96.888492853904
20
10.7496010608807
30
0
41
1
10
96.9610893636075
20
10.887788932911
30
0
41
1
10
97.1062823830144
20
11.1048388679639
30
0
41
1
10
97.1788788927179
20
11.18372402884
30
0
41
1
10
97.3240719121248
20
11.2867917897642
30
0
41
1
10
97.3966684218283
20
11.311
30
0
41
1
10
97.4692649315317
20
11.311
30
0
0
SPLINE
5
F1
100
AcDbEntity
8
1
62
256
6
ByLayer
370
13
48
1
60
0
100
AcDbSpline
70
4
71
3
72
42
73
38
40
0
40
0
40
0
40
0
40
0.0624999999999998
40
0.0624999999999998
40
0.125
40
0.125
40
0.187499999999999
40
0.187499999999999
40
0.249999999999999
40
0.249999999999999
40
0.312499999999999
40
0.312499999999999
40
0.374999999999999
40
0.374999999999999
40
0.437499999999998
40
0.437499999999998
40
0.499999999999998
40
0.499999999999998
40
0.562499999999998
40
0.562499999999998
40
0.593749999999998
40
0.593749999999998
40
0.609374999999998
40
0.609374999999998
40
0.624999999999998
40
0.624999999999998
40
0.687499999999998
40
0.687499999999998
40
0.749999999999999
40
0.749999999999999
40
0.812499999999999
40
0.812499999999999
40
0.874999999999999
40
0.874999999999999
40
0.9375
40
0.9375
40
1
40
1
40
1
40
1
41
1
10
96.8600365200214
20
11.311
30
0
41
1
10
96.9542676900254
20
11.311
30
0
41
1
10
97.0484988600294
20
11.270144763428
30
0
41
1
10
97.2369612000375
20
11.0935508657552
30
0
41
1
10
97.3311923700415
20
10.9577193266388
30
0
41
1
10
97.5196547100496
20
10.5831596779902
30
0
41
1
10
97.6138858800537
20
10.3443613587495
30
0
41
1
10
97.8023482200617
20
9.76375229204663
30
0
41
1
10
97.8965793900658
20
9.42192346545292
30
0
41
1
10
98.0850417300738
20
8.64446754102548
30
0
41
1
10
98.1792729000779
20
8.20889031901922
30
0
41
1
10
98.3677352400858
20
7.26204480385127
30
0
41
1
10
98.4619664100899
20
6.75088482463178
30
0
41
1
10
98.6504287500979
20
5.67743763172558
30
0
41
1
10
98.744659920102
20
5.11528446127087
30
0
41
1
10
98.9331222601101
20
3.96709330514759
30
0
41
1
10
99.0273534301142
20
3.38117531004337
30
0
41
1
10
99.2158157701223
20
2.21141427029664
30
0
41
1
10
99.3100469401262
20
1.62764896986368
30
0
41
1
10
99.4513936951322
20
0.769771771884621
30
0
41
1
10
99.4985092801343
20
0.486733470346252
30
0
41
1
10
99.5691826576373
20
0.0681662792091799
30
0
41
1
10
99.5927404501383
20
-0.0698387383132513
30
0
41
1
10
99.6398560351404
20
-0.348899497089462
30
0
41
1
10
99.6634138276413
20
-0.489424787560125
30
0
41
1
10
99.7812027901463
20
-1.19638486285996
30
0
41
1
10
99.8754339601504
20
-1.77604455557483
30
0
41
1
10
100.063896300159
20
-2.943446878418
30
0
41
1
10
100.158127470162
20
-3.53112427514341
30
0
41
1
10
100.346589810171
20
-4.68954179006917
30
0
41
1
10
100.440820980175
20
-5.26017055282637
30
0
41
1
10
100.629283320183
20
-6.35726247525227
30
0
41
1
10
100.723514490187
20
-6.88359154662413
30
0
41
1
10
100.911976830195
20
-7.86644021485955
30
0
41
1
10
101.006208000199
20
-8.32284141101417
30
0
41
1
10
101.194670340207
20
-9.14571859640577
30
0
41
1
10
101.288901510211
20
-9.51212819990499
30
0
41
1
10
101.383132680215
20
-9.82773148694031
30
0
0
SPLINE
5
F2
100
AcDbEntity
8
1
62
256
6
ByLayer
370
13
48
1
60
0
100
AcDbSpline
70
4
71
3
72
78
73
74
40
0
40
0
40
0
40
0
40
0.0312499999999997
40
0.0312499999999997
40
0.0624999999999994
40
0.0624999999999994
40
0.0937499999999991
40
0.0937499999999991
40
0.124999999999999
40
0.124999999999999
40
0.156249999999998
40
0.156249999999998
40
0.164062499999998
40
0.164062499999998
40
0.171874999999998
40
0.187499999999998
40
0.187499999999998
40
0.218749999999999
40
0.218749999999999
40
0.249999999999999
40
0.249999999999999
40
0.281249999999999
40
0.281249999999999
40
0.312499999999999
40
0.312499999999999
40
0.343749999999999
40
0.343749999999999
40
0.374999999999999
40
0.374999999999999
40
0.406249999999999
40
0.406249999999999
40
0.437499999999999
40
0.437499999999999
40
0.468749999999999
40
0.468749999999999
40
0.499999999999999
40
0.499999999999999
40
0.531249999999999
40
0.531249999999999
40
0.562499999999999
40
0.562499999999999
40
0.578124999999999
40
0.578124999999999
40
0.582031249999999
40
0.582031249999999
40
0.585937499999999
40
0.59375
40
0.59375
40
0.625
40
0.625
40
0.65625
40
0.65625
40
0.6875
40
0.6875
40
0.71875
40
0.71875
40
0.75
40
0.75
40
0.78125
40
0.78125
40
0.8125
40
0.8125
40
0.84375
40
0.84375
40
0.875
40
0.875
40
0.90625
40
0.90625
40
0.9375
40
0.9375
40
0.96875
40
0.96875
40
1
40
1
40
1
40
1
41
1
10
90.5
20
-9.39888757545845
30
0
41
1
10
90.5675003270305
20
-9.65509342273228
30
0
41
1
10
90.6350006540611
20
-9.88629263900597
30
0
41
1
10
90.7700013081219
20
-10.295913076883
30
0
41
1
10
90.8375016351525
20
-10.4743382987861
30
0
41
1
10
90.9725022892134
20
-10.7780928165696
30
0
41
1
10
91.040002616244
20
-10.9034335769325
30
0
41
1
10
91.1750032703048
20
-11.1029183774602
30
0
41
1
10
91.2425035973354
20
-11.1770785649186
30
0
41
1
10
91.3775042513963
20
-11.2778929304195
30
0
41
1
10
91.4450045784267
20
-11.3045649153449
30
0
41
1
10
91.529379987215
20
-11.3113144310292
30
0
41
1
10
91.5462550689725
20
-11.3113475549345
30
0
41
1
10
91.5800052324877
20
-11.3087834844076
30
0
41
1
10
91.6306304777608
20
-11.3009600454266
30
0
41
1
10
91.6812557230335
20
-11.280826300973
30
0
41
1
10
91.7825062135793
20
-11.2232177822599
30
0
41
1
10
91.8500065406097
20
-11.1616453655265
30
0
41
1
10
91.9850071946707
20
-10.9881328844472
30
0
41
1
10
92.0525075217012
20
-10.8761759672844
30
0
41
1
10
92.1875081757622
20
-10.5994821497746
30
0
41
1
10
92.2550085027927
20
-10.4347322950654
30
0
41
1
10
92.3900091568536
20
-10.0521566659667
30
0
41
1
10
92.4575094838841
20
-9.83432475794157
30
0
41
1
10
92.5925101379451
20
-9.3477027571958
30
0
41
1
10
92.6600104649756
20
-9.07891540693407
30
0
41
1
10
92.7950111190366
20
-8.49497153374287
30
0
41
1
10
92.8625114460671
20
-8.1798270754164
30
0
41
1
10
92.997512100128
20
-7.51000706796421
30
0
41
1
10
93.0650124271585
20
-7.1553514157676
30
0
41
1
10
93.2000130812195
20
-6.41510908899951
30
0
41
1
10
93.26751340825
20
-6.02954700443573
30
0
41
1
10
93.4025140623109
20
-5.23717307084925
30
0
41
1
10
93.4700143893414
20
-4.83038654378623
30
0
41
1
10
93.6050150434024
20
-4.00556177612964
30
0
41
1
10
93.672515370433
20
-3.58754585238526
30
0
41
1
10
93.8075160244939
20
-2.74984867942183
30
0
41
1
10
93.8750163515243
20
-2.33018409151205
30
0
41
1
10
94.0100170055854
20
-1.49777061901665
30
0
41
1
10
94.0775173326158
20
-1.08503158234049
30
0
41
1
10
94.1787678231616
20
-0.476491013960668
30
0
41
1
10
94.2125179866768
20
-0.275393628202011
30
0
41
1
10
94.2547056910709
20
-0.0266753914874869
30
0
41
1
10
94.2631432319497
20
0.0228649261372311
30
0
41
1
10
94.2800183137073
20
0.122338664780898
30
0
41
1
10
94.3053309363437
20
0.271946873984973
30
0
41
1
10
94.3306435589802
20
0.422698795612632
30
0
41
1
10
94.4150189677682
20
0.927513757744322
30
0
41
1
10
94.4825192947986
20
1.33881402033276
30
0
41
1
10
94.6175199488597
20
2.16935264784962
30
0
41
1
10
94.6850202758902
20
2.58858204619097
30
0
41
1
10
94.8200209299512
20
3.42657386763321
30
0
41
1
10
94.8875212569816
20
3.84532047040935
30
0
41
1
10
95.0225219110426
20
4.67287147769437
30
0
41
1
10
95.0900222380732
20
5.08165417185867
30
0
41
1
10
95.2250228921341
20
5.87930021987177
30
0
41
1
10
95.2925232191647
20
6.26813844408824
30
0
41
1
10
95.4275238732256
20
7.01613014020344
30
0
41
1
10
95.495024200256
20
7.375258701326
30
0
41
1
10
95.630024854317
20
8.05504298919911
30
0
41
1
10
95.6975251813475
20
8.37567801481472
30
0
41
1
10
95.8325258354085
20
8.97136404662956
30
0
41
1
10
95.900026162439
20
9.24640186072844
30
0
41
1
10
96.0350268165
20
9.7459792719155
30
0
41
1
10
96.1025271435304
20
9.97051491654622
30
0
41
1
10
96.2375277975914
20
10.3666328971751
30
0
41
1
10
96.3050281246219
20
10.5382203161376
30
0
41
1
10
96.4400287786829
20
10.8284262850653
30
0
41
1
10
96.5075291057133
20
10.9470570685362
30
0
41
1
10
96.6425297597742
20
11.1335053428083
30
0
41
1
10
96.7100300868048
20
11.2013393587621
30
0
41
1
10
96.8450307408657
20
11.2900777780433
30
0
41
1
10
96.9125310678962
20
11.311
30
0
41
1
10
96.9800313949268
20
11.311
30
0
0
SPLINE
5
F3
100
AcDbEntity
8
1
62
256
6
ByLayer
370
13
48
1
60
0
100
AcDbSpline
70
4
71
3
72
66
73
62
40
0
40
0
40
0
40
0
40
0.0625000000000003
40
0.0625000000000003
40
0.125000000000001
40
0.125000000000001
40
0.156250000000001
40
0.156250000000001
40
0.187500000000001
40
0.187500000000001
40
0.21875
40
0.21875
40
0.25
40
0.25
40
0.28125
40
0.28125
40
0.3125
40
0.3125
40
0.34375
40
0.34375
40
0.375
40
0.375
40
0.40625
40
0.40625
40
0.4375
40
0.4375
40
0.499999999999999
40
0.499999999999999
40
0.531249999999999
40
0.531249999999999
40
0.539062499999999
40
0.539062499999999
40
0.546874999999999
40
0.546874999999999
40
0.562499999999999
40
0.562499999999999
40
0.624999999999999
40
0.624999999999999
40
0.656249999999999
40
0.656249999999999
40
0.687499999999999
40
0.687499999999999
40
0.718749999999999
40
0.718749999999999
40
0.75
40
0.75
40
0.78125
40
0.78125
40
0.8125
40
0.8125
40
0.84375
40
0.84375
40
0.875
40
0.875
40
0.90625
40
0.90625
40
0.9375
40
0.9375
40
0.96875
40
0.96875
40
1
40
1
40
1
40
1
41
1
10
96.3708029834164
20
11.311
30
0
41
1
10
96.4752265187664
20
11.311
30
0
41
1
10
96.5796500541164
20
11.2607783271267
30
0
41
1
10
96.7884971248163
20
11.0422828093823
30
0
41
1
10
96.8929206601663
20
10.8738559105966
30
0
41
1
10
97.0495559631913
20
10.5256179142277
30
0
41
1
10
97.1017677308662
20
10.3936874185262
30
0
41
1
10
97.2061912662161
20
10.0981140530652
30
0
41
1
10
97.2584030338911
20
9.93446946405976
30
0
41
1
10
97.3628265692411
20
9.57631560925864
30
0
41
1
10
97.415038336916
20
9.38180650105105
30
0
41
1
10
97.519461872266
20
8.96366016828199
30
0
41
1
10
97.571673639941
20
8.74002512585182
30
0
41
1
10
97.676097175291
20
8.26621760369687
30
0
41
1
10
97.728308942966
20
8.01604923110736
30
0
41
1
10
97.832732478316
20
7.4925248681262
30
0
41
1
10
97.8849442459909
20
7.21917456221129
30
0
41
1
10
97.9893677813409
20
6.65324683444553
30
0
41
1
10
98.0415795490159
20
6.36067612760951
30
0
41
1
10
98.1460030843658
20
5.76069049811926
30
0
41
1
10
98.1982148520409
20
5.45328266374835
30
0
41
1
10
98.3026383873909
20
4.82821840348836
30
0
41
1
10
98.3548501550658
20
4.51056877826434
30
0
41
1
10
98.4592736904158
20
3.8696184147164
30
0
41
1
10
98.5114854580908
20
3.54632362431485
30
0
41
1
10
98.6681207611158
20
2.57457162154688
30
0
41
1
10
98.7725442964657
20
1.92449696159065
30
0
41
1
10
98.9291795994907
20
0.96891113209108
30
0
41
1
10
98.9813913671657
20
0.653579187609154
30
0
41
1
10
99.0466560767593
20
0.265304098598392
30
0
41
1
10
99.0597090186781
20
0.18794218091719
30
0
41
1
10
99.0858149025156
20
0.0338462821491134
30
0
41
1
10
99.0988678444344
20
-0.0427392132428963
30
0
41
1
10
99.1380266701906
20
-0.273955611410827
30
0
41
1
10
99.1641325540281
20
-0.42935374695287
30
0
41
1
10
99.2946619732156
20
-1.2117546437949
30
0
41
1
10
99.3990855085656
20
-1.85532434065215
30
0
41
1
10
99.5557208115905
20
-2.82648618785424
30
0
41
1
10
99.6079325792655
20
-3.15110545400046
30
0
41
1
10
99.7123561146154
20
-3.79799305910581
30
0
41
1
10
99.7645678822904
20
-4.12025634925399
30
0
41
1
10
99.8689914176404
20
-4.75796161237344
30
0
41
1
10
99.9212031853154
20
-5.07339737009895
30
0
41
1
10
100.025626720665
20
-5.69283242461469
30
0
41
1
10
100.07783848834
20
-5.99682478635256
30
0
41
1
10
100.18226202369
20
-6.58881232900018
30
0
41
1
10
100.234473791365
20
-6.87680045327335
30
0
41
1
10
100.338897326715
20
-7.43248555433897
30
0
41
1
10
100.39110909439
20
-7.70017602314886
30
0
41
1
10
100.49553262974
20
-8.21144471111882
30
0
41
1
10
100.547744397415
20
-8.45501760952354
30
0
41
1
10
100.652167932765
20
-8.9148827623776
30
0
41
1
10
100.70437970044
20
-9.13117138562612
30
0
41
1
10
100.80880323579
20
-9.53408836788429
30
0
41
1
10
100.861015003465
20
-9.72071507124932
30
0
41
1
10
100.965438538815
20
-10.0627975540211
30
0
41
1
10
101.01765030649
20
-10.218253686568
30
0
41
1
10
101.12207384184
20
-10.4973727524873
30
0
41
1
10
101.174285609515
20
-10.6210378419541
30
0
41
1
10
101.278709144865
20
-10.8368022813584
30
0
41
1
10
101.33092091254
20
-10.928905201805
30
0
41
1
10
101.383132680215
20
-11.0057200723555
30
0
0
SPLINE
5
F4
100
AcDbEntity
8
1
62
256
6
ByLayer
370
13
48
1
60
0
100
AcDbSpline
70
4
71
3
72
78
73
74
40
0
40
0
40
0
40
0
40
0.0312499999999986
40
0.0312499999999986
40
0.0624999999999971
40
0.0624999999999971
40
0.0781249999999966
40
0.0781249999999966
40
0.0859374999999963
40
0.0859374999999963
40
0.0937499999999961
40
0.0937499999999961
40
0.124999999999996
40
0.124999999999996
40
0.156249999999996
40
0.156249999999996
40
0.187499999999996
40
0.187499999999996
40
0.218749999999996
40
0.218749999999996
40
0.249999999999997
40
0.249999999999997
40
0.281249999999997
40
0.281249999999997
40
0.312499999999997
40
0.312499999999997
40
0.343749999999997
40
0.343749999999997
40
0.374999999999997
40
0.374999999999997
40
0.406249999999997
40
0.406249999999997
40
0.437499999999997
40
0.437499999999997
40
0.468749999999997
40
0.468749999999997
40
0.499999999999998
40
0.499999999999998
40
0.531249999999998
40
0.531249999999998
40
0.539062499999998
40
0.539062499999998
40
0.546874999999998
40
0.546874999999998
40
0.562499999999998
40
0.562499999999998
40
0.593749999999998
40
0.593749999999998
40
0.624999999999998
40
0.624999999999998
40
0.656249999999999
40
0.656249999999999
40
0.687499999999999
40
0.687499999999999
40
0.718749999999999
40
0.718749999999999
40
0.749999999999999
40
0.749999999999999
40
0.781249999999999
40
0.781249999999999
40
0.812499999999999
40
0.812499999999999
40
0.843749999999999
40
0.843749999999999
40
0.874999999999999
40
0.874999999999999
40
0.90625
40
0.90625
40
0.9375
40
0.9375
40
0.96875
40
0.96875
40
1
40
1
40
1
40
1
41
1
10
90.5
20
-10.8020469369219
30
0
41
1
10
90.5624041443575
20
-10.9222045658824
30
0
41
1
10
90.6248082887151
20
-11.0199241650865
30
0
41
1
10
90.7496165774301
20
-11.1725485008765
30
0
41
1
10
90.8120207217876
20
-11.2274647601241
30
0
41
1
10
90.9056269383239
20
-11.2801752321371
30
0
41
1
10
90.9368290105026
20
-11.2928095242466
30
0
41
1
10
90.9836321187707
20
-11.3047225341956
30
0
41
1
10
90.9992331548601
20
-11.3075208320241
30
0
41
1
10
91.0304352270389
20
-11.3108368335438
30
0
41
1
10
91.0460362631284
20
-11.3113580314344
30
0
41
1
10
91.1240414435752
20
-11.3083889454006
30
0
41
1
10
91.1864455879327
20
-11.2879929676832
30
0
41
1
10
91.3112538766477
20
-11.2071855135622
30
0
41
1
10
91.3736580210053
20
-11.1467619923
30
0
41
1
10
91.4984663097203
20
-10.9827715319871
30
0
41
1
10
91.5608704540778
20
-10.8791932598324
30
0
41
1
10
91.6856787427928
20
-10.6269908483859
30
0
41
1
10
91.7480828871504
20
-10.4783578115991
30
0
41
1
10
91.8728911758654
20
-10.1356792425303
30
0
41
1
10
91.935295320223
20
-9.94162895365244
30
0
41
1
10
92.060103608938
20
-9.50949632347661
30
0
41
1
10
92.1225077532955
20
-9.27141464214111
30
0
41
1
10
92.2473160420105
20
-8.75441253529382
30
0
41
1
10
92.309720186368
20
-8.47549864740438
30
0
41
1
10
92.4345284750831
20
-7.88173118902796
30
0
41
1
10
92.4969326194407
20
-7.56688946609933
30
0
41
1
10
92.6217409081556
20
-6.90759213416655
30
0
41
1
10
92.6841450525131
20
-6.5631521450444
30
0
41
1
10
92.8089533412282
20
-5.85199198529577
30
0
41
1
10
92.8713574855857
20
-5.48528903407978
30
0
41
1
10
92.9961657743007
20
-4.73744311563453
30
0
41
1
10
93.0585699186582
20
-4.35631666153574
30
0
41
1
10
93.1833782073733
20
-3.58745550941453
30
0
41
1
10
93.2457823517308
20
-3.19973467799346
30
0
41
1
10
93.3705906404458
20
-2.42504542993109
30
0
41
1
10
93.4329947848033
20
-2.03808699921859
30
0
41
1
10
93.5578030735185
20
-1.27145025053989
30
0
41
1
10
93.620207217876
20
-0.891777617709835
30
0
41
1
10
93.6982123983229
20
-0.425148630420495
30
0
41
1
10
93.7138134344122
20
-0.332218131501094
30
0
41
1
10
93.7450155065909
20
-0.147221521135975
30
0
41
1
10
93.7606165426803
20
-0.0553516922779522
30
0
41
1
10
93.8074196509484
20
0.220181270153347
30
0
41
1
10
93.8386217231273
20
0.405703562328426
30
0
41
1
10
93.9322279396634
20
0.966898960030335
30
0
41
1
10
93.9946320840211
20
1.34723574130689
30
0
41
1
10
94.1194403727361
20
2.11479996085686
30
0
41
1
10
94.1818445170936
20
2.50202143121555
30
0
41
1
10
94.3066528058087
20
3.27677198846891
30
0
41
1
10
94.3690569501662
20
3.66429081049114
30
0
41
1
10
94.4938652388811
20
4.43223935012526
30
0
41
1
10
94.5562693832387
20
4.81265497871189
30
0
41
1
10
94.6810776719537
20
5.55855468223268
30
0
41
1
10
94.7434818163113
20
5.92402213090412
30
0
41
1
10
94.8682901050263
20
6.63220383621803
30
0
41
1
10
94.9306942493839
20
6.97490090672042
30
0
41
1
10
95.0555025380989
20
7.63025647057265
30
0
41
1
10
95.1179066824564
20
7.94289953130709
30
0
41
1
10
95.2427149711714
20
8.53189634479699
30
0
41
1
10
95.3051191155289
20
8.80823856371319
30
0
41
1
10
95.4299274042439
20
9.3198300589728
30
0
41
1
10
95.4923315486014
20
9.55507318127627
30
0
41
1
10
95.6171398373165
20
9.98138020172539
30
0
41
1
10
95.679543981674
20
10.1724438237235
30
0
41
1
10
95.8043522703891
20
10.5091202993857
30
0
41
1
10
95.8667564147466
20
10.6547382304965
30
0
41
1
10
95.9915647034616
20
10.9009915516324
30
0
41
1
10
96.0539688478191
20
11.0016360555939
30
0
41
1
10
96.1787771365341
20
11.1599319343081
30
0
41
1
10
96.2411812808916
20
11.2175947407606
30
0
41
1
10
96.3659895696068
20
11.2931227550614
30
0
41
1
10
96.4283937139643
20
11.311
30
0
41
1
10
96.4907978583218
20
11.311
30
0
0
SPLINE
5
F5
100
AcDbEntity
8
1
62
256
6
ByLayer
370
13
48
1
60
0
100
AcDbSpline
70
4
71
3
72
78
73
74
40
0
40
0
40
0
40
0
40
0.0312500000000005
40
0.0312500000000005
40
0.062500000000001
40
0.062500000000001
40
0.0937500000000014
40
0.0937500000000014
40
0.125000000000002
40
0.125000000000002
40
0.156250000000002
40
0.156250000000002
40
0.187500000000003
40
0.187500000000003
40
0.218750000000003
40
0.218750000000003
40
0.250000000000004
40
0.250000000000004
40
0.281250000000004
40
0.281250000000004
40
0.312500000000004
40
0.312500000000004
40
0.343750000000005
40
0.343750000000005
40
0.375000000000005
40
0.375000000000005
40
0.406250000000005
40
0.406250000000005
40
0.437500000000006
40
0.437500000000006
40
0.468750000000006
40
0.468750000000006
40
0.484375000000006
40
0.484375000000006
40
0.492187500000006
40
0.492187500000006
40
0.500000000000006
40
0.500000000000006
40
0.531250000000006
40
0.531250000000006
40
0.562500000000005
40
0.562500000000005
40
0.593750000000005
40
0.593750000000005
40
0.625000000000004
40
0.625000000000004
40
0.656250000000004
40
0.656250000000004
40
0.687500000000004
40
0.687500000000004
40
0.718750000000003
40
0.718750000000003
40
0.750000000000003
40
0.750000000000003
40
0.781250000000002
40
0.781250000000002
40
0.812500000000002
40
0.812500000000002
40
0.843750000000002
40
0.843750000000002
40
0.875000000000001
40
0.875000000000001
40
0.906250000000001
40
0.906250000000001
40
0.9375
40
0.9375
40
0.96875
40
0.96875
40
0.984375
40
0.984375
40
0.9921875
40
0.9921875
40
1
40
1
40
1
40
1
41
1
10
95.8815694468114
20
11.311
30
0
41
1
10
95.9388773971593
20
11.311
30
0
41
1
10
95.9961853475074
20
11.2959272151037
30
0
41
1
10
96.1108012482033
20
11.2325015307594
30
0
41
1
10
96.1681091985513
20
11.1841407744927
30
0
41
1
10
96.2827250992472
20
11.0515698697957
30
0
41
1
10
96.340033049595
20
10.9673521090251
30
0
41
1
10
96.454648950291
20
10.7613130811716
30
0
41
1
10
96.511956900639
20
10.6394853739382
30
0
41
1
10
96.6265728013349
20
10.3575020342437
30
0
41
1
10
96.6838807516828
20
10.1973421037496
30
0
41
1
10
96.7984966523787
20
9.83916441234794
30
0
41
1
10
96.8558046027266
20
9.64114532387259
30
0
41
1
10
96.9704205034226
20
9.20900130563913
30
0
41
1
10
97.0277284537706
20
8.97487851165181
30
0
41
1
10
97.1423443544664
20
8.47355035197762
30
0
41
1
10
97.1996523048144
20
8.20635059555687
30
0
41
1
10
97.3142682055103
20
7.64304640898618
30
0
41
1
10
97.3715761558582
20
7.34695054118529
30
0
41
1
10
97.486192056554
20
6.7309715520683
30
0
41
1
10
97.5435000069021
20
6.41109897235108
30
0
41
1
10
97.6581159075981
20
5.75333277722766
30
0
41
1
10
97.7154238579459
20
5.41545044184969
30
0
41
1
10
97.8300397586418
20
4.72774743814392
30
0
41
1
10
97.8873477089899
20
4.37793752290685
30
0
41
1
10
98.0019636096858
20
3.67244320343434
30
0
41
1
10
98.0592715600337
20
3.31676796404815
30
0
41
1
10
98.1738874607296
20
2.60528535134063
30
0
41
1
10
98.2311954110775
20
2.24948485320536
30
0
41
1
10
98.3458113117734
20
1.5429296318944
30
0
41
1
10
98.4031192621213
20
1.19217920762131
30
0
41
1
10
98.4890811876433
20
0.67317173937127
30
0
41
1
10
98.5177351628173
20
0.501349500885425
30
0
41
1
10
98.5607161255783
20
0.24574536091194
30
0
41
1
10
98.5750431131652
20
0.160898443429062
30
0
41
1
10
98.6036970883393
20
-0.0080315787645304
30
0
41
1
10
98.6180240759262
20
-0.0921659141746431
30
0
41
1
10
98.6896590138612
20
-0.515981341263313
30
0
41
1
10
98.7469669642092
20
-0.861006031150879
30
0
41
1
10
98.861582864905
20
-1.55909089037448
30
0
41
1
10
98.918890815253
20
-1.91214840985086
30
0
41
1
10
99.0335067159489
20
-2.62158897735904
30
0
41
1
10
99.0908146662969
20
-2.97796682005799
30
0
41
1
10
99.2054305669927
20
-3.6886550862578
30
0
41
1
10
99.2627385173407
20
-4.04295778178854
30
0
41
1
10
99.3773544180366
20
-4.74361430236672
30
0
41
1
10
99.4346623683846
20
-5.08995830805384
30
0
41
1
10
99.5492782690804
20
-5.76859280486602
30
0
41
1
10
99.6065862194284
20
-6.10087222382455
30
0
41
1
10
99.7212021201243
20
-6.74536673422864
30
0
41
1
10
99.7785100704723
20
-7.05757065558922
30
0
41
1
10
99.8931259711682
20
-7.65633556636496
30
0
41
1
10
99.9504339215162
20
-7.94288657271906
30
0
41
1
10
100.065049822212
20
-8.4855215858216
30
0
41
1
10
100.12235777256
20
-8.74159797029012
30
0
41
1
10
100.236973673256
20
-9.21948264390227
30
0
41
1
10
100.294281623604
20
-9.44128650355773
30
0
41
1
10
100.4088975243
20
-9.84803160720389
30
0
41
1
10
100.466205474648
20
-10.0329719520308
30
0
41
1
10
100.580821375344
20
-10.364682816814
30
0
41
1
10
100.638129325692
20
-10.511455777905
30
0
41
1
10
100.752745226388
20
-10.7667876262657
30
0
41
1
10
100.810053176735
20
-10.8753516646576
30
0
41
1
10
100.924669077431
20
-11.0553676880447
30
0
41
1
10
100.981977027779
20
-11.1268266337768
30
0
41
1
10
101.096592928475
20
-11.2346954063245
30
0
41
1
10
101.153900878823
20
-11.271113029393
30
0
41
1
10
101.239862804345
20
-11.3015516553943
30
0
41
1
10
101.268516779519
20
-11.3076715601453
30
0
41
1
10
101.31149774228
20
-11.3111104258115
30
0
41
1
10
101.325824729867
20
-11.3113050491071
30
0
41
1
10
101.354478705041
20
-11.3098068986177
30
0
41
1
10
101.368805692628
20
-11.3081065712586
30
0
41
1
10
101.383132680215
20
-11.3054295299149
30
0
0
SPLINE
5
F6
100
AcDbEntity
8
1
62
256
6
ByLayer
370
13
48
1
60
0
100
AcDbSpline
70
4
71
3
72
77
73
73
40
0
40
0
40
0
40
0
40
0.0078124999999999
40
0.0078124999999999
40
0.0156249999999998
40
0.0156249999999998
40
0.0312499999999996
40
0.0312499999999996
40
0.0624999999999996
40
0.0624999999999996
40
0.0937499999999996
40
0.0937499999999996
40
0.125
40
0.125
40
0.15625
40
0.15625
40
0.1875
40
0.1875
40
0.21875
40
0.21875
40
0.25
40
0.25
40
0.28125
40
0.28125
40
0.3125
40
0.3125
40
0.34375
40
0.34375
40
0.375
40
0.375
40
0.40625
40
0.40625
40
0.4375
40
0.4375
40
0.46875
40
0.46875
40
0.5
40
0.5
40
0.5078125
40
0.5078125
40
0.515625
40
0.53125
40
0.53125
40
0.5625
40
0.5625
40
0.59375
40
0.59375
40
0.625
40
0.625
40
0.65625
40
0.65625
40
0.6875
40
0.6875
40
0.71875
40
0.71875
40
0.75
40
0.75
40
0.78125
40
0.78125
40
0.8125
40
0.8125
40
0.84375
40
0.84375
40
0.875
40
0.875
40
0.90625
40
0.90625
40
0.9375
40
0.9375
40
0.96875
40
0.96875
40
1
40
1
40
1
40
1
41
1
10
90.5
20
-11.3054293265584
30
0
41
1
10
90.5143269904211
20
-11.3081064178907
30
0
41
1
10
90.5286539808423
20
-11.3098067942173
30
0
41
1
10
90.5573079616845
20
-11.3113050405899
30
0
41
1
10
90.5716349521056
20
-11.3111104640663
30
0
41
1
10
90.614615923369
20
-11.3076717407733
30
0
41
1
10
90.6432699042114
20
-11.3015519319879
30
0
41
1
10
90.7292318467382
20
-11.2711135961688
30
0
41
1
10
90.7865398084227
20
-11.2346961696314
30
0
41
1
10
90.9011557317919
20
-11.1268277909297
30
0
41
1
10
90.9584636934764
20
-11.0553690425026
30
0
41
1
10
91.0730796168455
20
-10.875353408316
30
0
41
1
10
91.1303875785301
20
-10.7667895618054
30
0
41
1
10
91.2450035018991
20
-10.5114580851572
30
0
41
1
10
91.3023114635837
20
-10.3646853038799
30
0
41
1
10
91.4169273869528
20
-10.032974780075
30
0
41
1
10
91.4742353486374
20
-9.84803459639383
30
0
41
1
10
91.5888512720065
20
-9.44128979039112
30
0
41
1
10
91.646159233691
20
-9.21948606721614
30
0
41
1
10
91.7607751570602
20
-8.74160163707077
30
0
41
1
10
91.8180831187447
20
-8.48552535957586
30
0
41
1
10
91.9326990421139
20
-7.94289052769247
30
0
41
1
10
91.9900070037983
20
-7.65633959557792
30
0
41
1
10
92.1046229271674
20
-7.05757479921937
30
0
41
1
10
92.161930888852
20
-6.74537091803805
30
0
41
1
10
92.2765468122211
20
-6.10087645456542
30
0
41
1
10
92.3338547739056
20
-5.76859704236776
30
0
41
1
10
92.4484706972747
20
-5.0899625280959
30
0
41
1
10
92.5057786589593
20
-4.74361849820218
30
0
41
1
10
92.6203945823285
20
-4.04296190213941
30
0
41
1
10
92.6777025440128
20
-3.68865915534732
30
0
41
1
10
92.792318467382
20
-2.97797076446048
30
0
41
1
10
92.8496264290666
20
-2.62159284835246
30
0
41
1
10
92.9642423524357
20
-1.9121521172587
30
0
41
1
10
93.0215503141202
20
-1.55909450762024
30
0
41
1
10
93.1361662374893
20
-0.861009456719188
30
0
41
1
10
93.1934741991739
20
-0.515984665327181
30
0
41
1
10
93.2651091512796
20
-0.0921691074168507
30
0
41
1
10
93.2794361417007
20
-0.0080347439162551
30
0
41
1
10
93.3080901225429
20
0.160895292663554
30
0
41
1
10
93.3510710938065
20
0.415435253904235
30
0
41
1
10
93.3940520650697
20
0.673168639046253
30
0
41
1
10
93.4800140075965
20
1.19217616801728
30
0
41
1
10
93.5373219692812
20
1.54292664065844
30
0
41
1
10
93.6519378926502
20
2.249481974102
30
0
41
1
10
93.7092458543348
20
2.60528253600475
30
0
41
1
10
93.8238617777039
20
3.31676529034007
30
0
41
1
10
93.8811697393884
20
3.67244060758625
30
0
41
1
10
93.9957856627575
20
4.37793509459053
30
0
41
1
10
94.0530936244421
20
4.72774509949505
30
0
41
1
10
94.1677095478111
20
5.41544829115654
30
0
41
1
10
94.2250175094957
20
5.75333072481453
30
0
41
1
10
94.3396334328648
20
6.41109712120615
30
0
41
1
10
94.3969413945495
20
6.73096980390017
30
0
41
1
10
94.5115573179185
20
7.34694899934124
30
0
41
1
10
94.5688652796031
20
7.6430449704765
30
0
41
1
10
94.6834812029722
20
8.20634935969298
30
0
41
1
10
94.7407891646567
20
8.4735492154127
30
0
41
1
10
94.8554050880257
20
8.97487756560045
30
0
41
1
10
94.9127130497104
20
9.2090004507923
30
0
41
1
10
95.0273289730795
20
9.6411446399666
30
0
41
1
10
95.084636934764
20
9.83916380817192
30
0
41
1
10
95.199252858133
20
10.1973416451107
30
0
41
1
10
95.2565608198177
20
10.35750164141
30
0
41
1
10
95.3711767431868
20
10.6394850973921
30
0
41
1
10
95.4284847048713
20
10.7613128551104
30
0
41
1
10
95.5431006282404
20
10.9673519682605
30
0
41
1
10
95.6004085899249
20
11.0515697638485
30
0
41
1
10
95.715024513294
20
11.1841407230896
30
0
41
1
10
95.7723324749786
20
11.2325014990904
30
0
41
1
10
95.8869483983477
20
11.2959272091323
30
0
41
1
10
95.9442563600323
20
11.311
30
0
41
1
10
96.0015643217168
20
11.311
30
0
0
SPLINE
5
F7
100
AcDbEntity
8
1
62
256
6
ByLayer
370
13
48
1
60
0
100
AcDbSpline
70
4
71
3
72
77
73
73
40
0
40
0
40
0
40
0
40
0.0312500000000002
40
0.0312500000000002
40
0.0625000000000004
40
0.0625000000000004
40
0.0937500000000006
40
0.0937500000000006
40
0.125000000000001
40
0.125000000000001
40
0.156250000000001
40
0.156250000000001
40
0.187500000000001
40
0.187500000000001
40
0.218750000000001
40
0.218750000000001
40
0.250000000000001
40
0.250000000000001
40
0.281250000000002
40
0.281250000000002
40
0.312500000000002
40
0.312500000000002
40
0.343750000000002
40
0.343750000000002
40
0.375000000000002
40
0.375000000000002
40
0.406250000000002
40
0.406250000000002
40
0.437500000000002
40
0.437500000000002
40
0.453125000000002
40
0.453125000000002
40
0.460937500000002
40
0.460937500000002
40
0.468750000000002
40
0.468750000000002
40
0.500000000000002
40
0.500000000000002
40
0.531250000000002
40
0.531250000000002
40
0.562500000000002
40
0.562500000000002
40
0.593750000000001
40
0.593750000000001
40
0.625000000000001
40
0.625000000000001
40
0.656250000000001
40
0.656250000000001
40
0.687500000000001
40
0.687500000000001
40
0.71875
40
0.71875
40
0.75
40
0.75
40
0.78125
40
0.78125
40
0.8125
40
0.8125
40
0.843749999999999
40
0.843749999999999
40
0.874999999999999
40
0.874999999999999
40
0.906249999999999
40
0.906249999999999
40
0.914062499999999
40
0.914062499999999
40
0.921874999999999
40
0.937499999999999
40
0.937499999999999
40
0.96875
40
0.96875
40
1
40
1
40
1
40
1
41
1
10
95.3923359102064
20
11.311
30
0
41
1
10
95.4547400432274
20
11.311
30
0
41
1
10
95.5171441762483
20
11.2931227615673
30
0
41
1
10
95.6419524422901
20
11.2175947754168
30
0
41
1
10
95.704356575311
20
11.1599319906197
30
0
41
1
10
95.829164841353
20
11.0016361718225
30
0
41
1
10
95.8915689743739
20
10.9009917061324
30
0
41
1
10
96.0163772404156
20
10.6547384786151
30
0
41
1
10
96.0787813734365
20
10.5091206028579
30
0
41
1
10
96.2035896394784
20
10.1724442541957
30
0
41
1
10
96.2659937724994
20
9.98138070384516
30
0
41
1
10
96.3908020385412
20
9.55507384082699
30
0
41
1
10
96.4532061715622
20
9.31983080430143
30
0
41
1
10
96.578014437604
20
8.80823949126551
30
0
41
1
10
96.6404185706249
20
8.53189736878309
30
0
41
1
10
96.7652268366667
20
7.94290075431266
30
0
41
1
10
96.8276309696876
20
7.6302577961473
30
0
41
1
10
96.9524392357294
20
6.97490243845641
30
0
41
1
10
97.0148433687503
20
6.63220547152807
30
0
41
1
10
97.1396516347922
20
5.92402396917726
30
0
41
1
10
97.2020557678132
20
5.55855661987832
30
0
41
1
10
97.326864033855
20
4.81265710616341
30
0
41
1
10
97.3892681668759
20
4.43224156799806
30
0
41
1
10
97.5140764329178
20
3.66429319640622
30
0
41
1
10
97.5764805659387
20
3.27677445199879
30
0
41
1
10
97.7012888319806
20
2.50202403448441
30
0
41
1
10
97.7636929650015
20
2.11480262624974
30
0
41
1
10
97.8885012310434
20
1.34723851403157
30
0
41
1
10
97.9509053640642
20
0.966901777967507
30
0
41
1
10
98.0445115635957
20
0.405706435221816
30
0
41
1
10
98.0757136301061
20
0.220184159230541
30
0
41
1
10
98.1225167298718
20
-0.0553487820779424
30
0
41
1
10
98.138117763127
20
-0.147218572958337
30
0
41
1
10
98.1693198296375
20
-0.332215131195113
30
0
41
1
10
98.1849208628928
20
-0.425145604276338
30
0
41
1
10
98.2629260291689
20
-0.891774463729888
30
0
41
1
10
98.3253301621897
20
-1.27144699860642
30
0
41
1
10
98.4501384282316
20
-2.03808356617208
30
0
41
1
10
98.5125425612526
20
-2.42504191374258
30
0
41
1
10
98.6373508272943
20
-3.19973101678517
30
0
41
1
10
98.6997549603153
20
-3.58745178635047
30
0
41
1
10
98.8245632263572
20
-4.35631284217575
30
0
41
1
10
98.8869673593781
20
-4.73743926185799
30
0
41
1
10
99.0117756254199
20
-5.48528514401818
30
0
41
1
10
99.0741797584409
20
-5.85198809338675
30
0
41
1
10
99.1989880244828
20
-6.56314828541375
30
0
41
1
10
99.2613921575036
20
-6.90758830867571
30
0
41
1
10
99.3862004235455
20
-7.56688574603504
30
0
41
1
10
99.4486045565665
20
-7.88172754025399
30
0
41
1
10
99.5734128226082
20
-8.47549517700304
30
0
41
1
10
99.6358169556292
20
-8.75440917196681
30
0
41
1
10
99.760625221671
20
-9.271411524934
30
0
41
1
10
99.8230293546919
20
-9.50949334529693
30
0
41
1
10
99.9478376207337
20
-9.94162627961282
30
0
41
1
10
100.010241753755
20
-10.1356767335786
30
0
41
1
10
100.135050019796
20
-10.4783556516169
30
0
41
1
10
100.197454152817
20
-10.6269888722586
30
0
41
1
10
100.322262418859
20
-10.8791916622979
30
0
41
1
10
100.38466655188
20
-10.9827701291665
30
0
41
1
10
100.509474817922
20
-11.1467609820312
30
0
41
1
10
100.571878950943
20
-11.2071847011132
30
0
41
1
10
100.696687216985
20
-11.2879925470244
30
0
41
1
10
100.759091350006
20
-11.3083887187017
30
0
41
1
10
100.837096516282
20
-11.3113580411815
30
0
41
1
10
100.852697549537
20
-11.3108368904927
30
0
41
1
10
100.883899616048
20
-11.307520986514
30
0
41
1
10
100.930702715813
20
-11.2991269744468
30
0
41
1
10
100.977505815579
20
-11.2801756959219
30
0
41
1
10
101.07111201511
20
-11.2274655561579
30
0
41
1
10
101.133516148131
20
-11.1725495357894
30
0
41
1
10
101.258324414173
20
-11.0199257087221
30
0
41
1
10
101.320728547194
20
-10.9222063793646
30
0
41
1
10
101.383132680215
20
-10.8020490324398
30
0
0
SPLINE
5
F8
100
AcDbEntity
8
1
62
256
6
ByLayer
370
13
48
1
60
0
100
AcDbSpline
70
4
71
3
72
66
73
62
40
0
40
0
40
0
40
0
40
0.0312499999999993
40
0.0312499999999993
40
0.0624999999999987
40
0.0624999999999987
40
0.093749999999998
40
0.093749999999998
40
0.124999999999997
40
0.124999999999997
40
0.156249999999997
40
0.156249999999997
40
0.187499999999996
40
0.187499999999996
40
0.218749999999995
40
0.218749999999995
40
0.249999999999995
40
0.249999999999995
40
0.281249999999994
40
0.281249999999994
40
0.312499999999993
40
0.312499999999993
40
0.343749999999993
40
0.343749999999993
40
0.374999999999992
40
0.374999999999992
40
0.437499999999991
40
0.437499999999991
40
0.45312499999999
40
0.45312499999999
40
0.46093749999999
40
0.46093749999999
40
0.46874999999999
40
0.46874999999999
40
0.49999999999999
40
0.49999999999999
40
0.562499999999991
40
0.562499999999991
40
0.593749999999991
40
0.593749999999991
40
0.624999999999992
40
0.624999999999992
40
0.656249999999993
40
0.656249999999993
40
0.687499999999993
40
0.687499999999993
40
0.718749999999994
40
0.718749999999994
40
0.749999999999995
40
0.749999999999995
40
0.781249999999995
40
0.781249999999995
40
0.812499999999996
40
0.812499999999996
40
0.843749999999996
40
0.843749999999996
40
0.874999999999997
40
0.874999999999997
40
0.937499999999998
40
0.937499999999998
40
1
40
1
40
1
40
1
41
1
10
90.5
20
-11.0057216734989
30
0
41
1
10
90.5522117790116
20
-10.9289069983148
30
0
41
1
10
90.6044235580232
20
-10.8368042712101
30
0
41
1
10
90.7088471160463
20
-10.6210402089933
30
0
41
1
10
90.7610588950579
20
-10.4973753033606
30
0
41
1
10
90.8654824530811
20
-10.2182565900823
30
0
41
1
10
90.9176942320927
20
-10.0628006263293
30
0
41
1
10
91.0221177901158
20
-9.72071846089904
30
0
41
1
10
91.0743295691275
20
-9.53409190606882
30
0
41
1
10
91.1787531271506
20
-9.13117519611515
30
0
41
1
10
91.2309649061622
20
-8.9148866966257
30
0
41
1
10
91.3353884641853
20
-8.45502176306158
30
0
41
1
10
91.3876002431969
20
-8.21144896018069
30
0
41
1
10
91.4920238012199
20
-7.70018043289227
30
0
41
1
10
91.5442355802316
20
-7.43249002923758
30
0
41
1
10
91.6486591382547
20
-6.87680502745044
30
0
41
1
10
91.7008709172664
20
-6.58881693730282
30
0
41
1
10
91.8052944752895
20
-5.99682943268493
30
0
41
1
10
91.8575062543011
20
-5.69283707485775
30
0
41
1
10
91.9619298123243
20
-5.07340200009401
30
0
41
1
10
92.0141415913359
20
-4.75796621821951
30
0
41
1
10
92.118565149359
20
-4.12026088197712
30
0
41
1
10
92.1707769283706
20
-3.79799754286637
30
0
41
1
10
92.2752004863937
20
-3.15110981902529
30
0
41
1
10
92.3274122654053
20
-2.82649048311745
30
0
41
1
10
92.4840476024401
20
-1.85532840206676
30
0
41
1
10
92.5884711604632
20
-1.21175851668795
30
0
41
1
10
92.7190006079921
20
-0.429357365504416
30
0
41
1
10
92.745106497498
20
-0.273959178150761
30
0
41
1
10
92.7842653317567
20
-0.0427427012277235
30
0
41
1
10
92.7973182765097
20
0.033842811878884
30
0
41
1
10
92.8234241660155
20
0.187938725295823
30
0
41
1
10
92.8364771107683
20
0.265300650741949
30
0
41
1
10
92.9017418345328
20
0.65357578079653
30
0
41
1
10
92.9539536135443
20
0.968907765237987
30
0
41
1
10
93.1105889505791
20
1.92449373607934
30
0
41
1
10
93.2150125086022
20
2.57456851925323
30
0
41
1
10
93.371647845637
20
3.54632074459144
30
0
41
1
10
93.4238596246485
20
3.86961561538209
30
0
41
1
10
93.5282831826718
20
4.51056615005524
30
0
41
1
10
93.5804949616833
20
4.82821586601193
30
0
41
1
10
93.6849185197065
20
5.45328031535962
30
0
41
1
10
93.7371302987182
20
5.76068824807965
30
0
41
1
10
93.8415538567413
20
6.36067407863268
30
0
41
1
10
93.8937656357529
20
6.65324488817461
30
0
41
1
10
93.9981891937759
20
7.21917282213232
30
0
41
1
10
94.0504009727875
20
7.49252323152439
30
0
41
1
10
94.1548245308107
20
8.01604779858124
30
0
41
1
10
94.2070363098223
20
8.26621627176053
30
0
41
1
10
94.3114598678454
20
8.7400239887516
30
0
41
1
10
94.3636716468571
20
8.96365912542055
30
0
41
1
10
94.4680952048802
20
9.38180563730222
30
0
41
1
10
94.5203069838918
20
9.57631483037821
30
0
41
1
10
94.624730541915
20
9.93446884317086
30
0
41
1
10
94.6769423209266
20
10.0981135052967
30
0
41
1
10
94.7813658789497
20
10.3936870036391
30
0
41
1
10
94.8335776579613
20
10.5256175591018
30
0
41
1
10
94.9902129949961
20
10.873855713505
30
0
41
1
10
95.0946365530192
20
11.0422826889875
30
0
41
1
10
95.3034836690655
20
11.2607783051974
30
0
41
1
10
95.4079072270886
20
11.311
30
0
41
1
10
95.5123307851118
20
11.311
30
0
0
SPLINE
5
F9
100
AcDbEntity
8
1
62
256
6
ByLayer
370
13
48
1
60
0
100
AcDbSpline
70
4
71
3
72
79
73
75
40
0
40
0
40
0
40
0
40
0.0312499999999998
40
0.0312499999999998
40
0.0624999999999995
40
0.0624999999999995
40
0.0937499999999993
40
0.0937499999999993
40
0.124999999999999
40
0.124999999999999
40
0.156249999999999
40
0.156249999999999
40
0.187499999999999
40
0.187499999999999
40
0.218749999999998
40
0.218749999999998
40
0.249999999999998
40
0.249999999999998
40
0.281249999999998
40
0.281249999999998
40
0.312499999999997
40
0.312499999999997
40
0.343749999999997
40
0.343749999999997
40
0.374999999999997
40
0.374999999999997
40
0.406249999999997
40
0.406249999999997
40
0.414062499999997
40
0.417968749999996
40
0.417968749999996
40
0.421874999999996
40
0.421874999999996
40
0.437499999999996
40
0.437499999999996
40
0.468749999999997
40
0.468749999999997
40
0.499999999999997
40
0.499999999999997
40
0.531249999999997
40
0.531249999999997
40
0.562499999999998
40
0.562499999999998
40
0.593749999999998
40
0.593749999999998
40
0.624999999999999
40
0.624999999999999
40
0.656249999999999
40
0.656249999999999
40
0.6875
40
0.6875
40
0.71875
40
0.71875
40
0.75
40
0.75
40
0.781250000000001
40
0.781250000000001
40
0.812500000000001
40
0.812500000000001
40
0.828125000000001
40
0.828125000000001
40
0.835937500000001
40
0.835937500000001
40
0.843750000000001
40
0.843750000000001
40
0.875000000000001
40
0.875000000000001
40
0.906250000000001
40
0.906250000000001
40
0.937500000000001
40
0.937500000000001
40
0.96875
40
0.96875
40
1
40
1
40
1
40
1
41
1
10
94.9031023736014
20
11.311
30
0
41
1
10
94.9706026892953
20
11.311
30
0
41
1
10
95.0381030049892
20
11.2900777850848
30
0
41
1
10
95.1731036363771
20
11.2013393964311
30
0
41
1
10
95.240603952071
20
11.1335054040782
30
0
41
1
10
95.3756045834588
20
10.9470571951488
30
0
41
1
10
95.4431048991527
20
10.8284264534325
30
0
41
1
10
95.5781055305405
20
10.5382205864279
30
0
41
1
10
95.6456058462344
20
10.3666332276412
30
0
41
1
10
95.7806064776221
20
9.97051538441036
30
0
41
1
10
95.848106793316
20
9.74597981700057
30
0
41
1
10
95.9831074247037
20
9.24640257419441
30
0
41
1
10
96.0506077403976
20
8.97136485124426
30
0
41
1
10
96.1856083717854
20
8.3756790110051
30
0
41
1
10
96.2531086874793
20
8.05504408579662
30
0
41
1
10
96.3881093188671
20
7.37526000227589
30
0
41
1
10
96.455609634561
20
7.0161315450741
30
0
41
1
10
96.5906102659487
20
6.26814005420016
30
0
41
1
10
96.6581105816426
20
5.87930193128028
30
0
41
1
10
96.7931112130304
20
5.08165607746903
30
0
41
1
10
96.8606115287243
20
4.6728734761916
30
0
41
1
10
96.995612160112
20
3.84532264149709
30
0
41
1
10
97.063112475806
20
3.42657611841469
30
0
41
1
10
97.1981131071939
20
2.58858443981927
30
0
41
1
10
97.2656134228877
20
2.16935510463003
30
0
41
1
10
97.4006140542755
20
1.33881658511817
30
0
41
1
10
97.4681143699694
20
0.927516367388961
30
0
41
1
10
97.5524897645867
20
0.422701449740515
30
0
41
1
10
97.577802382972
20
0.271949540593539
30
0
41
1
10
97.6031150013571
20
0.122341342583638
30
0
41
1
10
97.6199900802806
20
0.0228676111184996
30
0
41
1
10
97.6284276197422
20
-0.0266726978250347
30
0
41
1
10
97.670615317051
20
-0.275390868750293
30
0
41
1
10
97.704365474898
20
-0.476488202741308
30
0
41
1
10
97.8056159484388
20
-1.08502861967412
30
0
41
1
10
97.8731162641327
20
-1.49776756051102
30
0
41
1
10
98.0081168955205
20
-2.33018085889117
30
0
41
1
10
98.0756172112143
20
-2.74984536855064
30
0
41
1
10
98.2106178426021
20
-3.58754241012662
30
0
41
1
10
98.278118158296
20
-4.00555828076526
30
0
41
1
10
98.4131187896837
20
-4.83038297420703
30
0
41
1
10
98.4806191053777
20
-5.23716948019273
30
0
41
1
10
98.6156197367655
20
-6.02954340886765
30
0
41
1
10
98.6831200524593
20
-6.41510550962218
30
0
41
1
10
98.8181206838471
20
-7.15534790874528
30
0
41
1
10
98.8856209995409
20
-7.51000361711795
30
0
41
1
10
99.0206216309288
20
-8.17982377653479
30
0
41
1
10
99.0881219466227
20
-8.49496833064478
30
0
41
1
10
99.2231225780105
20
-9.07891243145338
30
0
41
1
10
99.2906228937044
20
-9.34769991352769
30
0
41
1
10
99.4256235250921
20
-9.83432220758846
30
0
41
1
10
99.4931238407861
20
-10.0521542770835
30
0
41
1
10
99.6281244721739
20
-10.4347302504821
30
0
41
1
10
99.6956247878677
20
-10.599480287985
30
0
41
1
10
99.8306254192554
20
-10.8761744832038
30
0
41
1
10
99.8981257349494
20
-10.9881315952493
30
0
41
1
10
100.033126366337
20
-11.1616444691313
30
0
41
1
10
100.100626682031
20
-11.2232170837606
30
0
41
1
10
100.201877155572
20
-11.2808258955488
30
0
41
1
10
100.235627313419
20
-11.2942484889251
30
0
41
1
10
100.286252550189
20
-11.3061751743666
30
0
41
1
10
100.303127629113
20
-11.3087833678479
30
0
41
1
10
100.33687778696
20
-11.3113475332585
30
0
41
1
10
100.353752865883
20
-11.3113144561152
30
0
41
1
10
100.4381282605
20
-11.304565182272
30
0
41
1
10
100.505628576194
20
-11.2778934102615
30
0
41
1
10
100.640629207582
20
-11.1770795073318
30
0
41
1
10
100.708129523276
20
-11.1029195695436
30
0
41
1
10
100.843130154664
20
-10.9034352996262
30
0
41
1
10
100.910630470358
20
-10.7780948202018
30
0
41
1
10
101.045631101745
20
-10.4743408865175
30
0
41
1
10
101.113131417439
20
-10.2959159677534
30
0
41
1
10
101.248132048827
20
-9.88629614608914
30
0
41
1
10
101.315632364521
20
-9.6550972428478
30
0
41
1
10
101.383132680215
20
-9.39889170628402
30
0
0
SPLINE
5
FA
100
AcDbEntity
8
1
62
256
6
ByLayer
370
13
48
1
60
0
100
AcDbSpline
70
4
71
3
72
42
73
38
40
0
40
0
40
0
40
0
40
0.0625000000000001
40
0.0625000000000001
40
0.125
40
0.125
40
0.1875
40
0.1875
40
0.250000000000001
40
0.250000000000001
40
0.312500000000001
40
0.312500000000001
40
0.375000000000001
40
0.375000000000001
40
0.390625
40
0.390625
40
0.40625
40
0.40625
40
0.4375
40
0.4375
40
0.5
40
0.5
40
0.5625
40
0.5625
40
0.625
40
0.625
40
0.6875
40
0.6875
40
0.75
40
0.75
40
0.8125
40
0.8125
40
0.875
40
0.875
40
0.9375
40
0.9375
40
1
40
1
40
1
40
1
41
1
10
90.5
20
-9.82773513196594
30
0
41
1
10
90.5942311926773
20
-9.51213215721265
30
0
41
1
10
90.6884623853545
20
-9.14572282796496
30
0
41
1
10
90.876924770709
20
-8.32284608920386
30
0
41
1
10
90.9711559633861
20
-7.86644506527483
30
0
41
1
10
91.1596183487407
20
-6.88359662860285
30
0
41
1
10
91.2538495414178
20
-6.35726761658944
30
0
41
1
10
91.4423119267723
20
-5.26017570647304
30
0
41
1
10
91.5365431194495
20
-4.68954689684261
30
0
41
1
10
91.7250055048039
20
-3.531129202638
30
0
41
1
10
91.8192366974812
20
-2.94345167374974
30
0
41
1
10
92.0076990828356
20
-1.77604902966391
30
0
41
1
10
92.1019302755128
20
-1.19638914808189
30
0
41
1
10
92.2197192663594
20
-0.489428819356846
30
0
41
1
10
92.2432770645286
20
-0.348903477327326
30
0
41
1
10
92.2903926608673
20
-0.0698426140986612
30
0
41
1
10
92.3139504590366
20
0.0681624367486222
30
0
41
1
10
92.3846238535446
20
0.48672967404562
30
0
41
1
10
92.4317394498831
20
0.769768012755776
30
0
41
1
10
92.573086238899
20
1.62764534166132
30
0
41
1
10
92.6673174315762
20
2.21141075552734
30
0
41
1
10
92.8557798169306
20
3.38117206979499
30
0
41
1
10
92.9500110096079
20
3.96709022598907
30
0
41
1
10
93.1384733949624
20
5.11528173877832
30
0
41
1
10
93.2327045876395
20
5.67743510471806
30
0
41
1
10
93.421166972994
20
6.75088270251331
30
0
41
1
10
93.5153981656713
20
7.26204289096884
30
0
41
1
10
93.7038605510257
20
8.20888881455903
30
0
41
1
10
93.7980917437029
20
8.64446623556785
30
0
41
1
10
93.9865541290573
20
9.42192252612338
30
0
41
1
10
94.0807853217345
20
9.76375151971752
30
0
41
1
10
94.269247707089
20
10.3443608737625
30
0
41
1
10
94.3634788997663
20
10.5831593133203
30
0
41
1
10
94.5519412851207
20
10.9577191505663
30
0
41
1
10
94.6461724777979
20
11.0935507580284
30
0
41
1
10
94.8346348631523
20
11.2701447436827
30
0
41
1
10
94.9288660558296
20
11.311
30
0
41
1
10
95.0230972485068
20
11.311
30
0
0
SPLINE
5
FB
100
AcDbEntity
8
1
62
256
6
ByLayer
370
13
48
1
60
0
100
AcDbSpline
70
4
71
3
72
76
73
72
40
0
40
0
40
0
40
0
40
0.0312500000000001
40
0.0312500000000001
40
0.0625000000000003
40
0.0625000000000003
40
0.0937500000000004
40
0.0937500000000004
40
0.125000000000001
40
0.125000000000001
40
0.156250000000001
40
0.156250000000001
40
0.187500000000001
40
0.187500000000001
40
0.218750000000001
40
0.218750000000001
40
0.250000000000001
40
0.250000000000001
40
0.281250000000001
40
0.281250000000001
40
0.312500000000001
40
0.312500000000001
40
0.343750000000001
40
0.343750000000001
40
0.375000000000002
40
0.375000000000002
40
0.390625000000002
40
0.390625000000002
40
0.406250000000001
40
0.406250000000001
40
0.437500000000002
40
0.437500000000002
40
0.468750000000002
40
0.468750000000002
40
0.500000000000002
40
0.500000000000002
40
0.531250000000002
40
0.531250000000002
40
0.562500000000002
40
0.562500000000002
40
0.593750000000002
40
0.593750000000002
40
0.625000000000002
40
0.625000000000002
40
0.656250000000002
40
0.656250000000002
40
0.687500000000003
40
0.687500000000003
40
0.718750000000003
40
0.718750000000003
40
0.750000000000003
40
0.750000000000003
40
0.765625000000003
40
0.765625000000003
40
0.773437500000003
40
0.773437500000003
40
0.781250000000003
40
0.781250000000003
40
0.812500000000003
40
0.812500000000003
40
0.843750000000002
40
0.843750000000002
40
0.875000000000002
40
0.875000000000002
40
0.906250000000001
40
0.906250000000001
40
0.937500000000001
40
0.937500000000001
40
0.96875
40
0.96875
40
1
40
1
40
1
40
1
41
1
10
94.4138688369965
20
11.311
30
0
41
1
10
94.4864653353634
20
11.311
30
0
41
1
10
94.5590618337303
20
11.2867917973425
30
0
41
1
10
94.7042548304639
20
11.1837240695466
30
0
41
1
10
94.7768513288307
20
11.1048389342406
30
0
41
1
10
94.9220443255645
20
10.8877890700001
30
0
41
1
10
94.9946408239314
20
10.7496012432284
30
0
41
1
10
95.1398338206652
20
10.4117205002877
30
0
41
1
10
95.2124303190319
20
10.2120120114342
30
0
41
1
10
95.3576233157658
20
9.75186703736455
30
0
41
1
10
95.4302198141326
20
9.49142698954742
30
0
41
1
10
95.5754128108662
20
8.91390173600846
30
0
41
1
10
95.648009309233
20
8.596827347676
30
0
41
1
10
95.7932023059668
20
7.91331959862887
30
0
41
1
10
95.8657988043337
20
7.54691055414716
30
0
41
1
10
96.0109918010674
20
6.77468915990818
30
0
41
1
10
96.0835882994343
20
6.36891044781802
30
0
41
1
10
96.2287812961679
20
5.52968649888555
30
0
41
1
10
96.3013777945348
20
5.09627794152527
30
0
41
1
10
96.4465707912685
20
4.21423186486436
30
0
41
1
10
96.5191672896354
20
3.76562761582363
30
0
41
1
10
96.6643602863691
20
2.8652549491346
30
0
41
1
10
96.736956784736
20
2.41351157135298
30
0
41
1
10
96.8821497814697
20
1.51766142631385
30
0
41
1
10
96.9547462798365
20
1.07356924268186
30
0
41
1
10
97.0636410273868
20
0.419860650540073
30
0
41
1
10
97.0999392765704
20
0.204156055699741
30
0
41
1
10
97.1725357749372
20
-0.22280256282798
30
0
41
1
10
97.2088340241205
20
-0.438782999873013
30
0
41
1
10
97.3177287716708
20
-1.09284853908352
30
0
41
1
10
97.3903252700376
20
-1.53712117210364
30
0
41
1
10
97.5355182667714
20
-2.43318757418143
30
0
41
1
10
97.6081147651383
20
-2.88496660415049
30
0
41
1
10
97.7533077618721
20
-3.78524241866236
30
0
41
1
10
97.8259042602389
20
-4.23371402084641
30
0
41
1
10
97.9710972569726
20
-5.11531410838907
30
0
41
1
10
98.0436937553394
20
-5.54840923363216
30
0
41
1
10
98.1888867520731
20
-6.38682770056795
30
0
41
1
10
98.2614832504399
20
-6.79211435875766
30
0
41
1
10
98.4066762471738
20
-7.56319124424374
30
0
41
1
10
98.4792727455407
20
-7.92894792747865
30
0
41
1
10
98.6244657422743
20
-8.61102358408209
30
0
41
1
10
98.6970622406411
20
-8.92731841489532
30
0
41
1
10
98.8422552373748
20
-9.50320092258031
30
0
41
1
10
98.9148517357417
20
-9.76277799369223
30
0
41
1
10
99.0600447324755
20
-10.221161870369
30
0
41
1
10
99.1326412308423
20
-10.4199724373082
30
0
41
1
10
99.2778342275761
20
-10.7560690747819
30
0
41
1
10
99.3504307259429
20
-10.8933708629658
30
0
41
1
10
99.4956237226766
20
-11.108700367878
30
0
41
1
10
99.5682202210435
20
-11.1867512543688
30
0
41
1
10
99.6771149685937
20
-11.2628617937629
30
0
41
1
10
99.7134132177772
20
-11.2814208093255
30
0
41
1
10
99.7678605915523
20
-11.299598352301
30
0
41
1
10
99.7860097161441
20
-11.3040480981781
30
0
41
1
10
99.8223079653275
20
-11.3098290795712
30
0
41
1
10
99.8404570899191
20
-11.3111606785084
30
0
41
1
10
99.9312027128777
20
-11.310280411497
30
0
41
1
10
100.003799211245
20
-11.2853181055403
30
0
41
1
10
100.148992207978
20
-11.180661028118
30
0
41
1
10
100.221588706345
20
-11.1009406497735
30
0
41
1
10
100.366781703079
20
-10.8821689497385
30
0
41
1
10
100.439378201446
20
-10.7430946032236
30
0
41
1
10
100.58457119818
20
-10.4034294343762
30
0
41
1
10
100.657167696546
20
-10.2028231853048
30
0
41
1
10
100.80236069328
20
-9.74091814541015
30
0
41
1
10
100.874957191647
20
-9.47961599128331
30
0
41
1
10
101.020150188381
20
-8.9004504196588
30
0
41
1
10
101.092746686748
20
-8.58259803099432
30
0
41
1
10
101.237939683481
20
-7.89766187627544
30
0
41
1
10
101.310536181848
20
-7.53060259922359
30
0
41
1
10
101.383132680215
20
-7.14392196693925
30
0
0
SPLINE
5
FC
100
AcDbEntity
8
1
62
256
6
ByLayer
370
13
48
1
60
0
100
AcDbSpline
70
4
71
3
72
44
73
40
40
0
40
0
40
0
40
0
40
0.0625000000000007
40
0.0625000000000007
40
0.125000000000001
40
0.125000000000001
40
0.187500000000002
40
0.187500000000002
40
0.250000000000003
40
0.250000000000003
40
0.312500000000003
40
0.312500000000003
40
0.320312500000004
40
0.320312500000004
40
0.328125000000004
40
0.328125000000004
40
0.343750000000004
40
0.343750000000004
40
0.375000000000004
40
0.375000000000004
40
0.437500000000004
40
0.437500000000004
40
0.500000000000003
40
0.500000000000003
40
0.562500000000003
40
0.562500000000003
40
0.625000000000003
40
0.625000000000003
40
0.687500000000002
40
0.687500000000002
40
0.750000000000002
40
0.750000000000002
40
0.812500000000001
40
0.812500000000001
40
0.875000000000001
40
0.875000000000001
40
0.937500000000001
40
0.937500000000001
40
1
40
1
40
1
40
1
41
1
10
90.5000000000001
20
-7.7643839435635
30
0
41
1
10
90.5840388273314
20
-7.34353719457846
30
0
41
1
10
90.6680776546626
20
-6.89252765748657
30
0
41
1
10
90.8361553093251
20
-5.94721604183255
30
0
41
1
10
90.9201941366565
20
-5.45298924203939
30
0
41
1
10
91.0882717913191
20
-4.44041540472762
30
0
41
1
10
91.1723106186503
20
-3.92213994491328
30
0
41
1
10
91.3403882733129
20
-2.88038561830183
30
0
41
1
10
91.4244271006443
20
-2.35696001049746
30
0
41
1
10
91.5925047553068
20
-1.3216436252327
30
0
41
1
10
91.676543582638
20
-0.809781101657933
30
0
41
1
10
91.7710872633858
20
-0.247916095725913
30
0
41
1
10
91.7815921168022
20
-0.185678402722516
30
0
41
1
10
91.8026018236351
20
-0.0616082257119785
30
0
41
1
10
91.8131066770513
20
8.45837516295E-05
30
0
41
1
10
91.8446212373005
20
0.185783249997428
30
0
41
1
10
91.8656309441334
20
0.310407231851599
30
0
41
1
10
91.9286600646319
20
0.686491412253275
30
0
41
1
10
91.9706794782976
20
0.940171280537754
30
0
41
1
10
92.0967377192945
20
1.70771168882422
30
0
41
1
10
92.1807765466258
20
2.22817595990051
30
0
41
1
10
92.3488542012884
20
3.27131163822779
30
0
41
1
10
92.4328930286197
20
3.79393988942965
30
0
41
1
10
92.6009706832823
20
4.82323904636508
30
0
41
1
10
92.6850095106135
20
5.32984463044852
30
0
41
1
10
92.8530871652761
20
6.30778714997246
30
0
41
1
10
92.9371259926073
20
6.77904819623171
30
0
41
1
10
93.10520364727
20
7.66801465539862
30
0
41
1
10
93.1892424746013
20
8.08565109587951
30
0
41
1
10
93.3573201292638
20
8.85234957631818
30
0
41
1
10
93.4413589565951
20
9.20136661990705
30
0
41
1
10
93.6094366112578
20
9.82084737335592
30
0
41
1
10
93.693475438589
20
10.0912998033809
30
0
41
1
10
93.8615530932516
20
10.549584553522
30
0
41
1
10
93.9455919205828
20
10.7374382802112
30
0
41
1
10
94.1136695752454
20
11.0322048630997
30
0
41
1
10
94.1977084025767
20
11.1391617697477
30
0
41
1
10
94.3657860572393
20
11.2785328812776
30
0
41
1
10
94.4498248845706
20
11.311
30
0
41
1
10
94.5338637119019
20
11.311
30
0
0
SPLINE
5
FD
100
AcDbEntity
8
1
62
256
6
ByLayer
370
13
48
1
60
0
100
AcDbSpline
70
4
71
3
72
8
73
4
40
0
40
0
40
0
40
0
40
1
40
1
40
1
40
1
41
1
10
101.383132680215
20
10.3312929942805
30
0
41
1
10
102.75542178681
20
6.89384761925373
30
0
41
1
10
104.127710893405
20
3.45005408653248
30
0
41
1
10
105.5
20
2.84E-14
30
0
0
SPLINE
5
FE
100
AcDbEntity
8
1
62
256
6
ByLayer
370
13
48
1
60
0
100
AcDbSpline
70
4
71
3
72
8
73
4
40
0
40
0
40
0
40
0
40
1
40
1
40
1
40
1
41
1
10
101.383132680215
20
10.7510981136665
30
0
41
1
10
102.75542178681
20
7.16257565665347
30
0
41
1
10
104.127710893405
20
3.57884592976075
30
0
41
1
10
105.5
20
-4.263E-13
30
0
0
SPLINE
5
FF
100
AcDbEntity
8
1
62
256
6
ByLayer
370
13
48
1
60
0
100
AcDbSpline
70
4
71
3
72
8
73
4
40
0
40
0
40
0
40
0
40
1
40
1
40
1
40
1
41
1
10
101.383132680215
20
-11.2959110715693
30
0
41
1
10
102.75542178681
20
-7.53140886610032
30
0
41
1
10
104.127710893405
20
-3.76607326505183
30
0
41
1
10
105.5
20
-1.705E-13
30
0
0
SPLINE
5
100
100
AcDbEntity
8
1
62
256
6
ByLayer
370
13
48
1
60
0
100
AcDbSpline
70
4
71
3
72
8
73
4
40
0
40
0
40
0
40
0
40
1
40
1
40
1
40
1
41
1
10
101.383132680215
20
2.11312868062746
30
0
41
1
10
102.75542178681
20
1.39350377083124
30
0
41
1
10
104.127710893405
20
0.689121617943528
30
0
41
1
10
105.5
20
-8.53E-14
30
0
0
SPLINE
5
101
100
AcDbEntity
8
1
62
256
6
ByLayer
370
13
48
1
60
0
100
AcDbSpline
70
4
71
3
72
8
73
4
40
0
40
0
40
0
40
0
40
1
40
1
40
1
40
1
41
1
10
101.383132680215
20
3.32090942783839
30
0
41
1
10
102.75542178681
20
2.22877750247673
30
0
41
1
10
104.127710893405
20
1.12179827050465
30
0
41
1
10
105.5
20
-2.84E-14
30
0
0
SPLINE
5
102
100
AcDbEntity
8
1
62
256
6
ByLayer
370
13
48
1
60
0
100
AcDbSpline
70
4
71
3
72
8
73
4
40
0
40
0
40
0
40
0
40
1
40
1
40
1
40
1
41
1
10
101.383132680215
20
11.2515476551895
30
0
41
1
10
102.75542178681
20
7.49944240317529
30
0
41
1
10
104.127710893405
20
3.74889473965621
30
0
41
1
10
105.5
20
-4.547E-13
30
0
0
SPLINE
5
103
100
AcDbEntity
8
1
62
256
6
ByLayer
370
13
48
1
60
0
100
AcDbSpline
70
4
71
3
72
8
73
4
40
0
40
0
40
0
40
0
40
1
40
1
40
1
40
1
41
1
10
101.383132680215
20
5.53532587980266
30
0
41
1
10
102.75542178681
20
3.703753540245
30
0
41
1
10
104.127710893405
20
1.85862923942855
30
0
41
1
10
105.5
20
-5.68E-14
30
0
0
SPLINE
5
104
100
AcDbEntity
8
1
62
256
6
ByLayer
370
13
48
1
60
0
100
AcDbSpline
70
4
71
3
72
8
73
4
40
0
40
0
40
0
40
0
40
1
40
1
40
1
40
1
41
1
10
101.383132680215
20
4.41833060903616
30
0
41
1
10
102.75542178681
20
2.9312649820377
30
0
41
1
10
104.127710893405
20
1.45847567198845
30
0
41
1
10
105.5
20
-1.705E-13
30
0
0
SPLINE
5
105
100
AcDbEntity
8
1
62
256
6
ByLayer
370
13
48
1
60
0
100
AcDbSpline
70
4
71
3
72
8
73
4
40
0
40
0
40
0
40
0
40
1
40
1
40
1
40
1
41
1
10
101.383132680215
20
11.0721015705796
30
0
41
1
10
102.75542178681
20
7.38457435629016
30
0
41
1
10
104.127710893405
20
3.69384254774693
30
0
41
1
10
105.5
20
2.84E-14
30
0
0
SPLINE
5
106
100
AcDbEntity
8
1
62
256
6
ByLayer
370
13
48
1
60
0
100
AcDbSpline
70
4
71
3
72
8
73
4
40
0
40
0
40
0
40
0
40
1
40
1
40
1
40
1
41
1
10
101.383132680215
20
-7.8926244512727
30
0
41
1
10
102.75542178681
20
-5.27286815733237
30
0
41
1
10
104.127710893405
20
-2.64197101404792
30
0
41
1
10
105.5
20
-1.137E-13
30
0
0
SPLINE
5
107
100
AcDbEntity
8
1
62
256
6
ByLayer
370
13
48
1
60
0
100
AcDbSpline
70
4
71
3
72
8
73
4
40
0
40
0
40
0
40
0
40
1
40
1
40
1
40
1
41
1
10
101.383132680215
20
0.955857423657847
30
0
41
1
10
102.75542178681
20
0.652704720835061
30
0
41
1
10
104.127710893405
20
0.334082835856918
30
0
41
1
10
105.5
20
-2.84E-14
30
0
0
SPLINE
5
108
100
AcDbEntity
8
1
62
256
6
ByLayer
370
13
48
1
60
0
100
AcDbSpline
70
4
71
3
72
8
73
4
40
0
40
0
40
0
40
0
40
1
40
1
40
1
40
1
41
1
10
101.383132680215
20
-2.67591690207575
30
0
41
1
10
102.75542178681
20
-1.79902593940011
30
0
41
1
10
104.127710893405
20
-0.907046037278292
30
0
41
1
10
105.5
20
1.137E-13
30
0
0
SPLINE
5
109
100
AcDbEntity
8
1
62
256
6
ByLayer
370
13
48
1
60
0
100
AcDbSpline
70
4
71
3
72
8
73
4
40
0
40
0
40
0
40
0
40
1
40
1
40
1
40
1
41
1
10
101.383132680215
20
9.09923983174338
30
0
41
1
10
102.75542178681
20
6.05693972297621
30
0
41
1
10
104.127710893405
20
3.02383410191862
30
0
41
1
10
105.5
20
-3.695E-13
30
0
0
SPLINE
5
10A
100
AcDbEntity
8
1
62
256
6
ByLayer
370
13
48
1
60
0
100
AcDbSpline
70
4
71
3
72
8
73
4
40
0
40
0
40
0
40
0
40
1
40
1
40
1
40
1
41
1
10
101.383132680215
20
-0.24976750641892
30
0
41
1
10
102.75542178681
20
-0.150993493630836
30
0
41
1
10
104.127710893405
20
-0.0677369964592458
30
0
41
1
10
105.5
20
0
30
0
0
SPLINE
5
10B
100
AcDbEntity
8
1
62
256
6
ByLayer
370
13
48
1
60
0
100
AcDbSpline
70
4
71
3
72
8
73
4
40
0
40
0
40
0
40
0
40
1
40
1
40
1
40
1
41
1
10
101.383132680215
20
10.762896534927
30
0
41
1
10
102.75542178681
20
7.18003763090522
30
0
41
1
10
104.127710893405
20
3.59237503649064
30
0
41
1
10
105.5
20
2.84E-14
30
0
0
SPLINE
5
10C
100
AcDbEntity
8
1
62
256
6
ByLayer
370
13
48
1
60
0
100
AcDbSpline
70
4
71
3
72
8
73
4
40
0
40
0
40
0
40
0
40
1
40
1
40
1
40
1
41
1
10
101.383132680215
20
7.47004430267054
30
0
41
1
10
102.75542178681
20
4.96837419010899
30
0
41
1
10
104.127710893405
20
2.47833835437763
30
0
41
1
10
105.5
20
-2.842E-13
30
0
0
SPLINE
5
10D
100
AcDbEntity
8
1
62
256
6
ByLayer
370
13
48
1
60
0
100
AcDbSpline
70
4
71
3
72
8
73
4
40
0
40
0
40
0
40
0
40
1
40
1
40
1
40
1
41
1
10
101.383132680215
20
-1.49039513098407
30
0
41
1
10
102.75542178681
20
-1.00898337958151
30
0
41
1
10
104.127710893405
20
-0.512180749111565
30
0
41
1
10
105.5
20
5.68E-14
30
0
0
SPLINE
5
10E
100
AcDbEntity
8
1
62
256
6
ByLayer
370
13
48
1
60
0
100
AcDbSpline
70
4
71
3
72
8
73
4
40
0
40
0
40
0
40
0
40
1
40
1
40
1
40
1
41
1
10
101.383132680215
20
-11.2938759664945
30
0
41
1
10
102.75542178681
20
-7.52839685698237
30
0
41
1
10
104.127710893405
20
-3.76373963471656
30
0
41
1
10
105.5
20
-1.705E-13
30
0
0
SPLINE
5
10F
100
AcDbEntity
8
1
62
256
6
ByLayer
370
13
48
1
60
0
100
AcDbSpline
70
4
71
3
72
8
73
4
40
0
40
0
40
0
40
0
40
1
40
1
40
1
40
1
41
1
10
101.383132680215
20
-5.96545262580713
30
0
41
1
10
102.75542178681
20
-3.9637807191782
30
0
41
1
10
104.127710893405
20
-1.9752796968435
30
0
41
1
10
105.5
20
-8.53E-14
30
0
0
SPLINE
5
110
100
AcDbEntity
8
1
62
256
6
ByLayer
370
13
48
1
60
0
100
AcDbSpline
70
4
71
3
72
8
73
4
40
0
40
0
40
0
40
0
40
1
40
1
40
1
40
1
41
1
10
101.383132680215
20
-11.1694860894158
30
0
41
1
10
102.75542178681
20
-7.44877170236617
30
0
41
1
10
104.127710893405
20
-3.72557811450599
30
0
41
1
10
105.5
20
-1.705E-13
30
0
0
SPLINE
5
111
100
AcDbEntity
8
1
62
256
6
ByLayer
370
13
48
1
60
0
100
AcDbSpline
70
4
71
3
72
8
73
4
40
0
40
0
40
0
40
0
40
1
40
1
40
1
40
1
41
1
10
101.383132680215
20
-7.8652398497363
30
0
41
1
10
102.75542178681
20
-5.23233822571265
30
0
41
1
10
104.127710893405
20
-2.61056942321275
30
0
41
1
10
105.5
20
-1.137E-13
30
0
0
SPLINE
5
112
100
AcDbEntity
8
1
62
256
6
ByLayer
370
13
48
1
60
0
100
AcDbSpline
70
4
71
3
72
8
73
4
40
0
40
0
40
0
40
0
40
1
40
1
40
1
40
1
41
1
10
101.383132680215
20
6.52311825767347
30
0
41
1
10
102.75542178681
20
4.33606480755867
30
0
41
1
10
104.127710893405
20
2.16167366456352
30
0
41
1
10
105.5
20
-2.558E-13
30
0
0
SPLINE
5
113
100
AcDbEntity
8
1
62
256
6
ByLayer
370
13
48
1
60
0
100
AcDbSpline
70
4
71
3
72
8
73
4
40
0
40
0
40
0
40
0
40
1
40
1
40
1
40
1
41
1
10
101.383132680215
20
10.3156963064737
30
0
41
1
10
102.75542178681
20
6.87076411046195
30
0
41
1
10
104.127710893405
20
3.43216955356684
30
0
41
1
10
105.500000000001
20
-1.5348E-12
30
0
0
SPLINE
5
114
100
AcDbEntity
8
1
62
256
6
ByLayer
370
13
48
1
60
0
100
AcDbSpline
70
4
71
3
72
8
73
4
40
0
40
0
40
0
40
0
40
1
40
1
40
1
40
1
41
1
10
101.383132680215
20
-5.99784628652696
30
0
41
1
10
102.75542178681
20
-4.01172419033412
30
0
41
1
10
104.127710893405
20
-2.0124251151623
30
0
41
1
10
105.5
20
2.274E-13
30
0
0
SPLINE
5
115
100
AcDbEntity
8
1
62
256
6
ByLayer
370
13
48
1
60
0
100
AcDbSpline
70
4
71
3
72
8
73
4
40
0
40
0
40
0
40
0
40
1
40
1
40
1
40
1
41
1
10
101.383132680215
20
7.49866144903891
30
0
41
1
10
102.75542178681
20
5.01072832054717
30
0
41
1
10
104.127710893405
20
2.51115328944047
30
0
41
1
10
105.5
20
-8.53E-14
30
0
0
SPLINE
5
116
100
AcDbEntity
8
1
62
256
6
ByLayer
370
13
48
1
60
0
100
AcDbSpline
70
4
71
3
72
8
73
4
40
0
40
0
40
0
40
0
40
1
40
1
40
1
40
1
41
1
10
101.383132680215
20
-8.68614143547939
30
0
41
1
10
102.75542178681
20
-5.78081875622263
30
0
41
1
10
104.127710893405
20
-2.8854137695308
30
0
41
1
10
105.5
20
-1.421E-13
30
0
0
SPLINE
5
117
100
AcDbEntity
8
1
62
256
6
ByLayer
370
13
48
1
60
0
100
AcDbSpline
70
4
71
3
72
8
73
4
40
0
40
0
40
0
40
0
40
1
40
1
40
1
40
1
41
1
10
101.383132680215
20
-10.5384513484492
30
0
41
1
10
102.75542178681
20
-7.03127228074561
30
0
41
1
10
104.127710893405
20
-3.51842538005184
30
0
41
1
10
105.5
20
-1.705E-13
30
0
0
SPLINE
5
118
100
AcDbEntity
8
1
62
256
6
ByLayer
370
13
48
1
60
0
100
AcDbSpline
70
4
71
3
72
8
73
4
40
0
40
0
40
0
40
0
40
1
40
1
40
1
40
1
41
1
10
101.383132680215
20
-2.63881771678726
30
0
41
1
10
102.75542178681
20
-1.74411816793264
30
0
41
1
10
104.127710893405
20
-0.864504850940591
30
0
41
1
10
105.5
20
2.84E-14
30
0
0
SPLINE
5
119
100
AcDbEntity
8
1
62
256
6
ByLayer
370
13
48
1
60
0
100
AcDbSpline
70
4
71
3
72
8
73
4
40
0
40
0
40
0
40
0
40
1
40
1
40
1
40
1
41
1
10
101.383132680215
20
-4.94253074579728
30
0
41
1
10
102.75542178681
20
-3.30898215542916
30
0
41
1
10
104.127710893405
20
-1.6614579059181
30
0
41
1
10
105.5
20
1.99E-13
30
0
0
SPLINE
5
11A
100
AcDbEntity
8
1
62
256
6
ByLayer
370
13
48
1
60
0
100
AcDbSpline
70
4
71
3
72
8
73
4
40
0
40
0
40
0
40
0
40
1
40
1
40
1
40
1
41
1
10
101.383132680215
20
-10.5245277860823
30
0
41
1
10
102.75542178681
20
-7.01066504167801
30
0
41
1
10
104.127710893405
20
-3.50245939976068
30
0
41
1
10
105.5
20
-1.705E-13
30
0
0
SPLINE
5
11B
100
AcDbEntity
8
1
62
256
6
ByLayer
370
13
48
1
60
0
100
AcDbSpline
70
4
71
3
72
8
73
4
40
0
40
0
40
0
40
0
40
1
40
1
40
1
40
1
41
1
10
101.383132680215
20
0.917821096189016
30
0
41
1
10
102.75542178681
20
0.596409954255051
30
0
41
1
10
104.127710893405
20
0.290467039933702
30
0
41
1
10
105.500000000001
20
-1.421E-13
30
0
0
SPLINE
5
11C
100
AcDbEntity
8
1
62
256
6
ByLayer
370
13
48
1
60
0
100
AcDbSpline
70
4
71
3
72
8
73
4
40
0
40
0
40
0
40
0
40
1
40
1
40
1
40
1
41
1
10
101.383132680215
20
-8.71053915703985
30
0
41
1
10
102.75542178681
20
-5.81692802679967
30
0
41
1
10
104.127710893405
20
-2.91339034128163
30
0
41
1
10
105.5
20
-1.421E-13
30
0
0
SPLINE
5
11D
100
AcDbEntity
8
1
62
256
6
ByLayer
370
13
48
1
60
0
100
AcDbSpline
70
4
71
3
72
8
73
4
40
0
40
0
40
0
40
0
40
1
40
1
40
1
40
1
41
1
10
101.383132680215
20
6.55426206496176
30
0
41
1
10
102.75542178681
20
4.38215846271379
30
0
41
1
10
104.127710893405
20
2.19738589109434
30
0
41
1
10
105.5
20
-8.53E-14
30
0
0
SPLINE
5
11E
100
AcDbEntity
8
1
62
256
6
ByLayer
370
13
48
1
60
0
100
AcDbSpline
70
4
71
3
72
8
73
4
40
0
40
0
40
0
40
0
40
1
40
1
40
1
40
1
41
1
10
101.383132680215
20
-10.0233891710541
30
0
41
1
10
102.75542178681
20
-6.67506697780823
30
0
41
1
10
104.127710893405
20
-3.33390896075076
30
0
41
1
10
105.5
20
-1.705E-13
30
0
0
SPLINE
5
11F
100
AcDbEntity
8
1
62
256
6
ByLayer
370
13
48
1
60
0
100
AcDbSpline
70
4
71
3
72
8
73
4
40
0
40
0
40
0
40
0
40
1
40
1
40
1
40
1
41
1
10
101.383132680215
20
4.45344050525529
30
0
41
1
10
102.75542178681
20
2.98322855328226
30
0
41
1
10
104.127710893405
20
1.49873576464952
30
0
41
1
10
105.5
20
-5.68E-14
30
0
0
SPLINE
5
120
100
AcDbEntity
8
1
62
256
6
ByLayer
370
13
48
1
60
0
100
AcDbSpline
70
4
71
3
72
8
73
4
40
0
40
0
40
0
40
0
40
1
40
1
40
1
40
1
41
1
10
101.383132680215
20
-11.1634039179444
30
0
41
1
10
102.75542178681
20
-7.43976992837631
30
0
41
1
10
104.127710893405
20
-3.71860376216134
30
0
41
1
10
105.5
20
-1.705E-13
30
0
0
SPLINE
5
121
100
AcDbEntity
8
1
62
256
6
ByLayer
370
13
48
1
60
0
100
AcDbSpline
70
4
71
3
72
8
73
4
40
0
40
0
40
0
40
0
40
1
40
1
40
1
40
1
41
1
10
101.383132680215
20
-3.79507408644631
30
0
41
1
10
102.75542178681
20
-2.51542719276674
30
0
41
1
10
104.127710893405
20
-1.25039181840745
30
0
41
1
10
105.5
20
-5.68E-14
30
0
0
SPLINE
5
122
100
AcDbEntity
8
1
62
256
6
ByLayer
370
13
48
1
60
0
100
AcDbSpline
70
4
71
3
72
8
73
4
40
0
40
0
40
0
40
0
40
1
40
1
40
1
40
1
41
1
10
101.383132680215
20
9.78219925821566
30
0
41
1
10
102.75542178681
20
6.52925894981391
30
0
41
1
10
104.127710893405
20
3.26849820934356
30
0
41
1
10
105.5
20
2.84E-14
30
0
0
SPLINE
5
123
100
AcDbEntity
8
1
62
256
6
ByLayer
370
13
48
1
60
0
100
AcDbSpline
70
4
71
3
72
8
73
4
40
0
40
0
40
0
40
0
40
1
40
1
40
1
40
1
41
1
10
101.383132680215
20
8.33201902885497
30
0
41
1
10
102.75542178681
20
5.5441819077825
30
0
41
1
10
104.127710893405
20
2.76681872517864
30
0
41
1
10
105.5
20
-3.411E-13
30
0
0
SPLINE
5
124
100
AcDbEntity
8
1
62
256
6
ByLayer
370
13
48
1
60
0
100
AcDbSpline
70
4
71
3
72
8
73
4
40
0
40
0
40
0
40
0
40
1
40
1
40
1
40
1
41
1
10
101.383132680215
20
11.0642355906313
30
0
41
1
10
102.75542178681
20
7.37293249876643
30
0
41
1
10
104.127710893405
20
3.68482272383156
30
0
41
1
10
105.5
20
7.958E-13
30
0
0
SPLINE
5
125
100
AcDbEntity
8
1
62
256
6
ByLayer
370
13
48
1
60
0
100
AcDbSpline
70
4
71
3
72
8
73
4
40
0
40
0
40
0
40
0
40
1
40
1
40
1
40
1
41
1
10
101.383132680215
20
3.28440520702034
30
0
41
1
10
102.75542178681
20
2.17475029409749
30
0
41
1
10
104.127710893405
20
1.07993932271737
30
0
41
1
10
105.5
20
-1.421E-13
30
0
0
SPLINE
5
126
100
AcDbEntity
8
1
62
256
6
ByLayer
370
13
48
1
60
0
100
AcDbSpline
70
4
71
3
72
8
73
4
40
0
40
0
40
0
40
0
40
1
40
1
40
1
40
1
41
1
10
101.383132680215
20
2.15061209039394
30
0
41
1
10
102.75542178681
20
1.4489802046472
30
0
41
1
10
104.127710893405
20
0.732103389835629
30
0
41
1
10
105.5
20
-8.53E-14
30
0
0
SPLINE
5
127
100
AcDbEntity
8
1
62
256
6
ByLayer
370
13
48
1
60
0
100
AcDbSpline
70
4
71
3
72
8
73
4
40
0
40
0
40
0
40
0
40
1
40
1
40
1
40
1
41
1
10
101.383132680215
20
9.76298167352002
30
0
41
1
10
102.75542178681
20
6.50081641824818
30
0
41
1
10
104.127710893405
20
3.24646163778172
30
0
41
1
10
105.5
20
6.821E-13
30
0
0
SPLINE
5
128
100
AcDbEntity
8
1
62
256
6
ByLayer
370
13
48
1
60
0
100
AcDbSpline
70
4
71
3
72
8
73
4
40
0
40
0
40
0
40
0
40
1
40
1
40
1
40
1
41
1
10
101.383132680215
20
-0.287924192417705
30
0
41
1
10
102.75542178681
20
-0.207466394005536
30
0
41
1
10
104.127710893405
20
-0.111490806050597
30
0
41
1
10
105.5
20
0
30
0
0
SPLINE
5
129
100
AcDbEntity
8
1
62
256
6
ByLayer
370
13
48
1
60
0
100
AcDbSpline
70
4
71
3
72
8
73
4
40
0
40
0
40
0
40
0
40
1
40
1
40
1
40
1
41
1
10
101.383132680215
20
11.255391739822
30
0
41
1
10
102.75542178681
20
7.50513174969004
30
0
41
1
10
104.127710893405
20
3.75330270493635
30
0
41
1
10
105.5
20
2.84E-14
30
0
0
SPLINE
5
12A
100
AcDbEntity
8
1
62
256
6
ByLayer
370
13
48
1
60
0
100
AcDbSpline
70
4
71
3
72
8
73
4
40
0
40
0
40
0
40
0
40
1
40
1
40
1
40
1
41
1
10
101.383132680215
20
-9.40826192429199
30
0
41
1
10
102.75542178681
20
-6.26355828744795
30
0
41
1
10
104.127710893405
20
-3.12744442758807
30
0
41
1
10
105.5
20
-1.421E-13
30
0
0
SPLINE
5
12B
100
AcDbEntity
8
1
62
256
6
ByLayer
370
13
48
1
60
0
100
AcDbSpline
70
4
71
3
72
8
73
4
40
0
40
0
40
0
40
0
40
1
40
1
40
1
40
1
41
1
10
101.383132680215
20
8.35778407254884
30
0
41
1
10
102.75542178681
20
5.58231485113439
30
0
41
1
10
104.127710893405
20
2.79636318865607
30
0
41
1
10
105.5
20
-1.137E-13
30
0
0
SPLINE
5
12C
100
AcDbEntity
8
1
62
256
6
ByLayer
370
13
48
1
60
0
100
AcDbSpline
70
4
71
3
72
8
73
4
40
0
40
0
40
0
40
0
40
1
40
1
40
1
40
1
41
1
10
101.383132680215
20
-3.83100743867223
30
0
41
1
10
102.75542178681
20
-2.56860950059195
30
0
41
1
10
104.127710893405
20
-1.29159615809547
30
0
41
1
10
105.5
20
1.421E-13
30
0
0
SPLINE
5
12D
100
AcDbEntity
8
1
62
256
6
ByLayer
370
13
48
1
60
0
100
AcDbSpline
70
4
71
3
72
8
73
4
40
0
40
0
40
0
40
0
40
1
40
1
40
1
40
1
41
1
10
101.383132680215
20
-6.9548926769337
30
0
41
1
10
102.75542178681
20
-4.62435416152363
30
0
41
1
10
104.127710893405
20
-2.30603699120633
30
0
41
1
10
105.5
20
-1.137E-13
30
0
0
SPLINE
5
12E
100
AcDbEntity
8
1
62
256
6
ByLayer
370
13
48
1
60
0
100
AcDbSpline
70
4
71
3
72
8
73
4
40
0
40
0
40
0
40
0
40
1
40
1
40
1
40
1
41
1
10
101.383132680215
20
-10.0410178835494
30
0
41
1
10
102.75542178681
20
-6.7011579366644
30
0
41
1
10
104.127710893405
20
-3.35412359180876
30
0
41
1
10
105.5
20
-1.705E-13
30
0
0
SPLINE
5
12F
100
AcDbEntity
8
1
62
256
6
ByLayer
370
13
48
1
60
0
100
AcDbSpline
70
4
71
3
72
8
73
4
40
0
40
0
40
0
40
0
40
1
40
1
40
1
40
1
41
1
10
101.383132680215
20
-4.90817187021588
30
0
41
1
10
102.75542178681
20
-3.25813011451157
30
0
41
1
10
104.127710893405
20
-1.62205899952454
30
0
41
1
10
105.5
20
5.68E-14
30
0
0
SPLINE
5
130
100
AcDbEntity
8
1
62
256
6
ByLayer
370
13
48
1
60
0
100
AcDbSpline
70
4
71
3
72
8
73
4
40
0
40
0
40
0
40
0
40
1
40
1
40
1
40
1
41
1
10
101.383132680215
20
-6.98495273351716
30
0
41
1
10
102.75542178681
20
-4.66884383708796
30
0
41
1
10
104.127710893405
20
-2.34050649393257
30
0
41
1
10
105.5
20
-1.137E-13
30
0
0
SPLINE
5
131
100
AcDbEntity
8
1
62
256
6
ByLayer
370
13
48
1
60
0
100
AcDbSpline
70
4
71
3
72
8
73
4
40
0
40
0
40
0
40
0
40
1
40
1
40
1
40
1
41
1
10
101.383132680215
20
-1.45255201437672
30
0
41
1
10
102.75542178681
20
-0.95297457016602
30
0
41
1
10
104.127710893405
20
-0.468786505742713
30
0
41
1
10
105.5
20
5.68E-14
30
0
0
SPLINE
5
132
100
AcDbEntity
8
1
62
256
6
ByLayer
370
13
48
1
60
0
100
AcDbSpline
70
4
71
3
72
8
73
4
40
0
40
0
40
0
40
0
40
1
40
1
40
1
40
1
41
1
10
101.383132680215
20
9.12185976587384
30
0
41
1
10
102.75542178681
20
6.09041782132806
30
0
41
1
10
104.127710893405
20
3.04977210636076
30
0
41
1
10
105.5
20
2.84E-14
30
0
0
SPLINE
5
133
100
AcDbEntity
8
1
62
256
6
ByLayer
370
13
48
1
60
0
100
AcDbSpline
70
4
71
3
72
8
73
4
40
0
40
0
40
0
40
0
40
1
40
1
40
1
40
1
41
1
10
101.383132680215
20
-9.42939530853641
30
0
41
1
10
102.75542178681
20
-6.2948362528104
30
0
41
1
10
104.127710893405
20
-3.15167782328393
30
0
41
1
10
105.5
20
-1.421E-13
30
0
0
SPLINE
5
134
100
AcDbEntity
8
1
62
256
6
ByLayer
370
13
48
1
60
0
100
AcDbSpline
70
4
71
3
72
8
73
4
40
0
40
0
40
0
40
0
40
1
40
1
40
1
40
1
41
1
10
101.383132680215
20
-10.9059786885506
30
0
41
1
10
102.75542178681
20
-7.2665359691463
30
0
41
1
10
104.127710893405
20
-3.63117894446236
30
0
41
1
10
105.5
20
-1.705E-13
30
0
0
SPLINE
5
135
100
AcDbEntity
8
1
62
256
6
ByLayer
370
13
48
1
60
0
100
AcDbSpline
70
4
71
3
72
8
73
4
40
0
40
0
40
0
40
0
40
1
40
1
40
1
40
1
41
1
10
101.383132680215
20
5.50200958720495
30
0
41
1
10
102.75542178681
20
3.65444454960598
30
0
41
1
10
104.127710893405
20
1.82042585031178
30
0
41
1
10
105.5
20
-2.274E-13
30
0
0
SPLINE
5
136
100
AcDbEntity
8
1
62
256
6
ByLayer
370
13
48
1
60
0
100
AcDbSpline
70
4
71
3
72
8
73
4
40
0
40
0
40
0
40
0
40
1
40
1
40
1
40
1
41
1
10
101.383132680215
20
-10.9160387583565
30
0
41
1
10
102.75542178681
20
-7.28142513745433
30
0
41
1
10
104.127710893405
20
-3.6427147046376
30
0
41
1
10
105.5
20
-1.705E-13
30
0
0
LINE
5
7D
100
AcDbEntity
8
4
62
256
6
ByLayer
370
18
48
0.05
60
0
100
AcDbLine
10
-5
20
0
30
0
11
110.5
21
0
31
0
39
0
210
0
220
0
230
1
0
LINE
5
7F
100
AcDbEntity
8
81
62
256
6
ByLayer
370
18
48
1
60
0
100
AcDbLine
10
105.5
20
0
30
0
11
110.5
21
0
31
0
39
0
210
0
220
0
230
1
0
LINE
5
80
100
AcDbEntity
8
SK4
62
256
6
ByLayer
370
18
48
0.05
60
0
100
AcDbLine
10
-61
20
0
30
0
11
110.5
21
0
31
0
39
0
210
0
220
0
230
1
0
LINE
5
82
100
AcDbEntity
8
80
62
256
6
ByLayer
370
18
48
1
60
0
100
AcDbLine
10
0
20
0
30
0
11
-5
21
0
31
0
39
0
210
0
220
0
230
1
0
LINE
5
83
100
AcDbEntity
8
1
62
256
6
ByLayer
370
18
48
1
60
0
100
AcDbLine
10
10
20
-10.7
30
0
11
47.504827
21
-10.7
31
0
39
0
210
0
220
0
230
1
0
LINE
5
84
100
AcDbEntity
8
1
62
256
6
ByLayer
370
18
48
1
60
0
100
AcDbLine
10
47.504827
20
10.7
30
0
11
10
21
10.7
31
0
39
0
210
0
220
0
230
1
0
LINE
5
85
100
AcDbEntity
8
1
62
256
6
ByLayer
370
18
48
1
60
0
100
AcDbLine
10
105.5
20
0
30
0
11
101.383133
21
11.311
31
0
39
0
210
0
220
0
230
1
0
LINE
5
86
100
AcDbEntity
8
1
62
256
6
ByLayer
370
18
48
1
60
0
100
AcDbLine
10
101.383133
20
-11.311
30
0
11
105.5
21
0
31
0
39
0
210
0
220
0
230
1
0
LINE
5
87
100
AcDbEntity
8
1
62
256
6
ByLayer
370
18
48
1
60
0
100
AcDbLine
10
10
20
10.7
30
0
11
0
21
12.7
31
0
39
0
210
0
220
0
230
1
0
LINE
5
88
100
AcDbEntity
8
1
62
256
6
ByLayer
370
18
48
1
60
0
100
AcDbLine
10
0
20
-12.7
30
0
11
10
21
-10.7
31
0
39
0
210
0
220
0
230
1
0
LINE
5
89
100
AcDbEntity
8
1
62
256
6
ByLayer
370
18
48
1
60
0
100
AcDbLine
10
101.383133
20
11.311
30
0
11
90.5
21
11.311
31
0
39
0
210
0
220
0
230
1
0
LINE
5
8A
100
AcDbEntity
8
1
62
256
6
ByLayer
370
18
48
1
60
0
100
AcDbLine
10
90.5
20
-11.311
30
0
11
101.383133
21
-11.311
31
0
39
0
210
0
220
0
230
1
0
LINE
5
8B
100
AcDbEntity
8
1
62
256
6
ByLayer
370
18
48
1
60
0
100
AcDbLine
10
105.5
20
0
30
0
11
101.383133
21
11.311
31
0
39
0
210
0
220
0
230
1
0
LINE
5
8C
100
AcDbEntity
8
1
62
256
6
ByLayer
370
18
48
1
60
0
100
AcDbLine
10
101.383133
20
-11.311
30
0
11
105.5
21
0
31
0
39
0
210
0
220
0
230
1
0
LINE
5
8D
100
AcDbEntity
8
SK1
62
256
6
ByLayer
370
18
48
1
60
0
100
AcDbLine
10
-55
20
-12.7
30
0
11
0
21
-12.7
31
0
39
0
210
0
220
0
230
1
0
LINE
5
8F
100
AcDbEntity
8
SK1
62
256
6
ByLayer
370
18
48
1
60
0
100
AcDbLine
10
0
20
12.7
30
0
11
-55
21
12.7
31
0
39
0
210
0
220
0
230
1
0
LINE
5
90
100
AcDbEntity
8
SK1
62
256
6
ByLayer
370
18
48
1
60
0
100
AcDbLine
10
-56
20
-11.7
30
0
11
-55
21
-12.7
31
0
39
0
210
0
220
0
230
1
0
LINE
5
91
100
AcDbEntity
8
SK1
62
256
6
ByLayer
370
18
48
1
60
0
100
AcDbLine
10
-55
20
12.7
30
0
11
-56
21
11.7
31
0
39
0
210
0
220
0
230
1
0
LINE
5
92
100
AcDbEntity
8
1
62
256
6
ByLayer
370
18
48
1
60
0
100
AcDbLine
10
0
20
12.7
30
0
11
0
21
-12.7
31
0
39
0
210
0
220
0
230
1
0
LINE
5
93
100
AcDbEntity
8
1
62
256
6
ByLayer
370
18
48
1
60
0
100
AcDbLine
10
101.383133
20
11.311
30
0
11
101.383133
21
10.951842
31
0
39
0
210
0
220
0
230
1
0
LINE
5
94
100
AcDbEntity
8
1
62
256
6
ByLayer
370
18
48
1
60
0
100
AcDbLine
10
101.383133
20
-11.311
30
0
11
101.383133
21
-1.61355
31
0
39
0
210
0
220
0
230
1
0
LINE
5
95
100
AcDbEntity
8
1
62
256
6
ByLayer
370
18
48
1
60
0
100
AcDbLine
10
10
20
-10.7
30
0
11
10
21
-3.509267
31
0
39
0
210
0
220
0
230
1
0
LINE
5
96
100
AcDbEntity
8
1
62
256
6
ByLayer
370
18
48
1
60
0
100
AcDbLine
10
10
20
10.7
30
0
11
10
21
8.589883
31
0
39
0
210
0
220
0
230
1
0
LINE
5
97
100
AcDbEntity
8
SK1
62
256
6
ByLayer
370
18
48
1
60
0
100
AcDbLine
10
-9.573685
20
-7.42967
30
0
11
-9.573685
21
7.42967
31
0
39
0
210
0
220
0
230
1
0
LINE
5
98
100
AcDbEntity
8
SK1
62
256
6
ByLayer
370
18
48
1
60
0
100
AcDbLine
10
0
20
12.7
30
0
11
0
21
-12.7
31
0
39
0
210
0
220
0
230
1
0
LINE
5
99
100
AcDbEntity
8
SK1
62
256
6
ByLayer
370
18
48
1
60
0
100
AcDbLine
10
-9.573685
20
-7.42967
30
0
11
-46.761964
21
-7.42967
31
0
39
0
210
0
220
0
230
1
0
LINE
5
9A
100
AcDbEntity
8
SK1
62
256
6
ByLayer
370
18
48
1
60
0
100
AcDbLine
10
-46.761964
20
7.42967
30
0
11
-9.573685
21
7.42967
31
0
39
0
210
0
220
0
230
1
0
LINE
5
9B
100
AcDbEntity
8
SK1
62
256
6
ByLayer
370
18
48
1
60
0
100
AcDbLine
10
-56
20
-11.7
30
0
11
-56
21
11.7
31
0
39
0
210
0
220
0
230
1
0
LINE
5
9C
100
AcDbEntity
8
SK1
62
256
6
ByLayer
370
18
48
1
60
0
100
AcDbLine
10
-55
20
-12.7
30
0
11
-55
21
12.7
31
0
39
0
210
0
220
0
230
1
0
LINE
5
9D
100
AcDbEntity
8
SK1
62
256
6
ByLayer
370
18
48
1
60
0
100
AcDbLine
10
-46.761964
20
-7.42967
30
0
11
-46.761964
21
7.42967
31
0
39
0
210
0
220
0
230
1
0
LINE
5
9E
100
AcDbEntity
8
1
62
256
6
ByLayer
370
18
48
1
60
0
100
AcDbLine
10
101.383133
20
11.311
30
0
11
101.383133
21
-11.311
31
0
39
0
210
0
220
0
230
1
0
LINE
5
9F
100
AcDbEntity
8
1
62
256
6
ByLayer
370
18
48
1
60
0
100
AcDbLine
10
101.383133
20
11.311
30
0
11
101.383133
21
-11.311
31
0
39
0
210
0
220
0
230
1
0
LINE
5
A0
100
AcDbEntity
8
1
62
256
6
ByLayer
370
18
48
1
60
0
100
AcDbLine
10
101.383133
20
11.311
30
0
11
101.383133
21
-11.311
31
0
39
0
210
0
220
0
230
1
0
LINE
5
A1
100
AcDbEntity
8
1
62
256
6
ByLayer
370
18
48
1
60
0
100
AcDbLine
10
90.5
20
11.311
30
0
11
90.5
21
-11.311
31
0
39
0
210
0
220
0
230
1
0
LINE
5
A2
100
AcDbEntity
8
1
62
256
6
ByLayer
370
18
48
1
60
0
100
AcDbLine
10
90.5
20
11.311
30
0
11
90.5
21
-11.311
31
0
39
0
210
0
220
0
230
1
0
LINE
5
A3
100
AcDbEntity
8
1
62
256
6
ByLayer
370
18
48
1
60
0
100
AcDbLine
10
101.383133
20
11.311
30
0
11
101.383133
21
-11.311
31
0
39
0
210
0
220
0
230
1
0
LINE
5
A4
100
AcDbEntity
8
1
62
256
6
ByLayer
370
18
48
1
60
0
100
AcDbLine
10
90.5
20
11.311
30
0
11
90.5
21
-11.311
31
0
39
0
210
0
220
0
230
1
0
LINE
5
A5
100
AcDbEntity
8
1
62
256
6
ByLayer
370
18
48
1
60
0
100
AcDbLine
10
101.383133
20
11.311
30
0
11
101.383133
21
-11.311
31
0
39
0
210
0
220
0
230
1
0
LINE
5
A6
100
AcDbEntity
8
SK2
62
256
6
ByLayer
370
13
48
1
60
0
100
AcDbLine
10
-62.5
20
-12.7
30
0
11
-62.5
21
42.040455
31
0
39
0
210
0
220
0
230
1
0
LINE
5
A8
100
AcDbEntity
8
SK2
62
256
6
ByLayer
370
13
48
1
60
0
100
AcDbLine
10
-57.5875
20
12.7
30
0
11
-64.5
21
12.7
31
0
39
0
210
0
220
0
230
1
0
LINE
5
A9
100
AcDbEntity
8
SK2
62
256
6
ByLayer
370
13
48
1
60
0
100
AcDbLine
10
-57.5875
20
-12.7
30
0
11
-64.5
21
-12.7
31
0
39
0
210
0
220
0
230
1
0
LINE
5
AA
100
AcDbEntity
8
1
62
256
6
ByLayer
370
18
48
1
60
1
100
AcDbLine
10
-62.5
20
12.7
30
0
11
-62.039216
21
9.200002
31
0
39
0
210
0
220
0
230
1
0
LINE
5
AB
100
AcDbEntity
8
1
62
256
6
ByLayer
370
18
48
1
60
1
100
AcDbLine
10
-62.039216
20
9.200002
30
0
11
-62.960784
21
9.199998
31
0
39
0
210
0
220
0
230
1
0
LINE
5
AC
100
AcDbEntity
8
1
62
256
6
ByLayer
370
18
48
1
60
1
100
AcDbLine
10
-62.960784
20
9.199998
30
0
11
-62.5
21
12.7
31
0
39
0
210
0
220
0
230
1
0
LINE
5
AD
100
AcDbEntity
8
1
62
256
6
ByLayer
370
18
48
1
60
1
100
AcDbLine
10
-62.5
20
-12.7
30
0
11
-62.960784
21
-9.200002
31
0
39
0
210
0
220
0
230
1
0
LINE
5
AE
100
AcDbEntity
8
1
62
256
6
ByLayer
370
18
48
1
60
1
100
AcDbLine
10
-62.960784
20
-9.200002
30
0
11
-62.039216
21
-9.199998
31
0
39
0
210
0
220
0
230
1
0
LINE
5
AF
100
AcDbEntity
8
1
62
256
6
ByLayer
370
18
48
1
60
1
100
AcDbLine
10
-62.039216
20
-9.199998
30
0
11
-62.5
21
-12.7
31
0
39
0
210
0
220
0
230
1
0
LINE
5
B0
100
AcDbEntity
8
2
62
256
6
ByLayer
370
13
48
1
60
0
100
AcDbLine
10
113
20
-11.311
30
0
11
113
21
40.335569
31
0
39
0
210
0
220
0
230
1
0
LINE
5
B2
100
AcDbEntity
8
2
62
256
6
ByLayer
370
13
48
1
60
0
100
AcDbLine
10
102.970633
20
11.311
30
0
11
115
21
11.311
31
0
39
0
210
0
220
0
230
1
0
LINE
5
B3
100
AcDbEntity
8
2
62
256
6
ByLayer
370
13
48
1
60
0
100
AcDbLine
10
102.970633
20
-11.311
30
0
11
115
21
-11.311
31
0
39
0
210
0
220
0
230
1
0
LINE
5
B4
100
AcDbEntity
8
1
62
256
6
ByLayer
370
18
48
1
60
1
100
AcDbLine
10
113
20
11.311
30
0
11
113.460784
21
7.811002
31
0
39
0
210
0
220
0
230
1
0
LINE
5
B5
100
AcDbEntity
8
1
62
256
6
ByLayer
370
18
48
1
60
1
100
AcDbLine
10
113.460784
20
7.811002
30
0
11
112.539216
21
7.810998
31
0
39
0
210
0
220
0
230
1
0
LINE
5
B6
100
AcDbEntity
8
1
62
256
6
ByLayer
370
18
48
1
60
1
100
AcDbLine
10
112.539216
20
7.810998
30
0
11
113
21
11.311
31
0
39
0
210
0
220
0
230
1
0
LINE
5
B7
100
AcDbEntity
8
1
62
256
6
ByLayer
370
18
48
1
60
1
100
AcDbLine
10
113
20
-11.311
30
0
11
112.539216
21
-7.811002
31
0
39
0
210
0
220
0
230
1
0
LINE
5
B8
100
AcDbEntity
8
1
62
256
6
ByLayer
370
18
48
1
60
1
100
AcDbLine
10
112.539216
20
-7.811002
30
0
11
113.460784
21
-7.810998
31
0
39
0
210
0
220
0
230
1
0
LINE
5
B9
100
AcDbEntity
8
1
62
256
6
ByLayer
370
18
48
1
60
1
100
AcDbLine
10
113.460784
20
-7.810998
30
0
11
113
21
-11.311
31
0
39
0
210
0
220
0
230
1
0
LINE
5
BA
100
AcDbEntity
8
SK2
62
256
6
ByLayer
370
13
48
1
60
0
100
AcDbLine
10
106.042957
20
-1.491762
30
0
11
112.682423
21
-19.733545
31
0
39
0
210
0
220
0
230
1
0
LINE
5
BB
100
AcDbEntity
8
SK2
62
256
6
ByLayer
370
13
48
1
60
0
100
AcDbLine
10
106.042957
20
1.491762
30
0
11
112.682423
21
19.733545
31
0
39
0
210
0
220
0
230
1
0
LINE
5
BC
100
AcDbEntity
8
1
62
256
6
ByLayer
370
18
48
1
60
1
100
AcDbLine
10
111.998383
20
-17.85416
30
0
11
115.051575
21
-16.082064
31
0
39
0
210
0
220
0
230
1
0
LINE
5
BD
100
AcDbEntity
8
1
62
256
6
ByLayer
370
18
48
1
60
1
100
AcDbLine
10
115.051575
20
-16.082064
30
0
11
115.406196
21
-16.93267
31
0
39
0
210
0
220
0
230
1
0
LINE
5
BE
100
AcDbEntity
8
1
62
256
6
ByLayer
370
18
48
1
60
1
100
AcDbLine
10
115.406196
20
-16.93267
30
0
11
111.998383
21
-17.85416
31
0
39
0
210
0
220
0
230
1
0
LINE
5
BF
100
AcDbEntity
8
1
62
256
6
ByLayer
370
18
48
1
60
1
100
AcDbLine
10
111.998383
20
17.85416
30
0
11
115.406193
21
16.932671
31
0
39
0
210
0
220
0
230
1
0
LINE
5
C0
100
AcDbEntity
8
1
62
256
6
ByLayer
370
18
48
1
60
1
100
AcDbLine
10
115.406193
20
16.932671
30
0
11
115.051579
21
16.082063
31
0
39
0
210
0
220
0
230
1
0
LINE
5
C1
100
AcDbEntity
8
1
62
256
6
ByLayer
370
18
48
1
60
1
100
AcDbLine
10
115.051579
20
16.082063
30
0
11
111.998383
21
17.85416
31
0
39
0
210
0
220
0
230
1
0
LINE
5
13B
100
AcDbEntity
8
1
62
256
6
ByLayer
370
18
48
1
60
1
100
AcDbLine
10
-62.5
20
12.7
30
0
11
-62.039216
21
9.200002
31
0
39
0
210
0
220
0
230
1
0
LINE
5
13C
100
AcDbEntity
8
1
62
256
6
ByLayer
370
18
48
1
60
1
100
AcDbLine
10
-62.039216
20
9.200002
30
0
11
-62.960784
21
9.199998
31
0
39
0
210
0
220
0
230
1
0
LINE
5
13D
100
AcDbEntity
8
1
62
256
6
ByLayer
370
18
48
1
60
1
100
AcDbLine
10
-62.960784
20
9.199998
30
0
11
-62.5
21
12.7
31
0
39
0
210
0
220
0
230
1
0
LINE
5
13F
100
AcDbEntity
8
1
62
256
6
ByLayer
370
18
48
1
60
1
100
AcDbLine
10
-62.5
20
-12.7
30
0
11
-62.960784
21
-9.200002
31
0
39
0
210
0
220
0
230
1
0
LINE
5
140
100
AcDbEntity
8
1
62
256
6
ByLayer
370
18
48
1
60
1
100
AcDbLine
10
-62.960784
20
-9.200002
30
0
11
-62.039216
21
-9.199998
31
0
39
0
210
0
220
0
230
1
0
LINE
5
141
100
AcDbEntity
8
1
62
256
6
ByLayer
370
18
48
1
60
1
100
AcDbLine
10
-62.039216
20
-9.199998
30
0
11
-62.5
21
-12.7
31
0
39
0
210
0
220
0
230
1
0
LINE
5
145
100
AcDbEntity
8
1
62
256
6
ByLayer
370
18
48
1
60
1
100
AcDbLine
10
113
20
11.311
30
0
11
113.460784
21
7.811002
31
0
39
0
210
0
220
0
230
1
0
LINE
5
146
100
AcDbEntity
8
1
62
256
6
ByLayer
370
18
48
1
60
1
100
AcDbLine
10
113.460784
20
7.811002
30
0
11
112.539216
21
7.810998
31
0
39
0
210
0
220
0
230
1
0
LINE
5
147
100
AcDbEntity
8
1
62
256
6
ByLayer
370
18
48
1
60
1
100
AcDbLine
10
112.539216
20
7.810998
30
0
11
113
21
11.311
31
0
39
0
210
0
220
0
230
1
0
LINE
5
149
100
AcDbEntity
8
1
62
256
6
ByLayer
370
18
48
1
60
1
100
AcDbLine
10
113
20
-11.311
30
0
11
112.539216
21
-7.811002
31
0
39
0
210
0
220
0
230
1
0
LINE
5
14A
100
AcDbEntity
8
1
62
256
6
ByLayer
370
18
48
1
60
1
100
AcDbLine
10
112.539216
20
-7.811002
30
0
11
113.460784
21
-7.810998
31
0
39
0
210
0
220
0
230
1
0
LINE
5
14B
100
AcDbEntity
8
1
62
256
6
ByLayer
370
18
48
1
60
1
100
AcDbLine
10
113.460784
20
-7.810998
30
0
11
113
21
-11.311
31
0
39
0
210
0
220
0
230
1
0
LINE
5
14E
100
AcDbEntity
8
1
62
256
6
ByLayer
370
18
48
1
60
1
100
AcDbLine
10
111.998383
20
-17.85416
30
0
11
115.051575
21
-16.082064
31
0
39
0
210
0
220
0
230
1
0
LINE
5
14F
100
AcDbEntity
8
1
62
256
6
ByLayer
370
18
48
1
60
1
100
AcDbLine
10
115.051575
20
-16.082064
30
0
11
115.406196
21
-16.93267
31
0
39
0
210
0
220
0
230
1
0
LINE
5
150
100
AcDbEntity
8
1
62
256
6
ByLayer
370
18
48
1
60
1
100
AcDbLine
10
115.406196
20
-16.93267
30
0
11
111.998383
21
-17.85416
31
0
39
0
210
0
220
0
230
1
0
LINE
5
152
100
AcDbEntity
8
1
62
256
6
ByLayer
370
18
48
1
60
1
100
AcDbLine
10
111.998383
20
17.85416
30
0
11
115.406193
21
16.932671
31
0
39
0
210
0
220
0
230
1
0
LINE
5
153
100
AcDbEntity
8
1
62
256
6
ByLayer
370
18
48
1
60
1
100
AcDbLine
10
115.406193
20
16.932671
30
0
11
115.051579
21
16.082063
31
0
39
0
210
0
220
0
230
1
0
LINE
5
154
100
AcDbEntity
8
1
62
256
6
ByLayer
370
18
48
1
60
1
100
AcDbLine
10
115.051579
20
16.082063
30
0
11
111.998383
21
17.85416
31
0
39
0
210
0
220
0
230
1
0
MTEXT
5
137
100
AcDbEntity
8
SK2
62
256
6
ByLayer
370
18
48
1
60
0
100
AcDbMText
10
-63.841114
20
24.358437
30
0
210
0
220
0
230
1
1
%%c
40
3
41
0
44
1.084337
50
90
71
7
72
5
7
iso_b_vert
0
MTEXT
5
13A
100
AcDbEntity
8
SK2
62
256
6
ByLayer
370
18
48
1
60
0
100
AcDbMText
10
-63.841114
20
30.335
30
0
210
0
220
0
230
1
1
\W0.7728;25.400
40
3
41
0
44
1.084337
50
90
71
7
72
5
7
iso_b_vert
0
MTEXT
5
143
100
AcDbEntity
8
2
62
256
6
ByLayer
370
18
48
1
60
0
100
AcDbMText
10
111.658886
20
22.969438
30
0
210
0
220
0
230
1
1
%%c
40
3
41
0
44
1.084337
50
90
71
7
72
5
7
iso_b_vert
0
MTEXT
5
144
100
AcDbEntity
8
2
62
256
6
ByLayer
370
18
48
1
60
0
100
AcDbMText
10
111.658886
20
28.946
30
0
210
0
220
0
230
1
1
\W0.7513;22.622
40
3
41
0
44
1.084337
50
90
71
7
72
5
7
iso_b_vert
0
MTEXT
5
14D
100
AcDbEntity
8
SK2
62
256
6
ByLayer
370
18
48
1
60
0
100
AcDbMText
10
125.409114
20
3.734657
30
0
210
0
220
0
230
1
1
\W0.7071;140%%d
40
3
41
0
44
1.084337
50
270
71
7
72
5
7
iso_b_vert
0
MTEXT
5
156
100
AcDbEntity
8
SK6
62
256
6
ByLayer
370
18
48
1
60
0
100
AcDbMText
10
-3.792397
20
-67.114886
30
0
210
0
220
0
230
1
1
\W0.7930;H85357/64
40
3
41
0
44
1.084337
50
0
71
7
72
5
7
iso_b_vert
0
HATCH
5
13E
100
AcDbEntity
8
SK2
62
256
6
ByLayer
370
13
48
1
60
0
100
AcDbHatch
10
0
20
0
30
0
210
0
220
0
230
1
2
ANSI31
70
0
71
0
91
1
92
5
93
3
72
1
10
-62.5
20
12.7
11
-62.0392162584472
21
9.20000169255317
72
1
10
-62.0392162584472
20
9.20000169255317
11
-62.9607837415528
21
9.1999983074468
72
1
10
-62.9607837415528
20
9.1999983074468
11
-62.5
21
12.7
97
0
75
0
76
1
52
0
41
0.0062
77
0
78
1
53
45
43
0
44
0
45
-0.0139193969876572
46
0.0139193969876572
79
0
47
0
98
1
10
0
20
0
0
HATCH
5
142
100
AcDbEntity
8
SK2
62
256
6
ByLayer
370
13
48
1
60
0
100
AcDbHatch
10
0
20
0
30
0
210
0
220
0
230
1
2
ANSI31
70
0
71
0
91
1
92
5
93
3
72
1
10
-62.5
20
-12.7
11
-62.9607837415528
21
-9.20000169255317
72
1
10
-62.9607837415528
20
-9.20000169255317
11
-62.0392162584472
21
-9.1999983074468
72
1
10
-62.0392162584472
20
-9.1999983074468
11
-62.5
21
-12.7
97
0
75
0
76
1
52
0
41
0.0062
77
0
78
1
53
45
43
0
44
0
45
-0.0139193969876572
46
0.0139193969876572
79
0
47
0
98
1
10
0
20
0
0
HATCH
5
148
100
AcDbEntity
8
2
62
256
6
ByLayer
370
13
48
1
60
0
100
AcDbHatch
10
0
20
0
30
0
210
0
220
0
230
1
2
ANSI31
70
0
71
0
91
1
92
5
93
3
72
1
10
113
20
11.311
11
113.460783741553
21
7.81100169255319
72
1
10
113.460783741553
20
7.81100169255319
11
112.539216258447
21
7.81099830744682
72
1
10
112.539216258447
20
7.81099830744682
11
113
21
11.311
97
0
75
0
76
1
52
0
41
0.0062
77
0
78
1
53
45
43
0
44
0
45
-0.0139193969876572
46
0.0139193969876572
79
0
47
0
98
1
10
0
20
0
0
HATCH
5
14C
100
AcDbEntity
8
2
62
256
6
ByLayer
370
13
48
1
60
0
100
AcDbHatch
10
0
20
0
30
0
210
0
220
0
230
1
2
ANSI31
70
0
71
0
91
1
92
5
93
3
72
1
10
113
20
-11.311
11
112.539216258447
21
-7.81100169255319
72
1
10
112.539216258447
20
-7.81100169255319
11
113.460783741553
21
-7.81099830744682
72
1
10
113.460783741553
20
-7.81099830744682
11
113
21
-11.311
97
0
75
0
76
1
52
0
41
0.0062
77
0
78
1
53
45
43
0
44
0
45
-0.0139193969876572
46
0.0139193969876572
79
0
47
0
98
1
10
0
20
0
0
HATCH
5
151
100
AcDbEntity
8
SK2
62
256
6
ByLayer
370
13
48
1
60
0
100
AcDbHatch
10
0
20
0
30
0
210
0
220
0
230
1
2
ANSI31
70
0
71
0
91
1
92
5
93
3
72
1
10
111.998382723188
20
-17.8541597949322
11
115.051575425693
21
-16.0820638240607
72
1
10
115.051575425693
20
-16.0820638240607
11
115.406195833975
21
-16.9326700737196
72
1
10
115.406195833975
20
-16.9326700737196
11
111.998382723188
21
-17.8541597949322
97
0
75
0
76
1
52
0
41
0.0062
77
0
78
1
53
45
43
0
44
0
45
-0.0139193969876572
46
0.0139193969876572
79
0
47
0
98
1
10
0
20
0
0
HATCH
5
155
100
AcDbEntity
8
SK2
62
256
6
ByLayer
370
13
48
1
60
0
100
AcDbHatch
10
0
20
0
30
0
210
0
220
0
230
1
2
ANSI31
70
0
71
0
91
1
92
5
93
3
72
1
10
111.998382723188
20
17.8541597949322
11
115.406192709519
21
16.9326713763016
72
1
10
115.406192709519
20
16.9326713763016
11
115.051578550149
21
16.0820625214787
72
1
10
115.051578550149
20
16.0820625214787
11
111.998382723188
21
17.8541597949322
97
0
75
0
76
1
52
0
41
0.0062
77
0
78
1
53
45
43
0
44
0
45
-0.0139193969876572
46
0.0139193969876572
79
0
47
0
98
1
10
0
20
0
0
DIMENSION
5
159
100
AcDbEntity
8
SK2
62
256
6
ByLayer
370
18
48
1
60
0
100
AcDbDimension
2
_U0
10
105.5
20
-45.952229
30
0
11
24.75
21
-45.952229
31
0
70
32
71
1
72
1
41
1
210
0
220
0
230
1
3
Standard
100
AcDbAlignedDimension
13
-56
23
-12.7
33
0
14
105.5
24
0
34
0
50
0
100
AcDbRotatedDimension
1001
ACAD
1000
DSTYLE
1002
{
1070
   371
1070
    13
1070
   372
1070
    13
1070
     3
1000

1070
   170
1070
     0
1070
   144
1040
1.0
1070
   277
1070
     2
1070
   284
1070
     8
1070
   278
1070
    46
1070
   146
1040
1.166667
1070
   345
1005
16
1070
   347
1005
16
1070
   346
1005
16
1070
   344
1005
0
1070
   343
1005
0
1070
   172
1070
     1
1070
    76
1070
     0
1070
    75
1070
     0
1070
   282
1070
     0
1070
   281
1070
     0
1070
    71
1070
     0
1070
    74
1070
     0
1070
   279
1070
     0
1070
   173
1070
     1
1070
   340
1005
138
1070
   271
1070
     2
1070
   272
1070
     3
1070
    77
1070
     1
1070
    73
1070
     1
1070
   171
1070
     3
1070
   274
1070
     4
1070
   177
1070
     2
1070
   176
1070
     2
1070
   178
1070
     2
1070
    78
1070
     8
1070
    48
1040
-0.1
1070
    41
1040
3.5
1070
   147
1040
1.5
1070
    42
1040
1.5875
1070
    44
1040
2.0
1070
   140
1040
3.0
1002
}
1001
ACAD_DSTYLE_DIM_LINETYPE
1070
   380
1005
16
1001
ACAD_DSTYLE_DIM_EXT1_LINETYPE
1070
   381
1005
16
1001
ACAD_DSTYLE_DIM_EXT2_LINETYPE
1070
   382
1005
16
0
DIMENSION
5
172
100
AcDbEntity
8
SK2
62
256
6
ByLayer
370
18
48
1
60
0
100
AcDbDimension
2
_U1
10
3
20
-35.952229
30
0
11
54.25
21
-35.952229
31
0
70
32
71
1
72
1
41
1
210
0
220
0
230
1
3
Standard
100
AcDbAlignedDimension
13
105.5
23
0
33
0
14
3
24
-11.311
34
0
50
0
100
AcDbRotatedDimension
1001
ACAD
1000
DSTYLE
1002
{
1070
   371
1070
    13
1070
   372
1070
    13
1070
     3
1000

1070
   170
1070
     0
1070
   144
1040
1.0
1070
   277
1070
     2
1070
   284
1070
     8
1070
   278
1070
    46
1070
   146
1040
1.166667
1070
   345
1005
16
1070
   347
1005
16
1070
   346
1005
16
1070
   344
1005
0
1070
   343
1005
0
1070
   172
1070
     1
1070
    76
1070
     0
1070
    75
1070
     0
1070
   282
1070
     0
1070
   281
1070
     0
1070
    71
1070
     0
1070
    74
1070
     0
1070
   279
1070
     0
1070
   173
1070
     1
1070
   340
1005
138
1070
   271
1070
     2
1070
   272
1070
     3
1070
    77
1070
     1
1070
    73
1070
     1
1070
   171
1070
     3
1070
   274
1070
     4
1070
   177
1070
     2
1070
   176
1070
     2
1070
   178
1070
     2
1070
    78
1070
     8
1070
    48
1040
-0.1
1070
    41
1040
3.5
1070
   147
1040
1.5
1070
    42
1040
1.5875
1070
    44
1040
2.0
1070
   140
1040
3.0
1002
}
1001
ACAD_DSTYLE_DIM_LINETYPE
1070
   380
1005
16
1001
ACAD_DSTYLE_DIM_EXT1_LINETYPE
1070
   381
1005
16
1001
ACAD_DSTYLE_DIM_EXT2_LINETYPE
1070
   382
1005
16
0
DIMENSION
5
18A
100
AcDbEntity
8
SK2
62
256
6
ByLayer
370
18
48
1
60
0
100
AcDbDimension
2
_U2
10
0
20
-35.952229
30
0
11
-28
21
-35.952229
31
0
70
32
71
1
72
1
41
1
210
0
220
0
230
1
3
Standard
100
AcDbAlignedDimension
13
-56
23
-12.7
33
0
14
0
24
-12.7
34
0
50
0
100
AcDbRotatedDimension
1001
ACAD
1000
DSTYLE
1002
{
1070
   371
1070
    13
1070
   372
1070
    13
1070
     3
1000

1070
   170
1070
     0
1070
   144
1040
1.0
1070
   277
1070
     2
1070
   284
1070
     8
1070
   278
1070
    46
1070
   146
1040
1.166667
1070
   345
1005
16
1070
   347
1005
16
1070
   346
1005
16
1070
   344
1005
0
1070
   343
1005
0
1070
   172
1070
     1
1070
    76
1070
     0
1070
    75
1070
     0
1070
   282
1070
     0
1070
   281
1070
     0
1070
    71
1070
     0
1070
    74
1070
     0
1070
   279
1070
     0
1070
   173
1070
     1
1070
   340
1005
138
1070
   271
1070
     2
1070
   272
1070
     3
1070
    77
1070
     1
1070
    73
1070
     1
1070
   171
1070
     3
1070
   274
1070
     4
1070
   177
1070
     2
1070
   176
1070
     2
1070
   178
1070
     2
1070
    78
1070
     8
1070
    48
1040
-0.1
1070
    41
1040
3.5
1070
   147
1040
1.5
1070
    42
1040
1.5875
1070
    44
1040
2.0
1070
   140
1040
3.0
1002
}
1001
ACAD_DSTYLE_DIM_LINETYPE
1070
   380
1005
16
1001
ACAD_DSTYLE_DIM_EXT1_LINETYPE
1070
   381
1005
16
1001
ACAD_DSTYLE_DIM_EXT2_LINETYPE
1070
   382
1005
16
0
DIMENSION
5
1A2
100
AcDbEntity
8
SK2
62
256
6
ByLayer
370
18
48
1
60
0
100
AcDbDimension
2
_U3
10
25.4
20
32.952229
30
0
11
65.45
21
32.952229
31
0
70
32
71
1
72
1
41
1
210
0
220
0
230
1
3
Standard
100
AcDbAlignedDimension
13
105.5
23
0
33
0
14
25.4
24
11.311
34
0
50
0
100
AcDbRotatedDimension
1001
ACAD
1000
DSTYLE
1002
{
1070
   371
1070
    13
1070
   372
1070
    13
1070
     3
1000

1070
   170
1070
     0
1070
   144
1040
1.0
1070
   277
1070
     2
1070
   284
1070
     8
1070
   278
1070
    46
1070
   146
1040
1.166667
1070
   345
1005
16
1070
   347
1005
16
1070
   346
1005
16
1070
   344
1005
0
1070
   343
1005
0
1070
   172
1070
     1
1070
    76
1070
     0
1070
    75
1070
     0
1070
   282
1070
     0
1070
   281
1070
     0
1070
    71
1070
     0
1070
    74
1070
     0
1070
   279
1070
     0
1070
   173
1070
     1
1070
   340
1005
138
1070
   271
1070
     2
1070
   272
1070
     3
1070
    77
1070
     1
1070
    73
1070
     1
1070
   171
1070
     3
1070
   274
1070
     4
1070
   177
1070
     2
1070
   176
1070
     2
1070
   178
1070
     2
1070
    78
1070
     8
1070
    48
1040
-0.1
1070
    41
1040
3.5
1070
   147
1040
1.5
1070
    42
1040
1.5875
1070
    44
1040
2.0
1070
   140
1040
3.0
1002
}
1001
ACAD_DSTYLE_DIM_LINETYPE
1070
   380
1005
16
1001
ACAD_DSTYLE_DIM_EXT1_LINETYPE
1070
   381
1005
16
1001
ACAD_DSTYLE_DIM_EXT2_LINETYPE
1070
   382
1005
16
0
ENDSEC
0
SECTION
2
OBJECTS
0
DICTIONARY
5
22a
330
0
100
AcDbDictionary
280
0
281
1
3
ACAD_GROUP
350
22b
3
ACAD_MLINESTYLE
350
22c
0
DICTIONARY
5
22b
330
0
100
AcDbDictionary
280
0
281
1
0
DICTIONARY
5
22c
330
0
100
AcDbDictionary
280
0
281
1
3
Standard
350
18
0
MLINESTYLE
5
18
330
22c
100
AcDbMlineStyle
2
Standard
70
0
3

62
256
51
90
52
90
71
2
49
-0.5
62
256
6
ByLayer
49
0.5
62
256
6
ByLayer
0
RASTERVARIABLES
5
218
330

100
AcDbRasterVariables
90
0
70
1
71
1
72
1
0
ENDSEC
0
EOF
