0
SECTION
2
HEADER
9
$ACADVER
1
AC1015
9
$DWGCODEPAGE
3
ANSI_1252
9
$HANDSEED
5
22a
9
$ANGBASE
50
0
9
$ANGDIR
70
0
9
$ATTMODE
70
1
9
$AUNITS
70
0
9
$AUPREC
70
0
9
$CECOLOR
62
256
9
$CELTSCALE
40
1
9
$CELTYPE
6
ByLayer
9
$CELWEIGHT
370
18
9
$CLAYER
8
0
9
$CMLJUST
70
0
9
$CMLSCALE
40
1
9
$CMLSTYLE
2
Standard
9
$DIMSTYLE
2
Standard
9
$TEXTSIZE
40
0.2
9
$TEXTSTYLE
7
Standard
9
$LUNITS
70
2
9
$LUPREC
70
4
9
$EXTNAMES
290
1
9
$INSUNITS
70
4
9
$LTSCALE
40
1
9
$LWDISPLAY
290
1
9
$PDMODE
70
0
9
$PDSIZE
40
0
9
$PLINEGEN
70
0
0
ENDSEC
0
SECTION
2
CLASSES
0
CLASS
1
RASTERVARIABLES
2
AcDbRasterVariables
3
ISM
90
0
280
0
281
0
0
ENDSEC
0
SECTION
2
TABLES
0
TABLE
2
VPORT
5
220
100
AcDbSymbolTable
0
VPORT
5
1
100
AcDbSymbolTableRecord
100
AcDbViewportTableRecord
2
*Active
70
0
10
0
20
0
11
1
21
1
12
-1
22
1
13
0
23
0
14
0.5
24
0.5
15
10
25
10
16
0
26
0
36
1
17
0
27
0
37
0
0
ENDTAB
0
TABLE
2
LTYPE
5
221
100
AcDbSymbolTable
0
LTYPE
5
14
100
AcDbSymbolTableRecord
100
AcDbLinetypeTableRecord
70
0
2
ByBlock
3

72
65
73
0
40
0
0
LTYPE
5
15
100
AcDbSymbolTableRecord
100
AcDbLinetypeTableRecord
70
0
2
ByLayer
3

72
65
73
0
40
0
0
LTYPE
5
16
100
AcDbSymbolTableRecord
100
AcDbLinetypeTableRecord
70
0
2
Continuous
3
Solid line
72
65
73
0
40
0
0
LTYPE
5
6E
100
AcDbSymbolTableRecord
100
AcDbLinetypeTableRecord
70
0
2
CENTER
3
____ _ ____ _ ____ _ ____
72
65
73
4
40
47.5
49
22
74
0
49
-8.5
74
0
49
8.5
74
0
49
-8.5
74
0
0
LTYPE
5
6F
100
AcDbSymbolTableRecord
100
AcDbLinetypeTableRecord
70
0
2
DASHED
3
__ __ __ __ __ __ __ __ __
72
65
73
2
40
25.72
49
12.86
74
0
49
-12.86
74
0
0
ENDTAB
0
TABLE
2
LAYER
5
222
100
AcDbSymbolTable
0
LAYER
5
10
100
AcDbSymbolTableRecord
100
AcDbLayerTableRecord
2
0
70
0
62
7
6
Continuous
290
1
370
-3
390
0
0
LAYER
5
71
100
AcDbSymbolTableRecord
100
AcDbLayerTableRecord
2
81
70
0
62
-3
6
Continuous
290
1
370
-3
390
0
0
LAYER
5
73
100
AcDbSymbolTableRecord
100
AcDbLayerTableRecord
2
80
70
0
62
-6
6
Continuous
290
1
370
-3
390
0
0
LAYER
5
75
100
AcDbSymbolTableRecord
100
AcDbLayerTableRecord
2
1
70
0
62
4
6
Continuous
290
1
370
-3
390
0
0
LAYER
5
7F
100
AcDbSymbolTableRecord
100
AcDbLayerTableRecord
2
4
70
0
62
-2
6
CENTER
290
1
370
-3
390
0
0
LAYER
5
B0
100
AcDbSymbolTableRecord
100
AcDbLayerTableRecord
2
2
70
0
62
7
6
Continuous
290
1
370
-3
390
0
0
LAYER
5
14F
100
AcDbSymbolTableRecord
100
AcDbLayerTableRecord
2
Defpoints
70
0
62
7
6
Continuous
290
0
370
-3
390
0
0
LAYER
5
20c
100
AcDbSymbolTableRecord
100
AcDbLayerTableRecord
2
SK4
70
0
62
2
6
CENTER
290
1
370
-3
390
0
0
LAYER
5
20d
100
AcDbSymbolTableRecord
100
AcDbLayerTableRecord
2
SK1
70
0
62
4
6
Continuous
290
1
370
-3
390
0
0
LAYER
5
20e
100
AcDbSymbolTableRecord
100
AcDbLayerTableRecord
2
SK2
70
0
62
7
6
Continuous
290
1
370
-3
390
0
0
LAYER
5
20f
100
AcDbSymbolTableRecord
100
AcDbLayerTableRecord
2
SK6
70
0
62
5
6
Continuous
290
1
370
-3
390
0
0
ENDTAB
0
TABLE
2
STYLE
5
223
100
AcDbSymbolTable
0
STYLE
5
11
100
AcDbSymbolTableRecord
100
AcDbTextStyleTableRecord
2
Standard
3
txt
70
0
71
0
40
0
41
1
42
0
50
0
0
STYLE
5
12B
100
AcDbSymbolTableRecord
100
AcDbTextStyleTableRecord
2
iso_b_vert
3
simplex.shx
70
0
71
0
40
0
41
1
42
0
50
0
0
STYLE
5
12C
100
AcDbSymbolTableRecord
100
AcDbTextStyleTableRecord
2
DWGDirectTextStyle
3
simplex
70
0
71
0
40
0
41
1
42
0
50
0
0
ENDTAB
0
TABLE
2
DIMSTYLE
5
224
100
AcDbSymbolTable
100
AcDbDimStyleTable
0
DIMSTYLE
105
27
100
AcDbSymbolTableRecord
100
AcDbDimStyleTableRecord
2
Standard
70
0
3
<>
41
0.18
42
0.0625
44
0.18
140
0.18
147
0.09
73
0
74
0
77
1
271
2
275
0
278
52
280
0
340
11
0
ENDTAB
0
TABLE
2
VIEW
5
225
100
AcDbSymbolTable
0
ENDTAB
0
TABLE
2
UCS
5
226
100
AcDbSymbolTable
0
ENDTAB
0
TABLE
2
APPID
5
227
100
AcDbSymbolTable
0
APPID
5
12
100
AcDbSymbolTableRecord
100
AcDbRegAppTableRecord
2
ACAD
70
0
0
APPID
5
14B
100
AcDbSymbolTableRecord
100
AcDbRegAppTableRecord
2
ACAD_DSTYLE_DIMBREAK
70
0
0
APPID
5
1CB
100
AcDbSymbolTableRecord
100
AcDbRegAppTableRecord
2
ACAD_DSTYLE_DIM_LINETYPE
70
0
0
APPID
5
1CC
100
AcDbSymbolTableRecord
100
AcDbRegAppTableRecord
2
ACAD_DSTYLE_DIM_EXT1_LINETYPE
70
0
0
APPID
5
1CD
100
AcDbSymbolTableRecord
100
AcDbRegAppTableRecord
2
ACAD_DSTYLE_DIM_EXT2_LINETYPE
70
0
0
APPID
5
208
100
AcDbSymbolTableRecord
100
AcDbRegAppTableRecord
2
ACAD_MLEADERVER
70
0
0
ENDTAB
0
TABLE
2
BLOCK_RECORD
5
228
100
AcDbSymbolTable
0
BLOCK_RECORD
5
1F
100
AcDbSymbolTableRecord
100
AcDbBlockTableRecord
2
*Model_Space
340
0
70
0
0
BLOCK_RECORD
5
1B
100
AcDbSymbolTableRecord
100
AcDbBlockTableRecord
2
*Paper_Space
340
0
70
0
0
BLOCK_RECORD
5
23
100
AcDbSymbolTableRecord
100
AcDbBlockTableRecord
2
*Paper_Space0
340
0
70
0
0
BLOCK_RECORD
5
150
100
AcDbSymbolTableRecord
100
AcDbBlockTableRecord
2
*D1
340
0
70
0
0
BLOCK_RECORD
5
15C
100
AcDbSymbolTableRecord
100
AcDbBlockTableRecord
2
_U0
340
0
70
0
0
BLOCK_RECORD
5
168
100
AcDbSymbolTableRecord
100
AcDbBlockTableRecord
2
*D3
340
0
70
0
0
BLOCK_RECORD
5
174
100
AcDbSymbolTableRecord
100
AcDbBlockTableRecord
2
_U1
340
0
70
0
0
BLOCK_RECORD
5
180
100
AcDbSymbolTableRecord
100
AcDbBlockTableRecord
2
*D5
340
0
70
0
0
BLOCK_RECORD
5
18C
100
AcDbSymbolTableRecord
100
AcDbBlockTableRecord
2
_U2
340
0
70
0
0
BLOCK_RECORD
5
198
100
AcDbSymbolTableRecord
100
AcDbBlockTableRecord
2
*D7
340
0
70
0
0
BLOCK_RECORD
5
1A4
100
AcDbSymbolTableRecord
100
AcDbBlockTableRecord
2
_U3
340
0
70
0
0
ENDTAB
0
ENDSEC
0
SECTION
2
BLOCKS
0
BLOCK
5
20
100
AcDbEntity
8
0
100
AcDbBlockBegin
2
*Model_Space
70
0
10
0
20
0
30
0
3
*Model_Space
0
ENDBLK
5
21
100
AcDbEntity
8
0
100
AcDbBlockEnd
0
BLOCK
5
1C
100
AcDbEntity
8
0
100
AcDbBlockBegin
2
*Paper_Space
70
0
10
0
20
0
30
0
3
*Paper_Space
0
ENDBLK
5
1D
100
AcDbEntity
8
0
100
AcDbBlockEnd
0
BLOCK
5
24
100
AcDbEntity
8
0
100
AcDbBlockBegin
2
*Paper_Space0
70
0
10
0
20
0
30
0
3
*Paper_Space0
0
ENDBLK
5
25
100
AcDbEntity
8
0
100
AcDbBlockEnd
0
BLOCK
5
151
100
AcDbEntity
8
0
100
AcDbBlockBegin
2
*D1
70
1
10
0
20
0
30
0
3
*D1
0
LINE
5
153
100
AcDbEntity
8
0
62
256
6
ByLayer
370
-2
48
1
60
0
100
AcDbLine
10
-56
20
-14.2875
30
0
11
-56
21
-47.952229
31
0
39
0
210
0
220
0
230
1
0
LINE
5
154
100
AcDbEntity
8
0
62
256
6
ByLayer
370
-2
48
1
60
0
100
AcDbLine
10
100.5
20
-1.5875
30
0
11
100.5
21
-47.952229
31
0
39
0
210
0
220
0
230
1
0
LINE
5
155
100
AcDbEntity
8
0
62
256
6
ByLayer
370
-2
48
1
60
0
100
AcDbLine
10
-52.5
20
-45.952229
30
0
11
97
21
-45.952229
31
0
39
0
210
0
220
0
230
1
0
SOLID
5
156
100
AcDbEntity
8
0
62
256
6
ByLayer
370
-1
48
1
60
0
100
AcDbTrace
10
-52.5
20
-45.368896
30
0
11
-52.5
21
-46.535563
31
0
12
-56
22
-45.952229
32
0
13
-56
23
-45.952229
33
0
39
0
210
0
220
0
230
1
0
SOLID
5
157
100
AcDbEntity
8
0
62
256
6
ByLayer
370
-1
48
1
60
0
100
AcDbTrace
10
97
20
-46.535563
30
0
11
97
21
-45.368896
31
0
12
100.5
22
-45.952229
32
0
13
100.5
23
-45.952229
33
0
39
0
210
0
220
0
230
1
0
MTEXT
5
158
100
AcDbEntity
8
0
62
256
6
ByLayer
370
18
48
1
60
0
100
AcDbMText
10
22.25
20
-39.952229
30
0
210
0
220
0
230
1
1
\A1;156.5
40
3
41
0
44
1
50
0
71
5
72
5
7
iso_b_vert
0
POINT
5
159
100
AcDbEntity
8
Defpoints
62
0
6
ByLayer
370
-1
48
1
60
0
100
AcDbPoint
10
-56
20
-12.7
30
0
39
0
210
0
220
0
230
1
50
360
0
POINT
5
15A
100
AcDbEntity
8
Defpoints
62
0
6
ByLayer
370
-1
48
1
60
0
100
AcDbPoint
10
100.5
20
0
30
0
39
0
210
0
220
0
230
1
50
360
0
POINT
5
15B
100
AcDbEntity
8
Defpoints
62
0
6
ByLayer
370
-1
48
1
60
0
100
AcDbPoint
10
100.5
20
-45.952229
30
0
39
0
210
0
220
0
230
1
50
360
0
ENDBLK
5
152
100
AcDbEntity
8
0
100
AcDbBlockEnd
0
BLOCK
5
163
100
AcDbEntity
8
0
100
AcDbBlockBegin
2
_U0
70
0
10
0
20
0
30
0
3
_U0
0
MTEXT
5
15D
100
AcDbEntity
8
SK2
62
256
6
ByLayer
370
18
48
1
60
0
100
AcDbMText
10
17.021658
20
-45.067115
30
0
210
0
220
0
230
1
1
\W0.7022;156.50
40
3
41
0
44
1.084337
50
0
71
7
72
5
7
iso_b_vert
0
LINE
5
15E
100
AcDbEntity
8
SK2
62
256
6
ByLayer
370
13
48
1
60
0
100
AcDbLine
10
-56
20
-14.2875
30
0
11
-56
21
-47.952229
31
0
39
0
210
0
220
0
230
1
0
LINE
5
15F
100
AcDbEntity
8
SK2
62
256
6
ByLayer
370
13
48
1
60
0
100
AcDbLine
10
100.5
20
-1.5875
30
0
11
100.5
21
-47.952229
31
0
39
0
210
0
220
0
230
1
0
LINE
5
160
100
AcDbEntity
8
SK2
62
256
6
ByLayer
370
13
48
1
60
0
100
AcDbLine
10
-56
20
-45.952229
30
0
11
100.5
21
-45.952229
31
0
39
0
210
0
220
0
230
1
0
SOLID
5
161
100
AcDbEntity
8
SK2
62
256
6
ByLayer
370
18
48
1
60
0
100
AcDbTrace
10
-56
20
-45.952229
30
0
11
-52.500002
21
-45.491446
31
0
12
-52.499998
22
-46.413013
32
0
13
-52.499998
23
-46.413013
33
0
39
0
210
0
220
0
230
1
0
SOLID
5
162
100
AcDbEntity
8
SK2
62
256
6
ByLayer
370
18
48
1
60
0
100
AcDbTrace
10
100.5
20
-45.952229
30
0
11
97.000002
21
-46.413013
31
0
12
96.999998
22
-45.491446
32
0
13
96.999998
23
-45.491446
33
0
39
0
210
0
220
0
230
1
0
ENDBLK
5
164
100
AcDbEntity
8
0
100
AcDbBlockEnd
0
BLOCK
5
169
100
AcDbEntity
8
0
100
AcDbBlockBegin
2
*D3
70
1
10
0
20
0
30
0
3
*D3
0
LINE
5
16B
100
AcDbEntity
8
0
62
256
6
ByLayer
370
-2
48
1
60
0
100
AcDbLine
10
100.5
20
-1.5875
30
0
11
100.5
21
-37.952229
31
0
39
0
210
0
220
0
230
1
0
LINE
5
16C
100
AcDbEntity
8
0
62
256
6
ByLayer
370
-2
48
1
60
0
100
AcDbLine
10
3
20
-11.311
30
0
11
3
21
-37.952229
31
0
39
0
210
0
220
0
230
1
0
LINE
5
16D
100
AcDbEntity
8
0
62
256
6
ByLayer
370
-2
48
1
60
0
100
AcDbLine
10
97
20
-35.952229
30
0
11
6.5
21
-35.952229
31
0
39
0
210
0
220
0
230
1
0
SOLID
5
16E
100
AcDbEntity
8
0
62
256
6
ByLayer
370
-1
48
1
60
0
100
AcDbTrace
10
97
20
-36.535563
30
0
11
97
21
-35.368896
31
0
12
100.5
22
-35.952229
32
0
13
100.5
23
-35.952229
33
0
39
0
210
0
220
0
230
1
0
SOLID
5
16F
100
AcDbEntity
8
0
62
256
6
ByLayer
370
-1
48
1
60
0
100
AcDbTrace
10
6.5
20
-35.368896
30
0
11
6.5
21
-36.535563
31
0
12
3
22
-35.952229
32
0
13
3
23
-35.952229
33
0
39
0
210
0
220
0
230
1
0
MTEXT
5
170
100
AcDbEntity
8
0
62
256
6
ByLayer
370
18
48
1
60
0
100
AcDbMText
10
51.75
20
-29.952229
30
0
210
0
220
0
230
1
1
\A1;97.5
40
3
41
0
44
1
50
0
71
5
72
5
7
iso_b_vert
0
POINT
5
171
100
AcDbEntity
8
Defpoints
62
0
6
ByLayer
370
-1
48
1
60
0
100
AcDbPoint
10
100.5
20
0
30
0
39
0
210
0
220
0
230
1
50
360
0
POINT
5
172
100
AcDbEntity
8
Defpoints
62
0
6
ByLayer
370
-1
48
1
60
0
100
AcDbPoint
10
3
20
-9.7235
30
0
39
0
210
0
220
0
230
1
50
360
0
POINT
5
173
100
AcDbEntity
8
Defpoints
62
0
6
ByLayer
370
-1
48
1
60
0
100
AcDbPoint
10
3
20
-35.952229
30
0
39
0
210
0
220
0
230
1
50
360
0
ENDBLK
5
16A
100
AcDbEntity
8
0
100
AcDbBlockEnd
0
BLOCK
5
17B
100
AcDbEntity
8
0
100
AcDbBlockBegin
2
_U1
70
0
10
0
20
0
30
0
3
_U1
0
MTEXT
5
175
100
AcDbEntity
8
SK2
62
256
6
ByLayer
370
18
48
1
60
0
100
AcDbMText
10
47.26763
20
-35.067115
30
0
210
0
220
0
230
1
1
\W0.7468;97.50
40
3
41
0
44
1.084337
50
0
71
7
72
5
7
iso_b_vert
0
LINE
5
176
100
AcDbEntity
8
SK2
62
256
6
ByLayer
370
13
48
1
60
0
100
AcDbLine
10
100.5
20
-1.5875
30
0
11
100.5
21
-37.952229
31
0
39
0
210
0
220
0
230
1
0
LINE
5
177
100
AcDbEntity
8
SK2
62
256
6
ByLayer
370
13
48
1
60
0
100
AcDbLine
10
3
20
-11.311
30
0
11
3
21
-37.952229
31
0
39
0
210
0
220
0
230
1
0
LINE
5
178
100
AcDbEntity
8
SK2
62
256
6
ByLayer
370
13
48
1
60
0
100
AcDbLine
10
100.5
20
-35.952229
30
0
11
3
21
-35.952229
31
0
39
0
210
0
220
0
230
1
0
SOLID
5
179
100
AcDbEntity
8
SK2
62
256
6
ByLayer
370
18
48
1
60
0
100
AcDbTrace
10
100.5
20
-35.952229
30
0
11
97.000002
21
-36.413013
31
0
12
96.999998
22
-35.491446
32
0
13
96.999998
23
-35.491446
33
0
39
0
210
0
220
0
230
1
0
SOLID
5
17A
100
AcDbEntity
8
SK2
62
256
6
ByLayer
370
18
48
1
60
0
100
AcDbTrace
10
3
20
-35.952229
30
0
11
6.499998
21
-35.491446
31
0
12
6.500002
22
-36.413013
32
0
13
6.500002
23
-36.413013
33
0
39
0
210
0
220
0
230
1
0
ENDBLK
5
17C
100
AcDbEntity
8
0
100
AcDbBlockEnd
0
BLOCK
5
181
100
AcDbEntity
8
0
100
AcDbBlockBegin
2
*D5
70
1
10
0
20
0
30
0
3
*D5
0
LINE
5
183
100
AcDbEntity
8
0
62
256
6
ByLayer
370
-2
48
1
60
0
100
AcDbLine
10
-56
20
-14.2875
30
0
11
-56
21
-37.952229
31
0
39
0
210
0
220
0
230
1
0
LINE
5
184
100
AcDbEntity
8
0
62
256
6
ByLayer
370
-2
48
1
60
0
100
AcDbLine
10
0
20
-14.2875
30
0
11
0
21
-37.952229
31
0
39
0
210
0
220
0
230
1
0
LINE
5
185
100
AcDbEntity
8
0
62
256
6
ByLayer
370
-2
48
1
60
0
100
AcDbLine
10
-52.5
20
-35.952229
30
0
11
-3.5
21
-35.952229
31
0
39
0
210
0
220
0
230
1
0
SOLID
5
186
100
AcDbEntity
8
0
62
256
6
ByLayer
370
-1
48
1
60
0
100
AcDbTrace
10
-52.5
20
-35.368896
30
0
11
-52.5
21
-36.535563
31
0
12
-56
22
-35.952229
32
0
13
-56
23
-35.952229
33
0
39
0
210
0
220
0
230
1
0
SOLID
5
187
100
AcDbEntity
8
0
62
256
6
ByLayer
370
-1
48
1
60
0
100
AcDbTrace
10
-3.5
20
-36.535563
30
0
11
-3.5
21
-35.368896
31
0
12
0
22
-35.952229
32
0
13
0
23
-35.952229
33
0
39
0
210
0
220
0
230
1
0
MTEXT
5
188
100
AcDbEntity
8
0
62
256
6
ByLayer
370
18
48
1
60
0
100
AcDbMText
10
-28
20
-29.952229
30
0
210
0
220
0
230
1
1
\A1;56
40
3
41
0
44
1
50
0
71
5
72
5
7
iso_b_vert
0
POINT
5
189
100
AcDbEntity
8
Defpoints
62
0
6
ByLayer
370
-1
48
1
60
0
100
AcDbPoint
10
-56
20
-12.7
30
0
39
0
210
0
220
0
230
1
50
360
0
POINT
5
18A
100
AcDbEntity
8
Defpoints
62
0
6
ByLayer
370
-1
48
1
60
0
100
AcDbPoint
10
0
20
-12.7
30
0
39
0
210
0
220
0
230
1
50
360
0
POINT
5
18B
100
AcDbEntity
8
Defpoints
62
0
6
ByLayer
370
-1
48
1
60
0
100
AcDbPoint
10
0
20
-35.952229
30
0
39
0
210
0
220
0
230
1
50
360
0
ENDBLK
5
182
100
AcDbEntity
8
0
100
AcDbBlockEnd
0
BLOCK
5
193
100
AcDbEntity
8
0
100
AcDbBlockBegin
2
_U2
70
0
10
0
20
0
30
0
3
_U2
0
MTEXT
5
18D
100
AcDbEntity
8
SK2
62
256
6
ByLayer
370
18
48
1
60
0
100
AcDbMText
10
-32.48237
20
-35.067115
30
0
210
0
220
0
230
1
1
\W0.7468;56.00
40
3
41
0
44
1.084337
50
0
71
7
72
5
7
iso_b_vert
0
LINE
5
18E
100
AcDbEntity
8
SK2
62
256
6
ByLayer
370
13
48
1
60
0
100
AcDbLine
10
-56
20
-14.2875
30
0
11
-56
21
-37.952229
31
0
39
0
210
0
220
0
230
1
0
LINE
5
18F
100
AcDbEntity
8
SK2
62
256
6
ByLayer
370
13
48
1
60
0
100
AcDbLine
10
0
20
-14.2875
30
0
11
0
21
-37.952229
31
0
39
0
210
0
220
0
230
1
0
LINE
5
190
100
AcDbEntity
8
SK2
62
256
6
ByLayer
370
13
48
1
60
0
100
AcDbLine
10
-56
20
-35.952229
30
0
11
0
21
-35.952229
31
0
39
0
210
0
220
0
230
1
0
SOLID
5
191
100
AcDbEntity
8
SK2
62
256
6
ByLayer
370
18
48
1
60
0
100
AcDbTrace
10
-56
20
-35.952229
30
0
11
-52.500002
21
-35.491446
31
0
12
-52.499998
22
-36.413013
32
0
13
-52.499998
23
-36.413013
33
0
39
0
210
0
220
0
230
1
0
SOLID
5
192
100
AcDbEntity
8
SK2
62
256
6
ByLayer
370
18
48
1
60
0
100
AcDbTrace
10
0
20
-35.952229
30
0
11
-3.499998
21
-36.413013
31
0
12
-3.500002
22
-35.491446
32
0
13
-3.500002
23
-35.491446
33
0
39
0
210
0
220
0
230
1
0
ENDBLK
5
194
100
AcDbEntity
8
0
100
AcDbBlockEnd
0
BLOCK
5
199
100
AcDbEntity
8
0
100
AcDbBlockBegin
2
*D7
70
1
10
0
20
0
30
0
3
*D7
0
LINE
5
19B
100
AcDbEntity
8
0
62
256
6
ByLayer
370
-2
48
1
60
0
100
AcDbLine
10
100.5
20
1.5875
30
0
11
100.5
21
34.952229
31
0
39
0
210
0
220
0
230
1
0
LINE
5
19C
100
AcDbEntity
8
0
62
256
6
ByLayer
370
-2
48
1
60
0
100
AcDbLine
10
31
20
11.311
30
0
11
31
21
34.952229
31
0
39
0
210
0
220
0
230
1
0
LINE
5
19D
100
AcDbEntity
8
0
62
256
6
ByLayer
370
-2
48
1
60
0
100
AcDbLine
10
97
20
32.952229
30
0
11
34.5
21
32.952229
31
0
39
0
210
0
220
0
230
1
0
SOLID
5
19E
100
AcDbEntity
8
0
62
256
6
ByLayer
370
-1
48
1
60
0
100
AcDbTrace
10
97
20
32.368896
30
0
11
97
21
33.535563
31
0
12
100.5
22
32.952229
32
0
13
100.5
23
32.952229
33
0
39
0
210
0
220
0
230
1
0
SOLID
5
19F
100
AcDbEntity
8
0
62
256
6
ByLayer
370
-1
48
1
60
0
100
AcDbTrace
10
34.5
20
33.535563
30
0
11
34.5
21
32.368896
31
0
12
31
22
32.952229
32
0
13
31
23
32.952229
33
0
39
0
210
0
220
0
230
1
0
MTEXT
5
1A0
100
AcDbEntity
8
0
62
256
6
ByLayer
370
18
48
1
60
0
100
AcDbMText
10
65.75
20
38.952229
30
0
210
0
220
0
230
1
1
\A1;69.5
40
3
41
0
44
1
50
0
71
5
72
5
7
iso_b_vert
0
POINT
5
1A1
100
AcDbEntity
8
Defpoints
62
0
6
ByLayer
370
-1
48
1
60
0
100
AcDbPoint
10
100.5
20
0
30
0
39
0
210
0
220
0
230
1
50
360
0
POINT
5
1A2
100
AcDbEntity
8
Defpoints
62
0
6
ByLayer
370
-1
48
1
60
0
100
AcDbPoint
10
31
20
9.7235
30
0
39
0
210
0
220
0
230
1
50
360
0
POINT
5
1A3
100
AcDbEntity
8
Defpoints
62
0
6
ByLayer
370
-1
48
1
60
0
100
AcDbPoint
10
31
20
32.952229
30
0
39
0
210
0
220
0
230
1
50
360
0
ENDBLK
5
19A
100
AcDbEntity
8
0
100
AcDbBlockEnd
0
BLOCK
5
1AB
100
AcDbEntity
8
0
100
AcDbBlockBegin
2
_U3
70
0
10
0
20
0
30
0
3
_U3
0
MTEXT
5
1A5
100
AcDbEntity
8
SK2
62
256
6
ByLayer
370
18
48
1
60
0
100
AcDbMText
10
61.26763
20
33.837344
30
0
210
0
220
0
230
1
1
\W0.7468;69.50
40
3
41
0
44
1.084337
50
0
71
7
72
5
7
iso_b_vert
0
LINE
5
1A6
100
AcDbEntity
8
SK2
62
256
6
ByLayer
370
13
48
1
60
0
100
AcDbLine
10
100.5
20
1.5875
30
0
11
100.5
21
34.952229
31
0
39
0
210
0
220
0
230
1
0
LINE
5
1A7
100
AcDbEntity
8
SK2
62
256
6
ByLayer
370
13
48
1
60
0
100
AcDbLine
10
31
20
11.311
30
0
11
31
21
34.952229
31
0
39
0
210
0
220
0
230
1
0
LINE
5
1A8
100
AcDbEntity
8
SK2
62
256
6
ByLayer
370
13
48
1
60
0
100
AcDbLine
10
100.5
20
32.952229
30
0
11
31
21
32.952229
31
0
39
0
210
0
220
0
230
1
0
SOLID
5
1A9
100
AcDbEntity
8
SK2
62
256
6
ByLayer
370
18
48
1
60
0
100
AcDbTrace
10
100.5
20
32.952229
30
0
11
97.000002
21
32.491446
31
0
12
96.999998
22
33.413013
32
0
13
96.999998
23
33.413013
33
0
39
0
210
0
220
0
230
1
0
SOLID
5
1AA
100
AcDbEntity
8
SK2
62
256
6
ByLayer
370
18
48
1
60
0
100
AcDbTrace
10
31
20
32.952229
30
0
11
34.499998
21
33.413013
31
0
12
34.500002
22
32.491446
32
0
13
34.500002
23
32.491446
33
0
39
0
210
0
220
0
230
1
0
ENDBLK
5
1AC
100
AcDbEntity
8
0
100
AcDbBlockEnd
0
ENDSEC
0
SECTION
2
ENTITIES
0
ARC
5
C1
100
AcDbEntity
8
SK2
62
256
6
ByLayer
370
13
48
1
60
0
100
AcDbCircle
39
0
10
100.5
20
0
30
0
40
19
210
0
220
0
230
1
100
AcDbArc
50
290
51
70
0
ELLIPSE
5
C2
100
AcDbEntity
8
SK1
62
256
6
ByLayer
370
18
48
1
60
0
100
AcDbEllipse
10
-20.619083
20
0
30
0
11
13.6190826173124
21
-1.54317782980885E-14
31
0
210
0
220
0
230
1
40
0.932515
41
-0.624896586633934
42
0.624896586633934
0
ELLIPSE
5
C3
100
AcDbEntity
8
SK1
62
256
6
ByLayer
370
18
48
1
60
0
100
AcDbEllipse
10
-37.157058
20
0
30
0
11
-2.33287510403163E-15
21
-12.7
31
0
210
0
220
0
230
1
40
0.932515
41
-2.1956929134288
42
-0.945899740160989
0
POINT
5
70
100
AcDbEntity
8
81
62
256
6
ByLayer
370
18
48
1
60
0
100
AcDbPoint
10
100.5
20
0
30
0
39
0
210
0
220
0
230
1
50
360
0
POINT
5
72
100
AcDbEntity
8
80
62
256
6
ByLayer
370
18
48
1
60
0
100
AcDbPoint
10
0
20
0
30
0
39
0
210
0
220
0
230
1
50
360
0
POINT
5
74
100
AcDbEntity
8
1
62
256
6
ByLayer
370
18
48
1
60
1
100
AcDbPoint
10
-56
20
-12.7
30
0
39
0
210
0
220
0
230
1
50
360
0
POINT
5
76
100
AcDbEntity
8
1
62
256
6
ByLayer
370
18
48
1
60
1
100
AcDbPoint
10
100.5
20
0
30
0
39
0
210
0
220
0
230
1
50
360
0
POINT
5
77
100
AcDbEntity
8
1
62
256
6
ByLayer
370
18
48
1
60
1
100
AcDbPoint
10
100.5
20
0
30
0
39
0
210
0
220
0
230
1
50
360
0
POINT
5
78
100
AcDbEntity
8
1
62
256
6
ByLayer
370
18
48
1
60
1
100
AcDbPoint
10
3
20
-9.7235
30
0
39
0
210
0
220
0
230
1
50
360
0
POINT
5
79
100
AcDbEntity
8
1
62
256
6
ByLayer
370
18
48
1
60
1
100
AcDbPoint
10
-56
20
-12.7
30
0
39
0
210
0
220
0
230
1
50
360
0
POINT
5
7A
100
AcDbEntity
8
1
62
256
6
ByLayer
370
18
48
1
60
1
100
AcDbPoint
10
0
20
-12.7
30
0
39
0
210
0
220
0
230
1
50
360
0
POINT
5
7B
100
AcDbEntity
8
1
62
256
6
ByLayer
370
18
48
1
60
1
100
AcDbPoint
10
100.5
20
0
30
0
39
0
210
0
220
0
230
1
50
360
0
POINT
5
7C
100
AcDbEntity
8
1
62
256
6
ByLayer
370
18
48
1
60
1
100
AcDbPoint
10
31
20
9.7235
30
0
39
0
210
0
220
0
230
1
50
360
0
SPLINE
5
C4
100
AcDbEntity
8
1
62
256
6
ByLayer
370
18
48
1
60
0
100
AcDbSpline
70
4
71
3
72
16
73
12
40
0
40
0
40
0
40
0
40
0.387803586319217
40
0.387803586319217
40
0.581705379478814
40
0.581705379478814
40
0.775607172638412
40
0.775607172638412
40
0.969508965798009
40
0.969508965798009
40
1
40
1
40
1
40
1
41
1
10
87
20
-9.65146784310357
30
0
41
1
10
87.4157403231061
20
-9.66964762600406
30
0
41
1
10
87.8312579201408
20
-9.68433968763898
30
0
41
1
10
88.4541258641343
20
-9.70114217503576
30
0
41
1
10
88.6616805222849
20
-9.70586961369946
30
0
41
1
10
89.0766422546689
20
-9.71356792345065
30
0
41
1
10
89.284035207769
20
-9.71653929116005
30
0
41
1
10
89.6987697810065
20
-9.7207040274883
30
0
41
1
10
89.9061420289805
20
-9.72189586101271
30
0
41
1
10
90.1461619801858
20
-9.72225332890446
30
0
41
1
10
90.1787769937073
20
-9.72228009445379
30
0
41
1
10
90.2113924841918
20
-9.72228507581099
30
0
0
SPLINE
5
C5
100
AcDbEntity
8
1
62
256
6
ByLayer
370
18
48
1
60
0
100
AcDbSpline
70
4
71
3
72
128
73
124
40
0
40
0
40
0
40
0
40
0.031250000000002
40
0.031250000000002
40
0.0625000000000041
40
0.0625000000000041
40
0.0703125000000046
40
0.0703125000000046
40
0.0781250000000051
40
0.0781250000000051
40
0.0937500000000061
40
0.0937500000000061
40
0.125000000000008
40
0.125000000000008
40
0.140625000000009
40
0.140625000000009
40
0.15625000000001
40
0.15625000000001
40
0.171875000000011
40
0.171875000000011
40
0.187500000000012
40
0.187500000000012
40
0.218750000000015
40
0.218750000000015
40
0.226562500000016
40
0.226562500000016
40
0.234375000000017
40
0.234375000000017
40
0.250000000000018
40
0.250000000000018
40
0.26562500000002
40
0.26562500000002
40
0.281250000000021
40
0.281250000000021
40
0.289062500000022
40
0.289062500000022
40
0.296875000000022
40
0.296875000000022
40
0.312500000000024
40
0.312500000000024
40
0.343750000000026
40
0.343750000000026
40
0.359375000000027
40
0.359375000000027
40
0.367187500000027
40
0.367187500000027
40
0.375000000000028
40
0.375000000000028
40
0.390625000000029
40
0.390625000000029
40
0.40625000000003
40
0.40625000000003
40
0.437500000000031
40
0.437500000000031
40
0.445312500000032
40
0.445312500000032
40
0.453125000000033
40
0.453125000000033
40
0.468750000000034
40
0.468750000000034
40
0.500000000000038
40
0.500000000000038
40
0.515625000000039
40
0.515625000000039
40
0.523437500000039
40
0.523437500000039
40
0.53125000000004
40
0.53125000000004
40
0.56250000000004
40
0.56250000000004
40
0.578125000000041
40
0.578125000000041
40
0.585937500000041
40
0.585937500000041
40
0.593750000000041
40
0.593750000000041
40
0.62500000000004
40
0.62500000000004
40
0.65625000000004
40
0.65625000000004
40
0.671875000000039
40
0.671875000000039
40
0.687500000000039
40
0.687500000000039
40
0.703125000000039
40
0.703125000000039
40
0.718750000000039
40
0.718750000000039
40
0.734375000000038
40
0.734375000000038
40
0.742187500000038
40
0.742187500000038
40
0.750000000000038
40
0.750000000000038
40
0.781250000000035
40
0.781250000000035
40
0.796875000000033
40
0.796875000000033
40
0.804687500000032
40
0.804687500000032
40
0.81250000000003
40
0.81250000000003
40
0.820312500000029
40
0.820312500000029
40
0.828125000000027
40
0.828125000000027
40
0.843750000000024
40
0.843750000000024
40
0.875000000000018
40
0.875000000000018
40
0.882812500000017
40
0.882812500000017
40
0.890625000000016
40
0.890625000000016
40
0.906250000000013
40
0.906250000000013
40
0.937500000000008
40
0.937500000000008
40
0.953125000000006
40
0.953125000000006
40
0.968750000000004
40
0.968750000000004
40
1
40
1
40
1
40
1
41
1
10
18.1392835589703
20
8.38481946894916
30
0
41
1
10
18.8568460490848
20
8.2825020058371
30
0
41
1
10
19.5742910070987
20
8.17185771760191
30
0
41
1
10
21.0084325958334
20
7.93369248964237
30
0
41
1
10
21.7251328111021
20
7.80617387571465
30
0
41
1
10
22.6202427483854
20
7.63568273421441
30
0
41
1
10
22.7992256493762
20
7.60102686103679
30
0
41
1
10
23.1571116194127
20
7.53058950795176
30
0
41
1
10
23.3360180180988
20
7.49481258294199
30
0
41
1
10
23.8728168205812
20
7.38612891052927
30
0
41
1
10
24.2308120798363
20
7.31191569989514
30
0
41
1
10
25.3049961174781
20
7.08375770633407
30
0
41
1
10
26.021396696705
20
6.92433462745797
30
0
41
1
10
27.0960755125653
20
6.67357177006357
30
0
41
1
10
27.454313411698
20
6.58803841925121
30
0
41
1
10
28.1707563165228
20
6.41291047256607
30
0
41
1
10
28.528918225049
20
6.32321276003989
30
0
41
1
10
29.2458785398641
20
6.1411661562658
30
0
41
1
10
29.6046122126902
20
6.04868953325001
30
0
41
1
10
30.3224773757858
20
5.86062277364346
30
0
41
1
10
30.6816630786744
20
5.76503039549596
30
0
41
1
10
31.7587449753299
20
5.47371606829023
30
0
41
1
10
32.4764568134722
20
5.27335251671497
30
0
41
1
10
33.3729025689215
20
5.0144478057897
30
0
41
1
10
33.5521656118643
20
4.96226346456518
30
0
41
1
10
33.9107714127216
20
4.85741213955205
30
0
41
1
10
34.0901135621087
20
4.80474444737339
30
0
41
1
10
34.6282323574823
20
4.64596122053604
30
0
41
1
10
34.9870958517969
20
4.53905269528528
30
0
41
1
10
35.7049795583679
20
4.32295270730955
30
0
41
1
10
36.0640038861718
20
4.21377154468897
30
0
41
1
10
36.7821609240211
20
3.99299763995461
30
0
41
1
10
37.1412077967872
20
3.88142711617567
30
0
41
1
10
37.6794901642128
20
3.7122245742506
30
0
41
1
10
37.8588795168968
20
3.65551276233469
30
0
41
1
10
38.2175746565607
20
3.54144457958782
30
0
41
1
10
38.3968720607282
20
3.48406537709337
30
0
41
1
10
38.934755598071
20
3.31127162773566
30
0
41
1
10
39.2934358914517
20
3.19548036904314
30
0
41
1
10
40.3697699950703
20
2.84641270745706
30
0
41
1
10
41.0876176869262
20
2.61118018123
30
0
41
1
10
42.1644876335903
20
2.25362130383343
30
0
41
1
10
42.523501366754
20
2.13362924409134
30
0
41
1
10
43.0618546523527
20
1.95236460485589
30
0
41
1
10
43.2412543037042
20
1.89172589954663
30
0
41
1
10
43.5999701450569
20
1.77006868066874
30
0
41
1
10
43.7792934029901
20
1.709070269634
30
0
41
1
10
44.3173537258785
20
1.52612378650463
30
0
41
1
10
44.6761524239653
20
1.40414246803496
30
0
41
1
10
45.3938088378832
20
1.15979564763768
30
0
41
1
10
45.7526709770176
20
1.03744272616348
30
0
41
1
10
46.8292811975141
20
0.669623444517725
30
0
41
1
10
47.54704956478
20
0.423389422776722
30
0
41
1
10
48.4439943531022
20
0.113418680334462
30
0
41
1
10
48.6233634573141
20
0.0512960721902971
30
0
41
1
10
48.9821707319417
20
-0.0728886301554041
30
0
41
1
10
49.1615785809682
20
-0.134889680950238
30
0
41
1
10
49.6997553837694
20
-0.320491699992459
30
0
41
1
10
50.0584908671408
20
-0.443783824582283
30
0
41
1
10
51.1344115678242
20
-0.812768566038926
30
0
41
1
10
51.8513382280771
20
-1.05749417393463
30
0
41
1
10
52.9258447658383
20
-1.42371609979907
30
0
41
1
10
53.2838506659616
20
-1.54568944844897
30
0
41
1
10
53.8206437583692
20
-1.72840397014019
30
0
41
1
10
53.9995542257516
20
-1.7892232041238
30
0
41
1
10
54.3574535908577
20
-1.91034783697899
30
0
41
1
10
54.5364323744819
20
-1.97068258649722
30
0
41
1
10
55.431430563422
20
-2.27134261855915
30
0
41
1
10
56.1477333149271
20
-2.50871801673293
30
0
41
1
10
57.2222946861967
20
-2.86106177347031
30
0
41
1
10
57.5804990827067
20
-2.97789001898454
30
0
41
1
10
58.117787965402
20
-3.15231554817666
30
0
41
1
10
58.2968813240209
20
-3.21032110998146
30
0
41
1
10
58.6550555137126
20
-3.32607560565344
30
0
41
1
10
58.834131760865
20
-3.3838369177528
30
0
41
1
10
59.7297456710889
20
-3.67127083672156
30
0
41
1
10
60.44727499033
20
-3.89607007353638
30
0
41
1
10
61.8837000060681
20
-4.33715404486699
30
0
41
1
10
62.6016052032816
20
-4.55306619174704
30
0
41
1
10
63.6776301755098
20
-4.87083664800633
30
0
41
1
10
64.0360978536779
20
-4.97590220098843
30
0
41
1
10
64.7533719587033
20
-5.18246143179451
30
0
41
1
10
65.1121491143987
20
-5.28403551588579
30
0
41
1
10
65.829864809815
20
-5.48409095579274
30
0
41
1
10
66.1888086054037
20
-5.58255916915658
30
0
41
1
10
66.9068162212672
20
-5.77650366610098
30
0
41
1
10
67.2659374985546
20
-5.87199685264724
30
0
41
1
10
67.9839009667349
20
-6.06002959969786
30
0
41
1
10
68.3427358129512
20
-6.15256769140873
30
0
41
1
10
68.8807234934469
20
-6.28921895016916
30
0
41
1
10
69.06000848933
20
-6.33440912129311
30
0
41
1
10
69.4186130815879
20
-6.42380745717298
30
0
41
1
10
69.597943917449
20
-6.46799295770972
30
0
41
1
10
70.4947234357872
20
-6.68640960793229
30
0
41
1
10
71.2124813158748
20
-6.85327021459375
30
0
41
1
10
72.2892337508248
20
-7.09262062180824
30
0
41
1
10
72.6481719556308
20
-7.17057299628436
30
0
41
1
10
73.1865652785239
20
-7.28481437954676
30
0
41
1
10
73.366041332443
20
-7.32244948321173
30
0
41
1
10
73.7249117736828
20
-7.39681409016089
30
0
41
1
10
73.9042867272213
20
-7.43355499208215
30
0
41
1
10
74.2629802153731
20
-7.50603664108903
30
0
41
1
10
74.4423120978755
20
-7.5417544070167
30
0
41
1
10
74.8010336714531
20
-7.61200491326943
30
0
41
1
10
74.9804117701144
20
-7.64655773552937
30
0
41
1
10
75.5185733995733
20
-7.74855214561086
30
0
41
1
10
75.8773797158195
20
-7.8143380974075
30
0
41
1
10
76.9538034967488
20
-8.00525374834109
30
0
41
1
10
77.6714352974674
20
-8.12394984308582
30
0
41
1
10
78.5681892539699
20
-8.2618919240382
30
0
41
1
10
78.7475250240577
20
-8.28895804265474
30
0
41
1
10
79.1061649490957
20
-8.34203838130443
30
0
41
1
10
79.2854724263036
20
-8.36804733932516
30
0
41
1
10
79.8235494938697
20
-8.44424578721942
30
0
41
1
10
80.1825617941902
20
-8.49259402357387
30
0
41
1
10
81.2595165130339
20
-8.63050181520353
30
0
41
1
10
81.9773855966922
20
-8.71293162995909
30
0
41
1
10
83.0536967210693
20
-8.82268516504547
30
0
41
1
10
83.4123834077718
20
-8.85694978147922
30
0
41
1
10
84.1295301585022
20
-8.9208280695519
30
0
41
1
10
84.4879490027572
20
-8.95045712025805
30
0
41
1
10
85.5638879174684
20
-9.03163204978082
30
0
41
1
10
86.2817858389534
20
-9.07575113284886
30
0
41
1
10
87.0000000000001
20
-9.11013606835297
30
0
0
SPLINE
5
C6
100
AcDbEntity
8
1
62
256
6
ByLayer
370
18
48
1
60
0
100
AcDbSpline
70
4
71
3
72
106
73
102
40
0
40
0
40
0
40
0
40
0.014044834609299
40
0.014044834609299
40
0.0341663685968627
40
0.0341663685968627
40
0.0744094365719909
40
0.0744094365719909
40
0.094530970559555
40
0.094530970559555
40
0.114652504547119
40
0.114652504547119
40
0.134774038534683
40
0.134774038534683
40
0.154895572522247
40
0.154895572522247
40
0.175017106509811
40
0.175017106509811
40
0.185077873503594
40
0.185077873503594
40
0.195138640497376
40
0.195138640497376
40
0.21526017448494
40
0.21526017448494
40
0.235381708472505
40
0.235381708472505
40
0.25550324246007
40
0.25550324246007
40
0.275624776447635
40
0.275624776447635
40
0.285685543441417
40
0.285685543441417
40
0.295746310435199
40
0.295746310435199
40
0.315867844422763
40
0.315867844422763
40
0.356110912397892
40
0.356110912397892
40
0.366171679391675
40
0.366171679391675
40
0.376232446385457
40
0.376232446385457
40
0.396353980373022
40
0.396353980373022
40
0.436597048348151
40
0.436597048348151
40
0.456718582335715
40
0.456718582335715
40
0.466779349329497
40
0.466779349329497
40
0.476840116323279
40
0.476840116323279
40
0.51708318429841
40
0.51708318429841
40
0.537204718285976
40
0.537204718285976
40
0.547265485279758
40
0.547265485279758
40
0.557326252273541
40
0.557326252273541
40
0.577447786261106
40
0.577447786261106
40
0.597569320248671
40
0.597569320248671
40
0.637812388223801
40
0.637812388223801
40
0.647873155217584
40
0.647873155217584
40
0.657933922211366
40
0.678055456198932
40
0.678055456198932
40
0.698176990186498
40
0.698176990186498
40
0.718298524174064
40
0.718298524174064
40
0.728359291167847
40
0.728359291167847
40
0.73842005816163
40
0.73842005816163
40
0.758541592149197
40
0.758541592149197
40
0.798784660124332
40
0.798784660124332
40
0.818906194111899
40
0.818906194111899
40
0.828966961105683
40
0.828966961105683
40
0.839027728099467
40
0.839027728099467
40
0.84908849509325
40
0.84908849509325
40
0.859149262087034
40
0.879270796074601
40
0.879270796074601
40
0.899392330062168
40
0.899392330062168
40
0.919513864049734
40
0.919513864049734
40
0.959756932024867
40
0.959756932024867
40
1
40
1
40
1
40
1
41
1
10
70.6776260864343
20
-6.73221908719012
30
0
41
1
10
70.4125876230562
20
-6.79449155393593
30
0
41
1
10
70.1476187979709
20
-6.85583448704855
30
0
41
1
10
69.5031592662954
20
-7.00268765623662
30
0
41
1
10
69.1236021284883
20
-7.08694136961822
30
0
41
1
10
67.9846956066459
20
-7.33272283806534
30
0
41
1
10
67.2252015579456
20
-7.4874634563854
30
0
41
1
10
66.0857794863037
20
-7.70620039300135
30
0
41
1
10
65.705945155855
20
-7.77688471806721
30
0
41
1
10
64.9462449176716
20
-7.91378908469295
30
0
41
1
10
64.5664082265409
20
-7.98004433708928
30
0
41
1
10
63.8061948541747
20
-8.10731053011875
30
0
41
1
10
63.4258643571316
20
-8.16839797875457
30
0
41
1
10
62.6647843788043
20
-8.2855459605511
30
0
41
1
10
62.2839497527939
20
-8.34161632479794
30
0
41
1
10
61.5225895052252
20
-8.44865536379331
30
0
41
1
10
61.1420048100943
20
-8.49963485726434
30
0
41
1
10
60.5712978773589
20
-8.57230685805513
30
0
41
1
10
60.3810902720879
20
-8.59589727238645
30
0
41
1
10
60.0007337572421
20
-8.64180707736094
30
0
41
1
10
59.8105909058836
20
-8.66413192813641
30
0
41
1
10
59.2401639764669
20
-8.72910593354709
30
0
41
1
10
58.8598050680986
20
-8.76968392619446
30
0
41
1
10
58.0988925291548
20
-8.84537516639693
30
0
41
1
10
57.718351035804
20
-8.88049997521603
30
0
41
1
10
56.9571206969052
20
-8.94534542007747
30
0
41
1
10
56.5764027212577
20
-8.9750679553421
30
0
41
1
10
55.8149727359292
20
-9.02910164949552
30
0
41
1
10
55.4343982083092
20
-9.05340472989562
30
0
41
1
10
54.863764612229
20
-9.08576455106356
30
0
41
1
10
54.6735967991581
20
-9.09587006534474
30
0
41
1
10
54.293267410618
20
-9.11467934983875
30
0
41
1
10
54.1030930827776
20
-9.12337847351085
30
0
41
1
10
53.5325171148057
20
-9.14736252705217
30
0
41
1
10
53.1520747597169
20
-9.160540657524
30
0
41
1
10
52.010612388225
20
-9.19171525129036
30
0
41
1
10
51.2494494802341
20
-9.20137336680565
30
0
41
1
10
50.2979140769157
20
-9.19946096425167
30
0
41
1
10
50.1075872311832
20
-9.1983772130954
30
0
41
1
10
49.7270410709205
20
-9.19479994352574
30
0
41
1
10
49.5368183368645
20
-9.19230527168168
30
0
41
1
10
48.966167404263
20
-9.18271514425516
30
0
41
1
10
48.585708523795
20
-9.17352530591063
30
0
41
1
10
47.4442728608757
20
-9.13765594958326
30
0
41
1
10
46.6832435908261
20
-9.10269793287682
30
0
41
1
10
45.5417558151318
20
-9.0336445724281
30
0
41
1
10
45.1612724888258
20
-9.00785014098491
30
0
41
1
10
44.5905806551314
20
-8.96494082029943
30
0
41
1
10
44.4003568536155
20
-8.94993260922888
30
0
41
1
10
44.0198268984797
20
-8.91856763529495
30
0
41
1
10
43.8295141398216
20
-8.90221656486537
30
0
41
1
10
42.8780442261279
20
-8.81716462836874
30
0
41
1
10
42.1169116948471
20
-8.73857247531316
30
0
41
1
10
40.9754249226687
20
-8.60486572525764
30
0
41
1
10
40.5949663875675
20
-8.55765380848584
30
0
41
1
10
40.0243581373593
20
-8.48281961480254
30
0
41
1
10
39.8341688282707
20
-8.45720490840444
30
0
41
1
10
39.4538161589748
20
-8.40462876179654
30
0
41
1
10
39.2636522975121
20
-8.37766692062547
30
0
41
1
10
38.6930452159967
20
-8.29494214557207
30
0
41
1
10
38.3124800914534
20
-8.23735326957029
30
0
41
1
10
37.551060075085
20
-8.11730293140155
30
0
41
1
10
37.1703711888617
20
-8.0548681652833
30
0
41
1
10
36.0285379073773
20
-7.86034015595809
30
0
41
1
10
35.2675790377002
20
-7.72101529644024
30
0
41
1
10
34.3168289307233
20
-7.53447646619512
30
0
41
1
10
34.1266962349868
20
-7.49655568900744
30
0
41
1
10
33.7463611224408
20
-7.41966445153898
30
0
41
1
10
33.1757634406253
20
-7.30273902744418
30
0
41
1
10
32.6049004397059
20
-7.18104552049601
30
0
41
1
10
31.8435388987708
20
-7.01452852492994
30
0
41
1
10
31.4627180572084
20
-6.92913291251367
30
0
41
1
10
30.7015212548995
20
-6.75417231927526
30
0
41
1
10
30.3210717332649
20
-6.66458805933846
30
0
41
1
10
29.750643561047
20
-6.52699437813402
30
0
41
1
10
29.5605440089304
20
-6.48058883741697
30
0
41
1
10
29.1804171249059
20
-6.38672050423412
30
0
41
1
10
28.9903856329922
20
-6.33926582952896
30
0
41
1
10
28.4202359553862
20
-6.19566243387749
30
0
41
1
10
28.0400886390926
20
-6.09822249883624
30
0
41
1
10
26.8995476720363
20
-5.80074738568274
30
0
41
1
10
26.1390466101717
20
-5.59558981878413
30
0
41
1
10
24.9982587674278
20
-5.27716839803483
30
0
41
1
10
24.6180008615062
20
-5.16921706682712
30
0
41
1
10
24.0475902958845
20
-5.00461704899257
30
0
41
1
10
23.8574392725676
20
-4.94932926599844
30
0
41
1
10
23.4770153972047
20
-4.83814439623427
30
0
41
1
10
23.2867508290008
20
-4.7822273192601
30
0
41
1
10
22.9061203366093
20
-4.66973805291997
30
0
41
1
10
22.7157558434077
20
-4.61316575974107
30
0
41
1
10
22.3351187838887
20
-4.49941623090675
30
0
41
1
10
21.7642298258477
20
-4.32786331402539
30
0
41
1
10
21.1935512378124
20
-4.15350615516761
30
0
41
1
10
20.4328618203443
20
-3.91846457213057
30
0
41
1
10
20.0526267966487
20
-3.799655814191
30
0
41
1
10
19.2924039621545
20
-3.55937450021881
30
0
41
1
10
18.9124667317006
20
-3.43776215435361
30
0
41
1
10
17.7723376650897
20
-3.07077350379367
30
0
41
1
10
17.011911011994
20
-2.82304570498081
30
0
41
1
10
15.4905633663679
20
-2.32101263043441
30
0
41
1
10
14.7296334432205
20
-2.06673424928985
30
0
41
1
10
13.9685872307865
20
-1.80871568886201
30
0
0
SPLINE
5
C7
100
AcDbEntity
8
1
62
256
6
ByLayer
370
18
48
1
60
0
100
AcDbSpline
70
4
71
3
72
20
73
16
40
0
40
0
40
0
40
0
40
0.124999999999999
40
0.124999999999999
40
0.187499999999999
40
0.187499999999999
40
0.249999999999998
40
0.249999999999998
40
0.499999999999996
40
0.499999999999996
40
0.624999999999995
40
0.624999999999995
40
0.749999999999994
40
0.749999999999994
40
1
40
1
40
1
40
1
41
1
10
96.9609354271101
20
-1.38819411071378
30
0
41
1
10
96.5452696369488
20
-1.23869644334979
30
0
41
1
10
96.1298653398634
20
-1.0886267759272
30
0
41
1
10
95.5071876400496
20
-0.862564465528294
30
0
41
1
10
95.2997089125303
20
-0.78702567195333
30
0
41
1
10
94.8847902341766
20
-0.63591832008953
30
0
41
1
10
94.6773331246904
20
-0.560397335421612
30
0
41
1
10
93.6400307669808
20
-0.183031983536324
30
0
41
1
10
92.8101813667824
20
0.118223981054342
30
0
41
1
10
91.5656544183086
20
0.569876531397512
30
0
41
1
10
91.1508578297022
20
0.720400976880455
30
0
41
1
10
90.3214053887431
20
1.02153006018463
30
0
41
1
10
89.9067882184131
20
1.17224050487215
30
0
41
1
10
88.6620640435096
20
1.62150637497018
30
0
41
1
10
87.8313793323026
20
1.91801223375521
30
0
41
1
10
87.0000000000001
20
2.21199334932629
30
0
0
SPLINE
5
C8
100
AcDbEntity
8
1
62
256
6
ByLayer
370
18
48
1
60
0
100
AcDbSpline
70
4
71
3
72
89
73
85
40
0
40
0
40
0
40
0
40
0.0312500000000053
40
0.0312500000000053
40
0.0625000000000106
40
0.0625000000000106
40
0.125000000000019
40
0.125000000000019
40
0.140625000000022
40
0.140625000000022
40
0.148437500000022
40
0.148437500000022
40
0.156250000000022
40
0.187500000000024
40
0.218750000000025
40
0.218750000000025
40
0.250000000000027
40
0.250000000000027
40
0.281250000000028
40
0.281250000000028
40
0.296875000000028
40
0.296875000000028
40
0.312500000000028
40
0.312500000000028
40
0.343750000000028
40
0.343750000000028
40
0.375000000000028
40
0.375000000000028
40
0.406250000000028
40
0.406250000000028
40
0.437500000000028
40
0.437500000000028
40
0.445312500000028
40
0.445312500000028
40
0.453125000000029
40
0.468750000000029
40
0.468750000000029
40
0.500000000000029
40
0.500000000000029
40
0.53125000000003
40
0.53125000000003
40
0.53906250000003
40
0.53906250000003
40
0.54687500000003
40
0.562500000000029
40
0.562500000000029
40
0.593750000000029
40
0.593750000000029
40
0.625000000000029
40
0.625000000000029
40
0.632812500000029
40
0.632812500000029
40
0.64062500000003
40
0.65625000000003
40
0.65625000000003
40
0.687500000000031
40
0.687500000000031
40
0.718750000000031
40
0.718750000000031
40
0.726562500000031
40
0.726562500000031
40
0.73437500000003
40
0.73437500000003
40
0.750000000000029
40
0.750000000000029
40
0.781250000000029
40
0.781250000000029
40
0.812500000000028
40
0.812500000000028
40
0.843750000000028
40
0.843750000000028
40
0.851562500000027
40
0.851562500000027
40
0.859375000000026
40
0.875000000000022
40
0.875000000000022
40
0.906250000000016
40
0.937500000000011
40
0.968750000000005
40
0.968750000000005
40
0.976562500000003
40
0.976562500000003
40
0.984375000000002
40
1
40
1
40
1
40
1
41
1
10
96.9609354271126
20
9.41475621418064
30
0
41
1
10
97.0216608229691
20
9.26419614137279
30
0
41
1
10
97.0824816841888
20
9.11137452352449
30
0
41
1
10
97.2044178385057
20
8.80156382505527
30
0
41
1
10
97.265533026805
20
8.64457393837637
30
0
41
1
10
97.4494292365863
20
8.16773744296705
30
0
41
1
10
97.5727776855334
20
7.84205724912954
30
0
41
1
10
97.7280350833782
20
7.42593783979729
30
0
41
1
10
97.7591388108391
20
7.34226030778763
30
0
41
1
10
97.8058707674717
20
7.21606901005148
30
0
41
1
10
97.821471580353
20
7.17386344979718
30
0
41
1
10
97.8526428756417
20
7.08937724595995
30
0
41
1
10
97.930456179105
20
6.87807828464653
30
0
41
1
10
98.0694996279099
20
6.4970009897622
30
0
41
1
10
98.1915415851234
20
6.15720698612193
30
0
41
1
10
98.3126683998054
20
5.81684424637399
30
0
41
1
10
98.3727752458957
20
5.64637887035764
30
0
41
1
10
98.4918132327562
20
5.30479309115975
30
0
41
1
10
98.5507463797614
20
5.13367332332848
30
0
41
1
10
98.637941899334
20
4.8763908115308
30
0
41
1
10
98.666804812103
20
4.79052891569123
30
0
41
1
10
98.7240484912143
20
4.61857555673748
30
0
41
1
10
98.7524386580996
20
4.53245299161537
30
0
41
1
10
98.8363362257074
20
4.27494024664492
30
0
41
1
10
98.8907227833035
20
4.10399829211383
30
0
41
1
10
98.9954110498127
20
3.76330323796213
30
0
41
1
10
99.0457195545564
20
3.59355132005965
30
0
41
1
10
99.1407234777863
20
3.25488739719123
30
0
41
1
10
99.185426921685
20
3.08597610804944
30
0
41
1
10
99.2669200249338
20
2.7485402915253
30
0
41
1
10
99.3037133641656
20
2.5800143834465
30
0
41
1
10
99.342710292323
20
2.36925141016477
30
0
41
1
10
99.3501611900311
20
2.3270713035632
30
0
41
1
10
99.3642823458844
20
2.24278557911472
30
0
41
1
10
99.3842389877502
20
2.11680101369339
30
0
41
1
10
99.4003058100987
20
1.99216585988341
30
0
41
1
10
99.4267305130698
20
1.74476459219554
30
0
41
1
10
99.4366788212011
20
1.58231404475231
30
0
41
1
10
99.4393836464264
20
1.26295877899054
30
0
41
1
10
99.4321246105617
20
1.10605673057086
30
0
41
1
10
99.4123742031337
20
0.913905474418613
30
0
41
1
10
99.4078910924447
20
0.87564190242162
30
0
41
1
10
99.3979076551742
20
0.799668776080495
30
0
41
1
10
99.3814603321476
20
0.686922970817903
30
0
41
1
10
99.3608520228109
20
0.57777344192877
30
0
41
1
10
99.3147807156893
20
0.364151846947294
30
0
41
1
10
99.2776202762499
20
0.227965338867733
30
0
41
1
10
99.1937626751342
20
-0.0324452196897482
30
0
41
1
10
99.1470725432957
20
-0.156672779189137
30
0
41
1
10
99.0843019138983
20
-0.304597970889205
30
0
41
1
10
99.0715155377821
20
-0.333835263138582
30
0
41
1
10
99.0455696262261
20
-0.391476885500197
30
0
41
1
10
99.0061650533781
20
-0.476527216688396
30
0
41
1
10
98.9654543827148
20
-0.557424786823333
30
0
41
1
10
98.8826080249442
20
-0.713850086505829
30
0
41
1
10
98.8254959698597
20
-0.810988774382366
30
0
41
1
10
98.7086184474952
20
-0.991457923133368
30
0
41
1
10
98.64884506693
20
-1.07478577074895
30
0
41
1
10
98.5728298914143
20
-1.17033126286299
30
0
41
1
10
98.557560966854
20
-1.1890086341549
30
0
41
1
10
98.5268970264397
20
-1.22549640892126
30
0
41
1
10
98.5114897012616
20
-1.24331976973278
30
0
41
1
10
98.4652802192571
20
-1.29526796435351
30
0
41
1
10
98.4344376697966
20
-1.32793852869767
30
0
41
1
10
98.3418495823413
20
-1.42019843941151
30
0
41
1
10
98.2800481989717
20
-1.47404787272501
30
0
41
1
10
98.1564056844539
20
-1.56682319252945
30
0
41
1
10
98.0945626233208
20
-1.60574752552756
30
0
41
1
10
97.9708177065377
20
-1.66869559194615
30
0
41
1
10
97.908914967943
20
-1.69271932641925
30
0
41
1
10
97.8314352118467
20
-1.71323859147952
30
0
41
1
10
97.8159221689365
20
-1.71686755304756
30
0
41
1
10
97.785020538962
20
-1.72314021847092
30
0
41
1
10
97.7388100516932
20
-1.73108506698992
30
0
41
1
10
97.6930102655525
20
-1.73468654592537
30
0
41
1
10
97.6019180835078
20
-1.73619729780106
30
0
41
1
10
97.4818145020613
20
-1.723052397191
30
0
41
1
10
97.3050836394822
20
-1.6586854090182
30
0
41
1
10
97.1891308347996
20
-1.58595699559251
30
0
41
1
10
97.1171135938649
20
-1.53098054910186
30
0
41
1
10
97.1027409265141
20
-1.51951393480567
30
0
41
1
10
97.0741153466328
20
-1.49568870875697
30
0
41
1
10
97.0313298576076
20
-1.45859245593667
30
0
41
1
10
96.9889848944009
20
-1.41743440097244
30
0
41
1
10
96.9609354271126
20
-1.38819411071466
30
0
0
SPLINE
5
C9
100
AcDbEntity
8
1
62
256
6
ByLayer
370
18
48
1
60
0
100
AcDbSpline
70
4
71
3
72
22
73
18
40
0
40
0
40
0
40
0
40
0.0777246905141002
40
0.0777246905141002
40
0.262179752411274
40
0.262179752411274
40
0.446634814308447
40
0.446634814308447
40
0.538862345257039
40
0.538862345257039
40
0.631089876205631
40
0.631089876205631
40
0.723317407154224
40
0.723317407154224
40
0.815544938102816
40
0.815544938102816
40
1
40
1
40
1
40
1
41
1
10
90.2113929701213
20
9.7222850758852
30
0
41
1
10
90.3861891767859
20
9.72231177131448
30
0
41
1
10
90.5609990828207
20
9.72171277901811
30
0
41
1
10
91.1506847485963
20
9.7175940910742
30
0
41
1
10
91.5655894066499
20
9.71119526733605
30
0
41
1
10
92.3953902589901
20
9.69142048625918
30
0
41
1
10
92.810285799764
20
9.67804488300098
30
0
41
1
10
93.4325469478737
20
9.65269642158876
30
0
41
1
10
93.6399538088388
20
9.64336537758035
30
0
41
1
10
94.0547293001102
20
9.62292284938997
30
0
41
1
10
94.2620870760522
20
9.61180636084831
30
0
41
1
10
94.6768175066375
20
9.58779892714594
30
0
41
1
10
94.8842161074219
20
9.57491886418885
30
0
41
1
10
95.2992045269069
20
9.54747703400085
30
0
41
1
10
95.5067760573107
20
9.53290766780358
30
0
41
1
10
96.1296811907557
20
9.48664933393306
30
0
41
1
10
96.5452026488613
20
9.4524105810936
30
0
41
1
10
96.9609354271101
20
9.41475621418087
30
0
0
SPLINE
5
CA
100
AcDbEntity
8
1
62
256
6
ByLayer
370
18
48
1
60
0
100
AcDbSpline
70
4
71
3
72
36
73
32
40
0
40
0
40
0
40
0
40
0.0767607335427515
40
0.0767607335427515
40
0.142706395432567
40
0.142706395432567
40
0.175679226377472
40
0.175679226377472
40
0.208652057322377
40
0.208652057322377
40
0.241624888267283
40
0.241624888267283
40
0.274597719212188
40
0.274597719212188
40
0.340543381101999
40
0.340543381101999
40
0.472434704881615
40
0.472434704881615
40
0.505407535826517
40
0.505407535826517
40
0.538380366771419
40
0.538380366771419
40
0.604326028661219
40
0.604326028661219
40
0.736217352440812
40
0.736217352440812
40
0.802163014330609
40
0.802163014330609
40
0.868108676220406
40
0.868108676220406
40
1
40
1
40
1
40
1
41
1
10
70.6771057386152
20
6.72670757027262
30
0
41
1
10
71.0947826745794
20
6.82463073813594
30
0
41
1
10
71.5125364197116
20
6.91996921518012
30
0
41
1
10
72.2892337508249
20
7.09262062180824
30
0
41
1
10
72.6481719556307
20
7.17057299628434
30
0
41
1
10
73.1865652785238
20
7.28481437954673
30
0
41
1
10
73.366041332443
20
7.32244948321173
30
0
41
1
10
73.7249117736828
20
7.39681409016086
30
0
41
1
10
73.9042867272212
20
7.43355499208215
30
0
41
1
10
74.2629802153732
20
7.50603664108903
30
0
41
1
10
74.4423120978755
20
7.5417544070167
30
0
41
1
10
74.8010336714532
20
7.61200491326943
30
0
41
1
10
74.9804117701145
20
7.64655773552934
30
0
41
1
10
75.5185733995734
20
7.74855214561083
30
0
41
1
10
75.8773797158195
20
7.8143380974075
30
0
41
1
10
76.9538034967488
20
8.00525374834109
30
0
41
1
10
77.6714352974673
20
8.12394984308582
30
0
41
1
10
78.5681892539699
20
8.26189192403817
30
0
41
1
10
78.7475250240578
20
8.28895804265474
30
0
41
1
10
79.1061649490958
20
8.34203838130443
30
0
41
1
10
79.2854724263037
20
8.36804733932513
30
0
41
1
10
79.8235494938698
20
8.44424578721942
30
0
41
1
10
80.1825617941903
20
8.49259402357387
30
0
41
1
10
81.259516513034
20
8.63050181520356
30
0
41
1
10
81.9773855966921
20
8.71293162995909
30
0
41
1
10
83.0536967210693
20
8.82268516504547
30
0
41
1
10
83.4123834077717
20
8.85694978147922
30
0
41
1
10
84.1295301585022
20
8.92082806955187
30
0
41
1
10
84.4879490027572
20
8.95045712025802
30
0
41
1
10
85.5638879174683
20
9.03163204978082
30
0
41
1
10
86.2817858389531
20
9.07575113284884
30
0
41
1
10
86.9999999999998
20
9.11013606835294
30
0
0
SPLINE
5
CB
100
AcDbEntity
8
1
62
256
6
ByLayer
370
18
48
1
60
0
100
AcDbSpline
70
4
71
3
72
69
73
65
40
0
40
0
40
0
40
0
40
0.031383379255429
40
0.031383379255429
40
0.0470750688831446
40
0.0470750688831446
40
0.0627667585108601
40
0.0627667585108601
40
0.12553351702172
40
0.12553351702172
40
0.15691689627715
40
0.15691689627715
40
0.18830027553258
40
0.18830027553258
40
0.203991965160294
40
0.203991965160294
40
0.219683654788008
40
0.251067034043434
40
0.251067034043434
40
0.313833792554285
40
0.313833792554285
40
0.329525482181998
40
0.329525482181998
40
0.345217171809713
40
0.345217171809713
40
0.376600551065139
40
0.376600551065139
40
0.439367309575988
40
0.439367309575988
40
0.470750688831414
40
0.470750688831414
40
0.50213406808684
40
0.50213406808684
40
0.564900826597693
40
0.564900826597693
40
0.59628420585312
40
0.59628420585312
40
0.627667585108547
40
0.627667585108547
40
0.659050964363974
40
0.659050964363974
40
0.690434343619401
40
0.690434343619401
40
0.721817722874828
40
0.721817722874828
40
0.737509412502542
40
0.737509412502542
40
0.753201102130255
40
0.753201102130255
40
0.784584481385681
40
0.784584481385681
40
0.815967860641107
40
0.815967860641107
40
0.847351239896533
40
0.847351239896533
40
0.878734619151959
40
0.878734619151959
40
0.894426308779672
40
0.894426308779672
40
0.910117998407385
40
0.910117998407385
40
0.941501377662811
40
0.941501377662811
40
1
40
1
40
1
40
1
41
1
10
87
20
1.91733998819578
30
0
41
1
10
86.6192456579734
20
2.04537409632934
30
0
41
1
10
86.2386206268435
20
2.1728818950516
30
0
41
1
10
85.6678992508649
20
2.36340884832305
30
0
41
1
10
85.4776977431079
20
2.42680344057047
30
0
41
1
10
85.0973524539842
20
2.55330475185556
30
0
41
1
10
84.9072030554942
20
2.61639545866279
30
0
41
1
10
83.9563305075681
20
2.93037650616847
30
0
41
1
10
83.1953612734063
20
3.17722708752001
30
0
41
1
10
82.0536541286158
20
3.5414832028147
30
0
41
1
10
81.6730420951286
20
3.66189487950632
30
0
41
1
10
80.9117674925486
20
3.90078975592417
30
0
41
1
10
80.5311011834739
20
4.01930792714791
30
0
41
1
10
79.9604313107246
20
4.1954272348232
30
0
41
1
10
79.7702337146246
20
4.2538280214514
30
0
41
1
10
79.3898038439324
20
4.36979809172703
30
0
41
1
10
78.8191332209968
20
4.54257457455589
30
0
41
1
10
78.2484040989578
20
4.71188467320667
30
0
41
1
10
77.1069024493222
20
5.04599548973133
30
0
41
1
10
76.3458414908689
20
5.2627310222363
30
0
41
1
10
75.3945930900449
20
5.5264359482664
30
0
41
1
10
75.2043519426906
20
5.57882590896648
30
0
41
1
10
74.8238463739729
20
5.68280563270324
30
0
41
1
10
74.6335531079006
20
5.7343758842978
30
0
41
1
10
74.0627793585128
20
5.88749507576838
30
0
41
1
10
73.6823638988568
20
5.98755558925637
30
0
41
1
10
72.5414555070681
20
6.2818393009002
30
0
41
1
10
71.7812906369725
20
6.47016052791895
30
0
41
1
10
70.6418820443385
20
6.74122709897063
30
0
41
1
10
70.2622399004256
20
6.82971574518194
30
0
41
1
10
69.5031592662953
20
7.00268765623662
30
0
41
1
10
69.1236021284882
20
7.08694136961824
30
0
41
1
10
67.9846956066459
20
7.33272283806537
30
0
41
1
10
67.2252015579455
20
7.4874634563854
30
0
41
1
10
66.0857794863036
20
7.70620039300135
30
0
41
1
10
65.7059451558549
20
7.77688471806724
30
0
41
1
10
64.9462449176716
20
7.91378908469295
30
0
41
1
10
64.5664082265409
20
7.98004433708931
30
0
41
1
10
63.8061948541746
20
8.10731053011878
30
0
41
1
10
63.4258643571316
20
8.16839797875457
30
0
41
1
10
62.6647843788043
20
8.2855459605511
30
0
41
1
10
62.2839497527939
20
8.34161632479794
30
0
41
1
10
61.5225895052251
20
8.44865536379331
30
0
41
1
10
61.1420048100943
20
8.49963485726437
30
0
41
1
10
60.5712978773589
20
8.57230685805516
30
0
41
1
10
60.3810902720879
20
8.59589727238648
30
0
41
1
10
60.000733757242
20
8.64180707736094
30
0
41
1
10
59.8105909058836
20
8.66413192813644
30
0
41
1
10
59.2401639764668
20
8.72910593354709
30
0
41
1
10
58.8598050680986
20
8.76968392619446
30
0
41
1
10
58.0988925291547
20
8.84537516639696
30
0
41
1
10
57.7183510358039
20
8.88049997521603
30
0
41
1
10
56.9571206969051
20
8.94534542007747
30
0
41
1
10
56.5764027212577
20
8.97506795534213
30
0
41
1
10
55.8149727359292
20
9.02910164949552
30
0
41
1
10
55.4343982083092
20
9.05340472989562
30
0
41
1
10
54.863764612229
20
9.08576455106356
30
0
41
1
10
54.673596799158
20
9.09587006534474
30
0
41
1
10
54.293267410618
20
9.11467934983875
30
0
41
1
10
54.1030930827776
20
9.12337847351085
30
0
41
1
10
53.5325171148056
20
9.14736252705217
30
0
41
1
10
53.1520747597168
20
9.160540657524
30
0
41
1
10
52.0623586411167
20
9.19030200416708
30
0
41
1
10
51.3529666838539
20
9.2000084224706
30
0
41
1
10
50.6435106655384
20
9.20000036823853
30
0
0
SPLINE
5
CC
100
AcDbEntity
8
1
62
256
6
ByLayer
370
18
48
1
60
0
100
AcDbSpline
70
4
71
3
72
108
73
104
40
0
40
0
40
0
40
0
40
0.0624999999999998
40
0.0624999999999998
40
0.0937499999999998
40
0.0937499999999998
40
0.125
40
0.125
40
0.15625
40
0.15625
40
0.1875
40
0.1875
40
0.195312499999999
40
0.195312499999999
40
0.203124999999999
40
0.203124999999999
40
0.218749999999999
40
0.218749999999999
40
0.249999999999999
40
0.249999999999999
40
0.281249999999999
40
0.281249999999999
40
0.296874999999999
40
0.296874999999999
40
0.304687499999998
40
0.304687499999998
40
0.312499999999998
40
0.312499999999998
40
0.343749999999999
40
0.343749999999999
40
0.374999999999999
40
0.374999999999999
40
0.378906249999999
40
0.378906249999999
40
0.382812499999999
40
0.382812499999999
40
0.390624999999999
40
0.390624999999999
40
0.40625
40
0.40625
40
0.421875
40
0.421875
40
0.4375
40
0.4375
40
0.4453125
40
0.4453125
40
0.453125
40
0.453125
40
0.46875
40
0.46875
40
0.499999999999999
40
0.499999999999999
40
0.503906249999999
40
0.503906249999999
40
0.507812499999999
40
0.515624999999999
40
0.515624999999999
40
0.531249999999999
40
0.531249999999999
40
0.546874999999999
40
0.546874999999999
40
0.554687499999999
40
0.554687499999999
40
0.558593749999999
40
0.558593749999999
40
0.562499999999999
40
0.562499999999999
40
0.593749999999998
40
0.593749999999998
40
0.609374999999998
40
0.609374999999998
40
0.617187499999998
40
0.617187499999998
40
0.624999999999997
40
0.624999999999997
40
0.656249999999998
40
0.656249999999998
40
0.687499999999999
40
0.687499999999999
40
0.718749999999999
40
0.718749999999999
40
0.7265625
40
0.7265625
40
0.734375
40
0.75
40
0.75
40
0.781249999999999
40
0.781249999999999
40
0.812499999999998
40
0.812499999999998
40
0.843749999999998
40
0.843749999999998
40
0.874999999999997
40
0.874999999999997
40
0.906249999999997
40
0.906249999999997
40
0.921874999999997
40
0.921874999999997
40
0.937499999999998
40
0.937499999999998
40
0.968749999999999
40
0.968749999999999
40
1
40
1
40
1
40
1
41
1
10
10.0000000000005
20
8.68048261739932
30
0
41
1
10
9.59092165780942
20
8.78314520548082
30
0
41
1
10
9.18869555205009
20
8.87581637463828
30
0
41
1
10
8.59552484195453
20
8.99656350334769
30
0
41
1
10
8.39949817412571
20
9.0337557093186
30
0
41
1
10
8.01085323870467
20
9.10127618170051
30
0
41
1
10
7.81823467521411
20
9.13160632783894
30
0
41
1
10
7.43645063700933
20
9.18446525667451
30
0
41
1
10
7.24728469333709
20
9.20699705948297
30
0
41
1
10
6.87249220849799
20
9.24306092571661
30
0
41
1
10
6.68686488475379
20
9.25659804399317
30
0
41
1
10
6.45713414128204
20
9.26690943333173
30
0
41
1
10
6.41130334646849
20
9.26864004614743
30
0
41
1
10
6.31987557674319
20
9.27140802956561
30
0
41
1
10
6.27423466292373
20
9.27244584168292
30
0
41
1
10
6.13805648825712
20
9.27446633394078
30
0
41
1
10
6.04827300987546
20
9.27436020704093
30
0
41
1
10
5.78198762610259
20
9.2694115597935
30
0
41
1
10
5.608542773225
20
9.25995673124319
30
0
41
1
10
5.27028972533233
20
9.22692870667035
30
0
41
1
10
5.10547683968443
20
9.20336679287058
30
0
41
1
10
4.86532228649975
20
9.15556260440414
30
0
41
1
10
4.78645104802314
20
9.13754452981414
30
0
41
1
10
4.67002202426465
20
9.10707959033837
30
0
41
1
10
4.63150056354368
20
9.09634184384862
30
0
41
1
10
4.55548965309919
20
9.07377911712791
30
0
41
1
10
4.51795473158003
20
9.06194321061588
30
0
41
1
10
4.33267175328564
20
8.99990384514118
30
0
41
1
10
4.19206608768206
20
8.94116515971817
30
0
41
1
10
3.92756688566925
20
8.80260391384013
30
0
41
1
10
3.80365187447217
20
8.72281254442612
30
0
41
1
10
3.6750963589505
20
8.61871264726989
30
0
41
1
10
3.66096411924497
20
8.60694545619634
30
0
41
1
10
3.63301010904232
20
8.58299855017779
30
0
41
1
10
3.6191745099251
20
8.57080601315042
30
0
41
1
10
3.57827673531909
20
8.53371259946923
30
0
41
1
10
3.55181339335408
20
8.50829092453762
30
0
41
1
10
3.47486615401215
20
8.42989582012569
30
0
41
1
10
3.42682156611949
20
8.37479519394665
30
0
41
1
10
3.33751461000315
20
8.25858036249511
30
0
41
1
10
3.29625124124499
20
8.19746708304021
30
0
41
1
10
3.22090334580042
20
8.06878606763979
30
0
41
1
10
3.18681727839771
20
8.00121972841026
30
0
41
1
10
3.14148984380668
20
7.89459592733033
30
0
41
1
10
3.12732154110356
20
7.85808184889419
30
0
41
1
10
3.10127023341204
20
7.78399814248661
30
0
41
1
10
3.08935429463594
20
7.74636643029294
30
0
41
1
10
3.05692818060899
20
7.63169785290933
30
0
41
1
10
3.03973533638154
20
7.55288937125897
30
0
41
1
10
3.00152736398951
20
7.30928025976596
30
0
41
1
10
2.99380309820538
20
7.13733042554475
30
0
41
1
10
3.00636944527304
20
6.93243987397244
30
0
41
1
10
3.00806603792165
20
6.90947874801688
30
0
41
1
10
3.01203927932917
20
6.86346211266644
30
0
41
1
10
3.01886717350502
20
6.79427820174021
30
0
41
1
10
3.02826048494978
20
6.72462548195841
30
0
41
1
10
3.05038039224587
20
6.58471444180785
30
0
41
1
10
3.06956698143787
20
6.49063349785644
30
0
41
1
10
3.11647381926144
20
6.30094657947424
30
0
41
1
10
3.14419500213944
20
6.20534047377365
30
0
41
1
10
3.1920163232528
20
6.06084185198978
30
0
41
1
10
3.20899761575254
20
6.01249395407874
30
0
41
1
10
3.23601826967132
20
5.93970545647335
30
0
41
1
10
3.24527401298386
20
5.91542484384564
30
0
41
1
10
3.26420433395026
20
5.8670096886913
30
0
41
1
10
3.27388867123554
20
5.84284864268437
30
0
41
1
10
3.36297326741473
20
5.62580990710177
30
0
41
1
10
3.45576388958085
20
5.43578923966194
30
0
41
1
10
3.61235633639717
20
5.15462468427086
30
0
41
1
10
3.66747132092473
20
5.06155085617783
30
0
41
1
10
3.75425840056994
20
4.92287285742214
30
0
41
1
10
3.78387380420693
20
4.8768024307586
30
0
41
1
10
3.84444014640036
20
4.78496744185213
30
0
41
1
10
3.875446770162
20
4.73912392168052
30
0
41
1
10
4.03287542267395
20
4.51188528680751
30
0
41
1
10
4.16648880006898
20
4.33622957809447
30
0
41
1
10
4.44631981845518
20
3.99503021997026
30
0
41
1
10
4.59255520476236
20
3.82950063009616
30
0
41
1
10
4.89574915638428
20
3.50706590802915
30
0
41
1
10
5.05271633010565
20
3.35016759556714
30
0
41
1
10
5.25471485637399
20
3.15870935499686
30
0
41
1
10
5.29541054099346
20
3.12064729911407
30
0
41
1
10
5.37706466541854
20
3.04524482342632
30
0
41
1
10
5.5000520438733
20
2.93311698931245
30
0
41
1
10
5.62448224574479
20
2.82376730394068
30
0
41
1
10
5.8750864500692
20
2.60842156386764
30
0
41
1
10
6.04447598094544
20
2.4693182772865
30
0
41
1
10
6.38708452337667
20
2.1984895051431
30
0
41
1
10
6.56030493524781
20
2.06676731745398
30
0
41
1
10
6.90991399236694
20
1.80948196112328
30
0
41
1
10
7.08630302654404
20
1.68392013818999
30
0
41
1
10
7.44170683556104
20
1.4379832165547
30
0
41
1
10
7.62072139469257
20
1.31760835334512
30
0
41
1
10
7.9809513321442
20
1.08129872437817
30
0
41
1
10
8.16216616032395
20
0.96536361021478
30
0
41
1
10
8.43541787106926
20
0.79440299503915
30
0
41
1
10
8.52677150487273
20
0.737889909813362
30
0
41
1
10
8.70971385944938
20
0.625940274749752
30
0
41
1
10
8.80131653117493
20
0.570494511547594
30
0
41
1
10
9.07650486711236
20
0.405691053070257
30
0
41
1
10
9.2604665245108
20
0.297858366219174
30
0
41
1
10
9.62941979355679
20
0.086194953266471
30
0
41
1
10
9.81441119471504
20
-0.0176352804905946
30
0
41
1
10
9.99999999999997
20
-0.119361258059769
30
0
0
SPLINE
5
CD
100
AcDbEntity
8
1
62
256
6
ByLayer
370
18
48
1
60
0
100
AcDbSpline
70
4
71
3
72
14
73
10
40
0
40
0
40
0
40
0
40
0.25
40
0.25
40
0.5
40
0.5
40
0.75
40
0.75
40
1
40
1
40
1
40
1
41
1
10
13.9685872307865
20
-1.80871568886198
30
0
41
1
10
13.6288590592222
20
-1.69004967609021
30
0
41
1
10
13.2919316707423
20
-1.56468710142269
30
0
41
1
10
12.6225192930681
20
-1.30309208130413
30
0
41
1
10
12.2900281206061
20
-1.16687479142095
30
0
41
1
10
11.628895049095
20
-0.884811451559415
30
0
41
1
10
11.3002509342788
20
-0.738971926337712
30
0
41
1
10
10.6469342372586
20
-0.437242679916039
30
0
41
1
10
10.3222630661372
20
-0.28135139289509
30
0
41
1
10
10
20
-0.119361258059797
30
0
0
SPLINE
5
CE
100
AcDbEntity
8
1
62
256
6
ByLayer
370
18
48
1
60
0
100
AcDbSpline
70
4
71
4
72
16
73
11
40
0
40
0
40
0
40
0
40
0
40
0.311488040819662
40
0.311488040819662
40
0.311488040819662
40
0.779396392986824
40
0.779396392986824
40
0.779396392986824
40
1
40
1
40
1
40
1
40
1
41
0.996444253743177
10
18.1392835589703
20
8.38481946894917
30
0
41
0.994681754059234
10
18.0058062417011
20
7.56480781307438
30
0
41
0.994697083191804
10
17.7829242131708
20
6.56034660878433
30
0
41
1
10
17.4820263292779
20
5.46596473649782
30
0
41
1
10
16.6824659254939
20
2.89523823001028
30
0
41
0.988033871712585
10
16.0539353948784
20
1.16278265289783
30
0
41
1
10
15.4254048642629
20
-0.177125498938835
30
0
41
1
10
14.7190801942415
20
-1.35880284281475
30
0
41
0.997340149189236
10
14.5025956965201
20
-1.65747679214657
30
0
41
0.995782547647267
10
14.3159925324076
20
-1.83030564894012
30
0
41
0.995541879197236
10
14.1686704189722
20
-1.87244013348263
30
0
0
SPLINE
5
CF
100
AcDbEntity
8
1
62
256
6
ByLayer
370
18
48
1
60
0
100
AcDbSpline
70
4
71
3
72
25
73
21
40
0
40
0
40
0
40
0
40
0.124999999999999
40
0.124999999999999
40
0.249999999999999
40
0.249999999999999
40
0.374999999999998
40
0.374999999999998
40
0.406249999999999
40
0.406249999999999
40
0.4375
40
0.500000000000002
40
0.500000000000002
40
0.625000000000002
40
0.625000000000002
40
0.750000000000001
40
0.750000000000001
40
0.875000000000001
40
0.875000000000001
40
1
40
1
40
1
40
1
41
1
10
10.0000000000006
20
8.68048261739938
30
0
41
1
10
10.3398304367596
20
8.70669452713375
30
0
41
1
10
10.6810964989861
20
8.72629578623557
30
0
41
1
10
11.3662712723323
20
8.75506816508729
30
0
41
1
10
11.7101817314837
20
8.76422307313393
30
0
41
1
10
12.4004994810896
20
8.77349268240897
30
0
41
1
10
12.7469080836446
20
8.77359750601113
30
0
41
1
10
13.1814091706573
20
8.76833609421573
30
0
41
1
10
13.2684714283906
20
8.76701035562334
30
0
41
1
10
13.4422007738422
20
8.76382545991837
30
0
41
1
10
13.7022288524477
20
8.75824921826489
30
0
41
1
10
13.9606092564398
20
8.75030672203741
30
0
41
1
10
14.4753017032032
20
8.73129521681358
30
0
41
1
10
14.8156717212665
20
8.71446048229529
30
0
41
1
10
15.4915681935656
20
8.67230988819375
30
0
41
1
10
15.8270936363037
20
8.64698520680986
30
0
41
1
10
16.4939972435747
20
8.5875144960213
30
0
41
1
10
16.8253762723613
20
8.5533633932958
30
0
41
1
10
17.4847152939529
20
8.47595714063357
30
0
41
1
10
17.8126781480601
20
8.43270295254126
30
0
41
1
10
18.1392835589702
20
8.38481946894916
30
0
0
SPLINE
5
D0
100
AcDbEntity
8
1
62
256
6
ByLayer
370
13
48
1
60
0
100
AcDbSpline
70
4
71
3
72
44
73
40
40
0
40
0
40
0
40
0
40
0.0625000000000028
40
0.0625000000000028
40
0.125000000000006
40
0.125000000000006
40
0.187500000000008
40
0.187500000000008
40
0.250000000000011
40
0.250000000000011
40
0.312500000000014
40
0.312500000000014
40
0.375000000000017
40
0.375000000000017
40
0.43750000000002
40
0.43750000000002
40
0.44531250000002
40
0.44531250000002
40
0.45312500000002
40
0.45312500000002
40
0.468750000000019
40
0.468750000000019
40
0.500000000000018
40
0.500000000000018
40
0.562500000000016
40
0.562500000000016
40
0.625000000000014
40
0.625000000000014
40
0.687500000000011
40
0.687500000000011
40
0.750000000000009
40
0.750000000000009
40
0.812500000000007
40
0.812500000000007
40
0.875000000000005
40
0.875000000000005
40
0.937500000000002
40
0.937500000000002
40
1
40
1
40
1
40
1
41
1
10
87.0000000000001
20
-9.38008746557244
30
0
41
1
10
87.0944402693532
20
-9.22973655272961
30
0
41
1
10
87.1888805387064
20
-9.02696603355187
30
0
41
1
10
87.3777610774127
20
-8.51444637480182
30
0
41
1
10
87.4722013467658
20
-8.20465825272811
30
0
41
1
10
87.6610818854722
20
-7.48710700689659
30
0
41
1
10
87.7555221548253
20
-7.07940380674626
30
0
41
1
10
87.9444026935317
20
-6.18615450142127
30
0
41
1
10
88.0388429628849
20
-5.70075538058717
30
0
41
1
10
88.2277235015913
20
-4.68017833045803
30
0
41
1
10
88.3221637709444
20
-4.14518172863956
30
0
41
1
10
88.5110443096507
20
-3.05624995330604
30
0
41
1
10
88.6054845790039
20
-2.50246743821666
30
0
41
1
10
88.7943651177103
20
-1.40433638186497
30
0
41
1
10
88.8888053870635
20
-0.860072677810393
30
0
41
1
10
88.9950506900858
20
-0.265583674106637
30
0
41
1
10
89.0068557237549
20
-0.199772033140988
30
0
41
1
10
89.0304657910932
20
-0.0686691094521166
30
0
41
1
10
89.0422708247622
20
-0.0035583211838457
30
0
41
1
10
89.0776859257697
20
0.192513593038513
30
0
41
1
10
89.1012959931081
20
0.324294705623657
30
0
41
1
10
89.172126195123
20
0.722414962865685
30
0
41
1
10
89.2193463297995
20
0.991545353514823
30
0
41
1
10
89.3610067338293
20
1.80617955591097
30
0
41
1
10
89.4554470031824
20
2.35910754260936
30
0
41
1
10
89.6443275418888
20
3.45878785482287
30
0
41
1
10
89.7387678112419
20
4.00541342725467
30
0
41
1
10
89.9276483499483
20
5.06220917852278
30
0
41
1
10
90.0220886193015
20
5.57220318795686
30
0
41
1
10
90.2109691580078
20
6.52580999218708
30
0
41
1
10
90.305409427361
20
6.96925342521948
30
0
41
1
10
90.4942899660673
20
7.76560986607345
30
0
41
1
10
90.5887302354206
20
8.1184220595284
30
0
41
1
10
90.777610774127
20
8.71942048589199
30
0
41
1
10
90.87205104348
20
8.9676057038906
30
0
41
1
10
91.0609315821864
20
9.35691368005692
30
0
41
1
10
91.1553718515395
20
9.49812048008764
30
0
41
1
10
91.344252390246
20
9.68135154702992
30
0
41
1
10
91.438692659599
20
9.7235
30
0
41
1
10
91.5331329289522
20
9.7235
30
0
0
SPLINE
5
D1
100
AcDbEntity
8
1
62
256
6
ByLayer
370
13
48
1
60
0
100
AcDbSpline
70
4
71
3
72
78
73
74
40
0
40
0
40
0
40
0
40
0.0312500000000002
40
0.0312500000000002
40
0.0625000000000004
40
0.0625000000000004
40
0.0937500000000007
40
0.0937500000000007
40
0.125000000000001
40
0.125000000000001
40
0.156250000000001
40
0.156250000000001
40
0.187500000000001
40
0.187500000000001
40
0.218750000000002
40
0.218750000000002
40
0.250000000000002
40
0.250000000000002
40
0.281250000000002
40
0.281250000000002
40
0.312500000000003
40
0.312500000000003
40
0.343750000000003
40
0.343750000000003
40
0.375000000000003
40
0.375000000000003
40
0.406250000000003
40
0.406250000000003
40
0.437500000000003
40
0.437500000000003
40
0.468750000000004
40
0.468750000000004
40
0.484375000000004
40
0.484375000000004
40
0.492187500000004
40
0.492187500000004
40
0.500000000000003
40
0.500000000000003
40
0.531250000000003
40
0.531250000000003
40
0.562500000000003
40
0.562500000000003
40
0.593750000000003
40
0.593750000000003
40
0.625000000000003
40
0.625000000000003
40
0.656250000000002
40
0.656250000000002
40
0.687500000000002
40
0.687500000000002
40
0.718750000000002
40
0.718750000000002
40
0.750000000000002
40
0.750000000000002
40
0.781250000000002
40
0.781250000000002
40
0.812500000000001
40
0.812500000000001
40
0.843750000000001
40
0.843750000000001
40
0.875000000000001
40
0.875000000000001
40
0.906250000000001
40
0.906250000000001
40
0.9375
40
0.9375
40
0.96875
40
0.96875
40
0.984375
40
0.984375
40
0.9921875
40
0.9921875
40
1
40
1
40
1
40
1
41
1
10
91.9343668582351
20
9.7235
30
0
41
1
10
91.9867269474943
20
9.7235
30
0
41
1
10
92.0390870367534
20
9.7105880547231
30
0
41
1
10
92.1438072152716
20
9.65625942060348
30
0
41
1
10
92.1961673045308
20
9.6148360366858
30
0
41
1
10
92.300887483049
20
9.50128588272415
30
0
41
1
10
92.3532475723082
20
9.42915262361268
30
0
41
1
10
92.4579677508264
20
9.25267925722872
30
0
41
1
10
92.5103278400856
20
9.14833365438136
30
0
41
1
10
92.6150480186039
20
8.90681026741666
30
0
41
1
10
92.667408107863
20
8.76962880512079
30
0
41
1
10
92.7721282863813
20
8.46282728417216
30
0
41
1
10
92.8244883756404
20
8.29320606965686
30
0
41
1
10
92.9292085541588
20
7.92301260990101
30
0
41
1
10
92.9815686434179
20
7.72244215283791
30
0
41
1
10
93.0862888219361
20
7.29292356536109
30
0
41
1
10
93.1386489111953
20
7.06398018050271
30
0
41
1
10
93.2433690897136
20
6.58127649547913
30
0
41
1
10
93.2957291789727
20
6.32752346163775
30
0
41
1
10
93.400449357491
20
5.79956632972349
30
0
41
1
10
93.4528094467502
20
5.52537119618896
30
0
41
1
10
93.5575296252684
20
4.96145382430322
30
0
41
1
10
93.6098897145276
20
4.67174119695926
30
0
41
1
10
93.7146098930458
20
4.08198804053245
30
0
41
1
10
93.7669699823051
20
3.78195669289488
30
0
41
1
10
93.8716901608233
20
3.17675453052254
30
0
41
1
10
93.9240502500825
20
2.87159156153598
30
0
41
1
10
94.0287704286007
20
2.26104511406896
30
0
41
1
10
94.0811305178598
20
1.95566754278261
30
0
41
1
10
94.1858506963782
20
1.34913304617695
30
0
41
1
10
94.2382107856373
20
1.04797983821507
30
0
41
1
10
94.316750919526
20
0.602279258186229
30
0
41
1
10
94.3429309641555
20
0.454712070624794
30
0
41
1
10
94.3822010310997
20
0.235169443382915
30
0
41
1
10
94.3952910534147
20
0.162289579569347
30
0
41
1
10
94.4214710980442
20
0.0171791209961043
30
0
41
1
10
94.434561120359
20
-0.0549578740375409
30
0
41
1
10
94.5000112319329
20
-0.418295018901716
30
0
41
1
10
94.5523713211921
20
-0.714122567072792
30
0
41
1
10
94.6570914997104
20
-1.31277086809882
30
0
41
1
10
94.7094515889695
20
-1.6155894251024
30
0
41
1
10
94.8141717674878
20
-2.2242118614007
30
0
41
1
10
94.8665318567469
20
-2.53001137475934
30
0
41
1
10
94.9712520352653
20
-3.14000064385232
30
0
41
1
10
95.0236121245243
20
-3.44418388166548
30
0
41
1
10
95.1283323030427
20
-4.04592195830881
30
0
41
1
10
95.1806923923018
20
-4.34346848162753
30
0
41
1
10
95.2854125708201
20
-4.92671516489153
30
0
41
1
10
95.3377726600792
20
-5.21240591255358
30
0
41
1
10
95.4424928385974
20
-5.76679273249039
30
0
41
1
10
95.4948529278566
20
-6.03547926898437
30
0
41
1
10
95.5995731063749
20
-6.55106723264771
30
0
41
1
10
95.6519331956341
20
-6.79796009117302
30
0
41
1
10
95.7566533741524
20
-7.26580398766404
30
0
41
1
10
95.8090134634115
20
-7.48674842878398
30
0
41
1
10
95.9137336419298
20
-7.89940372173311
30
0
41
1
10
95.9660937311889
20
-8.09111067052442
30
0
41
1
10
96.0708139097072
20
-8.44302411788888
30
0
41
1
10
96.1231739989663
20
-8.60322971362547
30
0
41
1
10
96.2278941774846
20
-8.89097135337363
30
0
41
1
10
96.2802542667438
20
-9.01850935282215
30
0
41
1
10
96.3849744452621
20
-9.24082770497236
30
0
41
1
10
96.4373345345212
20
-9.33561235086441
30
0
41
1
10
96.5420547130394
20
-9.49332084553458
30
0
41
1
10
96.5944148022986
20
-9.55625056793954
30
0
41
1
10
96.6991349808169
20
-9.6519754054826
30
0
41
1
10
96.751495070076
20
-9.68477714680515
30
0
41
1
10
96.8300352039647
20
-9.71315240928499
30
0
41
1
10
96.8562152485944
20
-9.71914395598003
30
0
41
1
10
96.8954853155387
20
-9.72318423584903
30
0
41
1
10
96.9085753378534
20
-9.72370779923554
30
0
41
1
10
96.934755382483
20
-9.72314564244027
30
0
41
1
10
96.9478454047979
20
-9.72205461714734
30
0
41
1
10
96.9609354271126
20
-9.72013172457449
30
0
0
SPLINE
5
D2
100
AcDbEntity
8
1
62
256
6
ByLayer
370
13
48
1
60
0
100
AcDbSpline
70
4
71
3
72
42
73
38
40
0
40
0
40
0
40
0
40
0.0625000000000009
40
0.0625000000000009
40
0.125000000000002
40
0.125000000000002
40
0.187500000000003
40
0.187500000000003
40
0.250000000000004
40
0.250000000000004
40
0.312500000000005
40
0.312500000000005
40
0.375000000000006
40
0.375000000000006
40
0.390625000000005
40
0.390625000000005
40
0.406250000000005
40
0.406250000000005
40
0.437500000000005
40
0.437500000000005
40
0.500000000000004
40
0.500000000000004
40
0.562500000000004
40
0.562500000000004
40
0.625000000000003
40
0.625000000000003
40
0.687500000000003
40
0.687500000000003
40
0.750000000000002
40
0.750000000000002
40
0.812500000000002
40
0.812500000000002
40
0.875000000000001
40
0.875000000000001
40
0.937500000000001
40
0.937500000000001
40
1
40
1
40
1
40
1
41
1
10
87
20
-8.11414948385035
30
0
41
1
10
87.084160339436
20
-7.81717677659313
30
0
41
1
10
87.1683206788722
20
-7.48002593768226
30
0
41
1
10
87.3366413577444
20
-6.73727077070214
30
0
41
1
10
87.4208016971805
20
-6.33173378589805
30
0
41
1
10
87.5891223760527
20
-5.47008093537801
30
0
41
1
10
87.6732827154889
20
-5.01406273702042
30
0
41
1
10
87.8416033943611
20
-4.07269509860993
30
0
41
1
10
87.9257637337972
20
-3.58744507998665
30
0
41
1
10
88.0940844126695
20
-2.60916402384859
30
0
41
1
10
88.1782447521056
20
-2.11620865725624
30
0
41
1
10
88.3465654309778
20
-1.14165349616411
30
0
41
1
10
88.4307257704139
20
-0.660093039176189
30
0
41
1
10
88.5359261947091
20
-0.0745916901138628
30
0
41
1
10
88.556966279568
20
0.0411959637829398
30
0
41
1
10
88.5990464492861
20
0.275084949357904
30
0
41
1
10
88.6200865341451
20
0.392849861976771
30
0
41
1
10
88.6832067887223
20
0.748300777195169
30
0
41
1
10
88.7252869584403
20
0.98815198359074
30
0
41
1
10
88.8515274675945
20
1.71358507346668
30
0
41
1
10
88.9356878070306
20
2.20516498455856
30
0
41
1
10
89.1040084859028
20
3.18625258497809
30
0
41
1
10
89.1881688253389
20
3.67569395246846
30
0
41
1
10
89.356489504211
20
4.63143550841346
30
0
41
1
10
89.4406498436472
20
5.09764067589666
30
0
41
1
10
89.6089705225195
20
5.98528633308047
30
0
41
1
10
89.6931308619556
20
6.40662571533488
30
0
41
1
10
89.8614515408278
20
7.18540305259754
30
0
41
1
10
89.945611880264
20
7.54276288845662
30
0
41
1
10
90.1139325591361
20
8.17973211910672
30
0
41
1
10
90.1980928985722
20
8.45930858720709
30
0
41
1
10
90.3664135774445
20
8.93388832730398
30
0
41
1
10
90.4505739168806
20
9.12890885869226
30
0
41
1
10
90.6188945957529
20
9.43481600464241
30
0
41
1
10
90.703054935189
20
9.54575745655001
30
0
41
1
10
90.8713756140612
20
9.69006404299128
30
0
41
1
10
90.9555359534974
20
9.7235
30
0
41
1
10
91.0396962929334
20
9.7235
30
0
0
SPLINE
5
D3
100
AcDbEntity
8
1
62
256
6
ByLayer
370
13
48
1
60
0
100
AcDbSpline
70
4
71
3
72
78
73
74
40
0
40
0
40
0
40
0
40
0.0312500000000001
40
0.0312500000000001
40
0.0625000000000002
40
0.0625000000000002
40
0.0937500000000003
40
0.0937500000000003
40
0.125
40
0.125
40
0.15625
40
0.15625
40
0.187500000000001
40
0.187500000000001
40
0.218750000000001
40
0.218750000000001
40
0.250000000000001
40
0.250000000000001
40
0.281250000000001
40
0.281250000000001
40
0.312500000000001
40
0.312500000000001
40
0.343750000000001
40
0.343750000000001
40
0.375000000000001
40
0.375000000000001
40
0.406250000000001
40
0.406250000000001
40
0.437500000000001
40
0.437500000000001
40
0.445312500000001
40
0.445312500000001
40
0.453125000000001
40
0.453125000000001
40
0.468750000000001
40
0.468750000000001
40
0.500000000000001
40
0.500000000000001
40
0.531250000000001
40
0.531250000000001
40
0.562500000000001
40
0.562500000000001
40
0.593750000000001
40
0.593750000000001
40
0.625000000000001
40
0.625000000000001
40
0.656250000000001
40
0.656250000000001
40
0.687500000000001
40
0.687500000000001
40
0.718750000000002
40
0.718750000000002
40
0.750000000000002
40
0.750000000000002
40
0.781250000000002
40
0.781250000000002
40
0.812500000000002
40
0.812500000000002
40
0.843750000000002
40
0.843750000000002
40
0.875000000000002
40
0.875000000000002
40
0.890625000000002
40
0.890625000000002
40
0.898437500000002
40
0.898437500000002
40
0.906250000000002
40
0.906250000000002
40
0.937500000000001
40
0.937500000000001
40
0.968750000000001
40
0.968750000000001
40
1
40
1
40
1
40
1
41
1
10
91.4409302222162
20
9.7235
30
0
41
1
10
91.4984302764339
20
9.7235
30
0
41
1
10
91.5559303306515
20
9.70792424739255
30
0
41
1
10
91.6709304390868
20
9.64209822619162
30
0
41
1
10
91.7284304933046
20
9.59183725739197
30
0
41
1
10
91.84343060174
20
9.45384586866288
30
0
41
1
10
91.9009306559576
20
9.36610530503935
30
0
41
1
10
92.0159307643929
20
9.15142582289184
30
0
41
1
10
92.0734308186106
20
9.02447886157981
30
0
41
1
10
92.1884309270459
20
8.73100270013069
30
0
41
1
10
92.2459309812637
20
8.56446910235508
30
0
41
1
10
92.360931089699
20
8.19297325786445
30
0
41
1
10
92.4184311439166
20
7.9880114296584
30
0
41
1
10
92.5334312523519
20
7.54241388338625
30
0
41
1
10
92.5909313065696
20
7.30178384319896
30
0
41
1
10
92.705931415005
20
6.78911523222612
30
0
41
1
10
92.7634314692226
20
6.51708711184065
30
0
41
1
10
92.878431577658
20
5.94715354508566
30
0
41
1
10
92.9359316318757
20
5.6492619515827
30
0
41
1
10
93.050931740311
20
5.03402784884884
30
0
41
1
10
93.1084317945287
20
4.71670064280809
30
0
41
1
10
93.223431902964
20
4.06947162375118
30
0
41
1
10
93.2809319571817
20
3.7395844870606
30
0
41
1
10
93.395932065617
20
3.07410413295761
30
0
41
1
10
93.4534321198347
20
2.73852321804767
30
0
41
1
10
93.56843222827
20
2.06810504873454
30
0
41
1
10
93.6259322824877
20
1.73327661684024
30
0
41
1
10
93.740932390923
20
1.07007386478387
30
0
41
1
10
93.7984324451407
20
0.741704518699208
30
0
41
1
10
93.8703075129128
20
0.338253809303353
30
0
41
1
10
93.8846825264673
20
0.257911745867517
30
0
41
1
10
93.9134325535761
20
0.0979880328352465
30
0
41
1
10
93.9278075671305
20
0.0186601499945027
30
0
41
1
10
93.9709326077938
20
-0.220088321879842
30
0
41
1
10
93.9996826349026
20
-0.380836705663853
30
0
41
1
10
94.0859327162291
20
-0.867058467972328
30
0
41
1
10
94.1434327704467
20
-1.19653936356534
30
0
41
1
10
94.2584328788821
20
-1.86128623882763
30
0
41
1
10
94.3159329330997
20
-2.19654675631327
30
0
41
1
10
94.430933041535
20
-2.86704163396016
30
0
41
1
10
94.4884330957527
20
-3.20226669133015
30
0
41
1
10
94.603433204188
20
-3.86617410139431
30
0
41
1
10
94.6609332584059
20
-4.19484377140134
30
0
41
1
10
94.7759333668411
20
-4.83875086155274
30
0
41
1
10
94.8334334210588
20
-5.15397341717244
30
0
41
1
10
94.9484335294941
20
-5.76414232621281
30
0
41
1
10
95.0059335837118
20
-6.05907344380904
30
0
41
1
10
95.1209336921471
20
-6.62232015623366
30
0
41
1
10
95.1784337463648
20
-6.8906222321678
30
0
41
1
10
95.2934338548001
20
-7.39521569311967
30
0
41
1
10
95.3509339090178
20
-7.63149717759092
30
0
41
1
10
95.4659340174532
20
-8.06795673085469
30
0
41
1
10
95.5234340716709
20
-8.26812978669955
30
0
41
1
10
95.6384341801062
20
-8.62981007194441
30
0
41
1
10
95.6959342343238
20
-8.7913175409119
30
0
41
1
10
95.8109343427592
20
-9.07470666161601
30
0
41
1
10
95.8684343969768
20
-9.19659325354249
30
0
41
1
10
95.9834345054121
20
-9.40130240449832
30
0
41
1
10
96.0409345596298
20
-9.48413336420117
30
0
41
1
10
96.1559346680652
20
-9.61260937183627
30
0
41
1
10
96.2134347222828
20
-9.65826471691366
30
0
41
1
10
96.2996848036094
20
-9.70103912678482
30
0
41
1
10
96.3284348307183
20
-9.71101953703914
30
0
41
1
10
96.3715598713815
20
-9.71989742457075
30
0
41
1
10
96.3859348849359
20
-9.72184157999365
30
0
41
1
10
96.4146849120448
20
-9.72375694272355
30
0
41
1
10
96.4290599255991
20
-9.72373571343121
30
0
41
1
10
96.5009349933713
20
-9.7187301805221
30
0
41
1
10
96.5584350475889
20
-9.69890828840036
30
0
41
1
10
96.6734351560243
20
-9.62418447264815
30
0
41
1
10
96.7309352102419
20
-9.56927184167313
30
0
41
1
10
96.8459353186772
20
-9.4216904439958
30
0
41
1
10
96.9034353728948
20
-9.32901171264211
30
0
41
1
10
96.9609354271125
20
-9.2166692760093
30
0
0
SPLINE
5
D4
100
AcDbEntity
8
1
62
256
6
ByLayer
370
13
48
1
60
0
100
AcDbSpline
70
4
71
3
72
42
73
38
40
0
40
0
40
0
40
0
40
0.0625
40
0.0625
40
0.125
40
0.125
40
0.1875
40
0.1875
40
0.25
40
0.25
40
0.28125
40
0.28125
40
0.296875
40
0.296875
40
0.3125
40
0.3125
40
0.375
40
0.375
40
0.4375
40
0.4375
40
0.5
40
0.5
40
0.5625
40
0.5625
40
0.625
40
0.625
40
0.6875
40
0.6875
40
0.75
40
0.75
40
0.8125
40
0.8125
40
0.875
40
0.875
40
0.9375
40
0.9375
40
1
40
1
40
1
40
1
41
1
10
87
20
-5.95974933571219
30
0
41
1
10
87.073880409519
20
-5.58357706174888
30
0
41
1
10
87.1477608190381
20
-5.18765223434485
30
0
41
1
10
87.2955216380763
20
-4.37040838228452
30
0
41
1
10
87.3694020475953
20
-3.94914225160423
30
0
41
1
10
87.5171628666334
20
-3.09590635731303
30
0
41
1
10
87.5910432761525
20
-2.66398075764658
30
0
41
1
10
87.7388040951906
20
-1.80309899479531
30
0
41
1
10
87.8126845047096
20
-1.37417144743031
30
0
41
1
10
87.9235051189881
20
-0.741663898798322
30
0
41
1
10
87.9604453237476
20
-0.532622760223944
30
0
41
1
10
88.0158556308869
20
-0.222643048097439
30
0
41
1
10
88.0343257332668
20
-0.119912110432153
30
0
41
1
10
88.0712659380263
20
0.0842267670849139
30
0
41
1
10
88.089736040406
20
0.186668600758935
30
0
41
1
10
88.1820865523049
20
0.702602935033326
30
0
41
1
10
88.2559669618239
20
1.12511570628666
30
0
41
1
10
88.4037277808621
20
1.9795731941015
30
0
41
1
10
88.477608190381
20
2.4114984446872
30
0
41
1
10
88.6253690094192
20
3.27216194344771
30
0
41
1
10
88.6992494189383
20
3.70086374610693
30
0
41
1
10
88.8470102379763
20
4.54078722403173
30
0
41
1
10
88.9208906474954
20
4.95195946502599
30
0
41
1
10
89.0686514665334
20
5.74216568198878
30
0
41
1
10
89.1425318760525
20
6.12114630516857
30
0
41
1
10
89.2902926950907
20
6.83352748149073
30
0
41
1
10
89.3641731046097
20
7.16688254724988
30
0
41
1
10
89.5119339236478
20
7.7773162721036
30
0
41
1
10
89.5858143331668
20
8.05436765037405
30
0
41
1
10
89.7335751522049
20
8.54537123849099
30
0
41
1
10
89.8074555617241
20
8.7593194000641
30
0
41
1
10
89.9552163807623
20
9.12165045965304
30
0
41
1
10
90.0290967902812
20
9.27005077550569
30
0
41
1
10
90.1768576093193
20
9.5029631376031
30
0
41
1
10
90.2507380188384
20
9.58750702993351
30
0
41
1
10
90.3984988378764
20
9.69775682436685
30
0
41
1
10
90.4723792473955
20
9.7235
30
0
41
1
10
90.5462596569146
20
9.7235
30
0
0
SPLINE
5
D5
100
AcDbEntity
8
1
62
256
6
ByLayer
370
13
48
1
60
0
100
AcDbSpline
70
4
71
3
72
76
73
72
40
0
40
0
40
0
40
0
40
0.0312499999999995
40
0.0312499999999995
40
0.062499999999999
40
0.062499999999999
40
0.0937499999999984
40
0.0937499999999984
40
0.124999999999998
40
0.124999999999998
40
0.156249999999997
40
0.156249999999997
40
0.187499999999997
40
0.187499999999997
40
0.218749999999996
40
0.218749999999996
40
0.249999999999996
40
0.249999999999996
40
0.281249999999995
40
0.281249999999995
40
0.312499999999995
40
0.312499999999995
40
0.343749999999994
40
0.343749999999994
40
0.374999999999994
40
0.374999999999994
40
0.406249999999993
40
0.406249999999993
40
0.414062499999993
40
0.414062499999993
40
0.421874999999993
40
0.421874999999993
40
0.437499999999993
40
0.437499999999993
40
0.468749999999993
40
0.468749999999993
40
0.499999999999994
40
0.499999999999994
40
0.531249999999994
40
0.531249999999994
40
0.562499999999994
40
0.562499999999994
40
0.593749999999995
40
0.593749999999995
40
0.624999999999995
40
0.624999999999995
40
0.656249999999996
40
0.656249999999996
40
0.687499999999996
40
0.687499999999996
40
0.718749999999996
40
0.718749999999996
40
0.749999999999997
40
0.749999999999997
40
0.781249999999997
40
0.781249999999997
40
0.812499999999997
40
0.812499999999997
40
0.828124999999998
40
0.828124999999998
40
0.843749999999998
40
0.843749999999998
40
0.874999999999999
40
0.874999999999999
40
0.906249999999999
40
0.906249999999999
40
0.937499999999999
40
0.937499999999999
40
0.96875
40
0.96875
40
1
40
1
40
1
40
1
41
1
10
90.9474935861974
20
9.7235
30
0
41
1
10
91.0101336053735
20
9.7235
30
0
41
1
10
91.0727736245498
20
9.70500931698149
30
0
41
1
10
91.1980536629021
20
9.62652822271713
30
0
41
1
10
91.2606936820784
20
9.56652140061388
30
0
41
1
10
91.3859737204308
20
9.40155277553495
30
0
41
1
10
91.448613739607
20
9.29657582611418
30
0
41
1
10
91.5738937779593
20
9.039788704785
30
0
41
1
10
91.6365337971356
20
8.88796749359548
30
0
41
1
10
91.7618138354881
20
8.53759469851289
30
0
41
1
10
91.8244538546643
20
8.33903886425762
30
0
41
1
10
91.9497338930166
20
7.89751999864009
30
0
41
1
10
92.0123739121928
20
7.65456121451345
30
0
41
1
10
92.1376539505452
20
7.12878530468615
30
0
41
1
10
92.2002939697214
20
6.84598099033067
30
0
41
1
10
92.3255740080739
20
6.24703112064367
30
0
41
1
10
92.38821402725
20
5.93090515809649
30
0
41
1
10
92.5134940656024
20
5.27330262705601
30
0
41
1
10
92.5761340847786
20
4.93184920598236
30
0
41
1
10
92.701414123131
20
4.23240123637041
30
0
41
1
10
92.7640541423071
20
3.87442960385064
30
0
41
1
10
92.8893341806596
20
3.15086779999461
30
0
41
1
10
92.9519741998358
20
2.78529697495904
30
0
41
1
10
93.0772542381882
20
2.05492639548163
30
0
41
1
10
93.1398942573645
20
1.69014026950481
30
0
41
1
10
93.2651742957168
20
0.968694055700183
30
0
41
1
10
93.327814314893
20
0.612041181263834
30
0
41
1
10
93.4061143388633
20
0.175057802018671
30
0
41
1
10
93.4217743436573
20
0.0880992499900799
30
0
41
1
10
93.4530943532454
20
-0.0848621944423655
30
0
41
1
10
93.4687543580394
20
-0.171797487036372
30
0
41
1
10
93.5157343724216
20
-0.433954713442063
30
0
41
1
10
93.5470543820097
20
-0.610483590438918
30
0
41
1
10
93.641014410774
20
-1.1442870913337
30
0
41
1
10
93.7036544299502
20
-1.50582035966985
30
0
41
1
10
93.8289344683025
20
-2.23353278437594
30
0
41
1
10
93.8915744874787
20
-2.59970154008039
30
0
41
1
10
94.0168545258312
20
-3.3287769315703
30
0
41
1
10
94.0794945450074
20
-3.69166692010233
30
0
41
1
10
94.2047745833597
20
-4.40546674506581
30
0
41
1
10
94.2674146025361
20
-4.75635510652924
30
0
41
1
10
94.3926946408884
20
-5.43720245652241
30
0
41
1
10
94.4553346600646
20
-5.76713794672435
30
0
41
1
10
94.580614698417
20
-6.3975858769754
30
0
41
1
10
94.6432547175932
20
-6.69807647323708
30
0
41
1
10
94.7685347559456
20
-7.26229139705404
30
0
41
1
10
94.8311747751218
20
-7.52599917164272
30
0
41
1
10
94.9564548134741
20
-8.01104525647628
30
0
41
1
10
95.0190948326504
20
-8.23237490097483
30
0
41
1
10
95.1443748710028
20
-8.62918852529677
30
0
41
1
10
95.207014890179
20
-8.80467260250614
30
0
41
1
10
95.3322949285314
20
-9.10857602041671
30
0
41
1
10
95.3949349477076
20
-9.23700327809462
30
0
41
1
10
95.52021498606
20
-9.44770563950974
30
0
41
1
10
95.5828550052362
20
-9.52999418690956
30
0
41
1
10
95.7081350435886
20
-9.65113309962365
30
0
41
1
10
95.7707750627648
20
-9.68999957624439
30
0
41
1
10
95.8647350915291
20
-9.71876622085458
30
0
41
1
10
95.8960551011172
20
-9.72344187449769
30
0
41
1
10
95.9586951202933
20
-9.72355704777814
30
0
41
1
10
95.9900151298815
20
-9.71900034525746
30
0
41
1
10
96.0839751586458
20
-9.69060124749052
30
0
41
1
10
96.1466151778219
20
-9.65199406269625
30
0
41
1
10
96.2718952161744
20
-9.53139541795045
30
0
41
1
10
96.3345352353506
20
-9.44938783894193
30
0
41
1
10
96.459815273703
20
-9.23925923975253
30
0
41
1
10
96.5224552928792
20
-9.11112475024919
30
0
41
1
10
96.6477353312317
20
-8.80780629135293
30
0
41
1
10
96.7103753504078
20
-8.63261436237218
30
0
41
1
10
96.8356553887602
20
-8.2363705432025
30
0
41
1
10
96.8982954079364
20
-8.01531850217239
30
0
41
1
10
96.9609354271126
20
-7.77305883989985
30
0
0
SPLINE
5
D6
100
AcDbEntity
8
1
62
256
6
ByLayer
370
13
48
1
60
0
100
AcDbSpline
70
4
71
3
72
42
73
38
40
0
40
0
40
0
40
0
40
0.0625000000000001
40
0.0625000000000001
40
0.125
40
0.125
40
0.15625
40
0.15625
40
0.171875
40
0.171875
40
0.187499999999999
40
0.187499999999999
40
0.25
40
0.25
40
0.3125
40
0.3125
40
0.375
40
0.375
40
0.4375
40
0.4375
40
0.5
40
0.5
40
0.5625
40
0.5625
40
0.625
40
0.625
40
0.6875
40
0.6875
40
0.75
40
0.75
40
0.8125
40
0.8125
40
0.875
40
0.875
40
0.9375
40
0.9375
40
1
40
1
40
1
40
1
41
1
10
87.0000000000001
20
-3.23216938894595
30
0
41
1
10
87.063600479602
20
-2.86313277978451
30
0
41
1
10
87.1272009592041
20
-2.49134207316524
30
0
41
1
10
87.254401918408
20
-1.75075199363019
30
0
41
1
10
87.31800239801
20
-1.38196544596155
30
0
41
1
10
87.413403117413
20
-0.836524484093871
30
0
41
1
10
87.445203357214
20
-0.655990011292317
30
0
41
1
10
87.4929037169154
20
-0.387689322547487
30
0
41
1
10
87.5088038368159
20
-0.298671852111397
30
0
41
1
10
87.5406040766168
20
-0.121557083510083
30
0
41
1
10
87.5565041965174
20
-0.033740070592529
30
0
41
1
10
87.6360047960199
20
0.406268407110588
30
0
41
1
10
87.6996052756219
20
0.766088412993014
30
0
41
1
10
87.8268062348259
20
1.4953719295647
30
0
41
1
10
87.890406714428
20
1.86482889655224
30
0
41
1
10
88.0176076736319
20
2.60593203630234
30
0
41
1
10
88.0812081532339
20
2.97756466051419
30
0
41
1
10
88.2084091124378
20
3.71439345141778
30
0
41
1
10
88.2720095920399
20
4.07956957969449
30
0
41
1
10
88.3992105512439
20
4.79419572192722
30
0
41
1
10
88.4628110308458
20
5.14362135344152
30
0
41
1
10
88.5900119900498
20
5.81746914787146
30
0
41
1
10
88.6536124696519
20
6.14186615035123
30
0
41
1
10
88.7808134288558
20
6.75714977491731
30
0
41
1
10
88.8444139084579
20
7.0480146624125
30
0
41
1
10
88.9716148676618
20
7.58921747806295
30
0
41
1
10
89.0352153472638
20
7.83954080286546
30
0
41
1
10
89.1624163064678
20
8.29469269041707
30
0
41
1
10
89.2260167860698
20
8.49951593873061
30
0
41
1
10
89.3532177452738
20
8.86105395332234
30
0
41
1
10
89.4168182248758
20
9.01777277879526
30
0
41
1
10
89.5440191840797
20
9.28285946152431
30
0
41
1
10
89.6076196636817
20
9.39123894821881
30
0
41
1
10
89.7348206228858
20
9.56153184982946
30
0
41
1
10
89.7984211024877
20
9.62346151480477
30
0
41
1
10
89.9256220616917
20
9.70443673758285
30
0
41
1
10
89.9892225412937
20
9.7235
30
0
41
1
10
90.0528230208957
20
9.7235
30
0
0
SPLINE
5
D7
100
AcDbEntity
8
1
62
256
6
ByLayer
370
13
48
1
60
0
100
AcDbSpline
70
4
71
3
72
76
73
72
40
0
40
0
40
0
40
0
40
0.0312499999999994
40
0.0312499999999994
40
0.0624999999999988
40
0.0624999999999988
40
0.0937499999999981
40
0.0937499999999981
40
0.124999999999998
40
0.124999999999998
40
0.156249999999997
40
0.156249999999997
40
0.187499999999996
40
0.187499999999996
40
0.218749999999996
40
0.218749999999996
40
0.249999999999995
40
0.249999999999995
40
0.281249999999995
40
0.281249999999995
40
0.312499999999994
40
0.312499999999994
40
0.343749999999993
40
0.343749999999993
40
0.374999999999993
40
0.374999999999993
40
0.382812499999993
40
0.382812499999993
40
0.390624999999993
40
0.390624999999993
40
0.406249999999993
40
0.406249999999993
40
0.437499999999993
40
0.437499999999993
40
0.468749999999993
40
0.468749999999993
40
0.499999999999993
40
0.499999999999993
40
0.531249999999994
40
0.531249999999994
40
0.562499999999994
40
0.562499999999994
40
0.593749999999994
40
0.593749999999994
40
0.624999999999994
40
0.624999999999994
40
0.656249999999995
40
0.656249999999995
40
0.687499999999995
40
0.687499999999995
40
0.718749999999995
40
0.718749999999995
40
0.749999999999995
40
0.749999999999995
40
0.765624999999996
40
0.765624999999996
40
0.781249999999996
40
0.781249999999996
40
0.812499999999996
40
0.812499999999996
40
0.843749999999997
40
0.843749999999997
40
0.874999999999997
40
0.874999999999997
40
0.906249999999998
40
0.906249999999998
40
0.937499999999999
40
0.937499999999999
40
0.968749999999999
40
0.968749999999999
40
1
40
1
40
1
40
1
41
1
10
90.4540569501786
20
9.7235
30
0
41
1
10
90.5218369343133
20
9.7235
30
0
41
1
10
90.5896169184481
20
9.70184269320316
30
0
41
1
10
90.7251768867175
20
9.60953642746765
30
0
41
1
10
90.7929568708522
20
9.5388631627014
30
0
41
1
10
90.9285168391217
20
9.3443568575602
30
0
41
1
10
90.9962968232564
20
9.22050208784839
30
0
41
1
10
91.1318567915259
20
8.91772705463799
30
0
41
1
10
91.1996367756606
20
8.73879259212183
30
0
41
1
10
91.3351967439301
20
8.32677324715416
30
0
41
1
10
91.4029767280648
20
8.09368603652007
30
0
41
1
10
91.5385366963343
20
7.57736041710976
30
0
41
1
10
91.606316680469
20
7.29413365894004
30
0
41
1
10
91.7418766487384
20
6.68447776777214
30
0
41
1
10
91.8096566328732
20
6.35807304738285
30
0
41
1
10
91.9452166011426
20
5.67141052531218
30
0
41
1
10
92.0129965852773
20
5.31118544350744
30
0
41
1
10
92.1485565535468
20
4.56775498416428
30
0
41
1
10
92.2163365376815
20
4.18458429396424
30
0
41
1
10
92.351896505951
20
3.40662225998557
30
0
41
1
10
92.4196764900857
20
3.01186136022005
30
0
41
1
10
92.5552364583552
20
2.22156535543564
30
0
41
1
10
92.6230164424899
20
1.82605211491966
30
0
41
1
10
92.7585764107594
20
1.04378551406569
30
0
41
1
10
92.826356394894
20
0.657043775599931
30
0
41
1
10
92.9110813750625
20
0.183913703445597
30
0
41
1
10
92.9280263710962
20
0.0898271086673503
30
0
41
1
10
92.9619163631635
20
-0.0973438353196627
30
0
41
1
10
92.9788613591971
20
-0.191488450073194
30
0
41
1
10
93.0296963472982
20
-0.475448270040687
30
0
41
1
10
93.0635863393657
20
-0.666793339368667
30
0
41
1
10
93.1652563155677
20
-1.24559117137696
30
0
41
1
10
93.2330362997025
20
-1.63786268680533
30
0
41
1
10
93.3685962679721
20
-2.42657131853269
30
0
41
1
10
93.4363762521067
20
-2.82299158233562
30
0
41
1
10
93.5719362203761
20
-3.6097353067002
30
0
41
1
10
93.6397162045108
20
-4.00003217443978
30
0
41
1
10
93.7752761727804
20
-4.76332039734768
30
0
41
1
10
93.8430561569151
20
-5.13627846699964
30
0
41
1
10
93.9786161251845
20
-5.85364684062759
30
0
41
1
10
94.0463961093192
20
-6.19802262129176
30
0
41
1
10
94.1819560775887
20
-6.84799087316861
30
0
41
1
10
94.2497360617235
20
-7.15355411594234
30
0
41
1
10
94.3852960299929
20
-7.71765026815331
30
0
41
1
10
94.4530760141276
20
-7.97616485967146
30
0
41
1
10
94.5886359823971
20
-8.44063835735878
30
0
41
1
10
94.6564159665318
20
-8.64659276653268
30
0
41
1
10
94.7919759348013
20
-9.00349257274729
30
0
41
1
10
94.8597559189359
20
-9.15444675219939
30
0
41
1
10
94.9953158872054
20
-9.40189518875067
30
0
41
1
10
95.0630958713401
20
-9.49840807991902
30
0
41
1
10
95.1986558396096
20
-9.64009874969645
30
0
41
1
10
95.2664358237444
20
-9.68530015909855
30
0
41
1
10
95.3681057999465
20
-9.71838628145406
30
0
41
1
10
95.4019957920138
20
-9.72364182089092
30
0
41
1
10
95.4697757761486
20
-9.72335236739286
30
0
41
1
10
95.5036657682159
20
-9.71779724705459
30
0
41
1
10
95.6053357444181
20
-9.68378330500133
30
0
41
1
10
95.6731157285527
20
-9.63792481848745
30
0
41
1
10
95.8086756968222
20
-9.49486378915114
30
0
41
1
10
95.876455680957
20
-9.39763764954606
30
0
41
1
10
96.0120156492264
20
-9.14873688204929
30
0
41
1
10
96.0797956333611
20
-8.99704372122622
30
0
41
1
10
96.2153556016306
20
-8.63867804916075
30
0
41
1
10
96.2831355857653
20
-8.43199691570828
30
0
41
1
10
96.4186955540348
20
-7.96612358338561
30
0
41
1
10
96.4864755381695
20
-7.70693607058772
30
0
41
1
10
96.622035506439
20
-7.14158741603589
30
0
41
1
10
96.6898154905737
20
-6.83544476494677
30
0
41
1
10
96.8253754588432
20
-6.18444336155406
30
0
41
1
10
96.8931554429779
20
-5.83961395000034
30
0
41
1
10
96.9609354271126
20
-5.48054920826416
30
0
0
SPLINE
5
D8
100
AcDbEntity
8
1
62
256
6
ByLayer
370
13
48
1
60
0
100
AcDbSpline
70
4
71
3
72
42
73
38
40
0
40
0
40
0
40
0
40
0.0156249999999995
40
0.0156249999999995
40
0.031249999999999
40
0.031249999999999
40
0.062499999999999
40
0.062499999999999
40
0.124999999999999
40
0.124999999999999
40
0.187499999999999
40
0.187499999999999
40
0.249999999999999
40
0.249999999999999
40
0.312499999999999
40
0.312499999999999
40
0.374999999999999
40
0.374999999999999
40
0.437499999999999
40
0.437499999999999
40
0.5
40
0.5
40
0.5625
40
0.5625
40
0.625
40
0.625
40
0.6875
40
0.6875
40
0.75
40
0.75
40
0.8125
40
0.8125
40
0.875
40
0.875
40
0.9375
40
0.9375
40
1
40
1
40
1
40
1
41
1
10
87.0000000000001
20
-0.384841717724754
30
0
41
1
10
87.0133301374213
20
-0.310108261776435
30
0
41
1
10
87.0266602748425
20
-0.235678101992704
30
0
41
1
10
87.0533205496849
20
-0.0874752731201909
30
0
41
1
10
87.0666506871061
20
-0.0139252739178914
30
0
41
1
10
87.1066410993698
20
0.207459600782812
30
0
41
1
10
87.1333013742124
20
0.356410656291899
30
0
41
1
10
87.2132821987397
20
0.80673497080187
30
0
41
1
10
87.2666027484247
20
1.11160242381004
30
0
41
1
10
87.3732438477945
20
1.72680596466756
30
0
41
1
10
87.4265643974794
20
2.03713859712391
30
0
41
1
10
87.5332054968494
20
2.65873833797051
30
0
41
1
10
87.5865260465342
20
2.96999953860819
30
0
41
1
10
87.6931671459042
20
3.58836440495836
30
0
41
1
10
87.7464876955891
20
3.89545990339909
30
0
41
1
10
87.8531287949589
20
4.50005577022338
30
0
41
1
10
87.9064493446439
20
4.79754630966903
30
0
41
1
10
88.0130904440138
20
5.37742175930012
30
0
41
1
10
88.0664109936988
20
5.65979614707479
30
0
41
1
10
88.1730520930686
20
6.204165255389
30
0
41
1
10
88.2263726427535
20
6.46614996074271
30
0
41
1
10
88.3330137421233
20
6.9650150100104
30
0
41
1
10
88.3863342918083
20
7.20188706034446
30
0
41
1
10
88.4929753911781
20
7.64663071428385
30
0
41
1
10
88.5462959408631
20
7.85449673048208
30
0
41
1
10
88.6529370402329
20
8.23837256643623
30
0
41
1
10
88.7062575899179
20
8.41438006325924
30
0
41
1
10
88.8128986892877
20
8.73284380580154
30
0
41
1
10
88.8662192389727
20
8.87530103411078
30
0
41
1
10
88.9728603383426
20
9.12614964729809
30
0
41
1
10
89.0261808880275
20
9.23454487975806
30
0
41
1
10
89.1328219873974
20
9.41786079436423
30
0
41
1
10
89.1861425370823
20
9.49278740690011
30
0
41
1
10
89.2927836364522
20
9.61071330132648
30
0
41
1
10
89.346104186137
20
9.65371966414051
30
0
41
1
10
89.4527452855069
20
9.71010934667243
30
0
41
1
10
89.506065835192
20
9.7235
30
0
41
1
10
89.5593863848769
20
9.7235
30
0
0
SPLINE
5
D9
100
AcDbEntity
8
1
62
256
6
ByLayer
370
13
48
1
60
0
100
AcDbSpline
70
4
71
3
72
78
73
74
40
0
40
0
40
0
40
0
40
0.0312500000000006
40
0.0312500000000006
40
0.0625000000000013
40
0.0625000000000013
40
0.0937500000000019
40
0.0937500000000019
40
0.125000000000003
40
0.125000000000003
40
0.156250000000003
40
0.156250000000003
40
0.187500000000004
40
0.187500000000004
40
0.218750000000005
40
0.218750000000005
40
0.250000000000005
40
0.250000000000005
40
0.281250000000006
40
0.281250000000006
40
0.312500000000007
40
0.312500000000007
40
0.343750000000007
40
0.343750000000007
40
0.351562500000007
40
0.351562500000007
40
0.359375000000007
40
0.359375000000007
40
0.375000000000007
40
0.375000000000007
40
0.406250000000007
40
0.406250000000007
40
0.437500000000006
40
0.437500000000006
40
0.468750000000006
40
0.468750000000006
40
0.500000000000005
40
0.500000000000005
40
0.531250000000005
40
0.531250000000005
40
0.562500000000005
40
0.562500000000005
40
0.593750000000004
40
0.593750000000004
40
0.625000000000004
40
0.625000000000004
40
0.656250000000004
40
0.656250000000004
40
0.687500000000003
40
0.687500000000003
40
0.703125000000003
40
0.703125000000003
40
0.710937500000003
40
0.710937500000003
40
0.718750000000003
40
0.718750000000003
40
0.750000000000003
40
0.750000000000003
40
0.781250000000002
40
0.781250000000002
40
0.812500000000002
40
0.812500000000002
40
0.843750000000002
40
0.843750000000002
40
0.875000000000001
40
0.875000000000001
40
0.906250000000001
40
0.906250000000001
40
0.937500000000001
40
0.937500000000001
40
0.96875
40
0.96875
40
1
40
1
40
1
40
1
41
1
10
89.9606203141598
20
9.7235
30
0
41
1
10
90.033540263253
20
9.7235
30
0
41
1
10
90.1064602123462
20
9.69842373362027
30
0
41
1
10
90.2523001105328
20
9.59111022795955
30
0
41
1
10
90.325220059626
20
9.50883805357023
30
0
41
1
10
90.4710599578125
20
9.28221442925133
30
0
41
1
10
90.5439799069059
20
9.13783289987876
30
0
41
1
10
90.6898198050923
20
8.78523279107748
30
0
41
1
10
90.7627397541856
20
8.57699721491272
30
0
41
1
10
90.9085796523722
20
8.09882978334173
30
0
41
1
10
90.9814996014654
20
7.82890057782384
30
0
41
1
10
91.1273394996519
20
7.23362264575781
30
0
41
1
10
91.2002594487452
20
6.90829813849939
30
0
41
1
10
91.3460993469317
20
6.21224105955918
30
0
41
1
10
91.4190192960249
20
5.84155007894265
30
0
41
1
10
91.5648591942114
20
5.06749685611564
30
0
41
1
10
91.6377791433046
20
4.66418439811341
30
0
41
1
10
91.7836190414912
20
3.83894066137375
30
0
41
1
10
91.8565389905845
20
3.41705654448214
30
0
41
1
10
92.002378888771
20
2.56854173868967
30
0
41
1
10
92.0752988378642
20
2.14194690798246
30
0
41
1
10
92.2211387360509
20
1.29642718443534
30
0
41
1
10
92.294058685144
20
0.877522626342227
30
0
41
1
10
92.3852086215105
20
0.36500192565461
30
0
41
1
10
92.403438608784
20
0.263047001081077
30
0
41
1
10
92.4398985833307
20
0.0603671894950253
30
0
41
1
10
92.4581285706039
20
-0.0399949785096965
30
0
41
1
10
92.5128185324237
20
-0.343765634750696
30
0
41
1
10
92.5492785069704
20
-0.548761690493905
30
0
41
1
10
92.6586584306103
20
-1.16956291619775
30
0
41
1
10
92.7315783797036
20
-1.59125712940684
30
0
41
1
10
92.8774182778901
20
-2.43965141352669
30
0
41
1
10
92.9503382269834
20
-2.86632741098765
30
0
41
1
10
93.09617812517
20
-3.71186543490066
30
0
41
1
10
93.1690980742633
20
-4.13068840832773
30
0
41
1
10
93.3149379724496
20
-4.94649898429077
30
0
41
1
10
93.3878579215429
20
-5.3434379059332
30
0
41
1
10
93.5336978197294
20
-6.10159904633474
30
0
41
1
10
93.6066177688227
20
-6.46277241916653
30
0
41
1
10
93.7524576670091
20
-7.13716388222326
30
0
41
1
10
93.8253776161025
20
-7.45034375164661
30
0
41
1
10
93.971217514289
20
-8.01949971169256
30
0
41
1
10
94.0441374633822
20
-8.27545646391417
30
0
41
1
10
94.1899773615687
20
-8.72479900255962
30
0
41
1
10
94.262897310662
20
-8.91818710304733
30
0
41
1
10
94.4087372088485
20
-9.24116660460516
30
0
41
1
10
94.4816571579418
20
-9.37077875331624
30
0
41
1
10
94.6274970561284
20
-9.56875858311344
30
0
41
1
10
94.7004170052215
20
-9.63715820786621
30
0
41
1
10
94.8097969288614
20
-9.69795632151198
30
0
41
1
10
94.8462569034081
20
-9.71127537287671
30
0
41
1
10
94.900946865228
20
-9.72148975302957
30
0
41
1
10
94.9191768525013
20
-9.72326801154745
30
0
41
1
10
94.955636827048
20
-9.72368945564924
30
0
41
1
10
94.9738668143212
20
-9.72233971227894
30
0
41
1
10
95.0650167506879
20
-9.70749986712832
30
0
41
1
10
95.1379366997812
20
-9.66965755708239
30
0
41
1
10
95.2837765979677
20
-9.53543344474716
30
0
41
1
10
95.3566965470609
20
-9.43901712817086
30
0
41
1
10
95.5025364452474
20
-9.1833795032384
30
0
41
1
10
95.5754563943407
20
-9.02413043962835
30
0
41
1
10
95.7212962925271
20
-8.64192757805552
30
0
41
1
10
95.7942162416205
20
-8.4189609049578
30
0
41
1
10
95.9400561398069
20
-7.91242904730828
30
0
41
1
10
96.0129760889002
20
-7.62887158821533
30
0
41
1
10
96.1588159870868
20
-7.00836584986644
30
0
41
1
10
96.23173593618
20
-6.67144643743586
30
0
41
1
10
96.3775758343666
20
-5.95497316313197
30
0
41
1
10
96.4504957834598
20
-5.57546374808322
30
0
41
1
10
96.5963356816463
20
-4.78698868274597
30
0
41
1
10
96.6692556307395
20
-4.37807314957376
30
0
41
1
10
96.815095528926
20
-3.54492636792065
30
0
41
1
10
96.8880154780193
20
-3.12074027983837
30
0
41
1
10
96.9609354271126
20
-2.69571313920204
30
0
0
SPLINE
5
DA
100
AcDbEntity
8
1
62
256
6
ByLayer
370
13
48
1
60
0
100
AcDbSpline
70
4
71
3
72
22
73
18
40
0
40
0
40
0
40
0
40
0.125
40
0.125
40
0.25
40
0.25
40
0.375
40
0.375
40
0.5
40
0.5
40
0.625
40
0.625
40
0.75
40
0.75
40
0.875
40
0.875
40
1
40
1
40
1
40
1
41
1
10
87.0000000000001
20
2.42693786592625
30
0
41
1
10
87.0860812395358
20
2.9287889993218
30
0
41
1
10
87.1721624790715
20
3.43136939687813
30
0
41
1
10
87.3443249581429
20
4.41596905028842
30
0
41
1
10
87.4304061976788
20
4.89788578065048
30
0
41
1
10
87.6025686767503
20
5.81790397723012
30
0
41
1
10
87.688649916286
20
6.25589135972993
30
0
41
1
10
87.8608123953575
20
7.06705398545978
30
0
41
1
10
87.9468936348933
20
7.44013736686526
30
0
41
1
10
88.1190561139648
20
8.10597453435949
30
0
41
1
10
88.2051373535005
20
8.39868629446755
30
0
41
1
10
88.377299832572
20
8.89584314826371
30
0
41
1
10
88.4633810721078
20
9.10030394902455
30
0
41
1
10
88.6355435511792
20
9.42100541239938
30
0
41
1
10
88.7216247907151
20
9.53730598473382
30
0
41
1
10
88.8937872697866
20
9.68851372968308
30
0
41
1
10
88.9798685093224
20
9.7235
30
0
41
1
10
89.0659497488581
20
9.7235
30
0
0
SPLINE
5
DB
100
AcDbEntity
8
1
62
256
6
ByLayer
370
13
48
1
60
0
100
AcDbSpline
70
4
71
3
72
82
73
78
40
0
40
0
40
0
40
0
40
0.031249999999999
40
0.031249999999999
40
0.062499999999998
40
0.062499999999998
40
0.0937499999999971
40
0.0937499999999971
40
0.124999999999996
40
0.124999999999996
40
0.156249999999995
40
0.156249999999995
40
0.187499999999994
40
0.187499999999994
40
0.218749999999993
40
0.218749999999993
40
0.249999999999993
40
0.249999999999993
40
0.281249999999992
40
0.281249999999992
40
0.312499999999991
40
0.312499999999991
40
0.32812499999999
40
0.32812499999999
40
0.33593749999999
40
0.33593749999999
40
0.34374999999999
40
0.34374999999999
40
0.374999999999991
40
0.374999999999991
40
0.406249999999991
40
0.406249999999991
40
0.437499999999992
40
0.437499999999992
40
0.468749999999992
40
0.468749999999992
40
0.499999999999992
40
0.499999999999992
40
0.531249999999993
40
0.531249999999993
40
0.562499999999993
40
0.562499999999993
40
0.593749999999994
40
0.593749999999994
40
0.624999999999994
40
0.624999999999994
40
0.656249999999995
40
0.656249999999995
40
0.664062499999995
40
0.664062499999995
40
0.671874999999995
40
0.671874999999995
40
0.687499999999995
40
0.687499999999995
40
0.718749999999996
40
0.718749999999996
40
0.749999999999996
40
0.749999999999996
40
0.781249999999997
40
0.781249999999997
40
0.812499999999997
40
0.812499999999997
40
0.843749999999997
40
0.843749999999997
40
0.874999999999998
40
0.874999999999998
40
0.906249999999998
40
0.906249999999998
40
0.937499999999999
40
0.937499999999999
40
0.968749999999999
40
0.968749999999999
40
0.984374999999999
40
0.984374999999999
40
0.9921875
40
0.9921875
40
1
40
1
40
1
40
1
41
1
10
89.4671836781409
20
9.7235
30
0
41
1
10
89.5452435921926
20
9.7235
30
0
41
1
10
89.6233035062445
20
9.6947517199618
30
0
41
1
10
89.7794233343481
20
9.57123739668435
30
0
41
1
10
89.8574832483999
20
9.47642243432725
30
0
41
1
10
90.0136030765035
20
9.21508815010631
30
0
41
1
10
90.0916629905553
20
9.04852852479027
30
0
41
1
10
90.2477828186588
20
8.64233175253889
30
0
41
1
10
90.3258427327106
20
8.40267600588885
30
0
41
1
10
90.4819625608142
20
7.85416066652618
30
0
41
1
10
90.5600224748659
20
7.54531343942375
30
0
41
1
10
90.7161423029695
20
6.86765837074017
30
0
41
1
10
90.7942022170213
20
6.49889422570314
30
0
41
1
10
90.9503220451249
20
5.71516822880679
30
0
41
1
10
91.0283819591766
20
5.30027144622906
30
0
41
1
10
91.1845017872803
20
4.44088360510051
30
0
41
1
10
91.2625617013321
20
3.99646243371941
30
0
41
1
10
91.4186815294356
20
3.09537802929586
30
0
41
1
10
91.4967414434874
20
2.63877320846083
30
0
41
1
10
91.652861271591
20
1.72943840805758
30
0
41
1
10
91.7309211856428
20
1.27674523264008
30
0
41
1
10
91.8480110567205
20
0.610677725818078
30
0
41
1
10
91.8870410137463
20
0.390792871649438
30
0
41
1
10
91.9455859492851
20
0.0651878227048996
30
0
41
1
10
91.9651009277981
20
-0.0422275025815395
30
0
41
1
10
92.004130884824
20
-0.259097963581553
30
0
41
1
10
92.023645863337
20
-0.368240670777567
30
0
41
1
10
92.1212207559017
20
-0.917088016327085
30
0
41
1
10
92.1992806699536
20
-1.36632537698256
30
0
41
1
10
92.3554004980571
20
-2.27263720159402
30
0
41
1
10
92.4334604121088
20
-2.72968129750942
30
0
41
1
10
92.5895802402124
20
-3.63614213576915
30
0
41
1
10
92.6676401542643
20
-4.08550559647759
30
0
41
1
10
92.8237599823678
20
-4.95943495288114
30
0
41
1
10
92.9018198964196
20
-5.38393261125881
30
0
41
1
10
93.0579397245232
20
-6.19111642834943
30
0
41
1
10
93.135999638575
20
-6.57373448512328
30
0
41
1
10
93.2921194666785
20
-7.28241028608855
30
0
41
1
10
93.3701793807303
20
-7.60841725675633
30
0
41
1
10
93.5262992088338
20
-8.19323559560704
30
0
41
1
10
93.6043591228856
20
-8.45202580210315
30
0
41
1
10
93.7604789509893
20
-8.89700763709223
30
0
41
1
10
93.8385388650411
20
-9.08321018784315
30
0
41
1
10
93.9946586931446
20
-9.38299896284749
30
0
41
1
10
94.0727186071964
20
-9.49662091067782
30
0
41
1
10
94.2288384353
20
-9.65588042838107
30
0
41
1
10
94.3068983493518
20
-9.7015658877323
30
0
41
1
10
94.4044732419165
20
-9.7211675904328
30
0
41
1
10
94.4239882204295
20
-9.72321875835382
30
0
41
1
10
94.4630181774554
20
-9.72372722675732
30
0
41
1
10
94.4825331559683
20
-9.72219359003876
30
0
41
1
10
94.5410780915072
20
-9.71201735143106
30
0
41
1
10
94.580108048533
20
-9.69779228515665
30
0
41
1
10
94.6971979196107
20
-9.63118422715269
30
0
41
1
10
94.7752578336625
20
-9.55476131033222
30
0
41
1
10
94.9313776617661
20
-9.33136331269895
30
0
41
1
10
95.0094375758179
20
-9.18434431802964
30
0
41
1
10
95.1655574039214
20
-8.8171087064587
30
0
41
1
10
95.2436173179732
20
-8.59686650713044
30
0
41
1
10
95.3997371460769
20
-8.08560281442905
30
0
41
1
10
95.4777970601286
20
-7.79458492605664
30
0
41
1
10
95.6339168882322
20
-7.14961852277207
30
0
41
1
10
95.711976802284
20
-6.79570589137464
30
0
41
1
10
95.8680966303875
20
-6.0376388680707
30
0
41
1
10
95.9461565444393
20
-5.63354528483015
30
0
41
1
10
96.1022763725429
20
-4.79115658851615
30
0
41
1
10
96.1803362865947
20
-4.35293180969077
30
0
41
1
10
96.3364561146983
20
-3.45964041993187
30
0
41
1
10
96.4145160287501
20
-3.00463661452614
30
0
41
1
10
96.5706358568538
20
-2.09440502754217
30
0
41
1
10
96.6486957709054
20
-1.63922035800635
30
0
41
1
10
96.7657856419831
20
-0.966960548260658
30
0
41
1
10
96.8048155990091
20
-0.744604311970619
30
0
41
1
10
96.863360534548
20
-0.414768575830948
30
0
41
1
10
96.8828755130608
20
-0.305438094588823
30
0
41
1
10
96.9219054700868
20
-0.0881700514389649
30
0
41
1
10
96.9414204485997
20
0.0192892515159429
30
0
41
1
10
96.9609354271126
20
0.127623920591958
30
0
0
SPLINE
5
DC
100
AcDbEntity
8
1
62
256
6
ByLayer
370
13
48
1
60
0
100
AcDbSpline
70
4
71
3
72
22
73
18
40
0
40
0
40
0
40
0
40
0.125
40
0.125
40
0.25
40
0.25
40
0.375
40
0.375
40
0.5
40
0.5
40
0.625
40
0.625
40
0.75
40
0.75
40
0.875
40
0.875
40
1
40
1
40
1
40
1
41
1
10
87
20
5.23419907782519
30
0
41
1
10
87.0655213797016
20
5.58724196620994
30
0
41
1
10
87.1310427594033
20
5.92815429317139
30
0
41
1
10
87.2620855188065
20
6.57620976770292
30
0
41
1
10
87.3276068985082
20
6.88332646856003
30
0
41
1
10
87.4586496579113
20
7.45574142443749
30
0
41
1
10
87.5241710376131
20
7.72102099166659
30
0
41
1
10
87.6552137970164
20
8.20392467382052
30
0
41
1
10
87.720735176718
20
8.42154092833152
30
0
41
1
10
87.8517779361213
20
8.80590117683761
30
0
41
1
10
87.9172993158229
20
8.97264863526306
30
0
41
1
10
88.0483420752261
20
9.25473998694619
30
0
41
1
10
88.1138634549278
20
9.37009669800364
30
0
41
1
10
88.2449062143311
20
9.55130683889175
30
0
41
1
10
88.3104275940327
20
9.61717889737824
30
0
41
1
10
88.441470353436
20
9.7032652109373
30
0
41
1
10
88.5069917331376
20
9.7235
30
0
41
1
10
88.5725131128393
20
9.7235
30
0
0
SPLINE
5
DD
100
AcDbEntity
8
1
62
256
6
ByLayer
370
13
48
1
60
0
100
AcDbSpline
70
4
71
3
72
85
73
81
40
0
40
0
40
0
40
0
40
0.0312499999999997
40
0.0312499999999997
40
0.0624999999999993
40
0.0624999999999993
40
0.093749999999999
40
0.093749999999999
40
0.124999999999999
40
0.124999999999999
40
0.156249999999998
40
0.156249999999998
40
0.187499999999998
40
0.187499999999998
40
0.218749999999997
40
0.218749999999997
40
0.249999999999997
40
0.249999999999997
40
0.281249999999997
40
0.281249999999997
40
0.296874999999996
40
0.296874999999996
40
0.304687499999996
40
0.308593749999996
40
0.308593749999996
40
0.312499999999996
40
0.312499999999996
40
0.343749999999996
40
0.343749999999996
40
0.374999999999996
40
0.374999999999996
40
0.406249999999996
40
0.406249999999996
40
0.437499999999996
40
0.437499999999996
40
0.468749999999996
40
0.468749999999996
40
0.499999999999996
40
0.499999999999996
40
0.531249999999995
40
0.531249999999995
40
0.562499999999995
40
0.562499999999995
40
0.593749999999995
40
0.593749999999995
40
0.609374999999995
40
0.609374999999995
40
0.617187499999995
40
0.621093749999995
40
0.621093749999995
40
0.624999999999996
40
0.624999999999996
40
0.656249999999996
40
0.656249999999996
40
0.687499999999997
40
0.687499999999997
40
0.718749999999997
40
0.718749999999997
40
0.749999999999998
40
0.749999999999998
40
0.781249999999998
40
0.781249999999998
40
0.812499999999999
40
0.812499999999999
40
0.843749999999999
40
0.843749999999999
40
0.875
40
0.875
40
0.90625
40
0.90625
40
0.921875000000001
40
0.921875000000001
40
0.929687500000001
40
0.933593750000001
40
0.933593750000001
40
0.937500000000002
40
0.937500000000002
40
0.968750000000001
40
0.968750000000001
40
1
40
1
40
1
40
1
41
1
10
88.9737470421221
20
9.7235
30
0
41
1
10
89.0569469211325
20
9.7235
30
0
41
1
10
89.1401468001427
20
9.69082585446759
30
0
41
1
10
89.3065465581633
20
9.54990610581979
30
0
41
1
10
89.3897464371737
20
9.44159355677186
30
0
41
1
10
89.5561461951943
20
9.14294729644524
30
0
41
1
10
89.6393460742046
20
8.95256119973675
30
0
41
1
10
89.8057458322253
20
8.48908462353256
30
0
41
1
10
89.8889457112356
20
8.21597634372614
30
0
41
1
10
90.0553454692561
20
7.59326617735132
30
0
41
1
10
90.1385453482666
20
7.24369318358342
30
0
41
1
10
90.3049451062871
20
6.48102603350438
30
0
41
1
10
90.3881449852975
20
6.06800366815165
30
0
41
1
10
90.5545447433182
20
5.19662948669935
30
0
41
1
10
90.6377446223285
20
4.73837255844725
30
0
41
1
10
90.804144380349
20
3.79735102628513
30
0
41
1
10
90.8873442593594
20
3.31467756106599
30
0
41
1
10
91.05374401738
20
2.34537982504455
30
0
41
1
10
91.1369438963903
20
1.85882121025901
30
0
41
1
10
91.2617437149057
20
1.13941936609012
30
0
41
1
10
91.3033436544109
20
0.901330944936291
30
0
41
1
10
91.3657435636687
20
0.548149823078006
30
0
41
1
10
91.3969435182975
20
0.372543958340714
30
0
41
1
10
91.4281434729265
20
0.198644972743921
30
0
41
1
10
91.4489434426791
20
0.0831150709062456
30
0
41
1
10
91.4593434275554
20
0.0256641477721757
30
0
41
1
10
91.5529432914419
20
-0.491892758962933
30
0
41
1
10
91.6361431704522
20
-0.965485514676999
30
0
41
1
10
91.8025429284729
20
-1.9259107169573
30
0
41
1
10
91.8857428074833
20
-2.41271045902303
30
0
41
1
10
92.0521425655039
20
-3.38158799656026
30
0
41
1
10
92.1353424445141
20
-3.86359865183886
30
0
41
1
10
92.3017422025347
20
-4.80231891042862
30
0
41
1
10
92.3849420815451
20
-5.25893664404612
30
0
41
1
10
92.5513418395657
20
-6.12611124853731
30
0
41
1
10
92.6345417185761
20
-6.53657371371648
30
0
41
1
10
92.8009414765967
20
-7.2933871423229
30
0
41
1
10
92.884141355607
20
-7.6396679602334
30
0
41
1
10
93.0505411136276
20
-8.25534722114395
30
0
41
1
10
93.133740992638
20
-8.52471898184328
30
0
41
1
10
93.3001407506587
20
-8.9806028682724
30
0
41
1
10
93.383340629669
20
-9.16713475652125
30
0
41
1
10
93.5497403876896
20
-9.4582536830037
30
0
41
1
10
93.6329402666999
20
-9.56289424013636
30
0
41
1
10
93.7577400852154
20
-9.66338158291606
30
0
41
1
10
93.7993400247204
20
-9.68750432236965
30
0
41
1
10
93.8617399339781
20
-9.71053156993196
30
0
41
1
10
93.8929398886072
20
-9.7187584765397
30
0
41
1
10
93.924139843236
20
-9.72224411372122
30
0
41
1
10
93.9449398129885
20
-9.72353634263825
30
0
41
1
10
93.9553397978648
20
-9.72366856936219
30
0
41
1
10
94.0489396617515
20
-9.72027194519916
30
0
41
1
10
94.1321395407618
20
-9.68431091071085
30
0
41
1
10
94.2985392987824
20
-9.5364179893686
30
0
41
1
10
94.3817391777928
20
-9.42441938180613
30
0
41
1
10
94.5481389358134
20
-9.11823008157785
30
0
41
1
10
94.6313388148237
20
-8.92398818148149
30
0
41
1
10
94.7977385728443
20
-8.45293065664058
30
0
41
1
10
94.8809384518547
20
-8.17609922120226
30
0
41
1
10
95.0473382098753
20
-7.54639955583716
30
0
41
1
10
95.1305380888856
20
-7.1935624211761
30
0
41
1
10
95.2969378469062
20
-6.42510894269893
30
0
41
1
10
95.3801377259165
20
-6.00956599131365
30
0
41
1
10
95.5465374839372
20
-5.13407652346615
30
0
41
1
10
95.6297373629475
20
-4.67422531739672
30
0
41
1
10
95.7961371209682
20
-3.73099168963452
30
0
41
1
10
95.8793369999785
20
-3.24769962787542
30
0
41
1
10
96.0457367579992
20
-2.27806420280163
30
0
41
1
10
96.1289366370095
20
-1.79178499211361
30
0
41
1
10
96.253736455525
20
-1.07335081802904
30
0
41
1
10
96.2953363950301
20
-0.83567582518026
30
0
41
1
10
96.3577363042878
20
-0.483232220744213
30
0
41
1
10
96.3889362589167
20
-0.308024435026624
30
0
41
1
10
96.4201362135456
20
-0.134563814065871
30
0
41
1
10
96.4409361832982
20
-0.0193346923594788
30
0
41
1
10
96.4513361681744
20
0.0379952921841493
30
0
41
1
10
96.5449360320609
20
0.556925653367273
30
0
41
1
10
96.6281359110713
20
1.0314687555634
30
0
41
1
10
96.794535669092
20
1.99304840202629
30
0
41
1
10
96.8777355481023
20
2.48005063360699
30
0
41
1
10
96.9609354271125
20
2.9642377866175
30
0
0
SPLINE
5
DE
100
AcDbEntity
8
1
62
256
6
ByLayer
370
13
48
1
60
0
100
AcDbSpline
70
4
71
3
72
14
73
10
40
0
40
0
40
0
40
0
40
0.25
40
0.25
40
0.5
40
0.5
40
0.75
40
0.75
40
1
40
1
40
1
40
1
41
1
10
87.0000000000001
20
7.59098029535932
30
0
41
1
10
87.089923039735
20
7.95342632838512
30
0
41
1
10
87.1798460794701
20
8.27318250125165
30
0
41
1
10
87.3596921589402
20
8.81695304380827
30
0
41
1
10
87.4496151986752
20
9.04097774436119
30
0
41
1
10
87.6294612781453
20
9.3923578884343
30
0
41
1
10
87.7193843178803
20
9.51978398579882
30
0
41
1
10
87.8992303973504
20
9.68530609927265
30
0
41
1
10
87.9891534370853
20
9.7235
30
0
41
1
10
88.0790764768204
20
9.7235
30
0
0
SPLINE
5
DF
100
AcDbEntity
8
1
62
256
6
ByLayer
370
13
48
1
60
0
100
AcDbSpline
70
4
71
3
72
87
73
83
40
0
40
0
40
0
40
0
40
0.031250000000001
40
0.031250000000001
40
0.062500000000002
40
0.062500000000002
40
0.093750000000003
40
0.093750000000003
40
0.125000000000004
40
0.125000000000004
40
0.156250000000005
40
0.156250000000005
40
0.187500000000006
40
0.187500000000006
40
0.218750000000007
40
0.218750000000007
40
0.250000000000008
40
0.250000000000008
40
0.281250000000009
40
0.281250000000009
40
0.289062500000009
40
0.292968750000009
40
0.292968750000009
40
0.296875000000009
40
0.296875000000009
40
0.31250000000001
40
0.31250000000001
40
0.343750000000011
40
0.343750000000011
40
0.375000000000011
40
0.375000000000011
40
0.406250000000012
40
0.406250000000012
40
0.437500000000013
40
0.437500000000013
40
0.468750000000013
40
0.468750000000013
40
0.500000000000014
40
0.500000000000014
40
0.531250000000015
40
0.531250000000015
40
0.562500000000016
40
0.562500000000016
40
0.578125000000016
40
0.578125000000016
40
0.585937500000016
40
0.585937500000016
40
0.589843750000016
40
0.589843750000016
40
0.593750000000017
40
0.593750000000017
40
0.625000000000015
40
0.625000000000015
40
0.656250000000014
40
0.656250000000014
40
0.687500000000013
40
0.687500000000013
40
0.718750000000012
40
0.718750000000012
40
0.750000000000011
40
0.750000000000011
40
0.78125000000001
40
0.78125000000001
40
0.812500000000009
40
0.812500000000009
40
0.843750000000008
40
0.843750000000008
40
0.875000000000007
40
0.875000000000007
40
0.878906250000007
40
0.878906250000007
40
0.882812500000006
40
0.882812500000006
40
0.890625000000006
40
0.890625000000006
40
0.906250000000005
40
0.906250000000005
40
0.937500000000004
40
0.937500000000004
40
0.968750000000002
40
0.968750000000002
40
1
40
1
40
1
40
1
41
1
10
88.4803104061032
20
9.7235
30
0
41
1
10
88.5686502500721
20
9.7235
30
0
41
1
10
88.656990094041
20
9.6866452562692
30
0
41
1
10
88.8336697819786
20
9.52710494188642
30
0
41
1
10
88.9220096259476
20
9.40432960492385
30
0
41
1
10
89.0986893138852
20
9.06576801853083
30
0
41
1
10
89.187029157854
20
8.84991563096222
30
0
41
1
10
89.3637088457917
20
8.32558761387747
30
0
41
1
10
89.4520486897605
20
8.01709902962787
30
0
41
1
10
89.6287283776983
20
7.31674801073072
30
0
41
1
10
89.7170682216671
20
6.92494021807673
30
0
41
1
10
89.8937479096048
20
6.07546931240552
30
0
41
1
10
89.9820877535736
20
5.61791612868649
30
0
41
1
10
90.1587674415113
20
4.66019854783892
30
0
41
1
10
90.2471072854801
20
4.16016429233403
30
0
41
1
10
90.4237869734179
20
3.14270306269771
30
0
41
1
10
90.5121268173867
20
2.62538678146208
30
0
41
1
10
90.6888065053245
20
1.59679460811932
30
0
41
1
10
90.7771463492933
20
1.08558462174679
30
0
41
1
10
90.8875711542543
20
0.462172398417437
30
0
41
1
10
90.9206985957426
20
0.276299040167629
30
0
41
1
10
90.953826037231
20
0.092420143374909
30
0
41
1
10
90.9759109982232
20
-0.0296953482121296
30
0
41
1
10
90.9869534787194
20
-0.0907092296427265
30
0
41
1
10
91.0421658811999
20
-0.397514961917352
30
0
41
1
10
91.0863358031842
20
-0.646594277422935
30
0
41
1
10
91.2188455691375
20
-1.40177649666168
30
0
41
1
10
91.3071854131064
20
-1.91597864764714
30
0
41
1
10
91.483865101044
20
-2.94602276423365
30
0
41
1
10
91.5722049450129
20
-3.4617885358245
30
0
41
1
10
91.7488846329506
20
-4.4709701863722
30
0
41
1
10
91.8372244769195
20
-4.96426858495133
30
0
41
1
10
92.0139041648572
20
-5.90340305968579
30
0
41
1
10
92.102244008826
20
-6.34910975059842
30
0
41
1
10
92.2789236967636
20
-7.17066096752674
30
0
41
1
10
92.3672635407326
20
-7.54640468311524
30
0
41
1
10
92.5439432286702
20
-8.21195375846065
30
0
41
1
10
92.6322830726391
20
-8.501718413643
30
0
41
1
10
92.8089627605767
20
-8.98778270156842
30
0
41
1
10
92.8973026045456
20
-9.18410823598936
30
0
41
1
10
93.0739822924834
20
-9.48453716712356
30
0
41
1
10
93.1623221364521
20
-9.58871420963072
30
0
41
1
10
93.2948319024053
20
-9.68213382730818
30
0
41
1
10
93.3390018243899
20
-9.70284777770041
30
0
41
1
10
93.4052567073666
20
-9.71940567614524
30
0
41
1
10
93.4273416683587
20
-9.72250809581084
30
0
41
1
10
93.4604691098471
20
-9.72369207686353
30
0
41
1
10
93.4715115903431
20
-9.72351252179905
30
0
41
1
10
93.4935965513353
20
-9.72199283536648
30
0
41
1
10
93.5046390318315
20
-9.72065063148673
30
0
41
1
10
93.6040213562965
20
-9.70321219375771
30
0
41
1
10
93.6923612002653
20
-9.64943863828282
30
0
41
1
10
93.869040888203
20
-9.45406289606856
30
0
41
1
10
93.9573807321717
20
-9.31237325868094
30
0
41
1
10
94.1340604201094
20
-8.93537585973206
30
0
41
1
10
94.2224002640784
20
-8.70001079790677
30
0
41
1
10
94.3990799520161
20
-8.13783452079653
30
0
41
1
10
94.4874197959849
20
-7.81102396192728
30
0
41
1
10
94.6640994839225
20
-7.07703689174733
30
0
41
1
10
94.7524393278915
20
-6.66992841746156
30
0
41
1
10
94.9291190158292
20
-5.7943147077541
30
0
41
1
10
95.017458859798
20
-5.32592694557567
30
0
41
1
10
95.1941385477357
20
-4.3517347655457
30
0
41
1
10
95.2824783917045
20
-3.84605947222411
30
0
41
1
10
95.4591580796422
20
-2.8224278417039
30
0
41
1
10
95.5474979236111
20
-2.30457429783002
30
0
41
1
10
95.7241776115488
20
-1.27926149236285
30
0
41
1
10
95.8125174555177
20
-0.771857706199455
30
0
41
1
10
95.9118997799826
20
-0.216876533786262
30
0
41
1
10
95.9229422604785
20
-0.155428485805231
30
0
41
1
10
95.9450272214708
20
-0.0329937079836782
30
0
41
1
10
95.956069701967
20
0.027867893911349
30
0
41
1
10
95.9891971434554
20
0.211481310056314
30
0
41
1
10
96.0112821044474
20
0.334815142433797
30
0
41
1
10
96.0775369874242
20
0.707244072297556
30
0
41
1
10
96.1217069094085
20
0.958777596259353
30
0
41
1
10
96.2542166753619
20
1.71993936142326
30
0
41
1
10
96.3425565193307
20
2.23627190330899
30
0
41
1
10
96.5192362072684
20
3.26586401895324
30
0
41
1
10
96.6075760512372
20
3.77903744613565
30
0
41
1
10
96.7842557391749
20
4.77780438430423
30
0
41
1
10
96.8725955831438
20
5.26327492450793
30
0
41
1
10
96.9609354271126
20
5.72251718156465
30
0
0
SPLINE
5
E0
100
AcDbEntity
8
1
62
256
6
ByLayer
370
13
48
1
60
0
100
AcDbSpline
70
4
71
3
72
10
73
6
40
0
40
0
40
0
40
0
40
0.5
40
0.5
40
1
40
1
40
1
40
1
41
1
10
87.0000000000001
20
9.12238552112746
30
0
41
1
10
87.0976066401336
20
9.33092808377009
30
0
41
1
10
87.1952132802672
20
9.48224817345866
30
0
41
1
10
87.3904265605345
20
9.67846131566074
30
0
41
1
10
87.488033200668
20
9.7235
30
0
41
1
10
87.5856398408016
20
9.7235
30
0
0
SPLINE
5
E1
100
AcDbEntity
8
1
62
256
6
ByLayer
370
13
48
1
60
0
100
AcDbSpline
70
4
71
3
72
82
73
78
40
0
40
0
40
0
40
0
40
0.0312500000000006
40
0.0312500000000006
40
0.0625000000000012
40
0.0625000000000012
40
0.0937500000000019
40
0.0937500000000019
40
0.125000000000002
40
0.125000000000002
40
0.156250000000003
40
0.156250000000003
40
0.187500000000004
40
0.187500000000004
40
0.218750000000004
40
0.218750000000004
40
0.250000000000005
40
0.250000000000005
40
0.265625000000005
40
0.265625000000005
40
0.273437500000005
40
0.273437500000005
40
0.281250000000005
40
0.281250000000005
40
0.312500000000005
40
0.312500000000005
40
0.343750000000005
40
0.343750000000005
40
0.375000000000005
40
0.375000000000005
40
0.406250000000004
40
0.406250000000004
40
0.437500000000004
40
0.437500000000004
40
0.468750000000004
40
0.468750000000004
40
0.500000000000004
40
0.500000000000004
40
0.531250000000003
40
0.531250000000003
40
0.546875000000003
40
0.546875000000003
40
0.554687500000003
40
0.554687500000003
40
0.562500000000003
40
0.562500000000003
40
0.593750000000003
40
0.593750000000003
40
0.625000000000003
40
0.625000000000003
40
0.656250000000002
40
0.656250000000002
40
0.687500000000002
40
0.687500000000002
40
0.718750000000002
40
0.718750000000002
40
0.750000000000002
40
0.750000000000002
40
0.781250000000001
40
0.781250000000001
40
0.812500000000001
40
0.812500000000001
40
0.828125000000001
40
0.828125000000001
40
0.835937500000001
40
0.835937500000001
40
0.843750000000001
40
0.843750000000001
40
0.875000000000001
40
0.875000000000001
40
0.906250000000001
40
0.906250000000001
40
0.9375
40
0.9375
40
0.96875
40
0.96875
40
1
40
1
40
1
40
1
41
1
10
87.9868737700844
20
9.7235
30
0
41
1
10
88.0803535790118
20
9.7235
30
0
41
1
10
88.1738333879392
20
9.68220895781482
30
0
41
1
10
88.3607930057939
20
9.5028229203302
30
0
41
1
10
88.4542728147213
20
9.36460973871189
30
0
41
1
10
88.641232432576
20
8.98353358112493
30
0
41
1
10
88.7347122415034
20
8.74058945655548
30
0
41
1
10
88.9216718593582
20
8.15197287318392
30
0
41
1
10
89.0151516682855
20
7.80629848015874
30
0
41
1
10
89.2021112861403
20
7.0253052655533
30
0
41
1
10
89.2955910950677
20
6.59007869577644
30
0
41
1
10
89.4825507129225
20
5.65289149166162
30
0
41
1
10
89.5760305218498
20
5.15108982874068
30
0
41
1
10
89.7629901397046
20
4.10957469539613
30
0
41
1
10
89.856469948632
20
3.57003003043241
30
0
41
1
10
90.0434295664867
20
2.48261345892337
30
0
41
1
10
90.1369093754141
20
1.93486653356939
30
0
41
1
10
90.2771290888052
20
1.12631457898826
30
0
41
1
10
90.3238689932688
20
0.858933592125027
30
0
41
1
10
90.3939788499644
20
0.463017137031955
30
0
41
1
10
90.4173488021963
20
0.331900766488076
30
0
41
1
10
90.4640887066599
20
0.0716628978614722
30
0
41
1
10
90.4874586588917
20
-0.0568890130736008
30
0
41
1
10
90.604308420051
20
-0.707103608831147
30
0
41
1
10
90.6977882289783
20
-1.24359086998621
30
0
41
1
10
90.8847478468331
20
-2.32847875961923
30
0
41
1
10
90.9782276557605
20
-2.87680603113103
30
0
41
1
10
91.1651872736152
20
-3.95849731746239
30
0
41
1
10
91.2586670825426
20
-4.49172223820753
30
0
41
1
10
91.4456267003973
20
-5.51340523191715
30
0
41
1
10
91.5391065093248
20
-6.00169127059445
30
0
41
1
10
91.7260661271795
20
-6.90559317409173
30
0
41
1
10
91.8195459361069
20
-7.32106155025417
30
0
41
1
10
92.0065055539616
20
-8.0583518783788
30
0
41
1
10
92.099985362889
20
-8.38010333529186
30
0
41
1
10
92.2869449807437
20
-8.91936032608405
30
0
41
1
10
92.3804247896711
20
-9.13688966345529
30
0
41
1
10
92.5673844075259
20
-9.46820487984357
30
0
41
1
10
92.6608642164532
20
-9.58208511126699
30
0
41
1
10
92.8010839298443
20
-9.68237920303989
30
0
41
1
10
92.847823834308
20
-9.70411805289214
30
0
41
1
10
92.9179336910036
20
-9.72052294079006
30
0
41
1
10
92.9413036432354
20
-9.72329312573171
30
0
41
1
10
92.9880435476991
20
-9.72368453957785
30
0
41
1
10
93.0114134999309
20
-9.72131473081265
30
0
41
1
10
93.1282632610901
20
-9.69602274688549
30
0
41
1
10
93.2217430700176
20
-9.63255329709961
30
0
41
1
10
93.4087026878723
20
-9.40618439753251
30
0
41
1
10
93.5021824967997
20
-9.24317138807828
30
0
41
1
10
93.6891421146545
20
-8.81197368239916
30
0
41
1
10
93.7826219235818
20
-8.54372361749586
30
0
41
1
10
93.9695815414365
20
-7.90662383898865
30
0
41
1
10
94.0630613503639
20
-7.53779500810407
30
0
41
1
10
94.2500209682187
20
-6.71521672063272
30
0
41
1
10
94.343500777146
20
-6.26157961899801
30
0
41
1
10
94.5304603950008
20
-5.29415024518593
30
0
41
1
10
94.6239402039282
20
-4.78052496963633
30
0
41
1
10
94.8108998217829
20
-3.72260290807793
30
0
41
1
10
94.9043796307103
20
-3.17846846736131
30
0
41
1
10
95.0913392485651
20
-2.08855599357602
30
0
41
1
10
95.1848190574925
20
-1.54288739618806
30
0
41
1
10
95.3250387708836
20
-0.7414019164205
30
0
41
1
10
95.3717786753472
20
-0.477029507418223
30
0
41
1
10
95.4418885320428
20
-0.0864458278526286
30
0
41
1
10
95.4652584842745
20
0.0421242163029945
30
0
41
1
10
95.5119983887382
20
0.302057248192
30
0
41
1
10
95.5353683409701
20
0.433031399039379
30
0
41
1
10
95.6522181021293
20
1.09223745954657
30
0
41
1
10
95.7456979110567
20
1.63373821526576
30
0
41
1
10
95.9326575289115
20
2.72266368631543
30
0
41
1
10
96.0261373378388
20
3.26999810012589
30
0
41
1
10
96.2130969556936
20
4.34264045213988
30
0
41
1
10
96.3065767646209
20
4.86779711595602
30
0
41
1
10
96.4935363824756
20
5.86625967001308
30
0
41
1
10
96.587016191403
20
6.33939377149383
30
0
41
1
10
96.7739758092578
20
7.20714594689454
30
0
41
1
10
96.8674556181852
20
7.60163120291131
30
0
41
1
10
96.9609354271125
20
7.94750666930184
30
0
0
SPLINE
5
E2
100
AcDbEntity
8
1
62
256
6
ByLayer
370
13
48
1
60
0
100
AcDbSpline
70
4
71
3
72
8
73
4
40
0
40
0
40
0
40
0
40
1
40
1
40
1
40
1
41
1
10
87.0000000000001
20
9.70988551491297
30
0
41
1
10
87.0307344015943
20
9.71905492308255
30
0
41
1
10
87.0614688031885
20
9.7235
30
0
41
1
10
87.0922032047827
20
9.7235
30
0
0
SPLINE
5
E3
100
AcDbEntity
8
1
62
256
6
ByLayer
370
13
48
1
60
0
100
AcDbSpline
70
4
71
3
72
124
73
120
40
0
40
0
40
0
40
0
40
0.0312500000000008
40
0.0312500000000008
40
0.0625000000000015
40
0.0625000000000015
40
0.0781250000000018
40
0.0781250000000018
40
0.0937500000000021
40
0.0937500000000021
40
0.109375000000002
40
0.109375000000002
40
0.125000000000003
40
0.125000000000003
40
0.140625000000003
40
0.140625000000003
40
0.156250000000003
40
0.156250000000003
40
0.171875000000003
40
0.171875000000003
40
0.187500000000004
40
0.187500000000004
40
0.203125000000004
40
0.203125000000004
40
0.218750000000004
40
0.218750000000004
40
0.250000000000005
40
0.250000000000005
40
0.257812500000005
40
0.257812500000005
40
0.261718750000005
40
0.261718750000005
40
0.265625000000005
40
0.265625000000005
40
0.281250000000005
40
0.281250000000005
40
0.312500000000004
40
0.312500000000004
40
0.328125000000004
40
0.328125000000004
40
0.343750000000004
40
0.343750000000004
40
0.359375000000003
40
0.359375000000003
40
0.375000000000003
40
0.375000000000003
40
0.390625000000003
40
0.390625000000003
40
0.406250000000002
40
0.406250000000002
40
0.421875000000002
40
0.421875000000002
40
0.437500000000002
40
0.437500000000002
40
0.453125000000001
40
0.453125000000001
40
0.468750000000001
40
0.468750000000001
40
0.5
40
0.5
40
0.515625
40
0.515625
40
0.5234375
40
0.5234375
40
0.52734375
40
0.52734375
40
0.53125
40
0.53125
40
0.5625
40
0.5625
40
0.59375
40
0.59375
40
0.609374999999999
40
0.609374999999999
40
0.624999999999999
40
0.624999999999999
40
0.640624999999999
40
0.640624999999999
40
0.656249999999999
40
0.656249999999999
40
0.671874999999999
40
0.671874999999999
40
0.687499999999999
40
0.687499999999999
40
0.703124999999999
40
0.703124999999999
40
0.718749999999999
40
0.718749999999999
40
0.749999999999999
40
0.749999999999999
40
0.781249999999999
40
0.781249999999999
40
0.789062499999999
40
0.789062499999999
40
0.796874999999998
40
0.796874999999998
40
0.812499999999998
40
0.812499999999998
40
0.843749999999999
40
0.843749999999999
40
0.859374999999999
40
0.859374999999999
40
0.874999999999999
40
0.874999999999999
40
0.890624999999999
40
0.890624999999999
40
0.906249999999999
40
0.906249999999999
40
0.921874999999999
40
0.921874999999999
40
0.937499999999999
40
0.937499999999999
40
0.953125
40
0.953125
40
0.96875
40
0.96875
40
0.984375
40
0.984375
40
1
40
1
40
1
40
1
41
1
10
87.4934371340656
20
9.7235
30
0
41
1
10
87.5920569079515
20
9.7235
30
0
41
1
10
87.6906766818374
20
9.67751590134719
30
0
41
1
10
87.8879162296092
20
9.47704950001042
30
0
41
1
10
87.9865360034952
20
9.32241413994143
30
0
41
1
10
88.134465664324
20
9.00277947423331
30
0
41
1
10
88.1837755512669
20
8.88170223490985
30
0
41
1
10
88.2823953251528
20
8.61058692637002
30
0
41
1
10
88.3317052120958
20
8.46054741089608
30
0
41
1
10
88.4303249859817
20
8.13245488763829
30
0
41
1
10
88.4796348729246
20
7.95440242353027
30
0
41
1
10
88.5782546468106
20
7.57209567875216
30
0
41
1
10
88.6275645337535
20
7.36784404140755
30
0
41
1
10
88.7261843076394
20
6.9357673292451
30
0
41
1
10
88.7754941945824
20
6.70794682983845
30
0
41
1
10
88.8741139684682
20
6.2320682655843
30
0
41
1
10
88.9234238554112
20
5.98401627525178
30
0
41
1
10
89.0220436292972
20
5.47155642079761
30
0
41
1
10
89.0713535162401
20
5.20715550076366
30
0
41
1
10
89.1699732901261
20
4.66622741808968
30
0
41
1
10
89.219283177069
20
4.3897073525703
30
0
41
1
10
89.3179029509549
20
3.82890510742325
30
0
41
1
10
89.3672128378978
20
3.54462949620645
30
0
41
1
10
89.4658326117838
20
2.97260722655071
30
0
41
1
10
89.5151424987267
20
2.68486606461346
30
0
41
1
10
89.6630721595556
20
1.82248862539609
30
0
41
1
10
89.7616919334414
20
1.24896093060823
30
0
41
1
10
89.8849666507988
20
0.550695392449143
30
0
41
1
10
89.9096215942702
20
0.41195464387053
30
0
41
1
10
89.9466040094775
20
0.205466871752861
30
0
41
1
10
89.9589314812133
20
0.136907899137327
30
0
41
1
10
89.9835864246847
20
0.0003696873188801
30
0
41
1
10
89.9959138964205
20
-0.0676069614671349
30
0
41
1
10
90.0575512550992
20
-0.409894804757215
30
0
41
1
10
90.1068611420421
20
-0.688283785206295
30
0
41
1
10
90.254790802871
20
-1.53298152691559
30
0
41
1
10
90.3534105767569
20
-2.10905272282747
30
0
41
1
10
90.5013402375857
20
-2.97132005114759
30
0
41
1
10
90.5506501245287
20
-3.25837340926273
30
0
41
1
10
90.6492698984146
20
-3.82761549511909
30
0
41
1
10
90.6985797853576
20
-4.10979832171722
30
0
41
1
10
90.7971995592435
20
-4.66496399196052
30
0
41
1
10
90.8465094461864
20
-4.93794002273083
30
0
41
1
10
90.9451292200723
20
-5.47034954124544
30
0
41
1
10
90.9944391070153
20
-5.72977590294991
30
0
41
1
10
91.0930588809011
20
-6.23094789079434
30
0
41
1
10
91.1423687678441
20
-6.47268678399723
30
0
41
1
10
91.24098854173
20
-6.93476070859117
30
0
41
1
10
91.2902984286729
20
-7.1550901013434
30
0
41
1
10
91.3889182025588
20
-7.57122521347384
30
0
41
1
10
91.4382280895018
20
-7.76702696340286
30
0
41
1
10
91.5368478633877
20
-8.13173648418399
30
0
41
1
10
91.5861577503307
20
-8.30064230459797
30
0
41
1
10
91.6847775242166
20
-8.6100290808813
30
0
41
1
10
91.7340874111596
20
-8.7505101791445
30
0
41
1
10
91.8327071850455
20
-9.00238318463028
30
0
41
1
10
91.8820170719885
20
-9.11377713261143
30
0
41
1
10
92.0299467328173
20
-9.40457792646251
30
0
41
1
10
92.1285665067032
20
-9.54030200734232
30
0
41
1
10
92.2764961675321
20
-9.66403525711431
30
0
41
1
10
92.325806054475
20
-9.69205251312462
30
0
41
1
10
92.3997708848893
20
-9.71574625076596
30
0
41
1
10
92.4244258283609
20
-9.72059208760385
30
0
41
1
10
92.4614082435681
20
-9.72349615656827
30
0
41
1
10
92.4737357153039
20
-9.72373958604325
30
0
41
1
10
92.4983906587753
20
-9.72279551488938
30
0
41
1
10
92.510718130511
20
-9.72160248402415
30
0
41
1
10
92.6216653761327
20
-9.70421199310584
30
0
41
1
10
92.7202851500186
20
-9.64117800162981
30
0
41
1
10
92.9175246977904
20
-9.40450572204307
30
0
41
1
10
93.0161444716763
20
-9.23071902456053
30
0
41
1
10
93.1640741325052
20
-8.88215186066742
30
0
41
1
10
93.2133840194482
20
-8.75140170634882
30
0
41
1
10
93.3120037933342
20
-8.46115906496075
30
0
41
1
10
93.3613136802771
20
-8.30166576468633
30
0
41
1
10
93.4599334541629
20
-7.95517265757849
30
0
41
1
10
93.5092433411058
20
-7.76817409297757
30
0
41
1
10
93.6078631149918
20
-7.36876184692474
30
0
41
1
10
93.6571730019347
20
-7.1563514830994
30
0
41
1
10
93.7557927758206
20
-6.70899400181543
30
0
41
1
10
93.8051026627636
20
-6.47405201736871
30
0
41
1
10
93.9037224366495
20
-5.98516858899941
30
0
41
1
10
93.9530323235924
20
-5.73123358507092
30
0
41
1
10
94.0516520974783
20
-5.20838455441682
30
0
41
1
10
94.1009619844212
20
-4.93947760282867
30
0
41
1
10
94.1995817583072
20
-4.39098280019363
30
0
41
1
10
94.2488916452501
20
-4.11140194124471
30
0
41
1
10
94.396821306079
20
-3.26318103053467
30
0
41
1
10
94.495441079965
20
-2.68523583817193
30
0
41
1
10
94.6926806277368
20
-1.53694845093349
30
0
41
1
10
94.7913004016227
20
-0.966720466815389
30
0
41
1
10
94.9145751189801
20
-0.274892444389138
30
0
41
1
10
94.9392300624515
20
-0.137554028042246
30
0
41
1
10
94.9885399493945
20
0.134752091497035
30
0
41
1
10
95.0131948928659
20
0.272059115735004
30
0
41
1
10
95.0871597232804
20
0.687113687330253
30
0
41
1
10
95.1364696102234
20
0.967947152085713
30
0
41
1
10
95.2843992710522
20
1.81841781264654
30
0
41
1
10
95.3830190449381
20
2.39623894808841
30
0
41
1
10
95.5309487057669
20
3.25708243277847
30
0
41
1
10
95.5802585927099
20
3.54299016964669
30
0
41
1
10
95.6788783665959
20
4.1085141076739
30
0
41
1
10
95.7281882535387
20
4.38812404879721
30
0
41
1
10
95.8268080274246
20
4.93669198616951
30
0
41
1
10
95.8761179143677
20
5.20564299178866
30
0
41
1
10
95.9747376882535
20
5.72859452262884
30
0
41
1
10
96.0240475751964
20
5.98258797177891
30
0
41
1
10
96.1226673490823
20
6.47160137299988
30
0
41
1
10
96.1719772360253
20
6.70661488168798
30
0
41
1
10
96.2705970099113
20
7.15412651772797
30
0
41
1
10
96.3199068968543
20
7.36661950659322
30
0
41
1
10
96.4185266707401
20
7.76620560123777
30
0
41
1
10
96.467836557683
20
7.95329538256149
30
0
41
1
10
96.5664563315689
20
8.29997666993918
30
0
41
1
10
96.6157662185119
20
8.45956692651743
30
0
41
1
10
96.7143859923978
20
8.75000624658009
30
0
41
1
10
96.7636958793408
20
8.88085611655822
30
0
41
1
10
96.8623156532267
20
9.11343352629819
30
0
41
1
10
96.9116255401697
20
9.21516365605231
30
0
41
1
10
96.9609354271125
20
9.30254683034957
30
0
0
SPLINE
5
E4
100
AcDbEntity
8
1
62
256
6
ByLayer
370
13
48
1
60
0
100
AcDbSpline
70
4
71
3
72
134
73
130
40
0
40
0
40
0
40
0
40
0.015625
40
0.015625
40
0.0312499999999999
40
0.0312499999999999
40
0.0468749999999998
40
0.0468749999999998
40
0.0624999999999998
40
0.0624999999999998
40
0.0781249999999997
40
0.0781249999999997
40
0.0937499999999997
40
0.0937499999999997
40
0.109375
40
0.109375
40
0.125
40
0.125
40
0.140625
40
0.140625
40
0.156249999999999
40
0.156249999999999
40
0.171874999999999
40
0.171874999999999
40
0.187499999999999
40
0.187499999999999
40
0.203124999999999
40
0.203124999999999
40
0.218749999999999
40
0.218749999999999
40
0.234374999999999
40
0.234374999999999
40
0.249999999999999
40
0.249999999999999
40
0.265624999999999
40
0.265624999999999
40
0.281249999999999
40
0.281249999999999
40
0.296874999999999
40
0.296874999999999
40
0.312499999999999
40
0.312499999999999
40
0.328124999999999
40
0.328124999999999
40
0.343749999999999
40
0.343749999999999
40
0.359374999999999
40
0.359374999999999
40
0.374999999999999
40
0.374999999999999
40
0.390624999999999
40
0.390624999999999
40
0.406249999999999
40
0.406249999999999
40
0.421874999999999
40
0.421874999999999
40
0.437499999999999
40
0.437499999999999
40
0.453124999999999
40
0.453124999999999
40
0.468749999999999
40
0.468749999999999
40
0.484374999999999
40
0.484374999999999
40
0.499999999999999
40
0.499999999999999
40
0.515624999999999
40
0.515624999999999
40
0.531249999999999
40
0.531249999999999
40
0.546874999999999
40
0.546874999999999
40
0.562499999999999
40
0.562499999999999
40
0.578124999999999
40
0.578124999999999
40
0.593749999999999
40
0.593749999999999
40
0.609374999999999
40
0.609374999999999
40
0.624999999999999
40
0.624999999999999
40
0.640624999999999
40
0.640624999999999
40
0.656249999999999
40
0.656249999999999
40
0.671874999999999
40
0.671874999999999
40
0.687499999999999
40
0.687499999999999
40
0.703124999999999
40
0.703124999999999
40
0.718749999999999
40
0.718749999999999
40
0.734374999999999
40
0.734374999999999
40
0.749999999999999
40
0.749999999999999
40
0.765624999999999
40
0.765624999999999
40
0.781249999999999
40
0.781249999999999
40
0.796874999999999
40
0.796874999999999
40
0.812499999999999
40
0.812499999999999
40
0.828124999999999
40
0.828124999999999
40
0.843749999999999
40
0.843749999999999
40
0.859374999999999
40
0.859374999999999
40
0.874999999999999
40
0.874999999999999
40
0.890625
40
0.890625
40
0.90625
40
0.90625
40
0.921875
40
0.921875
40
0.9375
40
0.9375
40
0.953125
40
0.953125
40
0.96875
40
0.96875
40
0.984375
40
0.984375
40
1
40
1
40
1
40
1
41
1
10
87.0000004980467
20
9.7235
30
0
41
1
10
87.051880367469
20
9.7235
30
0
41
1
10
87.1037602368912
20
9.71082412193306
30
0
41
1
10
87.2075199757356
20
9.65751099385858
30
0
41
1
10
87.2593998451578
20
9.61686735097527
30
0
41
1
10
87.3631595840023
20
9.50547218204039
30
0
41
1
10
87.4150394534245
20
9.43471444834813
30
0
41
1
10
87.5187991922689
20
9.26161116941154
30
0
41
1
10
87.5706790616912
20
9.15926033854754
30
0
41
1
10
87.6744388005356
20
8.92233289437002
30
0
41
1
10
87.7263186699578
20
8.78775269113444
30
0
41
1
10
87.8300784088022
20
8.48670661546834
30
0
41
1
10
87.8819582782244
20
8.32023951697221
30
0
41
1
10
87.985718017069
20
7.95681251678121
30
0
41
1
10
88.0375978864911
20
7.75985416375454
30
0
41
1
10
88.1413576253355
20
7.33788671807926
30
0
41
1
10
88.1932374947578
20
7.11288198439289
30
0
41
1
10
88.2969972336023
20
6.63822415893131
30
0
41
1
10
88.3488771030244
20
6.38857785328977
30
0
41
1
10
88.4526368418689
20
5.86883051245499
30
0
41
1
10
88.504516711291
20
5.59873794146557
30
0
41
1
10
88.6082764501355
20
5.04285096644577
30
0
41
1
10
88.6601563195577
20
4.75706572889305
30
0
41
1
10
88.7639160584021
20
4.17483718294417
30
0
41
1
10
88.8157959278244
20
3.87840272798204
30
0
41
1
10
88.9195556666689
20
3.27993616610755
30
0
41
1
10
88.971435536091
20
2.97791172676042
30
0
41
1
10
89.0751952749354
20
2.37309125673741
30
0
41
1
10
89.1270751443577
20
2.07030110741945
30
0
41
1
10
89.2308348832022
20
1.46833563696706
30
0
41
1
10
89.2827147526243
20
1.16916413641309
30
0
41
1
10
89.3864744914687
20
0.578236446970891
30
0
41
1
10
89.438354360891
20
0.286482047741515
30
0
41
1
10
89.5421140997356
20
-0.286480672630972
30
0
41
1
10
89.5939939691577
20
-0.57823504052331
30
0
41
1
10
89.6977537080021
20
-1.16916270640777
30
0
41
1
10
89.7496335774243
20
-1.46833419796243
30
0
41
1
10
89.8533933162688
20
-2.07029965698976
30
0
41
1
10
89.905273185691
20
-2.37308980388525
30
0
41
1
10
90.0090329245354
20
-2.97791027647426
30
0
41
1
10
90.0609127939576
20
-3.27993472081306
30
0
41
1
10
90.1646725328021
20
-3.87840130063694
30
0
41
1
10
90.2165524022242
20
-4.17483576855923
30
0
41
1
10
90.3203121410687
20
-4.75706434858083
30
0
41
1
10
90.3721920104908
20
-5.04284960724726
30
0
41
1
10
90.4759517493353
20
-5.59873663240643
30
0
41
1
10
90.5278316187575
20
-5.86882923242121
30
0
41
1
10
90.6315913576021
20
-6.38857663853611
30
0
41
1
10
90.6834712270243
20
-6.63822298043047
30
0
41
1
10
90.7872309658686
20
-7.11288088453591
30
0
41
1
10
90.8391108352909
20
-7.33788566061
30
0
41
1
10
90.9428705741353
20
-7.75985319577981
30
0
41
1
10
90.9947504435576
20
-7.95681159590904
30
0
41
1
10
91.0985101824019
20
-8.32023869339451
30
0
41
1
10
91.1503900518242
20
-8.48670584207798
30
0
41
1
10
91.2541497906685
20
-8.78775201950336
30
0
41
1
10
91.3060296600908
20
-8.92233227430671
30
0
41
1
10
91.4097893989352
20
-9.15925982135883
30
0
41
1
10
91.4616692683574
20
-9.26161070352643
30
0
41
1
10
91.5654290072019
20
-9.43471408333724
30
0
41
1
10
91.6173088766242
20
-9.50547186659807
30
0
41
1
10
91.7210686154685
20
-9.61686713172054
30
0
41
1
10
91.7729484848908
20
-9.65751082122199
30
0
41
1
10
91.8767082237353
20
-9.71082403866637
30
0
41
1
10
91.9285880931575
20
-9.72349995948531
30
0
41
1
10
92.032347832002
20
-9.72350004051449
30
0
41
1
10
92.0842277014241
20
-9.71082420519949
30
0
41
1
10
92.1879874402686
20
-9.65751116649494
30
0
41
1
10
92.2398673096907
20
-9.61686757022977
30
0
41
1
10
92.3436270485352
20
-9.50547249748249
30
0
41
1
10
92.3955069179575
20
-9.43471481335877
30
0
41
1
10
92.4992666568019
20
-9.26161163529642
30
0
41
1
10
92.5511465262241
20
-9.15926085573597
30
0
41
1
10
92.6549062650686
20
-8.92233351443309
30
0
41
1
10
92.7067861344908
20
-8.78775336276527
30
0
41
1
10
92.8105458733352
20
-8.48670738885846
30
0
41
1
10
92.8624257427574
20
-8.32024034054967
30
0
41
1
10
92.9661854816019
20
-7.95681343765315
30
0
41
1
10
93.018065351024
20
-7.75985513172907
30
0
41
1
10
93.1218250898685
20
-7.33788777554832
30
0
41
1
10
93.1737049592907
20
-7.11288308424966
30
0
41
1
10
93.2774646981352
20
-6.63822533743198
30
0
41
1
10
93.3293445675574
20
-6.38857906804327
30
0
41
1
10
93.4331043064018
20
-5.86883179248863
30
0
41
1
10
93.484984175824
20
-5.59873925052457
30
0
41
1
10
93.5887439146684
20
-5.04285232564419
30
0
41
1
10
93.6406237840906
20
-4.75706710920522
30
0
41
1
10
93.744383522935
20
-4.174838597329
30
0
41
1
10
93.7962633923573
20
-3.87840415532707
30
0
41
1
10
93.9000231312017
20
-3.279937611402
30
0
41
1
10
93.9519030006239
20
-2.97791317704656
30
0
41
1
10
94.0556627394683
20
-2.3730927095896
30
0
41
1
10
94.1075426088906
20
-2.07030255784915
30
0
41
1
10
94.2113023477351
20
-1.46833707597167
30
0
41
1
10
94.2631822171573
20
-1.16916556641846
30
0
41
1
10
94.3669419560017
20
-0.578237853418528
30
0
41
1
10
94.4188218254239
20
-0.286483439633798
30
0
41
1
10
94.5225815642685
20
0.286479314302056
30
0
41
1
10
94.5744614336907
20
0.578233634075787
30
0
41
1
10
94.678221172535
20
1.16916127640249
30
0
41
1
10
94.7301010419573
20
1.4683327589579
30
0
41
1
10
94.8338607808017
20
2.07029820656007
30
0
41
1
10
94.8857406502239
20
2.37308835103309
30
0
41
1
10
94.9895003890683
20
2.9779088261881
30
0
41
1
10
95.0413802584906
20
3.27993327551852
30
0
41
1
10
95.145139997335
20
3.87839987329175
30
0
41
1
10
95.1970198667572
20
4.17483435417427
30
0
41
1
10
95.3007796056016
20
4.75706296826846
30
0
41
1
10
95.3526594750238
20
5.04284824804864
30
0
41
1
10
95.4564192138682
20
5.59873532334717
30
0
41
1
10
95.5082990832905
20
5.86882795238728
30
0
41
1
10
95.6120588221349
20
6.38857542378227
30
0
41
1
10
95.6639386915571
20
6.63822180192946
30
0
41
1
10
95.7676984304016
20
7.11287978467877
30
0
41
1
10
95.8195782998238
20
7.33788460314051
30
0
41
1
10
95.9233380386681
20
7.75985222780488
30
0
41
1
10
95.9752179080905
20
7.95681067503665
30
0
41
1
10
96.0789776469349
20
8.32023786981657
30
0
41
1
10
96.1308575163571
20
8.48670506868737
30
0
41
1
10
96.2346172552016
20
8.78775134787205
30
0
41
1
10
96.2864971246238
20
8.92233165424315
30
0
41
1
10
96.3902568634682
20
9.15925930416992
30
0
41
1
10
96.4421367328904
20
9.26161023764107
30
0
41
1
10
96.5458964717348
20
9.43471371832612
30
0
41
1
10
96.597776341157
20
9.50547155115552
30
0
41
1
10
96.7015360800015
20
9.61686691246558
30
0
41
1
10
96.7534159494236
20
9.6575106485852
30
0
41
1
10
96.857175688268
20
9.71082395539952
30
0
41
1
10
96.9090555576904
20
9.72349991897045
30
0
41
1
10
96.9609354271125
20
9.7234999999996
30
0
0
SPLINE
5
E5
100
AcDbEntity
8
1
62
256
6
ByLayer
370
13
48
1
60
0
100
AcDbSpline
70
4
71
3
72
123
73
119
40
0
40
0
40
0
40
0
40
0.0156250000000008
40
0.0156250000000008
40
0.0312500000000016
40
0.0312500000000016
40
0.0468750000000024
40
0.0468750000000024
40
0.0625000000000032
40
0.0625000000000032
40
0.078125000000004
40
0.078125000000004
40
0.0937500000000048
40
0.0937500000000048
40
0.109375000000006
40
0.109375000000006
40
0.125000000000006
40
0.125000000000006
40
0.140625000000007
40
0.140625000000007
40
0.156250000000008
40
0.156250000000008
40
0.18750000000001
40
0.18750000000001
40
0.20312500000001
40
0.20312500000001
40
0.210937500000011
40
0.210937500000011
40
0.218750000000011
40
0.218750000000011
40
0.250000000000012
40
0.250000000000012
40
0.281250000000012
40
0.281250000000012
40
0.296875000000012
40
0.296875000000012
40
0.312500000000013
40
0.312500000000013
40
0.328125000000013
40
0.328125000000013
40
0.343750000000013
40
0.343750000000013
40
0.359375000000014
40
0.359375000000014
40
0.375000000000014
40
0.375000000000014
40
0.390625000000014
40
0.390625000000014
40
0.406250000000015
40
0.406250000000015
40
0.437500000000016
40
0.437500000000016
40
0.468750000000016
40
0.468750000000016
40
0.472656250000016
40
0.472656250000016
40
0.476562500000016
40
0.476562500000016
40
0.484375000000017
40
0.484375000000017
40
0.500000000000017
40
0.500000000000017
40
0.531250000000016
40
0.531250000000016
40
0.546875000000016
40
0.546875000000016
40
0.562500000000016
40
0.562500000000016
40
0.578125000000015
40
0.578125000000015
40
0.593750000000015
40
0.593750000000015
40
0.609375000000015
40
0.609375000000015
40
0.625000000000014
40
0.625000000000014
40
0.640625000000014
40
0.640625000000014
40
0.656250000000014
40
0.656250000000014
40
0.671875000000014
40
0.671875000000014
40
0.687500000000013
40
0.687500000000013
40
0.718750000000013
40
0.718750000000013
40
0.734375000000013
40
0.734375000000013
40
0.738281250000013
40
0.738281250000013
40
0.742187500000012
40
0.750000000000012
40
0.750000000000012
40
0.78125000000001
40
0.78125000000001
40
0.79687500000001
40
0.79687500000001
40
0.812500000000009
40
0.812500000000009
40
0.828125000000008
40
0.828125000000008
40
0.843750000000007
40
0.843750000000007
40
0.859375000000007
40
0.859375000000007
40
0.875000000000006
40
0.875000000000006
40
0.890625000000005
40
0.890625000000005
40
0.906250000000004
40
0.906250000000004
40
0.921875000000004
40
0.921875000000004
40
0.937500000000003
40
0.937500000000003
40
0.968750000000002
40
0.968750000000002
40
1
40
1
40
1
40
1
41
1
10
87.0000000000001
20
9.30254859554765
30
0
41
1
10
87.049309892131
20
9.21516560484616
30
0
41
1
10
87.0986197842618
20
9.11343565836643
30
0
41
1
10
87.1972395685238
20
8.88085860929957
30
0
41
1
10
87.2465494606547
20
8.75000891670837
30
0
41
1
10
87.3451692449166
20
8.4595699401128
30
0
41
1
10
87.3944791370475
20
8.29997984960153
30
0
41
1
10
87.4930989213094
20
7.95329887782046
30
0
41
1
10
87.5424088134404
20
7.76620924601343
30
0
41
1
10
87.6410285977022
20
7.36662342923304
30
0
41
1
10
87.6903384898332
20
7.15413056870437
30
0
41
1
10
87.788958274095
20
6.70661916449757
30
0
41
1
10
87.8382681662259
20
6.47160575929888
30
0
41
1
10
87.9368879504878
20
5.98259253778321
30
0
41
1
10
87.9861978426188
20
5.7285991648464
30
0
41
1
10
88.0848176268807
20
5.20564775811368
30
0
41
1
10
88.1341275190115
20
4.93669680039079
30
0
41
1
10
88.2327473032735
20
4.38812893084219
30
0
41
1
10
88.2820571954044
20
4.10851900965255
30
0
41
1
10
88.3806769796663
20
3.54299508514271
30
0
41
1
10
88.4299868717973
20
3.25708734186725
30
0
41
1
10
88.5779165481901
20
2.39624380240963
30
0
41
1
10
88.6765363324519
20
1.81842258288592
30
0
41
1
10
88.8244660088448
20
0.967951746378134
30
0
41
1
10
88.8737759009757
20
0.687118214728031
30
0
41
1
10
88.9477407391722
20
0.272063533344948
30
0
41
1
10
88.9723956852376
20
0.134756421112286
30
0
41
1
10
89.0217055773685
20
-0.137549676755185
30
0
41
1
10
89.046360523434
20
-0.274888084102656
30
0
41
1
10
89.1696352537614
20
-0.966716071399901
30
0
41
1
10
89.2682550380232
20
-1.53694405931017
30
0
41
1
10
89.4654946065469
20
-2.68523153122322
30
0
41
1
10
89.5641143908089
20
-3.26317680465232
30
0
41
1
10
89.7120440672018
20
-4.11139789642289
30
0
41
1
10
89.7613539593326
20
-4.39097882552633
30
0
41
1
10
89.8599737435945
20
-4.93947378689057
30
0
41
1
10
89.9092836357255
20
-5.2083808270518
30
0
41
1
10
90.0079034199874
20
-5.73123005112268
30
0
41
1
10
90.0572133121183
20
-5.98516515988993
30
0
41
1
10
90.1558330963802
20
-6.47404881118703
30
0
41
1
10
90.2051429885111
20
-6.70899091371493
30
0
41
1
10
90.303762772773
20
-7.1563486407147
30
0
41
1
10
90.3530726649039
20
-7.36875913216494
30
0
41
1
10
90.4516924491659
20
-7.76817163891644
30
0
41
1
10
90.5010023412967
20
-7.95517033658081
30
0
41
1
10
90.5996221255585
20
-8.30166371105861
30
0
41
1
10
90.6489320176896
20
-8.46115714562998
30
0
41
1
10
90.7475518019514
20
-8.75140005285135
30
0
41
1
10
90.7968616940824
20
-8.88215033869866
30
0
41
1
10
90.9447913704753
20
-9.2307178877266
30
0
41
1
10
91.0434111547372
20
-9.4045048289691
30
0
41
1
10
91.240650723261
20
-9.64117755006259
30
0
41
1
10
91.3392705075228
20
-9.70421173929938
30
0
41
1
10
91.4502177648174
20
-9.72160242243541
30
0
41
1
10
91.4625452378501
20
-9.72279547424517
30
0
41
1
10
91.4872001839156
20
-9.72373958645892
30
0
41
1
10
91.4995276569483
20
-9.723496177106
30
0
41
1
10
91.5365100760465
20
-9.72059216935526
30
0
41
1
10
91.5611650221119
20
-9.71574637374925
30
0
41
1
10
91.6351298603084
20
-9.69205276074368
30
0
41
1
10
91.6844397524393
20
-9.66403558908806
30
0
41
1
10
91.8323694288321
20
-9.54030259314169
30
0
41
1
10
91.930989213094
20
-9.40457868257553
30
0
41
1
10
92.0789188894868
20
-9.11377813136102
30
0
41
1
10
92.1282287816178
20
-9.00238426209279
30
0
41
1
10
92.2268485658797
20
-8.75051140718455
30
0
41
1
10
92.2761584580106
20
-8.61003038077959
30
0
41
1
10
92.3747782422725
20
-8.30064373899737
30
0
41
1
10
92.4240881344033
20
-8.13173798122017
30
0
41
1
10
92.5227079186652
20
-7.76702857448043
30
0
41
1
10
92.5720178107962
20
-7.57122687595111
30
0
41
1
10
92.6706375950581
20
-7.15509185389024
30
0
41
1
10
92.719947487189
20
-6.93476249980475
30
0
41
1
10
92.8185672714509
20
-6.472688638959
30
0
41
1
10
92.8678771635819
20
-6.23094977083676
30
0
41
1
10
92.9664969478438
20
-5.72977781941381
30
0
41
1
10
93.0158068399747
20
-5.47035146905185
30
0
41
1
10
93.1144266242366
20
-4.93794196001573
30
0
41
1
10
93.1637365163675
20
-4.66496592738514
30
0
41
1
10
93.2623563006293
20
-4.10980024135492
30
0
41
1
10
93.3116661927604
20
-3.82761740083518
30
0
41
1
10
93.4102859770222
20
-3.25837527668233
30
0
41
1
10
93.4595958691532
20
-2.97132189419799
30
0
41
1
10
93.607525545546
20
-2.10905447997396
30
0
41
1
10
93.7061453298079
20
-1.53298320975515
30
0
41
1
10
93.8540750062007
20
-0.688285343337526
30
0
41
1
10
93.9033848983317
20
-0.409896319111738
30
0
41
1
10
93.9650222634953
20
-0.0676084195291082
30
0
41
1
10
93.977349736528
20
0.0003682404943106
30
0
41
1
10
94.0020046825935
20
0.136906458507497
30
0
41
1
10
94.0389871016917
20
0.342582838828662
30
0
41
1
10
94.07596952079
20
0.550693973345346
30
0
41
1
10
94.1992442511173
20
1.24895955430225
30
0
41
1
10
94.2978640353791
20
1.82248729623095
30
0
41
1
10
94.445793711772
20
2.68486482381624
30
0
41
1
10
94.4951036039029
20
2.97260601811084
30
0
41
1
10
94.5937233881647
20
3.54462835748774
30
0
41
1
10
94.6430332802958
20
3.82890400606721
30
0
41
1
10
94.7416530645577
20
4.38970632981571
30
0
41
1
10
94.7909629566885
20
4.66622643657149
30
0
41
1
10
94.8895827409505
20
5.20715460418336
30
0
41
1
10
94.9388926330814
20
5.47155556791526
30
0
41
1
10
95.0375124173432
20
5.98401551062773
30
0
41
1
10
95.0868223094742
20
6.23206754551643
30
0
41
1
10
95.185442093736
20
6.70794619806787
30
0
41
1
10
95.234751985867
20
6.93576674121132
30
0
41
1
10
95.3333717701288
20
7.36784353841054
30
0
41
1
10
95.3826816622598
20
7.57209521705119
30
0
41
1
10
95.4813014465217
20
7.95440204054356
30
0
41
1
10
95.5306113386526
20
8.13245454206688
30
0
41
1
10
95.6292311229145
20
8.46054713512115
30
0
41
1
10
95.6785410150454
20
8.61058668297466
30
0
41
1
10
95.7771607993074
20
8.88170205043679
30
0
41
1
10
95.8264706914383
20
9.00277931630271
30
0
41
1
10
95.9744003678312
20
9.32241405225008
30
0
41
1
10
96.073020152093
20
9.47704944646981
30
0
41
1
10
96.2702597206169
20
9.67751589161347
30
0
41
1
10
96.3688795048787
20
9.7235
30
0
41
1
10
96.4674992891405
20
9.7235
30
0
0
SPLINE
5
E6
100
AcDbEntity
8
1
62
256
6
ByLayer
370
13
48
1
60
0
100
AcDbSpline
70
4
71
3
72
82
73
78
40
0
40
0
40
0
40
0
40
0.0312500000000013
40
0.0312500000000013
40
0.0625000000000025
40
0.0625000000000025
40
0.0937500000000038
40
0.0937500000000038
40
0.125000000000005
40
0.125000000000005
40
0.156250000000006
40
0.156250000000006
40
0.164062500000007
40
0.164062500000007
40
0.171875000000007
40
0.171875000000007
40
0.187500000000007
40
0.187500000000007
40
0.218750000000007
40
0.218750000000007
40
0.250000000000007
40
0.250000000000007
40
0.281250000000007
40
0.281250000000007
40
0.312500000000007
40
0.312500000000007
40
0.343750000000007
40
0.343750000000007
40
0.375000000000008
40
0.375000000000008
40
0.406250000000008
40
0.406250000000008
40
0.437500000000008
40
0.437500000000008
40
0.445312500000008
40
0.445312500000008
40
0.453125000000008
40
0.453125000000008
40
0.468750000000007
40
0.468750000000007
40
0.500000000000006
40
0.500000000000006
40
0.531250000000005
40
0.531250000000005
40
0.562500000000004
40
0.562500000000004
40
0.593750000000003
40
0.593750000000003
40
0.625000000000002
40
0.625000000000002
40
0.656250000000001
40
0.656250000000001
40
0.6875
40
0.6875
40
0.71875
40
0.71875
40
0.726562499999999
40
0.726562499999999
40
0.734374999999999
40
0.734374999999999
40
0.749999999999999
40
0.749999999999999
40
0.781249999999999
40
0.781249999999999
40
0.8125
40
0.8125
40
0.84375
40
0.84375
40
0.875
40
0.875
40
0.90625
40
0.90625
40
0.9375
40
0.9375
40
0.96875
40
0.96875
40
1
40
1
40
1
40
1
41
1
10
87
20
7.94751035484788
30
0
41
1
10
87.0934798193033
20
7.60163519242718
30
0
41
1
10
87.1869596386067
20
7.20715020544992
30
0
41
1
10
87.3739192772134
20
6.33939847049569
30
0
41
1
10
87.4673990965168
20
5.86626454026413
30
0
41
1
10
87.6543587351235
20
4.86780222007056
30
0
41
1
10
87.7478385544268
20
4.34264561893519
30
0
41
1
10
87.9347981930335
20
3.27000329155294
30
0
41
1
10
88.0282780123369
20
2.72266883992489
30
0
41
1
10
88.2152376509436
20
1.63374321451906
30
0
41
1
10
88.3087174702469
20
1.09224234252895
30
0
41
1
10
88.4255672443761
20
0.43303610505339
30
0
41
1
10
88.448937199202
20
0.302061917234738
30
0
41
1
10
88.4956771088536
20
0.0421288086809568
30
0
41
1
10
88.5190470636794
20
-0.0864412412427669
30
0
41
1
10
88.589156928157
20
-0.477024894194614
30
0
41
1
10
88.6358968378087
20
-0.741397292704534
30
0
41
1
10
88.7761165667637
20
-1.54288276547891
30
0
41
1
10
88.869596386067
20
-2.08855139114868
30
0
41
1
10
89.0565560246737
20
-3.17846399651609
30
0
41
1
10
89.150035843977
20
-3.72259854065817
30
0
41
1
10
89.3369954825838
20
-4.78052088237425
30
0
41
1
10
89.4304753018871
20
-5.29414633465478
30
0
41
1
10
89.6174349404938
20
-6.26157612018966
30
0
41
1
10
89.7109147597972
20
-6.71521345665798
30
0
41
1
10
89.8978743984039
20
-7.53779224603406
30
0
41
1
10
89.9913542177072
20
-7.90662134373403
30
0
41
1
10
90.1783138563139
20
-8.54372165763232
30
0
41
1
10
90.2717936756172
20
-8.81197199087575
30
0
41
1
10
90.458753314224
20
-9.24317020790221
30
0
41
1
10
90.5522331335273
20
-9.40618346024257
30
0
41
1
10
90.7391927721339
20
-9.6325528021915
30
0
41
1
10
90.8326725914373
20
-9.69602245148343
30
0
41
1
10
90.9495223655665
20
-9.72131465306654
30
0
41
1
10
90.9728923203924
20
-9.72368450365701
30
0
41
1
10
91.0196322300441
20
-9.72329317090555
30
0
41
1
10
91.0430021848699
20
-9.72052302694061
30
0
41
1
10
91.1131120493475
20
-9.70411826297703
30
0
41
1
10
91.1598519589992
20
-9.68237949709589
30
0
41
1
10
91.3000716879541
20
-9.58208565865206
30
0
41
1
10
91.3935515072575
20
-9.46820559808859
30
0
41
1
10
91.5805111458642
20
-9.13689071040838
30
0
41
1
10
91.6739909651676
20
-8.91936153074576
30
0
41
1
10
91.8609506037743
20
-8.38010482414407
30
0
41
1
10
91.9544304230775
20
-8.05835349355314
30
0
41
1
10
92.1413900616843
20
-7.3210633722324
30
0
41
1
10
92.2348698809876
20
-6.9055950764461
30
0
41
1
10
92.4218295195943
20
-6.00169328112364
30
0
41
1
10
92.5153093388977
20
-5.51340727024748
30
0
41
1
10
92.7022689775043
20
-4.49172428241019
30
0
41
1
10
92.7957487968077
20
-3.95849933983953
30
0
41
1
10
92.9827084354145
20
-2.87680797088032
30
0
41
1
10
93.0761882547177
20
-2.32848063871017
30
0
41
1
10
93.2631478933245
20
-1.24359260347288
30
0
41
1
10
93.3566277126279
20
-0.707105257491008
30
0
41
1
10
93.4734774867571
20
-0.0568905495483705
30
0
41
1
10
93.4968474415829
20
0.0716613746647852
30
0
41
1
10
93.5435873512346
20
0.331899256695692
30
0
41
1
10
93.5669573060605
20
0.463015634686116
30
0
41
1
10
93.637067170538
20
0.858932114373687
30
0
41
1
10
93.6838070801896
20
1.12631312064795
30
0
41
1
10
93.8240268091446
20
1.93486514240337
30
0
41
1
10
93.9175066284479
20
2.48261212461273
30
0
41
1
10
94.1044662670547
20
3.57002883004452
30
0
41
1
10
94.1979460863581
20
4.10957357205476
30
0
41
1
10
94.3849057249647
20
5.15108887119186
30
0
41
1
10
94.478385544268
20
5.65289062277935
30
0
41
1
10
94.6653451828747
20
6.59007800428475
30
0
41
1
10
94.7588250021781
20
7.02530466267538
30
0
41
1
10
94.9457846407847
20
7.80629804278217
30
0
41
1
10
95.0392644600881
20
8.15197251260517
30
0
41
1
10
95.2262240986949
20
8.74058922912238
30
0
41
1
10
95.3197039179982
20
8.98353341000947
30
0
41
1
10
95.506663556605
20
9.3646096560376
30
0
41
1
10
95.6001433759083
20
9.50282286981056
30
0
41
1
10
95.7871030145151
20
9.68220894860053
30
0
41
1
10
95.8805828338184
20
9.7235
30
0
41
1
10
95.9740626531217
20
9.7235
30
0
0
SPLINE
5
E7
100
AcDbEntity
8
1
62
256
6
ByLayer
370
13
48
1
60
0
100
AcDbSpline
70
4
71
3
72
10
73
6
40
0
40
0
40
0
40
0
40
0.5
40
0.5
40
1
40
1
40
1
40
1
41
1
10
96.3752965824045
20
9.7235
30
0
41
1
10
96.4729030565225
20
9.7235
30
0
41
1
10
96.5705095306407
20
9.67846146975899
30
0
41
1
10
96.7657224788766
20
9.48224902055489
30
0
41
1
10
96.8633289529945
20
9.33092947095986
30
0
41
1
10
96.9609354271125
20
9.12238764934028
30
0
0
SPLINE
5
E8
100
AcDbEntity
8
1
62
256
6
ByLayer
370
13
48
1
60
0
100
AcDbSpline
70
4
71
3
72
87
73
83
40
0
40
0
40
0
40
0
40
0.03125
40
0.03125
40
0.0624999999999999
40
0.0624999999999999
40
0.0937499999999999
40
0.0937499999999999
40
0.109375
40
0.109375
40
0.1171875
40
0.1171875
40
0.12109375
40
0.12109375
40
0.125
40
0.125
40
0.156250000000001
40
0.156250000000001
40
0.187500000000001
40
0.187500000000001
40
0.218750000000002
40
0.218750000000002
40
0.250000000000002
40
0.250000000000002
40
0.281250000000003
40
0.281250000000003
40
0.312500000000003
40
0.312500000000003
40
0.343750000000004
40
0.343750000000004
40
0.375000000000004
40
0.375000000000004
40
0.406250000000005
40
0.406250000000005
40
0.410156250000005
40
0.410156250000005
40
0.414062500000005
40
0.414062500000005
40
0.421875000000005
40
0.421875000000005
40
0.437500000000006
40
0.437500000000006
40
0.468750000000007
40
0.468750000000007
40
0.500000000000008
40
0.500000000000008
40
0.531250000000009
40
0.531250000000009
40
0.562500000000009
40
0.562500000000009
40
0.59375000000001
40
0.59375000000001
40
0.625000000000011
40
0.625000000000011
40
0.656250000000012
40
0.656250000000012
40
0.687500000000013
40
0.687500000000013
40
0.703125000000014
40
0.703125000000014
40
0.707031250000014
40
0.707031250000014
40
0.710937500000014
40
0.718750000000013
40
0.718750000000013
40
0.750000000000012
40
0.750000000000012
40
0.78125000000001
40
0.78125000000001
40
0.812500000000009
40
0.812500000000009
40
0.843750000000007
40
0.843750000000007
40
0.875000000000006
40
0.875000000000006
40
0.906250000000004
40
0.906250000000004
40
0.937500000000003
40
0.937500000000003
40
0.968750000000001
40
0.968750000000001
40
1
40
1
40
1
40
1
41
1
10
87
20
5.72252235984115
30
0
41
1
10
87.0883398543449
20
5.2632802453825
30
0
41
1
10
87.1766797086896
20
4.77780979693893
30
0
41
1
10
87.3533594173792
20
3.77904294336443
30
0
41
1
10
87.4416992717241
20
3.26586950917192
30
0
41
1
10
87.6183789804138
20
2.23627729687567
30
0
41
1
10
87.7067188347586
20
1.71994466556382
30
0
41
1
10
87.8392286162759
20
0.958782722199118
30
0
41
1
10
87.8833985434482
20
0.707249131530659
30
0
41
1
10
87.9496534342068
20
0.334820092993198
30
0
41
1
10
87.971738397793
20
0.2114862229555
30
0
41
1
10
88.0048658431724
20
0.0278727484554508
30
0
41
1
10
88.0159083249655
20
-0.032988859529155
30
0
41
1
10
88.0379932885517
20
-0.155423627354679
30
0
41
1
10
88.0490357703447
20
-0.21687167075595
30
0
41
1
10
88.1484181064827
20
-0.771852805839984
30
0
41
1
10
88.2367579608276
20
-1.27925658668582
30
0
41
1
10
88.4134376695171
20
-2.30456944881325
30
0
41
1
10
88.501777523862
20
-2.82242305479218
30
0
41
1
10
88.6784572325515
20
-3.84605488112842
30
0
41
1
10
88.7667970868964
20
-4.35173030822455
30
0
41
1
10
88.9434767955861
20
-5.32592282110042
30
0
41
1
10
89.0318166499309
20
-5.79431078230144
30
0
41
1
10
89.2084963586207
20
-6.66992493804509
30
0
41
1
10
89.2968362129654
20
-7.07703365918451
30
0
41
1
10
89.473515921655
20
-7.81102124595697
30
0
41
1
10
89.5618557759999
20
-8.13783207435526
30
0
41
1
10
89.7385354846896
20
-8.70000888633137
30
0
41
1
10
89.8268753390344
20
-8.93537421332005
30
0
41
1
10
90.003555047724
20
-9.312372115432
30
0
41
1
10
90.0918949020687
20
-9.4540619907398
30
0
41
1
10
90.2685746107584
20
-9.6494381667363
30
0
41
1
10
90.3569144651032
20
-9.70321191809069
30
0
41
1
10
90.4562968012411
20
-9.72065054919506
30
0
41
1
10
90.4673392830343
20
-9.72199277419134
30
0
41
1
10
90.4894242466204
20
-9.72351250211483
30
0
41
1
10
90.5004667284136
20
-9.72369207739666
30
0
41
1
10
90.5335941737929
20
-9.72250815732212
30
0
41
1
10
90.5556791373791
20
-9.71940577870376
30
0
41
1
10
90.6219340281376
20
-9.70284800432981
30
0
41
1
10
90.6661039553101
20
-9.68213413789823
30
0
41
1
10
90.7986137368273
20
-9.58871477349194
30
0
41
1
10
90.8869535911721
20
-9.48453790176114
30
0
41
1
10
91.0636332998617
20
-9.18410930098466
30
0
41
1
10
91.1519731542066
20
-8.9877839260364
30
0
41
1
10
91.3286528628963
20
-8.50171992953142
30
0
41
1
10
91.4169927172411
20
-8.21195540616804
30
0
41
1
10
91.5936724259308
20
-7.54640655315612
30
0
41
1
10
91.6820122802756
20
-7.17066292798583
30
0
41
1
10
91.8586919889652
20
-6.34911184294828
30
0
41
1
10
91.94703184331
20
-5.90340519348871
30
0
41
1
10
92.1237115519996
20
-4.964270753091
30
0
41
1
10
92.2120514063445
20
-4.4709723474588
30
0
41
1
10
92.3887311150341
20
-3.46179064194863
30
0
41
1
10
92.4770709693789
20
-2.94602482255905
30
0
41
1
10
92.6537506780685
20
-1.91598058179505
30
0
41
1
10
92.7420905324134
20
-1.40177835453886
30
0
41
1
10
92.8746003139306
20
-0.646596009486814
30
0
41
1
10
92.9187702411031
20
-0.397516650140204
30
0
41
1
10
92.9739826500686
20
-0.0907108616350456
30
0
41
1
10
92.9850251318616
20
-0.029696964837143
30
0
41
1
10
93.0071100954478
20
0.0924185328025828
30
0
41
1
10
93.0402375408271
20
0.276297439197663
30
0
41
1
10
93.0733649862065
20
0.462170808633203
30
0
41
1
10
93.1837898041375
20
1.08558307279907
30
0
41
1
10
93.2721296584823
20
1.59679310334587
30
0
41
1
10
93.4488093671719
20
2.62538538671151
30
0
41
1
10
93.5371492215168
20
3.14270173380419
30
0
41
1
10
93.7138289302064
20
4.1601631115991
30
0
41
1
10
93.8021687845513
20
4.66019744937009
30
0
41
1
10
93.9788484932409
20
5.61791520235482
30
0
41
1
10
94.0671883475857
20
6.0754684758694
30
0
41
1
10
94.2438680562753
20
6.92493955799114
30
0
41
1
10
94.3322079106202
20
7.31674743721229
30
0
41
1
10
94.5088876193098
20
8.01709861602782
30
0
41
1
10
94.5972274736546
20
8.32558727356556
30
0
41
1
10
94.7739071823443
20
8.84991541700859
30
0
41
1
10
94.8622470366891
20
9.06576785763212
30
0
41
1
10
95.0389267453787
20
9.40432952722762
30
0
41
1
10
95.1272665997236
20
9.52710489436694
30
0
41
1
10
95.3039463084132
20
9.68664524757213
30
0
41
1
10
95.3922861627581
20
9.7235
30
0
41
1
10
95.4806260171029
20
9.7235
30
0
0
SPLINE
5
E9
100
AcDbEntity
8
1
62
256
6
ByLayer
370
13
48
1
60
0
100
AcDbSpline
70
4
71
3
72
14
73
10
40
0
40
0
40
0
40
0
40
0.25
40
0.25
40
0.5
40
0.5
40
0.75
40
0.75
40
1
40
1
40
1
40
1
41
1
10
95.8818599463857
20
9.7235
30
0
41
1
10
95.971782903113
20
9.7235
30
0
41
1
10
96.0617058598402
20
9.68530617012181
30
0
41
1
10
96.2415517732946
20
9.51978437332895
30
0
41
1
10
96.3314747300219
20
9.39235852223624
30
0
41
1
10
96.5113206434763
20
9.04097905670852
30
0
41
1
10
96.6012436002037
20
8.81695478866888
30
0
41
1
10
96.7810895136582
20
8.27318527397122
30
0
41
1
10
96.8710124703853
20
7.95342969629633
30
0
41
1
10
96.9609354271125
20
7.59098431023685
30
0
0
SPLINE
5
EA
100
AcDbEntity
8
1
62
256
6
ByLayer
370
13
48
1
60
0
100
AcDbSpline
70
4
71
3
72
85
73
81
40
0
40
0
40
0
40
0
40
0.0312499999999984
40
0.0312499999999984
40
0.0624999999999968
40
0.0624999999999968
40
0.0664062499999964
40
0.0664062499999964
40
0.0703124999999961
40
0.0781249999999958
40
0.0781249999999958
40
0.0937499999999948
40
0.0937499999999948
40
0.124999999999993
40
0.124999999999993
40
0.15624999999999
40
0.15624999999999
40
0.187499999999988
40
0.187499999999988
40
0.218749999999986
40
0.218749999999986
40
0.249999999999983
40
0.249999999999983
40
0.281249999999981
40
0.281249999999981
40
0.312499999999979
40
0.312499999999979
40
0.343749999999977
40
0.343749999999977
40
0.374999999999974
40
0.374999999999974
40
0.378906249999974
40
0.378906249999974
40
0.382812499999974
40
0.390624999999974
40
0.390624999999974
40
0.406249999999975
40
0.406249999999975
40
0.437499999999976
40
0.437499999999976
40
0.468749999999978
40
0.468749999999978
40
0.49999999999998
40
0.49999999999998
40
0.531249999999981
40
0.531249999999981
40
0.562499999999983
40
0.562499999999983
40
0.593749999999984
40
0.593749999999984
40
0.624999999999986
40
0.624999999999986
40
0.656249999999988
40
0.656249999999988
40
0.687499999999989
40
0.687499999999989
40
0.691406249999989
40
0.691406249999989
40
0.695312499999989
40
0.70312499999999
40
0.70312499999999
40
0.718749999999991
40
0.718749999999991
40
0.749999999999992
40
0.749999999999992
40
0.781249999999993
40
0.781249999999993
40
0.812499999999994
40
0.812499999999994
40
0.843749999999995
40
0.843749999999995
40
0.874999999999996
40
0.874999999999996
40
0.906249999999997
40
0.906249999999997
40
0.937499999999998
40
0.937499999999998
40
0.968749999999999
40
0.968749999999999
40
1
40
1
40
1
40
1
41
1
10
87.0000000000001
20
2.96424358344893
30
0
41
1
10
87.0831998893863
20
2.48005639360321
30
0
41
1
10
87.1663997787726
20
1.99305408515286
30
0
41
1
10
87.3327995575452
20
1.03147422499299
30
0
41
1
10
87.4159994469315
20
0.556930986125906
30
0
41
1
10
87.5095993224911
20
0.0380004500782434
30
0
41
1
10
87.5199993086644
20
-0.0193295456531359
30
0
41
1
10
87.5407992810109
20
-0.134558657206412
30
0
41
1
10
87.5719992395308
20
-0.308019264115387
30
0
41
1
10
87.6031991980507
20
-0.483227039426737
30
0
41
1
10
87.6655991150903
20
-0.835670628193014
30
0
41
1
10
87.7071990597835
20
-1.07334561746123
30
0
41
1
10
87.8319988938629
20
-1.79177980338278
30
0
41
1
10
87.9151987832493
20
-2.27805905229045
30
0
41
1
10
88.0815985620218
20
-3.24769462072004
30
0
41
1
10
88.164798451408
20
-3.73098678768977
30
0
41
1
10
88.3311982301806
20
-4.67422069114906
30
0
41
1
10
88.414398119567
20
-5.13407206770739
30
0
41
1
10
88.5807978983395
20
-6.00956193075601
30
0
41
1
10
88.6639977877259
20
-6.42510510676684
30
0
41
1
10
88.8303975664985
20
-7.19355906948766
30
0
41
1
10
88.9135974558848
20
-7.54639646361468
30
0
41
1
10
89.0799972346573
20
-8.17609665920995
30
0
41
1
10
89.1631971240437
20
-8.45292836525059
30
0
41
1
10
89.3295969028162
20
-8.92398641937837
30
0
41
1
10
89.4127967922025
20
-9.11822857804455
30
0
41
1
10
89.5791965709751
20
-9.42441836510781
30
0
41
1
10
89.6623964603614
20
-9.53641720089578
30
0
41
1
10
89.828796239134
20
-9.68431053721426
30
0
41
1
10
89.9119961285203
20
-9.72027175848075
30
0
41
1
10
90.0055960040798
20
-9.72366856728544
30
0
41
1
10
90.0159959902531
20
-9.72353636069832
30
0
41
1
10
90.0367959625997
20
-9.72224417253119
30
0
41
1
10
90.0679959211195
20
-9.71875859674583
30
0
41
1
10
90.0991958796394
20
-9.71053175226547
30
0
41
1
10
90.1615957966791
20
-9.68750462969274
30
0
41
1
10
90.2031957413723
20
-9.66338197455153
30
0
41
1
10
90.3279955754517
20
-9.56289488550217
30
0
41
1
10
90.411195464838
20
-9.45825449863904
30
0
41
1
10
90.5775952436105
20
-9.16713590140066
30
0
41
1
10
90.6607951329968
20
-8.98060417203922
30
0
41
1
10
90.8271949117693
20
-8.52472057762537
30
0
41
1
10
90.9103948011557
20
-8.25534894995226
30
0
41
1
10
91.0767945799283
20
-7.63966991697114
30
0
41
1
10
91.1599944693146
20
-7.29338919388479
30
0
41
1
10
91.3263942480871
20
-6.53657590940102
30
0
41
1
10
91.4095941374734
20
-6.12611349349632
30
0
41
1
10
91.575993916246
20
-5.25893894124252
30
0
41
1
10
91.6591938056323
20
-4.80232121062713
30
0
41
1
10
91.8255935844049
20
-3.86360091733607
30
0
41
1
10
91.9087934737912
20
-3.38159022443588
30
0
41
1
10
92.0751932525638
20
-2.41271258103038
30
0
41
1
10
92.1583931419501
20
-1.92591277080749
30
0
41
1
10
92.3247929207226
20
-0.965487413434261
30
0
41
1
10
92.407992810109
20
-0.49189457085248
30
0
41
1
10
92.5015926856685
20
0.0256624379007633
30
0
41
1
10
92.5119926718418
20
0.083113360335517
30
0
41
1
10
92.5327926441885
20
0.198643268643224
30
0
41
1
10
92.5639926027081
20
0.372542264440341
30
0
41
1
10
92.5951925612283
20
0.548148140873963
30
0
41
1
10
92.6575924782679
20
0.901329288132928
30
0
41
1
10
92.699192422961
20
1.13941772890368
30
0
41
1
10
92.8239922570405
20
1.85881963988061
30
0
41
1
10
92.9071921464267
20
2.34537830992048
30
0
41
1
10
93.0735919251993
20
3.31467617501036
30
0
41
1
10
93.1567918145855
20
3.79734971403511
30
0
41
1
10
93.3231915933582
20
4.73837140621867
30
0
41
1
10
93.4063914827445
20
5.19662842064434
30
0
41
1
10
93.572791261517
20
6.06800277814111
30
0
41
1
10
93.6559911509033
20
6.48102523329857
30
0
41
1
10
93.822390929676
20
7.2436925570897
30
0
41
1
10
93.9055908190622
20
7.5932656346985
30
0
41
1
10
94.0719905978348
20
8.21597595447014
30
0
41
1
10
94.1551904872211
20
8.48908430379069
30
0
41
1
10
94.3215902659937
20
8.95256099927121
30
0
41
1
10
94.4047901553799
20
9.14294714573686
30
0
41
1
10
94.5711899341525
20
9.44159348401266
30
0
41
1
10
94.6543898235389
20
9.54990606127876
30
0
41
1
10
94.8207896023114
20
9.69082584628569
30
0
41
1
10
94.9039894916978
20
9.7235
30
0
41
1
10
94.987189381084
20
9.7235
30
0
0
SPLINE
5
EB
100
AcDbEntity
8
1
62
256
6
ByLayer
370
13
48
1
60
0
100
AcDbSpline
70
4
71
3
72
22
73
18
40
0
40
0
40
0
40
0
40
0.125
40
0.125
40
0.25
40
0.25
40
0.375
40
0.375
40
0.5
40
0.5
40
0.625
40
0.625
40
0.75
40
0.75
40
0.875
40
0.875
40
1
40
1
40
1
40
1
41
1
10
95.3884233103669
20
9.7235
30
0
41
1
10
95.4539446485646
20
9.7235
30
0
41
1
10
95.5194659867624
20
9.70326523663002
30
0
41
1
10
95.6505086631579
20
9.61717903527713
30
0
41
1
10
95.7160300013556
20
9.55130706336885
30
0
41
1
10
95.847072677751
20
9.37009716224136
30
0
41
1
10
95.9125940159488
20
9.25474060442028
30
0
41
1
10
96.0436366923443
20
8.97264962598126
30
0
41
1
10
96.1091580305419
20
8.80590238758921
30
0
41
1
10
96.2402007069375
20
8.4215426392112
30
0
41
1
10
96.3057220451352
20
8.20392666477861
30
0
41
1
10
96.4367647215306
20
7.72102358906847
30
0
41
1
10
96.5022860597284
20
7.45574434814333
30
0
41
1
10
96.6333287361239
20
6.88333007148728
30
0
41
1
10
96.6988500743216
20
6.57621372345182
30
0
41
1
10
96.8298927507171
20
5.92815895801706
30
0
41
1
10
96.8954140889148
20
5.58724698722278
30
0
41
1
10
96.9609354271125
20
5.23420444498436
30
0
0
SPLINE
5
EC
100
AcDbEntity
8
1
62
256
6
ByLayer
370
13
48
1
60
0
100
AcDbSpline
70
4
71
3
72
82
73
78
40
0
40
0
40
0
40
0
40
0.0078124999999999
40
0.0078124999999999
40
0.0156249999999998
40
0.0156249999999998
40
0.0312499999999997
40
0.0312499999999997
40
0.0624999999999998
40
0.0624999999999998
40
0.0937499999999998
40
0.0937499999999998
40
0.125
40
0.125
40
0.15625
40
0.15625
40
0.1875
40
0.1875
40
0.21875
40
0.21875
40
0.25
40
0.25
40
0.28125
40
0.28125
40
0.3125
40
0.3125
40
0.328125
40
0.328125
40
0.3359375
40
0.3359375
40
0.34375
40
0.34375
40
0.375
40
0.375
40
0.40625
40
0.40625
40
0.4375
40
0.4375
40
0.46875
40
0.46875
40
0.5
40
0.5
40
0.53125
40
0.53125
40
0.5625
40
0.5625
40
0.59375
40
0.59375
40
0.625
40
0.625
40
0.65625
40
0.65625
40
0.6640625
40
0.6640625
40
0.671875
40
0.671875
40
0.6875
40
0.6875
40
0.71875
40
0.71875
40
0.75
40
0.75
40
0.78125
40
0.78125
40
0.8125
40
0.8125
40
0.84375
40
0.84375
40
0.875
40
0.875
40
0.90625
40
0.90625
40
0.9375
40
0.9375
40
0.96875
40
0.96875
40
1
40
1
40
1
40
1
41
1
10
87.0000000000001
20
0.127629450266198
30
0
41
1
10
87.019514981107
20
0.0192947425497607
30
0
41
1
10
87.0390299622139
20
-0.0881645588609672
30
0
41
1
10
87.0780599244279
20
-0.305432583901251
30
0
41
1
10
87.0975749055347
20
-0.414763057594627
30
0
41
1
10
87.1561198488556
20
-0.74459877585727
30
0
41
1
10
87.1951498110694
20
-0.966955006595327
30
0
41
1
10
87.312239697711
20
-1.639214820577
30
0
41
1
10
87.3902996221388
20
-2.09439952096793
30
0
41
1
10
87.5464194709944
20
-3.00463123191915
30
0
41
1
10
87.6244793954222
20
-3.45963513050072
30
0
41
1
10
87.7805992442776
20
-4.35292676881451
30
0
41
1
10
87.8586591687054
20
-4.79115170303467
30
0
41
1
10
88.0147790175608
20
-5.63354076457756
30
0
41
1
10
88.0928389419887
20
-6.0376345576033
30
0
41
1
10
88.2489587908441
20
-6.79570203989937
30
0
41
1
10
88.3270187152719
20
-7.14961492039853
30
0
41
1
10
88.4831385641274
20
-7.79458184140969
30
0
41
1
10
88.5611984885552
20
-8.08559999827841
30
0
41
1
10
88.7173183374108
20
-8.59686422636798
30
0
41
1
10
88.7953782618386
20
-8.81710669247798
30
0
41
1
10
88.951498110694
20
-9.18434281739039
30
0
41
1
10
89.0295580351218
20
-9.33136205855774
30
0
41
1
10
89.1856778839773
20
-9.55476051553177
30
0
41
1
10
89.2637378084052
20
-9.63118364518829
30
0
41
1
10
89.3808276950468
20
-9.69779199178967
30
0
41
1
10
89.4198576572606
20
-9.71201714920232
30
0
41
1
10
89.4784026005814
20
-9.7221935166591
30
0
41
1
10
89.4979175816884
20
-9.72372719480862
30
0
41
1
10
89.5369475439023
20
-9.72321880753589
30
0
41
1
10
89.5564625250092
20
-9.72116768053701
30
0
41
1
10
89.6540374305439
20
-9.70156618390325
30
0
41
1
10
89.7320973549718
20
-9.65588089417113
30
0
41
1
10
89.8882172038271
20
-9.49662171504349
30
0
41
1
10
89.9662771282549
20
-9.38299993612335
30
0
41
1
10
90.1223969771105
20
-9.0832114859524
30
0
41
1
10
90.2004569015383
20
-8.89700909105341
30
0
41
1
10
90.3565767503937
20
-8.45202754215504
30
0
41
1
10
90.4346366748216
20
-8.19323746581927
30
0
41
1
10
90.5907565236772
20
-7.6084193510755
30
0
41
1
10
90.6688164481048
20
-7.28241247429457
30
0
41
1
10
90.8249362969605
20
-6.57373681849063
30
0
41
1
10
90.9029962213881
20
-6.19111881297204
30
0
41
1
10
91.0591160702437
20
-5.38393505484151
30
0
41
1
10
91.1371759946715
20
-4.95943740419585
30
0
41
1
10
91.2932958435269
20
-4.08550802411332
30
0
41
1
10
91.3713557679547
20
-3.63614453205452
30
0
41
1
10
91.5274756168101
20
-2.72968360032161
30
0
41
1
10
91.6055355412379
20
-2.27263944235392
30
0
41
1
10
91.7616553900935
20
-1.36632747313826
30
0
41
1
10
91.8397153145212
20
-0.917090029989453
30
0
41
1
10
91.937290220056
20
-0.368242574862194
30
0
41
1
10
91.9568052011629
20
-0.259099845425084
30
0
41
1
10
91.9958351633767
20
-0.0422293394362612
30
0
41
1
10
92.0153501444838
20
0.0651859983301222
30
0
41
1
10
92.0738950878045
20
0.390791067060292
30
0
41
1
10
92.1129250500185
20
0.610675936906773
30
0
41
1
10
92.2300149366601
20
1.27674349831304
30
0
41
1
10
92.3080748610878
20
1.72943672027134
30
0
41
1
10
92.4641947099433
20
2.63877163271121
30
0
41
1
10
92.5422546343711
20
3.09537651904623
30
0
41
1
10
92.6983744832266
20
3.99646106936831
30
0
41
1
10
92.7764344076544
20
4.4408823211283
30
0
41
1
10
92.9325542565099
20
5.30027033131685
30
0
41
1
10
93.0106141809378
20
5.71516720253314
30
0
41
1
10
93.1667340297932
20
6.49889337681998
30
0
41
1
10
93.244793954221
20
6.867657610555
30
0
41
1
10
93.4009138030765
20
7.54531284846755
30
0
41
1
10
93.4789737275044
20
7.85416015605352
30
0
41
1
10
93.6350935763599
20
8.40267564143642
30
0
41
1
10
93.7131535007876
20
8.64233145359748
30
0
41
1
10
93.8692733496432
20
9.04852833779483
30
0
41
1
10
93.9473332740709
20
9.2150880095472
30
0
41
1
10
94.1034531229264
20
9.47642236646197
30
0
41
1
10
94.1815130473541
20
9.57123735509919
30
0
41
1
10
94.3376328962097
20
9.6947517122932
30
0
41
1
10
94.4156928206374
20
9.7235
30
0
41
1
10
94.4937527450652
20
9.7235
30
0
0
SPLINE
5
ED
100
AcDbEntity
8
1
62
256
6
ByLayer
370
13
48
1
60
0
100
AcDbSpline
70
4
71
3
72
22
73
18
40
0
40
0
40
0
40
0
40
0.125
40
0.125
40
0.25
40
0.25
40
0.375
40
0.375
40
0.5
40
0.5
40
0.625
40
0.625
40
0.75
40
0.75
40
0.875
40
0.875
40
1
40
1
40
1
40
1
41
1
10
94.894986674348
20
9.7235
30
0
41
1
10
94.9810678723799
20
9.7235
30
0
41
1
10
95.0671490704117
20
9.68851376356486
30
0
41
1
10
95.2393114664754
20
9.53730616956551
30
0
41
1
10
95.3253926645073
20
9.4210057144858
30
0
41
1
10
95.497555060571
20
9.10030457469128
30
0
41
1
10
95.583636258603
20
8.89584398036803
30
0
41
1
10
95.7557986546666
20
8.39868761969132
30
0
41
1
10
95.8418798526985
20
8.10597614622429
30
0
41
1
10
96.0140422487622
20
7.4401396073842
30
0
41
1
10
96.100123446794
20
7.06705656777967
30
0
41
1
10
96.2722858428576
20
6.25589464391538
30
0
41
1
10
96.3583670408896
20
5.81790762116731
30
0
41
1
10
96.5305294369533
20
4.89789012124089
30
0
41
1
10
96.6166106349851
20
4.41597372749274
30
0
41
1
10
96.7887730310489
20
3.43137468885078
30
0
41
1
10
96.8748542290807
20
2.92879456929146
30
0
41
1
10
96.9609354271126
20
2.42694367312265
30
0
0
SPLINE
5
EE
100
AcDbEntity
8
1
62
256
6
ByLayer
370
13
48
1
60
0
100
AcDbSpline
70
4
71
3
72
78
73
74
40
0
40
0
40
0
40
0
40
0.03125
40
0.03125
40
0.0625000000000001
40
0.0625000000000001
40
0.0937500000000001
40
0.0937500000000001
40
0.125
40
0.125
40
0.15625
40
0.15625
40
0.1875
40
0.1875
40
0.21875
40
0.21875
40
0.25
40
0.25
40
0.28125
40
0.28125
40
0.2890625
40
0.2890625
40
0.296875
40
0.296875
40
0.3125
40
0.3125
40
0.34375
40
0.34375
40
0.375
40
0.375
40
0.40625
40
0.40625
40
0.4375
40
0.4375
40
0.46875
40
0.46875
40
0.5
40
0.5
40
0.53125
40
0.53125
40
0.5625
40
0.5625
40
0.59375
40
0.59375
40
0.625
40
0.625
40
0.640625
40
0.640625
40
0.6484375
40
0.6484375
40
0.65625
40
0.65625
40
0.6875
40
0.6875
40
0.71875
40
0.71875
40
0.75
40
0.75
40
0.78125
40
0.78125
40
0.8125
40
0.8125
40
0.84375
40
0.84375
40
0.875
40
0.875
40
0.90625
40
0.90625
40
0.9375
40
0.9375
40
0.96875
40
0.96875
40
1
40
1
40
1
40
1
41
1
10
87
20
-2.69570733329036
30
0
41
1
10
87.0729199594692
20
-3.12073454254488
30
0
41
1
10
87.1458399189385
20
-3.54492072849973
30
0
41
1
10
87.2916798378769
20
-4.37806776378062
30
0
41
1
10
87.3645997973462
20
-4.78698345271818
30
0
41
1
10
87.5104397162846
20
-5.57545888062947
30
0
41
1
10
87.5833596757539
20
-5.95496850245075
30
0
41
1
10
87.7291995946923
20
-6.67144222856109
30
0
41
1
10
87.8021195541616
20
-7.00836188594829
30
0
41
1
10
87.9479594731
20
-7.62886813548388
30
0
41
1
10
88.0208794325692
20
-7.91242586070939
30
0
41
1
10
88.1667193515077
20
-8.41895825341663
30
0
41
1
10
88.239639310977
20
-8.64192519534981
30
0
41
1
10
88.3854792299154
20
-9.02412858032756
30
0
41
1
10
88.4583991893846
20
-9.18337789844801
30
0
41
1
10
88.6042391083232
20
-9.43901600480689
30
0
41
1
10
88.6771590677925
20
-9.53543254827989
30
0
41
1
10
88.8229989867309
20
-9.66965707841189
30
0
41
1
10
88.8959189462001
20
-9.70749957937321
30
0
41
1
10
88.9870688955366
20
-9.72233963851622
30
0
41
1
10
89.0052988854039
20
-9.72368942327444
30
0
41
1
10
89.0417588651385
20
-9.72326806029204
30
0
41
1
10
89.0599888550058
20
-9.72148984266755
30
0
41
1
10
89.1146788246077
20
-9.71127558602487
30
0
41
1
10
89.1511388043424
20
-9.6979566181115
30
0
41
1
10
89.2605187435462
20
-9.63715875661327
30
0
41
1
10
89.3334387030155
20
-9.5687593024042
30
0
41
1
10
89.4792786219539
20
-9.37077980880179
30
0
41
1
10
89.5521985814232
20
-9.24116782569823
30
0
41
1
10
89.6980385003617
20
-8.91818863940964
30
0
41
1
10
89.7709584598308
20
-8.72480068852568
30
0
41
1
10
89.9167983787693
20
-8.27545842242128
30
0
41
1
10
89.9897183382386
20
-8.01950179307883
30
0
41
1
10
90.135558257177
20
-7.45034604354214
30
0
41
1
10
90.2084782166463
20
-7.13716626170802
30
0
41
1
10
90.3543181355847
20
-6.46277493368999
30
0
41
1
10
90.427238095054
20
-6.10160160829727
30
0
41
1
10
90.5730780139925
20
-5.34344052224719
30
0
41
1
10
90.6459979734617
20
-4.94650160753969
30
0
41
1
10
90.7918378924002
20
-4.13069100885244
30
0
41
1
10
90.8647578518693
20
-3.71186800581234
30
0
41
1
10
91.0105977708079
20
-2.86632989325813
30
0
41
1
10
91.0835177302771
20
-2.43965383682283
30
0
41
1
10
91.2293576492156
20
-1.59125941420194
30
0
41
1
10
91.3022776086847
20
-1.16956512151296
30
0
41
1
10
91.4116575478887
20
-0.548763767913101
30
0
41
1
10
91.4481175276233
20
-0.343767668088333
30
0
41
1
10
91.5028074972251
20
-0.0399969443202792
30
0
41
1
10
91.5210374870925
20
0.0603652362557057
30
0
41
1
10
91.557497466827
20
0.263045060940584
30
0
41
1
10
91.5757274566943
20
0.364999992643135
30
0
41
1
10
91.6668774060308
20
0.877520731900461
30
0
41
1
10
91.7397973655002
20
1.29642533028519
30
0
41
1
10
91.8856372844386
20
2.14194515279493
30
0
41
1
10
91.9585572439079
20
2.56854004218144
30
0
41
1
10
92.1043971628463
20
3.41705498107956
30
0
41
1
10
92.1773171223156
20
3.8389391723903
30
0
41
1
10
92.3231570412539
20
4.66418306886956
30
0
41
1
10
92.3960770007232
20
5.06749561216753
30
0
41
1
10
92.5419169196616
20
5.84154900990657
30
0
41
1
10
92.6148368791309
20
6.2122400801014
30
0
41
1
10
92.7606767980693
20
6.9082973351683
30
0
41
1
10
92.8335967575387
20
7.23362192893418
30
0
41
1
10
92.9794366764771
20
7.82890002409209
30
0
41
1
10
93.0523566359464
20
8.0988293061626
30
0
41
1
10
93.1981965548848
20
8.57699687561515
30
0
41
1
10
93.2711165143539
20
8.78523251309466
30
0
41
1
10
93.4169564332925
20
9.13783272630982
30
0
41
1
10
93.4898763927618
20
9.28221429878633
30
0
41
1
10
93.6357163117002
20
9.50883799055393
30
0
41
1
10
93.7086362711694
20
9.59111018930676
30
0
41
1
10
93.8544761901079
20
9.69842372646329
30
0
41
1
10
93.9273961495771
20
9.7235
30
0
41
1
10
94.0003161090464
20
9.7235
30
0
0
SPLINE
5
EF
100
AcDbEntity
8
1
62
256
6
ByLayer
370
13
48
1
60
0
100
AcDbSpline
70
4
71
3
72
42
73
38
40
0
40
0
40
0
40
0
40
0.0625
40
0.0625
40
0.125
40
0.125
40
0.1875
40
0.1875
40
0.25
40
0.25
40
0.3125
40
0.3125
40
0.375
40
0.375
40
0.4375
40
0.4375
40
0.5
40
0.5
40
0.5625
40
0.5625
40
0.625
40
0.625
40
0.6875
40
0.6875
40
0.750000000000001
40
0.750000000000001
40
0.812500000000001
40
0.812500000000001
40
0.875000000000001
40
0.875000000000001
40
0.937500000000001
40
0.937500000000001
40
0.968750000000001
40
0.968750000000001
40
0.984375000000001
40
0.984375000000001
40
1
40
1
40
1
40
1
41
1
10
94.4015500383292
20
9.7235
30
0
41
1
10
94.4548705672622
20
9.7235
30
0
41
1
10
94.5081910961952
20
9.71010935711007
30
0
41
1
10
94.6148321540612
20
9.65371971954215
30
0
41
1
10
94.6681526829941
20
9.61071339126877
30
0
41
1
10
94.7747937408601
20
9.49278759233286
30
0
41
1
10
94.8281142697931
20
9.41786104076002
30
0
41
1
10
94.9347553276591
20
9.23454527546846
30
0
41
1
10
94.9880758565921
20
9.12615013136966
30
0
41
1
10
95.094716914458
20
8.87530172157921
30
0
41
1
10
95.148037443391
20
8.73284460830916
30
0
41
1
10
95.254678501257
20
8.41438111990587
30
0
41
1
10
95.30799903019
20
8.23837376217836
30
0
41
1
10
95.414640088056
20
7.85449822396691
30
0
41
1
10
95.4679606169889
20
7.64663236640348
30
0
41
1
10
95.5746016748549
20
7.2018890431313
30
0
41
1
10
95.6279222037879
20
6.96501716481049
30
0
41
1
10
95.7345632616538
20
6.46615246564861
30
0
41
1
10
95.7878837905869
20
6.20416793836438
30
0
41
1
10
95.8945248484528
20
5.65979918443415
30
0
41
1
10
95.9478453773858
20
5.37742497295059
30
0
41
1
10
96.0544864352518
20
4.79754986651002
30
0
41
1
10
96.1078069641848
20
4.50005949394387
30
0
41
1
10
96.2144480220507
20
3.89546394471233
30
0
41
1
10
96.2677685509837
20
3.58836859697109
30
0
41
1
10
96.3744096088498
20
2.97000401045801
30
0
41
1
10
96.4277301377827
20
2.65874293895149
30
0
41
1
10
96.5343711956486
20
2.03714343109493
30
0
41
1
10
96.5876917245817
20
1.72681090249822
30
0
41
1
10
96.6943327824476
20
1.11160754214461
30
0
41
1
10
96.7476533113806
20
0.806740165787289
30
0
41
1
10
96.8276341047801
20
0.35641594562432
30
0
41
1
10
96.8542943692466
20
0.207464918138271
30
0
41
1
10
96.8942847659464
20
-0.0139199195944855
30
0
41
1
10
96.9076148981795
20
-0.0874698673718513
30
0
41
1
10
96.934275162646
20
-0.235672606335101
30
0
41
1
10
96.9476052948794
20
-0.310102721513687
30
0
41
1
10
96.9609354271126
20
-0.38483613327341
30
0
0
SPLINE
5
F0
100
AcDbEntity
8
1
62
256
6
ByLayer
370
13
48
1
60
0
100
AcDbSpline
70
4
71
3
72
76
73
72
40
0
40
0
40
0
40
0
40
0.0312500000000007
40
0.0312500000000007
40
0.0625000000000014
40
0.0625000000000014
40
0.0937500000000021
40
0.0937500000000021
40
0.125000000000003
40
0.125000000000003
40
0.156250000000003
40
0.156250000000003
40
0.187500000000004
40
0.187500000000004
40
0.218750000000005
40
0.218750000000005
40
0.234375000000005
40
0.234375000000005
40
0.250000000000005
40
0.250000000000005
40
0.281250000000005
40
0.281250000000005
40
0.312500000000004
40
0.312500000000004
40
0.343750000000004
40
0.343750000000004
40
0.375000000000004
40
0.375000000000004
40
0.406250000000004
40
0.406250000000004
40
0.437500000000004
40
0.437500000000004
40
0.468750000000003
40
0.468750000000003
40
0.500000000000003
40
0.500000000000003
40
0.531250000000003
40
0.531250000000003
40
0.562500000000003
40
0.562500000000003
40
0.593750000000003
40
0.593750000000003
40
0.609375000000003
40
0.609375000000003
40
0.617187500000002
40
0.617187500000002
40
0.625000000000002
40
0.625000000000002
40
0.656250000000002
40
0.656250000000002
40
0.687500000000002
40
0.687500000000002
40
0.718750000000002
40
0.718750000000002
40
0.750000000000002
40
0.750000000000002
40
0.781250000000001
40
0.781250000000001
40
0.812500000000001
40
0.812500000000001
40
0.843750000000001
40
0.843750000000001
40
0.875000000000001
40
0.875000000000001
40
0.906250000000001
40
0.906250000000001
40
0.9375
40
0.9375
40
0.96875
40
0.96875
40
1
40
1
40
1
40
1
41
1
10
87.0000000000001
20
-5.48054393145367
30
0
41
1
10
87.0677799945107
20
-5.83960886704978
30
0
41
1
10
87.1355599890214
20
-6.18443849484046
30
0
41
1
10
87.2711199780427
20
-6.83544036352393
30
0
41
1
10
87.3388999725535
20
-7.14158326360487
30
0
41
1
10
87.4744599615749
20
-7.70693243393345
30
0
41
1
10
87.5422399560856
20
-7.96612021344305
30
0
41
1
10
87.6777999451069
20
-8.43199408103723
30
0
41
1
10
87.7455799396178
20
-8.63867548298322
30
0
41
1
10
87.8811399286392
20
-8.99704167918173
30
0
41
1
10
87.9489199231498
20
-9.14873509559945
30
0
41
1
10
88.0844799121712
20
-9.39763634968929
30
0
41
1
10
88.1522599066819
20
-9.49486272027556
30
0
41
1
10
88.2878198957034
20
-9.63792417914229
30
0
41
1
10
88.3555998902141
20
-9.68378286421316
30
0
41
1
10
88.4572698819801
20
-9.71779707692502
30
0
41
1
10
88.4911598792355
20
-9.72335228298383
30
0
41
1
10
88.5589398737462
20
-9.72364189878451
30
0
41
1
10
88.5928298710015
20
-9.71838644145356
30
0
41
1
10
88.6944998627675
20
-9.68530056844639
30
0
41
1
10
88.7622798572783
20
-9.64009932875857
30
0
41
1
10
88.8978398462997
20
-9.49840899749643
30
0
41
1
10
88.9656198408103
20
-9.40189627510233
30
0
41
1
10
89.1011798298318
20
-9.15444816593836
30
0
41
1
10
89.1689598243426
20
-9.00349414505985
30
0
41
1
10
89.3045198133639
20
-8.64659463624548
30
0
41
1
10
89.3722998078746
20
-8.4406403658532
30
0
41
1
10
89.507859796896
20
-7.97616711735981
30
0
41
1
10
89.5756397914067
20
-7.71765263621418
30
0
41
1
10
89.7111997804282
20
-7.15355667003672
30
0
41
1
10
89.7789797749388
20
-6.84799350290038
30
0
41
1
10
89.9145397639603
20
-6.19802536451559
30
0
41
1
10
89.982319758471
20
-5.85364962170519
30
0
41
1
10
90.1178797474923
20
-5.13628128658937
30
0
41
1
10
90.1856597420031
20
-4.76332321761689
30
0
41
1
10
90.3212197310245
20
-4.00003496280581
30
0
41
1
10
90.3889997255352
20
-3.6097380625196
30
0
41
1
10
90.5245597145565
20
-2.82299424619089
30
0
41
1
10
90.5923397090672
20
-2.42657392301075
30
0
41
1
10
90.7278996980887
20
-1.63786515332379
30
0
41
1
10
90.7956796925994
20
-1.24559355934809
30
0
41
1
10
90.8973496843654
20
-0.666795600947069
30
0
41
1
10
90.9312396816208
20
-0.475450488057106
30
0
41
1
10
90.9820746775039
20
-0.191490601275149
30
0
41
1
10
90.9990196761316
20
-0.0973459640044325
30
0
41
1
10
91.0329096733868
20
0.0898250254021207
30
0
41
1
10
91.0498546720145
20
0.183911610517555
30
0
41
1
10
91.1345796651528
20
0.657041717645001
30
0
41
1
10
91.2023596596636
20
1.04378349280395
30
0
41
1
10
91.337919648685
20
1.82605018437059
30
0
41
1
10
91.4056996431957
20
2.2215634789143
30
0
41
1
10
91.5412596322171
20
3.01185960731107
30
0
41
1
10
91.6090396267278
20
3.40662057665955
30
0
41
1
10
91.7445996157492
20
4.1845827617822
30
0
41
1
10
91.8123796102599
20
4.56775353352941
30
0
41
1
10
91.9479395992814
20
5.31118416278179
30
0
41
1
10
92.015719593792
20
5.67140933292373
30
0
41
1
10
92.1512795828135
20
6.35807203232531
30
0
41
1
10
92.2190595773242
20
6.68447684167762
30
0
41
1
10
92.3546195663455
20
7.29413290512954
30
0
41
1
10
92.4223995608563
20
7.57735974659153
30
0
41
1
10
92.5579595498778
20
8.09368552142686
30
0
41
1
10
92.6257395443884
20
8.32677280417414
30
0
41
1
10
92.7612995334097
20
8.73879227822309
30
0
41
1
10
92.8290795279206
20
8.91772679770085
30
0
41
1
10
92.964639516942
20
9.22050192763766
30
0
41
1
10
93.0324195114526
20
9.34435673712053
30
0
41
1
10
93.167979500474
20
9.53886310448723
30
0
41
1
10
93.2357594949847
20
9.60953639172291
30
0
41
1
10
93.3713194840061
20
9.70184268655626
30
0
41
1
10
93.4390994785168
20
9.7235
30
0
41
1
10
93.5068794730275
20
9.7235
30
0
0
SPLINE
5
F1
100
AcDbEntity
8
1
62
256
6
ByLayer
370
13
48
1
60
0
100
AcDbSpline
70
4
71
3
72
41
73
37
40
0
40
0
40
0
40
0
40
0.0625000000000005
40
0.0625000000000005
40
0.125000000000001
40
0.125000000000001
40
0.187500000000002
40
0.187500000000002
40
0.250000000000002
40
0.250000000000002
40
0.312500000000003
40
0.312500000000003
40
0.375000000000003
40
0.375000000000003
40
0.437500000000004
40
0.437500000000004
40
0.500000000000004
40
0.500000000000004
40
0.562500000000005
40
0.562500000000005
40
0.625000000000005
40
0.625000000000005
40
0.687500000000006
40
0.687500000000006
40
0.750000000000006
40
0.750000000000006
40
0.812500000000007
40
0.812500000000007
40
0.828125000000007
40
0.828125000000007
40
0.843750000000007
40
0.875000000000006
40
0.875000000000006
40
0.937500000000003
40
0.937500000000003
40
1
40
1
40
1
40
1
41
1
10
93.9081134023104
20
9.7235
30
0
41
1
10
93.9717138611604
20
9.7235
30
0
41
1
10
94.0353143200105
20
9.70443675004913
30
0
41
1
10
94.1625152377106
20
9.62346158160176
30
0
41
1
10
94.2261156965606
20
9.56153195851971
30
0
41
1
10
94.3533166142606
20
9.39123917291369
30
0
41
1
10
94.4169170731107
20
9.28285976035502
30
0
41
1
10
94.5441179908107
20
9.01777325841115
30
0
41
1
10
94.6077184496609
20
8.86105453960036
30
0
41
1
10
94.7349193673609
20
8.49951676802999
30
0
41
1
10
94.7985198262111
20
8.29469365607085
30
0
41
1
10
94.9257207439111
20
7.83954206485689
30
0
41
1
10
94.9893212027612
20
7.58921890001324
30
0
41
1
10
95.1165221204612
20
7.04801641902637
30
0
41
1
10
95.1801225793113
20
6.75715170619549
30
0
41
1
10
95.3073234970113
20
6.14186843500008
30
0
41
1
10
95.3709239558614
20
5.81747161117883
30
0
41
1
10
95.4981248735616
20
5.14362416694465
30
0
41
1
10
95.5617253324116
20
4.79419870692322
30
0
41
1
10
95.6889262501116
20
4.07957289035645
30
0
41
1
10
95.7525267089617
20
3.7143969162212
30
0
41
1
10
95.8797276266619
20
2.9775684082189
30
0
41
1
10
95.9433280855119
20
2.60593591275273
30
0
41
1
10
96.070529003212
20
1.86483299988492
30
0
41
1
10
96.134129462062
20
1.49537613103712
30
0
41
1
10
96.2613303797621
20
0.766092777902031
30
0
41
1
10
96.3249308386121
20
0.406272837332324
30
0
41
1
10
96.4044314121746
20
-0.0337355789711751
30
0
41
1
10
96.4203315268873
20
-0.121552533998397
30
0
41
1
10
96.4521317563122
20
-0.298667213001835
30
0
41
1
10
96.4998321004498
20
-0.565718002688584
30
0
41
1
10
96.5475324445873
20
-0.836519583564808
30
0
41
1
10
96.6429331328624
20
-1.38196029756006
30
0
41
1
10
96.7065335917124
20
-1.75074669167546
30
0
41
1
10
96.8337345094125
20
-2.49133650113114
30
0
41
1
10
96.8973349682626
20
-2.86312709127972
30
0
41
1
10
96.9609354271126
20
-3.23216360919409
30
0
0
SPLINE
5
F2
100
AcDbEntity
8
1
62
256
6
ByLayer
370
13
48
1
60
0
100
AcDbSpline
70
4
71
3
72
76
73
72
40
0
40
0
40
0
40
0
40
0.0312500000000007
40
0.0312500000000007
40
0.0625000000000015
40
0.0625000000000015
40
0.0937500000000022
40
0.0937500000000022
40
0.125000000000003
40
0.125000000000003
40
0.156250000000004
40
0.156250000000004
40
0.171875000000004
40
0.171875000000004
40
0.187500000000004
40
0.187500000000004
40
0.218750000000004
40
0.218750000000004
40
0.250000000000004
40
0.250000000000004
40
0.281250000000004
40
0.281250000000004
40
0.312500000000003
40
0.312500000000003
40
0.343750000000003
40
0.343750000000003
40
0.375000000000003
40
0.375000000000003
40
0.406250000000003
40
0.406250000000003
40
0.437500000000003
40
0.437500000000003
40
0.468750000000003
40
0.468750000000003
40
0.500000000000002
40
0.500000000000002
40
0.531250000000002
40
0.531250000000002
40
0.562500000000002
40
0.562500000000002
40
0.578125000000002
40
0.578125000000002
40
0.585937500000002
40
0.585937500000002
40
0.593750000000002
40
0.593750000000002
40
0.625000000000002
40
0.625000000000002
40
0.656250000000002
40
0.656250000000002
40
0.687500000000002
40
0.687500000000002
40
0.718750000000001
40
0.718750000000001
40
0.750000000000001
40
0.750000000000001
40
0.781250000000001
40
0.781250000000001
40
0.812500000000001
40
0.812500000000001
40
0.843750000000001
40
0.843750000000001
40
0.875000000000001
40
0.875000000000001
40
0.90625
40
0.90625
40
0.9375
40
0.9375
40
0.96875
40
0.96875
40
1
40
1
40
1
40
1
41
1
10
87.0000000000001
20
-7.7730549875161
30
0
41
1
10
87.0626400295522
20
-8.01531491376974
30
0
41
1
10
87.1252800591043
20
-8.23636722379115
30
0
41
1
10
87.2505601182086
20
-8.63261157766854
30
0
41
1
10
87.3132001477609
20
-8.80780377232185
30
0
41
1
10
87.4384802068652
20
-9.11112274740393
30
0
41
1
10
87.5011202364174
20
-9.23925748739313
30
0
41
1
10
87.6264002955217
20
-9.44938656312002
30
0
41
1
10
87.6890403250738
20
-9.5313943681715
30
0
41
1
10
87.8143203841783
20
-9.6519934344463
30
0
41
1
10
87.8769604137304
20
-9.69060081473415
30
0
41
1
10
87.9709204580586
20
-9.71900018059739
30
0
41
1
10
88.0022404728348
20
-9.72355696825016
30
0
41
1
10
88.064880502387
20
-9.72344195705691
30
0
41
1
10
88.0962005171631
20
-9.71876638561727
30
0
41
1
10
88.1901605614913
20
-9.68999999006135
30
0
41
1
10
88.2528005910435
20
-9.65113368277713
30
0
41
1
10
88.3780806501478
20
-9.52999510870339
30
0
41
1
10
88.4407206797
20
-9.44770673058895
30
0
41
1
10
88.5660007388043
20
-9.2370046999346
30
0
41
1
10
88.6286407683565
20
-9.10857760370456
30
0
41
1
10
88.7539208274608
20
-8.80467449267121
30
0
41
1
10
88.8165608570131
20
-8.6291905608586
30
0
41
1
10
88.9418409161174
20
-8.23237720359063
30
0
41
1
10
89.0044809456696
20
-8.01104768071798
30
0
41
1
10
89.1297610047739
20
-7.52600180914791
30
0
41
1
10
89.1924010343261
20
-7.26229412617391
30
0
41
1
10
89.3176810934304
20
-6.6980793516617
30
0
41
1
10
89.3803211229826
20
-6.39758881308111
30
0
41
1
10
89.5056011820868
20
-5.76714096314069
30
0
41
1
10
89.5682412116391
20
-5.43720549557511
30
0
41
1
10
89.6935212707435
20
-4.75635815752111
30
0
41
1
10
89.7561613002957
20
-4.40546978538069
30
0
41
1
10
89.8814413594
20
-3.69166990987466
30
0
41
1
10
89.9440813889522
20
-3.32877988150506
30
0
41
1
10
90.0693614480565
20
-2.59970438697712
30
0
41
1
10
90.1320014776088
20
-2.2335355681013
30
0
41
1
10
90.2572815367131
20
-1.50582300031456
30
0
41
1
10
90.3199215662652
20
-1.14428965209376
30
0
41
1
10
90.4138816105935
20
-0.61048602376664
30
0
41
1
10
90.4452016253695
20
-0.433957103022237
30
0
41
1
10
90.4921816475337
20
-0.171799809663412
30
0
41
1
10
90.5078416549218
20
-0.0848644780654411
30
0
41
1
10
90.5391616696978
20
0.0880969782457726
30
0
41
1
10
90.5548216770859
20
0.175055536708044
30
0
41
1
10
90.6331217140261
20
0.612038950619933
30
0
41
1
10
90.6957617435783
20
0.96869186083029
30
0
41
1
10
90.8210418026827
20
1.69013816224546
30
0
41
1
10
90.8836818322348
20
2.05492434006536
30
0
41
1
10
91.0089618913391
20
2.78529503797381
30
0
41
1
10
91.0716019208913
20
3.15086592959761
30
0
41
1
10
91.1968819799956
20
3.87442787862673
30
0
41
1
10
91.2595220095477
20
4.23239958972349
30
0
41
1
10
91.3848020686521
20
4.93184772441711
30
0
41
1
10
91.4474420982043
20
5.27330123197959
30
0
41
1
10
91.5727221573086
20
5.93090393889509
30
0
41
1
10
91.6353621868609
20
6.24702999080708
30
0
41
1
10
91.7606422459652
20
6.84598003669942
30
0
41
1
10
91.8232822755173
20
7.12878443787295
30
0
41
1
10
91.9485623346218
20
7.65456051367261
30
0
41
1
10
92.011202364174
20
7.89751937693501
30
0
41
1
10
92.1364824232783
20
8.33903838893508
30
0
41
1
10
92.1991224528305
20
8.53759429042631
30
0
41
1
10
92.3244025119349
20
8.88796720523411
30
0
41
1
10
92.387042541487
20
9.0397884689111
30
0
41
1
10
92.5123226005913
20
9.29657567916968
30
0
41
1
10
92.5749626301435
20
9.40155266503874
30
0
41
1
10
92.7002426892478
20
9.56652134715324
30
0
41
1
10
92.7628827187999
20
9.62652818985541
30
0
41
1
10
92.8881627779044
20
9.70500931084334
30
0
41
1
10
92.9508028074566
20
9.7235
30
0
41
1
10
93.0134428370087
20
9.7235
30
0
0
SPLINE
5
F3
100
AcDbEntity
8
1
62
256
6
ByLayer
370
13
48
1
60
0
100
AcDbSpline
70
4
71
3
72
42
73
38
40
0
40
0
40
0
40
0
40
0.0624999999999999
40
0.0624999999999999
40
0.125
40
0.125
40
0.1875
40
0.1875
40
0.25
40
0.25
40
0.3125
40
0.3125
40
0.375
40
0.375
40
0.4375
40
0.4375
40
0.5
40
0.5
40
0.5625
40
0.5625
40
0.625
40
0.625
40
0.6875
40
0.6875
40
0.703125
40
0.703125
40
0.71875
40
0.71875
40
0.75
40
0.75
40
0.8125
40
0.8125
40
0.875
40
0.875
40
0.9375
40
0.9375
40
1
40
1
40
1
40
1
41
1
10
93.4146767662916
20
9.7235
30
0
41
1
10
93.4885571550587
20
9.7235
30
0
41
1
10
93.5624375438258
20
9.69775683887175
30
0
41
1
10
93.71019832136
20
9.58750710833135
30
0
41
1
10
93.784078710127
20
9.50296326544083
30
0
41
1
10
93.9318394876613
20
9.27005104019838
30
0
41
1
10
94.0057198764284
20
9.12165081179964
30
0
41
1
10
94.1534806539626
20
8.75931996387979
30
0
41
1
10
94.2273610427297
20
8.54537192653038
30
0
41
1
10
94.375121820264
20
8.05436861732488
30
0
41
1
10
94.449002209031
20
7.77731739371006
30
0
41
1
10
94.5967629865652
20
7.16688399757439
30
0
41
1
10
94.6706433753323
20
6.83352910580876
30
0
41
1
10
94.8184041528666
20
6.12114828260815
30
0
41
1
10
94.8922845416337
20
5.74216783846975
30
0
41
1
10
95.0400453191679
20
4.95196196965432
30
0
41
1
10
95.113925707935
20
4.5407898976878
30
0
41
1
10
95.2616864854691
20
3.70086673458988
30
0
41
1
10
95.3355668742362
20
3.27216507768125
30
0
41
1
10
95.4833276517705
20
2.4115018376508
30
0
41
1
10
95.5572080405377
20
1.97957670003362
30
0
41
1
10
95.7049688180718
20
1.12511940050072
30
0
41
1
10
95.7788492068389
20
0.702606704581655
30
0
41
1
10
95.8711996927977
20
0.186672440684731
30
0
41
1
10
95.8896697899895
20
0.0842305921327977
30
0
41
1
10
95.926609984373
20
-0.119908194623093
30
0
41
1
10
95.9450800815649
20
-0.222639087333192
30
0
41
1
10
96.0004903731402
20
-0.532618666250698
30
0
41
1
10
96.0374305675238
20
-0.741659718223247
30
0
41
1
10
96.1482511506744
20
-1.37416701689506
30
0
41
1
10
96.2221315394416
20
-1.80309441073152
30
0
41
1
10
96.3698923169758
20
-2.66397591114577
30
0
41
1
10
96.4437727057429
20
-3.09590140200658
30
0
41
1
10
96.5915334832771
20
-3.94913714111723
30
0
41
1
10
96.6654138720442
20
-4.37040322553563
30
0
41
1
10
96.8131746495784
20
-5.18764706124844
30
0
41
1
10
96.8870550383455
20
-5.58357191865645
30
0
41
1
10
96.9609354271126
20
-5.9597442639637
30
0
0
SPLINE
5
F4
100
AcDbEntity
8
1
62
256
6
ByLayer
370
13
48
1
60
0
100
AcDbSpline
70
4
71
3
72
77
73
73
40
0
40
0
40
0
40
0
40
0.031250000000002
40
0.031250000000002
40
0.062500000000004
40
0.062500000000004
40
0.093750000000006
40
0.093750000000006
40
0.101562500000006
40
0.101562500000006
40
0.109375000000007
40
0.125000000000007
40
0.125000000000007
40
0.156250000000006
40
0.156250000000006
40
0.187500000000006
40
0.187500000000006
40
0.218750000000006
40
0.218750000000006
40
0.250000000000006
40
0.250000000000006
40
0.281250000000005
40
0.281250000000005
40
0.312500000000005
40
0.312500000000005
40
0.343750000000005
40
0.343750000000005
40
0.375000000000004
40
0.375000000000004
40
0.406250000000004
40
0.406250000000004
40
0.437500000000004
40
0.437500000000004
40
0.468750000000004
40
0.468750000000004
40
0.500000000000003
40
0.500000000000003
40
0.531250000000003
40
0.531250000000003
40
0.546875000000003
40
0.546875000000003
40
0.554687500000003
40
0.554687500000003
40
0.562500000000003
40
0.562500000000003
40
0.593750000000003
40
0.593750000000003
40
0.625000000000003
40
0.625000000000003
40
0.656250000000003
40
0.656250000000003
40
0.687500000000002
40
0.687500000000002
40
0.718750000000002
40
0.718750000000002
40
0.750000000000002
40
0.750000000000002
40
0.781250000000002
40
0.781250000000002
40
0.812500000000001
40
0.812500000000001
40
0.843750000000001
40
0.843750000000001
40
0.875000000000001
40
0.875000000000001
40
0.906250000000001
40
0.906250000000001
40
0.937500000000001
40
0.937500000000001
40
0.96875
40
0.96875
40
1
40
1
40
1
40
1
41
1
10
87
20
-9.21666732986006
30
0
41
1
10
87.0575000645937
20
-9.32901001324555
30
0
41
1
10
87.1150001291873
20
-9.42168898157337
30
0
41
1
10
87.2300002583746
20
-9.56927082738181
30
0
41
1
10
87.2875003229682
20
-9.62418366951445
30
0
41
1
10
87.4025004521554
20
-9.6989078779684
30
0
41
1
10
87.4600005167492
20
-9.71872995164381
30
0
41
1
10
87.5318755974912
20
-9.72373569206587
30
0
41
1
10
87.5462506136396
20
-9.72375696157724
30
0
41
1
10
87.5750006459365
20
-9.72184168037987
30
0
41
1
10
87.6181256943818
20
-9.71600996559749
30
0
41
1
10
87.6612507428268
20
-9.70103947518271
30
0
41
1
10
87.7475008397173
20
-9.65826531685707
30
0
41
1
10
87.8050009043111
20
-9.61261014165578
30
0
41
1
10
87.9200010334983
20
-9.48413447225835
30
0
41
1
10
87.9775010980919
20
-9.40130368090237
30
0
41
1
10
88.0925012272793
20
-9.1965948584625
30
0
41
1
10
88.150001291873
20
-9.07470842668482
30
0
41
1
10
88.2650014210602
20
-8.79131961119123
30
0
41
1
10
88.3225014856538
20
-8.62981228726221
30
0
41
1
10
88.4375016148412
20
-8.26813227051505
30
0
41
1
10
88.4950016794348
20
-8.06795933810707
30
0
41
1
10
88.6100018086221
20
-7.63150000476324
30
0
41
1
10
88.6675018732157
20
-7.39521861675786
30
0
41
1
10
88.782502002403
20
-6.89062531813664
30
0
41
1
10
88.8400020669966
20
-6.62232330805878
30
0
41
1
10
88.9550021961838
20
-6.05907669522372
30
0
41
1
10
89.0125022607776
20
-5.76414561136255
30
0
41
1
10
89.1275023899648
20
-5.15397673837762
30
0
41
1
10
89.1850024545585
20
-4.83875418508967
30
0
41
1
10
89.3000025837458
20
-4.194847070924
30
0
41
1
10
89.3575026483395
20
-3.866177374589
30
0
41
1
10
89.4725027775266
20
-3.20226988750397
30
0
41
1
10
89.5300028421203
20
-2.86704477946191
30
0
41
1
10
89.6450029713076
20
-2.19654978139556
30
0
41
1
10
89.7025030359013
20
-1.86128919418238
30
0
41
1
10
89.8175031650886
20
-1.19654216603189
30
0
41
1
10
89.8750032296822
20
-0.86706118729424
30
0
41
1
10
89.9612533265727
20
-0.380839294279383
30
0
41
1
10
89.9900033588695
20
-0.2200908659253
30
0
41
1
10
90.0331284073147
20
0.0186576738366568
30
0
41
1
10
90.0475034234632
20
0.0979855588237797
30
0
41
1
10
90.07625345576
20
0.257909285078654
30
0
41
1
10
90.0906284719084
20
0.338251355583083
30
0
41
1
10
90.1625035526504
20
0.741702102625055
30
0
41
1
10
90.2200036172441
20
1.07007148623387
30
0
41
1
10
90.3350037464313
20
1.73327432802756
30
0
41
1
10
90.392503811025
20
2.0681028121395
30
0
41
1
10
90.5075039402122
20
2.73852109943468
30
0
41
1
10
90.5650040048059
20
3.07410208010924
30
0
41
1
10
90.6800041339932
20
3.73958257703905
30
0
41
1
10
90.7375041985869
20
4.0694697907868
30
0
41
1
10
90.8525043277741
20
4.71669897196784
30
0
41
1
10
90.9100043923678
20
5.03402626306521
30
0
41
1
10
91.0250045215551
20
5.64926053982751
30
0
41
1
10
91.0825045861487
20
5.94715222228783
30
0
41
1
10
91.197504715336
20
6.51708596634873
30
0
41
1
10
91.2550047799297
20
6.78911417506669
30
0
41
1
10
91.370004909117
20
7.30178295760942
30
0
41
1
10
91.4275049737106
20
7.54241308101942
30
0
41
1
10
91.5425051028979
20
7.98801078466721
30
0
41
1
10
91.6000051674916
20
8.19297268701547
30
0
41
1
10
91.7150052966789
20
8.56446866764892
30
0
41
1
10
91.7725053612726
20
8.73100232742004
30
0
41
1
10
91.8875054904598
20
9.02447859879163
30
0
41
1
10
91.9450055550534
20
9.15142560803136
30
0
41
1
10
92.0600056842407
20
9.36610517124655
30
0
41
1
10
92.1175057488344
20
9.4538457680157
30
0
41
1
10
92.2325058780217
20
9.59183720863459
30
0
41
1
10
92.2900059426153
20
9.64209819618708
30
0
41
1
10
92.4050060718025
20
9.70792424176187
30
0
41
1
10
92.4625061363962
20
9.7235
30
0
41
1
10
92.5200062009899
20
9.7235
30
0
0
SPLINE
5
F5
100
AcDbEntity
8
1
62
256
6
ByLayer
370
13
48
1
60
0
100
AcDbSpline
70
4
71
3
72
42
73
38
40
0
40
0
40
0
40
0
40
0.0625000000000005
40
0.0625000000000005
40
0.125000000000001
40
0.125000000000001
40
0.187500000000001
40
0.187500000000001
40
0.250000000000002
40
0.250000000000002
40
0.312500000000003
40
0.312500000000003
40
0.375000000000003
40
0.375000000000003
40
0.437500000000004
40
0.437500000000004
40
0.500000000000004
40
0.500000000000004
40
0.562500000000004
40
0.562500000000004
40
0.593750000000004
40
0.593750000000004
40
0.609375000000004
40
0.609375000000004
40
0.625000000000004
40
0.625000000000004
40
0.687500000000004
40
0.687500000000004
40
0.750000000000003
40
0.750000000000003
40
0.812500000000002
40
0.812500000000002
40
0.875000000000002
40
0.875000000000002
40
0.937500000000001
40
0.937500000000001
40
1
40
1
40
1
40
1
41
1
10
92.9212401302727
20
9.7235
30
0
41
1
10
93.0054004489569
20
9.7235
30
0
41
1
10
93.089560767641
20
9.6900640595473
30
0
41
1
10
93.2578814050094
20
9.54575754674173
30
0
41
1
10
93.3420417236936
20
9.43481615199946
30
0
41
1
10
93.5103623610619
20
9.12890916391194
30
0
41
1
10
93.5945226797461
20
8.93388873327459
30
0
41
1
10
93.7628433171144
20
8.45930923441756
30
0
41
1
10
93.8470036357985
20
8.17973290679282
30
0
41
1
10
94.0153242731668
20
7.54276398550883
30
0
41
1
10
94.099484591851
20
7.18540431844943
30
0
41
1
10
94.2678052292193
20
6.40662732990367
30
0
41
1
10
94.3519655479035
20
5.98528812742586
30
0
41
1
10
94.5202861852718
20
5.09764282125445
30
0
41
1
10
94.604446503956
20
4.63143782487072
30
0
41
1
10
94.7727671413244
20
3.67569658493937
30
0
41
1
10
94.8569274600085
20
3.18625536228009
30
0
41
1
10
95.0252480973768
20
2.20516801316825
30
0
41
1
10
95.109408416061
20
1.71358820854138
30
0
41
1
10
95.2356488940873
20
0.988155245668736
30
0
41
1
10
95.2777290534293
20
0.748304076213032
30
0
41
1
10
95.3408492924424
20
0.392853208277899
30
0
41
1
10
95.3618893721135
20
0.275088310068611
30
0
41
1
10
95.4039695314556
20
0.0411993506369868
30
0
41
1
10
95.4250096111266
20
-0.0745882700741163
30
0
41
1
10
95.5302100094817
20
-0.660089394842771
30
0
41
1
10
95.6143703281659
20
-1.14164968131689
30
0
41
1
10
95.7826909655344
20
-2.11620454212965
30
0
41
1
10
95.8668512842185
20
-2.60915977910693
30
0
41
1
10
96.0351719215868
20
-3.58744064077348
30
0
41
1
10
96.119332240271
20
-4.07269059472978
30
0
41
1
10
96.2876528776393
20
-5.01405818825918
30
0
41
1
10
96.3718131963234
20
-5.470076406565
30
0
41
1
10
96.5401338336917
20
-6.33172939125461
30
0
41
1
10
96.6242941523759
20
-6.73726649034219
30
0
41
1
10
96.7926147897442
20
-7.48002197647614
30
0
41
1
10
96.8767751084284
20
-7.81717302018407
30
0
41
1
10
96.9609354271126
20
-8.11414596897924
30
0
0
SPLINE
5
F6
100
AcDbEntity
8
1
62
256
6
ByLayer
370
13
48
1
60
0
100
AcDbSpline
70
4
71
3
72
77
73
73
40
0
40
0
40
0
40
0
40
0.0078124999999995
40
0.0078124999999995
40
0.0156249999999989
40
0.0156249999999989
40
0.0312499999999984
40
0.0312499999999984
40
0.0624999999999973
40
0.0624999999999973
40
0.0937499999999962
40
0.0937499999999962
40
0.124999999999995
40
0.124999999999995
40
0.156249999999994
40
0.156249999999994
40
0.187499999999993
40
0.187499999999993
40
0.218749999999992
40
0.218749999999992
40
0.249999999999991
40
0.249999999999991
40
0.28124999999999
40
0.28124999999999
40
0.312499999999989
40
0.312499999999989
40
0.343749999999988
40
0.343749999999988
40
0.374999999999987
40
0.374999999999987
40
0.406249999999986
40
0.406249999999986
40
0.437499999999985
40
0.437499999999985
40
0.468749999999984
40
0.468749999999984
40
0.499999999999983
40
0.499999999999983
40
0.507812499999983
40
0.507812499999983
40
0.515624999999983
40
0.531249999999984
40
0.531249999999984
40
0.562499999999985
40
0.562499999999985
40
0.593749999999986
40
0.593749999999986
40
0.624999999999987
40
0.624999999999987
40
0.656249999999988
40
0.656249999999988
40
0.687499999999989
40
0.687499999999989
40
0.71874999999999
40
0.71874999999999
40
0.749999999999991
40
0.749999999999991
40
0.781249999999992
40
0.781249999999992
40
0.812499999999993
40
0.812499999999993
40
0.843749999999995
40
0.843749999999995
40
0.874999999999996
40
0.874999999999996
40
0.906249999999997
40
0.906249999999997
40
0.937499999999998
40
0.937499999999998
40
0.968749999999999
40
0.968749999999999
40
1
40
1
40
1
40
1
41
1
10
87
20
-9.72013157824915
30
0
41
1
10
87.0130900249088
20
-9.72205451340128
30
0
41
1
10
87.0261800498175
20
-9.72314558039599
30
0
41
1
10
87.0523600996351
20
-9.72370781883325
30
0
41
1
10
87.0654501245439
20
-9.72318429583387
30
0
41
1
10
87.1047201992702
20
-9.71914413864948
30
0
41
1
10
87.1309002490877
20
-9.71315267461947
30
0
41
1
10
87.2094403985404
20
-9.68477766201022
30
0
41
1
10
87.2618004981755
20
-9.65197608979329
30
0
41
1
10
87.3665206974458
20
-9.55625159086989
30
0
41
1
10
87.4188807970809
20
-9.49332203797033
30
0
41
1
10
87.5236009963511
20
-9.33561387738567
30
0
41
1
10
87.5759610959864
20
-9.24082939606126
30
0
41
1
10
87.6806812952565
20
-9.01851136242365
30
0
41
1
10
87.7330413948916
20
-8.89097351690486
30
0
41
1
10
87.8377615941619
20
-8.603232168754
30
0
41
1
10
87.8901216937969
20
-8.44302671066887
30
0
41
1
10
87.9948418930672
20
-8.09111351724178
30
0
41
1
10
88.0472019927023
20
-7.89940668472184
30
0
41
1
10
88.1519221919725
20
-7.48675159885275
30
0
41
1
10
88.2042822916076
20
-7.26580724853085
30
0
41
1
10
88.3090024908778
20
-6.79796350546891
30
0
41
1
10
88.361362590513
20
-6.55107070956979
30
0
41
1
10
88.4660827897832
20
-6.03548284191888
30
0
41
1
10
88.5184428894183
20
-5.76679633881275
30
0
41
1
10
88.6231630886886
20
-5.21240955702038
30
0
41
1
10
88.6755231883237
20
-4.92671881412249
30
0
41
1
10
88.7802433875939
20
-4.34347211390397
30
0
41
1
10
88.8326034872291
20
-4.04592556887857
30
0
41
1
10
88.9373236864993
20
-3.44418742572657
30
0
41
1
10
88.9896837861344
20
-3.14000414312557
30
0
41
1
10
89.0944039854046
20
-2.53001476558654
30
0
41
1
10
89.1467640850398
20
-2.22421518858383
30
0
41
1
10
89.2514842843099
20
-1.61559261075661
30
0
41
1
10
89.303844383945
20
-1.31277397588045
30
0
41
1
10
89.4085645832153
20
-0.71412550950123
30
0
41
1
10
89.4609246828505
20
-0.418297873858762
30
0
41
1
10
89.5263748073943
20
-0.0549606163446867
30
0
41
1
10
89.539464832303
20
0.0171763972869883
30
0
41
1
10
89.5656448821206
20
0.16228686841049
30
0
41
1
10
89.604914956847
20
0.380925785754414
30
0
41
1
10
89.6441850315733
20
0.602276590932433
30
0
41
1
10
89.722725181026
20
1.04797722369159
30
0
41
1
10
89.7750852806611
20
1.349130473576
30
0
41
1
10
89.8798054799313
20
1.95566506722145
30
0
41
1
10
89.9321655795665
20
2.26104269362745
30
0
41
1
10
90.0368857788367
20
2.87158926339208
30
0
41
1
10
90.0892458784718
20
3.1767522995562
30
0
41
1
10
90.193966077742
20
3.78195460636979
30
0
41
1
10
90.2463261773771
20
4.08198603126726
30
0
41
1
10
90.3510463766473
20
4.67173934955215
30
0
41
1
10
90.4034064762825
20
4.96145206148717
30
0
41
1
10
90.5081266755527
20
5.52536960653222
30
0
41
1
10
90.5604867751878
20
5.79956482862536
30
0
41
1
10
90.665206974458
20
6.32752213791468
30
0
41
1
10
90.7175670740932
20
6.58127526056157
30
0
41
1
10
90.8222872733634
20
7.06397911969245
30
0
41
1
10
90.8746473729985
20
7.29292258984194
30
0
41
1
10
90.9793675722688
20
7.72244134092392
30
0
41
1
10
91.0317276719038
20
7.92301187629249
30
0
41
1
10
91.136447871174
20
8.29320548279154
30
0
41
1
10
91.1888079708091
20
8.46282676573924
30
0
41
1
10
91.2935281700794
20
8.7696284115905
30
0
41
1
10
91.3458882697146
20
8.90680993035502
30
0
41
1
10
91.4506084689848
20
9.14833341710309
30
0
41
1
10
91.5029685686198
20
9.25267906326704
30
0
41
1
10
91.6076887678901
20
9.42915250283559
30
0
41
1
10
91.6600488675252
20
9.50128579181967
30
0
41
1
10
91.7647690667955
20
9.6148359925798
30
0
41
1
10
91.8171291664305
20
9.65625939342951
30
0
41
1
10
91.9218493657008
20
9.71058804959884
30
0
41
1
10
91.9742094653359
20
9.7235
30
0
41
1
10
92.0265695649711
20
9.7235
30
0
0
SPLINE
5
F7
100
AcDbEntity
8
1
62
256
6
ByLayer
370
13
48
1
60
0
100
AcDbSpline
70
4
71
3
72
44
73
40
40
0
40
0
40
0
40
0
40
0.0625000000000008
40
0.0625000000000008
40
0.125000000000002
40
0.125000000000002
40
0.187500000000002
40
0.187500000000002
40
0.250000000000003
40
0.250000000000003
40
0.312500000000004
40
0.312500000000004
40
0.375000000000005
40
0.375000000000005
40
0.437500000000006
40
0.437500000000006
40
0.500000000000007
40
0.500000000000007
40
0.531250000000007
40
0.531250000000007
40
0.546875000000007
40
0.546875000000007
40
0.554687500000007
40
0.554687500000007
40
0.562500000000007
40
0.562500000000007
40
0.625000000000006
40
0.625000000000006
40
0.687500000000005
40
0.687500000000005
40
0.750000000000004
40
0.750000000000004
40
0.812500000000003
40
0.812500000000003
40
0.875000000000002
40
0.875000000000002
40
0.937500000000001
40
0.937500000000001
40
1
40
1
40
1
40
1
41
1
10
92.4278034942539
20
9.7235
30
0
41
1
10
92.5222437428551
20
9.7235
30
0
41
1
10
92.6166839914563
20
9.68135156565225
30
0
41
1
10
92.8055644886587
20
9.4981205822528
30
0
41
1
10
92.90000473726
20
9.35691384727468
30
0
41
1
10
93.0888852344625
20
8.96760604994316
30
0
41
1
10
93.1833254830636
20
8.71942094578944
30
0
41
1
10
93.3722059802661
20
8.11842278818094
30
0
41
1
10
93.4666462288674
20
7.76561074956905
30
0
41
1
10
93.6555267260698
20
6.96925464158397
30
0
41
1
10
93.749966974671
20
6.52581138638678
30
0
41
1
10
93.9388474718735
20
5.57220493688632
30
0
41
1
10
94.0332877204746
20
5.06221110411818
30
0
41
1
10
94.222168217677
20
4.00541568155271
30
0
41
1
10
94.3166084662784
20
3.45879026099854
30
0
41
1
10
94.5054889634807
20
2.35911021086528
30
0
41
1
10
94.5999292120821
20
1.80618233433489
30
0
41
1
10
94.7415895849838
20
0.991548260414504
30
0
41
1
10
94.7888097092845
20
0.72241790653888
30
0
41
1
10
94.8596398957354
20
0.324297695340903
30
0
41
1
10
94.8832499578858
20
0.192516596588518
30
0
41
1
10
94.9186650511112
20
-0.0035552991277825
30
0
41
1
10
94.9304700821863
20
-0.0686660639136107
30
0
41
1
10
94.9540801443366
20
-0.199768942562741
30
0
41
1
10
94.9658851754118
20
-0.265580561159709
30
0
41
1
10
95.0721304550882
20
-0.860069365141129
30
0
41
1
10
95.1665707036893
20
-1.40433290285611
30
0
41
1
10
95.3554512008918
20
-2.50246367825039
30
0
41
1
10
95.4498914494931
20
-3.05624607897991
30
0
41
1
10
95.6387719466954
20
-4.14517770679927
30
0
41
1
10
95.7332121952967
20
-4.68017427576135
30
0
41
1
10
95.9220926924992
20
-5.70075136200384
30
0
41
1
10
96.0165329411003
20
-6.1861505520022
30
0
41
1
10
96.2054134383028
20
-7.07940010127342
30
0
41
1
10
96.299853686904
20
-7.48710347617853
30
0
41
1
10
96.4887341841064
20
-8.20465516121931
30
0
41
1
10
96.5831744327077
20
-8.51444354750203
30
0
41
1
10
96.7720549299102
20
-9.02696379298712
30
0
41
1
10
96.8664951785113
20
-9.22973463435503
30
0
41
1
10
96.9609354271126
20
-9.38008587976847
30
0
0
SPLINE
5
F8
100
AcDbEntity
8
1
62
256
6
ByLayer
370
13
48
1
60
0
100
AcDbSpline
70
4
71
3
72
8
73
4
40
0
40
0
40
0
40
0
40
1
40
1
40
1
40
1
41
1
10
96.9609354271125
20
-9.52344357162349
30
0
41
1
10
98.140623618075
20
-6.34664752298227
30
0
41
1
10
99.3203118090375
20
-3.17214645714043
30
0
41
1
10
100.5
20
2.274E-13
30
0
0
SPLINE
5
F9
100
AcDbEntity
8
1
62
256
6
ByLayer
370
13
48
1
60
0
100
AcDbSpline
70
4
71
3
72
8
73
4
40
0
40
0
40
0
40
0
40
1
40
1
40
1
40
1
41
1
10
96.9609354271125
20
-9.30952869594822
30
0
41
1
10
98.140623618075
20
-6.20966382323013
30
0
41
1
10
99.3203118090375
20
-3.10646815074807
30
0
41
1
10
100.5
20
2.274E-13
30
0
0
SPLINE
5
FA
100
AcDbEntity
8
1
62
256
6
ByLayer
370
13
48
1
60
0
100
AcDbSpline
70
4
71
3
72
8
73
4
40
0
40
0
40
0
40
0
40
1
40
1
40
1
40
1
41
1
10
96.9609354271125
20
2.02885772749465
30
0
41
1
10
98.140623618075
20
1.34135359839266
30
0
41
1
10
99.3203118090375
20
0.665063477417078
30
0
41
1
10
100.5
20
-5.68E-14
30
0
0
SPLINE
5
FB
100
AcDbEntity
8
1
62
256
6
ByLayer
370
13
48
1
60
0
100
AcDbSpline
70
4
71
3
72
8
73
4
40
0
40
0
40
0
40
0
40
1
40
1
40
1
40
1
41
1
10
96.9609354271125
20
9.07075621114893
30
0
41
1
10
98.1406236180752
20
6.04303889434709
30
0
41
1
10
99.3203118090379
20
3.01943456410504
30
0
41
1
10
100.500000000001
20
-1.3642E-12
30
0
0
SPLINE
5
FC
100
AcDbEntity
8
1
62
256
6
ByLayer
370
13
48
1
60
0
100
AcDbSpline
70
4
71
3
72
8
73
4
40
0
40
0
40
0
40
0
40
1
40
1
40
1
40
1
41
1
10
96.9609354271125
20
-6.85145369939508
30
0
41
1
10
98.140623618075
20
-4.57577513813581
30
0
41
1
10
99.3203118090375
20
-2.29194291897696
30
0
41
1
10
100.5
20
1.705E-13
30
0
0
SPLINE
5
FD
100
AcDbEntity
8
1
62
256
6
ByLayer
370
13
48
1
60
0
100
AcDbSpline
70
4
71
3
72
8
73
4
40
0
40
0
40
0
40
0
40
1
40
1
40
1
40
1
41
1
10
96.9609354271125
20
-8.75030378613951
30
0
41
1
10
98.140623618075
20
-5.82853383539046
30
0
41
1
10
99.3203118090374
20
-2.91174765091103
30
0
41
1
10
100.5
20
-3.695E-13
30
0
0
SPLINE
5
FE
100
AcDbEntity
8
1
62
256
6
ByLayer
370
13
48
1
60
0
100
AcDbSpline
70
4
71
3
72
8
73
4
40
0
40
0
40
0
40
0
40
1
40
1
40
1
40
1
41
1
10
96.9609354271126
20
-2.41960556267426
30
0
41
1
10
98.1406236180751
20
-1.60196049529398
30
0
41
1
10
99.3203118090375
20
-0.795420280015236
30
0
41
1
10
100.5
20
-2.84E-14
30
0
0
SPLINE
5
FF
100
AcDbEntity
8
1
62
256
6
ByLayer
370
13
48
1
60
0
100
AcDbSpline
70
4
71
3
72
8
73
4
40
0
40
0
40
0
40
0
40
1
40
1
40
1
40
1
41
1
10
96.9609354271125
20
-2.74176349605756
30
0
41
1
10
98.140623618075
20
-1.83884757508216
30
0
41
1
10
99.3203118090375
20
-0.924920663340913
30
0
41
1
10
100.5
20
5.68E-14
30
0
0
SPLINE
5
100
100
AcDbEntity
8
1
62
256
6
ByLayer
370
13
48
1
60
0
100
AcDbSpline
70
4
71
3
72
8
73
4
40
0
40
0
40
0
40
0
40
1
40
1
40
1
40
1
41
1
10
96.9609354271125
20
9.65302283172105
30
0
41
1
10
98.140623618075
20
6.43396998272206
30
0
41
1
10
99.3203118090375
20
3.2162755577306
30
0
41
1
10
100.5
20
-2.274E-13
30
0
0
SPLINE
5
101
100
AcDbEntity
8
1
62
256
6
ByLayer
370
13
48
1
60
0
100
AcDbSpline
70
4
71
3
72
8
73
4
40
0
40
0
40
0
40
0
40
1
40
1
40
1
40
1
41
1
10
96.9609354271126
20
9.18574643590668
30
0
41
1
10
98.1406236180751
20
6.1275927597793
30
0
41
1
10
99.3203118090375
20
3.06565809809894
30
0
41
1
10
100.5
20
0
30
0
0
SPLINE
5
102
100
AcDbEntity
8
1
62
256
6
ByLayer
370
13
48
1
60
0
100
AcDbSpline
70
4
71
3
72
8
73
4
40
0
40
0
40
0
40
0
40
1
40
1
40
1
40
1
41
1
10
96.9609354271125
20
7.17699034454492
30
0
41
1
10
98.140623618075
20
4.77692114591517
30
0
41
1
10
99.3203118090375
20
2.38457606529667
30
0
41
1
10
100.5
20
-1.705E-13
30
0
0
SPLINE
5
103
100
AcDbEntity
8
1
62
256
6
ByLayer
370
13
48
1
60
0
100
AcDbSpline
70
4
71
3
72
8
73
4
40
0
40
0
40
0
40
0
40
1
40
1
40
1
40
1
41
1
10
96.9609354271125
20
6.31040138851031
30
0
41
1
10
98.140623618075
20
4.19820733379373
30
0
41
1
10
99.3203118090375
20
2.09472704958159
30
0
41
1
10
100.5
20
-1.421E-13
30
0
0
SPLINE
5
104
100
AcDbEntity
8
1
62
256
6
ByLayer
370
13
48
1
60
0
100
AcDbSpline
70
4
71
3
72
8
73
4
40
0
40
0
40
0
40
0
40
1
40
1
40
1
40
1
41
1
10
96.9609354271126
20
4.59834173228535
30
0
41
1
10
98.1406236180751
20
3.07566810928933
30
0
41
1
10
99.3203118090375
20
1.54287791175113
30
0
41
1
10
100.5
20
5.68E-14
30
0
0
SPLINE
5
105
100
AcDbEntity
8
1
62
256
6
ByLayer
370
13
48
1
60
0
100
AcDbSpline
70
4
71
3
72
8
73
4
40
0
40
0
40
0
40
0
40
1
40
1
40
1
40
1
41
1
10
96.9609354271126
20
1.16936582599388
30
0
41
1
10
98.1406236180751
20
0.790964663528172
30
0
41
1
10
99.3203118090376
20
0.401173590047961
30
0
41
1
10
100.5
20
-2.84E-14
30
0
0
SPLINE
5
106
100
AcDbEntity
8
1
62
256
6
ByLayer
370
13
48
1
60
0
100
AcDbSpline
70
4
71
3
72
8
73
4
40
0
40
0
40
0
40
0
40
1
40
1
40
1
40
1
41
1
10
96.9609354271125
20
8.56784910873975
30
0
41
1
10
98.1406236180752
20
5.70647560877427
30
0
41
1
10
99.3203118090379
20
2.85050803184774
30
0
41
1
10
100.500000000001
20
-1.3074E-12
30
0
0
SPLINE
5
107
100
AcDbEntity
8
1
62
256
6
ByLayer
370
13
48
1
60
0
100
AcDbSpline
70
4
71
3
72
8
73
4
40
0
40
0
40
0
40
0
40
1
40
1
40
1
40
1
41
1
10
96.9609354271125
20
-0.367704939507462
30
0
41
1
10
98.140623618075
20
-0.256599119646182
30
0
41
1
10
99.3203118090375
20
-0.134030014967209
30
0
41
1
10
100.5
20
0
30
0
0
SPLINE
5
108
100
AcDbEntity
8
1
62
256
6
ByLayer
370
13
48
1
60
0
100
AcDbSpline
70
4
71
3
72
8
73
4
40
0
40
0
40
0
40
0
40
1
40
1
40
1
40
1
41
1
10
96.9609354271125
20
9.43434226898745
30
0
41
1
10
98.140623618075
20
6.28678494709612
30
0
41
1
10
99.3203118090375
20
3.14198450242856
30
0
41
1
10
100.5
20
-2.274E-13
30
0
0
SPLINE
5
109
100
AcDbEntity
8
1
62
256
6
ByLayer
370
13
48
1
60
0
100
AcDbSpline
70
4
71
3
72
8
73
4
40
0
40
0
40
0
40
0
40
1
40
1
40
1
40
1
41
1
10
96.9609354271125
20
3.18954917013175
30
0
41
1
10
98.140623618075
20
2.11553009922426
30
0
41
1
10
99.3203118090375
20
1.05234040696851
30
0
41
1
10
100.5
20
-8.53E-14
30
0
0
SPLINE
5
10A
100
AcDbEntity
8
1
62
256
6
ByLayer
370
13
48
1
60
0
100
AcDbSpline
70
4
71
3
72
8
73
4
40
0
40
0
40
0
40
0
40
1
40
1
40
1
40
1
41
1
10
96.9609354271125
20
-8.89082604164759
30
0
41
1
10
98.1406236180751
20
-5.93186174789238
30
0
41
1
10
99.3203118090377
20
-2.96823449810034
30
0
41
1
10
100.5
20
7.674E-13
30
0
0
SPLINE
5
10B
100
AcDbEntity
8
1
62
256
6
ByLayer
370
13
48
1
60
0
100
AcDbSpline
70
4
71
3
72
8
73
4
40
0
40
0
40
0
40
0
40
1
40
1
40
1
40
1
41
1
10
96.9609354271125
20
6.56085594437212
30
0
41
1
10
98.140623618075
20
4.38236995159642
30
0
41
1
10
99.3203118090375
20
2.19540425671787
30
0
41
1
10
100.5
20
5.68E-14
30
0
0
SPLINE
5
10C
100
AcDbEntity
8
1
62
256
6
ByLayer
370
13
48
1
60
0
100
AcDbSpline
70
4
71
3
72
8
73
4
40
0
40
0
40
0
40
0
40
1
40
1
40
1
40
1
41
1
10
96.9609354271125
20
7.39816131534991
30
0
41
1
10
98.140623618075
20
4.93955114809361
30
0
41
1
10
99.3203118090375
20
2.47348191715324
30
0
41
1
10
100.5
20
-5.68E-14
30
0
0
SPLINE
5
10D
100
AcDbEntity
8
1
62
256
6
ByLayer
370
13
48
1
60
0
100
AcDbSpline
70
4
71
3
72
8
73
4
40
0
40
0
40
0
40
0
40
1
40
1
40
1
40
1
41
1
10
96.9609354271125
20
-9.6930281060589
30
0
41
1
10
98.1406236180751
20
-6.46111132907959
30
0
41
1
10
99.3203118090377
20
-3.23008172814761
30
0
41
1
10
100.5
20
8.527E-13
30
0
0
SPLINE
5
10E
100
AcDbEntity
8
1
62
256
6
ByLayer
370
13
48
1
60
0
100
AcDbSpline
70
4
71
3
72
8
73
4
40
0
40
0
40
0
40
0
40
1
40
1
40
1
40
1
41
1
10
96.9609354271125
20
-3.8746487631258
30
0
41
1
10
98.140623618075
20
-2.59361982156446
30
0
41
1
10
99.3203118090375
20
-1.30206212358735
30
0
41
1
10
100.5
20
8.53E-14
30
0
0
SPLINE
5
10F
100
AcDbEntity
8
1
62
256
6
ByLayer
370
13
48
1
60
0
100
AcDbSpline
70
4
71
3
72
8
73
4
40
0
40
0
40
0
40
0
40
1
40
1
40
1
40
1
41
1
10
96.9609354271125
20
-1.56676648600509
30
0
41
1
10
98.140623618075
20
-1.05583179972496
30
0
41
1
10
99.3203118090375
20
-0.533573010141879
30
0
41
1
10
100.5
20
2.84E-14
30
0
0
SPLINE
5
110
100
AcDbEntity
8
1
62
256
6
ByLayer
370
13
48
1
60
0
100
AcDbSpline
70
4
71
3
72
8
73
4
40
0
40
0
40
0
40
0
40
1
40
1
40
1
40
1
41
1
10
96.9609354271125
20
-9.58524291221917
30
0
41
1
10
98.140623618075
20
-6.39208941284295
30
0
41
1
10
99.3203118090375
20
-3.19698842894093
30
0
41
1
10
100.5
20
2.274E-13
30
0
0
SPLINE
5
111
100
AcDbEntity
8
1
62
256
6
ByLayer
370
13
48
1
60
0
100
AcDbSpline
70
4
71
3
72
8
73
4
40
0
40
0
40
0
40
0
40
1
40
1
40
1
40
1
41
1
10
96.9609354271125
20
-8.15862347032299
30
0
41
1
10
98.140623618075
20
-5.43284185051226
30
0
41
1
10
99.3203118090375
20
-2.71328367568591
30
0
41
1
10
100.5
20
1.99E-13
30
0
0
SPLINE
5
112
100
AcDbEntity
8
1
62
256
6
ByLayer
370
13
48
1
60
0
100
AcDbSpline
70
4
71
3
72
8
73
4
40
0
40
0
40
0
40
0
40
1
40
1
40
1
40
1
41
1
10
96.9609354271125
20
8.1218356352484
30
0
41
1
10
98.140623618075
20
5.42086398150809
30
0
41
1
10
99.3203118090375
20
2.71356846897518
30
0
41
1
10
100.5
20
-5.68E-14
30
0
0
SPLINE
5
113
100
AcDbEntity
8
1
62
256
6
ByLayer
370
13
48
1
60
0
100
AcDbSpline
70
4
71
3
72
8
73
4
40
0
40
0
40
0
40
0
40
1
40
1
40
1
40
1
41
1
10
96.9609354271125
20
-5.94539654908385
30
0
41
1
10
98.140623618075
20
-3.97267430282883
30
0
41
1
10
99.3203118090375
20
-1.99086302320623
30
0
41
1
10
100.5
20
1.421E-13
30
0
0
SPLINE
5
114
100
AcDbEntity
8
1
62
256
6
ByLayer
370
13
48
1
60
0
100
AcDbSpline
70
4
71
3
72
8
73
4
40
0
40
0
40
0
40
0
40
1
40
1
40
1
40
1
41
1
10
96.9609354271125
20
4.30125116671294
30
0
41
1
10
98.140623618075
20
2.85721340363611
30
0
41
1
10
99.3203118090375
20
1.42345405736992
30
0
41
1
10
100.5
20
-8.53E-14
30
0
0
SPLINE
5
115
100
AcDbEntity
8
1
62
256
6
ByLayer
370
13
48
1
60
0
100
AcDbSpline
70
4
71
3
72
8
73
4
40
0
40
0
40
0
40
0
40
1
40
1
40
1
40
1
41
1
10
96.9609354271125
20
-8.33556595570786
30
0
41
1
10
98.140623618075
20
-5.56295004996926
30
0
41
1
10
99.3203118090375
20
-2.78441065195904
30
0
41
1
10
100.5
20
1.99E-13
30
0
0
SPLINE
5
116
100
AcDbEntity
8
1
62
256
6
ByLayer
370
13
48
1
60
0
100
AcDbSpline
70
4
71
3
72
8
73
4
40
0
40
0
40
0
40
0
40
1
40
1
40
1
40
1
41
1
10
96.9609354271125
20
-9.20758500276105
30
0
41
1
10
98.140623618075
20
-6.13470324868132
30
0
41
1
10
99.3203118090374
20
-3.06548903467723
30
0
41
1
10
100.5
20
-3.695E-13
30
0
0
SPLINE
5
117
100
AcDbEntity
8
1
62
256
6
ByLayer
370
13
48
1
60
0
100
AcDbSpline
70
4
71
3
72
8
73
4
40
0
40
0
40
0
40
0
40
1
40
1
40
1
40
1
41
1
10
96.9609354271125
20
0.83700432092644
30
0
41
1
10
98.140623618075
20
0.546574759661468
30
0
41
1
10
99.3203118090375
20
0.267571595967183
30
0
41
1
10
100.5
20
-2.84E-14
30
0
0
SPLINE
5
118
100
AcDbEntity
8
1
62
256
6
ByLayer
370
13
48
1
60
0
100
AcDbSpline
70
4
71
3
72
8
73
4
40
0
40
0
40
0
40
0
40
1
40
1
40
1
40
1
41
1
10
96.9609354271126
20
3.50327586091882
30
0
41
1
10
98.1406236180751
20
2.34621757245114
30
0
41
1
10
99.3203118090375
20
1.17845161674006
30
0
41
1
10
100.5
20
2.84E-14
30
0
0
SPLINE
5
119
100
AcDbEntity
8
1
62
256
6
ByLayer
370
13
48
1
60
0
100
AcDbSpline
70
4
71
3
72
8
73
4
40
0
40
0
40
0
40
0
40
1
40
1
40
1
40
1
41
1
10
96.9609354271126
20
-0.0336309642661661
30
0
41
1
10
98.1406236180751
20
-0.0109500133304152
30
0
41
1
10
99.3203118090375
20
0.0002603543512123
30
0
41
1
10
100.5
20
0
30
0
0
SPLINE
5
11A
100
AcDbEntity
8
1
62
256
6
ByLayer
370
13
48
1
60
0
100
AcDbSpline
70
4
71
3
72
8
73
4
40
0
40
0
40
0
40
0
40
1
40
1
40
1
40
1
41
1
10
96.9609354271126
20
-1.23611120431116
30
0
41
1
10
98.140623618075
20
-0.812696504950708
30
0
41
1
10
99.3203118090374
20
-0.400656880222812
30
0
41
1
10
100.5
20
-5.68E-14
30
0
0
SPLINE
5
11B
100
AcDbEntity
8
1
62
256
6
ByLayer
370
13
48
1
60
0
100
AcDbSpline
70
4
71
3
72
8
73
4
40
0
40
0
40
0
40
0
40
1
40
1
40
1
40
1
41
1
10
96.9609354271125
20
-9.71373389550843
30
0
41
1
10
98.1406236180751
20
-6.47633657573388
30
0
41
1
10
99.3203118090377
20
-3.23840499879506
30
0
41
1
10
100.5
20
8.527E-13
30
0
0
SPLINE
5
11C
100
AcDbEntity
8
1
62
256
6
ByLayer
370
13
48
1
60
0
100
AcDbSpline
70
4
71
3
72
8
73
4
40
0
40
0
40
0
40
0
40
1
40
1
40
1
40
1
41
1
10
96.9609354271125
20
5.62278000011796
30
0
41
1
10
98.1406236180751
20
3.75787834071483
30
0
41
1
10
99.3203118090375
20
1.88360658361953
30
0
41
1
10
100.5
20
-1.421E-13
30
0
0
SPLINE
5
11D
100
AcDbEntity
8
1
62
256
6
ByLayer
370
13
48
1
60
0
100
AcDbSpline
70
4
71
3
72
8
73
4
40
0
40
0
40
0
40
0
40
1
40
1
40
1
40
1
41
1
10
96.9609354271125
20
5.3468886818377
30
0
41
1
10
98.140623618075
20
3.55501172793279
30
0
41
1
10
99.3203118090375
20
1.77270435905433
30
0
41
1
10
100.5
20
-1.137E-13
30
0
0
SPLINE
5
11E
100
AcDbEntity
8
1
62
256
6
ByLayer
370
13
48
1
60
0
100
AcDbSpline
70
4
71
3
72
8
73
4
40
0
40
0
40
0
40
0
40
1
40
1
40
1
40
1
41
1
10
96.9609354271125
20
-7.65227687979163
30
0
41
1
10
98.140623618075
20
-5.10859497843811
30
0
41
1
10
99.3203118090374
20
-2.55782002965103
30
0
41
1
10
100.5
20
-3.126E-13
30
0
0
SPLINE
5
11F
100
AcDbEntity
8
1
62
256
6
ByLayer
370
13
48
1
60
0
100
AcDbSpline
70
4
71
3
72
8
73
4
40
0
40
0
40
0
40
0
40
1
40
1
40
1
40
1
41
1
10
96.9609354271125
20
-6.61034157531824
30
0
41
1
10
98.140623618075
20
-4.39848213661242
30
0
41
1
10
99.3203118090375
20
-2.1950211633507
30
0
41
1
10
100.5
20
1.421E-13
30
0
0
SPLINE
5
120
100
AcDbEntity
8
1
62
256
6
ByLayer
370
13
48
1
60
0
100
AcDbSpline
70
4
71
3
72
8
73
4
40
0
40
0
40
0
40
0
40
1
40
1
40
1
40
1
41
1
10
96.9609354271126
20
9.68747536145992
30
0
41
1
10
98.1406236180751
20
6.45930339318778
30
0
41
1
10
99.3203118090375
20
3.23012471476025
30
0
41
1
10
100.5
20
0
30
0
0
SPLINE
5
121
100
AcDbEntity
8
1
62
256
6
ByLayer
370
13
48
1
60
0
100
AcDbSpline
70
4
71
3
72
8
73
4
40
0
40
0
40
0
40
0
40
1
40
1
40
1
40
1
41
1
10
96.9609354271125
20
-5.67752062101735
30
0
41
1
10
98.140623618075
20
-3.77570151473447
30
0
41
1
10
99.3203118090375
20
-1.88318280871008
30
0
41
1
10
100.5
20
1.421E-13
30
0
0
SPLINE
5
122
100
AcDbEntity
8
1
62
256
6
ByLayer
370
13
48
1
60
0
100
AcDbSpline
70
4
71
3
72
8
73
4
40
0
40
0
40
0
40
0
40
1
40
1
40
1
40
1
41
1
10
96.9609354271125
20
-7.44163188853429
30
0
41
1
10
98.140623618075
20
-4.95370487119482
30
0
41
1
10
99.3203118090375
20
-2.47314538939895
30
0
41
1
10
100.5
20
1.705E-13
30
0
0
SPLINE
5
123
100
AcDbEntity
8
1
62
256
6
ByLayer
370
13
48
1
60
0
100
AcDbSpline
70
4
71
3
72
8
73
4
40
0
40
0
40
0
40
0
40
1
40
1
40
1
40
1
41
1
10
96.9609354271125
20
-4.94802189025143
30
0
41
1
10
98.140623618075
20
-3.30855571765346
30
0
41
1
10
99.3203118090375
20
-1.65920473798994
30
0
41
1
10
100.5
20
1.137E-13
30
0
0
SPLINE
5
124
100
AcDbEntity
8
1
62
256
6
ByLayer
370
13
48
1
60
0
100
AcDbSpline
70
4
71
3
72
8
73
4
40
0
40
0
40
0
40
0
40
1
40
1
40
1
40
1
41
1
10
96.9609354271126
20
-3.56593631895242
30
0
41
1
10
98.1406236180751
20
-2.3666193915999
30
0
41
1
10
99.3203118090376
20
-1.1779665303545
30
0
41
1
10
100.5
20
8.53E-14
30
0
0
SPLINE
5
125
100
AcDbEntity
8
1
62
256
6
ByLayer
370
13
48
1
60
0
100
AcDbSpline
70
4
71
3
72
8
73
4
40
0
40
0
40
0
40
0
40
1
40
1
40
1
40
1
41
1
10
96.9609354271125
20
7.93334529490241
30
0
41
1
10
98.140623618075
20
5.2822644883218
30
0
41
1
10
99.3203118090375
20
2.63779950972065
30
0
41
1
10
100.5
20
-1.705E-13
30
0
0
SPLINE
5
126
100
AcDbEntity
8
1
62
256
6
ByLayer
370
13
48
1
60
0
100
AcDbSpline
70
4
71
3
72
8
73
4
40
0
40
0
40
0
40
0
40
1
40
1
40
1
40
1
41
1
10
96.9609354271126
20
8.72076372691689
30
0
41
1
10
98.1406236180751
20
5.81891579293068
30
0
41
1
10
99.3203118090375
20
2.91197633549115
30
0
41
1
10
100.5
20
0
30
0
0
SPLINE
5
127
100
AcDbEntity
8
1
62
256
6
ByLayer
370
13
48
1
60
0
100
AcDbSpline
70
4
71
3
72
8
73
4
40
0
40
0
40
0
40
0
40
1
40
1
40
1
40
1
41
1
10
96.9609354271126
20
2.35440190111945
30
0
41
1
10
98.1406236180751
20
1.58073062636822
30
0
41
1
10
99.3203118090375
20
0.795925054629066
30
0
41
1
10
100.5
20
2.84E-14
30
0
0
SPLINE
5
128
100
AcDbEntity
8
1
62
256
6
ByLayer
370
13
48
1
60
0
100
AcDbSpline
70
4
71
3
72
8
73
4
40
0
40
0
40
0
40
0
40
1
40
1
40
1
40
1
41
1
10
96.9609354271125
20
-4.65749656202718
30
0
41
1
10
98.140623618075
20
-3.09492851969876
30
0
41
1
10
99.3203118090375
20
-1.54241996421217
30
0
41
1
10
100.5
20
1.137E-13
30
0
0
SPLINE
5
129
100
AcDbEntity
8
1
62
256
6
ByLayer
370
13
48
1
60
0
100
AcDbSpline
70
4
71
3
72
8
73
4
40
0
40
0
40
0
40
0
40
1
40
1
40
1
40
1
41
1
10
96.9609354271126
20
9.50964192363051
30
0
41
1
10
98.1406236180751
20
6.34215380022403
30
0
41
1
10
99.3203118090375
20
3.17225330269747
30
0
41
1
10
100.5
20
0
30
0
0
LINE
5
7D
100
AcDbEntity
8
80
62
256
6
ByLayer
370
18
48
1
60
0
100
AcDbLine
10
0
20
0
30
0
11
-5
21
0
31
0
39
0
210
0
220
0
230
1
0
LINE
5
7E
100
AcDbEntity
8
4
62
256
6
ByLayer
370
18
48
0.05
60
0
100
AcDbLine
10
-5
20
0
30
0
11
105.5
21
0
31
0
39
0
210
0
220
0
230
1
0
LINE
5
80
100
AcDbEntity
8
81
62
256
6
ByLayer
370
18
48
1
60
0
100
AcDbLine
10
100.5
20
0
30
0
11
105.5
21
0
31
0
39
0
210
0
220
0
230
1
0
LINE
5
81
100
AcDbEntity
8
SK4
62
256
6
ByLayer
370
18
48
0.05
60
0
100
AcDbLine
10
-61
20
0
30
0
11
105.5
21
0
31
0
39
0
210
0
220
0
230
1
0
LINE
5
83
100
AcDbEntity
8
1
62
256
6
ByLayer
370
18
48
1
60
0
100
AcDbLine
10
10
20
-9.2
30
0
11
50.644639
21
-9.2
31
0
39
0
210
0
220
0
230
1
0
LINE
5
84
100
AcDbEntity
8
1
62
256
6
ByLayer
370
18
48
1
60
0
100
AcDbLine
10
50.644639
20
9.2
30
0
11
10
21
9.2
31
0
39
0
210
0
220
0
230
1
0
LINE
5
85
100
AcDbEntity
8
1
62
256
6
ByLayer
370
18
48
1
60
0
100
AcDbLine
10
100.5
20
0
30
0
11
96.960935
21
9.7235
31
0
39
0
210
0
220
0
230
1
0
LINE
5
86
100
AcDbEntity
8
1
62
256
6
ByLayer
370
18
48
1
60
0
100
AcDbLine
10
96.960935
20
-9.7235
30
0
11
100.5
21
0
31
0
39
0
210
0
220
0
230
1
0
LINE
5
87
100
AcDbEntity
8
1
62
256
6
ByLayer
370
18
48
1
60
0
100
AcDbLine
10
10
20
9.2
30
0
11
0
21
12.7
31
0
39
0
210
0
220
0
230
1
0
LINE
5
88
100
AcDbEntity
8
1
62
256
6
ByLayer
370
18
48
1
60
0
100
AcDbLine
10
0
20
-12.7
30
0
11
10
21
-9.2
31
0
39
0
210
0
220
0
230
1
0
LINE
5
89
100
AcDbEntity
8
1
62
256
6
ByLayer
370
18
48
1
60
0
100
AcDbLine
10
87
20
-9.7235
30
0
11
96.960935
21
-9.7235
31
0
39
0
210
0
220
0
230
1
0
LINE
5
8A
100
AcDbEntity
8
1
62
256
6
ByLayer
370
18
48
1
60
0
100
AcDbLine
10
100.5
20
0
30
0
11
96.960935
21
9.7235
31
0
39
0
210
0
220
0
230
1
0
LINE
5
8B
100
AcDbEntity
8
1
62
256
6
ByLayer
370
18
48
1
60
0
100
AcDbLine
10
96.960935
20
-9.7235
30
0
11
100.5
21
0
31
0
39
0
210
0
220
0
230
1
0
LINE
5
8C
100
AcDbEntity
8
SK1
62
256
6
ByLayer
370
18
48
1
60
0
100
AcDbLine
10
-55
20
-12.7
30
0
11
0
21
-12.7
31
0
39
0
210
0
220
0
230
1
0
LINE
5
8E
100
AcDbEntity
8
SK1
62
256
6
ByLayer
370
18
48
1
60
0
100
AcDbLine
10
0
20
12.7
30
0
11
-55
21
12.7
31
0
39
0
210
0
220
0
230
1
0
LINE
5
8F
100
AcDbEntity
8
SK1
62
256
6
ByLayer
370
18
48
1
60
0
100
AcDbLine
10
-56
20
-11.7
30
0
11
-55
21
-12.7
31
0
39
0
210
0
220
0
230
1
0
LINE
5
90
100
AcDbEntity
8
SK1
62
256
6
ByLayer
370
18
48
1
60
0
100
AcDbLine
10
-55
20
12.7
30
0
11
-56
21
11.7
31
0
39
0
210
0
220
0
230
1
0
LINE
5
91
100
AcDbEntity
8
1
62
256
6
ByLayer
370
18
48
1
60
0
100
AcDbLine
10
0
20
12.7
30
0
11
0
21
-12.7
31
0
39
0
210
0
220
0
230
1
0
LINE
5
92
100
AcDbEntity
8
1
62
256
6
ByLayer
370
18
48
1
60
0
100
AcDbLine
10
96.960935
20
9.7235
30
0
11
96.960935
21
9.414756
31
0
39
0
210
0
220
0
230
1
0
LINE
5
93
100
AcDbEntity
8
1
62
256
6
ByLayer
370
18
48
1
60
0
100
AcDbLine
10
96.960935
20
-9.7235
30
0
11
96.960935
21
-1.388194
31
0
39
0
210
0
220
0
230
1
0
LINE
5
94
100
AcDbEntity
8
1
62
256
6
ByLayer
370
18
48
1
60
0
100
AcDbLine
10
10
20
-9.2
30
0
11
10
21
-0.119361
31
0
39
0
210
0
220
0
230
1
0
LINE
5
95
100
AcDbEntity
8
1
62
256
6
ByLayer
370
18
48
1
60
0
100
AcDbLine
10
10
20
9.2
30
0
11
10
21
8.680483
31
0
39
0
210
0
220
0
230
1
0
LINE
5
96
100
AcDbEntity
8
SK1
62
256
6
ByLayer
370
18
48
1
60
0
100
AcDbLine
10
-9.573685
20
-7.42967
30
0
11
-9.573685
21
7.42967
31
0
39
0
210
0
220
0
230
1
0
LINE
5
97
100
AcDbEntity
8
SK1
62
256
6
ByLayer
370
18
48
1
60
0
100
AcDbLine
10
0
20
12.7
30
0
11
0
21
-12.7
31
0
39
0
210
0
220
0
230
1
0
LINE
5
98
100
AcDbEntity
8
SK1
62
256
6
ByLayer
370
18
48
1
60
0
100
AcDbLine
10
-9.573685
20
-7.42967
30
0
11
-46.761964
21
-7.42967
31
0
39
0
210
0
220
0
230
1
0
LINE
5
99
100
AcDbEntity
8
SK1
62
256
6
ByLayer
370
18
48
1
60
0
100
AcDbLine
10
-46.761964
20
7.42967
30
0
11
-9.573685
21
7.42967
31
0
39
0
210
0
220
0
230
1
0
LINE
5
9A
100
AcDbEntity
8
SK1
62
256
6
ByLayer
370
18
48
1
60
0
100
AcDbLine
10
-56
20
-11.7
30
0
11
-56
21
11.7
31
0
39
0
210
0
220
0
230
1
0
LINE
5
9B
100
AcDbEntity
8
SK1
62
256
6
ByLayer
370
18
48
1
60
0
100
AcDbLine
10
-55
20
-12.7
30
0
11
-55
21
12.7
31
0
39
0
210
0
220
0
230
1
0
LINE
5
9C
100
AcDbEntity
8
SK1
62
256
6
ByLayer
370
18
48
1
60
0
100
AcDbLine
10
-46.761964
20
-7.42967
30
0
11
-46.761964
21
7.42967
31
0
39
0
210
0
220
0
230
1
0
LINE
5
9D
100
AcDbEntity
8
1
62
256
6
ByLayer
370
18
48
1
60
0
100
AcDbLine
10
96.960935
20
9.7235
30
0
11
96.960935
21
-9.7235
31
0
39
0
210
0
220
0
230
1
0
LINE
5
9E
100
AcDbEntity
8
1
62
256
6
ByLayer
370
18
48
1
60
0
100
AcDbLine
10
96.960935
20
9.7235
30
0
11
96.960935
21
-9.7235
31
0
39
0
210
0
220
0
230
1
0
LINE
5
9F
100
AcDbEntity
8
1
62
256
6
ByLayer
370
18
48
1
60
0
100
AcDbLine
10
96.960935
20
9.7235
30
0
11
96.960935
21
-9.7235
31
0
39
0
210
0
220
0
230
1
0
LINE
5
A0
100
AcDbEntity
8
1
62
256
6
ByLayer
370
18
48
1
60
0
100
AcDbLine
10
87
20
9.7235
30
0
11
87
21
-9.7235
31
0
39
0
210
0
220
0
230
1
0
LINE
5
A1
100
AcDbEntity
8
1
62
256
6
ByLayer
370
18
48
1
60
0
100
AcDbLine
10
87
20
9.7235
30
0
11
87
21
-9.7235
31
0
39
0
210
0
220
0
230
1
0
LINE
5
A2
100
AcDbEntity
8
1
62
256
6
ByLayer
370
18
48
1
60
0
100
AcDbLine
10
96.960935
20
9.7235
30
0
11
96.960935
21
-9.7235
31
0
39
0
210
0
220
0
230
1
0
LINE
5
A3
100
AcDbEntity
8
1
62
256
6
ByLayer
370
18
48
1
60
0
100
AcDbLine
10
87
20
9.7235
30
0
11
87
21
-9.7235
31
0
39
0
210
0
220
0
230
1
0
LINE
5
A4
100
AcDbEntity
8
1
62
256
6
ByLayer
370
18
48
1
60
0
100
AcDbLine
10
96.960935
20
9.7235
30
0
11
96.960935
21
-9.7235
31
0
39
0
210
0
220
0
230
1
0
LINE
5
A5
100
AcDbEntity
8
SK2
62
256
6
ByLayer
370
13
48
1
60
0
100
AcDbLine
10
-62.5
20
-12.7
30
0
11
-62.5
21
42.040455
31
0
39
0
210
0
220
0
230
1
0
LINE
5
A7
100
AcDbEntity
8
SK2
62
256
6
ByLayer
370
13
48
1
60
0
100
AcDbLine
10
-57.5875
20
12.7
30
0
11
-64.5
21
12.7
31
0
39
0
210
0
220
0
230
1
0
LINE
5
A8
100
AcDbEntity
8
SK2
62
256
6
ByLayer
370
13
48
1
60
0
100
AcDbLine
10
-57.5875
20
-12.7
30
0
11
-64.5
21
-12.7
31
0
39
0
210
0
220
0
230
1
0
LINE
5
A9
100
AcDbEntity
8
1
62
256
6
ByLayer
370
18
48
1
60
1
100
AcDbLine
10
-62.5
20
12.7
30
0
11
-62.039216
21
9.200002
31
0
39
0
210
0
220
0
230
1
0
LINE
5
AA
100
AcDbEntity
8
1
62
256
6
ByLayer
370
18
48
1
60
1
100
AcDbLine
10
-62.039216
20
9.200002
30
0
11
-62.960784
21
9.199998
31
0
39
0
210
0
220
0
230
1
0
LINE
5
AB
100
AcDbEntity
8
1
62
256
6
ByLayer
370
18
48
1
60
1
100
AcDbLine
10
-62.960784
20
9.199998
30
0
11
-62.5
21
12.7
31
0
39
0
210
0
220
0
230
1
0
LINE
5
AC
100
AcDbEntity
8
1
62
256
6
ByLayer
370
18
48
1
60
1
100
AcDbLine
10
-62.5
20
-12.7
30
0
11
-62.960784
21
-9.200002
31
0
39
0
210
0
220
0
230
1
0
LINE
5
AD
100
AcDbEntity
8
1
62
256
6
ByLayer
370
18
48
1
60
1
100
AcDbLine
10
-62.960784
20
-9.200002
30
0
11
-62.039216
21
-9.199998
31
0
39
0
210
0
220
0
230
1
0
LINE
5
AE
100
AcDbEntity
8
1
62
256
6
ByLayer
370
18
48
1
60
1
100
AcDbLine
10
-62.039216
20
-9.199998
30
0
11
-62.5
21
-12.7
31
0
39
0
210
0
220
0
230
1
0
LINE
5
AF
100
AcDbEntity
8
2
62
256
6
ByLayer
370
13
48
1
60
0
100
AcDbLine
10
108
20
-9.7235
30
0
11
108
21
38.629955
31
0
39
0
210
0
220
0
230
1
0
LINE
5
B1
100
AcDbEntity
8
2
62
256
6
ByLayer
370
13
48
1
60
0
100
AcDbLine
10
98.548435
20
9.7235
30
0
11
110
21
9.7235
31
0
39
0
210
0
220
0
230
1
0
LINE
5
B2
100
AcDbEntity
8
2
62
256
6
ByLayer
370
13
48
1
60
0
100
AcDbLine
10
98.548435
20
-9.7235
30
0
11
110
21
-9.7235
31
0
39
0
210
0
220
0
230
1
0
LINE
5
B3
100
AcDbEntity
8
1
62
256
6
ByLayer
370
18
48
1
60
1
100
AcDbLine
10
108
20
9.7235
30
0
11
108.460784
21
6.223502
31
0
39
0
210
0
220
0
230
1
0
LINE
5
B4
100
AcDbEntity
8
1
62
256
6
ByLayer
370
18
48
1
60
1
100
AcDbLine
10
108.460784
20
6.223502
30
0
11
107.539216
21
6.223498
31
0
39
0
210
0
220
0
230
1
0
LINE
5
B5
100
AcDbEntity
8
1
62
256
6
ByLayer
370
18
48
1
60
1
100
AcDbLine
10
107.539216
20
6.223498
30
0
11
108
21
9.7235
31
0
39
0
210
0
220
0
230
1
0
LINE
5
B6
100
AcDbEntity
8
1
62
256
6
ByLayer
370
18
48
1
60
1
100
AcDbLine
10
108
20
-9.7235
30
0
11
107.539216
21
-6.223502
31
0
39
0
210
0
220
0
230
1
0
LINE
5
B7
100
AcDbEntity
8
1
62
256
6
ByLayer
370
18
48
1
60
1
100
AcDbLine
10
107.539216
20
-6.223502
30
0
11
108.460784
21
-6.223498
31
0
39
0
210
0
220
0
230
1
0
LINE
5
B8
100
AcDbEntity
8
1
62
256
6
ByLayer
370
18
48
1
60
1
100
AcDbLine
10
108.460784
20
-6.223498
30
0
11
108
21
-9.7235
31
0
39
0
210
0
220
0
230
1
0
LINE
5
B9
100
AcDbEntity
8
SK2
62
256
6
ByLayer
370
13
48
1
60
0
100
AcDbLine
10
101.042957
20
-1.491762
30
0
11
107.682423
21
-19.733545
31
0
39
0
210
0
220
0
230
1
0
LINE
5
BA
100
AcDbEntity
8
SK2
62
256
6
ByLayer
370
13
48
1
60
0
100
AcDbLine
10
101.042957
20
1.491762
30
0
11
107.682423
21
19.733545
31
0
39
0
210
0
220
0
230
1
0
LINE
5
BB
100
AcDbEntity
8
1
62
256
6
ByLayer
370
18
48
1
60
1
100
AcDbLine
10
106.998383
20
-17.85416
30
0
11
110.051575
21
-16.082064
31
0
39
0
210
0
220
0
230
1
0
LINE
5
BC
100
AcDbEntity
8
1
62
256
6
ByLayer
370
18
48
1
60
1
100
AcDbLine
10
110.051575
20
-16.082064
30
0
11
110.406196
21
-16.93267
31
0
39
0
210
0
220
0
230
1
0
LINE
5
BD
100
AcDbEntity
8
1
62
256
6
ByLayer
370
18
48
1
60
1
100
AcDbLine
10
110.406196
20
-16.93267
30
0
11
106.998383
21
-17.85416
31
0
39
0
210
0
220
0
230
1
0
LINE
5
BE
100
AcDbEntity
8
1
62
256
6
ByLayer
370
18
48
1
60
1
100
AcDbLine
10
106.998383
20
17.85416
30
0
11
110.406193
21
16.932671
31
0
39
0
210
0
220
0
230
1
0
LINE
5
BF
100
AcDbEntity
8
1
62
256
6
ByLayer
370
18
48
1
60
1
100
AcDbLine
10
110.406193
20
16.932671
30
0
11
110.051579
21
16.082063
31
0
39
0
210
0
220
0
230
1
0
LINE
5
C0
100
AcDbEntity
8
1
62
256
6
ByLayer
370
18
48
1
60
1
100
AcDbLine
10
110.051579
20
16.082063
30
0
11
106.998383
21
17.85416
31
0
39
0
210
0
220
0
230
1
0
LINE
5
12E
100
AcDbEntity
8
1
62
256
6
ByLayer
370
18
48
1
60
1
100
AcDbLine
10
-62.5
20
12.7
30
0
11
-62.039216
21
9.200002
31
0
39
0
210
0
220
0
230
1
0
LINE
5
12F
100
AcDbEntity
8
1
62
256
6
ByLayer
370
18
48
1
60
1
100
AcDbLine
10
-62.039216
20
9.200002
30
0
11
-62.960784
21
9.199998
31
0
39
0
210
0
220
0
230
1
0
LINE
5
130
100
AcDbEntity
8
1
62
256
6
ByLayer
370
18
48
1
60
1
100
AcDbLine
10
-62.960784
20
9.199998
30
0
11
-62.5
21
12.7
31
0
39
0
210
0
220
0
230
1
0
LINE
5
132
100
AcDbEntity
8
1
62
256
6
ByLayer
370
18
48
1
60
1
100
AcDbLine
10
-62.5
20
-12.7
30
0
11
-62.960784
21
-9.200002
31
0
39
0
210
0
220
0
230
1
0
LINE
5
133
100
AcDbEntity
8
1
62
256
6
ByLayer
370
18
48
1
60
1
100
AcDbLine
10
-62.960784
20
-9.200002
30
0
11
-62.039216
21
-9.199998
31
0
39
0
210
0
220
0
230
1
0
LINE
5
134
100
AcDbEntity
8
1
62
256
6
ByLayer
370
18
48
1
60
1
100
AcDbLine
10
-62.039216
20
-9.199998
30
0
11
-62.5
21
-12.7
31
0
39
0
210
0
220
0
230
1
0
LINE
5
138
100
AcDbEntity
8
1
62
256
6
ByLayer
370
18
48
1
60
1
100
AcDbLine
10
108
20
9.7235
30
0
11
108.460784
21
6.223502
31
0
39
0
210
0
220
0
230
1
0
LINE
5
139
100
AcDbEntity
8
1
62
256
6
ByLayer
370
18
48
1
60
1
100
AcDbLine
10
108.460784
20
6.223502
30
0
11
107.539216
21
6.223498
31
0
39
0
210
0
220
0
230
1
0
LINE
5
13A
100
AcDbEntity
8
1
62
256
6
ByLayer
370
18
48
1
60
1
100
AcDbLine
10
107.539216
20
6.223498
30
0
11
108
21
9.7235
31
0
39
0
210
0
220
0
230
1
0
LINE
5
13C
100
AcDbEntity
8
1
62
256
6
ByLayer
370
18
48
1
60
1
100
AcDbLine
10
108
20
-9.7235
30
0
11
107.539216
21
-6.223502
31
0
39
0
210
0
220
0
230
1
0
LINE
5
13D
100
AcDbEntity
8
1
62
256
6
ByLayer
370
18
48
1
60
1
100
AcDbLine
10
107.539216
20
-6.223502
30
0
11
108.460784
21
-6.223498
31
0
39
0
210
0
220
0
230
1
0
LINE
5
13E
100
AcDbEntity
8
1
62
256
6
ByLayer
370
18
48
1
60
1
100
AcDbLine
10
108.460784
20
-6.223498
30
0
11
108
21
-9.7235
31
0
39
0
210
0
220
0
230
1
0
LINE
5
141
100
AcDbEntity
8
1
62
256
6
ByLayer
370
18
48
1
60
1
100
AcDbLine
10
106.998383
20
-17.85416
30
0
11
110.051575
21
-16.082064
31
0
39
0
210
0
220
0
230
1
0
LINE
5
142
100
AcDbEntity
8
1
62
256
6
ByLayer
370
18
48
1
60
1
100
AcDbLine
10
110.051575
20
-16.082064
30
0
11
110.406196
21
-16.93267
31
0
39
0
210
0
220
0
230
1
0
LINE
5
143
100
AcDbEntity
8
1
62
256
6
ByLayer
370
18
48
1
60
1
100
AcDbLine
10
110.406196
20
-16.93267
30
0
11
106.998383
21
-17.85416
31
0
39
0
210
0
220
0
230
1
0
LINE
5
145
100
AcDbEntity
8
1
62
256
6
ByLayer
370
18
48
1
60
1
100
AcDbLine
10
106.998383
20
17.85416
30
0
11
110.406193
21
16.932671
31
0
39
0
210
0
220
0
230
1
0
LINE
5
146
100
AcDbEntity
8
1
62
256
6
ByLayer
370
18
48
1
60
1
100
AcDbLine
10
110.406193
20
16.932671
30
0
11
110.051579
21
16.082063
31
0
39
0
210
0
220
0
230
1
0
LINE
5
147
100
AcDbEntity
8
1
62
256
6
ByLayer
370
18
48
1
60
1
100
AcDbLine
10
110.051579
20
16.082063
30
0
11
106.998383
21
17.85416
31
0
39
0
210
0
220
0
230
1
0
MTEXT
5
12A
100
AcDbEntity
8
SK2
62
256
6
ByLayer
370
18
48
1
60
0
100
AcDbMText
10
-63.841114
20
24.358437
30
0
210
0
220
0
230
1
1
%%c
40
3
41
0
44
1.084337
50
90
71
7
72
5
7
iso_b_vert
0
MTEXT
5
12D
100
AcDbEntity
8
SK2
62
256
6
ByLayer
370
18
48
1
60
0
100
AcDbMText
10
-63.841114
20
30.335
30
0
210
0
220
0
230
1
1
\W0.7728;25.400
40
3
41
0
44
1.084337
50
90
71
7
72
5
7
iso_b_vert
0
MTEXT
5
136
100
AcDbEntity
8
2
62
256
6
ByLayer
370
18
48
1
60
0
100
AcDbMText
10
106.658886
20
21.381938
30
0
210
0
220
0
230
1
1
%%c
40
3
41
0
44
1.084337
50
90
71
7
72
5
7
iso_b_vert
0
MTEXT
5
137
100
AcDbEntity
8
2
62
256
6
ByLayer
370
18
48
1
60
0
100
AcDbMText
10
106.658886
20
27.3585
30
0
210
0
220
0
230
1
1
\W0.7452;19.447
40
3
41
0
44
1.084337
50
90
71
7
72
5
7
iso_b_vert
0
MTEXT
5
140
100
AcDbEntity
8
SK2
62
256
6
ByLayer
370
18
48
1
60
0
100
AcDbMText
10
120.409114
20
3.734657
30
0
210
0
220
0
230
1
1
\W0.7071;140%%d
40
3
41
0
44
1.084337
50
270
71
7
72
5
7
iso_b_vert
0
MTEXT
5
149
100
AcDbEntity
8
SK6
62
256
6
ByLayer
370
18
48
1
60
0
100
AcDbMText
10
-6.608283
20
-67.114886
30
0
210
0
220
0
230
1
1
\W0.8039;H85349/64
40
3
41
0
44
1.084337
50
0
71
7
72
5
7
iso_b_vert
0
HATCH
5
131
100
AcDbEntity
8
SK2
62
256
6
ByLayer
370
13
48
1
60
0
100
AcDbHatch
10
0
20
0
30
0
210
0
220
0
230
1
2
ANSI31
70
0
71
0
91
1
92
5
93
3
72
1
10
-62.5
20
12.7
11
-62.0392162584472
21
9.20000169255317
72
1
10
-62.0392162584472
20
9.20000169255317
11
-62.9607837415528
21
9.1999983074468
72
1
10
-62.9607837415528
20
9.1999983074468
11
-62.5
21
12.7
97
0
75
0
76
1
52
0
41
0.0062
77
0
78
1
53
45
43
0
44
0
45
-0.0139193969876572
46
0.0139193969876572
79
0
47
0
98
1
10
0
20
0
0
HATCH
5
135
100
AcDbEntity
8
SK2
62
256
6
ByLayer
370
13
48
1
60
0
100
AcDbHatch
10
0
20
0
30
0
210
0
220
0
230
1
2
ANSI31
70
0
71
0
91
1
92
5
93
3
72
1
10
-62.5
20
-12.7
11
-62.9607837415528
21
-9.20000169255317
72
1
10
-62.9607837415528
20
-9.20000169255317
11
-62.0392162584472
21
-9.1999983074468
72
1
10
-62.0392162584472
20
-9.1999983074468
11
-62.5
21
-12.7
97
0
75
0
76
1
52
0
41
0.0062
77
0
78
1
53
45
43
0
44
0
45
-0.0139193969876572
46
0.0139193969876572
79
0
47
0
98
1
10
0
20
0
0
HATCH
5
13B
100
AcDbEntity
8
2
62
256
6
ByLayer
370
13
48
1
60
0
100
AcDbHatch
10
0
20
0
30
0
210
0
220
0
230
1
2
ANSI31
70
0
71
0
91
1
92
5
93
3
72
1
10
108
20
9.7235
11
108.460783741553
21
6.22350169255319
72
1
10
108.460783741553
20
6.22350169255319
11
107.539216258447
21
6.22349830744682
72
1
10
107.539216258447
20
6.22349830744682
11
108
21
9.7235
97
0
75
0
76
1
52
0
41
0.0062
77
0
78
1
53
45
43
0
44
0
45
-0.0139193969876572
46
0.0139193969876572
79
0
47
0
98
1
10
0
20
0
0
HATCH
5
13F
100
AcDbEntity
8
2
62
256
6
ByLayer
370
13
48
1
60
0
100
AcDbHatch
10
0
20
0
30
0
210
0
220
0
230
1
2
ANSI31
70
0
71
0
91
1
92
5
93
3
72
1
10
108
20
-9.7235
11
107.539216258447
21
-6.22350169255319
72
1
10
107.539216258447
20
-6.22350169255319
11
108.460783741553
21
-6.22349830744682
72
1
10
108.460783741553
20
-6.22349830744682
11
108
21
-9.7235
97
0
75
0
76
1
52
0
41
0.0062
77
0
78
1
53
45
43
0
44
0
45
-0.0139193969876572
46
0.0139193969876572
79
0
47
0
98
1
10
0
20
0
0
HATCH
5
144
100
AcDbEntity
8
SK2
62
256
6
ByLayer
370
13
48
1
60
0
100
AcDbHatch
10
0
20
0
30
0
210
0
220
0
230
1
2
ANSI31
70
0
71
0
91
1
92
5
93
3
72
1
10
106.998382723188
20
-17.8541597949323
11
110.051575425693
21
-16.0820638240608
72
1
10
110.051575425693
20
-16.0820638240608
11
110.406195833975
21
-16.9326700737196
72
1
10
110.406195833975
20
-16.9326700737196
11
106.998382723188
21
-17.8541597949323
97
0
75
0
76
1
52
0
41
0.0062
77
0
78
1
53
45
43
0
44
0
45
-0.0139193969876572
46
0.0139193969876572
79
0
47
0
98
1
10
0
20
0
0
HATCH
5
148
100
AcDbEntity
8
SK2
62
256
6
ByLayer
370
13
48
1
60
0
100
AcDbHatch
10
0
20
0
30
0
210
0
220
0
230
1
2
ANSI31
70
0
71
0
91
1
92
5
93
3
72
1
10
106.998382723188
20
17.8541597949323
11
110.406192709519
21
16.9326713763016
72
1
10
110.406192709519
20
16.9326713763016
11
110.051578550149
21
16.0820625214788
72
1
10
110.051578550149
20
16.0820625214788
11
106.998382723188
21
17.8541597949323
97
0
75
0
76
1
52
0
41
0.0062
77
0
78
1
53
45
43
0
44
0
45
-0.0139193969876572
46
0.0139193969876572
79
0
47
0
98
1
10
0
20
0
0
DIMENSION
5
14C
100
AcDbEntity
8
SK2
62
256
6
ByLayer
370
18
48
1
60
0
100
AcDbDimension
2
_U0
10
100.5
20
-45.952229
30
0
11
22.25
21
-45.952229
31
0
70
32
71
1
72
1
41
1
210
0
220
0
230
1
3
Standard
100
AcDbAlignedDimension
13
-56
23
-12.7
33
0
14
100.5
24
0
34
0
50
0
100
AcDbRotatedDimension
1001
ACAD
1000
DSTYLE
1002
{
1070
   371
1070
    13
1070
   372
1070
    13
1070
     3
1000

1070
   170
1070
     0
1070
   144
1040
1.0
1070
   277
1070
     2
1070
   284
1070
     8
1070
   278
1070
    46
1070
   146
1040
1.166667
1070
   345
1005
16
1070
   347
1005
16
1070
   346
1005
16
1070
   344
1005
0
1070
   343
1005
0
1070
   172
1070
     1
1070
    76
1070
     0
1070
    75
1070
     0
1070
   282
1070
     0
1070
   281
1070
     0
1070
    71
1070
     0
1070
    74
1070
     0
1070
   279
1070
     0
1070
   173
1070
     1
1070
   340
1005
12B
1070
   271
1070
     2
1070
   272
1070
     3
1070
    77
1070
     1
1070
    73
1070
     1
1070
   171
1070
     3
1070
   274
1070
     4
1070
   177
1070
     2
1070
   176
1070
     2
1070
   178
1070
     2
1070
    78
1070
     8
1070
    48
1040
-0.1
1070
    41
1040
3.5
1070
   147
1040
1.5
1070
    42
1040
1.5875
1070
    44
1040
2.0
1070
   140
1040
3.0
1002
}
1001
ACAD_DSTYLE_DIM_LINETYPE
1070
   380
1005
16
1001
ACAD_DSTYLE_DIM_EXT1_LINETYPE
1070
   381
1005
16
1001
ACAD_DSTYLE_DIM_EXT2_LINETYPE
1070
   382
1005
16
0
DIMENSION
5
165
100
AcDbEntity
8
SK2
62
256
6
ByLayer
370
18
48
1
60
0
100
AcDbDimension
2
_U1
10
3
20
-35.952229
30
0
11
51.75
21
-35.952229
31
0
70
32
71
1
72
1
41
1
210
0
220
0
230
1
3
Standard
100
AcDbAlignedDimension
13
100.5
23
0
33
0
14
3
24
-9.7235
34
0
50
0
100
AcDbRotatedDimension
1001
ACAD
1000
DSTYLE
1002
{
1070
   371
1070
    13
1070
   372
1070
    13
1070
     3
1000

1070
   170
1070
     0
1070
   144
1040
1.0
1070
   277
1070
     2
1070
   284
1070
     8
1070
   278
1070
    46
1070
   146
1040
1.166667
1070
   345
1005
16
1070
   347
1005
16
1070
   346
1005
16
1070
   344
1005
0
1070
   343
1005
0
1070
   172
1070
     1
1070
    76
1070
     0
1070
    75
1070
     0
1070
   282
1070
     0
1070
   281
1070
     0
1070
    71
1070
     0
1070
    74
1070
     0
1070
   279
1070
     0
1070
   173
1070
     1
1070
   340
1005
12B
1070
   271
1070
     2
1070
   272
1070
     3
1070
    77
1070
     1
1070
    73
1070
     1
1070
   171
1070
     3
1070
   274
1070
     4
1070
   177
1070
     2
1070
   176
1070
     2
1070
   178
1070
     2
1070
    78
1070
     8
1070
    48
1040
-0.1
1070
    41
1040
3.5
1070
   147
1040
1.5
1070
    42
1040
1.5875
1070
    44
1040
2.0
1070
   140
1040
3.0
1002
}
1001
ACAD_DSTYLE_DIM_LINETYPE
1070
   380
1005
16
1001
ACAD_DSTYLE_DIM_EXT1_LINETYPE
1070
   381
1005
16
1001
ACAD_DSTYLE_DIM_EXT2_LINETYPE
1070
   382
1005
16
0
DIMENSION
5
17D
100
AcDbEntity
8
SK2
62
256
6
ByLayer
370
18
48
1
60
0
100
AcDbDimension
2
_U2
10
0
20
-35.952229
30
0
11
-28
21
-35.952229
31
0
70
32
71
1
72
1
41
1
210
0
220
0
230
1
3
Standard
100
AcDbAlignedDimension
13
-56
23
-12.7
33
0
14
0
24
-12.7
34
0
50
0
100
AcDbRotatedDimension
1001
ACAD
1000
DSTYLE
1002
{
1070
   371
1070
    13
1070
   372
1070
    13
1070
     3
1000

1070
   170
1070
     0
1070
   144
1040
1.0
1070
   277
1070
     2
1070
   284
1070
     8
1070
   278
1070
    46
1070
   146
1040
1.166667
1070
   345
1005
16
1070
   347
1005
16
1070
   346
1005
16
1070
   344
1005
0
1070
   343
1005
0
1070
   172
1070
     1
1070
    76
1070
     0
1070
    75
1070
     0
1070
   282
1070
     0
1070
   281
1070
     0
1070
    71
1070
     0
1070
    74
1070
     0
1070
   279
1070
     0
1070
   173
1070
     1
1070
   340
1005
12B
1070
   271
1070
     2
1070
   272
1070
     3
1070
    77
1070
     1
1070
    73
1070
     1
1070
   171
1070
     3
1070
   274
1070
     4
1070
   177
1070
     2
1070
   176
1070
     2
1070
   178
1070
     2
1070
    78
1070
     8
1070
    48
1040
-0.1
1070
    41
1040
3.5
1070
   147
1040
1.5
1070
    42
1040
1.5875
1070
    44
1040
2.0
1070
   140
1040
3.0
1002
}
1001
ACAD_DSTYLE_DIM_LINETYPE
1070
   380
1005
16
1001
ACAD_DSTYLE_DIM_EXT1_LINETYPE
1070
   381
1005
16
1001
ACAD_DSTYLE_DIM_EXT2_LINETYPE
1070
   382
1005
16
0
DIMENSION
5
195
100
AcDbEntity
8
SK2
62
256
6
ByLayer
370
18
48
1
60
0
100
AcDbDimension
2
_U3
10
31
20
32.952229
30
0
11
65.75
21
32.952229
31
0
70
32
71
1
72
1
41
1
210
0
220
0
230
1
3
Standard
100
AcDbAlignedDimension
13
100.5
23
0
33
0
14
31
24
9.7235
34
0
50
0
100
AcDbRotatedDimension
1001
ACAD
1000
DSTYLE
1002
{
1070
   371
1070
    13
1070
   372
1070
    13
1070
     3
1000

1070
   170
1070
     0
1070
   144
1040
1.0
1070
   277
1070
     2
1070
   284
1070
     8
1070
   278
1070
    46
1070
   146
1040
1.166667
1070
   345
1005
16
1070
   347
1005
16
1070
   346
1005
16
1070
   344
1005
0
1070
   343
1005
0
1070
   172
1070
     1
1070
    76
1070
     0
1070
    75
1070
     0
1070
   282
1070
     0
1070
   281
1070
     0
1070
    71
1070
     0
1070
    74
1070
     0
1070
   279
1070
     0
1070
   173
1070
     1
1070
   340
1005
12B
1070
   271
1070
     2
1070
   272
1070
     3
1070
    77
1070
     1
1070
    73
1070
     1
1070
   171
1070
     3
1070
   274
1070
     4
1070
   177
1070
     2
1070
   176
1070
     2
1070
   178
1070
     2
1070
    78
1070
     8
1070
    48
1040
-0.1
1070
    41
1040
3.5
1070
   147
1040
1.5
1070
    42
1040
1.5875
1070
    44
1040
2.0
1070
   140
1040
3.0
1002
}
1001
ACAD_DSTYLE_DIM_LINETYPE
1070
   380
1005
16
1001
ACAD_DSTYLE_DIM_EXT1_LINETYPE
1070
   381
1005
16
1001
ACAD_DSTYLE_DIM_EXT2_LINETYPE
1070
   382
1005
16
0
ENDSEC
0
SECTION
2
OBJECTS
0
DICTIONARY
5
21d
330
0
100
AcDbDictionary
280
0
281
1
3
ACAD_GROUP
350
21e
3
ACAD_MLINESTYLE
350
21f
0
DICTIONARY
5
21e
330
0
100
AcDbDictionary
280
0
281
1
0
DICTIONARY
5
21f
330
0
100
AcDbDictionary
280
0
281
1
3
Standard
350
18
0
MLINESTYLE
5
18
330
21f
100
AcDbMlineStyle
2
Standard
70
0
3

62
256
51
90
52
90
71
2
49
-0.5
62
256
6
ByLayer
49
0.5
62
256
6
ByLayer
0
RASTERVARIABLES
5
20b
330

100
AcDbRasterVariables
90
0
70
1
71
1
72
1
0
ENDSEC
0
EOF
