0
SECTION
2
HEADER
9
$ACADVER
1
AC1015
9
$DWGCODEPAGE
3
ANSI_1252
9
$HANDSEED
5
219
9
$ANGBASE
50
0
9
$ANGDIR
70
0
9
$ATTMODE
70
1
9
$AUNITS
70
0
9
$AUPREC
70
0
9
$CECOLOR
62
256
9
$CELTSCALE
40
1
9
$CELTYPE
6
ByLayer
9
$CELWEIGHT
370
18
9
$CLAYER
8
0
9
$CMLJUST
70
0
9
$CMLSCALE
40
1
9
$CMLSTYLE
2
Standard
9
$DIMSTYLE
2
Standard
9
$TEXTSIZE
40
0.2
9
$TEXTSTYLE
7
Standard
9
$LUNITS
70
2
9
$LUPREC
70
4
9
$EXTNAMES
290
1
9
$INSUNITS
70
4
9
$LTSCALE
40
1
9
$LWDISPLAY
290
1
9
$PDMODE
70
0
9
$PDSIZE
40
0
9
$PLINEGEN
70
0
0
ENDSEC
0
SECTION
2
CLASSES
0
CLASS
1
RASTERVARIABLES
2
AcDbRasterVariables
3
ISM
90
0
280
0
281
0
0
ENDSEC
0
SECTION
2
TABLES
0
TABLE
2
VPORT
5
20f
100
AcDbSymbolTable
0
VPORT
5
1
100
AcDbSymbolTableRecord
100
AcDbViewportTableRecord
2
*Active
70
0
10
0
20
0
11
1
21
1
12
-1
22
1
13
0
23
0
14
0.5
24
0.5
15
10
25
10
16
0
26
0
36
1
17
0
27
0
37
0
0
ENDTAB
0
TABLE
2
LTYPE
5
210
100
AcDbSymbolTable
0
LTYPE
5
14
100
AcDbSymbolTableRecord
100
AcDbLinetypeTableRecord
70
0
2
ByBlock
3

72
65
73
0
40
0
0
LTYPE
5
15
100
AcDbSymbolTableRecord
100
AcDbLinetypeTableRecord
70
0
2
ByLayer
3

72
65
73
0
40
0
0
LTYPE
5
16
100
AcDbSymbolTableRecord
100
AcDbLinetypeTableRecord
70
0
2
Continuous
3
Solid line
72
65
73
0
40
0
0
LTYPE
5
6E
100
AcDbSymbolTableRecord
100
AcDbLinetypeTableRecord
70
0
2
CENTER
3
____ _ ____ _ ____ _ ____
72
65
73
4
40
47.5
49
22
74
0
49
-8.5
74
0
49
8.5
74
0
49
-8.5
74
0
0
LTYPE
5
6F
100
AcDbSymbolTableRecord
100
AcDbLinetypeTableRecord
70
0
2
DASHED
3
__ __ __ __ __ __ __ __ __
72
65
73
2
40
25.72
49
12.86
74
0
49
-12.86
74
0
0
ENDTAB
0
TABLE
2
LAYER
5
211
100
AcDbSymbolTable
0
LAYER
5
10
100
AcDbSymbolTableRecord
100
AcDbLayerTableRecord
2
0
70
0
62
7
6
Continuous
290
1
370
-3
390
0
0
LAYER
5
71
100
AcDbSymbolTableRecord
100
AcDbLayerTableRecord
2
81
70
0
62
-3
6
Continuous
290
1
370
-3
390
0
0
LAYER
5
73
100
AcDbSymbolTableRecord
100
AcDbLayerTableRecord
2
80
70
0
62
-6
6
Continuous
290
1
370
-3
390
0
0
LAYER
5
75
100
AcDbSymbolTableRecord
100
AcDbLayerTableRecord
2
1
70
0
62
4
6
Continuous
290
1
370
-3
390
0
0
LAYER
5
7F
100
AcDbSymbolTableRecord
100
AcDbLayerTableRecord
2
4
70
0
62
-2
6
CENTER
290
1
370
-3
390
0
0
LAYER
5
B0
100
AcDbSymbolTableRecord
100
AcDbLayerTableRecord
2
2
70
0
62
7
6
Continuous
290
1
370
-3
390
0
0
LAYER
5
13E
100
AcDbSymbolTableRecord
100
AcDbLayerTableRecord
2
Defpoints
70
0
62
7
6
Continuous
290
0
370
-3
390
0
0
LAYER
5
1fb
100
AcDbSymbolTableRecord
100
AcDbLayerTableRecord
2
SK4
70
0
62
2
6
CENTER
290
1
370
-3
390
0
0
LAYER
5
1fc
100
AcDbSymbolTableRecord
100
AcDbLayerTableRecord
2
SK1
70
0
62
4
6
Continuous
290
1
370
-3
390
0
0
LAYER
5
1fd
100
AcDbSymbolTableRecord
100
AcDbLayerTableRecord
2
SK2
70
0
62
7
6
Continuous
290
1
370
-3
390
0
0
LAYER
5
1fe
100
AcDbSymbolTableRecord
100
AcDbLayerTableRecord
2
SK6
70
0
62
5
6
Continuous
290
1
370
-3
390
0
0
ENDTAB
0
TABLE
2
STYLE
5
212
100
AcDbSymbolTable
0
STYLE
5
11
100
AcDbSymbolTableRecord
100
AcDbTextStyleTableRecord
2
Standard
3
txt
70
0
71
0
40
0
41
1
42
0
50
0
0
STYLE
5
11A
100
AcDbSymbolTableRecord
100
AcDbTextStyleTableRecord
2
iso_b_vert
3
simplex.shx
70
0
71
0
40
0
41
1
42
0
50
0
0
STYLE
5
11B
100
AcDbSymbolTableRecord
100
AcDbTextStyleTableRecord
2
DWGDirectTextStyle
3
simplex
70
0
71
0
40
0
41
1
42
0
50
0
0
ENDTAB
0
TABLE
2
DIMSTYLE
5
213
100
AcDbSymbolTable
100
AcDbDimStyleTable
0
DIMSTYLE
105
27
100
AcDbSymbolTableRecord
100
AcDbDimStyleTableRecord
2
Standard
70
0
3
<>
41
0.18
42
0.0625
44
0.18
140
0.18
147
0.09
73
0
74
0
77
1
271
2
275
0
278
52
280
0
340
11
0
ENDTAB
0
TABLE
2
VIEW
5
214
100
AcDbSymbolTable
0
ENDTAB
0
TABLE
2
UCS
5
215
100
AcDbSymbolTable
0
ENDTAB
0
TABLE
2
APPID
5
216
100
AcDbSymbolTable
0
APPID
5
12
100
AcDbSymbolTableRecord
100
AcDbRegAppTableRecord
2
ACAD
70
0
0
APPID
5
13A
100
AcDbSymbolTableRecord
100
AcDbRegAppTableRecord
2
ACAD_DSTYLE_DIMBREAK
70
0
0
APPID
5
1BA
100
AcDbSymbolTableRecord
100
AcDbRegAppTableRecord
2
ACAD_DSTYLE_DIM_LINETYPE
70
0
0
APPID
5
1BB
100
AcDbSymbolTableRecord
100
AcDbRegAppTableRecord
2
ACAD_DSTYLE_DIM_EXT1_LINETYPE
70
0
0
APPID
5
1BC
100
AcDbSymbolTableRecord
100
AcDbRegAppTableRecord
2
ACAD_DSTYLE_DIM_EXT2_LINETYPE
70
0
0
APPID
5
1F7
100
AcDbSymbolTableRecord
100
AcDbRegAppTableRecord
2
ACAD_MLEADERVER
70
0
0
ENDTAB
0
TABLE
2
BLOCK_RECORD
5
217
100
AcDbSymbolTable
0
BLOCK_RECORD
5
1F
100
AcDbSymbolTableRecord
100
AcDbBlockTableRecord
2
*Model_Space
340
0
70
0
0
BLOCK_RECORD
5
1B
100
AcDbSymbolTableRecord
100
AcDbBlockTableRecord
2
*Paper_Space
340
0
70
0
0
BLOCK_RECORD
5
23
100
AcDbSymbolTableRecord
100
AcDbBlockTableRecord
2
*Paper_Space0
340
0
70
0
0
BLOCK_RECORD
5
13F
100
AcDbSymbolTableRecord
100
AcDbBlockTableRecord
2
*D1
340
0
70
0
0
BLOCK_RECORD
5
14B
100
AcDbSymbolTableRecord
100
AcDbBlockTableRecord
2
_U0
340
0
70
0
0
BLOCK_RECORD
5
157
100
AcDbSymbolTableRecord
100
AcDbBlockTableRecord
2
*D3
340
0
70
0
0
BLOCK_RECORD
5
163
100
AcDbSymbolTableRecord
100
AcDbBlockTableRecord
2
_U1
340
0
70
0
0
BLOCK_RECORD
5
16F
100
AcDbSymbolTableRecord
100
AcDbBlockTableRecord
2
*D5
340
0
70
0
0
BLOCK_RECORD
5
17B
100
AcDbSymbolTableRecord
100
AcDbBlockTableRecord
2
_U2
340
0
70
0
0
BLOCK_RECORD
5
187
100
AcDbSymbolTableRecord
100
AcDbBlockTableRecord
2
*D7
340
0
70
0
0
BLOCK_RECORD
5
193
100
AcDbSymbolTableRecord
100
AcDbBlockTableRecord
2
_U3
340
0
70
0
0
ENDTAB
0
ENDSEC
0
SECTION
2
BLOCKS
0
BLOCK
5
20
100
AcDbEntity
8
0
100
AcDbBlockBegin
2
*Model_Space
70
0
10
0
20
0
30
0
3
*Model_Space
0
ENDBLK
5
21
100
AcDbEntity
8
0
100
AcDbBlockEnd
0
BLOCK
5
1C
100
AcDbEntity
8
0
100
AcDbBlockBegin
2
*Paper_Space
70
0
10
0
20
0
30
0
3
*Paper_Space
0
ENDBLK
5
1D
100
AcDbEntity
8
0
100
AcDbBlockEnd
0
BLOCK
5
24
100
AcDbEntity
8
0
100
AcDbBlockBegin
2
*Paper_Space0
70
0
10
0
20
0
30
0
3
*Paper_Space0
0
ENDBLK
5
25
100
AcDbEntity
8
0
100
AcDbBlockEnd
0
BLOCK
5
140
100
AcDbEntity
8
0
100
AcDbBlockBegin
2
*D1
70
1
10
0
20
0
30
0
3
*D1
0
LINE
5
142
100
AcDbEntity
8
0
62
256
6
ByLayer
370
-2
48
1
60
0
100
AcDbLine
10
-48
20
-11.1125
30
0
11
-48
21
-47.952229
31
0
39
0
210
0
220
0
230
1
0
LINE
5
143
100
AcDbEntity
8
0
62
256
6
ByLayer
370
-2
48
1
60
0
100
AcDbLine
10
78.5
20
-1.5875
30
0
11
78.5
21
-47.952229
31
0
39
0
210
0
220
0
230
1
0
LINE
5
144
100
AcDbEntity
8
0
62
256
6
ByLayer
370
-2
48
1
60
0
100
AcDbLine
10
-44.5
20
-45.952229
30
0
11
75
21
-45.952229
31
0
39
0
210
0
220
0
230
1
0
SOLID
5
145
100
AcDbEntity
8
0
62
256
6
ByLayer
370
-1
48
1
60
0
100
AcDbTrace
10
-44.5
20
-45.368896
30
0
11
-44.5
21
-46.535563
31
0
12
-48
22
-45.952229
32
0
13
-48
23
-45.952229
33
0
39
0
210
0
220
0
230
1
0
SOLID
5
146
100
AcDbEntity
8
0
62
256
6
ByLayer
370
-1
48
1
60
0
100
AcDbTrace
10
75
20
-46.535563
30
0
11
75
21
-45.368896
31
0
12
78.5
22
-45.952229
32
0
13
78.5
23
-45.952229
33
0
39
0
210
0
220
0
230
1
0
MTEXT
5
147
100
AcDbEntity
8
0
62
256
6
ByLayer
370
18
48
1
60
0
100
AcDbMText
10
15.25
20
-39.952229
30
0
210
0
220
0
230
1
1
\A1;126.5
40
3
41
0
44
1
50
0
71
5
72
5
7
iso_b_vert
0
POINT
5
148
100
AcDbEntity
8
Defpoints
62
0
6
ByLayer
370
-1
48
1
60
0
100
AcDbPoint
10
-48
20
-9.525
30
0
39
0
210
0
220
0
230
1
50
360
0
POINT
5
149
100
AcDbEntity
8
Defpoints
62
0
6
ByLayer
370
-1
48
1
60
0
100
AcDbPoint
10
78.5
20
0
30
0
39
0
210
0
220
0
230
1
50
360
0
POINT
5
14A
100
AcDbEntity
8
Defpoints
62
0
6
ByLayer
370
-1
48
1
60
0
100
AcDbPoint
10
78.5
20
-45.952229
30
0
39
0
210
0
220
0
230
1
50
360
0
ENDBLK
5
141
100
AcDbEntity
8
0
100
AcDbBlockEnd
0
BLOCK
5
152
100
AcDbEntity
8
0
100
AcDbBlockBegin
2
_U0
70
0
10
0
20
0
30
0
3
_U0
0
MTEXT
5
14C
100
AcDbEntity
8
SK2
62
256
6
ByLayer
370
18
48
1
60
0
100
AcDbMText
10
10.021658
20
-45.067115
30
0
210
0
220
0
230
1
1
\W0.7022;126.50
40
3
41
0
44
1.084337
50
0
71
7
72
5
7
iso_b_vert
0
LINE
5
14D
100
AcDbEntity
8
SK2
62
256
6
ByLayer
370
13
48
1
60
0
100
AcDbLine
10
-48
20
-11.1125
30
0
11
-48
21
-47.952229
31
0
39
0
210
0
220
0
230
1
0
LINE
5
14E
100
AcDbEntity
8
SK2
62
256
6
ByLayer
370
13
48
1
60
0
100
AcDbLine
10
78.5
20
-1.5875
30
0
11
78.5
21
-47.952229
31
0
39
0
210
0
220
0
230
1
0
LINE
5
14F
100
AcDbEntity
8
SK2
62
256
6
ByLayer
370
13
48
1
60
0
100
AcDbLine
10
-48
20
-45.952229
30
0
11
78.5
21
-45.952229
31
0
39
0
210
0
220
0
230
1
0
SOLID
5
150
100
AcDbEntity
8
SK2
62
256
6
ByLayer
370
18
48
1
60
0
100
AcDbTrace
10
-48
20
-45.952229
30
0
11
-44.500002
21
-45.491446
31
0
12
-44.499998
22
-46.413013
32
0
13
-44.499998
23
-46.413013
33
0
39
0
210
0
220
0
230
1
0
SOLID
5
151
100
AcDbEntity
8
SK2
62
256
6
ByLayer
370
18
48
1
60
0
100
AcDbTrace
10
78.5
20
-45.952229
30
0
11
75.000002
21
-46.413013
31
0
12
74.999998
22
-45.491446
32
0
13
74.999998
23
-45.491446
33
0
39
0
210
0
220
0
230
1
0
ENDBLK
5
153
100
AcDbEntity
8
0
100
AcDbBlockEnd
0
BLOCK
5
158
100
AcDbEntity
8
0
100
AcDbBlockBegin
2
*D3
70
1
10
0
20
0
30
0
3
*D3
0
LINE
5
15A
100
AcDbEntity
8
0
62
256
6
ByLayer
370
-2
48
1
60
0
100
AcDbLine
10
78.5
20
-1.5875
30
0
11
78.5
21
-37.952229
31
0
39
0
210
0
220
0
230
1
0
LINE
5
15B
100
AcDbEntity
8
0
62
256
6
ByLayer
370
-2
48
1
60
0
100
AcDbLine
10
3
20
-9.3265
30
0
11
3
21
-37.952229
31
0
39
0
210
0
220
0
230
1
0
LINE
5
15C
100
AcDbEntity
8
0
62
256
6
ByLayer
370
-2
48
1
60
0
100
AcDbLine
10
75
20
-35.952229
30
0
11
6.5
21
-35.952229
31
0
39
0
210
0
220
0
230
1
0
SOLID
5
15D
100
AcDbEntity
8
0
62
256
6
ByLayer
370
-1
48
1
60
0
100
AcDbTrace
10
75
20
-36.535563
30
0
11
75
21
-35.368896
31
0
12
78.5
22
-35.952229
32
0
13
78.5
23
-35.952229
33
0
39
0
210
0
220
0
230
1
0
SOLID
5
15E
100
AcDbEntity
8
0
62
256
6
ByLayer
370
-1
48
1
60
0
100
AcDbTrace
10
6.5
20
-35.368896
30
0
11
6.5
21
-36.535563
31
0
12
3
22
-35.952229
32
0
13
3
23
-35.952229
33
0
39
0
210
0
220
0
230
1
0
MTEXT
5
15F
100
AcDbEntity
8
0
62
256
6
ByLayer
370
18
48
1
60
0
100
AcDbMText
10
40.75
20
-29.952229
30
0
210
0
220
0
230
1
1
\A1;75.5
40
3
41
0
44
1
50
0
71
5
72
5
7
iso_b_vert
0
POINT
5
160
100
AcDbEntity
8
Defpoints
62
0
6
ByLayer
370
-1
48
1
60
0
100
AcDbPoint
10
78.5
20
0
30
0
39
0
210
0
220
0
230
1
50
360
0
POINT
5
161
100
AcDbEntity
8
Defpoints
62
0
6
ByLayer
370
-1
48
1
60
0
100
AcDbPoint
10
3
20
-7.739
30
0
39
0
210
0
220
0
230
1
50
360
0
POINT
5
162
100
AcDbEntity
8
Defpoints
62
0
6
ByLayer
370
-1
48
1
60
0
100
AcDbPoint
10
3
20
-35.952229
30
0
39
0
210
0
220
0
230
1
50
360
0
ENDBLK
5
159
100
AcDbEntity
8
0
100
AcDbBlockEnd
0
BLOCK
5
16A
100
AcDbEntity
8
0
100
AcDbBlockBegin
2
_U1
70
0
10
0
20
0
30
0
3
_U1
0
MTEXT
5
164
100
AcDbEntity
8
SK2
62
256
6
ByLayer
370
18
48
1
60
0
100
AcDbMText
10
36.26763
20
-35.067115
30
0
210
0
220
0
230
1
1
\W0.7468;75.50
40
3
41
0
44
1.084337
50
0
71
7
72
5
7
iso_b_vert
0
LINE
5
165
100
AcDbEntity
8
SK2
62
256
6
ByLayer
370
13
48
1
60
0
100
AcDbLine
10
78.5
20
-1.5875
30
0
11
78.5
21
-37.952229
31
0
39
0
210
0
220
0
230
1
0
LINE
5
166
100
AcDbEntity
8
SK2
62
256
6
ByLayer
370
13
48
1
60
0
100
AcDbLine
10
3
20
-9.3265
30
0
11
3
21
-37.952229
31
0
39
0
210
0
220
0
230
1
0
LINE
5
167
100
AcDbEntity
8
SK2
62
256
6
ByLayer
370
13
48
1
60
0
100
AcDbLine
10
78.5
20
-35.952229
30
0
11
3
21
-35.952229
31
0
39
0
210
0
220
0
230
1
0
SOLID
5
168
100
AcDbEntity
8
SK2
62
256
6
ByLayer
370
18
48
1
60
0
100
AcDbTrace
10
78.5
20
-35.952229
30
0
11
75.000002
21
-36.413013
31
0
12
74.999998
22
-35.491446
32
0
13
74.999998
23
-35.491446
33
0
39
0
210
0
220
0
230
1
0
SOLID
5
169
100
AcDbEntity
8
SK2
62
256
6
ByLayer
370
18
48
1
60
0
100
AcDbTrace
10
3
20
-35.952229
30
0
11
6.499998
21
-35.491446
31
0
12
6.500002
22
-36.413013
32
0
13
6.500002
23
-36.413013
33
0
39
0
210
0
220
0
230
1
0
ENDBLK
5
16B
100
AcDbEntity
8
0
100
AcDbBlockEnd
0
BLOCK
5
170
100
AcDbEntity
8
0
100
AcDbBlockBegin
2
*D5
70
1
10
0
20
0
30
0
3
*D5
0
LINE
5
172
100
AcDbEntity
8
0
62
256
6
ByLayer
370
-2
48
1
60
0
100
AcDbLine
10
-48
20
-11.1125
30
0
11
-48
21
-37.952229
31
0
39
0
210
0
220
0
230
1
0
LINE
5
173
100
AcDbEntity
8
0
62
256
6
ByLayer
370
-2
48
1
60
0
100
AcDbLine
10
0
20
-11.1125
30
0
11
0
21
-37.952229
31
0
39
0
210
0
220
0
230
1
0
LINE
5
174
100
AcDbEntity
8
0
62
256
6
ByLayer
370
-2
48
1
60
0
100
AcDbLine
10
-44.5
20
-35.952229
30
0
11
-3.5
21
-35.952229
31
0
39
0
210
0
220
0
230
1
0
SOLID
5
175
100
AcDbEntity
8
0
62
256
6
ByLayer
370
-1
48
1
60
0
100
AcDbTrace
10
-44.5
20
-35.368896
30
0
11
-44.5
21
-36.535563
31
0
12
-48
22
-35.952229
32
0
13
-48
23
-35.952229
33
0
39
0
210
0
220
0
230
1
0
SOLID
5
176
100
AcDbEntity
8
0
62
256
6
ByLayer
370
-1
48
1
60
0
100
AcDbTrace
10
-3.5
20
-36.535563
30
0
11
-3.5
21
-35.368896
31
0
12
0
22
-35.952229
32
0
13
0
23
-35.952229
33
0
39
0
210
0
220
0
230
1
0
MTEXT
5
177
100
AcDbEntity
8
0
62
256
6
ByLayer
370
18
48
1
60
0
100
AcDbMText
10
-24
20
-29.952229
30
0
210
0
220
0
230
1
1
\A1;48
40
3
41
0
44
1
50
0
71
5
72
5
7
iso_b_vert
0
POINT
5
178
100
AcDbEntity
8
Defpoints
62
0
6
ByLayer
370
-1
48
1
60
0
100
AcDbPoint
10
-48
20
-9.525
30
0
39
0
210
0
220
0
230
1
50
360
0
POINT
5
179
100
AcDbEntity
8
Defpoints
62
0
6
ByLayer
370
-1
48
1
60
0
100
AcDbPoint
10
0
20
-9.525
30
0
39
0
210
0
220
0
230
1
50
360
0
POINT
5
17A
100
AcDbEntity
8
Defpoints
62
0
6
ByLayer
370
-1
48
1
60
0
100
AcDbPoint
10
0
20
-35.952229
30
0
39
0
210
0
220
0
230
1
50
360
0
ENDBLK
5
171
100
AcDbEntity
8
0
100
AcDbBlockEnd
0
BLOCK
5
182
100
AcDbEntity
8
0
100
AcDbBlockBegin
2
_U2
70
0
10
0
20
0
30
0
3
_U2
0
MTEXT
5
17C
100
AcDbEntity
8
SK2
62
256
6
ByLayer
370
18
48
1
60
0
100
AcDbMText
10
-28.640313
20
-35.067115
30
0
210
0
220
0
230
1
1
\W0.7694;48.00
40
3
41
0
44
1.084337
50
0
71
7
72
5
7
iso_b_vert
0
LINE
5
17D
100
AcDbEntity
8
SK2
62
256
6
ByLayer
370
13
48
1
60
0
100
AcDbLine
10
-48
20
-11.1125
30
0
11
-48
21
-37.952229
31
0
39
0
210
0
220
0
230
1
0
LINE
5
17E
100
AcDbEntity
8
SK2
62
256
6
ByLayer
370
13
48
1
60
0
100
AcDbLine
10
0
20
-11.1125
30
0
11
0
21
-37.952229
31
0
39
0
210
0
220
0
230
1
0
LINE
5
17F
100
AcDbEntity
8
SK2
62
256
6
ByLayer
370
13
48
1
60
0
100
AcDbLine
10
-48
20
-35.952229
30
0
11
0
21
-35.952229
31
0
39
0
210
0
220
0
230
1
0
SOLID
5
180
100
AcDbEntity
8
SK2
62
256
6
ByLayer
370
18
48
1
60
0
100
AcDbTrace
10
-48
20
-35.952229
30
0
11
-44.500002
21
-35.491446
31
0
12
-44.499998
22
-36.413013
32
0
13
-44.499998
23
-36.413013
33
0
39
0
210
0
220
0
230
1
0
SOLID
5
181
100
AcDbEntity
8
SK2
62
256
6
ByLayer
370
18
48
1
60
0
100
AcDbTrace
10
0
20
-35.952229
30
0
11
-3.499998
21
-36.413013
31
0
12
-3.500002
22
-35.491446
32
0
13
-3.500002
23
-35.491446
33
0
39
0
210
0
220
0
230
1
0
ENDBLK
5
183
100
AcDbEntity
8
0
100
AcDbBlockEnd
0
BLOCK
5
188
100
AcDbEntity
8
0
100
AcDbBlockBegin
2
*D7
70
1
10
0
20
0
30
0
3
*D7
0
LINE
5
18A
100
AcDbEntity
8
0
62
256
6
ByLayer
370
-2
48
1
60
0
100
AcDbLine
10
78.5
20
1.5875
30
0
11
78.5
21
34.952229
31
0
39
0
210
0
220
0
230
1
0
LINE
5
18B
100
AcDbEntity
8
0
62
256
6
ByLayer
370
-2
48
1
60
0
100
AcDbLine
10
23
20
9.3265
30
0
11
23
21
34.952229
31
0
39
0
210
0
220
0
230
1
0
LINE
5
18C
100
AcDbEntity
8
0
62
256
6
ByLayer
370
-2
48
1
60
0
100
AcDbLine
10
75
20
32.952229
30
0
11
26.5
21
32.952229
31
0
39
0
210
0
220
0
230
1
0
SOLID
5
18D
100
AcDbEntity
8
0
62
256
6
ByLayer
370
-1
48
1
60
0
100
AcDbTrace
10
75
20
32.368896
30
0
11
75
21
33.535563
31
0
12
78.5
22
32.952229
32
0
13
78.5
23
32.952229
33
0
39
0
210
0
220
0
230
1
0
SOLID
5
18E
100
AcDbEntity
8
0
62
256
6
ByLayer
370
-1
48
1
60
0
100
AcDbTrace
10
26.5
20
33.535563
30
0
11
26.5
21
32.368896
31
0
12
23
22
32.952229
32
0
13
23
23
32.952229
33
0
39
0
210
0
220
0
230
1
0
MTEXT
5
18F
100
AcDbEntity
8
0
62
256
6
ByLayer
370
18
48
1
60
0
100
AcDbMText
10
50.75
20
38.952229
30
0
210
0
220
0
230
1
1
\A1;55.5
40
3
41
0
44
1
50
0
71
5
72
5
7
iso_b_vert
0
POINT
5
190
100
AcDbEntity
8
Defpoints
62
0
6
ByLayer
370
-1
48
1
60
0
100
AcDbPoint
10
78.5
20
0
30
0
39
0
210
0
220
0
230
1
50
360
0
POINT
5
191
100
AcDbEntity
8
Defpoints
62
0
6
ByLayer
370
-1
48
1
60
0
100
AcDbPoint
10
23
20
7.739
30
0
39
0
210
0
220
0
230
1
50
360
0
POINT
5
192
100
AcDbEntity
8
Defpoints
62
0
6
ByLayer
370
-1
48
1
60
0
100
AcDbPoint
10
23
20
32.952229
30
0
39
0
210
0
220
0
230
1
50
360
0
ENDBLK
5
189
100
AcDbEntity
8
0
100
AcDbBlockEnd
0
BLOCK
5
19A
100
AcDbEntity
8
0
100
AcDbBlockBegin
2
_U3
70
0
10
0
20
0
30
0
3
_U3
0
MTEXT
5
194
100
AcDbEntity
8
SK2
62
256
6
ByLayer
370
18
48
1
60
0
100
AcDbMText
10
46.26763
20
33.837344
30
0
210
0
220
0
230
1
1
\W0.7468;55.50
40
3
41
0
44
1.084337
50
0
71
7
72
5
7
iso_b_vert
0
LINE
5
195
100
AcDbEntity
8
SK2
62
256
6
ByLayer
370
13
48
1
60
0
100
AcDbLine
10
78.5
20
1.5875
30
0
11
78.5
21
34.952229
31
0
39
0
210
0
220
0
230
1
0
LINE
5
196
100
AcDbEntity
8
SK2
62
256
6
ByLayer
370
13
48
1
60
0
100
AcDbLine
10
23
20
9.3265
30
0
11
23
21
34.952229
31
0
39
0
210
0
220
0
230
1
0
LINE
5
197
100
AcDbEntity
8
SK2
62
256
6
ByLayer
370
13
48
1
60
0
100
AcDbLine
10
78.5
20
32.952229
30
0
11
23
21
32.952229
31
0
39
0
210
0
220
0
230
1
0
SOLID
5
198
100
AcDbEntity
8
SK2
62
256
6
ByLayer
370
18
48
1
60
0
100
AcDbTrace
10
78.5
20
32.952229
30
0
11
75.000002
21
32.491446
31
0
12
74.999998
22
33.413013
32
0
13
74.999998
23
33.413013
33
0
39
0
210
0
220
0
230
1
0
SOLID
5
199
100
AcDbEntity
8
SK2
62
256
6
ByLayer
370
18
48
1
60
0
100
AcDbTrace
10
23
20
32.952229
30
0
11
26.499998
21
33.413013
31
0
12
26.500002
22
32.491446
32
0
13
26.500002
23
32.491446
33
0
39
0
210
0
220
0
230
1
0
ENDBLK
5
19B
100
AcDbEntity
8
0
100
AcDbBlockEnd
0
ENDSEC
0
SECTION
2
ENTITIES
0
ARC
5
C1
100
AcDbEntity
8
SK2
62
256
6
ByLayer
370
13
48
1
60
0
100
AcDbCircle
39
0
10
78.5
20
0
30
0
40
19
210
0
220
0
230
1
100
AcDbArc
50
290
51
70
0
ELLIPSE
5
C2
100
AcDbEntity
8
SK1
62
256
6
ByLayer
370
18
48
1
60
0
100
AcDbEllipse
10
-32.117794
20
0
30
0
11
-1.74965632802376E-15
21
-9.52500000000022
31
0
210
0
220
0
230
1
40
0.932515
41
-1.99646903598621
42
-1.14512361760358
0
ELLIPSE
5
C3
100
AcDbEntity
8
SK1
62
256
6
ByLayer
370
18
48
1
60
0
100
AcDbEllipse
10
-15.214312
20
0
30
0
11
10.2143119629885
21
-1.15738337235711E-14
31
0
210
0
220
0
230
1
40
0.932515
41
-0.425672709191254
42
0.425672709191253
0
POINT
5
70
100
AcDbEntity
8
81
62
256
6
ByLayer
370
18
48
1
60
0
100
AcDbPoint
10
78.5
20
0
30
0
39
0
210
0
220
0
230
1
50
360
0
POINT
5
72
100
AcDbEntity
8
80
62
256
6
ByLayer
370
18
48
1
60
0
100
AcDbPoint
10
0
20
0
30
0
39
0
210
0
220
0
230
1
50
360
0
POINT
5
74
100
AcDbEntity
8
1
62
256
6
ByLayer
370
18
48
1
60
1
100
AcDbPoint
10
-48
20
-9.525
30
0
39
0
210
0
220
0
230
1
50
360
0
POINT
5
76
100
AcDbEntity
8
1
62
256
6
ByLayer
370
18
48
1
60
1
100
AcDbPoint
10
78.5
20
0
30
0
39
0
210
0
220
0
230
1
50
360
0
POINT
5
77
100
AcDbEntity
8
1
62
256
6
ByLayer
370
18
48
1
60
1
100
AcDbPoint
10
78.5
20
0
30
0
39
0
210
0
220
0
230
1
50
360
0
POINT
5
78
100
AcDbEntity
8
1
62
256
6
ByLayer
370
18
48
1
60
1
100
AcDbPoint
10
3
20
-7.739
30
0
39
0
210
0
220
0
230
1
50
360
0
POINT
5
79
100
AcDbEntity
8
1
62
256
6
ByLayer
370
18
48
1
60
1
100
AcDbPoint
10
-48
20
-9.525
30
0
39
0
210
0
220
0
230
1
50
360
0
POINT
5
7A
100
AcDbEntity
8
1
62
256
6
ByLayer
370
18
48
1
60
1
100
AcDbPoint
10
0
20
-9.525
30
0
39
0
210
0
220
0
230
1
50
360
0
POINT
5
7B
100
AcDbEntity
8
1
62
256
6
ByLayer
370
18
48
1
60
1
100
AcDbPoint
10
78.5
20
0
30
0
39
0
210
0
220
0
230
1
50
360
0
POINT
5
7C
100
AcDbEntity
8
1
62
256
6
ByLayer
370
18
48
1
60
1
100
AcDbPoint
10
23
20
7.739
30
0
39
0
210
0
220
0
230
1
50
360
0
SPLINE
5
C4
100
AcDbEntity
8
1
62
256
6
ByLayer
370
18
48
1
60
0
100
AcDbSpline
70
4
71
3
72
14
73
10
40
0
40
0
40
0
40
0
40
0.181958763017377
40
0.181958763017377
40
0.363917526034754
40
0.363917526034754
40
0.727835052069521
40
0.727835052069521
40
1
40
1
40
1
40
1
41
1
10
67.5
20
-7.66989821097047
30
0
41
1
10
67.6706611267409
20
-7.6781536502528
30
0
41
1
10
67.8412456901006
20
-7.6856699380584
30
0
41
1
10
68.1823848138261
20
-7.69918405114038
30
0
41
1
10
68.3529541692464
20
-7.70517883868061
30
0
41
1
10
68.8646599513944
20
-7.72090246748527
30
0
41
1
10
69.2057617188111
20
-7.72838149302615
30
0
41
1
10
69.8018225526962
20
-7.73626767468471
30
0
41
1
10
70.0568213232763
20
-7.73798195701968
30
0
41
1
10
70.3117593762584
20
-7.73803351240826
30
0
0
SPLINE
5
C5
100
AcDbEntity
8
1
62
256
6
ByLayer
370
18
48
1
60
0
100
AcDbSpline
70
4
71
3
72
104
73
100
40
0
40
0
40
0
40
0
40
0.0312499999999992
40
0.0312499999999992
40
0.0624999999999984
40
0.0624999999999984
40
0.0781249999999983
40
0.0781249999999983
40
0.0859374999999983
40
0.0859374999999983
40
0.0937499999999983
40
0.0937499999999983
40
0.124999999999998
40
0.124999999999998
40
0.140624999999997
40
0.140624999999997
40
0.156249999999996
40
0.156249999999996
40
0.171874999999995
40
0.171874999999995
40
0.187499999999994
40
0.187499999999994
40
0.203124999999994
40
0.203124999999994
40
0.218749999999993
40
0.218749999999993
40
0.234374999999992
40
0.234374999999992
40
0.249999999999991
40
0.249999999999991
40
0.28124999999999
40
0.28124999999999
40
0.29687499999999
40
0.29687499999999
40
0.31249999999999
40
0.31249999999999
40
0.343749999999989
40
0.343749999999989
40
0.374999999999988
40
0.374999999999988
40
0.390624999999988
40
0.390624999999988
40
0.406249999999987
40
0.406249999999987
40
0.437499999999987
40
0.437499999999987
40
0.453124999999987
40
0.453124999999987
40
0.468749999999987
40
0.468749999999987
40
0.499999999999988
40
0.499999999999988
40
0.531249999999988
40
0.531249999999988
40
0.546874999999988
40
0.546874999999988
40
0.562499999999988
40
0.562499999999988
40
0.578124999999988
40
0.578124999999988
40
0.593749999999988
40
0.593749999999988
40
0.609374999999988
40
0.609374999999988
40
0.624999999999988
40
0.624999999999988
40
0.640624999999988
40
0.640624999999988
40
0.656249999999987
40
0.656249999999987
40
0.687499999999987
40
0.687499999999987
40
0.703124999999988
40
0.703124999999988
40
0.718749999999988
40
0.718749999999988
40
0.749999999999989
40
0.749999999999989
40
0.765624999999989
40
0.765624999999989
40
0.78124999999999
40
0.78124999999999
40
0.812499999999992
40
0.812499999999992
40
0.843749999999993
40
0.843749999999993
40
0.859374999999994
40
0.859374999999994
40
0.874999999999994
40
0.874999999999994
40
0.906249999999996
40
0.906249999999996
40
0.921874999999996
40
0.921874999999996
40
0.937499999999997
40
0.937499999999997
40
0.968749999999999
40
0.968749999999999
40
1
40
1
40
1
40
1
41
1
10
16.3069076658783
20
6.03455598548769
30
0
41
1
10
16.8409120281836
20
5.93533907665901
30
0
41
1
10
17.3748336861265
20
5.83110686973646
30
0
41
1
10
18.4421751159501
20
5.61228624173839
30
0
41
1
10
18.9755970216722
20
5.49770025568023
30
0
41
1
10
19.7751181039138
20
5.31755900045133
30
0
41
1
10
20.0414920731957
20
5.25606735483791
30
0
41
1
10
20.4409925517933
20
5.16192686821691
30
0
41
1
10
20.5741576506629
20
5.1302469648177
30
0
41
1
10
20.8405380722138
20
5.06640342735398
30
0
41
1
10
20.973748727537
20
5.03423040998035
30
0
41
1
10
21.6398688694711
20
4.87204499427691
30
0
41
1
10
22.1729575491326
20
4.73803786331078
30
0
41
1
10
22.9726631730647
20
4.53019105009025
30
0
41
1
10
23.239243364906
20
4.45976587476912
30
0
41
1
10
23.7723840058599
20
4.31650588183788
30
0
41
1
10
24.0389116607555
20
4.24358963826049
30
0
41
1
10
24.5721073906102
20
4.09570213201178
30
0
41
1
10
24.8388468242614
20
4.02090825486877
30
0
41
1
10
25.3726634061629
20
3.86978584411185
30
0
41
1
10
25.6397129906895
20
3.79338867017211
30
0
41
1
10
26.1740584112626
20
3.63883748269802
30
0
41
1
10
26.441318394677
20
3.56069764942526
30
0
41
1
10
26.9754314989954
20
3.40274551275761
30
0
41
1
10
27.2423592707817
20
3.3229121982838
30
0
41
1
10
27.7759115271604
20
3.16140111301823
30
0
41
1
10
28.0425010754788
20
3.07962733730508
30
0
41
1
10
28.5755720852062
20
2.91475532216538
30
0
41
1
10
28.8421216086458
20
2.8318444570339
30
0
41
1
10
29.6418281885713
20
2.58175504973792
30
0
41
1
10
30.1749653853306
20
2.41300980864835
30
0
41
1
10
30.9744606938516
20
2.15629107256291
30
0
41
1
10
31.2409233073608
20
2.07011486351553
30
0
41
1
10
31.7737308513981
20
1.89641480185534
30
0
41
1
10
32.0400401025219
20
1.80878676610797
30
0
41
1
10
32.8391425502413
20
1.54487665567777
30
0
41
1
10
33.3723756890709
20
1.36835088522847
30
0
41
1
10
34.4394327386494
20
1.01300877219236
30
0
41
1
10
34.9732733017044
20
0.834241237698194
30
0
41
1
10
35.7742548500123
20
0.563652624264932
30
0
41
1
10
36.0413148593763
20
0.472919309645931
30
0
41
1
10
36.5751950041658
20
0.291642828852929
30
0
41
1
10
36.8421216300695
20
0.2012422289433
30
0
41
1
10
37.6427734298698
20
-0.069526573411963
30
0
41
1
10
38.176350554631
20
-0.249524295210165
30
0
41
1
10
38.9762197974074
20
-0.519389283193533
30
0
41
1
10
39.2427595287351
20
-0.609323599732875
30
0
41
1
10
39.775623355419
20
-0.789291375699264
30
0
41
1
10
40.0419149962518
20
-0.879419986554211
30
0
41
1
10
40.8409332160531
20
-1.14856570136084
30
0
41
1
10
41.3739432053966
20
-1.32593742858606
30
0
41
1
10
42.4401446735614
20
-1.6780134594764
30
0
41
1
10
42.9733685171856
20
-1.85262259376947
30
0
41
1
10
43.7731296470836
20
-2.11311839251982
30
0
41
1
10
44.0396755658417
20
-2.19979463493311
30
0
41
1
10
44.5730858448005
20
-2.37168219039458
30
0
41
1
10
44.8399768578834
20
-2.45681871001133
30
0
41
1
10
45.374030192061
20
-2.62577020068673
30
0
41
1
10
45.6412663399252
20
-2.70959807009839
30
0
41
1
10
46.1756334401163
20
-2.87589576172687
30
0
41
1
10
46.442698806608
20
-2.95834438277493
30
0
41
1
10
46.9765515560701
20
-3.12195514222481
30
0
41
1
10
47.2433400444347
20
-3.20311432351284
30
0
41
1
10
47.7765899768566
20
-3.36426004599514
30
0
41
1
10
48.0430305866762
20
-3.44429722461089
30
0
41
1
10
48.5759671377013
20
-3.60217556664955
30
0
41
1
10
48.842471588213
20
-3.68000039219797
30
0
41
1
10
49.3754516559524
20
-3.83371176427192
30
0
41
1
10
49.6419323915808
20
-3.90958443288494
30
0
41
1
10
50.4412996654395
20
-4.13438468228861
30
0
41
1
10
50.9741149577282
20
-4.28049612900608
30
0
41
1
10
51.7729243421274
20
-4.49458622724026
30
0
41
1
10
52.0391126013
20
-4.56512517974392
30
0
41
1
10
52.5717623969393
20
-4.70354230664495
30
0
41
1
10
52.8382153839493
20
-4.77144600040555
30
0
41
1
10
53.637810260671
20
-4.97161089161432
30
0
41
1
10
54.1712151285281
20
-5.10027230255238
30
0
41
1
10
54.9716160049001
20
-5.28653507256192
30
0
41
1
10
55.2384649949474
20
-5.34749942535294
30
0
41
1
10
55.7722128911396
20
-5.46724820406291
30
0
41
1
10
56.039182244378
20
-5.52603641092929
30
0
41
1
10
56.8403302553452
20
-5.69773383757632
30
0
41
1
10
57.3742179343305
20
-5.80617664806164
30
0
41
1
10
58.4411689493135
20
-6.01200490815816
30
0
41
1
10
58.9742548929237
20
-6.10934797640007
30
0
41
1
10
59.7730369577642
20
-6.24729820467206
30
0
41
1
10
60.0391715539564
20
-6.29190277678333
30
0
41
1
10
60.5716031464689
20
-6.37776044896896
30
0
41
1
10
60.83786745123
20
-6.41906871733721
30
0
41
1
10
61.636677772231
20
-6.53836048762184
30
0
41
1
10
62.1692694092174
20
-6.61168448066073
30
0
41
1
10
62.9680084189068
20
-6.7126111140999
30
0
41
1
10
63.234226180716
20
-6.74474406622568
30
0
41
1
10
63.7665748071353
20
-6.80598006707683
30
0
41
1
10
64.0327315476018
20
-6.83504951296655
30
0
41
1
10
64.8317409919094
20
-6.91706636965245
30
0
41
1
10
65.3649434202439
20
-6.96504200291764
30
0
41
1
10
66.4320221273658
20
-7.04800802471004
30
0
41
1
10
66.9659036799183
20
-7.08299153238582
30
0
41
1
10
67.4999999999999
20
-7.11139649494766
30
0
0
SPLINE
5
C6
100
AcDbEntity
8
1
62
256
6
ByLayer
370
18
48
1
60
0
100
AcDbSpline
70
4
71
3
72
81
73
77
40
0
40
0
40
0
40
0
40
0.0216261473644215
40
0.0216261473644215
40
0.0420089359609963
40
0.0420089359609963
40
0.062391724557571
40
0.062391724557571
40
0.103157301750721
40
0.103157301750721
40
0.14392287894387
40
0.14392287894387
40
0.164305667540446
40
0.164305667540446
40
0.184688456137021
40
0.184688456137021
40
0.22545403333017
40
0.22545403333017
40
0.245836821926745
40
0.245836821926745
40
0.266219610523319
40
0.266219610523319
40
0.306985187716467
40
0.306985187716467
40
0.32736797631304
40
0.32736797631304
40
0.347750764909614
40
0.347750764909614
40
0.388516342102761
40
0.388516342102761
40
0.408899130699336
40
0.408899130699336
40
0.42928191929591
40
0.42928191929591
40
0.449664707892485
40
0.449664707892485
40
0.470047496489059
40
0.470047496489059
40
0.510813073682209
40
0.510813073682209
40
0.531195862278783
40
0.531195862278783
40
0.551578650875357
40
0.551578650875357
40
0.592344228068506
40
0.592344228068506
40
0.61272701666508
40
0.61272701666508
40
0.633109805261655
40
0.633109805261655
40
0.653492593858229
40
0.653492593858229
40
0.673875382454803
40
0.694258171051378
40
0.694258171051378
40
0.714640959647952
40
0.714640959647952
40
0.735023748244527
40
0.735023748244527
40
0.755406536841101
40
0.755406536841101
40
0.79617211403425
40
0.79617211403425
40
0.816554902630826
40
0.816554902630826
40
0.836937691227401
40
0.836937691227401
40
0.877703268420551
40
0.877703268420551
40
0.898086057017126
40
0.898086057017126
40
0.918468845613701
40
0.918468845613701
40
0.959234422806851
40
0.959234422806851
40
1
40
1
40
1
40
1
41
1
10
54.7834633363697
20
-5.23928104167476
30
0
41
1
10
54.482528976419
20
-5.30904679254729
30
0
41
1
10
54.1816447475064
20
-5.37720587359664
30
0
41
1
10
53.5972930123731
20
-5.50653540071488
30
0
41
1
10
53.3138222435718
20
-5.56788645382241
30
0
41
1
10
52.7470074743583
20
-5.68778903607625
30
0
41
1
10
52.4636821616343
20
-5.74637015938239
30
0
41
1
10
51.6134796408529
20
-5.91713940017635
30
0
41
1
10
51.0463570750508
20
-6.02435272341216
30
0
41
1
10
49.9116443308126
20
-6.22591884525613
30
0
41
1
10
49.3440717500125
20
-6.32029545072655
30
0
41
1
10
48.4924127035253
20
-6.45213563695557
30
0
41
1
10
48.2084388170137
20
-6.49440334764074
30
0
41
1
10
47.6400638375087
20
-6.57525402677993
30
0
41
1
10
47.3559100883639
20
-6.61385144315906
30
0
41
1
10
46.5038065808923
20
-6.72421349800311
30
0
41
1
10
45.9361073912681
20
-6.79056668662042
30
0
41
1
10
45.0852471229624
20
-6.87937924968583
30
0
41
1
10
44.8017608010057
20
-6.90720729727533
30
0
41
1
10
44.2348794350468
20
-6.95913745442817
30
0
41
1
10
43.951431049065
20
-6.98319915942912
30
0
41
1
10
43.1009933575244
20
-7.04967836234326
30
0
41
1
10
42.5339569104528
20
-7.08643943330583
30
0
41
1
10
41.6833953999759
20
-7.13032954510504
30
0
41
1
10
41.3998772938273
20
-7.14308246711801
30
0
41
1
10
40.8328548852531
20
-7.16480378882483
30
0
41
1
10
40.5493639625372
20
-7.17377008876372
30
0
41
1
10
39.6984623998675
20
-7.19484076812321
30
0
41
1
10
39.1306563055876
20
-7.20116571092748
30
0
41
1
10
38.2782658658317
20
-7.19915372034825
30
0
41
1
10
37.9939360796226
20
-7.19656109553898
30
0
41
1
10
37.4257067752293
20
-7.18751946442282
30
0
41
1
10
37.1417722869181
20
-7.18106876045789
30
0
41
1
10
36.57421075286
20
-7.1642944911479
30
0
41
1
10
36.2905484721791
20
-7.15397694046629
30
0
41
1
10
35.7232377338455
20
-7.12958563439199
30
0
41
1
10
35.4396204148977
20
-7.11550468796085
30
0
41
1
10
34.5889100254687
20
-7.06763539809174
30
0
41
1
10
34.0219521335838
20
-7.02823792305853
30
0
41
1
10
33.1719223874214
20
-6.95777878202705
30
0
41
1
10
32.8886671639411
20
-6.93237602195256
30
0
41
1
10
32.3221272789748
20
-6.87787787074291
30
0
41
1
10
32.0387929157588
20
-6.84882807057298
30
0
41
1
10
31.1885706561652
20
-6.75634975177212
30
0
41
1
10
30.6214908061111
20
-6.68758210406224
30
0
41
1
10
29.7705856245118
20
-6.57362873801569
30
0
41
1
10
29.4869064292743
20
-6.53383636948914
30
0
41
1
10
28.9194658230203
20
-6.45058949378182
30
0
41
1
10
28.6357096237216
20
-6.40712157342438
30
0
41
1
10
28.0678010397429
20
-6.31693589261201
30
0
41
1
10
27.7836040049549
20
-6.2701925669644
30
0
41
1
10
27.2151561201333
20
-6.17344895558531
30
0
41
1
10
26.6468488381974
20
-6.07348866991873
30
0
41
1
10
26.0788552045449
20
-5.96706554054668
30
0
41
1
10
25.5110459601342
20
-5.85735583020102
30
0
41
1
10
25.2272438353945
20
-5.80083851567645
30
0
41
1
10
24.6597692032832
20
-5.68458736484109
30
0
41
1
10
24.3760542318263
20
-5.62492786212465
30
0
41
1
10
23.8084781684617
20
-5.50291419988733
30
0
41
1
10
23.5246467843012
20
-5.44050726572095
30
0
41
1
10
22.6730496670834
20
-5.24905730386968
30
0
41
1
10
22.1051770602084
20
-5.11580424647468
30
0
41
1
10
21.2532861238638
20
-4.90714487322535
30
0
41
1
10
20.9693296073145
20
-4.83607667364424
30
0
41
1
10
20.4011904993901
20
-4.69142027255523
30
0
41
1
10
20.1169535914952
20
-4.61792768644321
30
0
41
1
10
19.2645882275741
20
-4.39418145633647
30
0
41
1
10
18.6965479112296
20
-4.24058090440889
30
0
41
1
10
17.844907901081
20
-4.00326912108017
30
0
41
1
10
17.5611022091038
20
-3.92300103446774
30
0
41
1
10
16.9936412289187
20
-3.76011607067372
30
0
41
1
10
16.7099804615526
20
-3.67750972203677
30
0
41
1
10
15.858730704803
20
-3.42741856413522
30
0
41
1
10
15.2909747279297
20
-3.25742410140001
30
0
41
1
10
14.1551161379848
20
-2.91052204010117
30
0
41
1
10
13.5870053226513
20
-2.73363727744231
30
0
41
1
10
13.018804002227
20
-2.55299069919644
30
0
0
SPLINE
5
C7
100
AcDbEntity
8
1
62
256
6
ByLayer
370
18
48
1
60
0
100
AcDbSpline
70
4
71
3
72
20
73
16
40
0
40
0
40
0
40
0
40
0.250000000000006
40
0.250000000000006
40
0.375000000000006
40
0.375000000000006
40
0.500000000000007
40
0.500000000000007
40
0.750000000000008
40
0.750000000000008
40
0.875000000000006
40
0.875000000000006
40
0.937500000000003
40
0.937500000000003
40
1
40
1
40
1
40
1
41
1
10
75.68323435701
20
-1.10398063646494
30
0
41
1
10
75.000435045381
20
-0.857693288072994
30
0
41
1
10
74.3179775442258
20
-0.611058445786256
30
0
41
1
10
73.2950727693943
20
-0.239825781857064
30
0
41
1
10
72.9542405760434
20
-0.115852438925259
30
0
41
1
10
72.2728858553795
20
0.132653836569318
30
0
41
1
10
71.9323400818443
20
0.257121747014111
30
0
41
1
10
70.9102498719427
20
0.628828003306495
30
0
41
1
10
70.2285025747055
20
0.875063749464914
30
0
41
1
10
69.2056271439843
20
1.24282916972732
30
0
41
1
10
68.8646394044852
20
1.36518861924301
30
0
41
1
10
68.3531016342179
20
1.54834767615139
30
0
41
1
10
68.1825728883163
20
1.60931864315279
30
0
41
1
10
67.8413892817732
20
1.73083937671205
30
0
41
1
10
67.6707278058722
20
1.79137108393414
30
0
41
1
10
67.5
20
1.85168347902484
30
0
0
SPLINE
5
C8
100
AcDbEntity
8
1
62
256
6
ByLayer
370
18
48
1
60
0
100
AcDbSpline
70
4
71
3
72
85
73
81
40
0
40
0
40
0
40
0
40
0.0312499999999995
40
0.0312499999999995
40
0.062499999999999
40
0.062499999999999
40
0.124999999999998
40
0.124999999999998
40
0.140624999999998
40
0.140624999999998
40
0.156249999999997
40
0.156249999999997
40
0.187499999999997
40
0.187499999999997
40
0.249999999999997
40
0.249999999999997
40
0.281249999999995
40
0.281249999999995
40
0.296874999999996
40
0.296874999999996
40
0.312499999999996
40
0.312499999999996
40
0.343749999999997
40
0.343749999999997
40
0.374999999999997
40
0.374999999999997
40
0.406249999999998
40
0.406249999999998
40
0.437499999999999
40
0.437499999999999
40
0.445312499999998
40
0.445312499999998
40
0.453124999999998
40
0.468749999999997
40
0.468749999999997
40
0.499999999999995
40
0.499999999999995
40
0.531249999999993
40
0.531249999999993
40
0.539062499999992
40
0.539062499999992
40
0.546874999999992
40
0.56249999999999
40
0.56249999999999
40
0.593749999999987
40
0.593749999999987
40
0.624999999999984
40
0.624999999999984
40
0.632812499999983
40
0.632812499999983
40
0.640624999999982
40
0.656249999999983
40
0.656249999999983
40
0.687499999999983
40
0.687499999999983
40
0.718749999999983
40
0.718749999999983
40
0.726562499999983
40
0.726562499999983
40
0.734374999999983
40
0.734374999999983
40
0.749999999999984
40
0.749999999999984
40
0.781249999999984
40
0.781249999999984
40
0.812499999999984
40
0.843749999999984
40
0.843749999999984
40
0.851562499999985
40
0.851562499999985
40
0.859374999999985
40
0.874999999999987
40
0.874999999999987
40
0.90624999999999
40
0.937499999999993
40
0.968749999999997
40
0.968749999999997
40
0.984374999999998
40
0.984374999999998
40
1
40
1
40
1
40
1
41
1
10
75.6832343570139
20
7.49325226647636
30
0
41
1
10
75.7315815432555
20
7.37334150262953
30
0
41
1
10
75.7800043299977
20
7.2516317132191
30
0
41
1
10
75.8770823922125
20
7.00490580617478
30
0
41
1
10
75.9257375748199
20
6.87988906999152
30
0
41
1
10
76.0721360718082
20
6.50020057564493
30
0
41
1
10
76.1703255772033
20
6.24091627454624
30
0
41
1
10
76.2939038386639
20
5.90968533810192
30
0
41
1
10
76.3186605000867
20
5.84308072847071
30
0
41
1
10
76.3682536898034
20
5.70916051688459
30
0
41
1
10
76.3930994335284
20
5.6418190169644
30
0
41
1
10
76.4673098915879
20
5.43993297932738
30
0
41
1
10
76.5164965424247
20
5.30513283257861
30
0
41
1
10
76.6631349641232
20
4.90009965812402
30
0
41
1
10
76.7597146373014
20
4.62925293479785
30
0
41
1
10
76.9018677467741
20
4.22144807004525
30
0
41
1
10
76.9487889804504
20
4.08525324476128
30
0
41
1
10
77.0182148915792
20
3.88047978229082
30
0
41
1
10
77.0411962813765
20
3.81214128691232
30
0
41
1
10
77.086775524137
20
3.67528070568994
30
0
41
1
10
77.1093853773346
20
3.60672023168397
30
0
41
1
10
77.1762010782281
20
3.40171523493959
30
0
41
1
10
77.2195098704282
20
3.26563598652967
30
0
41
1
10
77.3028655423348
20
2.99443478370961
30
0
41
1
10
77.3429178922563
20
2.85931371012913
30
0
41
1
10
77.4185434970302
20
2.58974698816013
30
0
41
1
10
77.4541231494676
20
2.45530189455883
30
0
41
1
10
77.5189702540328
20
2.18672210159173
30
0
41
1
10
77.5482405422842
20
2.05258632948826
30
0
41
1
10
77.5792511423354
20
1.88483140056849
30
0
41
1
10
77.5851774381851
20
1.85124598279933
30
0
41
1
10
77.5963972045238
20
1.78419797525515
30
0
41
1
10
77.6122516289317
20
1.68397769531302
30
0
41
1
10
77.6250098514801
20
1.58482570457286
30
0
41
1
10
77.6459826891646
20
1.38800000760449
30
0
41
1
10
77.6538616937725
20
1.25874715222551
30
0
41
1
10
77.6559390490466
20
1.00462384364241
30
0
41
1
10
77.6501251706285
20
0.879755326387254
30
0
41
1
10
77.634360193142
20
0.726814862916171
30
0
41
1
10
77.6307809904616
20
0.69634438778445
30
0
41
1
10
77.6228231541577
20
0.635917677924681
30
0
41
1
10
77.6097164272206
20
0.546239046130552
30
0
41
1
10
77.5933021978094
20
0.459409646259559
30
0
41
1
10
77.5566132219527
20
0.289459017711181
30
0
41
1
10
77.5270276326112
20
0.181095990340822
30
0
41
1
10
77.4602656417463
20
-0.0261349289747272
30
0
41
1
10
77.4230948883963
20
-0.125005631676601
30
0
41
1
10
77.3731196287776
20
-0.242746686227633
30
0
41
1
10
77.3629369362334
20
-0.266024345173918
30
0
41
1
10
77.342289616646
20
-0.31188368456634
30
0
41
1
10
77.3109319182313
20
-0.379551116182967
30
0
41
1
10
77.2785339419284
20
-0.443919472113038
30
0
41
1
10
77.2126022187795
20
-0.568388589847302
30
0
41
1
10
77.16714836552
20
-0.645689717102101
30
0
41
1
10
77.0741226404473
20
-0.789310579074822
30
0
41
1
10
77.0265445014212
20
-0.855628284148168
30
0
41
1
10
76.9660338495434
20
-0.93167038428723
30
0
41
1
10
76.9538790511864
20
-0.946535248667288
30
0
41
1
10
76.9294686281356
20
-0.975574962433456
30
0
41
1
10
76.9172071593459
20
-0.989755458744725
30
0
41
1
10
76.8804386496111
20
-1.03107937731278
30
0
41
1
10
76.8558966932546
20
-1.05706867222918
30
0
41
1
10
76.7822203575915
20
-1.13046098172049
30
0
41
1
10
76.7330391704359
20
-1.17329784710179
30
0
41
1
10
76.6346388206507
20
-1.24709327497351
30
0
41
1
10
76.53619813319
20
-1.30900795471294
30
0
41
1
10
76.4376487433663
20
-1.3471902529526
30
0
41
1
10
76.3759703848647
20
-1.36347663760324
30
0
41
1
10
76.3636258476354
20
-1.36635427756721
30
0
41
1
10
76.3390395926574
20
-1.37132469973693
30
0
41
1
10
76.3022725849398
20
-1.3776150427509
30
0
41
1
10
76.2658306719189
20
-1.38044820657686
30
0
41
1
10
76.1933483914104
20
-1.38158285054405
30
0
41
1
10
76.0977758581064
20
-1.37102705265701
30
0
41
1
10
75.9571250600892
20
-1.31963517995325
30
0
41
1
10
75.864832491685
20
-1.26162301978812
30
0
41
1
10
75.796041289752
20
-1.20901053961566
30
0
41
1
10
75.7732559053553
20
-1.19000867164991
30
0
41
1
10
75.7280180870272
20
-1.14914831598571
30
0
41
1
10
75.7055545960656
20
-1.12728140433876
30
0
41
1
10
75.6832343570138
20
-1.10398063646633
30
0
0
SPLINE
5
C9
100
AcDbEntity
8
1
62
256
6
ByLayer
370
18
48
1
60
0
100
AcDbSpline
70
4
71
3
72
22
73
18
40
0
40
0
40
0
40
0
40
0.0480044229020662
40
0.0480044229020662
40
0.238403538321658
40
0.238403538321658
40
0.333603096031454
40
0.333603096031454
40
0.42880265374125
40
0.42880265374125
40
0.619201769160836
40
0.619201769160836
40
0.809600884580421
40
0.809600884580421
40
0.904800442290211
40
0.904800442290211
40
1
40
1
40
1
40
1
41
1
10
70.3117587694732
20
7.73803351228557
30
0
41
1
10
70.3977039981048
20
7.73805089363117
30
0
41
1
10
70.4836423261073
20
7.73787930398285
30
0
41
1
10
70.9103985021905
20
7.73608814508717
30
0
41
1
10
71.2510861026967
20
7.73168031772914
30
0
41
1
10
71.7619225351148
20
7.72053922963497
30
0
41
1
10
71.9321833065856
20
7.71607129629459
30
0
41
1
10
72.2728051726339
20
7.70565930413539
30
0
41
1
10
72.4431677165173
20
7.69971747051264
30
0
41
1
10
72.9543594432067
20
7.6796909250418
30
0
41
1
10
73.2952841988795
20
7.66340397838792
30
0
41
1
10
73.9773225687647
20
7.62495977279804
30
0
41
1
10
74.3184383380979
20
7.60280392697317
30
0
41
1
10
74.8301893530065
20
7.56510246287891
30
0
41
1
10
75.0007861983285
20
7.55179017133625
30
0
41
1
10
75.3419926903454
20
7.52365394459073
30
0
41
1
10
75.5125934033372
20
7.50882320116796
30
0
41
1
10
75.68323435701
20
7.49325226647673
30
0
0
SPLINE
5
CA
100
AcDbEntity
8
1
62
256
6
ByLayer
370
18
48
1
60
0
100
AcDbSpline
70
4
71
3
72
28
73
24
40
0
40
0
40
0
40
0
40
0.056663106171824
40
0.056663106171824
40
0.119552232427037
40
0.119552232427037
40
0.245330484937462
40
0.245330484937462
40
0.371108737447887
40
0.371108737447887
40
0.433997863703099
40
0.433997863703099
40
0.496886989958312
40
0.496886989958312
40
0.622665242468734
40
0.622665242468734
40
0.685554368723945
40
0.685554368723945
40
0.748443494979157
40
0.748443494979157
40
0.874221747489578
40
0.874221747489578
40
1
40
1
40
1
40
1
41
1
10
54.7840567648912
20
5.24285449245062
30
0
41
1
10
55.0244523205548
20
5.29859532507197
30
0
41
1
10
55.2648855013134
20
5.35342698664692
30
0
41
1
10
55.7722128911396
20
5.46724820406288
30
0
41
1
10
56.039182244378
20
5.52603641092927
30
0
41
1
10
56.8403302553451
20
5.69773383757632
30
0
41
1
10
57.3742179343306
20
5.80617664806164
30
0
41
1
10
58.4411689493136
20
6.01200490815816
30
0
41
1
10
58.9742548929237
20
6.10934797640007
30
0
41
1
10
59.7730369577642
20
6.24729820467206
30
0
41
1
10
60.0391715539565
20
6.29190277678333
30
0
41
1
10
60.5716031464689
20
6.37776044896896
30
0
41
1
10
60.8378674512299
20
6.41906871733721
30
0
41
1
10
61.636677772231
20
6.53836048762184
30
0
41
1
10
62.1692694092174
20
6.61168448066073
30
0
41
1
10
62.9680084189068
20
6.71261111409987
30
0
41
1
10
63.234226180716
20
6.74474406622568
30
0
41
1
10
63.7665748071353
20
6.8059800670768
30
0
41
1
10
64.0327315476018
20
6.83504951296655
30
0
41
1
10
64.8317409919095
20
6.91706636965245
30
0
41
1
10
65.364943420244
20
6.96504200291764
30
0
41
1
10
66.4320221273658
20
7.04800802471007
30
0
41
1
10
66.9659036799183
20
7.08299153238582
30
0
41
1
10
67.4999999999999
20
7.11139649494766
30
0
0
SPLINE
5
CB
100
AcDbEntity
8
1
62
256
6
ByLayer
370
18
48
1
60
0
100
AcDbSpline
70
4
71
3
72
56
73
52
40
0
40
0
40
0
40
0
40
0.0591261155294834
40
0.0591261155294834
40
0.0886891732942251
40
0.0886891732942251
40
0.118252231058967
40
0.118252231058967
40
0.17737834658845
40
0.17737834658845
40
0.236504462117934
40
0.236504462117934
40
0.266067519882675
40
0.266067519882675
40
0.295630577647417
40
0.295630577647417
40
0.325193635412159
40
0.325193635412159
40
0.3547566931769
40
0.3547566931769
40
0.384319750941642
40
0.384319750941642
40
0.413882808706384
40
0.413882808706384
40
0.473008924235867
40
0.473008924235867
40
0.502571982000609
40
0.502571982000609
40
0.532135039765351
40
0.532135039765351
40
0.591261155294835
40
0.591261155294835
40
0.65038727082432
40
0.65038727082432
40
0.679950328589062
40
0.679950328589062
40
0.709513386353803
40
0.709513386353803
40
0.768639501883288
40
0.768639501883288
40
0.79820255964803
40
0.79820255964803
40
0.827765617412771
40
0.827765617412771
40
0.886891732942256
40
0.886891732942256
40
0.916454790706998
40
0.916454790706998
40
0.94601784847174
40
0.94601784847174
40
1
40
1
40
1
40
1
41
1
10
67.5
20
1.54953853120324
30
0
41
1
10
66.93155596427
20
1.73749924592914
30
0
41
1
10
66.3634792837894
20
1.92313578217619
30
0
41
1
10
65.5120152826293
20
2.19844027952468
30
0
41
1
10
65.2283057754267
20
2.2896914580985
30
0
41
1
10
64.6611249935013
20
2.47119155704925
30
0
41
1
10
64.3776747829965
20
2.56149744387267
30
0
41
1
10
63.5273093980599
20
2.82985779827197
30
0
41
1
10
62.9603003798917
20
3.00515234959053
30
0
41
1
10
61.826256869625
20
3.34906894869653
30
0
41
1
10
61.2592328207809
20
3.5177174305787
30
0
41
1
10
60.4087554961069
20
3.7658206560387
30
0
41
1
10
60.1252456173235
20
3.84763629541237
30
0
41
1
10
59.5579085777812
20
4.00878339727032
30
0
41
1
10
59.2741122324483
20
4.08819515043174
30
0
41
1
10
58.7062877211227
20
4.24476261745497
30
0
41
1
10
58.422258094511
20
4.321914686724
30
0
41
1
10
57.8539817474368
20
4.47399583420449
30
0
41
1
10
57.5696630120782
20
4.54894558451201
30
0
41
1
10
57.0014841646401
20
4.6964956262623
30
0
41
1
10
56.7175812373939
20
4.7691480630713
30
0
41
1
10
56.1500035895455
20
4.91186099497773
30
0
41
1
10
55.8662751029022
20
4.98180227472173
30
0
41
1
10
55.0151496509449
20
5.18716554604569
30
0
41
1
10
54.4478776042553
20
5.31828285275748
30
0
41
1
10
53.5972930123731
20
5.50653540071488
30
0
41
1
10
53.3138222435718
20
5.56788645382244
30
0
41
1
10
52.7470074743583
20
5.68778903607625
30
0
41
1
10
52.4636821616344
20
5.74637015938239
30
0
41
1
10
51.6134796408529
20
5.91713940017635
30
0
41
1
10
51.0463570750508
20
6.02435272341216
30
0
41
1
10
49.9116443308126
20
6.22591884525613
30
0
41
1
10
49.3440717500124
20
6.32029545072655
30
0
41
1
10
48.4924127035253
20
6.45213563695557
30
0
41
1
10
48.2084388170137
20
6.49440334764074
30
0
41
1
10
47.6400638375087
20
6.57525402677993
30
0
41
1
10
47.3559100883639
20
6.61385144315904
30
0
41
1
10
46.5038065808923
20
6.72421349800314
30
0
41
1
10
45.9361073912681
20
6.79056668662045
30
0
41
1
10
45.0852471229624
20
6.87937924968583
30
0
41
1
10
44.8017608010057
20
6.90720729727533
30
0
41
1
10
44.2348794350468
20
6.95913745442817
30
0
41
1
10
43.951431049065
20
6.98319915942912
30
0
41
1
10
43.1009933575244
20
7.04967836234326
30
0
41
1
10
42.5339569104528
20
7.08643943330583
30
0
41
1
10
41.683395399976
20
7.13032954510504
30
0
41
1
10
41.3998772938273
20
7.14308246711801
30
0
41
1
10
40.8328548852532
20
7.16480378882483
30
0
41
1
10
40.5493639625372
20
7.17377008876372
30
0
41
1
10
39.7478146132705
20
7.19361867063282
30
0
41
1
10
39.2294503363524
20
7.20000672362875
30
0
41
1
10
38.7107013479346
20
7.20000035542807
30
0
0
SPLINE
5
CC
100
AcDbEntity
8
1
62
256
6
ByLayer
370
18
48
1
60
0
100
AcDbSpline
70
4
71
3
72
105
73
101
40
0
40
0
40
0
40
0
40
0.0624999999999969
40
0.0624999999999969
40
0.124999999999994
40
0.124999999999994
40
0.156249999999992
40
0.156249999999992
40
0.18749999999999
40
0.18749999999999
40
0.218749999999988
40
0.218749999999988
40
0.226562499999987
40
0.226562499999987
40
0.234374999999986
40
0.249999999999985
40
0.249999999999985
40
0.281249999999983
40
0.281249999999983
40
0.296874999999983
40
0.296874999999983
40
0.304687499999982
40
0.304687499999982
40
0.312499999999981
40
0.312499999999981
40
0.343749999999979
40
0.343749999999979
40
0.374999999999977
40
0.374999999999977
40
0.390624999999976
40
0.390624999999976
40
0.398437499999975
40
0.398437499999975
40
0.406249999999975
40
0.406249999999975
40
0.421874999999976
40
0.421874999999976
40
0.437499999999976
40
0.437499999999976
40
0.441406249999976
40
0.441406249999976
40
0.445312499999976
40
0.445312499999976
40
0.453124999999977
40
0.453124999999977
40
0.468749999999977
40
0.468749999999977
40
0.484374999999978
40
0.484374999999978
40
0.492187499999978
40
0.492187499999978
40
0.499999999999978
40
0.499999999999978
40
0.515624999999979
40
0.515624999999979
40
0.53124999999998
40
0.53124999999998
40
0.53906249999998
40
0.53906249999998
40
0.54687499999998
40
0.54687499999998
40
0.562499999999981
40
0.562499999999981
40
0.578124999999981
40
0.578124999999981
40
0.585937499999982
40
0.585937499999982
40
0.593749999999982
40
0.593749999999982
40
0.609374999999983
40
0.609374999999983
40
0.624999999999983
40
0.624999999999983
40
0.656249999999984
40
0.656249999999984
40
0.671874999999984
40
0.671874999999984
40
0.679687499999984
40
0.679687499999984
40
0.687499999999984
40
0.687499999999984
40
0.718749999999985
40
0.718749999999985
40
0.749999999999987
40
0.749999999999987
40
0.781249999999989
40
0.781249999999989
40
0.81249999999999
40
0.81249999999999
40
0.843749999999992
40
0.843749999999992
40
0.874999999999993
40
0.874999999999993
40
0.906249999999995
40
0.906249999999995
40
0.937499999999997
40
0.937499999999997
40
0.968749999999998
40
0.968749999999998
40
1
40
1
40
1
40
1
41
1
10
10
20
6.49582827142501
30
0
41
1
10
9.611866393345
20
6.55801327302007
30
0
41
1
10
9.22831747187917
20
6.61180749576377
30
0
41
1
10
8.47053444403741
20
6.6994740909449
30
0
41
1
10
8.09629448141072
20
6.73337722931024
30
0
41
1
10
7.54213354087094
20
6.76538815993942
30
0
41
1
10
7.35861469448145
20
6.77289912182437
30
0
41
1
10
6.99404859847428
20
6.78063658810035
30
0
41
1
10
6.81300082348122
20
6.78086706218929
30
0
41
1
10
6.45348088845415
20
6.77276987060932
30
0
41
1
10
6.27500782927879
20
6.7644492283483
30
0
41
1
10
6.05362660101403
20
6.74760938890466
30
0
41
1
10
6.0093950206122
20
6.74391397859117
30
0
41
1
10
5.92136578988845
20
6.73586685518518
30
0
41
1
10
5.78995589338263
20
6.72281212550359
30
0
41
1
10
5.66047574065908
20
6.70669927342982
30
0
41
1
10
5.40418272530508
20
6.67006535652939
30
0
41
1
10
5.23686594071592
20
6.63979238044672
30
0
41
1
10
4.99175094476149
20
6.58388294298777
30
0
41
1
10
4.91102512438346
20
6.56349042148793
30
0
41
1
10
4.79150257616584
20
6.5299795257244
30
0
41
1
10
4.75192300254088
20
6.5183216063607
30
0
41
1
10
4.67330605929206
20
6.49397412844448
30
0
41
1
10
4.63422652807216
20
6.481269168209
30
0
41
1
10
4.44113426603263
20
6.4153230128571
30
0
41
1
10
4.29350795887251
20
6.35473409549769
30
0
41
1
10
4.0136218357481
20
6.21488154371261
30
0
41
1
10
3.88133453703921
20
6.13565708254859
30
0
41
1
10
3.6966150043514
20
5.99926215104753
30
0
41
1
10
3.63733904899522
20
5.95085407020849
30
0
41
1
10
3.55231349988506
20
5.87314586769503
30
0
41
1
10
3.52455495267517
20
5.84631989321579
30
0
41
1
10
3.47089512373859
20
5.79131181540308
30
0
41
1
10
3.44496598193356
20
5.76311249434292
30
0
41
1
10
3.36996448128377
20
5.67634321651269
30
0
41
1
10
3.32367136973591
20
5.61560713204372
30
0
41
1
10
3.23908733178314
20
5.48779110308206
30
0
41
1
10
3.20079345666909
20
5.42071355674418
30
0
41
1
10
3.15844641658904
20
5.33243008599769
30
0
41
1
10
3.15025376812144
20
5.31455097888082
30
0
41
1
10
3.13443829774462
20
5.27833351526289
30
0
41
1
10
3.12680493173735
20
5.25996643101715
30
0
41
1
10
3.10491767708686
20
5.20449774577449
30
0
41
1
10
3.09164182979168
20
5.1669612367358
30
0
41
1
10
3.05577639152511
20
5.05266280749535
30
0
41
1
10
3.03714208350948
20
4.97421431663037
30
0
41
1
10
3.0106645229279
20
4.81267584392873
30
0
41
1
10
3.00282022531678
20
4.72958632045143
30
0
41
1
10
2.9994983841969
20
4.60130456550985
30
0
41
1
10
2.99980043431384
20
4.55793540210925
30
0
41
1
10
3.00330690120268
20
4.46994320719739
30
0
41
1
10
3.00649354010727
20
4.42579846613273
30
0
41
1
10
3.02019353552788
20
4.29311903897403
30
0
41
1
10
3.03484284501366
20
4.20425643108226
30
0
41
1
10
3.07456470972932
20
4.02577104726444
30
0
41
1
10
3.09963925513176
20
3.93614821124046
30
0
41
1
10
3.14477546073877
20
3.80118366669635
30
0
41
1
10
3.16111860981948
20
3.75601402132961
30
0
41
1
10
3.19584771909189
20
3.66656163325774
30
0
41
1
10
3.21426785557151
20
3.62216121528041
30
0
41
1
10
3.27250133790756
20
3.48988134398357
30
0
41
1
10
3.31528074561862
20
3.40292115084088
30
0
41
1
10
3.40792881981901
20
3.2312185408592
30
0
41
1
10
3.45780008049644
20
3.14647693657037
30
0
41
1
10
3.53745636142088
20
3.02089718562169
30
0
41
1
10
3.56481797258283
20
2.97929309562346
30
0
41
1
10
3.62109485192787
20
2.89657849788847
30
0
41
1
10
3.65004308949111
20
2.85542763137445
30
0
41
1
10
3.73840546507853
20
2.73366068640547
30
0
41
1
10
3.79954505967368
20
2.6544011462627
30
0
41
1
10
3.92572193993243
20
2.4992370073781
30
0
41
1
10
3.99076087509738
20
2.42333381899888
30
0
41
1
10
4.19106887727645
20
2.20009745404479
30
0
41
1
10
4.33150247736228
20
2.05721489374432
30
0
41
1
10
4.55055273995964
20
1.85014325474964
30
0
41
1
10
4.62497728118538
20
1.78233469922759
30
0
41
1
10
4.7385374925766
20
1.68228346349108
30
0
41
1
10
4.77667308820949
20
1.64924539086303
30
0
41
1
10
4.85323285818899
20
1.58396767685809
30
0
41
1
10
4.89169356716843
20
1.55169572045236
30
0
41
1
10
5.08484715275145
20
1.3920590475588
30
0
41
1
10
5.24207584439515
20
1.26983253630905
30
0
41
1
10
5.56082111807871
20
1.03405937198008
30
0
41
1
10
5.72234231179507
20
0.920522688122759
30
0
41
1
10
6.04883413697337
20
0.700465782109433
30
0
41
1
10
6.21380692628691
20
0.593950398546156
30
0
41
1
10
6.54653658355827
20
0.386650163892483
30
0
41
1
10
6.71429436857892
20
0.285867609204246
30
0
41
1
10
7.05205952603381
20
0.0890258657134098
30
0
41
1
10
7.22206712561675
20
-0.0070323960350152
30
0
41
1
10
7.56391296832746
20
-0.195198397901834
30
0
41
1
10
7.73575105160515
20
-0.287305949863935
30
0
41
1
10
8.08095452241938
20
-0.468123585499597
30
0
41
1
10
8.25436068363476
20
-0.556851780345141
30
0
41
1
10
8.60162710969456
20
-0.730805988800341
30
0
41
1
10
8.775600369648
20
-0.816092419680558
30
0
41
1
10
9.12419967255659
20
-0.983437557551099
30
0
41
1
10
9.29882553326502
20
-1.06549580537526
30
0
41
1
10
9.64881243946942
20
-1.22629806143371
30
0
41
1
10
9.82417347845862
20
-1.30504130802461
30
0
41
1
10
10
20
-1.38197332628488
30
0
0
SPLINE
5
CD
100
AcDbEntity
8
1
62
256
6
ByLayer
370
18
48
1
60
0
100
AcDbSpline
70
4
71
3
72
14
73
10
40
0
40
0
40
0
40
0
40
0.25
40
0.25
40
0.5
40
0.5
40
0.75
40
0.75
40
1
40
1
40
1
40
1
41
1
10
13.0188040022269
20
-2.55299069919639
30
0
41
1
10
12.762404236555
20
-2.46901036894121
30
0
41
1
10
12.5075507834299
20
-2.38096825406703
30
0
41
1
10
12.0003170708468
20
-2.19799570619594
30
0
41
1
10
11.7479346008968
20
-2.10307114593147
30
0
41
1
10
11.2452080219644
20
-1.90717738615589
30
0
41
1
10
10.9948624281356
20
-1.80621286069155
30
0
41
1
10
10.4960216075372
20
-1.5985164409899
30
0
41
1
10
10.2475258478004
20
-1.49178733018769
30
0
41
1
10
10
20
-1.38197332628488
30
0
0
SPLINE
5
CE
100
AcDbEntity
8
1
62
256
6
ByLayer
370
18
48
1
60
0
100
AcDbSpline
70
4
71
4
72
16
73
11
40
0
40
0
40
0
40
0
40
0
40
0.281073364329053
40
0.281073364329053
40
0.281073364329053
40
0.718926635670943
40
0.718926635670943
40
0.718926635670943
40
1
40
1
40
1
40
1
40
1
41
0.996206756705278
10
16.3069076658783
20
6.03455598548767
30
0
41
0.994703135059731
10
16.1971188290797
20
5.49220683420398
30
0
41
0.99506899048026
10
16.0217649673633
20
4.79812297946239
30
0
41
1
10
15.7904026619307
20
4.00878513108799
30
0
41
1
10
15.1631075722573
20
2.04171256064333
30
0
41
0.988033871712585
10
14.6628558340527
20
0.629026603236654
30
0
41
1
10
14.162604095848
20
-0.571304299753649
30
0
41
1
10
13.5353090061746
20
-1.88084732217698
30
0
41
0.99506899048026
10
13.303946700742
20
-2.300008233098
30
0
41
0.994703135059731
10
13.1285928390256
20
-2.52186841654214
30
0
41
0.996206756705278
10
13.018804002227
20
-2.55299069919645
30
0
0
SPLINE
5
CF
100
AcDbEntity
8
1
62
256
6
ByLayer
370
18
48
1
60
0
100
AcDbSpline
70
4
71
3
72
23
73
19
40
0
40
0
40
0
40
0
40
0.125000000000004
40
0.125000000000004
40
0.250000000000009
40
0.250000000000009
40
0.375000000000013
40
0.375000000000013
40
0.500000000000018
40
0.500000000000018
40
0.56250000000002
40
0.593750000000019
40
0.593750000000019
40
0.625000000000019
40
0.625000000000019
40
0.75000000000001
40
0.75000000000001
40
1
40
1
40
1
40
1
41
1
10
10
20
6.49582827142501
30
0
41
1
10
10.2686452845436
20
6.50790229607918
30
0
41
1
10
10.536618393371
20
6.5153438094062
30
0
41
1
10
11.071331680354
20
6.52210280352892
30
0
41
1
10
11.3380712685621
20
6.52141253751017
30
0
41
1
10
11.870404997622
20
6.51244914981703
30
0
41
1
10
12.135998709844
20
6.50417035457741
30
0
41
1
10
12.6661208177762
20
6.48018851473191
30
0
41
1
10
12.9306488897419
20
6.46448056620264
30
0
41
1
10
13.3267049495527
20
6.43529841588497
30
0
41
1
10
13.5245490569702
20
6.41930028890974
30
0
41
1
10
13.7221303127135
20
6.40117172875159
30
0
41
1
10
13.8537942882591
20
6.38861011062411
30
0
41
1
10
13.9196264794987
20
6.38208830478445
30
0
41
1
10
14.2481290174201
20
6.34833827727363
30
0
41
1
10
14.5090370206073
20
6.3176691505731
30
0
41
1
10
15.2869107717408
20
6.21476640803968
30
0
41
1
10
15.7990407754712
20
6.13159683160546
30
0
41
1
10
16.3069076658782
20
6.03455598548771
30
0
0
SPLINE
5
D0
100
AcDbEntity
8
1
62
256
6
ByLayer
370
13
48
1
60
0
100
AcDbSpline
70
4
71
3
72
84
73
80
40
0
40
0
40
0
40
0
40
0.0312500000000003
40
0.0312500000000003
40
0.0625000000000005
40
0.0625000000000005
40
0.0937500000000008
40
0.0937500000000008
40
0.125000000000001
40
0.125000000000001
40
0.156250000000001
40
0.156250000000001
40
0.187500000000002
40
0.187500000000002
40
0.218750000000002
40
0.218750000000002
40
0.250000000000002
40
0.250000000000002
40
0.281250000000002
40
0.281250000000002
40
0.296875000000003
40
0.296875000000003
40
0.304687500000003
40
0.304687500000003
40
0.312500000000003
40
0.312500000000003
40
0.343750000000003
40
0.343750000000003
40
0.375000000000003
40
0.375000000000003
40
0.406250000000003
40
0.406250000000003
40
0.437500000000004
40
0.437500000000004
40
0.468750000000004
40
0.468750000000004
40
0.500000000000004
40
0.500000000000004
40
0.531250000000004
40
0.531250000000004
40
0.562500000000004
40
0.562500000000004
40
0.593750000000004
40
0.593750000000004
40
0.609375000000005
40
0.609375000000005
40
0.613281250000005
40
0.613281250000005
40
0.617187500000005
40
0.625000000000005
40
0.625000000000005
40
0.656250000000004
40
0.656250000000004
40
0.687500000000004
40
0.687500000000004
40
0.718750000000003
40
0.718750000000003
40
0.750000000000003
40
0.750000000000003
40
0.781250000000002
40
0.781250000000002
40
0.812500000000002
40
0.812500000000002
40
0.843750000000001
40
0.843750000000001
40
0.875000000000001
40
0.875000000000001
40
0.90625
40
0.90625
40
0.9140625
40
0.9140625
40
0.91796875
40
0.91796875
40
0.921875
40
0.9375
40
0.9375
40
0.96875
40
0.96875
40
1
40
1
40
1
40
1
41
1
10
68.9869917861772
20
7.739
30
0
41
1
10
69.0567443129568
20
7.739
30
0
41
1
10
69.1264968397363
20
7.71191289323855
30
0
41
1
10
69.2660018932954
20
7.59494406154943
30
0
41
1
10
69.3357544200749
20
7.50500348099956
30
0
41
1
10
69.475259473634
20
7.25699738839461
30
0
41
1
10
69.5450120004136
20
7.09888668586041
30
0
41
1
10
69.6845170539727
20
6.7142426546944
30
0
41
1
10
69.7542695807522
20
6.48769600617655
30
0
41
1
10
69.8937746343113
20
5.97186007586268
30
0
41
1
10
69.963527161091
20
5.68259967572789
30
0
41
1
10
70.10303221465
20
5.05278800619033
30
0
41
1
10
70.1727847414296
20
4.71230301617709
30
0
41
1
10
70.3122897949887
20
3.99580344024287
30
0
41
1
10
70.3820423217682
20
3.61987326695106
30
0
41
1
10
70.5215473753273
20
2.85020859832312
30
0
41
1
10
70.5912999021068
20
2.4565520852224
30
0
41
1
10
70.7308049556659
20
1.66859385838521
30
0
41
1
10
70.8005574824455
20
1.27434519765015
30
0
41
1
10
70.9051862726148
20
0.693412633445917
30
0
41
1
10
70.9400625360046
20
0.501483353380678
30
0
41
1
10
70.9923769310892
20
0.217265398325992
30
0
41
1
10
71.0098150627841
20
0.1231368605157
30
0
41
1
10
71.0446913261739
20
-0.0637376572580877
30
0
41
1
10
71.0621294578688
20
-0.157336710631171
30
0
41
1
10
71.1493201163433
20
-0.629720532923898
30
0
41
1
10
71.2190726431228
20
-1.01783151834204
30
0
41
1
10
71.3585776966819
20
-1.80195061363779
30
0
41
1
10
71.4283302234614
20
-2.19792295254015
30
0
41
1
10
71.5678352770205
20
-2.98190189440871
30
0
41
1
10
71.6375878038001
20
-3.36984274883687
30
0
41
1
10
71.7770928573592
20
-4.12008865281612
30
0
41
1
10
71.8468453841387
20
-4.48230996919881
30
0
41
1
10
71.9863504376979
20
-5.16394103520889
30
0
41
1
10
72.0561029644773
20
-5.48327147771798
30
0
41
1
10
72.1956080180365
20
-6.06497849110096
30
0
41
1
10
72.265360544816
20
-6.32730384674798
30
0
41
1
10
72.4048655983751
20
-6.78593648893141
30
0
41
1
10
72.4746181251547
20
-6.98223416122545
30
0
41
1
10
72.6141231787137
20
-7.30577588335265
30
0
41
1
10
72.6838757054933
20
-7.43304946880943
30
0
41
1
10
72.8233807590523
20
-7.62121281976559
30
0
41
1
10
72.8931332858319
20
-7.68215624645384
30
0
41
1
10
72.9977620760013
20
-7.72907941972443
30
0
41
1
10
73.032638339391
20
-7.73733396175115
30
0
41
1
10
73.0762336686283
20
-7.73913111622036
30
0
41
1
10
73.0849527344757
20
-7.73906748286356
30
0
41
1
10
73.1023908661706
20
-7.73808983916592
30
0
41
1
10
73.1285480637129
20
-7.73534205048679
30
0
41
1
10
73.1547052612552
20
-7.72866613863849
30
0
41
1
10
73.2418959197296
20
-7.69732901932758
30
0
41
1
10
73.3116484465092
20
-7.64306527747266
30
0
41
1
10
73.4511535000684
20
-7.46883391475015
30
0
41
1
10
73.5209060268479
20
-7.34881119140107
30
0
41
1
10
73.660411080407
20
-7.03980713885298
30
0
41
1
10
73.7301636071865
20
-6.85079285938031
30
0
41
1
10
73.8696686607456
20
-6.40612388499278
30
0
41
1
10
73.9394211875251
20
-6.15047425897606
30
0
41
1
10
74.0789262410843
20
-5.58089782836004
30
0
41
1
10
74.1486787678639
20
-5.26701820554899
30
0
41
1
10
74.2881838214229
20
-4.59460690780648
30
0
41
1
10
74.3579363482024
20
-4.23615259290963
30
0
41
1
10
74.4974414017615
20
-3.4915497705172
30
0
41
1
10
74.5671939285411
20
-3.10548570756168
30
0
41
1
10
74.7066989821002
20
-2.32343182199619
30
0
41
1
10
74.7764515088797
20
-1.92751044885549
30
0
41
1
10
74.9159565624389
20
-1.14194383818705
30
0
41
1
10
74.9857090892184
20
-0.752337729677066
30
0
41
1
10
75.0728997476929
20
-0.277366308102842
30
0
41
1
10
75.0903378793877
20
-0.182964739923193
30
0
41
1
10
75.1164950769301
20
-0.042374667752938
30
0
41
1
10
75.1252141427775
20
0.004204627679627
30
0
41
1
10
75.1426522744724
20
0.0977462249297503
30
0
41
1
10
75.1862476037095
20
0.332454032082723
30
0
41
1
10
75.2298429329468
20
0.571209810408902
30
0
41
1
10
75.3344717231161
20
1.14986680632325
30
0
41
1
10
75.4042242498957
20
1.54326680873004
30
0
41
1
10
75.5437293034548
20
2.33121651469776
30
0
41
1
10
75.6134818302344
20
2.72571640102353
30
0
41
1
10
75.6832343570139
20
3.11233409932362
30
0
0
SPLINE
5
D1
100
AcDbEntity
8
1
62
256
6
ByLayer
370
13
48
1
60
0
100
AcDbSpline
70
4
71
3
72
85
73
81
40
0
40
0
40
0
40
0
40
0.0312500000000003
40
0.0312500000000003
40
0.0625000000000006
40
0.0625000000000006
40
0.093750000000001
40
0.093750000000001
40
0.125000000000001
40
0.125000000000001
40
0.156250000000002
40
0.156250000000002
40
0.187500000000002
40
0.187500000000002
40
0.218750000000002
40
0.218750000000002
40
0.250000000000003
40
0.250000000000003
40
0.281250000000003
40
0.281250000000003
40
0.289062500000003
40
0.289062500000003
40
0.296875000000003
40
0.296875000000003
40
0.312500000000004
40
0.312500000000004
40
0.343750000000004
40
0.343750000000004
40
0.375000000000004
40
0.375000000000004
40
0.406250000000005
40
0.406250000000005
40
0.437500000000005
40
0.437500000000005
40
0.468750000000006
40
0.468750000000006
40
0.500000000000006
40
0.500000000000006
40
0.531250000000007
40
0.531250000000007
40
0.562500000000008
40
0.562500000000008
40
0.566406250000008
40
0.566406250000008
40
0.570312500000008
40
0.570312500000008
40
0.578125000000007
40
0.578125000000007
40
0.593750000000007
40
0.593750000000007
40
0.625000000000006
40
0.625000000000006
40
0.656250000000005
40
0.656250000000005
40
0.687500000000004
40
0.687500000000004
40
0.718750000000003
40
0.718750000000003
40
0.750000000000002
40
0.750000000000002
40
0.781250000000001
40
0.781250000000001
40
0.8125
40
0.8125
40
0.843749999999999
40
0.843749999999999
40
0.851562499999999
40
0.851562499999999
40
0.855468749999999
40
0.855468749999999
40
0.859374999999999
40
0.874999999999999
40
0.874999999999999
40
0.906249999999999
40
0.906249999999999
40
0.937499999999999
40
0.937499999999999
40
0.96875
40
0.96875
40
1
40
1
40
1
40
1
41
1
10
68.4913279938387
20
7.739
30
0
41
1
10
68.5662436851218
20
7.739
30
0
41
1
10
68.6411593764048
20
7.70773423978534
30
0
41
1
10
68.790990758971
20
7.57211682837095
30
0
41
1
10
68.8659064502541
20
7.4676817811976
30
0
41
1
10
69.0157378328203
20
7.17970915681906
30
0
41
1
10
69.0906535241033
20
6.99611240870902
30
0
41
1
10
69.2404849066695
20
6.55075201858261
30
0
41
1
10
69.3154005979526
20
6.28898219776317
30
0
41
1
10
69.4652319805187
20
5.69624684653789
30
0
41
1
10
69.5401476718017
20
5.36534010125706
30
0
41
1
10
69.6899790543679
20
4.65057008720831
30
0
41
1
10
69.764894745651
20
4.2668148667484
30
0
41
1
10
69.9147261282171
20
3.4672647388017
30
0
41
1
10
69.9896418195002
20
3.05159028271746
30
0
41
1
10
70.1394732020663
20
2.21021477754138
30
0
41
1
10
70.2143888933495
20
1.7846088503143
30
0
41
1
10
70.3642202759156
20
0.943110190397817
30
0
41
1
10
70.4391359671986
20
0.527266820628824
30
0
41
1
10
70.5327805813025
20
0.0230589702469217
30
0
41
1
10
70.5515095041233
20
-0.0767951216485869
30
0
41
1
10
70.5889673497649
20
-0.279018606267755
30
0
41
1
10
70.6076962725856
20
-0.380880067224837
30
0
41
1
10
70.6638830410479
20
-0.688398255734285
30
0
41
1
10
70.7013408866894
20
-0.895998558860583
30
0
41
1
10
70.813714423614
20
-1.52368006627845
30
0
41
1
10
70.8886301148971
20
-1.9487633505594
30
0
41
1
10
71.0384614974632
20
-2.79341110569882
30
0
41
1
10
71.1133771887463
20
-3.21288893388513
30
0
41
1
10
71.2632085713124
20
-4.02459479375787
30
0
41
1
10
71.3381242625956
20
-4.41670487072292
30
0
41
1
10
71.4879556451617
20
-5.15222209787046
30
0
41
1
10
71.5628713364448
20
-5.49551527566859
30
0
41
1
10
71.7127027190109
20
-6.11585235302078
30
0
41
1
10
71.7876184102939
20
-6.39282515066827
30
0
41
1
10
71.9374497928601
20
-6.86980053914849
30
0
41
1
10
72.0123654841432
20
-7.06979609904107
30
0
41
1
10
72.1621968667093
20
-7.39015017004428
30
0
41
1
10
72.2371125579925
20
-7.5105590218551
30
0
41
1
10
72.3869439405586
20
-7.67642602775555
30
0
41
1
10
72.4618596318417
20
-7.72196515500747
30
0
41
1
10
72.5461397845351
20
-7.73663701501064
30
0
41
1
10
72.5555042459455
20
-7.73776183690347
30
0
41
1
10
72.5742331687663
20
-7.73902352862186
30
0
41
1
10
72.5835976301767
20
-7.73916232146888
30
0
41
1
10
72.6116910144078
20
-7.73811716228991
30
0
41
1
10
72.6304199372286
20
-7.73545748637525
30
0
41
1
10
72.6866067056909
20
-7.72131761149024
30
0
41
1
10
72.7240645513324
20
-7.70366938566372
30
0
41
1
10
72.8364380882571
20
-7.62410105310843
30
0
41
1
10
72.9113537795402
20
-7.53537887815404
30
0
41
1
10
73.0611851621063
20
-7.27956328002136
30
0
41
1
10
73.1361008533893
20
-7.11240313438117
30
0
41
1
10
73.2859322359554
20
-6.69907901555356
30
0
41
1
10
73.3608479272385
20
-6.45289620183476
30
0
41
1
10
73.5106793098047
20
-5.8888439010382
30
0
41
1
10
73.5855950010878
20
-5.57102019597983
30
0
41
1
10
73.7354263836539
20
-4.8785915352253
30
0
41
1
10
73.810342074937
20
-4.50408707127812
30
0
41
1
10
73.9601734575031
20
-3.71852988063918
30
0
41
1
10
74.0350891487863
20
-3.30759844234393
30
0
41
1
10
74.1849205313524
20
-2.47127436584367
30
0
41
1
10
74.2598362226354
20
-2.04598445381922
30
0
41
1
10
74.4096676052015
20
-1.20137816359232
30
0
41
1
10
74.4845832964846
20
-0.782121101726432
30
0
41
1
10
74.5782279105886
20
-0.271955424495104
30
0
41
1
10
74.5969568334093
20
-0.17060554712063
30
0
41
1
10
74.6250502176405
20
-0.0197578091069204
30
0
41
1
10
74.6344146790508
20
0.0302435488068511
30
0
41
1
10
74.6531436018716
20
0.130863205078867
30
0
41
1
10
74.6999659089235
20
0.38338507781026
30
0
41
1
10
74.7467882159755
20
0.640495231315526
30
0
41
1
10
74.8591617529001
20
1.26368284110109
30
0
41
1
10
74.9340774441831
20
1.68743926371428
30
0
41
1
10
75.0839088267493
20
2.53362491495233
30
0
41
1
10
75.1588245180323
20
2.95597664985814
30
0
41
1
10
75.3086559005985
20
3.77798922505386
30
0
41
1
10
75.3835715918815
20
4.17753615481502
30
0
41
1
10
75.5334029744478
20
4.93213194920449
30
0
41
1
10
75.6083186657308
20
5.28706263909007
30
0
41
1
10
75.6832343570139
20
5.61043017387757
30
0
0
SPLINE
5
D2
100
AcDbEntity
8
1
62
256
6
ByLayer
370
13
48
1
60
0
100
AcDbSpline
70
4
71
3
72
84
73
80
40
0
40
0
40
0
40
0
40
0.0312499999999995
40
0.0312499999999995
40
0.0624999999999989
40
0.0624999999999989
40
0.0937499999999984
40
0.0937499999999984
40
0.124999999999998
40
0.124999999999998
40
0.156249999999997
40
0.156249999999997
40
0.187499999999997
40
0.187499999999997
40
0.218749999999996
40
0.218749999999996
40
0.249999999999996
40
0.249999999999996
40
0.265624999999995
40
0.265624999999995
40
0.273437499999995
40
0.273437499999995
40
0.281249999999995
40
0.281249999999995
40
0.312499999999994
40
0.312499999999994
40
0.343749999999994
40
0.343749999999994
40
0.374999999999993
40
0.374999999999993
40
0.406249999999993
40
0.406249999999993
40
0.437499999999992
40
0.437499999999992
40
0.468749999999992
40
0.468749999999992
40
0.499999999999991
40
0.499999999999991
40
0.53124999999999
40
0.53124999999999
40
0.53515624999999
40
0.53515624999999
40
0.539062499999991
40
0.546874999999991
40
0.546874999999991
40
0.562499999999991
40
0.562499999999991
40
0.593749999999992
40
0.593749999999992
40
0.624999999999993
40
0.624999999999993
40
0.656249999999993
40
0.656249999999993
40
0.687499999999994
40
0.687499999999994
40
0.718749999999995
40
0.718749999999995
40
0.749999999999995
40
0.749999999999995
40
0.781249999999996
40
0.781249999999996
40
0.796874999999996
40
0.796874999999996
40
0.800781249999996
40
0.800781249999996
40
0.804687499999997
40
0.812499999999997
40
0.812499999999997
40
0.843749999999997
40
0.843749999999997
40
0.874999999999998
40
0.874999999999998
40
0.906249999999998
40
0.906249999999998
40
0.937499999999999
40
0.937499999999999
40
0.968749999999999
40
0.968749999999999
40
1
40
1
40
1
40
1
41
1
10
67.9956642015002
20
7.739
30
0
41
1
10
68.0757430572868
20
7.739
30
0
41
1
10
68.1558219130734
20
7.7032506300616
30
0
41
1
10
68.3159796246466
20
7.54752046750991
30
0
41
1
10
68.3960584804332
20
7.42742451740284
30
0
41
1
10
68.5562161920064
20
7.0963986718414
30
0
41
1
10
68.6362950477931
20
6.88539455801677
30
0
41
1
10
68.7964527593662
20
6.37532939310032
30
0
41
1
10
68.8765316151528
20
6.07627834540227
30
0
41
1
10
69.036689326726
20
5.40338759130708
30
0
41
1
10
69.1167681825126
20
5.02965247383986
30
0
41
1
10
69.2769258940858
20
4.22942895612837
30
0
41
1
10
69.3570047498725
20
3.80310344698467
30
0
41
1
10
69.5171624614457
20
2.92430847923365
30
0
41
1
10
69.5972413172322
20
2.47199757912514
30
0
41
1
10
69.7573990288054
20
1.56734545684259
30
0
41
1
10
69.837477884592
20
1.11510767273006
30
0
41
1
10
69.9575961682719
20
0.452867746019223
30
0
41
1
10
69.9976355961653
20
0.234761793967493
30
0
41
1
10
70.0576947380052
20
-0.0868886214337579
30
0
41
1
10
70.0777144519519
20
-0.194590919638557
30
0
41
1
10
70.1177538798452
20
-0.412034537290452
30
0
41
1
10
70.1377735937917
20
-0.521565009023078
30
0
41
1
10
70.237872163525
20
-1.0725909828738
30
0
41
1
10
70.3179510193116
20
-1.52444462466718
30
0
41
1
10
70.4781087308848
20
-2.42909142247157
30
0
41
1
10
70.5581875866714
20
-2.88178333594914
30
0
41
1
10
70.7183452982446
20
-3.76219710119494
30
0
41
1
10
70.7984241540312
20
-4.18976151470389
30
0
41
1
10
70.9585818656044
20
-4.99326235481638
30
0
41
1
10
71.038660721391
20
-5.36903503127451
30
0
41
1
10
71.1988184329642
20
-6.04658548952756
30
0
41
1
10
71.2788972887508
20
-6.34825605712646
30
0
41
1
10
71.4390550003241
20
-6.86382664213369
30
0
41
1
10
71.5191338561107
20
-7.07771358107084
30
0
41
1
10
71.6792915676838
20
-7.41444120524153
30
0
41
1
10
71.7593704234705
20
-7.53735401270677
30
0
41
1
10
71.9195281350437
20
-7.69839429732713
30
0
41
1
10
71.9996069908302
20
-7.73663639782788
30
0
41
1
10
72.0896957035901
20
-7.73917517787214
30
0
41
1
10
72.0997055605635
20
-7.73890185034511
30
0
41
1
10
72.1197252745101
20
-7.73722502061824
30
0
41
1
10
72.1497548454301
20
-7.73301064424223
30
0
41
1
10
72.1797844163501
20
-7.72357235673016
30
0
41
1
10
72.23984355819
20
-7.69741414802968
30
0
41
1
10
72.2798829860834
20
-7.6702556284057
30
0
41
1
10
72.4000012697633
20
-7.55742549556183
30
0
41
1
10
72.4800801255499
20
-7.44013957412599
30
0
41
1
10
72.640237837123
20
-7.11481139100923
30
0
41
1
10
72.7203166929096
20
-6.90669286098841
30
0
41
1
10
72.8804744044829
20
-6.40214937294422
30
0
41
1
10
72.9605532602694
20
-6.10573135499115
30
0
41
1
10
73.1207109718426
20
-5.43753630964844
30
0
41
1
10
73.2007898276293
20
-5.06586120774523
30
0
41
1
10
73.3609475392025
20
-4.26896457371862
30
0
41
1
10
73.441026394989
20
-3.84390500741159
30
0
41
1
10
73.6011841065622
20
-2.96678232733723
30
0
41
1
10
73.6812629623489
20
-2.51487883943093
30
0
41
1
10
73.8414206739221
20
-1.61026941522076
30
0
41
1
10
73.9214995297086
20
-1.15766909760865
30
0
41
1
10
74.0416178133885
20
-0.494447700046237
30
0
41
1
10
74.0816572412818
20
-0.275942204549239
30
0
41
1
10
74.1317065261485
20
-0.0073271133112769
30
0
41
1
10
74.1417163831218
20
0.0461316859957606
30
0
41
1
10
74.1617360970685
20
0.153792820707821
30
0
41
1
10
74.1917656679884
20
0.315947819127644
30
0
41
1
10
74.2217952389084
20
0.479958088067548
30
0
41
1
10
74.3218938086417
20
1.03012095437
30
0
41
1
10
74.4019726644282
20
1.48156904150917
30
0
41
1
10
74.5621303760014
20
2.38616278766707
30
0
41
1
10
74.642209231788
20
2.83920941333409
30
0
41
1
10
74.8023669433613
20
3.72118852594824
30
0
41
1
10
74.8824457991478
20
4.14996474676528
30
0
41
1
10
75.0426035107211
20
4.95669306765021
30
0
41
1
10
75.1226823665077
20
5.33448062497888
30
0
41
1
10
75.2828400780809
20
6.01665423311849
30
0
41
1
10
75.3629189338674
20
6.32093048405753
30
0
41
1
10
75.5230766454407
20
6.84198956779417
30
0
41
1
10
75.6031555012273
20
7.0587562368087
30
0
41
1
10
75.6832343570139
20
7.2299726971288
30
0
0
SPLINE
5
D3
100
AcDbEntity
8
1
62
256
6
ByLayer
370
13
48
1
60
0
100
AcDbSpline
70
4
71
3
72
102
73
98
40
0
40
0
40
0
40
0
40
0.0312500000000002
40
0.0312500000000002
40
0.0625000000000004
40
0.0625000000000004
40
0.0781250000000004
40
0.0781250000000004
40
0.0937500000000004
40
0.0937500000000004
40
0.109375000000001
40
0.109375000000001
40
0.125000000000001
40
0.125000000000001
40
0.140625000000001
40
0.140625000000001
40
0.156250000000001
40
0.156250000000001
40
0.171875000000001
40
0.171875000000001
40
0.187500000000001
40
0.187500000000001
40
0.218750000000001
40
0.218750000000001
40
0.250000000000001
40
0.250000000000001
40
0.281250000000001
40
0.281250000000001
40
0.312500000000001
40
0.312500000000001
40
0.328125000000001
40
0.328125000000001
40
0.343750000000001
40
0.343750000000001
40
0.359375000000001
40
0.359375000000001
40
0.375000000000001
40
0.375000000000001
40
0.390625000000001
40
0.390625000000001
40
0.406250000000001
40
0.406250000000001
40
0.421875000000001
40
0.421875000000001
40
0.437500000000001
40
0.437500000000001
40
0.468750000000001
40
0.468750000000001
40
0.500000000000001
40
0.500000000000001
40
0.531250000000001
40
0.531250000000001
40
0.562500000000001
40
0.562500000000001
40
0.578125000000001
40
0.578125000000001
40
0.593750000000001
40
0.593750000000001
40
0.609375000000001
40
0.609375000000001
40
0.625000000000001
40
0.625000000000001
40
0.640625000000001
40
0.640625000000001
40
0.656250000000001
40
0.656250000000001
40
0.671875000000001
40
0.671875000000001
40
0.687500000000001
40
0.687500000000001
40
0.718750000000001
40
0.718750000000001
40
0.750000000000001
40
0.750000000000001
40
0.781250000000001
40
0.781250000000001
40
0.812500000000001
40
0.812500000000001
40
0.828125000000001
40
0.828125000000001
40
0.843750000000001
40
0.843750000000001
40
0.859375000000001
40
0.859375000000001
40
0.875000000000001
40
0.875000000000001
40
0.890625000000001
40
0.890625000000001
40
0.906250000000001
40
0.906250000000001
40
0.921875
40
0.921875
40
0.9375
40
0.9375
40
0.96875
40
0.96875
40
1
40
1
40
1
40
1
41
1
10
67.5000004091617
20
7.739
30
0
41
1
10
67.5852424294519
20
7.739
30
0
41
1
10
67.6704844497419
20
7.69846043455453
30
0
41
1
10
67.8409684903222
20
7.52114008439523
30
0
41
1
10
67.9262105106124
20
7.38420388803047
30
0
41
1
10
68.0540735410475
20
7.10134563372546
30
0
41
1
10
68.0966945511926
20
6.99423233163876
30
0
41
1
10
68.1819365714827
20
6.75462770577565
30
0
41
1
10
68.2245575816278
20
6.62213540616526
30
0
41
1
10
68.3097996019179
20
6.33288137680566
30
0
41
1
10
68.352420612063
20
6.17612087965202
30
0
41
1
10
68.4376626323531
20
5.84027411027051
30
0
41
1
10
68.4802836424982
20
5.66119130737044
30
0
41
1
10
68.5655256627883
20
5.28340790517504
30
0
41
1
10
68.6081466729333
20
5.08471270700977
30
0
41
1
10
68.6933886932235
20
4.67104225185264
30
0
41
1
10
68.7360097033686
20
4.45607373157836
30
0
41
1
10
68.8212517236587
20
4.01363949496826
30
0
41
1
10
68.8638727338038
20
3.78618107429458
30
0
41
1
10
68.9491147540939
20
3.32278140163572
30
0
41
1
10
68.9917357642389
20
3.08684719615908
30
0
41
1
10
69.1195987946741
20
2.37236176565364
30
0
41
1
10
69.2048408149643
20
1.88732099123101
30
0
41
1
10
69.3753248555445
20
0.929104140131869
30
0
41
1
10
69.4605668758347
20
0.456025486085565
30
0
41
1
10
69.631050916415
20
-0.456024391625704
30
0
41
1
10
69.716292936705
20
-0.929102999364972
30
0
41
1
10
69.8867769772853
20
-1.88731983227746
30
0
41
1
10
69.9720189975754
20
-2.37236060819086
30
0
41
1
10
70.0998820280105
20
-3.0868460601254
30
0
41
1
10
70.1425030381556
20
-3.32278027591713
30
0
41
1
10
70.2277450584457
20
-3.78617997569464
30
0
41
1
10
70.2703660685908
20
-4.01363841317288
30
0
41
1
10
70.355608088881
20
-4.45607268968925
30
0
41
1
10
70.398229099026
20
-4.67104123306504
30
0
41
1
10
70.4834711193162
20
-5.08471174017905
30
0
41
1
10
70.5260921294612
20
-5.28340696719818
30
0
41
1
10
70.6113341497513
20
-5.6611904319868
30
0
41
1
10
70.6539551598963
20
-5.84027326862352
30
0
41
1
10
70.7391971801865
20
-6.17612010923435
30
0
41
1
10
70.7818181903316
20
-6.33288064387722
30
0
41
1
10
70.8670602106217
20
-6.62213475067415
30
0
41
1
10
70.9096812207667
20
-6.75462709022898
30
0
41
1
10
70.9949232410569
20
-6.99423179708299
30
0
41
1
10
71.037544251202
20
-7.10134514021283
30
0
41
1
10
71.165407281637
20
-7.38420351733578
30
0
41
1
10
71.2506493019273
20
-7.52113979505438
30
0
41
1
10
71.4211333425076
20
-7.69846029832638
30
0
41
1
10
71.5063753627977
20
-7.73899993550825
30
0
41
1
10
71.6768594033779
20
-7.73900006449159
30
0
41
1
10
71.762101423668
20
-7.69846057078254
30
0
41
1
10
71.9325854642483
20
-7.52114037373593
30
0
41
1
10
72.0178274845384
20
-7.38420425872496
30
0
41
1
10
72.1456905149736
20
-7.10134612723789
30
0
41
1
10
72.1883115251187
20
-6.9942328661943
30
0
41
1
10
72.2735535454088
20
-6.75462832132212
30
0
41
1
10
72.3161745555539
20
-6.62213606165619
30
0
41
1
10
72.401416575844
20
-6.33288210973393
30
0
41
1
10
72.4440375859891
20
-6.17612165006955
30
0
41
1
10
72.5292796062792
20
-5.84027495191737
30
0
41
1
10
72.5719006164243
20
-5.66119218275395
30
0
41
1
10
72.6571426367144
20
-5.28340884315176
30
0
41
1
10
72.6997636468594
20
-5.08471367384038
30
0
41
1
10
72.7850056671496
20
-4.67104327064015
30
0
41
1
10
72.8276266772946
20
-4.45607477346735
30
0
41
1
10
72.9128686975848
20
-4.01364057676355
30
0
41
1
10
72.9554897077298
20
-3.78618217289446
30
0
41
1
10
73.0407317280199
20
-3.32278252735426
30
0
41
1
10
73.083352738165
20
-3.08684833219274
30
0
41
1
10
73.2112157686002
20
-2.37236292311638
30
0
41
1
10
73.2964577888903
20
-1.88732215018456
30
0
41
1
10
73.4669418294706
20
-0.929105280898852
30
0
41
1
10
73.5521838497607
20
-0.456026607258792
30
0
41
1
10
73.722667890341
20
0.456023323879094
30
0
41
1
10
73.8079099106311
20
0.929101858598074
30
0
41
1
10
73.9783939512114
20
1.88731867332393
30
0
41
1
10
74.0636359715015
20
2.37235945072806
30
0
41
1
10
74.1914990019367
20
3.08684492409162
30
0
41
1
10
74.2341200120817
20
3.32277915019844
30
0
41
1
10
74.3193620323718
20
3.78617887709464
30
0
41
1
10
74.3619830425169
20
4.01363733137742
30
0
41
1
10
74.447225062807
20
4.45607164780003
30
0
41
1
10
74.489846072952
20
4.6710402142773
30
0
41
1
10
74.5750880932422
20
5.08471077334818
30
0
41
1
10
74.6177091033873
20
5.28340602922117
30
0
41
1
10
74.7029511236774
20
5.66118955660298
30
0
41
1
10
74.7455721338225
20
5.84027242697633
30
0
41
1
10
74.8308141541125
20
6.17611933881648
30
0
41
1
10
74.8734351642577
20
6.33287991094861
30
0
41
1
10
74.9586771845478
20
6.62213409518284
30
0
41
1
10
75.0012981946929
20
6.75462647468211
30
0
41
1
10
75.086540214983
20
6.99423126252705
30
0
41
1
10
75.129161225128
20
7.10134464670003
30
0
41
1
10
75.2570242555632
20
7.38420314664089
30
0
41
1
10
75.3422662758533
20
7.52113950571331
30
0
41
1
10
75.5127503164337
20
7.69846016209806
30
0
41
1
10
75.5979923367237
20
7.73899987101635
30
0
41
1
10
75.6832343570139
20
7.73899999999969
30
0
0
SPLINE
5
D4
100
AcDbEntity
8
1
62
256
6
ByLayer
370
13
48
1
60
0
100
AcDbSpline
70
4
71
3
72
84
73
80
40
0
40
0
40
0
40
0
40
0.0312499999999998
40
0.0312499999999998
40
0.0624999999999995
40
0.0624999999999995
40
0.0937499999999993
40
0.0937499999999993
40
0.124999999999999
40
0.124999999999999
40
0.156249999999999
40
0.156249999999999
40
0.187499999999999
40
0.187499999999999
40
0.195312499999999
40
0.199218749999999
40
0.199218749999999
40
0.203124999999999
40
0.203124999999999
40
0.218749999999999
40
0.218749999999999
40
0.249999999999998
40
0.249999999999998
40
0.281249999999998
40
0.281249999999998
40
0.312499999999998
40
0.312499999999998
40
0.343749999999998
40
0.343749999999998
40
0.374999999999998
40
0.374999999999998
40
0.406249999999998
40
0.406249999999998
40
0.437499999999997
40
0.437499999999997
40
0.453124999999997
40
0.453124999999997
40
0.460937499999997
40
0.464843749999997
40
0.464843749999997
40
0.468749999999997
40
0.468749999999997
40
0.499999999999997
40
0.499999999999997
40
0.531249999999997
40
0.531249999999997
40
0.562499999999997
40
0.562499999999997
40
0.593749999999996
40
0.593749999999996
40
0.624999999999996
40
0.624999999999996
40
0.656249999999996
40
0.656249999999996
40
0.687499999999996
40
0.687499999999996
40
0.718749999999995
40
0.718749999999995
40
0.726562499999995
40
0.726562499999995
40
0.734374999999996
40
0.734374999999996
40
0.749999999999996
40
0.749999999999996
40
0.781249999999996
40
0.781249999999996
40
0.812499999999997
40
0.812499999999997
40
0.843749999999997
40
0.843749999999997
40
0.874999999999998
40
0.874999999999998
40
0.906249999999998
40
0.906249999999998
40
0.937499999999999
40
0.937499999999999
40
0.968749999999999
40
0.968749999999999
40
1
40
1
40
1
40
1
41
1
10
67.5
20
7.2299744467831
30
0
41
1
10
67.5800788643108
20
7.05875827565842
30
0
41
1
10
67.6601577286216
20
6.84199188870471
30
0
41
1
10
67.8203154572432
20
6.32093332143478
30
0
41
1
10
67.9003943215541
20
6.01665730458791
30
0
41
1
10
68.0605520501757
20
5.33448408892437
30
0
41
1
10
68.1406309144864
20
4.95669668977854
30
0
41
1
10
68.300788643108
20
4.14996859569928
30
0
41
1
10
68.3808675074188
20
3.72119244351779
30
0
41
1
10
68.5410252360404
20
2.83921338206713
30
0
41
1
10
68.6211041003513
20
2.38616673912367
30
0
41
1
10
68.7812618289728
20
1.48157288969136
30
0
41
1
10
68.8613406932836
20
1.03012471680825
30
0
41
1
10
68.9614392736721
20
0.479961715412742
30
0
41
1
10
68.9914688477887
20
0.315951403859884
30
0
41
1
10
69.0214984219053
20
0.153796360123721
30
0
41
1
10
69.041518137983
20
0.0461351946463822
30
0
41
1
10
69.0515279960218
20
-0.0073236175167608
30
0
41
1
10
69.1015772862161
20
-0.275938688548024
30
0
41
1
10
69.1416167183715
20
-0.49444417374832
30
0
41
1
10
69.2617350148377
20
-1.15766556045591
30
0
41
1
10
69.3418138791484
20
-1.61026589780883
30
0
41
1
10
69.5019716077701
20
-2.51487542371049
30
0
41
1
10
69.5820504720809
20
-2.966778993687
30
0
41
1
10
69.7422082007025
20
-3.84390189869646
30
0
41
1
10
69.8222870650133
20
-4.26896160786455
30
0
41
1
10
69.9824447936348
20
-5.06585857496776
30
0
41
1
10
70.0625236579457
20
-5.43753386693004
30
0
41
1
10
70.2226813865673
20
-6.10572931665948
30
0
41
1
10
70.3027602508781
20
-6.40214754869677
30
0
41
1
10
70.4629179794997
20
-6.90669146278793
30
0
41
1
10
70.5429968438105
20
-7.11481020456185
30
0
41
1
10
70.7031545724321
20
-7.44013878663915
30
0
41
1
10
70.7832334367429
20
-7.5574248951929
30
0
41
1
10
70.9033517332091
20
-7.67025528002262
30
0
41
1
10
70.9433911653645
20
-7.69741387893566
30
0
41
1
10
71.0034503135976
20
-7.72357219890631
30
0
41
1
10
71.0334798877142
20
-7.73301054014436
30
0
41
1
10
71.0635094618308
20
-7.73722496732722
30
0
41
1
10
71.0835291779085
20
-7.73890183027416
30
0
41
1
10
71.0935390359473
20
-7.73917517395535
30
0
41
1
10
71.1836277582969
20
-7.73663653941978
30
0
41
1
10
71.2637066226077
20
-7.6983945740221
30
0
41
1
10
71.4238643512293
20
-7.53735455884399
30
0
41
1
10
71.5039432155401
20
-7.41444188562733
30
0
41
1
10
71.6641009441618
20
-7.07771451365755
30
0
41
1
10
71.7441798084726
20
-6.86382769252776
30
0
41
1
10
71.9043375370942
20
-6.34825731174448
30
0
41
1
10
71.9844164014049
20
-6.04658683042402
30
0
41
1
10
72.1445741300266
20
-5.36903650319891
30
0
41
1
10
72.2246529943374
20
-4.99326387143296
30
0
41
1
10
72.384810722959
20
-4.18976307719365
30
0
41
1
10
72.4648895872697
20
-3.76219866491891
30
0
41
1
10
72.6250473158914
20
-2.88178486491691
30
0
41
1
10
72.7051261802021
20
-2.42909291557476
30
0
41
1
10
72.8652839088238
20
-1.52444602048851
30
0
41
1
10
72.9453627731345
20
-1.07259231740585
30
0
41
1
10
73.0454613535231
20
-0.521566259085773
30
0
41
1
10
73.0654810696008
20
-0.412035770064506
30
0
41
1
10
73.1055205017562
20
-0.194592117231537
30
0
41
1
10
73.1255402178339
20
-0.0868897903565937
30
0
41
1
10
73.185599366067
20
0.234760639443863
30
0
41
1
10
73.2256387982224
20
0.452866603554384
30
0
41
1
10
73.3457570946887
20
1.11510657395488
30
0
41
1
10
73.4258359589994
20
1.56734439734441
30
0
41
1
10
73.585993687621
20
2.47199661636426
30
0
41
1
10
73.6660725519318
20
2.9243075739297
30
0
41
1
10
73.8262302805534
20
3.80310266846746
30
0
41
1
10
73.9063091448642
20
4.22942824687917
30
0
41
1
10
74.0664668734858
20
5.02965190536088
30
0
41
1
10
74.1465457377966
20
5.40338709422923
30
0
41
1
10
74.3067034664183
20
6.0762779829488
30
0
41
1
10
74.386782330729
20
6.37532909377916
30
0
41
1
10
74.5469400593507
20
6.88539436868095
30
0
41
1
10
74.6270189236614
20
7.0963985293221
30
0
41
1
10
74.7871766522831
20
7.42742444850072
30
0
41
1
10
74.8672555165938
20
7.54752042543348
30
0
41
1
10
75.0274132452155
20
7.7032506224067
30
0
41
1
10
75.1074921095263
20
7.739
30
0
41
1
10
75.1875709738371
20
7.739
30
0
0
SPLINE
5
D5
100
AcDbEntity
8
1
62
256
6
ByLayer
370
13
48
1
60
0
100
AcDbSpline
70
4
71
3
72
86
73
82
40
0
40
0
40
0
40
0
40
0.0312500000000024
40
0.0312500000000024
40
0.0625000000000047
40
0.0625000000000047
40
0.0937500000000071
40
0.0937500000000071
40
0.125000000000009
40
0.125000000000009
40
0.140625000000011
40
0.140625000000011
40
0.144531250000011
40
0.144531250000011
40
0.148437500000011
40
0.148437500000011
40
0.156250000000011
40
0.156250000000011
40
0.187500000000012
40
0.187500000000012
40
0.218750000000013
40
0.218750000000013
40
0.250000000000013
40
0.250000000000013
40
0.281250000000014
40
0.281250000000014
40
0.312500000000015
40
0.312500000000015
40
0.343750000000015
40
0.343750000000015
40
0.375000000000016
40
0.375000000000016
40
0.406250000000017
40
0.406250000000017
40
0.421875000000017
40
0.421875000000017
40
0.429687500000017
40
0.429687500000017
40
0.433593750000017
40
0.433593750000017
40
0.437500000000017
40
0.437500000000017
40
0.468750000000016
40
0.468750000000016
40
0.500000000000016
40
0.500000000000016
40
0.531250000000015
40
0.531250000000015
40
0.562500000000014
40
0.562500000000014
40
0.593750000000013
40
0.593750000000013
40
0.625000000000012
40
0.625000000000012
40
0.656250000000011
40
0.656250000000011
40
0.687500000000011
40
0.687500000000011
40
0.70312500000001
40
0.70312500000001
40
0.71093750000001
40
0.71093750000001
40
0.71875000000001
40
0.71875000000001
40
0.750000000000009
40
0.750000000000009
40
0.781250000000008
40
0.781250000000008
40
0.812500000000007
40
0.812500000000007
40
0.843750000000005
40
0.843750000000005
40
0.875000000000004
40
0.875000000000004
40
0.906250000000003
40
0.906250000000003
40
0.937500000000002
40
0.937500000000002
40
0.968750000000001
40
0.968750000000001
40
1
40
1
40
1
40
1
41
1
10
67.5
20
5.61043370610332
30
0
41
1
10
67.5749156998073
20
5.28706636278454
30
0
41
1
10
67.6498313996145
20
4.93213582822207
30
0
41
1
10
67.7996627992291
20
4.1775402608576
30
0
41
1
10
67.8745784990364
20
3.77799340280805
30
0
41
1
10
68.0244098986509
20
2.95598088996755
30
0
41
1
10
68.0993255984582
20
2.53362914584906
30
0
41
1
10
68.2491569980728
20
1.68744340938059
30
0
41
1
10
68.32407269788
20
1.26368691094487
30
0
41
1
10
68.436446247591
20
0.640499152728154
30
0
41
1
10
68.4739040974947
20
0.43481097469305
30
0
41
1
10
68.5207264098742
20
0.18137200346996
30
0
41
1
10
68.5300908723501
20
0.130866981492034
30
0
41
1
10
68.5488197973019
20
0.0302472943220948
30
0
41
1
10
68.5581842597778
20
-0.0197540713449484
30
0
41
1
10
68.5862776472055
20
-0.170601797357278
30
0
41
1
10
68.6050065721574
20
-0.271951668104208
30
0
41
1
10
68.6986511969165
20
-0.782117319525952
30
0
41
1
10
68.7735668967238
20
-1.20137438439414
30
0
41
1
10
68.9233982963383
20
-2.04598073701251
30
0
41
1
10
68.9983139961456
20
-2.47127070853551
30
0
41
1
10
69.1481453957601
20
-3.30759496263329
30
0
41
1
10
69.2230610955674
20
-3.71852651906767
30
0
41
1
10
69.3728924951819
20
-4.50408399721596
30
0
41
1
10
69.4478081949892
20
-4.87858863046452
30
0
41
1
10
69.5976395946038
20
-5.57101766441855
30
0
41
1
10
69.672555294411
20
-5.88884157321212
30
0
41
1
10
69.8223866940256
20
-6.45289429377348
30
0
41
1
10
69.8973023938329
20
-6.69907732333442
30
0
41
1
10
70.0471337934474
20
-7.11240186373129
30
0
41
1
10
70.1220494932547
20
-7.27956221496595
30
0
41
1
10
70.2718808928693
20
-7.53537819674588
30
0
41
1
10
70.3467965926765
20
-7.62410054971437
30
0
41
1
10
70.4591701423875
20
-7.7036691213049
30
0
41
1
10
70.4966279922911
20
-7.72131742220802
30
0
41
1
10
70.5528147671465
20
-7.73545740242884
30
0
41
1
10
70.5715436920984
20
-7.73811711224579
30
0
41
1
10
70.5996370795261
20
-7.73916232044633
30
0
41
1
10
70.609001542002
20
-7.73902354361854
30
0
41
1
10
70.6277304669538
20
-7.73776188435471
30
0
41
1
10
70.6370949294297
20
-7.7366370787675
30
0
41
1
10
70.7213750917129
20
-7.7219653661393
30
0
41
1
10
70.7962907915202
20
-7.67642637446775
30
0
41
1
10
70.9461221911348
20
-7.51055963766512
30
0
41
1
10
71.0210378909421
20
-7.39015091929713
30
0
41
1
10
71.1708692905566
20
-7.06979709944252
30
0
41
1
10
71.2457849903639
20
-6.86980165714365
30
0
41
1
10
71.3956163899784
20
-6.39282647491862
30
0
41
1
10
71.4705320897857
20
-6.11585376582525
30
0
41
1
10
71.6203634894002
20
-5.49551682740824
30
0
41
1
10
71.6952791892075
20
-5.15222369993919
30
0
41
1
10
71.8451105888221
20
-4.41670653256566
30
0
41
1
10
71.9200262886293
20
-4.02459646507336
30
0
41
1
10
72.0698576882439
20
-3.21289058749664
30
0
41
1
10
72.1447733880512
20
-2.79341273222224
30
0
41
1
10
72.2946047876657
20
-1.94876489557842
30
0
41
1
10
72.369520487473
20
-1.5236815569842
30
0
41
1
10
72.481894037184
20
-0.895999956109904
30
0
41
1
10
72.5193518870876
20
-0.688399619839117
30
0
41
1
10
72.575538661943
20
-0.380881379638396
30
0
41
1
10
72.5942675868948
20
-0.27901990112116
30
0
41
1
10
72.6317254367985
20
-0.0767963808813192
30
0
41
1
10
72.6504543617503
20
0.0230577258442395
30
0
41
1
10
72.7440989865095
20
0.527265602198241
30
0
41
1
10
72.8190146863167
20
0.943109002090893
30
0
41
1
10
72.9688460859312
20
1.7846077406445
30
0
41
1
10
73.0437617857385
20
2.210213716401
30
0
41
1
10
73.1935931853531
20
3.05158933342247
30
0
41
1
10
73.2685088851603
20
3.4672638528001
30
0
41
1
10
73.4183402847749
20
4.26681411518265
30
0
41
1
10
73.4932559845822
20
4.6505694067225
30
0
41
1
10
73.6430873841967
20
5.36533956180261
30
0
41
1
10
73.718003084004
20
5.69624637695512
30
0
41
1
10
73.8678344836186
20
6.28898185802078
30
0
41
1
10
73.9427501834257
20
6.55075173874755
30
0
41
1
10
74.0925815830403
20
6.99611223247032
30
0
41
1
10
74.1674972828476
20
7.17970902425125
30
0
41
1
10
74.3173286824622
20
7.46768171716545
30
0
41
1
10
74.3922443822694
20
7.57211678922781
30
0
41
1
10
74.542075781884
20
7.7077342326352
30
0
41
1
10
74.6169914816913
20
7.739
30
0
41
1
10
74.6919071814986
20
7.739
30
0
0
SPLINE
5
D6
100
AcDbEntity
8
1
62
256
6
ByLayer
370
13
48
1
60
0
100
AcDbSpline
70
4
71
3
72
85
73
81
40
0
40
0
40
0
40
0
40
0.0312499999999995
40
0.0312499999999995
40
0.0624999999999989
40
0.0624999999999989
40
0.0781249999999987
40
0.0781249999999987
40
0.0820312499999988
40
0.0820312499999988
40
0.0859374999999989
40
0.0859374999999989
40
0.0937499999999988
40
0.0937499999999988
40
0.124999999999999
40
0.124999999999999
40
0.156249999999999
40
0.156249999999999
40
0.1875
40
0.1875
40
0.21875
40
0.21875
40
0.25
40
0.25
40
0.281250000000001
40
0.281250000000001
40
0.312500000000001
40
0.312500000000001
40
0.343750000000001
40
0.343750000000001
40
0.375000000000002
40
0.375000000000002
40
0.382812500000002
40
0.386718750000002
40
0.386718750000002
40
0.390625000000002
40
0.390625000000002
40
0.406250000000002
40
0.406250000000002
40
0.437500000000002
40
0.437500000000002
40
0.468750000000002
40
0.468750000000002
40
0.500000000000003
40
0.500000000000003
40
0.531250000000003
40
0.531250000000003
40
0.562500000000003
40
0.562500000000003
40
0.593750000000004
40
0.593750000000004
40
0.625000000000004
40
0.625000000000004
40
0.656250000000005
40
0.656250000000005
40
0.687500000000005
40
0.687500000000005
40
0.695312500000005
40
0.695312500000005
40
0.703125000000005
40
0.703125000000005
40
0.718750000000005
40
0.718750000000005
40
0.750000000000004
40
0.750000000000004
40
0.781250000000004
40
0.781250000000004
40
0.812500000000003
40
0.812500000000003
40
0.843750000000003
40
0.843750000000003
40
0.875000000000002
40
0.875000000000002
40
0.906250000000002
40
0.906250000000002
40
0.937500000000001
40
0.937500000000001
40
0.968750000000001
40
0.968750000000001
40
1
40
1
40
1
40
1
41
1
10
67.5
20
3.11233863504879
30
0
41
1
10
67.5697525353038
20
2.72572095170065
30
0
41
1
10
67.6395050706075
20
2.33122104376551
30
0
41
1
10
67.779010141215
20
1.54327123486149
30
0
41
1
10
67.8487626765187
20
1.1498711512748
30
0
41
1
10
67.9533914794744
20
0.571214002334358
30
0
41
1
10
67.9882677471263
20
0.380209323474901
30
0
41
1
10
68.0318630816911
20
0.144692324043319
30
0
41
1
10
68.0405821486041
20
0.0977502700397679
30
0
41
1
10
68.05802028243
20
0.0042086416918892
30
0
41
1
10
68.0667393493429
20
-0.042370651312126
30
0
41
1
10
68.0928965500819
20
-0.182960711743533
30
0
41
1
10
68.1103346839078
20
-0.277362273381584
30
0
41
1
10
68.1975253530375
20
-0.752333669068264
30
0
41
1
10
68.2672778883413
20
-1.14193977885179
30
0
41
1
10
68.4067829589487
20
-1.92750644408724
30
0
41
1
10
68.4765354942525
20
-2.32342787060588
30
0
41
1
10
68.61604056486
20
-3.10548191762314
30
0
41
1
10
68.6857931001638
20
-3.49154608869256
30
0
41
1
10
68.8252981707713
20
-4.23614917710788
30
0
41
1
10
68.895050706075
20
-4.59460364987967
30
0
41
1
10
69.0345557766825
20
-5.26701530050434
30
0
41
1
10
69.1043083119862
20
-5.58089511821552
30
0
41
1
10
69.2438133825938
20
-6.15047195749705
30
0
41
1
10
69.3135659178975
20
-6.40612179713688
30
0
41
1
10
69.453070988505
20
-6.85079119767971
30
0
41
1
10
69.5228235238087
20
-7.03980568956158
30
0
41
1
10
69.6623285944163
20
-7.34881014838183
30
0
41
1
10
69.7320811297201
20
-7.46883306552962
30
0
41
1
10
69.8715862003276
20
-7.64306478528457
30
0
41
1
10
69.9413387356313
20
-7.69732869037441
30
0
41
1
10
70.028529404761
20
-7.7286659911004
30
0
41
1
10
70.0546866054999
20
-7.73534195569826
30
0
41
1
10
70.0808438062388
20
-7.73808979457917
30
0
41
1
10
70.0982819400647
20
-7.73906747117698
30
0
41
1
10
70.1070010069777
20
-7.73913112058887
30
0
41
1
10
70.1505963415425
20
-7.73733404705871
30
0
41
1
10
70.1854726091944
20
-7.72907957099011
30
0
41
1
10
70.2901014121501
20
-7.6821565976324
30
0
41
1
10
70.3598539474538
20
-7.62121330700703
30
0
41
1
10
70.4993590180612
20
-7.43305022328397
30
0
41
1
10
70.569111553365
20
-7.30577676893279
30
0
41
1
10
70.7086166239725
20
-6.98223529212606
30
0
41
1
10
70.7783691592762
20
-6.7859377339604
30
0
41
1
10
70.9178742298838
20
-6.32730529201385
30
0
41
1
10
70.9876267651875
20
-6.06498002239709
30
0
41
1
10
71.127131835795
20
-5.48327314539458
30
0
41
1
10
71.1968843710988
20
-5.16394275319843
30
0
41
1
10
71.3363894417064
20
-4.48231174979421
30
0
41
1
10
71.4061419770101
20
-4.12009044572349
30
0
41
1
10
71.5456470476175
20
-3.36984453163731
30
0
41
1
10
71.6153995829213
20
-2.98190365485377
30
0
41
1
10
71.7549046535288
20
-2.19792464115463
30
0
41
1
10
71.8246571888326
20
-1.80195225285542
30
0
41
1
10
71.9641622594401
20
-1.01783304132763
30
0
41
1
10
72.0339147947438
20
-0.629721989138801
30
0
41
1
10
72.1211054638735
20
-0.157338078426704
30
0
41
1
10
72.1385435976995
20
-0.0637389980728642
30
0
41
1
10
72.1734198653513
20
0.123135529371808
30
0
41
1
10
72.1908579991772
20
0.21726407255187
30
0
41
1
10
72.243172400655
20
0.501482045339515
30
0
41
1
10
72.2780486683069
20
0.693411339396306
30
0
41
1
10
72.3826774712626
20
1.27434395209215
30
0
41
1
10
72.4524300065663
20
1.66859265393273
30
0
41
1
10
72.5919350771738
20
2.45655097863076
30
0
41
1
10
72.6616876124776
20
2.85020754848395
30
0
41
1
10
72.801192683085
20
3.61987234157397
30
0
41
1
10
72.8709452183888
20
3.99580258254289
30
0
41
1
10
73.0104502889963
20
4.71230229778254
30
0
41
1
10
73.0802028243
20
5.05278735936864
30
0
41
1
10
73.2197078949076
20
5.68259916804467
30
0
41
1
10
73.2894604302113
20
5.97185963568671
30
0
41
1
10
73.4289655008188
20
6.48769568989132
30
0
41
1
10
73.4987180361226
20
6.71424239475419
30
0
41
1
10
73.63822310673
20
7.09888652274705
30
0
41
1
10
73.7079756420338
20
7.2569972657567
30
0
41
1
10
73.8474807126413
20
7.50500342178992
30
0
41
1
10
73.9172332479451
20
7.59494402531431
30
0
41
1
10
74.0567383185527
20
7.71191288659062
30
0
41
1
10
74.1264908538563
20
7.739
30
0
41
1
10
74.1962433891601
20
7.739
30
0
0
SPLINE
5
D7
100
AcDbEntity
8
1
62
256
6
ByLayer
370
13
48
1
60
0
100
AcDbSpline
70
4
71
3
72
84
73
80
40
0
40
0
40
0
40
0
40
0.0078125
40
0.0078125
40
0.01171875
40
0.01171875
40
0.015625
40
0.03125
40
0.03125
40
0.0625
40
0.0625
40
0.09375
40
0.09375
40
0.125
40
0.125
40
0.15625
40
0.15625
40
0.1875
40
0.1875
40
0.21875
40
0.21875
40
0.25
40
0.25
40
0.28125
40
0.28125
40
0.3125
40
0.3125
40
0.328125
40
0.328125
40
0.3359375
40
0.3359375
40
0.34375
40
0.34375
40
0.375
40
0.375
40
0.40625
40
0.40625
40
0.4375
40
0.4375
40
0.46875
40
0.46875
40
0.5
40
0.5
40
0.53125
40
0.53125
40
0.5625
40
0.5625
40
0.59375
40
0.59375
40
0.625
40
0.625
40
0.65625
40
0.65625
40
0.6640625
40
0.66796875
40
0.66796875
40
0.671875
40
0.671875
40
0.6875
40
0.6875
40
0.71875
40
0.71875
40
0.75
40
0.75
40
0.78125
40
0.78125
40
0.8125
40
0.8125
40
0.84375
40
0.84375
40
0.875
40
0.875
40
0.90625
40
0.90625
40
0.9375
40
0.9375
40
0.96875
40
0.96875
40
1
40
1
40
1
40
1
41
1
10
67.5000000000001
20
0.340775549450853
30
0
41
1
10
67.5161473427001
20
0.252935429532897
30
0
41
1
10
67.5322946854001
20
0.165611585039215
30
0
41
1
10
67.5565156994502
20
0.0354973736163515
30
0
41
1
10
67.5645893708002
20
-0.0076321758775748
30
0
41
1
10
67.5807367135003
20
-0.0942495687725966
30
0
41
1
10
67.6211050702505
20
-0.311525416470374
30
0
41
1
10
67.6614734270006
20
-0.53228639970996
30
0
41
1
10
67.7583574832009
20
-1.06712991015013
30
0
41
1
10
67.8229468540011
20
-1.43046067410594
30
0
41
1
10
67.9521255956016
20
-2.15968138142563
30
0
41
1
10
68.0167149664018
20
-2.52553993848531
30
0
41
1
10
68.1458937080022
20
-3.24665215203564
30
0
41
1
10
68.2104830788024
20
-3.60185676869295
30
0
41
1
10
68.339661820403
20
-4.28755493300869
30
0
41
1
10
68.4042511912031
20
-4.61799065337831
30
0
41
1
10
68.5334299328036
20
-5.24074676681755
30
0
41
1
10
68.5980193036038
20
-5.53301436366334
30
0
41
1
10
68.7271980452042
20
-6.06844756071939
30
0
41
1
10
68.7917874160045
20
-6.31157901327245
30
0
41
1
10
68.9209661576049
20
-6.74152454635126
30
0
41
1
10
68.9855555284051
20
-6.92833081687368
30
0
41
1
10
69.1147342700056
20
-7.24283324963267
30
0
41
1
10
69.1793236408058
20
-7.37054687140062
30
0
41
1
10
69.3085023824063
20
-7.56833674894764
30
0
41
1
10
69.3730917532065
20
-7.6384474789765
30
0
41
1
10
69.4699758094068
20
-7.70407730138706
30
0
41
1
10
69.502270494807
20
-7.71938795494415
30
0
41
1
10
69.5507125229071
20
-7.73313246279591
30
0
41
1
10
69.5668598656072
20
-7.7361780419474
30
0
41
1
10
69.5991545510074
20
-7.73931219704917
30
0
41
1
10
69.6153018937073
20
-7.73941470550707
30
0
41
1
10
69.6960386072076
20
-7.73263622491612
30
0
41
1
10
69.7606279780078
20
-7.70355286208806
30
0
41
1
10
69.8898067196084
20
-7.59135999682982
30
0
41
1
10
69.9543960904086
20
-7.50821045095176
30
0
41
1
10
70.083574832009
20
-7.28364970239673
30
0
41
1
10
70.1481642028092
20
-7.14220701411034
30
0
41
1
10
70.2773429444097
20
-6.80048563121571
30
0
41
1
10
70.3419323152099
20
-6.60019480888718
30
0
41
1
10
70.4711110568104
20
-6.14455865703434
30
0
41
1
10
70.5357004276106
20
-5.88922748133459
30
0
41
1
10
70.664879169211
20
-5.33163816475962
30
0
41
1
10
70.7294685400112
20
-5.02941947857013
30
0
41
1
10
70.8586472816118
20
-4.38971193897035
30
0
41
1
10
70.9232366524119
20
-4.05227837129391
30
0
41
1
10
71.0524153940123
20
-3.35586224015131
30
0
41
1
10
71.1170047648126
20
-2.99693658000362
30
0
41
1
10
71.246183506413
20
-2.27158213209634
30
0
41
1
10
71.3107728772133
20
-1.90519882837523
30
0
41
1
10
71.4399516188137
20
-1.17771708973518
30
0
41
1
10
71.504540989614
20
-0.816645418457711
30
0
41
1
10
71.5852777031142
20
-0.37512423044052
30
0
41
1
10
71.6094987171643
20
-0.243394304685779
30
0
41
1
10
71.6337197312145
20
-0.112905569127349
30
0
41
1
10
71.6498670739145
20
-0.0262044084104787
30
0
41
1
10
71.6579407452645
20
0.0169160035978848
30
0
41
1
10
71.6983091020146
20
0.233564392687413
30
0
41
1
10
71.7306037874147
20
0.409230583676703
30
0
41
1
10
71.8274878436151
20
0.941659171992654
30
0
41
1
10
71.8920772144153
20
1.30393286843108
30
0
41
1
10
72.0212559560158
20
2.03244465985131
30
0
41
1
10
72.085845326816
20
2.3986536727262
30
0
41
1
10
72.2150240684164
20
3.1220709124436
30
0
41
1
10
72.2796134392166
20
3.47923182204616
30
0
41
1
10
72.4087921808171
20
4.17047722395446
30
0
41
1
10
72.4733815516173
20
4.50450425741303
30
0
41
1
10
72.6025602932177
20
5.13590567482191
30
0
41
1
10
72.667149664018
20
5.43322592027047
30
0
41
1
10
72.7963284056184
20
5.97986644647415
30
0
41
1
10
72.8609177764187
20
6.22914986614609
30
0
41
1
10
72.9900965180191
20
6.67201489583888
30
0
41
1
10
73.0546858888194
20
6.86558552500725
30
0
41
1
10
73.1838646304198
20
7.19371209901684
30
0
41
1
10
73.24845400122
20
7.32828289139812
30
0
41
1
10
73.3776327428205
20
7.53941922943221
30
0
41
1
10
73.4422221136207
20
7.61601783130212
30
0
41
1
10
73.5714008552211
20
7.71578804988772
30
0
41
1
10
73.6359902260214
20
7.739
30
0
41
1
10
73.7005795968216
20
7.739
30
0
0
SPLINE
5
D8
100
AcDbEntity
8
1
62
256
6
ByLayer
370
13
48
1
60
0
100
AcDbSpline
70
4
71
3
72
78
73
74
40
0
40
0
40
0
40
0
40
0.0312499999999999
40
0.0312499999999999
40
0.0624999999999998
40
0.0624999999999998
40
0.0937499999999997
40
0.0937499999999997
40
0.125
40
0.125
40
0.15625
40
0.15625
40
0.187499999999999
40
0.187499999999999
40
0.218749999999999
40
0.218749999999999
40
0.249999999999999
40
0.249999999999999
40
0.281249999999999
40
0.281249999999999
40
0.289062499999999
40
0.289062499999999
40
0.296874999999999
40
0.296874999999999
40
0.312499999999999
40
0.312499999999999
40
0.343749999999999
40
0.343749999999999
40
0.374999999999999
40
0.374999999999999
40
0.406249999999998
40
0.406249999999998
40
0.437499999999998
40
0.437499999999998
40
0.468749999999998
40
0.468749999999998
40
0.499999999999997
40
0.499999999999997
40
0.531249999999997
40
0.531249999999997
40
0.562499999999997
40
0.562499999999997
40
0.593749999999996
40
0.593749999999996
40
0.624999999999996
40
0.624999999999996
40
0.640624999999996
40
0.640624999999996
40
0.648437499999996
40
0.648437499999996
40
0.656249999999996
40
0.656249999999996
40
0.687499999999996
40
0.687499999999996
40
0.718749999999997
40
0.718749999999997
40
0.749999999999997
40
0.749999999999997
40
0.781249999999997
40
0.781249999999997
40
0.812499999999998
40
0.812499999999998
40
0.843749999999998
40
0.843749999999998
40
0.874999999999998
40
0.874999999999998
40
0.906249999999999
40
0.906249999999999
40
0.937499999999999
40
0.937499999999999
40
0.96875
40
0.96875
40
1
40
1
40
1
40
1
41
1
10
67.5
20
-2.40547241177603
30
0
41
1
10
67.5594262062967
20
-2.74034544716733
30
0
41
1
10
67.6188524125934
20
-3.0732381964005
30
0
41
1
10
67.7377048251868
20
-3.72434557887672
30
0
41
1
10
67.7971310314835
20
-4.04252406294057
30
0
41
1
10
67.9159834440769
20
-4.65329456339094
30
0
41
1
10
67.9754096503736
20
-4.94584852674268
30
0
41
1
10
68.094262062967
20
-5.49546744545682
30
0
41
1
10
68.1536882692637
20
-5.75250058887806
30
0
41
1
10
68.272540681857
20
-6.22326099199751
30
0
41
1
10
68.3319668881538
20
-6.43696959406415
30
0
41
1
10
68.4508193007472
20
-6.81613099774648
30
0
41
1
10
68.5102455070439
20
-6.98158149598274
30
0
41
1
10
68.6290979196373
20
-7.26246624627348
30
0
41
1
10
68.688524125934
20
-7.3779131735057
30
0
41
1
10
68.8073765385274
20
-7.56005476587956
30
0
41
1
10
68.8668027448241
20
-7.62677220330198
30
0
41
1
10
68.9856551574175
20
-7.71519021902807
30
0
41
1
10
69.0450813637142
20
-7.73691747647393
30
0
41
1
10
69.119364121585
20
-7.73934155511327
30
0
41
1
10
69.1342206731592
20
-7.73860455827491
30
0
41
1
10
69.1639337763075
20
-7.73461327139384
30
0
41
1
10
69.1787903278818
20
-7.73135602822634
30
0
41
1
10
69.2233599826043
20
-7.71766646726442
30
0
41
1
10
69.2530730857527
20
-7.70331347238877
30
0
41
1
10
69.3422123951977
20
-7.64360015692012
30
0
41
1
10
69.4016386014944
20
-7.58151987930981
30
0
41
1
10
69.5204910140878
20
-7.40892391700075
30
0
41
1
10
69.5799172203845
20
-7.29838479839557
30
0
41
1
10
69.6987696329778
20
-7.02731489601081
30
0
41
1
10
69.7581958392746
20
-6.86677018443464
30
0
41
1
10
69.877048251868
20
-6.49710724999778
30
0
41
1
10
69.9364744581646
20
-6.28798972128132
30
0
41
1
10
70.0553268707581
20
-5.82578983898094
30
0
41
1
10
70.1147530770547
20
-5.57272459789317
30
0
41
1
10
70.2336054896481
20
-5.03016421540931
30
0
41
1
10
70.2930316959448
20
-4.74069985102483
30
0
41
1
10
70.4118841085382
20
-4.13506886881046
30
0
41
1
10
70.471310314835
20
-3.81894005359967
30
0
41
1
10
70.5901627274284
20
-3.17084324738946
30
0
41
1
10
70.6495889337251
20
-2.83891192974036
30
0
41
1
10
70.7684413463185
20
-2.17005978507643
30
0
41
1
10
70.8278675526151
20
-1.83316766833468
30
0
41
1
10
70.9467199652086
20
-1.16422527717694
30
0
41
1
10
71.0061461715052
20
-0.832192131009549
30
0
41
1
10
71.0952854809503
20
-0.343859895645721
30
0
41
1
10
71.1249985840986
20
-0.182687122660838
30
0
41
1
10
71.1695682388212
20
0.0560488578626632
30
0
41
1
10
71.1844247903953
20
0.135769084941671
30
0
41
1
10
71.2141378935437
20
0.296477627509233
30
0
41
1
10
71.2289944451178
20
0.377295475494663
30
0
41
1
10
71.3032772029887
20
0.783439685277386
30
0
41
1
10
71.3627034092855
20
1.11500753446089
30
0
41
1
10
71.4815558218788
20
1.78346271758434
30
0
41
1
10
71.5409820281755
20
2.12033352336115
30
0
41
1
10
71.6598344407689
20
2.78965780438708
30
0
41
1
10
71.7192606470656
20
3.12208308589138
30
0
41
1
10
71.838113059659
20
3.77171179250513
30
0
41
1
10
71.8975392659557
20
4.08887879800247
30
0
41
1
10
72.0163916785491
20
4.69710495186456
30
0
41
1
10
72.0758178848458
20
4.98812616218348
30
0
41
1
10
72.1946702974392
20
5.53423728012402
30
0
41
1
10
72.2540965037359
20
5.78929588476262
30
0
41
1
10
72.3729489163293
20
6.25579128449607
30
0
41
1
10
72.432375122626
20
6.46721019082591
30
0
41
1
10
72.5512275352194
20
6.84163010963826
30
0
41
1
10
72.6106537415161
20
7.00462962541874
30
0
41
1
10
72.7295061541095
20
7.28060708062859
30
0
41
1
10
72.7889323604061
20
7.39359832786863
30
0
41
1
10
72.9077847729996
20
7.57096057034855
30
0
41
1
10
72.9672109792963
20
7.63535467643408
30
0
41
1
10
73.0860633918896
20
7.71936103184592
30
0
41
1
10
73.1454895981864
20
7.739
30
0
41
1
10
73.2049158044831
20
7.739
30
0
0
SPLINE
5
D9
100
AcDbEntity
8
1
62
256
6
ByLayer
370
13
48
1
60
0
100
AcDbSpline
70
4
71
3
72
8
73
4
40
0
40
0
40
0
40
0
40
1
40
1
40
1
40
1
41
1
10
75.4306210865777
20
7.739
30
0
41
1
10
75.5148255100564
20
7.739
30
0
41
1
10
75.5990299335351
20
7.69944777830762
30
0
41
1
10
75.6832343570139
20
7.61301661321878
30
0
0
SPLINE
5
DA
100
AcDbEntity
8
1
62
256
6
ByLayer
370
13
48
1
60
0
100
AcDbSpline
70
4
71
3
72
78
73
74
40
0
40
0
40
0
40
0
40
0.0312500000000002
40
0.0312500000000002
40
0.0625000000000003
40
0.0625000000000003
40
0.0937500000000005
40
0.0937500000000005
40
0.125000000000001
40
0.125000000000001
40
0.156250000000001
40
0.156250000000001
40
0.187500000000001
40
0.187500000000001
40
0.203125000000001
40
0.203125000000001
40
0.210937500000001
40
0.210937500000001
40
0.218750000000001
40
0.218750000000001
40
0.250000000000001
40
0.250000000000001
40
0.281250000000001
40
0.281250000000001
40
0.312500000000001
40
0.312500000000001
40
0.343750000000001
40
0.343750000000001
40
0.375000000000001
40
0.375000000000001
40
0.406250000000001
40
0.406250000000001
40
0.437500000000001
40
0.437500000000001
40
0.468750000000001
40
0.468750000000001
40
0.500000000000001
40
0.500000000000001
40
0.531250000000001
40
0.531250000000001
40
0.562500000000001
40
0.562500000000001
40
0.593750000000001
40
0.593750000000001
40
0.601562500000001
40
0.601562500000001
40
0.609375000000001
40
0.609375000000001
40
0.625000000000001
40
0.625000000000001
40
0.656250000000001
40
0.656250000000001
40
0.687500000000001
40
0.687500000000001
40
0.718750000000001
40
0.718750000000001
40
0.75
40
0.75
40
0.78125
40
0.78125
40
0.8125
40
0.8125
40
0.84375
40
0.84375
40
0.875
40
0.875
40
0.90625
40
0.90625
40
0.9375
40
0.9375
40
0.96875
40
0.96875
40
1
40
1
40
1
40
1
41
1
10
67.5
20
-5.03699949719399
30
0
41
1
10
67.5542630417932
20
-5.29482448567236
30
0
41
1
10
67.6085260835863
20
-5.53868703564214
30
0
41
1
10
67.7170521671727
20
-5.99209760667102
30
0
41
1
10
67.7713152089659
20
-6.20163085290184
30
0
41
1
10
67.8798412925522
20
-6.5818080471546
30
0
41
1
10
67.9341043343454
20
-6.75244639247245
30
0
41
1
10
68.0426304179317
20
-7.05243006931619
30
0
41
1
10
68.0968934597249
20
-7.18177917536883
30
0
41
1
10
68.2054195433112
20
-7.39897776721247
30
0
41
1
10
68.2596825851044
20
-7.4868385666708
30
0
41
1
10
68.3682086686908
20
-7.62281595116914
30
0
41
1
10
68.4224717104839
20
-7.67094832379408
30
0
41
1
10
68.5038662731737
20
-7.71581245477648
30
0
41
1
10
68.5309977940703
20
-7.72622191849104
30
0
41
1
10
68.5716950754152
20
-7.73540272743983
30
0
41
1
10
68.5852608358634
20
-7.73739122137098
30
0
41
1
10
68.61239235676
20
-7.73929353982058
30
0
41
1
10
68.6259581172084
20
-7.7392169204343
30
0
41
1
10
68.6937869194498
20
-7.73367493798088
30
0
41
1
10
68.748049961243
20
-7.71256722910704
30
0
41
1
10
68.8565760448294
20
-7.63292922425114
30
0
41
1
10
68.9108390866224
20
-7.57438195733766
30
0
41
1
10
69.0193651702089
20
-7.41692951195444
30
0
41
1
10
69.073628212002
20
-7.31800941893366
30
0
41
1
10
69.1821542955883
20
-7.07853756115037
30
0
41
1
10
69.2364173373815
20
-6.93797624124181
30
0
41
1
10
69.3449434209679
20
-6.61598968336537
30
0
41
1
10
69.3992064627611
20
-6.43456308619449
30
0
41
1
10
69.5077325463475
20
-6.03382900717082
30
0
41
1
10
69.5619955881406
20
-5.81452971036015
30
0
41
1
10
69.6705216717269
20
-5.34314949825983
30
0
41
1
10
69.7247847135201
20
-5.0910854955693
30
0
41
1
10
69.8333107971064
20
-4.56100949050389
30
0
41
1
10
69.8875738388996
20
-4.28302020362582
30
0
41
1
10
69.9960999224859
20
-3.70905405057133
30
0
41
1
10
70.0503629642791
20
-3.41310151294772
30
0
41
1
10
70.1588890478654
20
-2.81157348928741
30
0
41
1
10
70.2131520896587
20
-2.50601976027434
30
0
41
1
10
70.321678173245
20
-1.89335124503154
30
0
41
1
10
70.3759412150382
20
-1.58625260179053
30
0
41
1
10
70.4844672986245
20
-0.977674529113614
30
0
41
1
10
70.5387303404177
20
-0.676204300709003
30
0
41
1
10
70.6065591426591
20
-0.306575386347447
30
0
41
1
10
70.6201249031074
20
-0.233006664553443
30
0
41
1
10
70.647256424004
20
-0.0866616977597516
30
0
41
1
10
70.6608221844523
20
-0.0141568009003663
30
0
41
1
10
70.7015194657972
20
0.204238656950565
30
0
41
1
10
70.7286509866938
20
0.351492006102688
30
0
41
1
10
70.8100455493836
20
0.797278412439795
30
0
41
1
10
70.8643085911767
20
1.09987976516507
30
0
41
1
10
70.9728346747631
20
1.70982388310148
30
0
41
1
10
71.0270977165562
20
2.01715649973366
30
0
41
1
10
71.1356238001426
20
2.62925106849556
30
0
41
1
10
71.1898868419358
20
2.9339960059701
30
0
41
1
10
71.2984129255221
20
3.53278579017092
30
0
41
1
10
71.3526759673153
20
3.82680832302867
30
0
41
1
10
71.4612020509016
20
4.39580433846641
30
0
41
1
10
71.5154650926948
20
4.67075345234849
30
0
41
1
10
71.6239911762812
20
5.19374845770062
30
0
41
1
10
71.6782542180743
20
5.44177218567478
30
0
41
1
10
71.7867803016607
20
5.90427206985026
30
0
41
1
10
71.8410433434538
20
6.11873235756701
30
0
41
1
10
71.9495694270402
20
6.50925641321584
30
0
41
1
10
72.0038324688334
20
6.68531328271425
30
0
41
1
10
72.1123585524197
20
6.99632701392503
30
0
41
1
10
72.1666215942129
20
7.1312864575703
30
0
41
1
10
72.2751476777992
20
7.35961185791635
30
0
41
1
10
72.3294107195924
20
7.45298827659809
30
0
41
1
10
72.4379368031788
20
7.59966054185986
30
0
41
1
10
72.4921998449719
20
7.65297176991166
30
0
41
1
10
72.6007259285583
20
7.72263299324032
30
0
41
1
10
72.6549889703514
20
7.739
30
0
41
1
10
72.7092520121446
20
7.739
30
0
0
SPLINE
5
DB
100
AcDbEntity
8
1
62
256
6
ByLayer
370
13
48
1
60
0
100
AcDbSpline
70
4
71
3
72
14
73
10
40
0
40
0
40
0
40
0
40
0.25
40
0.25
40
0.5
40
0.5
40
0.75
40
0.75
40
1
40
1
40
1
40
1
41
1
10
74.9349572942392
20
7.739
30
0
41
1
10
74.9973137161371
20
7.739
30
0
41
1
10
75.0596701380349
20
7.71737029416371
30
0
41
1
10
75.1843829818307
20
7.62459273694191
30
0
41
1
10
75.2467394037287
20
7.55341098111785
30
0
41
1
10
75.3714522475244
20
7.35726062273076
30
0
41
1
10
75.4338086694223
20
7.23226354129443
30
0
41
1
10
75.5585215132181
20
6.92723482461085
30
0
41
1
10
75.6208779351159
20
6.74718875116392
30
0
41
1
10
75.6832343570139
20
6.5408504547994
30
0
0
SPLINE
5
DC
100
AcDbEntity
8
1
62
256
6
ByLayer
370
13
48
1
60
0
100
AcDbSpline
70
4
71
3
72
76
73
72
40
0
40
0
40
0
40
0
40
0.0312500000000002
40
0.0312500000000002
40
0.0625000000000003
40
0.0625000000000003
40
0.0937500000000005
40
0.0937500000000005
40
0.125000000000001
40
0.125000000000001
40
0.132812500000001
40
0.132812500000001
40
0.140625000000001
40
0.156250000000001
40
0.156250000000001
40
0.187500000000001
40
0.187500000000001
40
0.218750000000002
40
0.218750000000002
40
0.250000000000002
40
0.250000000000002
40
0.281250000000003
40
0.281250000000003
40
0.312500000000003
40
0.312500000000003
40
0.343750000000004
40
0.343750000000004
40
0.375000000000004
40
0.375000000000004
40
0.406250000000004
40
0.406250000000004
40
0.437500000000005
40
0.437500000000005
40
0.468750000000005
40
0.468750000000005
40
0.500000000000006
40
0.500000000000006
40
0.531250000000006
40
0.531250000000006
40
0.562500000000007
40
0.562500000000007
40
0.570312500000007
40
0.570312500000007
40
0.578125000000007
40
0.593750000000006
40
0.593750000000006
40
0.625000000000006
40
0.625000000000006
40
0.656250000000005
40
0.656250000000005
40
0.687500000000005
40
0.687500000000005
40
0.718750000000005
40
0.718750000000005
40
0.750000000000004
40
0.750000000000004
40
0.781250000000004
40
0.781250000000004
40
0.812500000000003
40
0.812500000000003
40
0.843750000000003
40
0.843750000000003
40
0.875000000000002
40
0.875000000000002
40
0.906250000000002
40
0.906250000000002
40
0.937500000000001
40
0.937500000000001
40
0.968750000000001
40
0.968750000000001
40
1
40
1
40
1
40
1
41
1
10
67.5
20
-6.92248277352718
30
0
41
1
10
67.5490998772897
20
-7.05653443500137
30
0
41
1
10
67.5981997545793
20
-7.17367526410828
30
0
41
1
10
67.6963995091586
20
-7.37397311416598
30
0
41
1
10
67.7454993864483
20
-7.45713682467192
30
0
41
1
10
67.8436991410275
20
-7.59064957045422
30
0
41
1
10
67.8927990183171
20
-7.64100793153582
30
0
41
1
10
67.9909987728964
20
-7.71115885119528
30
0
41
1
10
68.0400986501861
20
-7.73096172672285
30
0
41
1
10
68.1014734967982
20
-7.73850396046839
30
0
41
1
10
68.1137484661206
20
-7.73915387654247
30
0
41
1
10
68.1382984047655
20
-7.73878532235864
30
0
41
1
10
68.1751233127327
20
-7.73571664032107
30
0
41
1
10
68.2119482206999
20
-7.72486311035107
30
0
41
1
10
68.2855980366344
20
-7.69218935397839
30
0
41
1
10
68.3346979139239
20
-7.65575880243506
30
0
41
1
10
68.4328976685033
20
-7.55098752491696
30
0
41
1
10
68.4819975457929
20
-7.4826368358639
30
0
41
1
10
68.5801973003722
20
-7.31233705405202
30
0
41
1
10
68.6292971776619
20
-7.21037989403158
30
0
41
1
10
68.7274969322412
20
-6.97240218837089
30
0
41
1
10
68.7765968095308
20
-6.8363770966933
30
0
41
1
10
68.8747965641101
20
-6.5312171841158
30
0
41
1
10
68.9238964413997
20
-6.36208259823769
30
0
41
1
10
69.0220961959791
20
-5.9931449914759
30
0
41
1
10
69.0711960732687
20
-5.79334747736326
30
0
41
1
10
69.169395827848
20
-5.36692781739779
30
0
41
1
10
69.2184957051376
20
-5.14031593752827
30
0
41
1
10
69.3166954597169
20
-4.66527426141494
30
0
41
1
10
69.3657953370066
20
-4.41685802911783
30
0
41
1
10
69.4639950915858
20
-3.90401333780957
30
0
41
1
10
69.5130949688755
20
-3.63959967901744
30
0
41
1
10
69.6112947234549
20
-3.10093096031039
30
0
41
1
10
69.6603946007444
20
-2.82668979365349
30
0
41
1
10
69.7585943553237
20
-2.2744634450782
30
0
41
1
10
69.8076942326134
20
-1.99648952241483
30
0
41
1
10
69.9058939871927
20
-1.44243817026953
30
0
41
1
10
69.9549938644823
20
-1.1663683675003
30
0
41
1
10
70.0531936190616
20
-0.621022457450607
30
0
41
1
10
70.1022934963513
20
-0.351750135369201
30
0
41
1
10
70.1636683429633
20
-0.0218949147183594
30
0
41
1
10
70.1759433122857
20
0.0436131215991509
30
0
41
1
10
70.2004932509305
20
0.175701680814314
30
0
41
1
10
70.2373181588978
20
0.374827793723739
30
0
41
1
10
70.274143066865
20
0.576684238324674
30
0
41
1
10
70.3477928827995
20
0.983287735917287
30
0
41
1
10
70.3968927600891
20
1.25823805922522
30
0
41
1
10
70.4950925146685
20
1.81121046774336
30
0
41
1
10
70.5441923919581
20
2.08922578888704
30
0
41
1
10
70.6423921465374
20
2.64283972024293
30
0
41
1
10
70.6914920238271
20
2.91842782163661
30
0
41
1
10
70.7896917784064
20
3.46116718524962
30
0
41
1
10
70.838791655696
20
3.7283050133656
30
0
41
1
10
70.9369914102753
20
4.2479551929614
30
0
41
1
10
70.9860912875649
20
4.50045276838398
30
0
41
1
10
71.0842910421442
20
4.98489529432933
30
0
41
1
10
71.1333909194339
20
5.21682621602542
30
0
41
1
10
71.2315906740131
20
5.65491028669265
30
0
41
1
10
71.2806905513028
20
5.86105228116404
30
0
41
1
10
71.378890305882
20
6.24342116249312
30
0
41
1
10
71.4279901831717
20
6.41964140285057
30
0
41
1
10
71.526189937751
20
6.73938992632876
30
0
41
1
10
71.5752898150407
20
6.88291681051501
30
0
41
1
10
71.67348956962
20
7.13598484938382
30
0
41
1
10
71.7225894469096
20
7.24552957388983
30
0
41
1
10
71.8207892014889
20
7.43078801737389
30
0
41
1
10
71.8698890787786
20
7.506509154779
30
0
41
1
10
71.9680888333579
20
7.62555381799729
30
0
41
1
10
72.0171887106475
20
7.66888702901664
30
0
41
1
10
72.1153884652268
20
7.72560495417289
30
0
41
1
10
72.1644883425164
20
7.739
30
0
41
1
10
72.2135882198061
20
7.739
30
0
0
SPLINE
5
DD
100
AcDbEntity
8
1
62
256
6
ByLayer
370
13
48
1
60
0
100
AcDbSpline
70
4
71
3
72
22
73
18
40
0
40
0
40
0
40
0
40
0.125
40
0.125
40
0.25
40
0.25
40
0.375
40
0.375
40
0.5
40
0.5
40
0.625
40
0.625
40
0.75
40
0.75
40
0.875
40
0.875
40
1
40
1
40
1
40
1
41
1
10
74.4392935019007
20
7.739
30
0
41
1
10
74.4911243708638
20
7.739
30
0
41
1
10
74.5429552398268
20
7.72407028962013
30
0
41
1
10
74.6466169777528
20
7.66067974689975
30
0
41
1
10
74.698447846716
20
7.61220537784089
30
0
41
1
10
74.802109584642
20
7.47892725496797
30
0
41
1
10
74.8539404536051
20
7.39411103960924
30
0
41
1
10
74.9576021915312
20
7.18664795015951
30
0
41
1
10
75.0094330604942
20
7.06399207005404
30
0
41
1
10
75.1130947984203
20
6.78097682825791
30
0
41
1
10
75.1649256673834
20
6.62061414864695
30
0
41
1
10
75.2685874053095
20
6.2641340061449
30
0
41
1
10
75.3204182742725
20
6.06802030923879
30
0
41
1
10
75.4240800121986
20
5.64380591415815
30
0
41
1
10
75.4759108811617
20
5.41571606562636
30
0
41
1
10
75.5795726190878
20
4.93291546248176
30
0
41
1
10
75.6314034880508
20
4.6782210872957
30
0
41
1
10
75.6832343570139
20
4.41349050913948
30
0
0
SPLINE
5
DE
100
AcDbEntity
8
1
62
256
6
ByLayer
370
13
48
1
60
0
100
AcDbSpline
70
4
71
3
72
72
73
68
40
0
40
0
40
0
40
0
40
0.0156249999999996
40
0.0156249999999996
40
0.0234374999999994
40
0.0234374999999994
40
0.0312499999999992
40
0.0312499999999992
40
0.0624999999999994
40
0.0624999999999994
40
0.0937499999999996
40
0.0937499999999996
40
0.125
40
0.125
40
0.15625
40
0.15625
40
0.1875
40
0.1875
40
0.21875
40
0.21875
40
0.250000000000001
40
0.250000000000001
40
0.281250000000001
40
0.281250000000001
40
0.312500000000001
40
0.312500000000001
40
0.343750000000001
40
0.343750000000001
40
0.375000000000002
40
0.375000000000002
40
0.406250000000002
40
0.406250000000002
40
0.437500000000002
40
0.437500000000002
40
0.500000000000002
40
0.500000000000002
40
0.515625000000002
40
0.515625000000002
40
0.531250000000002
40
0.531250000000002
40
0.562500000000002
40
0.562500000000002
40
0.593750000000002
40
0.593750000000002
40
0.625000000000002
40
0.625000000000002
40
0.656250000000002
40
0.656250000000002
40
0.687500000000001
40
0.687500000000001
40
0.718750000000001
40
0.718750000000001
40
0.750000000000001
40
0.750000000000001
40
0.781250000000001
40
0.781250000000001
40
0.812500000000001
40
0.812500000000001
40
0.843750000000001
40
0.843750000000001
40
0.875000000000001
40
0.875000000000001
40
0.906250000000001
40
0.906250000000001
40
0.9375
40
0.9375
40
1
40
1
40
1
40
1
41
1
10
67.5
20
-7.70846455255673
30
0
41
1
10
67.521968356393
20
-7.71926075943918
30
0
41
1
10
67.5439367127861
20
-7.72710633006142
30
0
41
1
10
67.5768892473757
20
-7.73465476648289
30
0
41
1
10
67.5878734255722
20
-7.73646778229329
30
0
41
1
10
67.6098417819653
20
-7.73872394611638
30
0
41
1
10
67.6208259601618
20
-7.73916797985879
30
0
41
1
10
67.6757468511445
20
-7.73804767319456
30
0
41
1
10
67.7196835639306
20
-7.72637842279335
30
0
41
1
10
67.8075569895028
20
-7.6792384894739
30
0
41
1
10
67.851493702289
20
-7.64376187652979
30
0
41
1
10
67.9393671278612
20
-7.54718041770005
30
0
41
1
10
67.9833038406474
20
-7.48606987802032
30
0
41
1
10
68.0711772662195
20
-7.33701039451856
30
0
41
1
10
68.1151139790056
20
-7.24905672712012
30
0
41
1
10
68.202987404578
20
-7.04587666040985
30
0
41
1
10
68.2469241173641
20
-6.93064726306727
30
0
41
1
10
68.3347975429363
20
-6.67337597621776
30
0
41
1
10
68.3787342557225
20
-6.53133343874407
30
0
41
1
10
68.4666076812947
20
-6.22184759777062
30
0
41
1
10
68.5105443940809
20
-6.05440633449371
30
0
41
1
10
68.598417819653
20
-5.69646634273042
30
0
41
1
10
68.6423545324392
20
-5.50597228386766
30
0
41
1
10
68.7302279580114
20
-5.10510028230163
30
0
41
1
10
68.7741646707976
20
-4.89472915979516
30
0
41
1
10
68.8620380963698
20
-4.45793229023846
30
0
41
1
10
68.905974809156
20
-4.23151469579861
30
0
41
1
10
68.9938482347281
20
-3.76688177504778
30
0
41
1
10
69.0377849475142
20
-3.52867494111359
30
0
41
1
10
69.1256583730865
20
-3.04489444542429
30
0
41
1
10
69.1695950858726
20
-2.79932864819554
30
0
41
1
10
69.2574685114448
20
-2.30518612659768
30
0
41
1
10
69.301405224231
20
-2.05661587169715
30
0
41
1
10
69.4332153625893
20
-1.31248343573117
30
0
41
1
10
69.5210887881615
20
-0.818798096566212
30
0
41
1
10
69.6309305701269
20
-0.221268521544801
30
0
41
1
10
69.6528989265199
20
-0.102892533978775
30
0
41
1
10
69.6968356393061
20
0.132343283200015
30
0
41
1
10
69.7188039956991
20
0.251065379335017
30
0
41
1
10
69.7847090648783
20
0.610057852276867
30
0
41
1
10
69.8286457776645
20
0.853173058242021
30
0
41
1
10
69.9165192032367
20
1.34392419245796
30
0
41
1
10
69.9604559160228
20
1.59155741136016
30
0
41
1
10
70.048329341595
20
2.08772407150121
30
0
41
1
10
70.0922660543811
20
2.33625281624484
30
0
41
1
10
70.1801394799534
20
2.83013509830849
30
0
41
1
10
70.2240761927395
20
3.07548209638983
30
0
41
1
10
70.3119496183117
20
3.55863994094034
30
0
41
1
10
70.3558863310979
20
3.79644287945456
30
0
41
1
10
70.4437597566701
20
4.26008503423876
30
0
41
1
10
70.4876964694562
20
4.48591575212012
30
0
41
1
10
70.5755698950285
20
4.92136866274194
30
0
41
1
10
70.6195066078146
20
5.1309827391832
30
0
41
1
10
70.7073800333868
20
5.53019346091853
30
0
41
1
10
70.751316746173
20
5.71978336131963
30
0
41
1
10
70.8391901717452
20
6.07579941981888
30
0
41
1
10
70.8831268845313
20
6.24222101127413
30
0
41
1
10
70.9710003101035
20
6.54958929168399
30
0
41
1
10
71.0149370228897
20
6.69053405444637
30
0
41
1
10
71.1028104484619
20
6.9455714792349
30
0
41
1
10
71.146747161248
20
7.05966489656484
30
0
41
1
10
71.2346205868203
20
7.26057371116622
30
0
41
1
10
71.2785572996064
20
7.34739219246438
30
0
41
1
10
71.3664307251786
20
7.49421719602691
30
0
41
1
10
71.4103674379647
20
7.55422849781465
30
0
41
1
10
71.5421775763231
20
7.69590059782544
30
0
41
1
10
71.6300510018954
20
7.739
30
0
41
1
10
71.7179244274676
20
7.739
30
0
0
SPLINE
5
DF
100
AcDbEntity
8
1
62
256
6
ByLayer
370
13
48
1
60
0
100
AcDbSpline
70
4
71
3
72
22
73
18
40
0
40
0
40
0
40
0
40
0.125
40
0.125
40
0.25
40
0.25
40
0.375
40
0.375
40
0.5
40
0.5
40
0.625
40
0.625
40
0.75
40
0.75
40
0.875
40
0.875
40
1
40
1
40
1
40
1
41
1
10
73.9436297095622
20
7.739
30
0
41
1
10
74.0161132365394
20
7.739
30
0
41
1
10
74.0885967635165
20
7.70974053811034
30
0
41
1
10
74.2335638174708
20
7.58308930226917
30
0
41
1
10
74.306047344448
20
7.48562651655701
30
0
41
1
10
74.4510143984023
20
7.21686597623696
30
0
41
1
10
74.5234979253794
20
7.04551582858565
30
0
41
1
10
74.6684649793337
20
6.62926721366981
30
0
41
1
10
74.7409485063109
20
6.38435830815143
30
0
41
1
10
74.8859155602652
20
5.82829558843923
30
0
41
1
10
74.9583990872424
20
5.51718473339616
30
0
41
1
10
75.1033661411967
20
4.84257662690769
30
0
41
1
10
75.1758496681738
20
4.47916612840626
30
0
41
1
10
75.3208167221281
20
3.71836792200509
30
0
41
1
10
75.3933002491053
20
3.32108315717298
30
0
41
1
10
75.5382673030596
20
2.51253257636944
30
0
41
1
10
75.6107508300368
20
2.10135456101762
30
0
41
1
10
75.6832343570139
20
1.69248877608979
30
0
0
SPLINE
5
E0
100
AcDbEntity
8
1
62
256
6
ByLayer
370
13
48
1
60
0
100
AcDbSpline
70
4
71
3
72
44
73
40
40
0
40
0
40
0
40
0
40
0.0625000000000002
40
0.0625000000000002
40
0.125
40
0.125
40
0.187500000000001
40
0.187500000000001
40
0.250000000000001
40
0.250000000000001
40
0.312500000000001
40
0.312500000000001
40
0.375000000000001
40
0.375000000000001
40
0.437500000000001
40
0.437500000000001
40
0.445312500000001
40
0.445312500000001
40
0.453125000000001
40
0.453125000000001
40
0.468750000000001
40
0.468750000000001
40
0.500000000000001
40
0.500000000000001
40
0.562500000000001
40
0.562500000000001
40
0.625000000000001
40
0.625000000000001
40
0.687500000000001
40
0.687500000000001
40
0.750000000000001
40
0.750000000000001
40
0.812500000000001
40
0.812500000000001
40
0.875
40
0.875
40
0.9375
40
0.9375
40
1
40
1
40
1
40
1
41
1
10
67.5
20
-7.46280450968311
30
0
41
1
10
67.5775470965652
20
-7.34253887628026
30
0
41
1
10
67.6550941931304
20
-7.18057099183406
30
0
41
1
10
67.8101883862607
20
-6.77159450770293
30
0
41
1
10
67.8877354828259
20
-6.52455548725496
30
0
41
1
10
68.0428296759563
20
-5.95265966093513
30
0
41
1
10
68.1203767725215
20
-5.62785099031487
30
0
41
1
10
68.2754709656518
20
-4.91646853738399
30
0
41
1
10
68.3530180622171
20
-4.5300117885246
30
0
41
1
10
68.5081122553474
20
-3.71766343280112
30
0
41
1
10
68.5856593519126
20
-3.29191579396951
30
0
41
1
10
68.740753545043
20
-2.42549470331866
30
0
41
1
10
68.8183006416082
20
-1.98494221597173
30
0
41
1
10
68.9733948347386
20
-1.1114399586036
30
0
41
1
10
69.0509419313038
20
-0.678557246187069
30
0
41
1
10
69.1381824149396
20
-0.205760099320827
30
0
41
1
10
69.1478758020103
20
-0.153420563046723
30
0
41
1
10
69.1672625761516
20
-0.0491561913195255
30
0
41
1
10
69.1769559632222
20
0.0026251157162562
30
0
41
1
10
69.2060361244341
20
0.158646606407672
30
0
41
1
10
69.2254228985755
20
0.263507070840944
30
0
41
1
10
69.2835832209994
20
0.580290427452098
30
0
41
1
10
69.322356769282
20
0.794426655475633
30
0
41
1
10
69.4386774141297
20
1.44256734886142
30
0
41
1
10
69.5162245106949
20
1.88244743725494
30
0
41
1
10
69.6713187038254
20
2.75721705028954
30
0
41
1
10
69.7488658003905
20
3.19200575416349
30
0
41
1
10
69.9039599935209
20
4.03252309077115
30
0
41
1
10
69.981507090086
20
4.43811179625237
30
0
41
1
10
70.1366012832165
20
5.19645347886333
30
0
41
1
10
70.2141483797816
20
5.54907207222388
30
0
41
1
10
70.369242572912
20
6.1822966740302
30
0
41
1
10
70.4467896694772
20
6.46282278731655
30
0
41
1
10
70.6018838626076
20
6.94067639909662
30
0
41
1
10
70.6794309591728
20
7.13800321077926
30
0
41
1
10
70.8345251523032
20
7.44753328035563
30
0
41
1
10
70.9120722488684
20
7.55980331456121
30
0
41
1
10
71.0671664419988
20
7.70548737326743
30
0
41
1
10
71.1447135385639
20
7.739
30
0
41
1
10
71.2222606351291
20
7.739
30
0
0
SPLINE
5
E1
100
AcDbEntity
8
1
62
256
6
ByLayer
370
13
48
1
60
0
100
AcDbSpline
70
4
71
3
72
42
73
38
40
0
40
0
40
0
40
0
40
0.0625000000000001
40
0.0625000000000001
40
0.125
40
0.125
40
0.1875
40
0.1875
40
0.25
40
0.25
40
0.3125
40
0.3125
40
0.375
40
0.375
40
0.4375
40
0.4375
40
0.5
40
0.5
40
0.5625
40
0.5625
40
0.625
40
0.625
40
0.6875
40
0.6875
40
0.75
40
0.75
40
0.8125
40
0.8125
40
0.875
40
0.875
40
0.90625
40
0.90625
40
0.921875
40
0.921875
40
0.9375
40
0.9375
40
1
40
1
40
1
40
1
41
1
10
73.4479659172237
20
7.739
30
0
41
1
10
73.4945340097194
20
7.739
30
0
41
1
10
73.5411021022149
20
7.72695292419081
30
0
41
1
10
73.6342382872062
20
7.67607492111975
30
0
41
1
10
73.6808063797018
20
7.63723606491473
30
0
41
1
10
73.7739425646931
20
7.53062890182852
30
0
41
1
10
73.8205106571887
20
7.46285304967481
30
0
41
1
10
73.91364684218
20
7.2970211310413
30
0
41
1
10
73.9602149346756
20
7.19895901252099
30
0
41
1
10
74.0533511196668
20
6.97220704629927
30
0
41
1
10
74.0999192121625
20
6.84351375814609
30
0
41
1
10
74.1930553971538
20
6.55630182392329
30
0
41
1
10
74.2396234896494
20
6.39778321594315
30
0
41
1
10
74.3327596746407
20
6.0529269348502
30
0
41
1
10
74.3793277671363
20
5.86659314194125
30
0
41
1
10
74.4724639521276
20
5.46925875471368
30
0
41
1
10
74.5190320446231
20
5.25826559051245
30
0
41
1
10
74.6121682296144
20
4.81573923613752
30
0
41
1
10
74.65873632211
20
4.58421609469795
30
0
41
1
10
74.7518725071013
20
4.10546470534095
30
0
41
1
10
74.7984405995969
20
3.85824774986716
30
0
41
1
10
74.8915767845881
20
3.35332602778001
30
0
41
1
10
74.9381448770838
20
3.09563229218642
30
0
41
1
10
75.0312810620751
20
2.57501599710651
30
0
41
1
10
75.0778491545707
20
2.31210289760594
30
0
41
1
10
75.1709853395619
20
1.78603639958499
30
0
41
1
10
75.2175534320576
20
1.52289001240859
30
0
41
1
10
75.3106896170489
20
1.000824983526
30
0
41
1
10
75.3572577095445
20
0.741910550617661
30
0
41
1
10
75.427109848288
20
0.359543486685396
30
0
41
1
10
75.4503938945358
20
0.233082799927928
30
0
41
1
10
75.4853199639075
20
0.0451839949391797
30
0
41
1
10
75.4969619870313
20
-0.0169586166346676
30
0
41
1
10
75.5202460332793
20
-0.142043546310674
30
0
41
1
10
75.5318880564031
20
-0.204887850633753
30
0
41
1
10
75.5900981720226
20
-0.520498670610635
30
0
41
1
10
75.6366662645182
20
-0.777463008905414
30
0
41
1
10
75.6832343570139
20
-1.03712612628169
30
0
0
SPLINE
5
E2
100
AcDbEntity
8
1
62
256
6
ByLayer
370
13
48
1
60
0
100
AcDbSpline
70
4
71
3
72
42
73
38
40
0
40
0
40
0
40
0
40
0.0624999999999998
40
0.0624999999999998
40
0.125
40
0.125
40
0.187499999999999
40
0.187499999999999
40
0.249999999999999
40
0.249999999999999
40
0.312499999999999
40
0.312499999999999
40
0.343749999999999
40
0.343749999999999
40
0.359374999999999
40
0.359374999999999
40
0.374999999999998
40
0.374999999999998
40
0.437499999999999
40
0.437499999999999
40
0.499999999999999
40
0.499999999999999
40
0.562499999999999
40
0.562499999999999
40
0.624999999999999
40
0.624999999999999
40
0.687499999999999
40
0.687499999999999
40
0.75
40
0.75
40
0.8125
40
0.8125
40
0.875
40
0.875
40
0.9375
40
0.9375
40
1
40
1
40
1
40
1
41
1
10
67.5
20
-6.12462194078486
30
0
41
1
10
67.5672207675581
20
-5.86811908525422
30
0
41
1
10
67.6344415351163
20
-5.58309143643581
30
0
41
1
10
67.7688830702326
20
-4.96671059246083
30
0
41
1
10
67.8361038377907
20
-4.6354148696079
30
0
41
1
10
67.9705453729069
20
-3.94082310313411
30
0
41
1
10
68.0377661404651
20
-3.57759754838739
30
0
41
1
10
68.1722076755814
20
-2.83502753591031
30
0
41
1
10
68.2394284431396
20
-2.45574758597084
30
0
41
1
10
68.3738699782558
20
-1.69640899826248
30
0
41
1
10
68.4410907458139
20
-1.31639476367866
30
0
41
1
10
68.5419218971512
20
-0.755628023510155
30
0
41
1
10
68.5755322809302
20
-0.570226746861181
30
0
41
1
10
68.6259478565988
20
-0.295412364461669
30
0
41
1
10
68.6427530484884
20
-0.204353882258829
30
0
41
1
10
68.6763634322674
20
-0.0234775312418662
30
0
41
1
10
68.693168624157
20
0.0661430035575847
30
0
41
1
10
68.7771945836046
20
0.519303004269432
30
0
41
1
10
68.8444153511628
20
0.891705518394843
30
0
41
1
10
68.978856886279
20
1.64540597456448
30
0
41
1
10
69.0460776538372
20
2.02667734715018
30
0
41
1
10
69.1805191889534
20
2.78426978207196
30
0
41
1
10
69.2477399565116
20
3.16053968384992
30
0
41
1
10
69.3821814916279
20
3.89246667710549
30
0
41
1
10
69.4494022591859
20
4.24805573342965
30
0
41
1
10
69.5838437943023
20
4.92296936978499
30
0
41
1
10
69.6510645618604
20
5.24222525175622
30
0
41
1
10
69.7855060969766
20
5.83095193876798
30
0
41
1
10
69.8527268645348
20
6.10037233495561
30
0
41
1
10
69.9871683996511
20
6.57989706823543
30
0
41
1
10
70.0543891672093
20
6.7899825674269
30
0
41
1
10
70.1888307023255
20
7.14637705669179
30
0
41
1
10
70.2560514698836
20
7.29270063936238
30
0
41
1
10
70.3904930049999
20
7.52224047093515
30
0
41
1
10
70.457713772558
20
7.60549569956024
30
0
41
1
10
70.5921553076743
20
7.71385091780164
30
0
41
1
10
70.6593760752325
20
7.739
30
0
41
1
10
70.7265968427906
20
7.739
30
0
0
SPLINE
5
E3
100
AcDbEntity
8
1
62
256
6
ByLayer
370
13
48
1
60
0
100
AcDbSpline
70
4
71
3
72
40
73
36
40
0
40
0
40
0
40
0
40
0.0625000000000002
40
0.0625000000000002
40
0.125000000000001
40
0.125000000000001
40
0.187500000000001
40
0.187500000000001
40
0.250000000000001
40
0.250000000000001
40
0.312500000000001
40
0.312500000000001
40
0.375000000000002
40
0.375000000000002
40
0.437500000000002
40
0.437500000000002
40
0.500000000000002
40
0.500000000000002
40
0.562500000000002
40
0.562500000000002
40
0.625000000000002
40
0.625000000000002
40
0.687500000000003
40
0.687500000000003
40
0.718750000000003
40
0.718750000000003
40
0.750000000000003
40
0.750000000000003
40
0.812500000000002
40
0.812500000000002
40
0.875000000000001
40
0.875000000000001
40
0.937500000000001
40
0.937500000000001
40
1
40
1
40
1
40
1
41
1
10
72.9523021248852
20
7.739
30
0
41
1
10
73.0091965463879
20
7.739
30
0
41
1
10
73.0660909678905
20
7.72100300232026
30
0
41
1
10
73.179879810896
20
7.64420710358868
30
0
41
1
10
73.2367742323986
20
7.58538667445657
30
0
41
1
10
73.350563075404
20
7.42345767666197
30
0
41
1
10
73.4074574969067
20
7.32033005663536
30
0
41
1
10
73.521246339912
20
7.06828736732424
30
0
41
1
10
73.5781407614147
20
6.91936030490766
30
0
41
1
10
73.69192960442
20
6.57668994727283
30
0
41
1
10
73.7488240259227
20
6.38294563387382
30
0
41
1
10
73.8626128689281
20
5.95429145393453
30
0
41
1
10
73.9195072904308
20
5.71939324885423
30
0
41
1
10
74.0332961334361
20
5.21460557116845
30
0
41
1
10
74.0901905549388
20
4.94473896264336
30
0
41
1
10
74.2039793979442
20
4.37818550738459
30
0
41
1
10
74.2608738194468
20
4.08152829422855
30
0
41
1
10
74.3746626624522
20
3.47075437028019
30
0
41
1
10
74.4315570839549
20
3.15666810207975
30
0
41
1
10
74.5453459269602
20
2.52066167730919
30
0
41
1
10
74.6022403484629
20
2.19876723961843
30
0
41
1
10
74.7160291914684
20
1.55617230472964
30
0
41
1
10
74.772923612971
20
1.23548925214223
30
0
41
1
10
74.858265245225
20
0.761188452087566
30
0
41
1
10
74.8867124559764
20
0.60419739915514
30
0
41
1
10
74.9436068774791
20
0.293251526462399
30
0
41
1
10
74.9720540882304
20
0.139496414780382
30
0
41
1
10
75.0573957204844
20
-0.317373153055598
30
0
41
1
10
75.1142901419871
20
-0.629425834650704
30
0
41
1
10
75.2280789849924
20
-1.26231660161713
30
0
41
1
10
75.2849734064951
20
-1.58314626904431
30
0
41
1
10
75.3987622495005
20
-2.22579669576138
30
0
41
1
10
75.4556566710032
20
-2.54759975329904
30
0
41
1
10
75.5694455140085
20
-3.18315865017775
30
0
41
1
10
75.6263399355112
20
-3.49688857840306
30
0
41
1
10
75.6832343570139
20
-3.80178418457089
30
0
0
SPLINE
5
E4
100
AcDbEntity
8
1
62
256
6
ByLayer
370
13
48
1
60
0
100
AcDbSpline
70
4
71
3
72
40
73
36
40
0
40
0
40
0
40
0
40
0.0624999999999996
40
0.0624999999999996
40
0.124999999999999
40
0.124999999999999
40
0.187499999999999
40
0.187499999999999
40
0.249999999999998
40
0.249999999999998
40
0.281249999999998
40
0.281249999999998
40
0.312499999999999
40
0.312499999999999
40
0.374999999999999
40
0.374999999999999
40
0.437499999999999
40
0.437499999999999
40
0.499999999999999
40
0.499999999999999
40
0.562499999999999
40
0.562499999999999
40
0.624999999999999
40
0.624999999999999
40
0.687499999999999
40
0.687499999999999
40
0.749999999999999
40
0.749999999999999
40
0.8125
40
0.8125
40
0.875
40
0.875
40
0.9375
40
0.9375
40
1
40
1
40
1
40
1
41
1
10
67.5
20
-3.80178856994249
30
0
41
1
10
67.5568944385511
20
-3.49689295715342
30
0
41
1
10
67.6137888771022
20
-3.18316299391887
30
0
41
1
10
67.7275777542043
20
-2.54760397958802
30
0
41
1
10
67.7844721927554
20
-2.22580083967677
30
0
41
1
10
67.8982610698576
20
-1.58315021307317
30
0
41
1
10
67.9551555084087
20
-1.26232042819802
30
0
41
1
10
68.0689443855109
20
-0.629429404249407
30
0
41
1
10
68.125838824062
20
-0.317376583167913
30
0
41
1
10
68.2111804818886
20
0.139493201403894
30
0
41
1
10
68.2396277011641
20
0.293248286206222
30
0
41
1
10
68.2965221397151
20
0.604194210344843
30
0
41
1
10
68.3249693589908
20
0.761185292548191
30
0
41
1
10
68.4103110168174
20
1.23548619102678
30
0
41
1
10
68.4672054553685
20
1.5561693234734
30
0
41
1
10
68.5809943324707
20
2.19876444427052
30
0
41
1
10
68.6378887710217
20
2.52065898801183
30
0
41
1
10
68.7516776481239
20
3.1566656457378
30
0
41
1
10
68.808572086675
20
3.47075204082327
30
0
41
1
10
68.9223609637771
20
4.08152623124568
30
0
41
1
10
68.9792554023282
20
4.37818358395052
30
0
41
1
10
69.0930442794303
20
4.94473732095631
30
0
41
1
10
69.1499387179814
20
5.21460407162729
30
0
41
1
10
69.2637275950837
20
5.71939202572318
30
0
41
1
10
69.3206220336348
20
5.95429036501668
30
0
41
1
10
69.4344109107369
20
6.38294479609903
30
0
41
1
10
69.491305349288
20
6.57668922639172
30
0
41
1
10
69.6050942263901
20
6.91935979361514
30
0
41
1
10
69.6619886649412
20
7.06828694871334
30
0
41
1
10
69.7757775420434
20
7.32032979552517
30
0
41
1
10
69.8326719805945
20
7.42345748038039
30
0
41
1
10
69.9464608576967
20
7.58538657960611
30
0
41
1
10
70.0033552962477
20
7.64420704536624
30
0
41
1
10
70.11714417335
20
7.72100299150705
30
0
41
1
10
70.174038611901
20
7.739
30
0
41
1
10
70.2309330504521
20
7.739
30
0
0
SPLINE
5
E5
100
AcDbEntity
8
1
62
256
6
ByLayer
370
13
48
1
60
0
100
AcDbSpline
70
4
71
3
72
42
73
38
40
0
40
0
40
0
40
0
40
0.0624999999999999
40
0.0624999999999999
40
0.125
40
0.125
40
0.1875
40
0.1875
40
0.249999999999999
40
0.249999999999999
40
0.312499999999999
40
0.312499999999999
40
0.374999999999999
40
0.374999999999999
40
0.437499999999999
40
0.437499999999999
40
0.499999999999999
40
0.499999999999999
40
0.562499999999999
40
0.562499999999999
40
0.624999999999999
40
0.624999999999999
40
0.640624999999999
40
0.640624999999999
40
0.656249999999999
40
0.656249999999999
40
0.687499999999998
40
0.687499999999998
40
0.749999999999999
40
0.749999999999999
40
0.812499999999999
40
0.812499999999999
40
0.874999999999999
40
0.874999999999999
40
0.9375
40
0.9375
40
1
40
1
40
1
40
1
41
1
10
72.4566383325467
20
7.739
30
0
41
1
10
72.5238590830564
20
7.739
30
0
41
1
10
72.5910798335662
20
7.71385093060661
30
0
41
1
10
72.7255213345856
20
7.60549576919777
30
0
41
1
10
72.7927420850953
20
7.52224058466146
30
0
41
1
10
72.9271835861148
20
7.29270087492878
30
0
41
1
10
72.9944043366245
20
7.14637737004966
30
0
41
1
10
73.128845837644
20
6.78998306756179
30
0
41
1
10
73.1960665881538
20
6.579897677351
30
0
41
1
10
73.3305080891732
20
6.10037318523376
30
0
41
1
10
73.397728839683
20
5.83095292116917
30
0
41
1
10
73.5321703407025
20
5.24222650903113
30
0
41
1
10
73.5993910912122
20
4.9229707697134
30
0
41
1
10
73.7338325922316
20
4.24805741456689
30
0
41
1
10
73.8010533427414
20
3.89246849669766
30
0
41
1
10
73.9354948437608
20
3.16054176248645
30
0
41
1
10
74.0027155942705
20
2.78427198122955
30
0
41
1
10
74.13715709529
20
2.02667975933255
30
0
41
1
10
74.2043778457997
20
1.64540847923121
30
0
41
1
10
74.3388193468192
20
0.891708174834719
30
0
41
1
10
74.406040097329
20
0.519305720021976
30
0
41
1
10
74.4900660354662
20
0.0661457725072978
30
0
41
1
10
74.5068712230935
20
-0.02347474584613
30
0
41
1
10
74.5404815983484
20
-0.20435102521202
30
0
41
1
10
74.5572867859759
20
-0.295409472009197
30
0
41
1
10
74.6077023488582
20
-0.570223749830433
30
0
41
1
10
74.6413127241131
20
-0.755624958941212
30
0
41
1
10
74.7421438498776
20
-1.31639150625699
30
0
41
1
10
74.8093646003874
20
-1.6964056252952
30
0
41
1
10
74.9438061014069
20
-2.45574402598524
30
0
41
1
10
75.0110268519165
20
-2.83502390458185
30
0
41
1
10
75.145468352936
20
-3.57759383487618
30
0
41
1
10
75.2126891034458
20
-3.94081937891198
30
0
41
1
10
75.3471306044652
20
-4.63541119506445
30
0
41
1
10
75.4143513549749
20
-4.96670697838411
30
0
41
1
10
75.5487928559944
20
-5.58308801586981
30
0
41
1
10
75.6160136065042
20
-5.86811579772041
30
0
41
1
10
75.6832343570139
20
-6.12461881820243
30
0
0
SPLINE
5
E6
100
AcDbEntity
8
1
62
256
6
ByLayer
370
13
48
1
60
0
100
AcDbSpline
70
4
71
3
72
42
73
38
40
0
40
0
40
0
40
0
40
0.0625000000000001
40
0.0625000000000001
40
0.0781249999999998
40
0.0781249999999998
40
0.0937499999999995
40
0.0937499999999995
40
0.125
40
0.125
40
0.1875
40
0.1875
40
0.25
40
0.25
40
0.3125
40
0.3125
40
0.375
40
0.375
40
0.4375
40
0.4375
40
0.5
40
0.5
40
0.5625
40
0.5625
40
0.625
40
0.625
40
0.6875
40
0.6875
40
0.75
40
0.75
40
0.8125
40
0.8125
40
0.875
40
0.875
40
0.9375
40
0.9375
40
1
40
1
40
1
40
1
41
1
10
67.5
20
-1.03713068924341
30
0
41
1
10
67.546568109544
20
-0.777467445557647
30
0
41
1
10
67.5931362190881
20
-0.520502971432791
30
0
41
1
10
67.6513463560181
20
-0.204891974906076
30
0
41
1
10
67.6629883834042
20
-0.142047634932965
30
0
41
1
10
67.6862724381762
20
-0.016962633396389
30
0
41
1
10
67.6979144655622
20
0.0451799949084375
30
0
41
1
10
67.7328405477202
20
0.233078830695888
30
0
41
1
10
67.7561246024922
20
0.359539540853575
30
0
41
1
10
67.8259767668082
20
0.74190668369738
30
0
41
1
10
67.8725448763523
20
1.00082118087585
30
0
41
1
10
67.9656810954403
20
1.5228863611429
30
0
41
1
10
68.0122492049844
20
1.78603283543927
30
0
41
1
10
68.1053854240724
20
2.31209952847638
30
0
41
1
10
68.1519535336165
20
2.57501273587218
30
0
41
1
10
68.2450897527045
20
3.09562926376307
30
0
41
1
10
68.2916578622485
20
3.3533231242636
30
0
41
1
10
68.3847940813367
20
3.8582451078845
30
0
41
1
10
68.4313621908807
20
4.10546219996854
30
0
41
1
10
68.5244984099688
20
4.58421386780429
30
0
41
1
10
68.5710665195127
20
4.81573715109016
30
0
41
1
10
68.6642027386008
20
5.25826378738537
30
0
41
1
10
68.7107708481449
20
5.46925709163645
30
0
41
1
10
68.8039070672329
20
5.86659175030269
30
0
41
1
10
68.850475176777
20
6.05292567457877
30
0
41
1
10
68.943611395865
20
6.39778220370346
30
0
41
1
10
68.9901795054091
20
6.55630092833272
30
0
41
1
10
69.0833157244972
20
6.84351307652813
30
0
41
1
10
69.1298838340412
20
6.97220646199784
30
0
41
1
10
69.2230200531292
20
7.19895860066566
30
0
41
1
10
69.2695881626732
20
7.29702079431732
30
0
41
1
10
69.3627243817614
20
7.4628528400047
30
0
41
1
10
69.4092924913053
20
7.53062874408974
30
0
41
1
10
69.5024287103934
20
7.63723598848256
30
0
41
1
10
69.5489968199375
20
7.67607487407599
30
0
41
1
10
69.6421330390256
20
7.72695291535584
30
0
41
1
10
69.6887011485696
20
7.739
30
0
41
1
10
69.7352692581136
20
7.739
30
0
0
SPLINE
5
E7
100
AcDbEntity
8
1
62
256
6
ByLayer
370
13
48
1
60
0
100
AcDbSpline
70
4
71
3
72
44
73
40
40
0
40
0
40
0
40
0
40
0.0625000000000001
40
0.0625000000000001
40
0.125
40
0.125
40
0.1875
40
0.1875
40
0.25
40
0.25
40
0.3125
40
0.3125
40
0.375000000000001
40
0.375000000000001
40
0.437500000000001
40
0.437500000000001
40
0.500000000000001
40
0.500000000000001
40
0.531250000000001
40
0.531250000000001
40
0.546875000000001
40
0.546875000000001
40
0.554687500000001
40
0.554687500000001
40
0.562500000000001
40
0.562500000000001
40
0.625
40
0.625
40
0.6875
40
0.6875
40
0.75
40
0.75
40
0.8125
40
0.8125
40
0.875
40
0.875
40
0.9375
40
0.9375
40
1
40
1
40
1
40
1
41
1
10
71.9609745402082
20
7.739
30
0
41
1
10
72.038521619725
20
7.739
30
0
41
1
10
72.1160686992417
20
7.70548738808151
30
0
41
1
10
72.2711628582754
20
7.55980339583121
30
0
41
1
10
72.3487099377921
20
7.44753341337241
30
0
41
1
10
72.5038040968257
20
7.13800348605574
30
0
41
1
10
72.5813511763425
20
6.94067676493592
30
0
41
1
10
72.7364453353761
20
6.46282336696419
30
0
41
1
10
72.8139924148928
20
6.18229737687022
30
0
41
1
10
72.9690865739263
20
5.54907303992505
30
0
41
1
10
73.0466336534432
20
5.19645458808199
30
0
41
1
10
73.2017278124767
20
4.4381131878072
30
0
41
1
10
73.2792748919935
20
4.03252462296305
30
0
41
1
10
73.4343690510271
20
3.19200754808736
30
0
41
1
10
73.5119161305439
20
2.75721896518178
30
0
41
1
10
73.6670102895774
20
1.88244956096588
30
0
41
1
10
73.7445573690943
20
1.44256956039487
30
0
41
1
10
73.8608779883695
20
0.794428969493453
30
0
41
1
10
73.8996515281278
20
0.580292770818204
30
0
41
1
10
73.9578118377654
20
0.263509450976329
30
0
41
1
10
73.9771986076446
20
0.158648997593929
30
0
41
1
10
74.0062787624634
20
0.0026275216938529
30
0
41
1
10
74.015972147403
20
-0.0491537680497345
30
0
41
1
10
74.0353589172822
20
-0.153418103912543
30
0
41
1
10
74.0450523022217
20
-0.205757622373966
30
0
41
1
10
74.1322927666782
20
-0.678554610188854
30
0
41
1
10
74.209839846195
20
-1.11143719008015
30
0
41
1
10
74.3649340052285
20
-1.98493922342084
30
0
41
1
10
74.4424810847453
20
-2.42549161947011
30
0
41
1
10
74.5975752437789
20
-3.29191259200914
30
0
41
1
10
74.6751223232957
20
-3.71766020426332
30
0
41
1
10
74.8302164823292
20
-4.53000858777168
30
0
41
1
10
74.907763561846
20
-4.91646539114868
30
0
41
1
10
75.0628577208795
20
-5.62784803716494
30
0
41
1
10
75.1404048003964
20
-5.9526568463327
30
0
41
1
10
75.2954989594299
20
-6.52455302124125
30
0
41
1
10
75.3730460389468
20
-6.77159225153645
30
0
41
1
10
75.5281401979803
20
-7.18056920196821
30
0
41
1
10
75.6056872774971
20
-7.34253734260119
30
0
41
1
10
75.6832343570139
20
-7.46280324056656
30
0
0
SPLINE
5
E8
100
AcDbEntity
8
1
62
256
6
ByLayer
370
13
48
1
60
0
100
AcDbSpline
70
4
71
3
72
22
73
18
40
0
40
0
40
0
40
0
40
0.125
40
0.125
40
0.25
40
0.25
40
0.375
40
0.375
40
0.5
40
0.5
40
0.625
40
0.625
40
0.75
40
0.75
40
0.875
40
0.875
40
1
40
1
40
1
40
1
41
1
10
67.5
20
1.69248416008313
30
0
41
1
10
67.572483561074
20
2.101350120825
30
0
41
1
10
67.6449671221479
20
2.51252834642267
30
0
41
1
10
67.7899342442959
20
3.32107939980247
30
0
41
1
10
67.8624178053698
20
3.71836442685145
30
0
41
1
10
68.0073849275178
20
4.47916318162305
30
0
41
1
10
68.0798684885917
20
4.84257396603815
30
0
41
1
10
68.2248356107396
20
5.51718263415211
30
0
41
1
10
68.2973191718136
20
5.82829376462888
30
0
41
1
10
68.4422862939615
20
6.38435699304685
30
0
41
1
10
68.5147698550355
20
6.6292661316383
30
0
41
1
10
68.6597369771834
20
7.04551514835777
30
0
41
1
10
68.7322205382574
20
7.21686546469206
30
0
41
1
10
68.8771876604053
20
7.48562626953955
30
0
41
1
10
68.9496712214793
20
7.58308915118894
30
0
41
1
10
69.0946383436272
20
7.70974051045735
30
0
41
1
10
69.1671219047012
20
7.739
30
0
41
1
10
69.2396054657751
20
7.739
30
0
0
SPLINE
5
E9
100
AcDbEntity
8
1
62
256
6
ByLayer
370
13
48
1
60
0
100
AcDbSpline
70
4
71
3
72
71
73
67
40
0
40
0
40
0
40
0
40
0.0625000000000004
40
0.0625000000000004
40
0.0937500000000005
40
0.0937500000000005
40
0.125000000000001
40
0.125000000000001
40
0.156250000000001
40
0.156250000000001
40
0.187500000000001
40
0.187500000000001
40
0.218750000000001
40
0.218750000000001
40
0.250000000000001
40
0.250000000000001
40
0.281250000000001
40
0.281250000000001
40
0.312500000000001
40
0.312500000000001
40
0.343750000000001
40
0.343750000000001
40
0.375000000000001
40
0.375000000000001
40
0.406250000000001
40
0.406250000000001
40
0.437500000000001
40
0.437500000000001
40
0.468750000000001
40
0.468750000000001
40
0.484375000000001
40
0.484375000000001
40
0.500000000000001
40
0.500000000000001
40
0.562500000000001
40
0.562500000000001
40
0.593750000000001
40
0.593750000000001
40
0.625000000000001
40
0.625000000000001
40
0.656250000000001
40
0.656250000000001
40
0.687500000000001
40
0.687500000000001
40
0.718750000000001
40
0.718750000000001
40
0.750000000000001
40
0.750000000000001
40
0.781250000000001
40
0.781250000000001
40
0.812500000000001
40
0.812500000000001
40
0.843750000000001
40
0.843750000000001
40
0.875000000000001
40
0.875000000000001
40
0.906250000000001
40
0.906250000000001
40
0.937500000000001
40
0.937500000000001
40
0.968750000000001
40
0.968750000000001
40
0.976562500000001
40
0.976562500000001
40
0.984375000000001
40
1
40
1
40
1
40
1
41
1
10
71.4653107478697
20
7.739
30
0
41
1
10
71.5531841563935
20
7.739
30
0
41
1
10
71.6410575649174
20
7.69590061467017
30
0
41
1
10
71.7728676777031
20
7.55422857185008
30
0
41
1
10
71.8168043819651
20
7.49421729440402
30
0
41
1
10
71.9046777904889
20
7.34739235045811
30
0
41
1
10
71.9486144947508
20
7.26057390443867
30
0
41
1
10
72.0364879032746
20
7.0596651710344
30
0
41
1
10
72.0804246075366
20
6.94557179962419
30
0
41
1
10
72.1682980160604
20
6.69053447625771
30
0
41
1
10
72.2122347203223
20
6.5495897689959
30
0
41
1
10
72.3001081288461
20
6.24222160735258
30
0
41
1
10
72.3440448331081
20
6.07580007915828
30
0
41
1
10
72.4319182416319
20
5.71978415247122
30
0
41
1
10
72.4758549458938
20
5.53019432061356
30
0
41
1
10
72.5637283544177
20
5.13098373831781
30
0
41
1
10
72.6076650586796
20
4.92136973276328
30
0
41
1
10
72.6955384672034
20
4.4859169631294
30
0
41
1
10
72.7394751714654
20
4.26008631533986
30
0
41
1
10
72.8273485799892
20
3.79644429690262
30
0
41
1
10
72.8712852842511
20
3.5586414246356
30
0
41
1
10
72.959158692775
20
3.07548370604519
30
0
41
1
10
73.0030953970369
20
2.83013676767135
30
0
41
1
10
73.0909688055607
20
2.33625459635002
30
0
41
1
10
73.1349055098225
20
2.0877259026388
30
0
41
1
10
73.2227789183464
20
1.59155933443097
30
0
41
1
10
73.2667156226083
20
1.34392615643003
30
0
41
1
10
73.3545890311322
20
0.853175093135491
30
0
41
1
10
73.3985257353942
20
0.610059917193183
30
0
41
1
10
73.464430791787
20
0.25106748105776
30
0
41
1
10
73.4863991439179
20
0.132345395825155
30
0
41
1
10
73.5303358481798
20
-0.102890402240064
30
0
41
1
10
73.5523042003108
20
-0.221266330781333
30
0
41
1
10
73.6621459609656
20
-0.818795730603028
30
0
41
1
10
73.7500193694895
20
-1.31248094043761
30
0
41
1
10
73.8818294822752
20
-2.05661322135873
30
0
41
1
10
73.9257661865371
20
-2.30518343110069
30
0
41
1
10
74.0136395950609
20
-2.79932587915667
30
0
41
1
10
74.0575762993229
20
-3.04489164801458
30
0
41
1
10
74.1454497078468
20
-3.52867210700086
30
0
41
1
10
74.1893864121087
20
-3.76687893261462
30
0
41
1
10
74.2772598206325
20
-4.23151185916782
30
0
41
1
10
74.3211965248944
20
-4.45792946773938
30
0
41
1
10
74.4090699334182
20
-4.89472638923132
30
0
41
1
10
74.4530066376801
20
-5.10509754954555
30
0
41
1
10
74.5408800462039
20
-5.50596965024772
30
0
41
1
10
74.5848167504659
20
-5.69646377043748
30
0
41
1
10
74.6726901589897
20
-6.05440390679777
30
0
41
1
10
74.7166268632516
20
-6.22184525333779
30
0
41
1
10
74.8045002717755
20
-6.53133127990253
30
0
41
1
10
74.8484369760374
20
-6.67337391969312
30
0
41
1
10
74.9363103845612
20
-6.93064542634153
30
0
41
1
10
74.9802470888232
20
-7.04587494115242
30
0
41
1
10
75.068120497347
20
-7.24905525342393
30
0
41
1
10
75.112057201609
20
-7.33700904890156
30
0
41
1
10
75.1999306101328
20
-7.48606879442482
30
0
41
1
10
75.2438673143947
20
-7.54717946803495
30
0
41
1
10
75.3317407229185
20
-7.64376119599879
30
0
41
1
10
75.3756774271804
20
-7.67923794413778
30
0
41
1
10
75.4635508357043
20
-7.72637814501749
30
0
41
1
10
75.5074875399662
20
-7.73804752777889
30
0
41
1
10
75.5624084202937
20
-7.73916799599755
30
0
41
1
10
75.5733925963591
20
-7.73872399475022
30
0
41
1
10
75.59536094849
20
-7.73646789780221
30
0
41
1
10
75.6283134766865
20
-7.73102933333627
30
0
41
1
10
75.6612660048829
20
-7.71926108625394
30
0
41
1
10
75.6832343570139
20
-7.70846495471514
30
0
0
SPLINE
5
EA
100
AcDbEntity
8
1
62
256
6
ByLayer
370
13
48
1
60
0
100
AcDbSpline
70
4
71
3
72
22
73
18
40
0
40
0
40
0
40
0
40
0.125
40
0.125
40
0.25
40
0.25
40
0.375
40
0.375
40
0.5
40
0.5
40
0.625
40
0.625
40
0.75
40
0.75
40
0.875
40
0.875
40
1
40
1
40
1
40
1
41
1
10
67.5
20
4.41348632948208
30
0
41
1
10
67.5518309030599
20
4.67821718704968
30
0
41
1
10
67.6036618061198
20
4.93291184671563
30
0
41
1
10
67.7073236122395
20
5.41571301159789
30
0
41
1
10
67.7591545152993
20
5.64380313731394
30
0
41
1
10
67.862816321419
20
6.06801806285046
30
0
41
1
10
67.9146472244789
20
6.26413201296671
30
0
41
1
10
68.0183090305986
20
6.62061262418021
30
0
41
1
10
68.0701399336584
20
6.78097551925592
30
0
41
1
10
68.1738017397781
20
7.06399114488468
30
0
41
1
10
68.225632642838
20
7.18664719335155
30
0
41
1
10
68.3292944489577
20
7.39411056810502
30
0
41
1
10
68.3811253520176
20
7.47892690042639
30
0
41
1
10
68.4847871581374
20
7.61220520632219
30
0
41
1
10
68.5366180611971
20
7.66067964147919
30
0
41
1
10
68.6402798673168
20
7.72407026993673
30
0
41
1
10
68.6921107703768
20
7.739
30
0
41
1
10
68.7439416734366
20
7.739
30
0
0
SPLINE
5
EB
100
AcDbEntity
8
1
62
256
6
ByLayer
370
13
48
1
60
0
100
AcDbSpline
70
4
71
3
72
78
73
74
40
0
40
0
40
0
40
0
40
0.0312500000000002
40
0.0312500000000002
40
0.0625000000000003
40
0.0625000000000003
40
0.0937500000000005
40
0.0937500000000005
40
0.125000000000001
40
0.125000000000001
40
0.156250000000001
40
0.156250000000001
40
0.187500000000001
40
0.187500000000001
40
0.218750000000001
40
0.218750000000001
40
0.250000000000001
40
0.250000000000001
40
0.281250000000001
40
0.281250000000001
40
0.312500000000001
40
0.312500000000001
40
0.343750000000002
40
0.343750000000002
40
0.375000000000002
40
0.375000000000002
40
0.406250000000002
40
0.406250000000002
40
0.421875000000002
40
0.421875000000002
40
0.429687500000002
40
0.429687500000002
40
0.437500000000002
40
0.437500000000002
40
0.468750000000002
40
0.468750000000002
40
0.500000000000002
40
0.500000000000002
40
0.531250000000002
40
0.531250000000002
40
0.562500000000002
40
0.562500000000002
40
0.593750000000003
40
0.593750000000003
40
0.625000000000003
40
0.625000000000003
40
0.656250000000003
40
0.656250000000003
40
0.687500000000003
40
0.687500000000003
40
0.718750000000003
40
0.718750000000003
40
0.750000000000003
40
0.750000000000003
40
0.781250000000003
40
0.781250000000003
40
0.812500000000003
40
0.812500000000003
40
0.843750000000003
40
0.843750000000003
40
0.859375000000003
40
0.859375000000003
40
0.867187500000003
40
0.867187500000003
40
0.875000000000003
40
0.875000000000003
40
0.906250000000002
40
0.906250000000002
40
0.937500000000002
40
0.937500000000002
40
0.968750000000001
40
0.968750000000001
40
1
40
1
40
1
40
1
41
1
10
70.9696469555312
20
7.739
30
0
41
1
10
71.0187468242966
20
7.739
30
0
41
1
10
71.0678466930621
20
7.72560495883238
30
0
41
1
10
71.166046430593
20
7.66888705389749
30
0
41
1
10
71.2151462993584
20
7.62555385844899
30
0
41
1
10
71.3133460368894
20
7.50650923833095
30
0
41
1
10
71.3624459056547
20
7.43078812846306
30
0
41
1
10
71.4606456431856
20
7.24552975226413
30
0
41
1
10
71.5097455119511
20
7.1359850675108
30
0
41
1
10
71.607945249482
20
6.88291711960801
30
0
41
1
10
71.6570451182474
20
6.73939028663503
30
0
41
1
10
71.7552448557783
20
6.41964187521467
30
0
41
1
10
71.8043447245437
20
6.24342169569596
30
0
41
1
10
71.9025444620746
20
5.86105294285235
30
0
41
1
10
71.9516443308401
20
5.65491101601671
30
0
41
1
10
72.049844068371
20
5.21682708386743
30
0
41
1
10
72.0989439371364
20
4.98489623303928
30
0
41
1
10
72.1971436746673
20
4.50045384816502
30
0
41
1
10
72.2462435434327
20
4.24795634293093
30
0
41
1
10
72.3444432809637
20
3.72830629923277
30
0
41
1
10
72.3935431497291
20
3.46116853681374
30
0
41
1
10
72.49174288726
20
2.91842929681278
30
0
41
1
10
72.5408427560254
20
2.64284125332645
30
0
41
1
10
72.6390424935562
20
2.08922742751946
30
0
41
1
10
72.6881423623217
20
1.81121215401481
30
0
41
1
10
72.7863420998527
20
1.25823982899814
30
0
41
1
10
72.8354419686181
20
0.983289541554825
30
0
41
1
10
72.9090917717662
20
0.576686088524042
30
0
41
1
10
72.9336417061489
20
0.44211513877886
30
0
41
1
10
72.9704666077231
20
0.242079243430538
30
0
41
1
10
72.9827415749145
20
0.175703567549505
30
0
41
1
10
73.0072915092972
20
0.0436150186146449
30
0
41
1
10
73.0195664764886
20
-0.0218930085340787
30
0
41
1
10
73.0809413124454
20
-0.351748139421971
30
0
41
1
10
73.1300411812107
20
-0.621020392057915
30
0
41
1
10
73.2282409187417
20
-1.16636617241917
30
0
41
1
10
73.2773407875071
20
-1.44243591495842
30
0
41
1
10
73.375540525038
20
-1.99648716067577
30
0
41
1
10
73.4246403938034
20
-2.27446103715852
30
0
41
1
10
73.5228401313342
20
-2.82668731211598
30
0
41
1
10
73.5719400000997
20
-3.10092845135512
30
0
41
1
10
73.6701397376306
20
-3.63959713800176
30
0
41
1
10
73.7192396063961
20
-3.90401079216917
30
0
41
1
10
73.8174393439269
20
-4.41685549978092
30
0
41
1
10
73.8665392126924
20
-4.6652717530186
30
0
41
1
10
73.9647389502234
20
-5.14031349762061
30
0
41
1
10
74.0138388189887
20
-5.36692542504184
30
0
41
1
10
74.1120385565196
20
-5.79334520579795
30
0
41
1
10
74.1611384252851
20
-5.99314279314322
30
0
41
1
10
74.2593381628159
20
-6.36208056919958
30
0
41
1
10
74.3084380315814
20
-6.53121525112454
30
0
41
1
10
74.4066377691123
20
-6.83637537415669
30
0
41
1
10
74.4557376378777
20
-6.97240058022155
30
0
41
1
10
74.5539373754086
20
-7.2103785274864
30
0
41
1
10
74.6030372441741
20
-7.3123358147021
30
0
41
1
10
74.7012369817049
20
-7.48263585778818
30
0
41
1
10
74.7503368504704
20
-7.55098668090139
30
0
41
1
10
74.8485365880013
20
-7.65575822768463
30
0
41
1
10
74.8976364567667
20
-7.69218891441949
30
0
41
1
10
74.9712862599149
20
-7.72486287065877
30
0
41
1
10
74.9958361942976
20
-7.7320986234476
30
0
41
1
10
75.0326610958717
20
-7.73776216523714
30
0
41
1
10
75.0449360630631
20
-7.73878527941042
30
0
41
1
10
75.0694859974458
20
-7.739153898182
30
0
41
1
10
75.0817609646371
20
-7.73850401479106
30
0
41
1
10
75.143135800594
20
-7.73096194938668
30
0
41
1
10
75.1922356693594
20
-7.71115922137417
30
0
41
1
10
75.2904354068903
20
-7.64100862091564
30
0
41
1
10
75.3395352756557
20
-7.59065043152774
30
0
41
1
10
75.4377350131866
20
-7.45713804971234
30
0
41
1
10
75.4868348819521
20
-7.37397453147835
30
0
41
1
10
75.585034619483
20
-7.17367708073758
30
0
41
1
10
75.6341344882484
20
-7.05653645866283
30
0
41
1
10
75.6832343570139
20
-6.9224850076985
30
0
0
SPLINE
5
EC
100
AcDbEntity
8
1
62
256
6
ByLayer
370
13
48
1
60
0
100
AcDbSpline
70
4
71
3
72
14
73
10
40
0
40
0
40
0
40
0
40
0.25
40
0.25
40
0.5
40
0.5
40
0.75
40
0.75
40
1
40
1
40
1
40
1
41
1
10
67.5
20
6.54084774695392
30
0
41
1
10
67.5623564900915
20
6.7471864975949
30
0
41
1
10
67.6247129801831
20
6.9272329770892
30
0
41
1
10
67.749425960366
20
7.2322623865717
30
0
41
1
10
67.8117824504575
20
7.35725975477905
30
0
41
1
10
67.9364954306405
20
7.55341056199663
30
0
41
1
10
67.9988519207321
20
7.62459248001358
30
0
41
1
10
68.1235649009151
20
7.71737024670443
30
0
41
1
10
68.1859213910066
20
7.739
30
0
41
1
10
68.2482778810981
20
7.739
30
0
0
SPLINE
5
ED
100
AcDbEntity
8
1
62
256
6
ByLayer
370
13
48
1
60
0
100
AcDbSpline
70
4
71
3
72
77
73
73
40
0
40
0
40
0
40
0
40
0.0312500000000006
40
0.0312500000000006
40
0.0625000000000013
40
0.0625000000000013
40
0.0937500000000019
40
0.0937500000000019
40
0.125000000000003
40
0.125000000000003
40
0.156250000000003
40
0.156250000000003
40
0.187500000000004
40
0.187500000000004
40
0.218750000000004
40
0.218750000000004
40
0.250000000000005
40
0.250000000000005
40
0.281250000000006
40
0.281250000000006
40
0.312500000000006
40
0.312500000000006
40
0.343750000000007
40
0.343750000000007
40
0.375000000000008
40
0.375000000000008
40
0.390625000000008
40
0.390625000000008
40
0.398437500000008
40
0.398437500000008
40
0.406250000000008
40
0.406250000000008
40
0.437500000000008
40
0.437500000000008
40
0.468750000000007
40
0.468750000000007
40
0.500000000000007
40
0.500000000000007
40
0.531250000000007
40
0.531250000000007
40
0.562500000000006
40
0.562500000000006
40
0.593750000000006
40
0.593750000000006
40
0.625000000000006
40
0.625000000000006
40
0.656250000000005
40
0.656250000000005
40
0.687500000000005
40
0.687500000000005
40
0.718750000000005
40
0.718750000000005
40
0.750000000000004
40
0.750000000000004
40
0.781250000000004
40
0.781250000000004
40
0.789062500000004
40
0.789062500000004
40
0.796875000000004
40
0.812500000000003
40
0.812500000000003
40
0.843750000000003
40
0.843750000000003
40
0.875000000000002
40
0.875000000000002
40
0.906250000000002
40
0.906250000000002
40
0.937500000000001
40
0.937500000000001
40
0.968750000000001
40
0.968750000000001
40
1
40
1
40
1
40
1
41
1
10
70.4739831631927
20
7.739
30
0
41
1
10
70.5282461964617
20
7.739
30
0
41
1
10
70.5825092297306
20
7.72263299839432
30
0
41
1
10
70.6910352962686
20
7.65297179758699
30
0
41
1
10
70.7452983295375
20
7.59966058691586
30
0
41
1
10
70.8538243960754
20
7.45298836978691
30
0
41
1
10
70.9080874293444
20
7.35961198186828
30
0
41
1
10
71.0166134958824
20
7.13128665642788
30
0
41
1
10
71.0708765291514
20
6.99632725693021
30
0
41
1
10
71.1794025956893
20
6.68531362599626
30
0
41
1
10
71.2336656289583
20
6.50925681262342
30
0
41
1
10
71.3421916954962
20
6.11873287837298
30
0
41
1
10
71.3964547287652
20
5.90427265591609
30
0
41
1
10
71.5049807953031
20
5.44177290738602
30
0
41
1
10
71.5592438285721
20
5.19374924977748
30
0
41
1
10
71.66776989511
20
4.67075438557882
30
0
41
1
10
71.722032928379
20
4.39580534246235
30
0
41
1
10
71.8305589949169
20
3.82680946424395
30
0
41
1
10
71.884822028186
20
3.53278699782081
30
0
41
1
10
71.9933480947239
20
2.93399733805137
30
0
41
1
10
72.0476111279929
20
2.62925245856172
30
0
41
1
10
72.1561371945308
20
2.01715799429272
30
0
41
1
10
72.2104002277998
20
1.70982542416525
30
0
41
1
10
72.3189262943377
20
1.09988138604115
30
0
41
1
10
72.3731893276067
20
0.797280066627707
30
0
41
1
10
72.4545838775101
20
0.351493700044159
30
0
41
1
10
72.4817153941447
20
0.204240362450548
30
0
41
1
10
72.5224126690963
20
-0.0141550805631994
30
0
41
1
10
72.5359784274136
20
-0.0866599569116318
30
0
41
1
10
72.5631099440482
20
-0.23300488802542
30
0
41
1
10
72.5766757023653
20
-0.306573592157491
30
0
41
1
10
72.6445044939515
20
-0.676202419305838
30
0
41
1
10
72.6987675272205
20
-0.977672581427782
30
0
41
1
10
72.8072935937585
20
-1.58625053420229
30
0
41
1
10
72.8615566270274
20
-1.89334912384621
30
0
41
1
10
72.9700826935654
20
-2.5060175504646
30
0
41
1
10
73.0243457268343
20
-2.8115712444785
30
0
41
1
10
73.1328717933723
20
-3.41309922203146
30
0
41
1
10
73.1871348266412
20
-3.70905174857486
30
0
41
1
10
73.2956608931792
20
-4.28301790722901
30
0
41
1
10
73.3499239264481
20
-4.56100721080759
30
0
41
1
10
73.4584499929861
20
-5.09108327869336
30
0
41
1
10
73.512713026255
20
-5.34314732751079
30
0
41
1
10
73.621239092793
20
-5.81452766029818
30
0
41
1
10
73.6755021260619
20
-6.03382703165971
30
0
41
1
10
73.7840281925999
20
-6.43456128461617
30
0
41
1
10
73.8382912258689
20
-6.61598798114551
30
0
41
1
10
73.9468172924068
20
-6.93797475685776
30
0
41
1
10
74.0010803256758
20
-7.07853619521228
30
0
41
1
10
74.1096063922137
20
-7.31800830203426
30
0
41
1
10
74.1638694254827
20
-7.41692852561633
30
0
41
1
10
74.2723954920206
20
-7.57438123700985
30
0
41
1
10
74.3266585252896
20
-7.63292863934728
30
0
41
1
10
74.4351845918276
20
-7.712566913263
30
0
41
1
10
74.4894476250965
20
-7.73367475575762
30
0
41
1
10
74.5572764166827
20
-7.73921690069474
30
0
41
1
10
74.5708421749999
20
-7.73929355203072
30
0
41
1
10
74.5979736916345
20
-7.73739129970656
30
0
41
1
10
74.6386709665862
20
-7.73142683051989
30
0
41
1
10
74.6793682415379
20
-7.7158127446902
30
0
41
1
10
74.7607627914414
20
-7.67094884340887
30
0
41
1
10
74.8150258247103
20
-7.62281663763318
30
0
41
1
10
74.9235518912483
20
-7.48683961042457
30
0
41
1
10
74.9778149245172
20
-7.39897900140724
30
0
41
1
10
75.0863409910552
20
-7.18178080723578
30
0
41
1
10
75.1406040243241
20
-7.05243190839619
30
0
41
1
10
75.2491300908621
20
-6.75244865322594
30
0
41
1
10
75.303393124131
20
-6.58181052233161
30
0
41
1
10
75.411919190669
20
-6.20163375271872
30
0
41
1
10
75.466182223938
20
-5.99210071665433
30
0
41
1
10
75.5747082904759
20
-5.53869054971554
30
0
41
1
10
75.6289713237449
20
-5.29482819361743
30
0
41
1
10
75.6832343570139
20
-5.03700338536837
30
0
0
SPLINE
5
EE
100
AcDbEntity
8
1
62
256
6
ByLayer
370
13
48
1
60
0
100
AcDbSpline
70
4
71
3
72
8
73
4
40
0
40
0
40
0
40
0
40
1
40
1
40
1
40
1
41
1
10
67.5
20
7.61301577325375
30
0
41
1
10
67.5842046962532
20
7.69944752037941
30
0
41
1
10
67.6684093925064
20
7.739
30
0
41
1
10
67.7526140887596
20
7.739
30
0
0
SPLINE
5
EF
100
AcDbEntity
8
1
62
256
6
ByLayer
370
13
48
1
60
0
100
AcDbSpline
70
4
71
3
72
78
73
74
40
0
40
0
40
0
40
0
40
0.0312500000000001
40
0.0312500000000001
40
0.0625000000000002
40
0.0625000000000002
40
0.0937500000000003
40
0.0937500000000003
40
0.125
40
0.125
40
0.156250000000001
40
0.156250000000001
40
0.187500000000001
40
0.187500000000001
40
0.218750000000001
40
0.218750000000001
40
0.250000000000001
40
0.250000000000001
40
0.281250000000001
40
0.281250000000001
40
0.312500000000002
40
0.312500000000002
40
0.343750000000002
40
0.343750000000002
40
0.351562500000002
40
0.351562500000002
40
0.359375000000002
40
0.359375000000002
40
0.375000000000002
40
0.375000000000002
40
0.406250000000002
40
0.406250000000002
40
0.437500000000002
40
0.437500000000002
40
0.468750000000002
40
0.468750000000002
40
0.500000000000001
40
0.500000000000001
40
0.531250000000001
40
0.531250000000001
40
0.562500000000001
40
0.562500000000001
40
0.593750000000001
40
0.593750000000001
40
0.625000000000001
40
0.625000000000001
40
0.656250000000001
40
0.656250000000001
40
0.687500000000001
40
0.687500000000001
40
0.703125000000001
40
0.703125000000001
40
0.710937500000001
40
0.710937500000001
40
0.718750000000001
40
0.718750000000001
40
0.750000000000001
40
0.750000000000001
40
0.781250000000001
40
0.781250000000001
40
0.812500000000001
40
0.812500000000001
40
0.84375
40
0.84375
40
0.875
40
0.875
40
0.90625
40
0.90625
40
0.9375
40
0.9375
40
0.96875
40
0.96875
40
1
40
1
40
1
40
1
41
1
10
69.9783193708542
20
7.739
30
0
41
1
10
70.0377455686267
20
7.739
30
0
41
1
10
70.0971717663992
20
7.71936103749601
30
0
41
1
10
70.2160241619441
20
7.63535470693407
30
0
41
1
10
70.2754503597167
20
7.57096062006735
30
0
41
1
10
70.3943027552617
20
7.39359843079677
30
0
41
1
10
70.4537289530342
20
7.28060721756182
30
0
41
1
10
70.5725813485792
20
7.00462984476584
30
0
41
1
10
70.6320075463517
20
6.84163037739816
30
0
41
1
10
70.7508599418967
20
6.46721056755561
30
0
41
1
10
70.8102861396692
20
6.25579172177231
30
0
41
1
10
70.9291385352141
20
5.78929645121045
30
0
41
1
10
70.9885647329866
20
5.53423791517289
30
0
41
1
10
71.1074171285317
20
4.98812693716746
30
0
41
1
10
71.1668433263042
20
4.69710579815126
30
0
41
1
10
71.2856957218492
20
4.0888797838619
30
0
41
1
10
71.3451219196216
20
3.771712846605
30
0
41
1
10
71.4639743151666
20
3.12208426820538
30
0
41
1
10
71.5234005129391
20
2.78965904665486
30
0
41
1
10
71.6422529084841
20
2.12033487333861
30
0
41
1
10
71.7016791062566
20
1.78346411531115
30
0
41
1
10
71.8205315018016
20
1.11500901326667
30
0
41
1
10
71.8799576995741
20
0.783441197418426
30
0
41
1
10
71.9542404467898
20
0.377297019975401
30
0
41
1
10
71.9690969962329
20
0.296479177995252
30
0
41
1
10
71.9988100951191
20
0.135770646519404
30
0
41
1
10
72.0136666445623
20
0.0560504150734005
30
0
41
1
10
72.0582362928915
20
-0.182685511311149
30
0
41
1
10
72.0879493917778
20
-0.343858248871783
30
0
41
1
10
72.1770886884366
20
-0.832190381155129
30
0
41
1
10
72.2365148862091
20
-1.16422346284469
30
0
41
1
10
72.3553672817541
20
-1.83316574044912
30
0
41
1
10
72.4147934795266
20
-2.17005780815038
30
0
41
1
10
72.5336458750716
20
-2.83890987712931
30
0
41
1
10
72.5930720728441
20
-3.17084116817534
30
0
41
1
10
72.711924468389
20
-3.8189379494257
30
0
41
1
10
72.7713506661615
20
-4.13506676631661
30
0
41
1
10
72.8902030617065
20
-4.7406977836238
30
0
41
1
10
72.949629259479
20
-5.0301621814412
30
0
41
1
10
73.068481655024
20
-5.57272266274279
30
0
41
1
10
73.1279078527965
20
-5.82578796921098
30
0
41
1
10
73.2467602483415
20
-6.28798801091602
30
0
41
1
10
73.3061864461141
20
-6.49710563362817
30
0
41
1
10
73.425038841659
20
-6.86676877837144
30
0
41
1
10
73.4844650394315
20
-7.02731360621462
30
0
41
1
10
73.6033174349765
20
-7.29838375522516
30
0
41
1
10
73.662743632749
20
-7.40892300414347
30
0
41
1
10
73.781596028294
20
-7.58151923244475
30
0
41
1
10
73.8410222260665
20
-7.64359964569815
30
0
41
1
10
73.9301615227252
20
-7.70331316268329
30
0
41
1
10
73.9598746216114
20
-7.71766622441575
30
0
41
1
10
74.0044442699408
20
-7.73135588455622
30
0
41
1
10
74.0193008193839
20
-7.73461316059968
30
0
41
1
10
74.0490139182702
20
-7.73860451277056
30
0
41
1
10
74.0638704677133
20
-7.73934154167867
30
0
41
1
10
74.138153214929
20
-7.73691762617827
30
0
41
1
10
74.1975794127015
20
-7.71519051487155
30
0
41
1
10
74.3164318082465
20
-7.62677282062134
30
0
41
1
10
74.375858006019
20
-7.56005555855151
30
0
41
1
10
74.494710401564
20
-7.37791434033576
30
0
41
1
10
74.5541365993365
20
-7.26246761190015
30
0
41
1
10
74.6729889948814
20
-6.98158327302204
30
0
41
1
10
74.7324151926539
20
-6.81613298736258
30
0
41
1
10
74.8512675881989
20
-6.43697200984118
30
0
41
1
10
74.9106937859715
20
-6.22326362129354
30
0
41
1
10
75.0295461815164
20
-5.75250363182457
30
0
41
1
10
75.0889723792889
20
-5.49547068845922
30
0
41
1
10
75.2078247748339
20
-4.94585214267312
30
0
41
1
10
75.2672509726064
20
-4.65329835212864
30
0
41
1
10
75.3861033681514
20
-4.04252815910354
30
0
41
1
10
75.4455295659239
20
-3.72434980962134
30
0
41
1
10
75.5643819614689
20
-3.07324265148469
30
0
41
1
10
75.6238081592414
20
-2.7403499920087
30
0
41
1
10
75.6832343570139
20
-2.40547702311599
30
0
0
SPLINE
5
F0
100
AcDbEntity
8
1
62
256
6
ByLayer
370
13
48
1
60
0
100
AcDbSpline
70
4
71
3
72
85
73
81
40
0
40
0
40
0
40
0
40
0.0312499999999991
40
0.0312499999999991
40
0.0624999999999982
40
0.0624999999999982
40
0.0937499999999973
40
0.0937499999999973
40
0.124999999999996
40
0.124999999999996
40
0.156249999999996
40
0.156249999999996
40
0.187499999999995
40
0.187499999999995
40
0.218749999999994
40
0.218749999999994
40
0.249999999999993
40
0.249999999999993
40
0.281249999999992
40
0.281249999999992
40
0.312499999999991
40
0.312499999999991
40
0.328124999999991
40
0.328124999999991
40
0.332031249999991
40
0.332031249999991
40
0.33593749999999
40
0.34374999999999
40
0.34374999999999
40
0.37499999999999
40
0.37499999999999
40
0.40624999999999
40
0.40624999999999
40
0.43749999999999
40
0.43749999999999
40
0.46874999999999
40
0.46874999999999
40
0.49999999999999
40
0.49999999999999
40
0.53124999999999
40
0.53124999999999
40
0.56249999999999
40
0.56249999999999
40
0.59374999999999
40
0.59374999999999
40
0.62499999999999
40
0.62499999999999
40
0.65624999999999
40
0.65624999999999
40
0.66406249999999
40
0.66406249999999
40
0.671874999999991
40
0.671874999999991
40
0.687499999999991
40
0.687499999999991
40
0.718749999999992
40
0.718749999999992
40
0.749999999999993
40
0.749999999999993
40
0.781249999999994
40
0.781249999999994
40
0.812499999999995
40
0.812499999999995
40
0.843749999999996
40
0.843749999999996
40
0.874999999999996
40
0.874999999999996
40
0.906249999999997
40
0.906249999999997
40
0.937499999999998
40
0.937499999999998
40
0.968749999999999
40
0.968749999999999
40
0.984375
40
0.984375
40
0.98828125
40
0.98828125
40
0.9921875
40
0.9921875
40
1
40
1
40
1
40
1
41
1
10
69.4826555785157
20
7.739
30
0
41
1
10
69.5472449407917
20
7.739
30
0
41
1
10
69.6118343030677
20
7.71578805603571
30
0
41
1
10
69.7410130276198
20
7.61601786465576
30
0
41
1
10
69.8056023898959
20
7.53941928386979
30
0
41
1
10
69.9347811144479
20
7.32828300414926
30
0
41
1
10
69.9993704767239
20
7.19371224901585
30
0
41
1
10
70.128549201276
20
6.86558576474968
30
0
41
1
10
70.1931385635519
20
6.67201518807749
30
0
41
1
10
70.322317288104
20
6.22915027527444
30
0
41
1
10
70.38690665038
20
5.97986691997443
30
0
41
1
10
70.5160853749321
20
5.43322652891592
30
0
41
1
10
70.5806747372081
20
5.13590635420138
30
0
41
1
10
70.7098534617601
20
4.50450507796268
30
0
41
1
10
70.7744428240362
20
4.17047811489633
30
0
41
1
10
70.9036215485882
20
3.47923284687812
30
0
41
1
10
70.9682109108643
20
3.12207200073942
30
0
41
1
10
71.0973896354163
20
2.39865487578751
30
0
41
1
10
71.1619789976922
20
2.03244591419934
30
0
41
1
10
71.2911577222443
20
1.30393421001341
30
0
41
1
10
71.3557470845203
20
0.941660549527029
30
0
41
1
10
71.4526311279344
20
0.409232002932413
30
0
41
1
10
71.4849258090724
20
0.233565823832606
30
0
41
1
10
71.5252941604949
20
0.0169174471226938
30
0
41
1
10
71.5333678307795
20
-0.0262029584928882
30
0
41
1
10
71.5495151713485
20
-0.112904101229816
30
0
41
1
10
71.573736182202
20
-0.243392809962614
30
0
41
1
10
71.5979571930555
20
-0.37512270938825
30
0
41
1
10
71.6786938959005
20
-0.816643811040734
30
0
41
1
10
71.7432832581765
20
-1.17771541767445
30
0
41
1
10
71.8724619827286
20
-1.90519704408939
30
0
41
1
10
71.9370513450046
20
-2.27158030027849
30
0
41
1
10
72.0662300695566
20
-2.99693467839518
30
0
41
1
10
72.1308194318326
20
-3.35586031634207
30
0
41
1
10
72.2599981563847
20
-4.05227643489405
30
0
41
1
10
72.3245875186607
20
-4.38971001222836
30
0
41
1
10
72.4537662432127
20
-5.02941760615965
30
0
41
1
10
72.5183556054888
20
-5.33163633704118
30
0
41
1
10
72.6475343300408
20
-5.88922577682729
30
0
41
1
10
72.7121236923168
20
-6.14455703102604
30
0
41
1
10
72.8413024168689
20
-6.60019336812579
30
0
41
1
10
72.9058917791449
20
-6.80048429715029
30
0
41
1
10
73.0350705036969
20
-7.14220591284035
30
0
41
1
10
73.099659865973
20
-7.28364872716156
30
0
41
1
10
73.228838590525
20
-7.50820973690682
30
0
41
1
10
73.293427952801
20
-7.59135941788406
30
0
41
1
10
73.4226066773531
20
-7.70355255263141
30
0
41
1
10
73.4871960396291
20
-7.73263604981494
30
0
41
1
10
73.5679327424741
20
-7.73941469292237
30
0
41
1
10
73.5840800830431
20
-7.73931221641379
30
0
41
1
10
73.6163747641812
20
-7.73617812805759
30
0
41
1
10
73.6325221047501
20
-7.73313258332976
30
0
41
1
10
73.6809641264572
20
-7.71938818187007
30
0
41
1
10
73.7132588075953
20
-7.70407760341138
30
0
41
1
10
73.8101428510092
20
-7.63844801824601
30
0
41
1
10
73.8747322132853
20
-7.56833746247321
30
0
41
1
10
74.0039109378373
20
-7.37054795900673
30
0
41
1
10
74.0685003001133
20
-7.24283453705078
30
0
41
1
10
74.1976790246654
20
-6.92833251792587
30
0
41
1
10
74.2622683869414
20
-6.74152646116721
30
0
41
1
10
74.3914471114934
20
-6.31158135411931
30
0
41
1
10
74.4560364737694
20
-6.06845011373824
30
0
41
1
10
74.5852151983215
20
-5.53301732243187
30
0
41
1
10
74.6498045605975
20
-5.24074991905948
30
0
41
1
10
74.7789832851495
20
-4.61799415839789
30
0
41
1
10
74.8435726474256
20
-4.28755859725365
30
0
41
1
10
74.9727513719777
20
-3.60186070604615
30
0
41
1
10
75.0373407342536
20
-3.2466562032424
30
0
41
1
10
75.1665194588057
20
-2.5255441669818
30
0
41
1
10
75.2311088210817
20
-2.15968567338092
30
0
41
1
10
75.3602875456338
20
-1.43046504367243
30
0
41
1
10
75.4248769079097
20
-1.06713429392656
30
0
41
1
10
75.5217609513238
20
-0.532290772333141
30
0
41
1
10
75.5540556324618
20
-0.355681976644604
30
0
41
1
10
75.5944239838844
20
-0.137709435975779
30
0
41
1
10
75.6024976541688
20
-0.0942539110604059
30
0
41
1
10
75.6186449947378
20
-0.0076365099909879
30
0
41
1
10
75.6267186650223
20
0.0354930274181982
30
0
41
1
10
75.6509396758759
20
0.165607192476983
30
0
41
1
10
75.6670870164448
20
0.252931006945602
30
0
41
1
10
75.6832343570139
20
0.340771097844083
30
0
0
SPLINE
5
F1
100
AcDbEntity
8
1
62
256
6
ByLayer
370
13
48
1
60
0
100
AcDbSpline
70
4
71
3
72
8
73
4
40
0
40
0
40
0
40
0
40
1
40
1
40
1
40
1
41
1
10
75.6832343570139
20
7.21256900389531
30
0
41
1
10
76.6221562380092
20
4.81101350454603
30
0
41
1
10
77.5610781190046
20
2.40681429548073
30
0
41
1
10
78.5
20
2.84E-14
30
0
0
SPLINE
5
F2
100
AcDbEntity
8
1
62
256
6
ByLayer
370
13
48
1
60
0
100
AcDbSpline
70
4
71
3
72
8
73
4
40
0
40
0
40
0
40
0
40
1
40
1
40
1
40
1
41
1
10
75.6832343570139
20
4.61958711341302
30
0
41
1
10
76.6221562380094
20
3.07389498728691
30
0
41
1
10
77.5610781190049
20
1.53402651509822
30
0
41
1
10
78.5000000000003
20
-5.969E-13
30
0
0
SPLINE
5
F3
100
AcDbEntity
8
1
62
256
6
ByLayer
370
13
48
1
60
0
100
AcDbSpline
70
4
71
3
72
8
73
4
40
0
40
0
40
0
40
0
40
1
40
1
40
1
40
1
41
1
10
75.6832343570139
20
-2.24479539271462
30
0
41
1
10
76.6221562380093
20
-1.50348418213662
30
0
41
1
10
77.5610781190046
20
-0.755216073607272
30
0
41
1
10
78.4999999999999
20
-8.53E-14
30
0
0
SPLINE
5
F4
100
AcDbEntity
8
1
62
256
6
ByLayer
370
13
48
1
60
0
100
AcDbSpline
70
4
71
3
72
8
73
4
40
0
40
0
40
0
40
0
40
1
40
1
40
1
40
1
41
1
10
75.6832343570139
20
-7.43742840245798
30
0
41
1
10
76.6221562380093
20
-4.95627692759717
30
0
41
1
10
77.5610781190046
20
-2.47712429447202
30
0
41
1
10
78.4999999999999
20
-2.558E-13
30
0
0
SPLINE
5
F5
100
AcDbEntity
8
1
62
256
6
ByLayer
370
13
48
1
60
0
100
AcDbSpline
70
4
71
3
72
8
73
4
40
0
40
0
40
0
40
0
40
1
40
1
40
1
40
1
41
1
10
75.6832343570139
20
6.69042304032266
30
0
41
1
10
76.6221562380092
20
4.46393422306789
30
0
41
1
10
77.5610781190046
20
2.23378435764584
30
0
41
1
10
78.5
20
-5.68E-14
30
0
0
SPLINE
5
F6
100
AcDbEntity
8
1
62
256
6
ByLayer
370
13
48
1
60
0
100
AcDbSpline
70
4
71
3
72
8
73
4
40
0
40
0
40
0
40
0
40
1
40
1
40
1
40
1
41
1
10
75.6832343570139
20
5.1773300953798
30
0
41
1
10
76.6221562380092
20
3.45695422820779
30
0
41
1
10
77.5610781190046
20
1.73117067630884
30
0
41
1
10
78.5
20
5.68E-14
30
0
0
SPLINE
5
F7
100
AcDbEntity
8
1
62
256
6
ByLayer
370
13
48
1
60
0
100
AcDbSpline
70
4
71
3
72
8
73
4
40
0
40
0
40
0
40
0
40
1
40
1
40
1
40
1
41
1
10
75.6832343570139
20
3.60114908697176
30
0
41
1
10
76.6221562380093
20
2.39433435083231
30
0
41
1
10
77.5610781190046
20
1.19394656832924
30
0
41
1
10
78.4999999999999
20
1.137E-13
30
0
0
SPLINE
5
F8
100
AcDbEntity
8
1
62
256
6
ByLayer
370
13
48
1
60
0
100
AcDbSpline
70
4
71
3
72
8
73
4
40
0
40
0
40
0
40
0
40
1
40
1
40
1
40
1
41
1
10
75.6832343570139
20
-0.351554634348048
30
0
41
1
10
76.6221562380092
20
-0.22711094088703
30
0
41
1
10
77.5610781190045
20
-0.10992560748781
30
0
41
1
10
78.4999999999999
20
0
30
0
0
SPLINE
5
F9
100
AcDbEntity
8
1
62
256
6
ByLayer
370
13
48
1
60
0
100
AcDbSpline
70
4
71
3
72
8
73
4
40
0
40
0
40
0
40
0
40
1
40
1
40
1
40
1
41
1
10
75.6832343570139
20
4.22297087609053
30
0
41
1
10
76.6221562380092
20
2.82140307285874
30
0
41
1
10
77.5610781190046
20
1.41374052181968
30
0
41
1
10
78.5
20
5.68E-14
30
0
0
SPLINE
5
FA
100
AcDbEntity
8
1
62
256
6
ByLayer
370
13
48
1
60
0
100
AcDbSpline
70
4
71
3
72
8
73
4
40
0
40
0
40
0
40
0
40
1
40
1
40
1
40
1
41
1
10
75.6832343570139
20
-4.40553150258424
30
0
41
1
10
76.6221562380093
20
-2.9429950402714
30
0
41
1
10
77.5610781190046
20
-1.47447870580905
30
0
41
1
10
78.4999999999999
20
-1.421E-13
30
0
0
SPLINE
5
FB
100
AcDbEntity
8
1
62
256
6
ByLayer
370
13
48
1
60
0
100
AcDbSpline
70
4
71
3
72
8
73
4
40
0
40
0
40
0
40
0
40
1
40
1
40
1
40
1
41
1
10
75.6832343570139
20
-6.42460891048796
30
0
41
1
10
76.6221562380093
20
-4.27902145323671
30
0
41
1
10
77.5610781190046
20
-2.13747665944837
30
0
41
1
10
78.4999999999999
20
-1.99E-13
30
0
0
SPLINE
5
FC
100
AcDbEntity
8
1
62
256
6
ByLayer
370
13
48
1
60
0
100
AcDbSpline
70
4
71
3
72
8
73
4
40
0
40
0
40
0
40
0
40
1
40
1
40
1
40
1
41
1
10
75.6832343570139
20
7.56030944955955
30
0
41
1
10
76.6221562380092
20
5.04175874450971
30
0
41
1
10
77.5610781190046
20
2.5216455951485
30
0
41
1
10
78.5
20
2.84E-14
30
0
0
SPLINE
5
FD
100
AcDbEntity
8
1
62
256
6
ByLayer
370
13
48
1
60
0
100
AcDbSpline
70
4
71
3
72
8
73
4
40
0
40
0
40
0
40
0
40
1
40
1
40
1
40
1
41
1
10
75.6832343570139
20
7.37364066705584
30
0
41
1
10
76.6221562380093
20
4.91355416921004
30
0
41
1
10
77.5610781190046
20
2.45566419916398
30
0
41
1
10
78.4999999999999
20
2.274E-13
30
0
0
SPLINE
5
FE
100
AcDbEntity
8
1
62
256
6
ByLayer
370
13
48
1
60
0
100
AcDbSpline
70
4
71
3
72
8
73
4
40
0
40
0
40
0
40
0
40
1
40
1
40
1
40
1
41
1
10
75.6832343570139
20
-4.79413782673146
30
0
41
1
10
76.6221562380093
20
-3.19038772244019
30
0
41
1
10
77.5610781190046
20
-1.59233544816055
30
0
41
1
10
78.4999999999999
20
-1.421E-13
30
0
0
SPLINE
5
FF
100
AcDbEntity
8
1
62
256
6
ByLayer
370
13
48
1
60
0
100
AcDbSpline
70
4
71
3
72
8
73
4
40
0
40
0
40
0
40
0
40
1
40
1
40
1
40
1
41
1
10
75.6832343570139
20
6.29942205439195
30
0
41
1
10
76.6221562380091
20
4.19539379187961
30
0
41
1
10
77.5610781190043
20
2.09557811589022
30
0
41
1
10
78.4999999999994
20
1.2221E-12
30
0
0
SPLINE
5
100
100
AcDbEntity
8
1
62
256
6
ByLayer
370
13
48
1
60
0
100
AcDbSpline
70
4
71
3
72
8
73
4
40
0
40
0
40
0
40
0
40
1
40
1
40
1
40
1
41
1
10
75.6832343570139
20
2.03345465469101
30
0
41
1
10
76.6221562380092
20
1.36264743493757
30
0
41
1
10
77.5610781190046
20
0.684826518475916
30
0
41
1
10
78.5
20
-2.84E-14
30
0
0
SPLINE
5
101
100
AcDbEntity
8
1
62
256
6
ByLayer
370
13
48
1
60
0
100
AcDbSpline
70
4
71
3
72
8
73
4
40
0
40
0
40
0
40
0
40
1
40
1
40
1
40
1
41
1
10
75.6832343570139
20
-7.0158429207186
30
0
41
1
10
76.6221562380093
20
-4.67416161875323
30
0
41
1
10
77.5610781190046
20
-2.33553803842872
30
0
41
1
10
78.4999999999999
20
-2.274E-13
30
0
0
SPLINE
5
102
100
AcDbEntity
8
1
62
256
6
ByLayer
370
13
48
1
60
0
100
AcDbSpline
70
4
71
3
72
8
73
4
40
0
40
0
40
0
40
0
40
1
40
1
40
1
40
1
41
1
10
75.6832343570139
20
-7.28937035719994
30
0
41
1
10
76.6221562380093
20
-4.86202092954196
30
0
41
1
10
77.5610781190046
20
-2.43222116807195
30
0
41
1
10
78.4999999999999
20
-2.274E-13
30
0
0
SPLINE
5
103
100
AcDbEntity
8
1
62
256
6
ByLayer
370
13
48
1
60
0
100
AcDbSpline
70
4
71
3
72
8
73
4
40
0
40
0
40
0
40
0
40
1
40
1
40
1
40
1
41
1
10
75.6832343570139
20
-3.36585797711516
30
0
41
1
10
76.6221562380093
20
-2.25044840598716
30
0
41
1
10
77.5610781190046
20
-1.1284912874186
30
0
41
1
10
78.4999999999999
20
-1.137E-13
30
0
0
SPLINE
5
104
100
AcDbEntity
8
1
62
256
6
ByLayer
370
13
48
1
60
0
100
AcDbSpline
70
4
71
3
72
8
73
4
40
0
40
0
40
0
40
0
40
1
40
1
40
1
40
1
41
1
10
75.6832343570139
20
7.64878172240546
30
0
41
1
10
76.6221562380094
20
5.09808153576847
30
0
41
1
10
77.5610781190049
20
2.5484775153152
30
0
41
1
10
78.5000000000003
20
-9.948E-13
30
0
0
SPLINE
5
105
100
AcDbEntity
8
1
62
256
6
ByLayer
370
13
48
1
60
0
100
AcDbSpline
70
4
71
3
72
8
73
4
40
0
40
0
40
0
40
0
40
1
40
1
40
1
40
1
41
1
10
75.6832343570139
20
-1.5458502593319
30
0
41
1
10
76.6221562380092
20
-1.02344695908693
30
0
41
1
10
77.5610781190045
20
-0.508161504553243
30
0
41
1
10
78.4999999999999
20
-5.68E-14
30
0
0
SPLINE
5
106
100
AcDbEntity
8
1
62
256
6
ByLayer
370
13
48
1
60
0
100
AcDbSpline
70
4
71
3
72
8
73
4
40
0
40
0
40
0
40
0
40
1
40
1
40
1
40
1
41
1
10
75.6832343570139
20
6.92019925593638
30
0
41
1
10
76.6221562380094
20
4.61021324825853
30
0
41
1
10
77.5610781190049
20
2.30347101624898
30
0
41
1
10
78.5000000000003
20
-8.811E-13
30
0
0
SPLINE
5
107
100
AcDbEntity
8
1
62
256
6
ByLayer
370
13
48
1
60
0
100
AcDbSpline
70
4
71
3
72
8
73
4
40
0
40
0
40
0
40
0
40
1
40
1
40
1
40
1
41
1
10
75.6832343570139
20
0.13175174423273
30
0
41
1
10
76.6221562380093
20
0.0805692327919871
30
0
41
1
10
77.5610781190046
20
0.0366518200984274
30
0
41
1
10
78.4999999999999
20
0
30
0
0
SPLINE
5
108
100
AcDbEntity
8
1
62
256
6
ByLayer
370
13
48
1
60
0
100
AcDbSpline
70
4
71
3
72
8
73
4
40
0
40
0
40
0
40
0
40
1
40
1
40
1
40
1
41
1
10
75.6832343570139
20
1.32976954200336
30
0
41
1
10
76.6221562380093
20
0.879354782535614
30
0
41
1
10
77.5610781190046
20
0.436096519565496
30
0
41
1
10
78.4999999999999
20
5.68E-14
30
0
0
SPLINE
5
109
100
AcDbEntity
8
1
62
256
6
ByLayer
370
13
48
1
60
0
100
AcDbSpline
70
4
71
3
72
8
73
4
40
0
40
0
40
0
40
0
40
1
40
1
40
1
40
1
41
1
10
75.6832343570139
20
0.851241854619701
30
0
41
1
10
76.6221562380092
20
0.57471679617845
30
0
41
1
10
77.5610781190045
20
0.29096837610615
30
0
41
1
10
78.4999999999999
20
2.84E-14
30
0
0
SPLINE
5
10A
100
AcDbEntity
8
1
62
256
6
ByLayer
370
13
48
1
60
0
100
AcDbSpline
70
4
71
3
72
8
73
4
40
0
40
0
40
0
40
0
40
1
40
1
40
1
40
1
41
1
10
75.6832343570139
20
-6.79824200474064
30
0
41
1
10
76.6221562380092
20
-4.53563357404312
30
0
41
1
10
77.5610781190044
20
-2.26954391147774
30
0
41
1
10
78.4999999999997
20
-7.674E-13
30
0
0
SPLINE
5
10B
100
AcDbEntity
8
1
62
256
6
ByLayer
370
13
48
1
60
0
100
AcDbSpline
70
4
71
3
72
8
73
4
40
0
40
0
40
0
40
0
40
1
40
1
40
1
40
1
41
1
10
75.6832343570139
20
5.52631993708909
30
0
41
1
10
76.6221562380093
20
3.67912645656668
30
0
41
1
10
77.5610781190046
20
1.8370125098094
30
0
41
1
10
78.4999999999999
20
1.705E-13
30
0
0
SPLINE
5
10C
100
AcDbEntity
8
1
62
256
6
ByLayer
370
13
48
1
60
0
100
AcDbSpline
70
4
71
3
72
8
73
4
40
0
40
0
40
0
40
0
40
1
40
1
40
1
40
1
41
1
10
75.6832343570139
20
-2.70276602494218
30
0
41
1
10
76.6221562380092
20
-1.79503523527487
30
0
41
1
10
77.5610781190046
20
-0.894109661933243
30
0
41
1
10
78.5
20
2.84E-14
30
0
0
SPLINE
5
10D
100
AcDbEntity
8
1
62
256
6
ByLayer
370
13
48
1
60
0
100
AcDbSpline
70
4
71
3
72
8
73
4
40
0
40
0
40
0
40
0
40
1
40
1
40
1
40
1
41
1
10
75.6832343570139
20
-5.6780228691311
30
0
41
1
10
76.6221562380093
20
-3.78041122701225
30
0
41
1
10
77.5610781190046
20
-1.88772943543731
30
0
41
1
10
78.4999999999999
20
-1.99E-13
30
0
0
SPLINE
5
10E
100
AcDbEntity
8
1
62
256
6
ByLayer
370
13
48
1
60
0
100
AcDbSpline
70
4
71
3
72
8
73
4
40
0
40
0
40
0
40
0
40
1
40
1
40
1
40
1
41
1
10
75.6832343570139
20
7.72523574337492
30
0
41
1
10
76.6221562380093
20
5.15059034392021
30
0
41
1
10
77.5610781190046
20
2.57550154667527
30
0
41
1
10
78.5
20
0
30
0
0
SPLINE
5
10F
100
AcDbEntity
8
1
62
256
6
ByLayer
370
13
48
1
60
0
100
AcDbSpline
70
4
71
3
72
8
73
4
40
0
40
0
40
0
40
0
40
1
40
1
40
1
40
1
41
1
10
75.6832343570139
20
-3.79432680980813
30
0
41
1
10
76.6221562380093
20
-2.52321816591905
30
0
41
1
10
77.5610781190046
20
-1.25843755355612
30
0
41
1
10
78.4999999999999
20
-1.137E-13
30
0
0
SPLINE
5
110
100
AcDbEntity
8
1
62
256
6
ByLayer
370
13
48
1
60
0
100
AcDbSpline
70
4
71
3
72
8
73
4
40
0
40
0
40
0
40
0
40
1
40
1
40
1
40
1
41
1
10
75.6832343570139
20
6.00649745360261
30
0
41
1
10
76.6221562380092
20
4.00891354655244
30
0
41
1
10
77.5610781190046
20
2.00673977987051
30
0
41
1
10
78.5
20
-5.68E-14
30
0
0
SPLINE
5
111
100
AcDbEntity
8
1
62
256
6
ByLayer
370
13
48
1
60
0
100
AcDbSpline
70
4
71
3
72
8
73
4
40
0
40
0
40
0
40
0
40
1
40
1
40
1
40
1
41
1
10
75.6832343570139
20
2.49563247989718
30
0
41
1
10
76.6221562380093
20
1.65687685096066
30
0
41
1
10
77.5610781190046
20
0.824996066631002
30
0
41
1
10
78.4999999999999
20
8.53E-14
30
0
0
SPLINE
5
112
100
AcDbEntity
8
1
62
256
6
ByLayer
370
13
48
1
60
0
100
AcDbSpline
70
4
71
3
72
8
73
4
40
0
40
0
40
0
40
0
40
1
40
1
40
1
40
1
41
1
10
75.6832343570139
20
-7.67917109146467
30
0
41
1
10
76.6221562380093
20
-5.11854561258366
30
0
41
1
10
77.5610781190046
20
-2.55881176198827
30
0
41
1
10
78.4999999999999
20
-2.558E-13
30
0
0
SPLINE
5
113
100
AcDbEntity
8
1
62
256
6
ByLayer
370
13
48
1
60
0
100
AcDbSpline
70
4
71
3
72
8
73
4
40
0
40
0
40
0
40
0
40
1
40
1
40
1
40
1
41
1
10
75.6832343570139
20
-6.14272688287039
30
0
41
1
10
76.6221562380092
20
-4.09957107753721
30
0
41
1
10
77.5610781190044
20
-2.05198732116952
30
0
41
1
10
78.4999999999997
20
-7.105E-13
30
0
0
SPLINE
5
114
100
AcDbEntity
8
1
62
256
6
ByLayer
370
13
48
1
60
0
100
AcDbSpline
70
4
71
3
72
8
73
4
40
0
40
0
40
0
40
0
40
1
40
1
40
1
40
1
41
1
10
75.6832343570139
20
-5.33867585613757
30
0
41
1
10
76.6221562380092
20
-3.56437776972197
30
0
41
1
10
77.5610781190044
20
-1.78481208439885
30
0
41
1
10
78.4999999999997
20
-5.969E-13
30
0
0
SPLINE
5
115
100
AcDbEntity
8
1
62
256
6
ByLayer
370
13
48
1
60
0
100
AcDbSpline
70
4
71
3
72
8
73
4
40
0
40
0
40
0
40
0
40
1
40
1
40
1
40
1
41
1
10
75.6832343570139
20
3.16649694256296
30
0
41
1
10
76.6221562380092
20
2.11762820084442
30
0
41
1
10
77.5610781190046
20
1.06212502397182
30
0
41
1
10
78.5
20
-2.84E-14
30
0
0
SPLINE
5
116
100
AcDbEntity
8
1
62
256
6
ByLayer
370
13
48
1
60
0
100
AcDbSpline
70
4
71
3
72
8
73
4
40
0
40
0
40
0
40
0
40
1
40
1
40
1
40
1
41
1
10
75.6832343570139
20
-7.604236075404
30
0
41
1
10
76.6221562380093
20
-5.07084084439109
30
0
41
1
10
77.5610781190046
20
-2.53608542859584
30
0
41
1
10
78.4999999999999
20
-2.558E-13
30
0
0
SPLINE
5
117
100
AcDbEntity
8
1
62
256
6
ByLayer
370
13
48
1
60
0
100
AcDbSpline
70
4
71
3
72
8
73
4
40
0
40
0
40
0
40
0
40
1
40
1
40
1
40
1
41
1
10
75.6832343570139
20
-1.06945191299738
30
0
41
1
10
76.6221562380093
20
-0.720164543549515
30
0
41
1
10
77.5610781190046
20
-0.363679148832858
30
0
41
1
10
78.4999999999999
20
-2.84E-14
30
0
0
SPLINE
5
118
100
AcDbEntity
8
1
62
256
6
ByLayer
370
13
48
1
60
0
100
AcDbSpline
70
4
71
3
72
8
73
4
40
0
40
0
40
0
40
0
40
1
40
1
40
1
40
1
41
1
10
75.6832343570139
20
-7.73522546184432
30
0
41
1
10
76.6221562380093
20
-5.15704389093438
30
0
41
1
10
77.5610781190046
20
-2.57862517459577
30
0
41
1
10
78.4999999999999
20
-2.558E-13
30
0
0
LINE
5
7D
100
AcDbEntity
8
80
62
256
6
ByLayer
370
18
48
1
60
0
100
AcDbLine
10
0
20
0
30
0
11
-5
21
0
31
0
39
0
210
0
220
0
230
1
0
LINE
5
7E
100
AcDbEntity
8
4
62
256
6
ByLayer
370
18
48
0.05
60
0
100
AcDbLine
10
-5
20
0
30
0
11
83.5
21
0
31
0
39
0
210
0
220
0
230
1
0
LINE
5
80
100
AcDbEntity
8
81
62
256
6
ByLayer
370
18
48
1
60
0
100
AcDbLine
10
78.5
20
0
30
0
11
83.5
21
0
31
0
39
0
210
0
220
0
230
1
0
LINE
5
81
100
AcDbEntity
8
SK4
62
256
6
ByLayer
370
18
48
0.05
60
0
100
AcDbLine
10
-53
20
0
30
0
11
83.5
21
0
31
0
39
0
210
0
220
0
230
1
0
LINE
5
83
100
AcDbEntity
8
1
62
256
6
ByLayer
370
18
48
1
60
0
100
AcDbLine
10
10
20
-7.2
30
0
11
38.710215
21
-7.2
31
0
39
0
210
0
220
0
230
1
0
LINE
5
84
100
AcDbEntity
8
1
62
256
6
ByLayer
370
18
48
1
60
0
100
AcDbLine
10
38.710215
20
7.2
30
0
11
10
21
7.2
31
0
39
0
210
0
220
0
230
1
0
LINE
5
85
100
AcDbEntity
8
1
62
256
6
ByLayer
370
18
48
1
60
0
100
AcDbLine
10
78.5
20
0
30
0
11
75.683234
21
7.739
31
0
39
0
210
0
220
0
230
1
0
LINE
5
86
100
AcDbEntity
8
1
62
256
6
ByLayer
370
18
48
1
60
0
100
AcDbLine
10
75.683234
20
-7.739
30
0
11
78.5
21
0
31
0
39
0
210
0
220
0
230
1
0
LINE
5
87
100
AcDbEntity
8
1
62
256
6
ByLayer
370
18
48
1
60
0
100
AcDbLine
10
10
20
7.2
30
0
11
0
21
9.525
31
0
39
0
210
0
220
0
230
1
0
LINE
5
88
100
AcDbEntity
8
1
62
256
6
ByLayer
370
18
48
1
60
0
100
AcDbLine
10
0
20
-9.525
30
0
11
10
21
-7.2
31
0
39
0
210
0
220
0
230
1
0
LINE
5
89
100
AcDbEntity
8
1
62
256
6
ByLayer
370
18
48
1
60
0
100
AcDbLine
10
78.5
20
0
30
0
11
75.683234
21
7.739
31
0
39
0
210
0
220
0
230
1
0
LINE
5
8A
100
AcDbEntity
8
1
62
256
6
ByLayer
370
18
48
1
60
0
100
AcDbLine
10
75.683234
20
-7.739
30
0
11
78.5
21
0
31
0
39
0
210
0
220
0
230
1
0
LINE
5
8B
100
AcDbEntity
8
1
62
256
6
ByLayer
370
18
48
1
60
0
100
AcDbLine
10
67.5
20
-7.739
30
0
11
75.683234
21
-7.739
31
0
39
0
210
0
220
0
230
1
0
LINE
5
8C
100
AcDbEntity
8
SK1
62
256
6
ByLayer
370
18
48
1
60
0
100
AcDbLine
10
-48
20
-8.525
30
0
11
-47
21
-9.525
31
0
39
0
210
0
220
0
230
1
0
LINE
5
8E
100
AcDbEntity
8
SK1
62
256
6
ByLayer
370
18
48
1
60
0
100
AcDbLine
10
-47
20
9.525
30
0
11
-48
21
8.525
31
0
39
0
210
0
220
0
230
1
0
LINE
5
8F
100
AcDbEntity
8
SK1
62
256
6
ByLayer
370
18
48
1
60
0
100
AcDbLine
10
-47
20
-9.525
30
0
11
0
21
-9.525
31
0
39
0
210
0
220
0
230
1
0
LINE
5
90
100
AcDbEntity
8
SK1
62
256
6
ByLayer
370
18
48
1
60
0
100
AcDbLine
10
0
20
9.525
30
0
11
-47
21
9.525
31
0
39
0
210
0
220
0
230
1
0
LINE
5
91
100
AcDbEntity
8
1
62
256
6
ByLayer
370
18
48
1
60
0
100
AcDbLine
10
0
20
9.525
30
0
11
0
21
-9.525
31
0
39
0
210
0
220
0
230
1
0
LINE
5
92
100
AcDbEntity
8
1
62
256
6
ByLayer
370
18
48
1
60
0
100
AcDbLine
10
75.683234
20
7.739
30
0
11
75.683234
21
7.493252
31
0
39
0
210
0
220
0
230
1
0
LINE
5
93
100
AcDbEntity
8
1
62
256
6
ByLayer
370
18
48
1
60
0
100
AcDbLine
10
75.683234
20
-7.739
30
0
11
75.683234
21
-1.103981
31
0
39
0
210
0
220
0
230
1
0
LINE
5
94
100
AcDbEntity
8
1
62
256
6
ByLayer
370
18
48
1
60
0
100
AcDbLine
10
10
20
-7.2
30
0
11
10
21
-1.381973
31
0
39
0
210
0
220
0
230
1
0
LINE
5
95
100
AcDbEntity
8
1
62
256
6
ByLayer
370
18
48
1
60
0
100
AcDbLine
10
10
20
7.2
30
0
11
10
21
6.495828
31
0
39
0
210
0
220
0
230
1
0
LINE
5
96
100
AcDbEntity
8
SK1
62
256
6
ByLayer
370
18
48
1
60
0
100
AcDbLine
10
-48
20
-8.525
30
0
11
-48
21
8.525
31
0
39
0
210
0
220
0
230
1
0
LINE
5
97
100
AcDbEntity
8
SK1
62
256
6
ByLayer
370
18
48
1
60
0
100
AcDbLine
10
-40.207362
20
-3.933192
30
0
11
-40.207362
21
3.933192
31
0
39
0
210
0
220
0
230
1
0
LINE
5
98
100
AcDbEntity
8
SK1
62
256
6
ByLayer
370
18
48
1
60
0
100
AcDbLine
10
0
20
9.525
30
0
11
0
21
-9.525
31
0
39
0
210
0
220
0
230
1
0
LINE
5
99
100
AcDbEntity
8
SK1
62
256
6
ByLayer
370
18
48
1
60
0
100
AcDbLine
10
-47
20
-9.525
30
0
11
-47
21
9.525
31
0
39
0
210
0
220
0
230
1
0
LINE
5
9A
100
AcDbEntity
8
SK1
62
256
6
ByLayer
370
18
48
1
60
0
100
AcDbLine
10
-5.911513
20
-3.933192
30
0
11
-40.207362
21
-3.933192
31
0
39
0
210
0
220
0
230
1
0
LINE
5
9B
100
AcDbEntity
8
SK1
62
256
6
ByLayer
370
18
48
1
60
0
100
AcDbLine
10
-40.207362
20
3.933192
30
0
11
-5.911513
21
3.933192
31
0
39
0
210
0
220
0
230
1
0
LINE
5
9C
100
AcDbEntity
8
SK1
62
256
6
ByLayer
370
18
48
1
60
0
100
AcDbLine
10
-5.911513
20
-3.933192
30
0
11
-5.911513
21
3.933192
31
0
39
0
210
0
220
0
230
1
0
LINE
5
9D
100
AcDbEntity
8
1
62
256
6
ByLayer
370
18
48
1
60
0
100
AcDbLine
10
75.683234
20
7.739
30
0
11
75.683234
21
-7.739
31
0
39
0
210
0
220
0
230
1
0
LINE
5
9E
100
AcDbEntity
8
1
62
256
6
ByLayer
370
18
48
1
60
0
100
AcDbLine
10
75.683234
20
7.739
30
0
11
75.683234
21
-7.739
31
0
39
0
210
0
220
0
230
1
0
LINE
5
9F
100
AcDbEntity
8
1
62
256
6
ByLayer
370
18
48
1
60
0
100
AcDbLine
10
75.683234
20
7.739
30
0
11
75.683234
21
-7.739
31
0
39
0
210
0
220
0
230
1
0
LINE
5
A0
100
AcDbEntity
8
1
62
256
6
ByLayer
370
18
48
1
60
0
100
AcDbLine
10
67.5
20
7.739
30
0
11
67.5
21
-7.739
31
0
39
0
210
0
220
0
230
1
0
LINE
5
A1
100
AcDbEntity
8
1
62
256
6
ByLayer
370
18
48
1
60
0
100
AcDbLine
10
67.5
20
7.739
30
0
11
67.5
21
-7.739
31
0
39
0
210
0
220
0
230
1
0
LINE
5
A2
100
AcDbEntity
8
1
62
256
6
ByLayer
370
18
48
1
60
0
100
AcDbLine
10
75.683234
20
7.739
30
0
11
75.683234
21
-7.739
31
0
39
0
210
0
220
0
230
1
0
LINE
5
A3
100
AcDbEntity
8
1
62
256
6
ByLayer
370
18
48
1
60
0
100
AcDbLine
10
67.5
20
7.739
30
0
11
67.5
21
-7.739
31
0
39
0
210
0
220
0
230
1
0
LINE
5
A4
100
AcDbEntity
8
1
62
256
6
ByLayer
370
18
48
1
60
0
100
AcDbLine
10
75.683234
20
7.739
30
0
11
75.683234
21
-7.739
31
0
39
0
210
0
220
0
230
1
0
LINE
5
A5
100
AcDbEntity
8
SK2
62
256
6
ByLayer
370
13
48
1
60
0
100
AcDbLine
10
-54.5
20
-9.525
30
0
11
-54.5
21
37.799683
31
0
39
0
210
0
220
0
230
1
0
LINE
5
A7
100
AcDbEntity
8
SK2
62
256
6
ByLayer
370
13
48
1
60
0
100
AcDbLine
10
-49.5875
20
9.525
30
0
11
-56.5
21
9.525
31
0
39
0
210
0
220
0
230
1
0
LINE
5
A8
100
AcDbEntity
8
SK2
62
256
6
ByLayer
370
13
48
1
60
0
100
AcDbLine
10
-49.5875
20
-9.525
30
0
11
-56.5
21
-9.525
31
0
39
0
210
0
220
0
230
1
0
LINE
5
A9
100
AcDbEntity
8
1
62
256
6
ByLayer
370
18
48
1
60
1
100
AcDbLine
10
-54.5
20
9.525
30
0
11
-54.039216
21
6.025002
31
0
39
0
210
0
220
0
230
1
0
LINE
5
AA
100
AcDbEntity
8
1
62
256
6
ByLayer
370
18
48
1
60
1
100
AcDbLine
10
-54.039216
20
6.025002
30
0
11
-54.960784
21
6.024998
31
0
39
0
210
0
220
0
230
1
0
LINE
5
AB
100
AcDbEntity
8
1
62
256
6
ByLayer
370
18
48
1
60
1
100
AcDbLine
10
-54.960784
20
6.024998
30
0
11
-54.5
21
9.525
31
0
39
0
210
0
220
0
230
1
0
LINE
5
AC
100
AcDbEntity
8
1
62
256
6
ByLayer
370
18
48
1
60
1
100
AcDbLine
10
-54.5
20
-9.525
30
0
11
-54.960784
21
-6.025002
31
0
39
0
210
0
220
0
230
1
0
LINE
5
AD
100
AcDbEntity
8
1
62
256
6
ByLayer
370
18
48
1
60
1
100
AcDbLine
10
-54.960784
20
-6.025002
30
0
11
-54.039216
21
-6.024998
31
0
39
0
210
0
220
0
230
1
0
LINE
5
AE
100
AcDbEntity
8
1
62
256
6
ByLayer
370
18
48
1
60
1
100
AcDbLine
10
-54.039216
20
-6.024998
30
0
11
-54.5
21
-9.525
31
0
39
0
210
0
220
0
230
1
0
LINE
5
AF
100
AcDbEntity
8
2
62
256
6
ByLayer
370
13
48
1
60
0
100
AcDbLine
10
86
20
-7.739
30
0
11
86
21
36.329569
31
0
39
0
210
0
220
0
230
1
0
LINE
5
B1
100
AcDbEntity
8
2
62
256
6
ByLayer
370
13
48
1
60
0
100
AcDbLine
10
77.270734
20
7.739
30
0
11
88
21
7.739
31
0
39
0
210
0
220
0
230
1
0
LINE
5
B2
100
AcDbEntity
8
2
62
256
6
ByLayer
370
13
48
1
60
0
100
AcDbLine
10
77.270734
20
-7.739
30
0
11
88
21
-7.739
31
0
39
0
210
0
220
0
230
1
0
LINE
5
B3
100
AcDbEntity
8
1
62
256
6
ByLayer
370
18
48
1
60
1
100
AcDbLine
10
86
20
7.739
30
0
11
86.460784
21
4.239002
31
0
39
0
210
0
220
0
230
1
0
LINE
5
B4
100
AcDbEntity
8
1
62
256
6
ByLayer
370
18
48
1
60
1
100
AcDbLine
10
86.460784
20
4.239002
30
0
11
85.539216
21
4.238998
31
0
39
0
210
0
220
0
230
1
0
LINE
5
B5
100
AcDbEntity
8
1
62
256
6
ByLayer
370
18
48
1
60
1
100
AcDbLine
10
85.539216
20
4.238998
30
0
11
86
21
7.739
31
0
39
0
210
0
220
0
230
1
0
LINE
5
B6
100
AcDbEntity
8
1
62
256
6
ByLayer
370
18
48
1
60
1
100
AcDbLine
10
86
20
-7.739
30
0
11
85.539216
21
-4.239002
31
0
39
0
210
0
220
0
230
1
0
LINE
5
B7
100
AcDbEntity
8
1
62
256
6
ByLayer
370
18
48
1
60
1
100
AcDbLine
10
85.539216
20
-4.239002
30
0
11
86.460784
21
-4.238998
31
0
39
0
210
0
220
0
230
1
0
LINE
5
B8
100
AcDbEntity
8
1
62
256
6
ByLayer
370
18
48
1
60
1
100
AcDbLine
10
86.460784
20
-4.238998
30
0
11
86
21
-7.739
31
0
39
0
210
0
220
0
230
1
0
LINE
5
B9
100
AcDbEntity
8
SK2
62
256
6
ByLayer
370
13
48
1
60
0
100
AcDbLine
10
79.042957
20
-1.491762
30
0
11
85.682423
21
-19.733545
31
0
39
0
210
0
220
0
230
1
0
LINE
5
BA
100
AcDbEntity
8
SK2
62
256
6
ByLayer
370
13
48
1
60
0
100
AcDbLine
10
79.042957
20
1.491762
30
0
11
85.682423
21
19.733545
31
0
39
0
210
0
220
0
230
1
0
LINE
5
BB
100
AcDbEntity
8
1
62
256
6
ByLayer
370
18
48
1
60
1
100
AcDbLine
10
84.998383
20
-17.85416
30
0
11
88.051575
21
-16.082064
31
0
39
0
210
0
220
0
230
1
0
LINE
5
BC
100
AcDbEntity
8
1
62
256
6
ByLayer
370
18
48
1
60
1
100
AcDbLine
10
88.051575
20
-16.082064
30
0
11
88.406196
21
-16.93267
31
0
39
0
210
0
220
0
230
1
0
LINE
5
BD
100
AcDbEntity
8
1
62
256
6
ByLayer
370
18
48
1
60
1
100
AcDbLine
10
88.406196
20
-16.93267
30
0
11
84.998383
21
-17.85416
31
0
39
0
210
0
220
0
230
1
0
LINE
5
BE
100
AcDbEntity
8
1
62
256
6
ByLayer
370
18
48
1
60
1
100
AcDbLine
10
84.998383
20
17.85416
30
0
11
88.406193
21
16.932671
31
0
39
0
210
0
220
0
230
1
0
LINE
5
BF
100
AcDbEntity
8
1
62
256
6
ByLayer
370
18
48
1
60
1
100
AcDbLine
10
88.406193
20
16.932671
30
0
11
88.051579
21
16.082063
31
0
39
0
210
0
220
0
230
1
0
LINE
5
C0
100
AcDbEntity
8
1
62
256
6
ByLayer
370
18
48
1
60
1
100
AcDbLine
10
88.051579
20
16.082063
30
0
11
84.998383
21
17.85416
31
0
39
0
210
0
220
0
230
1
0
LINE
5
11D
100
AcDbEntity
8
1
62
256
6
ByLayer
370
18
48
1
60
1
100
AcDbLine
10
-54.5
20
9.525
30
0
11
-54.039216
21
6.025002
31
0
39
0
210
0
220
0
230
1
0
LINE
5
11E
100
AcDbEntity
8
1
62
256
6
ByLayer
370
18
48
1
60
1
100
AcDbLine
10
-54.039216
20
6.025002
30
0
11
-54.960784
21
6.024998
31
0
39
0
210
0
220
0
230
1
0
LINE
5
11F
100
AcDbEntity
8
1
62
256
6
ByLayer
370
18
48
1
60
1
100
AcDbLine
10
-54.960784
20
6.024998
30
0
11
-54.5
21
9.525
31
0
39
0
210
0
220
0
230
1
0
LINE
5
121
100
AcDbEntity
8
1
62
256
6
ByLayer
370
18
48
1
60
1
100
AcDbLine
10
-54.5
20
-9.525
30
0
11
-54.960784
21
-6.025002
31
0
39
0
210
0
220
0
230
1
0
LINE
5
122
100
AcDbEntity
8
1
62
256
6
ByLayer
370
18
48
1
60
1
100
AcDbLine
10
-54.960784
20
-6.025002
30
0
11
-54.039216
21
-6.024998
31
0
39
0
210
0
220
0
230
1
0
LINE
5
123
100
AcDbEntity
8
1
62
256
6
ByLayer
370
18
48
1
60
1
100
AcDbLine
10
-54.039216
20
-6.024998
30
0
11
-54.5
21
-9.525
31
0
39
0
210
0
220
0
230
1
0
LINE
5
127
100
AcDbEntity
8
1
62
256
6
ByLayer
370
18
48
1
60
1
100
AcDbLine
10
86
20
7.739
30
0
11
86.460784
21
4.239002
31
0
39
0
210
0
220
0
230
1
0
LINE
5
128
100
AcDbEntity
8
1
62
256
6
ByLayer
370
18
48
1
60
1
100
AcDbLine
10
86.460784
20
4.239002
30
0
11
85.539216
21
4.238998
31
0
39
0
210
0
220
0
230
1
0
LINE
5
129
100
AcDbEntity
8
1
62
256
6
ByLayer
370
18
48
1
60
1
100
AcDbLine
10
85.539216
20
4.238998
30
0
11
86
21
7.739
31
0
39
0
210
0
220
0
230
1
0
LINE
5
12B
100
AcDbEntity
8
1
62
256
6
ByLayer
370
18
48
1
60
1
100
AcDbLine
10
86
20
-7.739
30
0
11
85.539216
21
-4.239002
31
0
39
0
210
0
220
0
230
1
0
LINE
5
12C
100
AcDbEntity
8
1
62
256
6
ByLayer
370
18
48
1
60
1
100
AcDbLine
10
85.539216
20
-4.239002
30
0
11
86.460784
21
-4.238998
31
0
39
0
210
0
220
0
230
1
0
LINE
5
12D
100
AcDbEntity
8
1
62
256
6
ByLayer
370
18
48
1
60
1
100
AcDbLine
10
86.460784
20
-4.238998
30
0
11
86
21
-7.739
31
0
39
0
210
0
220
0
230
1
0
LINE
5
130
100
AcDbEntity
8
1
62
256
6
ByLayer
370
18
48
1
60
1
100
AcDbLine
10
84.998383
20
-17.85416
30
0
11
88.051575
21
-16.082064
31
0
39
0
210
0
220
0
230
1
0
LINE
5
131
100
AcDbEntity
8
1
62
256
6
ByLayer
370
18
48
1
60
1
100
AcDbLine
10
88.051575
20
-16.082064
30
0
11
88.406196
21
-16.93267
31
0
39
0
210
0
220
0
230
1
0
LINE
5
132
100
AcDbEntity
8
1
62
256
6
ByLayer
370
18
48
1
60
1
100
AcDbLine
10
88.406196
20
-16.93267
30
0
11
84.998383
21
-17.85416
31
0
39
0
210
0
220
0
230
1
0
LINE
5
134
100
AcDbEntity
8
1
62
256
6
ByLayer
370
18
48
1
60
1
100
AcDbLine
10
84.998383
20
17.85416
30
0
11
88.406193
21
16.932671
31
0
39
0
210
0
220
0
230
1
0
LINE
5
135
100
AcDbEntity
8
1
62
256
6
ByLayer
370
18
48
1
60
1
100
AcDbLine
10
88.406193
20
16.932671
30
0
11
88.051579
21
16.082063
31
0
39
0
210
0
220
0
230
1
0
LINE
5
136
100
AcDbEntity
8
1
62
256
6
ByLayer
370
18
48
1
60
1
100
AcDbLine
10
88.051579
20
16.082063
30
0
11
84.998383
21
17.85416
31
0
39
0
210
0
220
0
230
1
0
MTEXT
5
119
100
AcDbEntity
8
SK2
62
256
6
ByLayer
370
18
48
1
60
0
100
AcDbMText
10
-55.841114
20
21.183438
30
0
210
0
220
0
230
1
1
%%c
40
3
41
0
44
1.084337
50
90
71
7
72
5
7
iso_b_vert
0
MTEXT
5
11C
100
AcDbEntity
8
SK2
62
256
6
ByLayer
370
18
48
1
60
0
100
AcDbMText
10
-55.841114
20
27.16
30
0
210
0
220
0
230
1
1
\W0.7022;19.050
40
3
41
0
44
1.084337
50
90
71
7
72
5
7
iso_b_vert
0
MTEXT
5
125
100
AcDbEntity
8
2
62
256
6
ByLayer
370
18
48
1
60
0
100
AcDbMText
10
84.658886
20
19.397438
30
0
210
0
220
0
230
1
1
%%c
40
3
41
0
44
1.084337
50
90
71
7
72
5
7
iso_b_vert
0
MTEXT
5
126
100
AcDbEntity
8
2
62
256
6
ByLayer
370
18
48
1
60
0
100
AcDbMText
10
84.658886
20
25.374
30
0
210
0
220
0
230
1
1
\W0.7237;15.478
40
3
41
0
44
1.084337
50
90
71
7
72
5
7
iso_b_vert
0
MTEXT
5
12F
100
AcDbEntity
8
SK2
62
256
6
ByLayer
370
18
48
1
60
0
100
AcDbMText
10
98.409114
20
3.734657
30
0
210
0
220
0
230
1
1
\W0.7071;140%%d
40
3
41
0
44
1.084337
50
270
71
7
72
5
7
iso_b_vert
0
MTEXT
5
138
100
AcDbEntity
8
SK6
62
256
6
ByLayer
370
18
48
1
60
0
100
AcDbMText
10
-13.292397
20
-67.114886
30
0
210
0
220
0
230
1
1
\W0.7930;H85339/64
40
3
41
0
44
1.084337
50
0
71
7
72
5
7
iso_b_vert
0
HATCH
5
120
100
AcDbEntity
8
SK2
62
256
6
ByLayer
370
13
48
1
60
0
100
AcDbHatch
10
0
20
0
30
0
210
0
220
0
230
1
2
ANSI31
70
0
71
0
91
1
92
5
93
3
72
1
10
-54.5
20
9.52500000000001
11
-54.0392162584472
21
6.02500169255319
72
1
10
-54.0392162584472
20
6.02500169255319
11
-54.9607837415528
21
6.02499830744682
72
1
10
-54.9607837415528
20
6.02499830744682
11
-54.5
21
9.52500000000001
97
0
75
0
76
1
52
0
41
0.0062
77
0
78
1
53
45
43
0
44
0
45
-0.0139193969876572
46
0.0139193969876572
79
0
47
0
98
1
10
0
20
0
0
HATCH
5
124
100
AcDbEntity
8
SK2
62
256
6
ByLayer
370
13
48
1
60
0
100
AcDbHatch
10
0
20
0
30
0
210
0
220
0
230
1
2
ANSI31
70
0
71
0
91
1
92
5
93
3
72
1
10
-54.5
20
-9.52499999999998
11
-54.9607837415528
21
-6.02500169255316
72
1
10
-54.9607837415528
20
-6.02500169255316
11
-54.0392162584472
21
-6.02499830744679
72
1
10
-54.0392162584472
20
-6.02499830744679
11
-54.5
21
-9.52499999999998
97
0
75
0
76
1
52
0
41
0.0062
77
0
78
1
53
45
43
0
44
0
45
-0.0139193969876572
46
0.0139193969876572
79
0
47
0
98
1
10
0
20
0
0
HATCH
5
12A
100
AcDbEntity
8
2
62
256
6
ByLayer
370
13
48
1
60
0
100
AcDbHatch
10
0
20
0
30
0
210
0
220
0
230
1
2
ANSI31
70
0
71
0
91
1
92
5
93
3
72
1
10
86
20
7.739
11
86.4607837415528
21
4.23900169255319
72
1
10
86.4607837415528
20
4.23900169255319
11
85.5392162584472
21
4.23899830744682
72
1
10
85.5392162584472
20
4.23899830744682
11
86
21
7.739
97
0
75
0
76
1
52
0
41
0.0062
77
0
78
1
53
45
43
0
44
0
45
-0.0139193969876572
46
0.0139193969876572
79
0
47
0
98
1
10
0
20
0
0
HATCH
5
12E
100
AcDbEntity
8
2
62
256
6
ByLayer
370
13
48
1
60
0
100
AcDbHatch
10
0
20
0
30
0
210
0
220
0
230
1
2
ANSI31
70
0
71
0
91
1
92
5
93
3
72
1
10
86
20
-7.73899999999998
11
85.5392162584472
21
-4.23900169255316
72
1
10
85.5392162584472
20
-4.23900169255316
11
86.4607837415528
21
-4.23899830744679
72
1
10
86.4607837415528
20
-4.23899830744679
11
86
21
-7.73899999999998
97
0
75
0
76
1
52
0
41
0.0062
77
0
78
1
53
45
43
0
44
0
45
-0.0139193969876572
46
0.0139193969876572
79
0
47
0
98
1
10
0
20
0
0
HATCH
5
133
100
AcDbEntity
8
SK2
62
256
6
ByLayer
370
13
48
1
60
0
100
AcDbHatch
10
0
20
0
30
0
210
0
220
0
230
1
2
ANSI31
70
0
71
0
91
1
92
5
93
3
72
1
10
84.9983827231877
20
-17.8541597949323
11
88.0515754256928
21
-16.0820638240607
72
1
10
88.0515754256928
20
-16.0820638240607
11
88.4061958339749
21
-16.9326700737196
72
1
10
88.4061958339749
20
-16.9326700737196
11
84.9983827231877
21
-17.8541597949323
97
0
75
0
76
1
52
0
41
0.0062
77
0
78
1
53
45
43
0
44
0
45
-0.0139193969876572
46
0.0139193969876572
79
0
47
0
98
1
10
0
20
0
0
HATCH
5
137
100
AcDbEntity
8
SK2
62
256
6
ByLayer
370
13
48
1
60
0
100
AcDbHatch
10
0
20
0
30
0
210
0
220
0
230
1
2
ANSI31
70
0
71
0
91
1
92
5
93
3
72
1
10
84.9983827231877
20
17.8541597949323
11
88.4061927095191
21
16.9326713763017
72
1
10
88.4061927095191
20
16.9326713763017
11
88.0515785501489
21
16.0820625214788
72
1
10
88.0515785501489
20
16.0820625214788
11
84.9983827231877
21
17.8541597949323
97
0
75
0
76
1
52
0
41
0.0062
77
0
78
1
53
45
43
0
44
0
45
-0.0139193969876572
46
0.0139193969876572
79
0
47
0
98
1
10
0
20
0
0
DIMENSION
5
13B
100
AcDbEntity
8
SK2
62
256
6
ByLayer
370
18
48
1
60
0
100
AcDbDimension
2
_U0
10
78.5
20
-45.952229
30
0
11
15.25
21
-45.952229
31
0
70
32
71
1
72
1
41
1
210
0
220
0
230
1
3
Standard
100
AcDbAlignedDimension
13
-48
23
-9.525
33
0
14
78.5
24
0
34
0
50
0
100
AcDbRotatedDimension
1001
ACAD
1000
DSTYLE
1002
{
1070
   371
1070
    13
1070
   372
1070
    13
1070
     3
1000

1070
   170
1070
     0
1070
   144
1040
1.0
1070
   277
1070
     2
1070
   284
1070
     8
1070
   278
1070
    46
1070
   146
1040
1.166667
1070
   345
1005
16
1070
   347
1005
16
1070
   346
1005
16
1070
   344
1005
0
1070
   343
1005
0
1070
   172
1070
     1
1070
    76
1070
     0
1070
    75
1070
     0
1070
   282
1070
     0
1070
   281
1070
     0
1070
    71
1070
     0
1070
    74
1070
     0
1070
   279
1070
     0
1070
   173
1070
     1
1070
   340
1005
11A
1070
   271
1070
     2
1070
   272
1070
     3
1070
    77
1070
     1
1070
    73
1070
     1
1070
   171
1070
     3
1070
   274
1070
     4
1070
   177
1070
     2
1070
   176
1070
     2
1070
   178
1070
     2
1070
    78
1070
     8
1070
    48
1040
-0.1
1070
    41
1040
3.5
1070
   147
1040
1.5
1070
    42
1040
1.5875
1070
    44
1040
2.0
1070
   140
1040
3.0
1002
}
1001
ACAD_DSTYLE_DIM_LINETYPE
1070
   380
1005
16
1001
ACAD_DSTYLE_DIM_EXT1_LINETYPE
1070
   381
1005
16
1001
ACAD_DSTYLE_DIM_EXT2_LINETYPE
1070
   382
1005
16
0
DIMENSION
5
154
100
AcDbEntity
8
SK2
62
256
6
ByLayer
370
18
48
1
60
0
100
AcDbDimension
2
_U1
10
3
20
-35.952229
30
0
11
40.75
21
-35.952229
31
0
70
32
71
1
72
1
41
1
210
0
220
0
230
1
3
Standard
100
AcDbAlignedDimension
13
78.5
23
0
33
0
14
3
24
-7.739
34
0
50
0
100
AcDbRotatedDimension
1001
ACAD
1000
DSTYLE
1002
{
1070
   371
1070
    13
1070
   372
1070
    13
1070
     3
1000

1070
   170
1070
     0
1070
   144
1040
1.0
1070
   277
1070
     2
1070
   284
1070
     8
1070
   278
1070
    46
1070
   146
1040
1.166667
1070
   345
1005
16
1070
   347
1005
16
1070
   346
1005
16
1070
   344
1005
0
1070
   343
1005
0
1070
   172
1070
     1
1070
    76
1070
     0
1070
    75
1070
     0
1070
   282
1070
     0
1070
   281
1070
     0
1070
    71
1070
     0
1070
    74
1070
     0
1070
   279
1070
     0
1070
   173
1070
     1
1070
   340
1005
11A
1070
   271
1070
     2
1070
   272
1070
     3
1070
    77
1070
     1
1070
    73
1070
     1
1070
   171
1070
     3
1070
   274
1070
     4
1070
   177
1070
     2
1070
   176
1070
     2
1070
   178
1070
     2
1070
    78
1070
     8
1070
    48
1040
-0.1
1070
    41
1040
3.5
1070
   147
1040
1.5
1070
    42
1040
1.5875
1070
    44
1040
2.0
1070
   140
1040
3.0
1002
}
1001
ACAD_DSTYLE_DIM_LINETYPE
1070
   380
1005
16
1001
ACAD_DSTYLE_DIM_EXT1_LINETYPE
1070
   381
1005
16
1001
ACAD_DSTYLE_DIM_EXT2_LINETYPE
1070
   382
1005
16
0
DIMENSION
5
16C
100
AcDbEntity
8
SK2
62
256
6
ByLayer
370
18
48
1
60
0
100
AcDbDimension
2
_U2
10
0
20
-35.952229
30
0
11
-24
21
-35.952229
31
0
70
32
71
1
72
1
41
1
210
0
220
0
230
1
3
Standard
100
AcDbAlignedDimension
13
-48
23
-9.525
33
0
14
0
24
-9.525
34
0
50
0
100
AcDbRotatedDimension
1001
ACAD
1000
DSTYLE
1002
{
1070
   371
1070
    13
1070
   372
1070
    13
1070
     3
1000

1070
   170
1070
     0
1070
   144
1040
1.0
1070
   277
1070
     2
1070
   284
1070
     8
1070
   278
1070
    46
1070
   146
1040
1.166667
1070
   345
1005
16
1070
   347
1005
16
1070
   346
1005
16
1070
   344
1005
0
1070
   343
1005
0
1070
   172
1070
     1
1070
    76
1070
     0
1070
    75
1070
     0
1070
   282
1070
     0
1070
   281
1070
     0
1070
    71
1070
     0
1070
    74
1070
     0
1070
   279
1070
     0
1070
   173
1070
     1
1070
   340
1005
11A
1070
   271
1070
     2
1070
   272
1070
     3
1070
    77
1070
     1
1070
    73
1070
     1
1070
   171
1070
     3
1070
   274
1070
     4
1070
   177
1070
     2
1070
   176
1070
     2
1070
   178
1070
     2
1070
    78
1070
     8
1070
    48
1040
-0.1
1070
    41
1040
3.5
1070
   147
1040
1.5
1070
    42
1040
1.5875
1070
    44
1040
2.0
1070
   140
1040
3.0
1002
}
1001
ACAD_DSTYLE_DIM_LINETYPE
1070
   380
1005
16
1001
ACAD_DSTYLE_DIM_EXT1_LINETYPE
1070
   381
1005
16
1001
ACAD_DSTYLE_DIM_EXT2_LINETYPE
1070
   382
1005
16
0
DIMENSION
5
184
100
AcDbEntity
8
SK2
62
256
6
ByLayer
370
18
48
1
60
0
100
AcDbDimension
2
_U3
10
23
20
32.952229
30
0
11
50.75
21
32.952229
31
0
70
32
71
1
72
1
41
1
210
0
220
0
230
1
3
Standard
100
AcDbAlignedDimension
13
78.5
23
0
33
0
14
23
24
7.739
34
0
50
0
100
AcDbRotatedDimension
1001
ACAD
1000
DSTYLE
1002
{
1070
   371
1070
    13
1070
   372
1070
    13
1070
     3
1000

1070
   170
1070
     0
1070
   144
1040
1.0
1070
   277
1070
     2
1070
   284
1070
     8
1070
   278
1070
    46
1070
   146
1040
1.166667
1070
   345
1005
16
1070
   347
1005
16
1070
   346
1005
16
1070
   344
1005
0
1070
   343
1005
0
1070
   172
1070
     1
1070
    76
1070
     0
1070
    75
1070
     0
1070
   282
1070
     0
1070
   281
1070
     0
1070
    71
1070
     0
1070
    74
1070
     0
1070
   279
1070
     0
1070
   173
1070
     1
1070
   340
1005
11A
1070
   271
1070
     2
1070
   272
1070
     3
1070
    77
1070
     1
1070
    73
1070
     1
1070
   171
1070
     3
1070
   274
1070
     4
1070
   177
1070
     2
1070
   176
1070
     2
1070
   178
1070
     2
1070
    78
1070
     8
1070
    48
1040
-0.1
1070
    41
1040
3.5
1070
   147
1040
1.5
1070
    42
1040
1.5875
1070
    44
1040
2.0
1070
   140
1040
3.0
1002
}
1001
ACAD_DSTYLE_DIM_LINETYPE
1070
   380
1005
16
1001
ACAD_DSTYLE_DIM_EXT1_LINETYPE
1070
   381
1005
16
1001
ACAD_DSTYLE_DIM_EXT2_LINETYPE
1070
   382
1005
16
0
ENDSEC
0
SECTION
2
OBJECTS
0
DICTIONARY
5
20c
330
0
100
AcDbDictionary
280
0
281
1
3
ACAD_GROUP
350
20d
3
ACAD_MLINESTYLE
350
20e
0
DICTIONARY
5
20d
330
0
100
AcDbDictionary
280
0
281
1
0
DICTIONARY
5
20e
330
0
100
AcDbDictionary
280
0
281
1
3
Standard
350
18
0
MLINESTYLE
5
18
330
20e
100
AcDbMlineStyle
2
Standard
70
0
3

62
256
51
90
52
90
71
2
49
-0.5
62
256
6
ByLayer
49
0.5
62
256
6
ByLayer
0
RASTERVARIABLES
5
1fa
330

100
AcDbRasterVariables
90
0
70
1
71
1
72
1
0
ENDSEC
0
EOF
