0
SECTION
2
HEADER
9
$ACADVER
1
AC1015
9
$DWGCODEPAGE
3
ANSI_1252
9
$HANDSEED
5
20c
9
$ANGBASE
50
0
9
$ANGDIR
70
0
9
$ATTMODE
70
1
9
$AUNITS
70
0
9
$AUPREC
70
0
9
$CECOLOR
62
256
9
$CELTSCALE
40
1
9
$CELTYPE
6
ByLayer
9
$CELWEIGHT
370
18
9
$CLAYER
8
0
9
$CMLJUST
70
0
9
$CMLSCALE
40
1
9
$CMLSTYLE
2
Standard
9
$DIMSTYLE
2
Standard
9
$TEXTSIZE
40
0.2
9
$TEXTSTYLE
7
Standard
9
$LUNITS
70
2
9
$LUPREC
70
4
9
$EXTNAMES
290
1
9
$INSUNITS
70
4
9
$LTSCALE
40
1
9
$LWDISPLAY
290
1
9
$PDMODE
70
0
9
$PDSIZE
40
0
9
$PLINEGEN
70
0
0
ENDSEC
0
SECTION
2
CLASSES
0
CLASS
1
RASTERVARIABLES
2
AcDbRasterVariables
3
ISM
90
0
280
0
281
0
0
ENDSEC
0
SECTION
2
TABLES
0
TABLE
2
VPORT
5
202
100
AcDbSymbolTable
0
VPORT
5
1
100
AcDbSymbolTableRecord
100
AcDbViewportTableRecord
2
*Active
70
0
10
0
20
0
11
1
21
1
12
-1
22
1
13
0
23
0
14
0.5
24
0.5
15
10
25
10
16
0
26
0
36
1
17
0
27
0
37
0
0
ENDTAB
0
TABLE
2
LTYPE
5
203
100
AcDbSymbolTable
0
LTYPE
5
14
100
AcDbSymbolTableRecord
100
AcDbLinetypeTableRecord
70
0
2
ByBlock
3

72
65
73
0
40
0
0
LTYPE
5
15
100
AcDbSymbolTableRecord
100
AcDbLinetypeTableRecord
70
0
2
ByLayer
3

72
65
73
0
40
0
0
LTYPE
5
16
100
AcDbSymbolTableRecord
100
AcDbLinetypeTableRecord
70
0
2
Continuous
3
Solid line
72
65
73
0
40
0
0
LTYPE
5
6E
100
AcDbSymbolTableRecord
100
AcDbLinetypeTableRecord
70
0
2
CENTER
3
____ _ ____ _ ____ _ ____
72
65
73
4
40
47.5
49
22
74
0
49
-8.5
74
0
49
8.5
74
0
49
-8.5
74
0
0
LTYPE
5
6F
100
AcDbSymbolTableRecord
100
AcDbLinetypeTableRecord
70
0
2
DASHED
3
__ __ __ __ __ __ __ __ __
72
65
73
2
40
25.72
49
12.86
74
0
49
-12.86
74
0
0
ENDTAB
0
TABLE
2
LAYER
5
204
100
AcDbSymbolTable
0
LAYER
5
10
100
AcDbSymbolTableRecord
100
AcDbLayerTableRecord
2
0
70
0
62
7
6
Continuous
290
1
370
-3
390
0
0
LAYER
5
71
100
AcDbSymbolTableRecord
100
AcDbLayerTableRecord
2
80
70
0
62
-6
6
Continuous
290
1
370
-3
390
0
0
LAYER
5
73
100
AcDbSymbolTableRecord
100
AcDbLayerTableRecord
2
81
70
0
62
-3
6
Continuous
290
1
370
-3
390
0
0
LAYER
5
75
100
AcDbSymbolTableRecord
100
AcDbLayerTableRecord
2
1
70
0
62
4
6
Continuous
290
1
370
-3
390
0
0
LAYER
5
80
100
AcDbSymbolTableRecord
100
AcDbLayerTableRecord
2
4
70
0
62
-2
6
CENTER
290
1
370
-3
390
0
0
LAYER
5
B0
100
AcDbSymbolTableRecord
100
AcDbLayerTableRecord
2
2
70
0
62
7
6
Continuous
290
1
370
-3
390
0
0
LAYER
5
131
100
AcDbSymbolTableRecord
100
AcDbLayerTableRecord
2
Defpoints
70
0
62
7
6
Continuous
290
0
370
-3
390
0
0
LAYER
5
1ee
100
AcDbSymbolTableRecord
100
AcDbLayerTableRecord
2
SK4
70
0
62
2
6
CENTER
290
1
370
-3
390
0
0
LAYER
5
1ef
100
AcDbSymbolTableRecord
100
AcDbLayerTableRecord
2
SK1
70
0
62
4
6
Continuous
290
1
370
-3
390
0
0
LAYER
5
1f0
100
AcDbSymbolTableRecord
100
AcDbLayerTableRecord
2
SK2
70
0
62
7
6
Continuous
290
1
370
-3
390
0
0
LAYER
5
1f1
100
AcDbSymbolTableRecord
100
AcDbLayerTableRecord
2
SK6
70
0
62
5
6
Continuous
290
1
370
-3
390
0
0
ENDTAB
0
TABLE
2
STYLE
5
205
100
AcDbSymbolTable
0
STYLE
5
11
100
AcDbSymbolTableRecord
100
AcDbTextStyleTableRecord
2
Standard
3
txt
70
0
71
0
40
0
41
1
42
0
50
0
0
STYLE
5
10D
100
AcDbSymbolTableRecord
100
AcDbTextStyleTableRecord
2
iso_b_vert
3
simplex.shx
70
0
71
0
40
0
41
1
42
0
50
0
0
STYLE
5
10E
100
AcDbSymbolTableRecord
100
AcDbTextStyleTableRecord
2
DWGDirectTextStyle
3
simplex
70
0
71
0
40
0
41
1
42
0
50
0
0
ENDTAB
0
TABLE
2
DIMSTYLE
5
206
100
AcDbSymbolTable
100
AcDbDimStyleTable
0
DIMSTYLE
105
27
100
AcDbSymbolTableRecord
100
AcDbDimStyleTableRecord
2
Standard
70
0
3
<>
41
0.18
42
0.0625
44
0.18
140
0.18
147
0.09
73
0
74
0
77
1
271
2
275
0
278
52
280
0
340
11
0
ENDTAB
0
TABLE
2
VIEW
5
207
100
AcDbSymbolTable
0
ENDTAB
0
TABLE
2
UCS
5
208
100
AcDbSymbolTable
0
ENDTAB
0
TABLE
2
APPID
5
209
100
AcDbSymbolTable
0
APPID
5
12
100
AcDbSymbolTableRecord
100
AcDbRegAppTableRecord
2
ACAD
70
0
0
APPID
5
12D
100
AcDbSymbolTableRecord
100
AcDbRegAppTableRecord
2
ACAD_DSTYLE_DIMBREAK
70
0
0
APPID
5
1AD
100
AcDbSymbolTableRecord
100
AcDbRegAppTableRecord
2
ACAD_DSTYLE_DIM_LINETYPE
70
0
0
APPID
5
1AE
100
AcDbSymbolTableRecord
100
AcDbRegAppTableRecord
2
ACAD_DSTYLE_DIM_EXT1_LINETYPE
70
0
0
APPID
5
1AF
100
AcDbSymbolTableRecord
100
AcDbRegAppTableRecord
2
ACAD_DSTYLE_DIM_EXT2_LINETYPE
70
0
0
APPID
5
1EA
100
AcDbSymbolTableRecord
100
AcDbRegAppTableRecord
2
ACAD_MLEADERVER
70
0
0
ENDTAB
0
TABLE
2
BLOCK_RECORD
5
20a
100
AcDbSymbolTable
0
BLOCK_RECORD
5
1F
100
AcDbSymbolTableRecord
100
AcDbBlockTableRecord
2
*Model_Space
340
0
70
0
0
BLOCK_RECORD
5
1B
100
AcDbSymbolTableRecord
100
AcDbBlockTableRecord
2
*Paper_Space
340
0
70
0
0
BLOCK_RECORD
5
23
100
AcDbSymbolTableRecord
100
AcDbBlockTableRecord
2
*Paper_Space0
340
0
70
0
0
BLOCK_RECORD
5
132
100
AcDbSymbolTableRecord
100
AcDbBlockTableRecord
2
*D1
340
0
70
0
0
BLOCK_RECORD
5
13E
100
AcDbSymbolTableRecord
100
AcDbBlockTableRecord
2
_U0
340
0
70
0
0
BLOCK_RECORD
5
14A
100
AcDbSymbolTableRecord
100
AcDbBlockTableRecord
2
*D3
340
0
70
0
0
BLOCK_RECORD
5
156
100
AcDbSymbolTableRecord
100
AcDbBlockTableRecord
2
_U1
340
0
70
0
0
BLOCK_RECORD
5
162
100
AcDbSymbolTableRecord
100
AcDbBlockTableRecord
2
*D5
340
0
70
0
0
BLOCK_RECORD
5
16E
100
AcDbSymbolTableRecord
100
AcDbBlockTableRecord
2
_U2
340
0
70
0
0
BLOCK_RECORD
5
17A
100
AcDbSymbolTableRecord
100
AcDbBlockTableRecord
2
*D7
340
0
70
0
0
BLOCK_RECORD
5
186
100
AcDbSymbolTableRecord
100
AcDbBlockTableRecord
2
_U3
340
0
70
0
0
ENDTAB
0
ENDSEC
0
SECTION
2
BLOCKS
0
BLOCK
5
20
100
AcDbEntity
8
0
100
AcDbBlockBegin
2
*Model_Space
70
0
10
0
20
0
30
0
3
*Model_Space
0
ENDBLK
5
21
100
AcDbEntity
8
0
100
AcDbBlockEnd
0
BLOCK
5
1C
100
AcDbEntity
8
0
100
AcDbBlockBegin
2
*Paper_Space
70
0
10
0
20
0
30
0
3
*Paper_Space
0
ENDBLK
5
1D
100
AcDbEntity
8
0
100
AcDbBlockEnd
0
BLOCK
5
24
100
AcDbEntity
8
0
100
AcDbBlockBegin
2
*Paper_Space0
70
0
10
0
20
0
30
0
3
*Paper_Space0
0
ENDBLK
5
25
100
AcDbEntity
8
0
100
AcDbBlockEnd
0
BLOCK
5
133
100
AcDbEntity
8
0
100
AcDbBlockBegin
2
*D1
70
1
10
0
20
0
30
0
3
*D1
0
LINE
5
135
100
AcDbEntity
8
0
62
256
6
ByLayer
370
-2
48
1
60
0
100
AcDbLine
10
-48
20
-9.525
30
0
11
-48
21
-47.952229
31
0
39
0
210
0
220
0
230
1
0
LINE
5
136
100
AcDbEntity
8
0
62
256
6
ByLayer
370
-2
48
1
60
0
100
AcDbLine
10
57
20
-1.5875
30
0
11
57
21
-47.952229
31
0
39
0
210
0
220
0
230
1
0
LINE
5
137
100
AcDbEntity
8
0
62
256
6
ByLayer
370
-2
48
1
60
0
100
AcDbLine
10
-44.5
20
-45.952229
30
0
11
53.5
21
-45.952229
31
0
39
0
210
0
220
0
230
1
0
SOLID
5
138
100
AcDbEntity
8
0
62
256
6
ByLayer
370
-1
48
1
60
0
100
AcDbTrace
10
-44.5
20
-45.368896
30
0
11
-44.5
21
-46.535563
31
0
12
-48
22
-45.952229
32
0
13
-48
23
-45.952229
33
0
39
0
210
0
220
0
230
1
0
SOLID
5
139
100
AcDbEntity
8
0
62
256
6
ByLayer
370
-1
48
1
60
0
100
AcDbTrace
10
53.5
20
-46.535563
30
0
11
53.5
21
-45.368896
31
0
12
57
22
-45.952229
32
0
13
57
23
-45.952229
33
0
39
0
210
0
220
0
230
1
0
MTEXT
5
13A
100
AcDbEntity
8
0
62
256
6
ByLayer
370
18
48
1
60
0
100
AcDbMText
10
4.5
20
-39.952229
30
0
210
0
220
0
230
1
1
\A1;105
40
3
41
0
44
1
50
0
71
5
72
5
7
iso_b_vert
0
POINT
5
13B
100
AcDbEntity
8
Defpoints
62
0
6
ByLayer
370
-1
48
1
60
0
100
AcDbPoint
10
-48
20
-7.9375
30
0
39
0
210
0
220
0
230
1
50
360
0
POINT
5
13C
100
AcDbEntity
8
Defpoints
62
0
6
ByLayer
370
-1
48
1
60
0
100
AcDbPoint
10
57
20
0
30
0
39
0
210
0
220
0
230
1
50
360
0
POINT
5
13D
100
AcDbEntity
8
Defpoints
62
0
6
ByLayer
370
-1
48
1
60
0
100
AcDbPoint
10
57
20
-45.952229
30
0
39
0
210
0
220
0
230
1
50
360
0
ENDBLK
5
134
100
AcDbEntity
8
0
100
AcDbBlockEnd
0
BLOCK
5
145
100
AcDbEntity
8
0
100
AcDbBlockBegin
2
_U0
70
0
10
0
20
0
30
0
3
_U0
0
MTEXT
5
13F
100
AcDbEntity
8
SK2
62
256
6
ByLayer
370
18
48
1
60
0
100
AcDbMText
10
-0.728342
20
-45.067115
30
0
210
0
220
0
230
1
1
\W0.7022;105.00
40
3
41
0
44
1.084337
50
0
71
7
72
5
7
iso_b_vert
0
LINE
5
140
100
AcDbEntity
8
SK2
62
256
6
ByLayer
370
13
48
1
60
0
100
AcDbLine
10
-48
20
-9.525
30
0
11
-48
21
-47.952229
31
0
39
0
210
0
220
0
230
1
0
LINE
5
141
100
AcDbEntity
8
SK2
62
256
6
ByLayer
370
13
48
1
60
0
100
AcDbLine
10
57
20
-1.5875
30
0
11
57
21
-47.952229
31
0
39
0
210
0
220
0
230
1
0
LINE
5
142
100
AcDbEntity
8
SK2
62
256
6
ByLayer
370
13
48
1
60
0
100
AcDbLine
10
-48
20
-45.952229
30
0
11
57
21
-45.952229
31
0
39
0
210
0
220
0
230
1
0
SOLID
5
143
100
AcDbEntity
8
SK2
62
256
6
ByLayer
370
18
48
1
60
0
100
AcDbTrace
10
-48
20
-45.952229
30
0
11
-44.500002
21
-45.491446
31
0
12
-44.499998
22
-46.413013
32
0
13
-44.499998
23
-46.413013
33
0
39
0
210
0
220
0
230
1
0
SOLID
5
144
100
AcDbEntity
8
SK2
62
256
6
ByLayer
370
18
48
1
60
0
100
AcDbTrace
10
57
20
-45.952229
30
0
11
53.500002
21
-46.413013
31
0
12
53.499998
22
-45.491446
32
0
13
53.499998
23
-45.491446
33
0
39
0
210
0
220
0
230
1
0
ENDBLK
5
146
100
AcDbEntity
8
0
100
AcDbBlockEnd
0
BLOCK
5
14B
100
AcDbEntity
8
0
100
AcDbBlockBegin
2
*D3
70
1
10
0
20
0
30
0
3
*D3
0
LINE
5
14D
100
AcDbEntity
8
0
62
256
6
ByLayer
370
-2
48
1
60
0
100
AcDbLine
10
57
20
-1.5875
30
0
11
57
21
-37.952229
31
0
39
0
210
0
220
0
230
1
0
LINE
5
14E
100
AcDbEntity
8
0
62
256
6
ByLayer
370
-2
48
1
60
0
100
AcDbLine
10
3
20
-7.739
30
0
11
3
21
-37.952229
31
0
39
0
210
0
220
0
230
1
0
LINE
5
14F
100
AcDbEntity
8
0
62
256
6
ByLayer
370
-2
48
1
60
0
100
AcDbLine
10
53.5
20
-35.952229
30
0
11
6.5
21
-35.952229
31
0
39
0
210
0
220
0
230
1
0
SOLID
5
150
100
AcDbEntity
8
0
62
256
6
ByLayer
370
-1
48
1
60
0
100
AcDbTrace
10
53.5
20
-36.535563
30
0
11
53.5
21
-35.368896
31
0
12
57
22
-35.952229
32
0
13
57
23
-35.952229
33
0
39
0
210
0
220
0
230
1
0
SOLID
5
151
100
AcDbEntity
8
0
62
256
6
ByLayer
370
-1
48
1
60
0
100
AcDbTrace
10
6.5
20
-35.368896
30
0
11
6.5
21
-36.535563
31
0
12
3
22
-35.952229
32
0
13
3
23
-35.952229
33
0
39
0
210
0
220
0
230
1
0
MTEXT
5
152
100
AcDbEntity
8
0
62
256
6
ByLayer
370
18
48
1
60
0
100
AcDbMText
10
30
20
-29.952229
30
0
210
0
220
0
230
1
1
\A1;54
40
3
41
0
44
1
50
0
71
5
72
5
7
iso_b_vert
0
POINT
5
153
100
AcDbEntity
8
Defpoints
62
0
6
ByLayer
370
-1
48
1
60
0
100
AcDbPoint
10
57
20
0
30
0
39
0
210
0
220
0
230
1
50
360
0
POINT
5
154
100
AcDbEntity
8
Defpoints
62
0
6
ByLayer
370
-1
48
1
60
0
100
AcDbPoint
10
3
20
-6.1515
30
0
39
0
210
0
220
0
230
1
50
360
0
POINT
5
155
100
AcDbEntity
8
Defpoints
62
0
6
ByLayer
370
-1
48
1
60
0
100
AcDbPoint
10
3
20
-35.952229
30
0
39
0
210
0
220
0
230
1
50
360
0
ENDBLK
5
14C
100
AcDbEntity
8
0
100
AcDbBlockEnd
0
BLOCK
5
15D
100
AcDbEntity
8
0
100
AcDbBlockBegin
2
_U1
70
0
10
0
20
0
30
0
3
_U1
0
MTEXT
5
157
100
AcDbEntity
8
SK2
62
256
6
ByLayer
370
18
48
1
60
0
100
AcDbMText
10
25.359687
20
-35.067115
30
0
210
0
220
0
230
1
1
\W0.7694;54.00
40
3
41
0
44
1.084337
50
0
71
7
72
5
7
iso_b_vert
0
LINE
5
158
100
AcDbEntity
8
SK2
62
256
6
ByLayer
370
13
48
1
60
0
100
AcDbLine
10
57
20
-1.5875
30
0
11
57
21
-37.952229
31
0
39
0
210
0
220
0
230
1
0
LINE
5
159
100
AcDbEntity
8
SK2
62
256
6
ByLayer
370
13
48
1
60
0
100
AcDbLine
10
3
20
-7.739
30
0
11
3
21
-37.952229
31
0
39
0
210
0
220
0
230
1
0
LINE
5
15A
100
AcDbEntity
8
SK2
62
256
6
ByLayer
370
13
48
1
60
0
100
AcDbLine
10
57
20
-35.952229
30
0
11
3
21
-35.952229
31
0
39
0
210
0
220
0
230
1
0
SOLID
5
15B
100
AcDbEntity
8
SK2
62
256
6
ByLayer
370
18
48
1
60
0
100
AcDbTrace
10
57
20
-35.952229
30
0
11
53.500002
21
-36.413013
31
0
12
53.499998
22
-35.491446
32
0
13
53.499998
23
-35.491446
33
0
39
0
210
0
220
0
230
1
0
SOLID
5
15C
100
AcDbEntity
8
SK2
62
256
6
ByLayer
370
18
48
1
60
0
100
AcDbTrace
10
3
20
-35.952229
30
0
11
6.499998
21
-35.491446
31
0
12
6.500002
22
-36.413013
32
0
13
6.500002
23
-36.413013
33
0
39
0
210
0
220
0
230
1
0
ENDBLK
5
15E
100
AcDbEntity
8
0
100
AcDbBlockEnd
0
BLOCK
5
163
100
AcDbEntity
8
0
100
AcDbBlockBegin
2
*D5
70
1
10
0
20
0
30
0
3
*D5
0
LINE
5
165
100
AcDbEntity
8
0
62
256
6
ByLayer
370
-2
48
1
60
0
100
AcDbLine
10
-48
20
-9.525
30
0
11
-48
21
-37.952229
31
0
39
0
210
0
220
0
230
1
0
LINE
5
166
100
AcDbEntity
8
0
62
256
6
ByLayer
370
-2
48
1
60
0
100
AcDbLine
10
0
20
-9.525
30
0
11
0
21
-37.952229
31
0
39
0
210
0
220
0
230
1
0
LINE
5
167
100
AcDbEntity
8
0
62
256
6
ByLayer
370
-2
48
1
60
0
100
AcDbLine
10
-44.5
20
-35.952229
30
0
11
-3.5
21
-35.952229
31
0
39
0
210
0
220
0
230
1
0
SOLID
5
168
100
AcDbEntity
8
0
62
256
6
ByLayer
370
-1
48
1
60
0
100
AcDbTrace
10
-44.5
20
-35.368896
30
0
11
-44.5
21
-36.535563
31
0
12
-48
22
-35.952229
32
0
13
-48
23
-35.952229
33
0
39
0
210
0
220
0
230
1
0
SOLID
5
169
100
AcDbEntity
8
0
62
256
6
ByLayer
370
-1
48
1
60
0
100
AcDbTrace
10
-3.5
20
-36.535563
30
0
11
-3.5
21
-35.368896
31
0
12
0
22
-35.952229
32
0
13
0
23
-35.952229
33
0
39
0
210
0
220
0
230
1
0
MTEXT
5
16A
100
AcDbEntity
8
0
62
256
6
ByLayer
370
18
48
1
60
0
100
AcDbMText
10
-24
20
-29.952229
30
0
210
0
220
0
230
1
1
\A1;48
40
3
41
0
44
1
50
0
71
5
72
5
7
iso_b_vert
0
POINT
5
16B
100
AcDbEntity
8
Defpoints
62
0
6
ByLayer
370
-1
48
1
60
0
100
AcDbPoint
10
-48
20
-7.9375
30
0
39
0
210
0
220
0
230
1
50
360
0
POINT
5
16C
100
AcDbEntity
8
Defpoints
62
0
6
ByLayer
370
-1
48
1
60
0
100
AcDbPoint
10
0
20
-7.9375
30
0
39
0
210
0
220
0
230
1
50
360
0
POINT
5
16D
100
AcDbEntity
8
Defpoints
62
0
6
ByLayer
370
-1
48
1
60
0
100
AcDbPoint
10
0
20
-35.952229
30
0
39
0
210
0
220
0
230
1
50
360
0
ENDBLK
5
164
100
AcDbEntity
8
0
100
AcDbBlockEnd
0
BLOCK
5
175
100
AcDbEntity
8
0
100
AcDbBlockBegin
2
_U2
70
0
10
0
20
0
30
0
3
_U2
0
MTEXT
5
16F
100
AcDbEntity
8
SK2
62
256
6
ByLayer
370
18
48
1
60
0
100
AcDbMText
10
-28.640313
20
-35.067115
30
0
210
0
220
0
230
1
1
\W0.7694;48.00
40
3
41
0
44
1.084337
50
0
71
7
72
5
7
iso_b_vert
0
LINE
5
170
100
AcDbEntity
8
SK2
62
256
6
ByLayer
370
13
48
1
60
0
100
AcDbLine
10
-48
20
-9.525
30
0
11
-48
21
-37.952229
31
0
39
0
210
0
220
0
230
1
0
LINE
5
171
100
AcDbEntity
8
SK2
62
256
6
ByLayer
370
13
48
1
60
0
100
AcDbLine
10
0
20
-9.525
30
0
11
0
21
-37.952229
31
0
39
0
210
0
220
0
230
1
0
LINE
5
172
100
AcDbEntity
8
SK2
62
256
6
ByLayer
370
13
48
1
60
0
100
AcDbLine
10
-48
20
-35.952229
30
0
11
0
21
-35.952229
31
0
39
0
210
0
220
0
230
1
0
SOLID
5
173
100
AcDbEntity
8
SK2
62
256
6
ByLayer
370
18
48
1
60
0
100
AcDbTrace
10
-48
20
-35.952229
30
0
11
-44.500002
21
-35.491446
31
0
12
-44.499998
22
-36.413013
32
0
13
-44.499998
23
-36.413013
33
0
39
0
210
0
220
0
230
1
0
SOLID
5
174
100
AcDbEntity
8
SK2
62
256
6
ByLayer
370
18
48
1
60
0
100
AcDbTrace
10
0
20
-35.952229
30
0
11
-3.499998
21
-36.413013
31
0
12
-3.500002
22
-35.491446
32
0
13
-3.500002
23
-35.491446
33
0
39
0
210
0
220
0
230
1
0
ENDBLK
5
176
100
AcDbEntity
8
0
100
AcDbBlockEnd
0
BLOCK
5
17B
100
AcDbEntity
8
0
100
AcDbBlockBegin
2
*D7
70
1
10
0
20
0
30
0
3
*D7
0
LINE
5
17D
100
AcDbEntity
8
0
62
256
6
ByLayer
370
-2
48
1
60
0
100
AcDbLine
10
57
20
1.5875
30
0
11
57
21
34.952229
31
0
39
0
210
0
220
0
230
1
0
LINE
5
17E
100
AcDbEntity
8
0
62
256
6
ByLayer
370
-2
48
1
60
0
100
AcDbLine
10
13
20
7.739
30
0
11
13
21
34.952229
31
0
39
0
210
0
220
0
230
1
0
LINE
5
17F
100
AcDbEntity
8
0
62
256
6
ByLayer
370
-2
48
1
60
0
100
AcDbLine
10
53.5
20
32.952229
30
0
11
16.5
21
32.952229
31
0
39
0
210
0
220
0
230
1
0
SOLID
5
180
100
AcDbEntity
8
0
62
256
6
ByLayer
370
-1
48
1
60
0
100
AcDbTrace
10
53.5
20
32.368896
30
0
11
53.5
21
33.535563
31
0
12
57
22
32.952229
32
0
13
57
23
32.952229
33
0
39
0
210
0
220
0
230
1
0
SOLID
5
181
100
AcDbEntity
8
0
62
256
6
ByLayer
370
-1
48
1
60
0
100
AcDbTrace
10
16.5
20
33.535563
30
0
11
16.5
21
32.368896
31
0
12
13
22
32.952229
32
0
13
13
23
32.952229
33
0
39
0
210
0
220
0
230
1
0
MTEXT
5
182
100
AcDbEntity
8
0
62
256
6
ByLayer
370
18
48
1
60
0
100
AcDbMText
10
35
20
38.952229
30
0
210
0
220
0
230
1
1
\A1;44
40
3
41
0
44
1
50
0
71
5
72
5
7
iso_b_vert
0
POINT
5
183
100
AcDbEntity
8
Defpoints
62
0
6
ByLayer
370
-1
48
1
60
0
100
AcDbPoint
10
57
20
0
30
0
39
0
210
0
220
0
230
1
50
360
0
POINT
5
184
100
AcDbEntity
8
Defpoints
62
0
6
ByLayer
370
-1
48
1
60
0
100
AcDbPoint
10
13
20
6.1515
30
0
39
0
210
0
220
0
230
1
50
360
0
POINT
5
185
100
AcDbEntity
8
Defpoints
62
0
6
ByLayer
370
-1
48
1
60
0
100
AcDbPoint
10
13
20
32.952229
30
0
39
0
210
0
220
0
230
1
50
360
0
ENDBLK
5
17C
100
AcDbEntity
8
0
100
AcDbBlockEnd
0
BLOCK
5
18D
100
AcDbEntity
8
0
100
AcDbBlockBegin
2
_U3
70
0
10
0
20
0
30
0
3
_U3
0
MTEXT
5
187
100
AcDbEntity
8
SK2
62
256
6
ByLayer
370
18
48
1
60
0
100
AcDbMText
10
30.201744
20
33.837344
30
0
210
0
220
0
230
1
1
\W0.7958;44.00
40
3
41
0
44
1.084337
50
0
71
7
72
5
7
iso_b_vert
0
LINE
5
188
100
AcDbEntity
8
SK2
62
256
6
ByLayer
370
13
48
1
60
0
100
AcDbLine
10
57
20
1.5875
30
0
11
57
21
34.952229
31
0
39
0
210
0
220
0
230
1
0
LINE
5
189
100
AcDbEntity
8
SK2
62
256
6
ByLayer
370
13
48
1
60
0
100
AcDbLine
10
13
20
7.739
30
0
11
13
21
34.952229
31
0
39
0
210
0
220
0
230
1
0
LINE
5
18A
100
AcDbEntity
8
SK2
62
256
6
ByLayer
370
13
48
1
60
0
100
AcDbLine
10
57
20
32.952229
30
0
11
13
21
32.952229
31
0
39
0
210
0
220
0
230
1
0
SOLID
5
18B
100
AcDbEntity
8
SK2
62
256
6
ByLayer
370
18
48
1
60
0
100
AcDbTrace
10
57
20
32.952229
30
0
11
53.500002
21
32.491446
31
0
12
53.499998
22
33.413013
32
0
13
53.499998
23
33.413013
33
0
39
0
210
0
220
0
230
1
0
SOLID
5
18C
100
AcDbEntity
8
SK2
62
256
6
ByLayer
370
18
48
1
60
0
100
AcDbTrace
10
13
20
32.952229
30
0
11
16.499998
21
33.413013
31
0
12
16.500002
22
32.491446
32
0
13
16.500002
23
32.491446
33
0
39
0
210
0
220
0
230
1
0
ENDBLK
5
18E
100
AcDbEntity
8
0
100
AcDbBlockEnd
0
ENDSEC
0
SECTION
2
ENTITIES
0
ARC
5
C1
100
AcDbEntity
8
SK2
62
256
6
ByLayer
370
13
48
1
60
0
100
AcDbCircle
39
0
10
57
20
0
30
0
40
19
210
0
220
0
230
1
100
AcDbArc
50
290
51
70
0
ELLIPSE
5
C2
100
AcDbEntity
8
SK1
62
256
6
ByLayer
370
18
48
1
60
0
100
AcDbEllipse
10
-15.511927
20
0
30
0
11
8.51192663582145
21
-9.64486143630667E-15
31
0
210
0
220
0
230
1
40
0.932515
41
-0.661655103696894
42
0.661655103696897
0
ELLIPSE
5
C3
100
AcDbEntity
8
SK1
62
256
6
ByLayer
370
18
48
1
60
0
100
AcDbEllipse
10
-33.598162
20
0
30
0
11
-1.45804694001977E-15
21
-7.93749999999999
31
0
210
0
220
0
230
1
40
0.932515
41
-2.23245143049182
42
-0.909141223097976
0
POINT
5
70
100
AcDbEntity
8
80
62
256
6
ByLayer
370
18
48
1
60
0
100
AcDbPoint
10
0
20
0
30
0
39
0
210
0
220
0
230
1
50
360
0
POINT
5
72
100
AcDbEntity
8
81
62
256
6
ByLayer
370
18
48
1
60
0
100
AcDbPoint
10
57
20
0
30
0
39
0
210
0
220
0
230
1
50
360
0
POINT
5
74
100
AcDbEntity
8
1
62
256
6
ByLayer
370
18
48
1
60
1
100
AcDbPoint
10
-48
20
-7.9375
30
0
39
0
210
0
220
0
230
1
50
360
0
POINT
5
76
100
AcDbEntity
8
1
62
256
6
ByLayer
370
18
48
1
60
1
100
AcDbPoint
10
57
20
0
30
0
39
0
210
0
220
0
230
1
50
360
0
POINT
5
77
100
AcDbEntity
8
1
62
256
6
ByLayer
370
18
48
1
60
1
100
AcDbPoint
10
57
20
0
30
0
39
0
210
0
220
0
230
1
50
360
0
POINT
5
78
100
AcDbEntity
8
1
62
256
6
ByLayer
370
18
48
1
60
1
100
AcDbPoint
10
3
20
-6.1515
30
0
39
0
210
0
220
0
230
1
50
360
0
POINT
5
79
100
AcDbEntity
8
1
62
256
6
ByLayer
370
18
48
1
60
1
100
AcDbPoint
10
-48
20
-7.9375
30
0
39
0
210
0
220
0
230
1
50
360
0
POINT
5
7A
100
AcDbEntity
8
1
62
256
6
ByLayer
370
18
48
1
60
1
100
AcDbPoint
10
0
20
-7.9375
30
0
39
0
210
0
220
0
230
1
50
360
0
POINT
5
7B
100
AcDbEntity
8
1
62
256
6
ByLayer
370
18
48
1
60
1
100
AcDbPoint
10
57
20
0
30
0
39
0
210
0
220
0
230
1
50
360
0
POINT
5
7C
100
AcDbEntity
8
1
62
256
6
ByLayer
370
18
48
1
60
1
100
AcDbPoint
10
13
20
6.1515
30
0
39
0
210
0
220
0
230
1
50
360
0
SPLINE
5
C4
100
AcDbEntity
8
1
62
256
6
ByLayer
370
18
48
1
60
0
100
AcDbSpline
70
4
71
3
72
16
73
12
40
0
40
0
40
0
40
0
40
0.154774811850845
40
0.154774811850845
40
0.309549623701691
40
0.309549623701691
40
0.619099247403382
40
0.619099247403382
40
0.928648871105073
40
0.928648871105073
40
1
40
1
40
1
40
1
41
1
10
47.6
20
-6.06024905141544
30
0
41
1
10
47.7494171551641
20
-6.06956364733722
30
0
41
1
10
47.8987431861498
20
-6.07818031462969
30
0
41
1
10
48.1973357902459
20
-6.09395931971073
30
0
41
1
10
48.3466242661252
20
-6.10111436292851
30
0
41
1
10
48.7944653286841
20
-6.12040146765946
30
0
41
1
10
49.0929826029286
20
-6.13036372305334
30
0
41
1
10
49.6898059002456
20
-6.14458404857902
30
0
41
1
10
49.9881143199356
20
-6.14883965138344
30
0
41
1
10
50.3550273757617
20
-6.15054900874205
30
0
41
1
10
50.4237481786027
20
-6.15071686127172
30
0
41
1
10
50.4924594234711
20
-6.15073162525843
30
0
0
SPLINE
5
C5
100
AcDbEntity
8
1
62
256
6
ByLayer
370
18
48
1
60
0
100
AcDbSpline
70
4
71
3
72
96
73
92
40
0
40
0
40
0
40
0
40
0.0312499999999999
40
0.0312499999999999
40
0.0624999999999998
40
0.0624999999999998
40
0.0781250000000003
40
0.0781250000000003
40
0.0937500000000008
40
0.0937500000000008
40
0.125000000000002
40
0.125000000000002
40
0.156250000000003
40
0.156250000000003
40
0.171875000000004
40
0.171875000000004
40
0.187500000000005
40
0.187500000000005
40
0.203125000000006
40
0.203125000000006
40
0.218750000000007
40
0.218750000000007
40
0.234375000000008
40
0.234375000000008
40
0.250000000000009
40
0.250000000000009
40
0.26562500000001
40
0.26562500000001
40
0.281250000000011
40
0.281250000000011
40
0.312500000000012
40
0.312500000000012
40
0.343750000000013
40
0.343750000000013
40
0.359375000000013
40
0.359375000000013
40
0.375000000000013
40
0.375000000000013
40
0.406250000000012
40
0.406250000000012
40
0.437500000000011
40
0.437500000000011
40
0.45312500000001
40
0.45312500000001
40
0.468750000000008
40
0.468750000000008
40
0.484375000000007
40
0.484375000000007
40
0.500000000000006
40
0.500000000000006
40
0.531250000000004
40
0.531250000000004
40
0.546875000000003
40
0.546875000000003
40
0.562500000000002
40
0.562500000000002
40
0.578125000000002
40
0.578125000000002
40
0.593750000000001
40
0.593750000000001
40
0.625000000000001
40
0.625000000000001
40
0.640625000000001
40
0.640625000000001
40
0.656250000000001
40
0.656250000000001
40
0.687500000000001
40
0.687500000000001
40
0.718750000000001
40
0.718750000000001
40
0.734375000000001
40
0.734375000000001
40
0.750000000000002
40
0.750000000000002
40
0.781250000000002
40
0.781250000000002
40
0.812500000000002
40
0.812500000000002
40
0.828125000000002
40
0.828125000000002
40
0.843750000000002
40
0.843750000000002
40
0.875000000000001
40
0.875000000000001
40
0.906250000000001
40
0.906250000000001
40
0.921875000000001
40
0.921875000000001
40
0.937500000000001
40
0.937500000000001
40
1
40
1
40
1
40
1
41
1
10
15.1657872680145
20
3.0449135498836
30
0
41
1
10
15.5039037910085
20
2.93864563295762
30
0
41
1
10
15.8419579262888
20
2.83112623346881
30
0
41
1
10
16.5177862881881
20
2.61324272436093
30
0
41
1
10
16.855559437256
20
2.50287547104884
30
0
41
1
10
17.3619165927157
20
2.33495515419713
30
0
41
1
10
17.5306522213091
20
2.27858730734369
30
0
41
1
10
17.8680106049247
20
2.16502649514382
30
0
41
1
10
18.0366181718413
20
2.10779337365636
30
0
41
1
10
18.5423885521723
20
1.93515721503417
30
0
41
1
10
18.8796909144398
20
1.8193263720616
30
0
41
1
10
19.5544487884302
20
1.58597851418102
30
0
41
1
10
19.8918789153678
20
1.46839331229131
30
0
41
1
10
20.398035028318
20
1.29046511011759
30
0
41
1
10
20.5667635399329
20
1.23091907267474
30
0
41
1
10
20.9041692530493
20
1.11115380080898
30
0
41
1
10
21.0728401936424
20
1.05091626421276
30
0
41
1
10
21.4103013560817
20
0.930234989986729
30
0
41
1
10
21.5791098149388
20
0.869842572962028
30
0
41
1
10
21.9169213049627
20
0.749068609966798
30
0
41
1
10
22.0858999155642
20
0.688618791082291
30
0
41
1
10
22.4239774893837
20
0.5675233724929
30
0
41
1
10
22.5930785450307
20
0.506883639890646
30
0
41
1
10
22.9313943247543
20
0.3853881614111
30
0
41
1
10
23.1006006046586
20
0.324534275108903
30
0
41
1
10
23.4388483030645
20
0.202664009182456
30
0
41
1
10
23.6079223531161
20
0.141635866713415
30
0
41
1
10
23.9459581281167
20
0.0193588105848903
30
0
41
1
10
24.1148996328683
20
-0.0419462066666654
30
0
41
1
10
24.6218068732487
20
-0.225493356134194
30
0
41
1
10
24.9599032768079
20
-0.347235377365536
30
0
41
1
10
25.6362160505463
20
-0.590024682465014
30
0
41
1
10
25.9744239350605
20
-0.711095287571794
30
0
41
1
10
26.481764054385
20
-0.892349023891086
30
0
41
1
10
26.6508905586115
20
-0.95271842091114
30
0
41
1
10
26.9890474515591
20
-1.07348545056857
30
0
41
1
10
27.1580523221922
20
-1.1338159512452
30
0
41
1
10
27.6651255665824
20
-1.31388350247832
30
0
41
1
10
28.0033168633312
20
-1.43252744975621
30
0
41
1
10
28.6796199026312
20
-1.66803271017221
30
0
41
1
10
29.0177643578531
20
-1.78480423722198
30
0
41
1
10
29.5248887248979
20
-1.95869800007284
30
0
41
1
10
29.6939147529174
20
-2.01645177956217
30
0
41
1
10
30.0319242170419
20
-2.13156358466054
30
0
41
1
10
30.2009085165989
20
-2.18891843517147
30
0
41
1
10
30.5390621318225
20
-2.30263896104583
30
0
41
1
10
30.7082393650882
20
-2.35906605655805
30
0
41
1
10
31.0464595535973
20
-2.47102214355826
30
0
41
1
10
31.2155264044229
20
-2.52655937300847
30
0
41
1
10
31.7225648489694
20
-2.69194240405974
30
0
41
1
10
32.0603704929359
20
-2.80057130659807
30
0
41
1
10
32.5666987387231
20
-2.96119275477307
30
0
41
1
10
32.7353888856205
20
-3.0144013437766
30
0
41
1
10
33.0726323750432
20
-3.12005720440214
30
0
41
1
10
33.2412034418465
20
-3.17246011756885
30
0
41
1
10
33.5784283896308
20
-3.27598013235033
30
0
41
1
10
33.7470801175486
20
-3.32710463977637
30
0
41
1
10
34.0843731963695
20
-3.42830329790635
30
0
41
1
10
34.2530210402155
20
-3.47836165376711
30
0
41
1
10
34.7589516014164
20
-3.62695669565724
30
0
41
1
10
35.0962225092147
20
-3.72391357061542
30
0
41
1
10
35.6020232235624
20
-3.86634426840743
30
0
41
1
10
35.7706015576758
20
-3.91332882726681
30
0
41
1
10
36.1077322158914
20
-4.00626395539751
30
0
41
1
10
36.2763164684283
20
-4.0521453660173
30
0
41
1
10
36.7823332965673
20
-4.18760504225034
30
0
41
1
10
37.1199483066771
20
-4.27517806476922
30
0
41
1
10
37.7955333927382
20
-4.44526653595921
30
0
41
1
10
38.1335141756479
20
-4.52775970405054
30
0
41
1
10
38.6406827693069
20
-4.64779532351582
30
0
41
1
10
38.8097762816317
20
-4.68725327801781
30
0
41
1
10
39.1478528646148
20
-4.76474550260161
30
0
41
1
10
39.3168620598703
20
-4.80275672141463
30
0
41
1
10
39.8240226132868
20
-4.91423081523354
30
0
41
1
10
40.1621732768912
20
-4.98537500009485
30
0
41
1
10
40.8383503051788
20
-5.12172049837798
30
0
41
1
10
41.1763942977428
20
-5.18689193930305
30
0
41
1
10
41.6833118682408
20
-5.28022159627673
30
0
41
1
10
41.8522455270596
20
-5.3106112448362
30
0
41
1
10
42.1901341924898
20
-5.36980075513512
30
0
41
1
10
42.3591311125232
20
-5.39854501372707
30
0
41
1
10
42.866328898052
20
-5.48218436429246
30
0
41
1
10
43.2047998009736
20
-5.53455485658563
30
0
41
1
10
43.8813967416386
20
-5.63264666938912
30
0
41
1
10
44.2195728710542
20
-5.6783393171639
30
0
41
1
10
44.7264850981286
20
-5.74197089846749
30
0
41
1
10
44.8953787643803
20
-5.76237678973433
30
0
41
1
10
45.2331960873536
20
-5.80139931101382
30
0
41
1
10
45.4021379402507
20
-5.82000165481077
30
0
41
1
10
46.2471295901934
20
-5.90842541135319
30
0
41
1
10
46.9235632631703
20
-5.96496009071495
30
0
41
1
10
47.6
20
-6.00742792072688
30
0
0
SPLINE
5
C6
100
AcDbEntity
8
1
62
256
6
ByLayer
370
18
48
1
60
0
100
AcDbSpline
70
4
71
3
72
80
73
76
40
0
40
0
40
0
40
0
40
0.0167788878517357
40
0.0167788878517357
40
0.0381532598549579
40
0.0381532598549579
40
0.0595276318581801
40
0.0595276318581801
40
0.0809020038614024
40
0.0809020038614024
40
0.102276375864625
40
0.102276375864625
40
0.145025119871069
40
0.145025119871069
40
0.187773863877513
40
0.187773863877513
40
0.209148235880735
40
0.209148235880735
40
0.230522607883957
40
0.230522607883957
40
0.273271351890401
40
0.273271351890401
40
0.294645723893624
40
0.294645723893624
40
0.316020095896847
40
0.316020095896847
40
0.33739446790007
40
0.33739446790007
40
0.358768839903293
40
0.358768839903293
40
0.380143211906516
40
0.380143211906516
40
0.401517583909739
40
0.401517583909739
40
0.422891955912962
40
0.422891955912962
40
0.444266327916185
40
0.444266327916185
40
0.487015071922632
40
0.487015071922632
40
0.508389443925856
40
0.508389443925856
40
0.529763815929079
40
0.529763815929079
40
0.551138187932303
40
0.551138187932303
40
0.572512559935526
40
0.572512559935526
40
0.615261303941972
40
0.615261303941972
40
0.636635675945196
40
0.636635675945196
40
0.658010047948419
40
0.658010047948419
40
0.679384419951643
40
0.679384419951643
40
0.700758791954867
40
0.700758791954867
40
0.743507535961313
40
0.743507535961313
40
0.764881907964536
40
0.764881907964536
40
0.78625627996776
40
0.78625627996776
40
0.807630651970983
40
0.807630651970983
40
0.829005023974207
40
0.829005023974207
40
0.871753767980656
40
0.871753767980656
40
0.89312813998388
40
0.89312813998388
40
0.914502511987103
40
0.914502511987103
40
1
40
1
40
1
40
1
41
1
10
38.1507591859384
20
-4.52776917475254
30
0
41
1
10
38.0069670519567
20
-4.56249727909469
30
0
41
1
10
37.8631708107057
20
-4.59672128449031
30
0
41
1
10
37.5361900795063
20
-4.67340876208849
30
0
41
1
10
37.3530061029971
20
-4.7155642619519
30
0
41
1
10
36.9866716263804
20
-4.79831914644163
30
0
41
1
10
36.8035377898879
20
-4.83894513623181
30
0
41
1
10
36.4371632534537
20
-4.91839249240923
30
0
41
1
10
36.2539261200038
20
-4.95722249593527
30
0
41
1
10
35.8874139636521
20
-5.03319567253362
30
0
41
1
10
35.7042195658292
20
-5.07036101025335
30
0
41
1
10
35.1548028238988
20
-5.17890996576875
30
0
41
1
10
34.7886431815867
20
-5.24738918049493
30
0
41
1
10
34.0568149834644
20
-5.37702804697588
30
0
41
1
10
33.6911459570239
20
-5.43817815599101
30
0
41
1
10
33.1429748032583
20
-5.52429633529934
30
0
41
1
10
32.9602630540187
20
-5.55201360597579
30
0
41
1
10
32.5947902442884
20
-5.6053985469502
30
0
41
1
10
32.4120398970015
20
-5.63107946593786
30
0
41
1
10
31.8637574931595
20
-5.70511477671854
30
0
41
1
10
31.4981791620081
20
-5.75045513756524
30
0
41
1
10
30.9498949146114
20
-5.81257335044614
30
0
41
1
10
30.7671539428884
20
-5.83229835937902
30
0
41
1
10
30.4015418301892
20
-5.86963999656933
30
0
41
1
10
30.2186871965665
20
-5.88727305518654
30
0
41
1
10
29.8529443269903
20
-5.92050713574517
30
0
41
1
10
29.6700680718627
20
-5.93611287404732
30
0
41
1
10
29.3041059912868
20
-5.9651693855304
30
0
41
1
10
29.1210352182383
20
-5.97863299482415
30
0
41
1
10
28.7547556152734
20
-6.00346206148271
30
0
41
1
10
28.5715489824297
20
-6.01482825951859
30
0
41
1
10
28.2050123679117
20
-6.03546186574991
30
0
41
1
10
28.0217020353444
20
-6.04472742956378
30
0
41
1
10
27.6552736710682
20
-6.0611353408251
30
0
41
1
10
27.4721318383515
20
-6.06828285349255
30
0
41
1
10
27.1059017476132
20
-6.08042623194481
30
0
41
1
10
26.9227787855048
20
-6.0854142338431
30
0
41
1
10
26.3733451946788
20
-6.09714362771624
30
0
41
1
10
26.0069838125194
20
-6.10066061988641
30
0
41
1
10
25.4574058074039
20
-6.09951716517435
30
0
41
1
10
25.2742111834237
20
-6.09806507261916
30
0
41
1
10
24.9078522023012
20
-6.09300152941077
30
0
41
1
10
24.7246690270838
20
-6.08938964669369
30
0
41
1
10
24.3581689322343
20
-6.08002534157191
30
0
41
1
10
24.1748797425611
20
-6.07427192243748
30
0
41
1
10
23.8084802893971
20
-6.06060763141082
30
0
41
1
10
23.6253298410737
20
-6.05269695273876
30
0
41
1
10
23.0757779366084
20
-6.02582872690459
30
0
41
1
10
22.7093760426266
20
-6.00371653788361
30
0
41
1
10
22.1598778628064
20
-5.96419335724678
30
0
41
1
10
21.9767249421383
20
-5.94995996910765
30
0
41
1
10
21.6104541953201
20
-5.91935707473334
30
0
41
1
10
21.4273539202221
20
-5.90297392913456
30
0
41
1
10
21.0610726516532
20
-5.86813781738616
30
0
41
1
10
20.8778716667402
20
-5.84970174431598
30
0
41
1
10
20.5113515336051
20
-5.81080532915999
30
0
41
1
10
20.3280391950399
20
-5.79034487817796
30
0
41
1
10
19.7784175881219
20
-5.72598353411618
30
0
41
1
10
19.4122611138529
20
-5.67909689935976
30
0
41
1
10
18.8635625862914
20
-5.60262711139282
30
0
41
1
10
18.6807143242784
20
-5.57615261174158
30
0
41
1
10
18.3150580242266
20
-5.52131241588276
30
0
41
1
10
18.1322688011933
20
-5.49292605971013
30
0
41
1
10
17.7668102553148
20
-5.43416512648884
30
0
41
1
10
17.5841046492623
20
-5.40383400262192
30
0
41
1
10
17.2186397090081
20
-5.34141382522969
30
0
41
1
10
17.0358980792813
20
-5.30930311352094
30
0
41
1
10
16.4877066699081
20
-5.21019512641354
30
0
41
1
10
16.1222831861358
20
-5.14043464726026
30
0
41
1
10
15.5742558760298
20
-5.03013451012987
30
0
41
1
10
15.3916146814861
20
-4.99239503489193
30
0
41
1
10
15.0262093324599
20
-4.91527312093447
30
0
41
1
10
14.8434464894219
20
-4.87589109268259
30
0
41
1
10
13.9293440512867
20
-4.67488213065141
30
0
41
1
10
13.1971285204266
20
-4.50107408403002
30
0
41
1
10
12.464326859662
20
-4.31332572981762
30
0
0
SPLINE
5
C7
100
AcDbEntity
8
1
62
256
6
ByLayer
370
18
48
1
60
0
100
AcDbSpline
70
4
71
3
72
30
73
26
40
0
40
0
40
0
40
0
40
0.0625
40
0.0625
40
0.125
40
0.125
40
0.1875
40
0.1875
40
0.25
40
0.25
40
0.375
40
0.375
40
0.5
40
0.5
40
0.625
40
0.625
40
0.75
40
0.75
40
0.8125
40
0.8125
40
0.875
40
0.875
40
0.9375
40
0.9375
40
1
40
1
40
1
40
1
41
1
10
54.7610371038819
20
-0.877653864474553
30
0
41
1
10
54.6116115410358
20
-0.823759743889156
30
0
41
1
10
54.4622348943907
20
-0.769779640782616
30
0
41
1
10
54.1635347540537
20
-0.661772161247683
30
0
41
1
10
54.0142199171164
20
-0.60772049492104
30
0
41
1
10
53.7156955714936
20
-0.499423841890661
30
0
41
1
10
53.5664963524107
20
-0.445150252854802
30
0
41
1
10
53.2681050432684
20
-0.336683809511243
30
0
41
1
10
53.1189107173578
20
-0.282497066159777
30
0
41
1
10
52.6713643719295
20
-0.119984242813871
30
0
41
1
10
52.3730604909845
20
-0.0116733956365067
30
0
41
1
10
51.7766507555167
20
0.205101130183948
30
0
41
1
10
51.4785564355531
20
0.313596532611285
30
0
41
1
10
50.8825173054344
20
0.530601567058454
30
0
41
1
10
50.5844320441106
20
0.638723216487108
30
0
41
1
10
49.9880265852063
20
0.85392321475382
30
0
41
1
10
49.6897221505848
20
0.961045242565433
30
0
41
1
10
49.2421689823999
20
1.12116530606912
30
0
41
1
10
49.0929705853525
20
1.17445048865497
30
0
41
1
10
48.7945655142243
20
1.28089790622945
30
0
41
1
10
48.6453561699671
20
1.33405272768272
30
0
41
1
10
48.3468203203767
20
1.43994135347168
30
0
41
1
10
48.1975024319644
20
1.49269881088907
30
0
41
1
10
47.8987983337556
20
1.59792618182652
30
0
41
1
10
47.749423439909
20
1.65042687208802
30
0
41
1
10
47.6
20
1.70274431930528
30
0
0
SPLINE
5
C8
100
AcDbEntity
8
1
62
256
6
ByLayer
370
18
48
1
60
0
100
AcDbSpline
70
4
71
3
72
81
73
77
40
0
40
0
40
0
40
0
40
0.062499999999997
40
0.062499999999997
40
0.124999999999994
40
0.124999999999994
40
0.140624999999994
40
0.140624999999994
40
0.156249999999994
40
0.156249999999994
40
0.187499999999994
40
0.187499999999994
40
0.249999999999993
40
0.249999999999993
40
0.281249999999993
40
0.281249999999993
40
0.296874999999993
40
0.296874999999993
40
0.312499999999993
40
0.312499999999993
40
0.343749999999993
40
0.343749999999993
40
0.374999999999993
40
0.374999999999993
40
0.406249999999993
40
0.406249999999993
40
0.437499999999993
40
0.437499999999993
40
0.453124999999994
40
0.453124999999994
40
0.468749999999994
40
0.468749999999994
40
0.499999999999995
40
0.499999999999995
40
0.531249999999996
40
0.531249999999996
40
0.539062499999996
40
0.539062499999996
40
0.546874999999997
40
0.562499999999998
40
0.562499999999998
40
0.593750000000001
40
0.593750000000001
40
0.625000000000004
40
0.625000000000004
40
0.640625000000005
40
0.640625000000005
40
0.656250000000005
40
0.656250000000005
40
0.687500000000007
40
0.687500000000007
40
0.718750000000009
40
0.718750000000009
40
0.726562500000009
40
0.726562500000009
40
0.734375000000009
40
0.734375000000009
40
0.750000000000009
40
0.750000000000009
40
0.781250000000008
40
0.781250000000008
40
0.812500000000008
40
0.843750000000007
40
0.843750000000007
40
0.851562500000007
40
0.851562500000007
40
0.859375000000008
40
0.875000000000007
40
0.875000000000007
40
0.937500000000003
40
0.937500000000003
40
0.968750000000001
40
0.968750000000001
40
0.984375000000001
40
0.984375000000001
40
1
40
1
40
1
40
1
41
1
10
54.7610371038872
20
5.95617837698387
30
0
41
1
10
54.8378775854508
20
5.76564700207072
30
0
41
1
10
54.9149691422243
20
5.56942967452886
30
0
41
1
10
55.0700984513868
20
5.16717269847047
30
0
41
1
10
55.1481371748488
20
4.96112364513078
30
0
41
1
10
55.2463618026304
20
4.69786802035452
30
0
41
1
10
55.2660396911887
20
4.64493048488541
30
0
41
1
10
55.3054597005482
20
4.53848729492319
30
0
41
1
10
55.3252093519587
20
4.48496049950276
30
0
41
1
10
55.384197637074
20
4.32449129344337
30
0
41
1
10
55.4232944160908
20
4.2173452097046
30
0
41
1
10
55.5398503076325
20
3.89540356972063
30
0
41
1
10
55.6166143947153
20
3.68011978009991
30
0
41
1
10
55.7295950817792
20
3.35597239293588
30
0
41
1
10
55.7668861192917
20
3.24771641773623
30
0
41
1
10
55.8220611645091
20
3.08494967853969
30
0
41
1
10
55.8403249291498
20
3.03062992962407
30
0
41
1
10
55.8765470456197
20
2.92184445023892
30
0
41
1
10
55.894512857654
20
2.86735444908447
30
0
41
1
10
55.947601825105
20
2.70442894412133
30
0
41
1
10
55.9820119789088
20
2.59628244167274
30
0
41
1
10
56.0482399356785
20
2.38075029888955
30
0
41
1
10
56.0800619116375
20
2.27336549517094
30
0
41
1
10
56.1401486537433
20
2.05913186956042
30
0
41
1
10
56.1684185410178
20
1.95228342988219
30
0
41
1
10
56.2199488206992
20
1.7388322683891
30
0
41
1
10
56.2432117547696
20
1.63222854163871
30
0
41
1
10
56.2727954860793
20
1.47224296841253
30
0
41
1
10
56.281773684277
20
1.41881945581037
30
0
41
1
10
56.2974980923251
20
1.31295399009855
30
0
41
1
10
56.3042669904285
20
1.26039961176164
30
0
41
1
10
56.3209637222302
20
1.10391585151518
30
0
41
1
10
56.327246060857
20
1.00116049417795
30
0
41
1
10
56.328939202707
20
0.799151154837375
30
0
41
1
10
56.3243401646895
20
0.699898866329647
30
0
41
1
10
56.3118390186994
20
0.578345551269337
30
0
41
1
10
56.3090013758035
20
0.554137953075184
30
0
41
1
10
56.3026841958688
20
0.506083719635342
30
0
41
1
10
56.2922775735281
20
0.434769388024847
30
0
41
1
10
56.2792397780739
20
0.365727699563223
30
0
41
1
10
56.2500939572664
20
0.230600803955383
30
0
41
1
10
56.2265866077905
20
0.144452696570482
30
0
41
1
10
56.1735390872944
20
-0.0202800022644567
30
0
41
1
10
56.1440033804231
20
-0.0988668280469938
30
0
41
1
10
56.0963530136316
20
-0.211162237798646
30
0
41
1
10
56.0798851626651
20
-0.247698410259545
30
0
41
1
10
56.0462823532438
20
-0.318267454554984
30
0
41
1
10
56.0291137742506
20
-0.352384759090484
30
0
41
1
10
55.9767062825758
20
-0.451340296971381
30
0
41
1
10
55.9405775502072
20
-0.512791599916767
30
0
41
1
10
55.8666406836832
20
-0.626959745451671
30
0
41
1
10
55.8288275479616
20
-0.679674943580238
30
0
41
1
10
55.7807391983289
20
-0.740119434513304
30
0
41
1
10
55.7710798202171
20
-0.751935217645439
30
0
41
1
10
55.7516812454644
20
-0.775018318478175
30
0
41
1
10
55.7419343786722
20
-0.786293694240754
30
0
41
1
10
55.7127019410997
20
-0.819156686129389
30
0
41
1
10
55.6931906618306
20
-0.839824409373193
30
0
41
1
10
55.6346184017526
20
-0.898188706180122
30
0
41
1
10
55.5955219059515
20
-0.932253919031268
30
0
41
1
10
55.5173033505322
20
-0.990942135933835
30
0
41
1
10
55.4390567899181
20
-1.04018618647424
30
0
41
1
10
55.3607345203552
20
-1.07057295987761
30
0
41
1
10
55.311718401969
20
-1.08354606537267
30
0
41
1
10
55.3019044569435
20
-1.08584012266323
30
0
41
1
10
55.2823554841796
20
-1.08980470268114
30
0
41
1
10
55.253121858184
20
-1.09482500717416
30
0
41
1
10
55.2241481371257
20
-1.09709661194469
30
0
41
1
10
55.128104248347
20
-1.09866448323129
30
0
41
1
10
55.052980253179
20
-1.08082652511879
30
0
41
1
10
54.9420657258396
20
-1.0258993849113
30
0
41
1
10
54.9053898269368
20
-1.00287160495353
30
0
41
1
10
54.8507202009008
20
-0.961097436561772
30
0
41
1
10
54.832600957208
20
-0.945999380545629
30
0
41
1
10
54.7966379525317
20
-0.913539165919076
30
0
41
1
10
54.7787803973375
20
-0.896166571567278
30
0
41
1
10
54.7610371038875
20
-0.877653864476486
30
0
0
SPLINE
5
C9
100
AcDbEntity
8
1
62
256
6
ByLayer
370
18
48
1
60
0
100
AcDbSpline
70
4
71
3
72
20
73
16
40
0
40
0
40
0
40
0
40
0.0565048754528655
40
0.0565048754528655
40
0.161337667069209
40
0.161337667069209
40
0.371003250301905
40
0.371003250301905
40
0.5806688335346
40
0.5806688335346
40
0.790334416767296
40
0.790334416767296
40
0.895167208383648
40
0.895167208383648
40
1
40
1
40
1
40
1
41
1
10
50.4924595916951
20
6.15073162529458
30
0
41
1
10
50.5727966682613
20
6.15074888703188
30
0
41
1
10
50.6531206788419
20
6.15055687292357
30
0
41
1
10
50.8824340895412
20
6.14940769457615
30
0
41
1
10
51.0314073552289
20
6.14793565389442
30
0
41
1
10
51.478437370694
20
6.14136347214463
30
0
41
1
10
51.7766498725318
20
6.13412755919731
30
0
41
1
10
52.3731619967326
20
6.11397090703841
30
0
41
1
10
52.671488462345
20
6.1010516113343
30
0
41
1
10
53.2682114991787
20
6.06948165508695
30
0
41
1
10
53.566589474724
20
6.0508206242333
30
0
41
1
10
54.0142176790471
20
6.01845938266192
30
0
41
1
10
54.1634707189227
20
6.00696140808827
30
0
41
1
10
54.4621489418393
20
5.98260314259153
30
0
41
1
10
54.6115609235624
20
5.96973580728707
30
0
41
1
10
54.7610371038817
20
5.95617837698487
30
0
0
SPLINE
5
CA
100
AcDbEntity
8
1
62
256
6
ByLayer
370
18
48
1
60
0
100
AcDbSpline
70
4
71
3
72
30
73
26
40
0
40
0
40
0
40
0
40
0.0339201807249975
40
0.0339201807249975
40
0.0875912817958302
40
0.0875912817958302
40
0.141262382866663
40
0.141262382866663
40
0.248604585008329
40
0.248604585008329
40
0.355946787149994
40
0.355946787149994
40
0.409617888220827
40
0.409617888220827
40
0.46328898929166
40
0.46328898929166
40
0.570631191433326
40
0.570631191433326
40
0.677973393574991
40
0.677973393574991
40
0.731644494645826
40
0.731644494645826
40
0.785315595716661
40
0.785315595716661
40
1
40
1
40
1
40
1
41
1
10
38.1511368103823
20
4.53117850055526
30
0
41
1
10
38.2579523971303
20
4.55696178859043
30
0
41
1
10
38.3647829130911
20
4.58249591309229
30
0
41
1
10
38.6406827693069
20
4.64779532351582
30
0
41
1
10
38.8097762816317
20
4.68725327801781
30
0
41
1
10
39.1478528646149
20
4.76474550260158
30
0
41
1
10
39.3168620598704
20
4.80275672141463
30
0
41
1
10
39.8240226132869
20
4.91423081523354
30
0
41
1
10
40.1621732768912
20
4.98537500009485
30
0
41
1
10
40.8383503051788
20
5.12172049837795
30
0
41
1
10
41.1763942977428
20
5.18689193930305
30
0
41
1
10
41.6833118682409
20
5.28022159627673
30
0
41
1
10
41.8522455270596
20
5.3106112448362
30
0
41
1
10
42.19013419249
20
5.36980075513512
30
0
41
1
10
42.3591311125233
20
5.39854501372704
30
0
41
1
10
42.866328898052
20
5.48218436429246
30
0
41
1
10
43.2047998009736
20
5.53455485658563
30
0
41
1
10
43.8813967416386
20
5.63264666938912
30
0
41
1
10
44.2195728710542
20
5.6783393171639
30
0
41
1
10
44.7264850981286
20
5.74197089846749
30
0
41
1
10
44.8953787643804
20
5.76237678973433
30
0
41
1
10
45.2331960873537
20
5.80139931101385
30
0
41
1
10
45.4021379402508
20
5.82000165481077
30
0
41
1
10
46.2471295901935
20
5.90842541135316
30
0
41
1
10
46.9235632631704
20
5.96496009071495
30
0
41
1
10
47.6
20
6.00742792072688
30
0
0
SPLINE
5
CB
100
AcDbEntity
8
1
62
256
6
ByLayer
370
18
48
1
60
0
100
AcDbSpline
70
4
71
3
72
68
73
64
40
0
40
0
40
0
40
0
40
0.0502260172853747
40
0.0502260172853747
40
0.100452034570749
40
0.100452034570749
40
0.125565043213437
40
0.125565043213437
40
0.150678051856124
40
0.150678051856124
40
0.200904069141499
40
0.200904069141499
40
0.226017077784186
40
0.226017077784186
40
0.251130086426874
40
0.251130086426874
40
0.276243095069561
40
0.276243095069561
40
0.301356103712248
40
0.301356103712248
40
0.351582120997625
40
0.351582120997625
40
0.376695129640314
40
0.376695129640314
40
0.401808138283003
40
0.401808138283003
40
0.452034155568381
40
0.452034155568381
40
0.47714716421107
40
0.47714716421107
40
0.502260172853759
40
0.502260172853759
40
0.527373181496448
40
0.527373181496448
40
0.552486190139137
40
0.552486190139137
40
0.602712207424515
40
0.602712207424515
40
0.652938224709893
40
0.652938224709893
40
0.678051233352583
40
0.678051233352583
40
0.703164241995273
40
0.703164241995273
40
0.753390259280655
40
0.753390259280655
40
0.778503267923346
40
0.778503267923346
40
0.803616276566038
40
0.803616276566038
40
0.828729285208729
40
0.828729285208729
40
0.853842293851421
40
0.853842293851421
40
0.878955302494113
40
0.878955302494113
40
0.904068311136804
40
0.904068311136804
40
0.929181319779496
40
0.929181319779496
40
0.954294328422188
40
0.954294328422188
40
1
40
1
40
1
40
1
41
1
10
47.6
20
1.67014580833185
30
0
41
1
10
47.2335071396279
20
1.79757767539695
30
0
41
1
10
46.8671609183615
20
1.92326978094491
30
0
41
1
10
46.134961674395
20
2.17177407634969
30
0
41
1
10
45.7691079754416
20
2.29458231632188
30
0
41
1
10
45.2207496047422
20
2.47674352500349
30
0
41
1
10
45.0380249643572
20
2.53709720243066
30
0
41
1
10
44.6725239731879
20
2.65662811790446
30
0
41
1
10
44.4897650955013
20
2.71585098788171
30
0
41
1
10
43.9414719226322
20
2.89192388925286
30
0
41
1
10
43.5759083020236
20
3.00715041619256
30
0
41
1
10
43.0276439532702
20
3.17708072552887
30
0
41
1
10
42.8449241773152
20
3.23328890570542
30
0
41
1
10
42.4794265931661
20
3.3445243115716
30
0
41
1
10
42.2966287049629
20
3.39950551173646
30
0
41
1
10
41.9309898033855
20
3.50832492630696
30
0
41
1
10
41.7481719609023
20
3.56221548934704
30
0
41
1
10
41.3824202428982
20
3.66868103075092
30
0
41
1
10
41.1994579814799
20
3.72119268353779
30
0
41
1
10
40.6503592243178
20
3.87667994669434
30
0
41
1
10
40.2840362572858
20
3.97766694301248
30
0
41
1
10
39.7342416376174
20
4.12527975910788
30
0
41
1
10
39.5509940439449
20
4.17382222613685
30
0
41
1
10
39.1846700636717
20
4.26952053371596
30
0
41
1
10
39.001545470474
20
4.31662900436459
30
0
41
1
10
38.4520891393834
20
4.45536084806207
30
0
41
1
10
38.0857374429379
20
4.54452226480859
30
0
41
1
10
37.5361900795062
20
4.67340876208851
30
0
41
1
10
37.353006102997
20
4.71556426195195
30
0
41
1
10
36.9866716263803
20
4.79831914644168
30
0
41
1
10
36.8035377898879
20
4.83894513623187
30
0
41
1
10
36.4371632534535
20
4.91839249240925
30
0
41
1
10
36.2539261200036
20
4.9572224959353
30
0
41
1
10
35.887413963652
20
5.03319567253365
30
0
41
1
10
35.7042195658291
20
5.07036101025338
30
0
41
1
10
35.1548028238986
20
5.17890996576878
30
0
41
1
10
34.7886431815866
20
5.24738918049496
30
0
41
1
10
34.0568149834643
20
5.37702804697591
30
0
41
1
10
33.6911459570237
20
5.43817815599104
30
0
41
1
10
33.1429748032581
20
5.52429633529937
30
0
41
1
10
32.9602630540186
20
5.55201360597582
30
0
41
1
10
32.5947902442882
20
5.60539854695023
30
0
41
1
10
32.4120398970014
20
5.63107946593789
30
0
41
1
10
31.8637574931594
20
5.70511477671857
30
0
41
1
10
31.498179162008
20
5.75045513756524
30
0
41
1
10
30.9498949146113
20
5.81257335044614
30
0
41
1
10
30.7671539428883
20
5.83229835937902
30
0
41
1
10
30.4015418301891
20
5.86963999656936
30
0
41
1
10
30.2186871965664
20
5.88727305518654
30
0
41
1
10
29.8529443269901
20
5.92050713574517
30
0
41
1
10
29.6700680718626
20
5.93611287404732
30
0
41
1
10
29.3041059912868
20
5.96516938553043
30
0
41
1
10
29.1210352182382
20
5.97863299482418
30
0
41
1
10
28.7547556152733
20
6.00346206148274
30
0
41
1
10
28.5715489824295
20
6.01482825951859
30
0
41
1
10
28.2050123679116
20
6.03546186574991
30
0
41
1
10
28.0217020353442
20
6.04472742956381
30
0
41
1
10
27.6552736710681
20
6.0611353408251
30
0
41
1
10
27.4721318383514
20
6.06828285349255
30
0
41
1
10
27.1059017476131
20
6.08042623194481
30
0
41
1
10
26.9227787855047
20
6.0854142338431
30
0
41
1
10
26.4063112404071
20
6.09643986343744
30
0
41
1
10
26.0729283360717
20
6.09999270955996
30
0
41
1
10
25.7395219901999
20
6.10000013472327
30
0
0
SPLINE
5
CC
100
AcDbEntity
8
1
62
256
6
ByLayer
370
18
48
1
60
0
100
AcDbSpline
70
4
71
3
72
109
73
105
40
0
40
0
40
0
40
0
40
0.0624999999999859
40
0.0624999999999859
40
0.124999999999972
40
0.124999999999972
40
0.156249999999965
40
0.156249999999965
40
0.187499999999958
40
0.187499999999958
40
0.218749999999951
40
0.218749999999951
40
0.234374999999948
40
0.234374999999948
40
0.249999999999945
40
0.249999999999945
40
0.28124999999994
40
0.28124999999994
40
0.296874999999938
40
0.296874999999938
40
0.304687499999937
40
0.304687499999937
40
0.312499999999937
40
0.312499999999937
40
0.343749999999937
40
0.343749999999937
40
0.359374999999937
40
0.359374999999937
40
0.374999999999937
40
0.374999999999937
40
0.382812499999937
40
0.386718749999937
40
0.386718749999937
40
0.390624999999937
40
0.390624999999937
40
0.406249999999938
40
0.406249999999938
40
0.421874999999939
40
0.421874999999939
40
0.42968749999994
40
0.42968749999994
40
0.43359374999994
40
0.43359374999994
40
0.437499999999941
40
0.453124999999943
40
0.453124999999943
40
0.468749999999946
40
0.468749999999946
40
0.476562499999947
40
0.476562499999947
40
0.480468749999947
40
0.480468749999947
40
0.484374999999948
40
0.49999999999995
40
0.49999999999995
40
0.507812499999951
40
0.511718749999951
40
0.511718749999951
40
0.515624999999952
40
0.515624999999952
40
0.531249999999954
40
0.531249999999954
40
0.546874999999957
40
0.546874999999957
40
0.550781249999957
40
0.550781249999957
40
0.554687499999957
40
0.562499999999958
40
0.562499999999958
40
0.578124999999959
40
0.578124999999959
40
0.59374999999996
40
0.59374999999996
40
0.601562499999961
40
0.601562499999961
40
0.609374999999962
40
0.609374999999962
40
0.624999999999964
40
0.624999999999964
40
0.656249999999966
40
0.656249999999966
40
0.687499999999969
40
0.687499999999969
40
0.703124999999971
40
0.703124999999971
40
0.718749999999972
40
0.718749999999972
40
0.749999999999975
40
0.749999999999975
40
0.781249999999979
40
0.781249999999979
40
0.812499999999982
40
0.812499999999982
40
0.843749999999985
40
0.843749999999985
40
0.874999999999988
40
0.874999999999988
40
0.906249999999991
40
0.906249999999991
40
0.937499999999994
40
0.937499999999994
40
0.968749999999997
40
0.968749999999997
40
1
40
1
40
1
40
1
41
1
10
10
20
3.95115774406494
30
0
41
1
10
9.62898208252739
20
3.98883247087122
30
0
41
1
10
9.26091801269456
20
4.01463918573791
30
0
41
1
10
8.53097670864901
20
4.0400011417284
30
0
41
1
10
8.16909453600815
20
4.03959106981267
30
0
41
1
10
7.63108160766257
20
4.01606549981767
30
0
41
1
10
7.45254577938476
20
4.00438820420723
30
0
41
1
10
7.09711671222905
20
3.97253180932222
30
0
41
1
10
6.92022316337864
20
3.9523564060292
30
0
41
1
10
6.56813284325733
20
3.90238501981028
30
0
41
1
10
6.39293557729107
20
3.8725954623965
30
0
41
1
10
6.13147336938715
20
3.81952810067892
30
0
41
1
10
6.04448863663174
20
3.80042510270536
30
0
41
1
10
5.87120306437888
20
3.75921288065817
30
0
41
1
10
5.78523960354573
20
3.73718533076925
30
0
41
1
10
5.52946211329609
20
3.6665460731769
30
0
41
1
10
5.36175194326233
20
3.61340476086468
30
0
41
1
10
5.11483100640103
20
3.52305492028003
30
0
41
1
10
5.03330008073928
20
3.49115934785226
30
0
41
1
10
4.91224587674574
20
3.44037986785597
30
0
41
1
10
4.87210170662522
20
3.42296342159014
30
0
41
1
10
4.79224365011356
20
3.38709762590435
30
0
41
1
10
4.75248989518974
20
3.36862883525657
30
0
41
1
10
4.55538052456561
20
3.2738151617848
30
0
41
1
10
4.40321851534208
20
3.19026322833435
30
0
41
1
10
4.18452040995626
20
3.05101760673625
30
0
41
1
10
4.1132184162075
20
3.00227210991653
30
0
41
1
10
3.97413202215699
20
2.89954085770819
30
0
41
1
10
3.90634598641532
20
2.84555779187602
30
0
41
1
10
3.80763591874643
20
2.76007294772359
30
0
41
1
10
3.75902475815497
20
2.71620029675563
30
0
41
1
10
3.7116103184261
20
2.6704925614826
30
0
41
1
10
3.68027723943834
20
2.63959475826297
30
0
41
1
10
3.66474457970935
20
2.62392756731458
30
0
41
1
10
3.58813974839788
20
2.54483837898226
30
0
41
1
10
3.52996143959658
20
2.47890079959487
30
0
41
1
10
3.42046284772053
20
2.34105480461721
30
0
41
1
10
3.36913850543095
20
2.26915005588805
30
0
41
1
10
3.29798849524931
20
2.15615041979083
30
0
41
1
10
3.2752471339206
20
2.11762449966375
30
0
41
1
10
3.24271479973478
20
2.05843650974361
30
0
41
1
10
3.23211617221884
20
2.03843743849808
30
0
41
1
10
3.21157931013792
20
1.99817207161456
30
0
41
1
10
3.16188121585012
20
1.89683748399938
30
0
41
1
10
3.12046817916837
20
1.79211159480428
30
0
41
1
10
3.06551750838119
20
1.61988320240638
30
0
41
1
10
3.04369300933772
20
1.53143726689376
30
0
41
1
10
3.02025745856298
20
1.39491027045108
30
0
41
1
10
3.01399923676175
20
1.34875690628346
30
0
41
1
10
3.00708273848571
20
1.27850050031037
30
0
41
1
10
3.00520082767247
20
1.2550122960958
30
0
41
1
10
3.00229534780178
20
1.20812840710764
30
0
41
1
10
2.99716265955109
20
1.09097029353978
30
0
41
1
10
3.00251532556968
20
0.974064947285541
30
0
41
1
10
3.01866076442818
20
0.834013331991514
30
0
41
1
10
3.02916803995456
20
0.76404638533441
30
0
41
1
10
3.04329598872135
20
0.694167598355335
30
0
41
1
10
3.05351782907778
20
0.647601400546392
30
0
41
1
10
3.05904001718199
20
0.624290417822465
30
0
41
1
10
3.08854006585654
20
0.508236370760983
30
0
41
1
10
3.11794176453
20
0.417766957198268
30
0
41
1
10
3.18693999477679
20
0.240997361279
30
0
41
1
10
3.22654274856564
20
0.154699717600323
30
0
41
1
10
3.28179885028399
20
0.0491786660277285
30
0
41
1
10
3.29315488831315
20
0.0281636221742474
30
0
41
1
10
3.31631969024721
20
-0.0134396572461526
30
0
41
1
10
3.35175935725243
20
-0.0752352917385792
30
0
41
1
10
3.38917997843612
20
-0.135289250297518
30
0
41
1
10
3.46644416573523
20
-0.253270176201994
30
0
41
1
10
3.52117598079488
20
-0.329095495270849
30
0
41
1
10
3.6361755038314
20
-0.47590233663837
30
0
41
1
10
3.69644664014797
20
-0.546880823857236
30
0
41
1
10
3.79049958232559
20
-0.650168494452942
30
0
41
1
10
3.822459721071
20
-0.684066406498033
30
0
41
1
10
3.88752783807112
20
-0.750862656865081
30
0
41
1
10
3.92068979205607
20
-0.783811315559745
30
0
41
1
10
4.02123506258249
20
-0.880704503496645
30
0
41
1
10
4.08975524146115
20
-0.942801600124795
30
0
41
1
10
4.29913553443339
20
-1.12272039306018
30
0
41
1
10
4.44378720711379
20
-1.23421997621264
30
0
41
1
10
4.74079788792091
20
-1.44446286171643
30
0
41
1
10
4.89317391545566
20
-1.54317649445656
30
0
41
1
10
5.12629388107024
20
-1.68372052999916
30
0
41
1
10
5.20476414967385
20
-1.72930635179352
30
0
41
1
10
5.36306434632309
20
-1.81822652572342
30
0
41
1
10
5.44296208218134
20
-1.86159381774294
30
0
41
1
10
5.68341663692229
20
-1.98813293907887
30
0
41
1
10
5.84503503009532
20
-2.06794253408088
30
0
41
1
10
6.17023971335959
20
-2.22049735583485
30
0
41
1
10
6.33382765742996
20
-2.29323570814313
30
0
41
1
10
6.66244214752024
20
-2.4331508673603
30
0
41
1
10
6.82746933517888
20
-2.50032429472896
30
0
41
1
10
7.15852797580038
20
-2.63024991921012
30
0
41
1
10
7.32455950031076
20
-2.69300053968794
30
0
41
1
10
7.65727820418562
20
-2.81492710865757
30
0
41
1
10
7.82396512198912
20
-2.87410240864466
30
0
41
1
10
8.15773541537757
20
-2.98946149264597
30
0
41
1
10
8.32481836544738
20
-3.04564500783684
30
0
41
1
10
8.65922188494133
20
-3.15535205763575
30
0
41
1
10
8.82654201700271
20
-3.20887530418605
30
0
41
1
10
9.16137495560503
20
-3.31334862101912
30
0
41
1
10
9.32888745642725
20
-3.36429809185478
30
0
41
1
10
9.66418577584977
20
-3.46347820343502
30
0
41
1
10
9.83197153844236
20
-3.51170776559385
30
0
41
1
10
10
20
-3.55840118267127
30
0
0
SPLINE
5
CD
100
AcDbEntity
8
1
62
256
6
ByLayer
370
18
48
1
60
0
100
AcDbSpline
70
4
71
3
72
14
73
10
40
0
40
0
40
0
40
0
40
0.25
40
0.25
40
0.5
40
0.5
40
0.75
40
0.75
40
1
40
1
40
1
40
1
41
1
10
12.464326859662
20
-4.31332572981771
30
0
41
1
10
12.2568274137175
20
-4.25854315300023
30
0
41
1
10
12.0501361957766
20
-4.20137093184698
30
0
41
1
10
11.6378835534604
20
-4.08287660982811
30
0
41
1
10
11.4323206915748
20
-4.02155834112986
30
0
41
1
10
11.0219645981683
20
-3.89526537625847
30
0
41
1
10
10.8171704971035
20
-3.83029407032237
30
0
41
1
10
10.4081573683338
20
-3.69693414981538
30
0
41
1
10
10.2039381570881
20
-3.62854794512529
30
0
41
1
10
9.99999999999994
20
-3.55840118267116
30
0
0
SPLINE
5
CE
100
AcDbEntity
8
1
62
256
6
ByLayer
370
18
48
1
60
0
100
AcDbSpline
70
4
71
4
72
16
73
11
40
0
40
0
40
0
40
0
40
0
40
0.297598421655943
40
0.297598421655943
40
0.297598421655943
40
0.702401578344056
40
0.702401578344056
40
0.702401578344056
40
1
40
1
40
1
40
1
40
1
41
0.997278436163442
10
15.1657872680145
20
3.04491354988358
30
0
41
0.994861711883171
10
15.092312077892
20
2.9453449490998
30
0
41
0.993532638743238
10
14.9487460314911
20
2.6504764382659
30
0
41
1
10
14.739623151073
20
2.15523383312353
30
0
41
1
10
14.2126922321502
20
0.836502745890044
30
0
41
0.988033871712585
10
13.8150570638382
20
-0.210965828255372
30
0
41
1
10
13.4174218955263
20
-1.32965501486564
30
0
41
1
10
12.8904909766035
20
-2.88143335528787
30
0
41
0.993532638743238
10
12.6813680961853
20
-3.52540877327056
30
0
41
0.994861711883171
10
12.5378020497845
20
-4.01263080767795
30
0
41
0.997278436163441
10
12.464326859662
20
-4.3133257298177
30
0
0
SPLINE
5
CF
100
AcDbEntity
8
1
62
256
6
ByLayer
370
18
48
1
60
0
100
AcDbSpline
70
4
71
3
72
20
73
16
40
0
40
0
40
0
40
0
40
0.125000000000001
40
0.125000000000001
40
0.250000000000001
40
0.250000000000001
40
0.499999999999998
40
0.499999999999998
40
0.624999999999997
40
0.624999999999997
40
0.687499999999996
40
0.687499999999996
40
0.749999999999995
40
0.749999999999995
40
1
40
1
40
1
40
1
41
1
10
10
20
3.95115774406494
30
0
41
1
10
10.2231853336847
20
3.95081061912433
30
0
41
1
10
10.4451597055575
20
3.94490620560902
30
0
41
1
10
10.8868815436311
20
3.92278502559674
30
0
41
1
10
11.1066282017121
20
3.90656308064916
30
0
41
1
10
11.7627935456346
20
3.84328943471104
30
0
41
1
10
12.1961259203775
20
3.78160037561523
30
0
41
1
10
12.8411128515922
20
3.66290375321546
30
0
41
1
10
13.0552756122316
20
3.61898036015413
30
0
41
1
10
13.3754430795807
20
3.54704954082871
30
0
41
1
10
13.481986353439
20
3.5220661278581
30
0
41
1
10
13.6947458395589
20
3.47018320614981
30
0
41
1
10
13.8009961946516
20
3.44327402418139
30
0
41
1
10
14.3305478203041
20
3.30446641987444
30
0
41
1
10
14.7494710981173
20
3.17960279852801
30
0
41
1
10
15.1657872680145
20
3.04491354988363
30
0
0
SPLINE
5
D0
100
AcDbEntity
8
1
62
256
6
ByLayer
370
13
48
1
60
0
100
AcDbSpline
70
4
71
3
72
22
73
18
40
0
40
0
40
0
40
0
40
0.125
40
0.125
40
0.25
40
0.25
40
0.375
40
0.375
40
0.5
40
0.5
40
0.625
40
0.625
40
0.75
40
0.75
40
0.875
40
0.875
40
1
40
1
40
1
40
1
41
1
10
47.6
20
3.32981642368037
30
0
41
1
10
47.6469419259268
20
3.55197511108702
30
0
41
1
10
47.6938838518537
20
3.76642562286267
30
0
41
1
10
47.7877677037074
20
4.17397492858194
30
0
41
1
10
47.8347096296341
20
4.36705736015196
30
0
41
1
10
47.9285934814878
20
4.7268575736729
30
0
41
1
10
47.9755354074146
20
4.89356385921991
30
0
41
1
10
48.0694192592682
20
5.19698654013081
30
0
41
1
10
48.1163611851951
20
5.33369817105535
30
0
41
1
10
48.2102450370487
20
5.57514378757199
30
0
41
1
10
48.2571869629756
20
5.67988001933918
30
0
41
1
10
48.3510708148292
20
5.85706184539978
30
0
41
1
10
48.3980127407561
20
5.92951546049923
30
0
41
1
10
48.4918965926097
20
6.04333377995377
30
0
41
1
10
48.5388385185365
20
6.08471008520539
30
0
41
1
10
48.6327223703901
20
6.13878681050218
30
0
41
1
10
48.679664296317
20
6.1515
30
0
41
1
10
48.7266062222438
20
6.1515
30
0
0
SPLINE
5
D1
100
AcDbEntity
8
1
62
256
6
ByLayer
370
13
48
1
60
0
100
AcDbSpline
70
4
71
3
72
42
73
38
40
0
40
0
40
0
40
0
40
0.0624999999999992
40
0.0624999999999992
40
0.124999999999998
40
0.124999999999998
40
0.187499999999998
40
0.187499999999998
40
0.249999999999997
40
0.249999999999997
40
0.312499999999996
40
0.312499999999996
40
0.374999999999995
40
0.374999999999995
40
0.437499999999994
40
0.437499999999994
40
0.499999999999993
40
0.499999999999993
40
0.562499999999992
40
0.562499999999992
40
0.624999999999992
40
0.624999999999992
40
0.656249999999991
40
0.656249999999991
40
0.671874999999992
40
0.671874999999992
40
0.687499999999992
40
0.687499999999992
40
0.749999999999993
40
0.749999999999993
40
0.812499999999995
40
0.812499999999995
40
0.874999999999997
40
0.874999999999997
40
0.937499999999998
40
0.937499999999998
40
1
40
1
40
1
40
1
41
1
10
52.1258237878414
20
6.1515
30
0
41
1
10
52.1807240652595
20
6.1515
30
0
41
1
10
52.2356243426777
20
6.13409602118273
30
0
41
1
10
52.3454248975139
20
6.05941766392789
30
0
41
1
10
52.4003251749321
20
6.00211551353692
30
0
41
1
10
52.5101257297683
20
5.84420384855292
30
0
41
1
10
52.5650260071864
20
5.74357110045793
30
0
41
1
10
52.6748265620226
20
5.49803019872886
30
0
41
1
10
52.7297268394408
20
5.35311048716909
30
0
41
1
10
52.8395273942771
20
5.02104576138777
30
0
41
1
10
52.8944276716952
20
4.83390613722798
30
0
41
1
10
53.0042282265315
20
4.4225794332296
30
0
41
1
10
53.0591285039495
20
4.19841538488745
30
0
41
1
10
53.1689290587858
20
3.72091635459159
30
0
41
1
10
53.2238293362039
20
3.46761718983149
30
0
41
1
10
53.3336298910402
20
2.94151652279422
30
0
41
1
10
53.3885301684583
20
2.66875489030096
30
0
41
1
10
53.4983307232946
20
2.11401858444117
30
0
41
1
10
53.5532310007127
20
1.8320787074446
30
0
41
1
10
53.663031555549
20
1.26874192781625
30
0
41
1
10
53.7179318329671
20
0.987368514906962
30
0
41
1
10
53.8002822490942
20
0.57196164832439
30
0
41
1
10
53.8277323878033
20
0.434588254725753
30
0
41
1
10
53.8689075958669
20
0.230816253903924
30
0
41
1
10
53.8826326652214
20
0.16327262747663
30
0
41
1
10
53.9100828039305
20
0.0290416879587383
30
0
41
1
10
53.923807873285
20
-0.037441211774933
30
0
41
1
10
53.9924332200577
20
-0.373197344104995
30
0
41
1
10
54.0473334974758
20
-0.648700497354156
30
0
41
1
10
54.1571340523121
20
-1.20660911985084
30
0
41
1
10
54.2120343297302
20
-1.48900091548921
30
0
41
1
10
54.3218348845664
20
-2.05194751493244
30
0
41
1
10
54.3767351619845
20
-2.33247552244035
30
0
41
1
10
54.4865357168208
20
-2.88171983736692
30
0
41
1
10
54.5414359942389
20
-3.15039926598158
30
0
41
1
10
54.6512365490752
20
-3.66570773271337
30
0
41
1
10
54.7061368264933
20
-3.91229702628843
30
0
41
1
10
54.7610371039115
20
-4.14320023731261
30
0
0
SPLINE
5
D2
100
AcDbEntity
8
1
62
256
6
ByLayer
370
13
48
1
60
0
100
AcDbSpline
70
4
71
3
72
14
73
10
40
0
40
0
40
0
40
0
40
0.25
40
0.25
40
0.5
40
0.5
40
0.75
40
0.75
40
1
40
1
40
1
40
1
41
1
10
47.6
20
5.29025761489058
30
0
41
1
10
47.6519780793556
20
5.43892018831264
30
0
41
1
10
47.7039561587112
20
5.56835476987374
30
0
41
1
10
47.8079123174224
20
5.78750163936553
30
0
41
1
10
47.859890396778
20
5.87722449459352
30
0
41
1
10
47.9638465554892
20
6.01806281485173
30
0
41
1
10
48.0158246348448
20
6.06919661125576
30
0
41
1
10
48.1197807935561
20
6.13590461009071
30
0
41
1
10
48.1717588729116
20
6.1515
30
0
41
1
10
48.2237369522672
20
6.1515
30
0
0
SPLINE
5
D3
100
AcDbEntity
8
1
62
256
6
ByLayer
370
13
48
1
60
0
100
AcDbSpline
70
4
71
3
72
42
73
38
40
0
40
0
40
0
40
0
40
0.0625
40
0.0625
40
0.125
40
0.125
40
0.1875
40
0.1875
40
0.25
40
0.25
40
0.3125
40
0.3125
40
0.375
40
0.375
40
0.4375
40
0.4375
40
0.5
40
0.5
40
0.5625
40
0.5625
40
0.578125
40
0.578125
40
0.59375
40
0.59375
40
0.625
40
0.625
40
0.6875
40
0.6875
40
0.75
40
0.75
40
0.8125
40
0.8125
40
0.875
40
0.875
40
0.9375
40
0.9375
40
1
40
1
40
1
40
1
41
1
10
51.6229545178649
20
6.1515
30
0
41
1
10
51.6883312384074
20
6.1515
30
0
41
1
10
51.7537079589501
20
6.12678547887836
30
0
41
1
10
51.8844614000354
20
6.01960331064376
30
0
41
1
10
51.949838120578
20
5.93707025968507
30
0
41
1
10
52.0805915616633
20
5.70948918388987
30
0
41
1
10
52.1459682822059
20
5.56439459276177
30
0
41
1
10
52.2767217232912
20
5.21238626147988
30
0
41
1
10
52.3420984438339
20
5.00546726499272
30
0
41
1
10
52.4728518849191
20
4.53682156423633
30
0
41
1
10
52.5382286054618
20
4.27514041231626
30
0
41
1
10
52.6689820465471
20
3.70971058216554
30
0
41
1
10
52.7343587670897
20
3.40604625840911
30
0
41
1
10
52.8651122081749
20
2.77310279996397
30
0
41
1
10
52.9304889287176
20
2.44391820449684
30
0
41
1
10
53.0612423698029
20
1.77729630602818
30
0
41
1
10
53.1266190903455
20
1.43993417149804
30
0
41
1
10
53.2573725314307
20
0.772576275117046
30
0
41
1
10
53.3227492519734
20
0.442620049771989
30
0
41
1
10
53.4044701526517
20
0.0423466942258415
30
0
41
1
10
53.4208143327874
20
-0.0367766277296937
30
0
41
1
10
53.4535026930587
20
-0.196830103338641
30
0
41
1
10
53.4698468731943
20
-0.277457512459421
30
0
41
1
10
53.5188794136013
20
-0.520895667708999
30
0
41
1
10
53.5515677738726
20
-0.685270057964374
30
0
41
1
10
53.6496328546866
20
-1.18238667121815
30
0
41
1
10
53.7150095752293
20
-1.51921928905708
30
0
41
1
10
53.8457630163145
20
-2.18901694337876
30
0
41
1
10
53.9111397368571
20
-2.52191508353476
30
0
41
1
10
54.0418931779424
20
-3.16675135916992
30
0
41
1
10
54.1072698984851
20
-3.47859744743567
30
0
41
1
10
54.2380233395704
20
-4.06436300539525
30
0
41
1
10
54.3034000601129
20
-4.33819244264129
30
0
41
1
10
54.4341535011982
20
-4.83393111688713
30
0
41
1
10
54.4995302217409
20
-5.05578286762488
30
0
41
1
10
54.6302836628261
20
-5.43887100287336
30
0
41
1
10
54.6956603833688
20
-5.6000997532156
30
0
41
1
10
54.7610371039114
20
-5.72983462160713
30
0
0
SPLINE
5
D4
100
AcDbEntity
8
1
62
256
6
ByLayer
370
13
48
1
60
0
100
AcDbSpline
70
4
71
3
72
8
73
4
40
0
40
0
40
0
40
0
40
1
40
1
40
1
40
1
41
1
10
47.6
20
6.12238689182701
30
0
41
1
10
47.6402892274302
20
6.14214031522397
30
0
41
1
10
47.6805784548604
20
6.1515
30
0
41
1
10
47.7208676822906
20
6.1515
30
0
0
SPLINE
5
D5
100
AcDbEntity
8
1
62
256
6
ByLayer
370
13
48
1
60
0
100
AcDbSpline
70
4
71
3
72
46
73
42
40
0
40
0
40
0
40
0
40
0.0624999999999999
40
0.0624999999999999
40
0.125
40
0.125
40
0.1875
40
0.1875
40
0.25
40
0.25
40
0.3125
40
0.3125
40
0.375
40
0.375
40
0.4375
40
0.4375
40
0.46875
40
0.46875
40
0.484375
40
0.484375
40
0.5
40
0.5
40
0.5625
40
0.5625
40
0.625
40
0.625
40
0.6875
40
0.6875
40
0.75
40
0.75
40
0.8125
40
0.8125
40
0.875
40
0.875
40
0.9375
40
0.9375
40
0.96875
40
0.96875
40
0.984375
40
0.984375
40
1
40
1
40
1
40
1
41
1
10
51.1200852478882
20
6.1515
30
0
41
1
10
51.1959384115554
20
6.1515
30
0
41
1
10
51.2717915752225
20
6.11817169592587
30
0
41
1
10
51.4234979025568
20
5.97223235051817
30
0
41
1
10
51.4993510662239
20
5.85948751787674
30
0
41
1
10
51.6510573935582
20
5.54906094995729
30
0
41
1
10
51.7269105572254
20
5.35130545718303
30
0
41
1
10
51.8786168845597
20
4.87580783664274
30
0
41
1
10
51.9544700482269
20
4.59810616158023
30
0
41
1
10
52.1061763755612
20
3.97894291582477
30
0
41
1
10
52.1820295392283
20
3.63763421153632
30
0
41
1
10
52.3337358665626
20
2.91578282657124
30
0
41
1
10
52.4095890302297
20
2.53543896894487
30
0
41
1
10
52.5612953575641
20
1.76276476897658
30
0
41
1
10
52.6371485212312
20
1.37059431507203
30
0
41
1
10
52.7509282667319
20
0.79155584579442
30
0
41
1
10
52.7888548485655
20
0.600040568576333
30
0
41
1
10
52.8457447213158
20
0.31682767520391
30
0
41
1
10
52.8647080122327
20
0.223096612704154
30
0
41
1
10
52.9026345940663
20
0.0372406074439482
30
0
41
1
10
52.921597884983
20
-0.0545147849500438
30
0
41
1
10
53.016414339567
20
-0.519651850607914
30
0
41
1
10
53.0922675032341
20
-0.904766086166546
30
0
41
1
10
53.2439738305684
20
-1.68157692104856
30
0
41
1
10
53.3198269942356
20
-2.07317560831365
30
0
41
1
10
53.4715333215699
20
-2.83758392127137
30
0
41
1
10
53.547386485237
20
-3.21021645628699
30
0
41
1
10
53.6990928125713
20
-3.90960562981917
30
0
41
1
10
53.7749459762385
20
-4.23616696231647
30
0
41
1
10
53.9266523035728
20
-4.82048050127972
30
0
41
1
10
54.0025054672399
20
-5.07810541698498
30
0
41
1
10
54.1542117945742
20
-5.51093261213717
30
0
41
1
10
54.2300649582414
20
-5.68612753420828
30
0
41
1
10
54.3817712855757
20
-5.95196057638782
30
0
41
1
10
54.4576244492429
20
-6.0426949752561
30
0
41
1
10
54.5714041947435
20
-6.1212940423477
30
0
41
1
10
54.6093307765772
20
-6.13797749242499
30
0
41
1
10
54.6662206493275
20
-6.14992695251993
30
0
41
1
10
54.6851839402443
20
-6.15173426021121
30
0
41
1
10
54.7231105220779
20
-6.15121748615448
30
0
41
1
10
54.7420738129947
20
-6.1488807181168
30
0
41
1
10
54.7610371039115
20
-6.14435371909931
30
0
0
SPLINE
5
D6
100
AcDbEntity
8
1
62
256
6
ByLayer
370
13
48
1
60
0
100
AcDbSpline
70
4
71
3
72
78
73
74
40
0
40
0
40
0
40
0
40
0.03125
40
0.03125
40
0.0625
40
0.0625
40
0.09375
40
0.09375
40
0.125
40
0.125
40
0.15625
40
0.15625
40
0.1875
40
0.1875
40
0.21875
40
0.21875
40
0.25
40
0.25
40
0.28125
40
0.28125
40
0.3125
40
0.3125
40
0.34375
40
0.34375
40
0.375
40
0.375
40
0.40625
40
0.40625
40
0.421875
40
0.421875
40
0.4296875
40
0.4296875
40
0.4375
40
0.4375
40
0.46875
40
0.46875
40
0.5
40
0.5
40
0.53125
40
0.53125
40
0.5625
40
0.5625
40
0.59375
40
0.59375
40
0.625
40
0.625
40
0.65625
40
0.65625
40
0.6875
40
0.6875
40
0.71875
40
0.71875
40
0.75
40
0.75
40
0.78125
40
0.78125
40
0.8125
40
0.8125
40
0.84375
40
0.84375
40
0.859375
40
0.859375
40
0.8671875
40
0.8671875
40
0.875
40
0.875
40
0.90625
40
0.90625
40
0.9375
40
0.9375
40
0.96875
40
0.96875
40
1
40
1
40
1
40
1
41
1
10
50.6172159779116
20
6.1515
30
0
41
1
10
50.6603807813074
20
6.1515
30
0
41
1
10
50.7035455847032
20
6.14075405688922
30
0
41
1
10
50.7898751914949
20
6.09524260466895
30
0
41
1
10
50.8330399948907
20
6.06046869223857
30
0
41
1
10
50.9193696016824
20
5.9649311910822
30
0
41
1
10
50.9625344050783
20
5.90415973608077
30
0
41
1
10
51.0488640118699
20
5.75547894705952
30
0
41
1
10
51.0920288152657
20
5.66756361468336
30
0
41
1
10
51.1783584220574
20
5.46448205835768
30
0
41
1
10
51.2215232254532
20
5.34931299923576
30
0
41
1
10
51.3078528322449
20
5.09278351551905
30
0
41
1
10
51.3510176356407
20
4.95142432782731
30
0
41
1
10
51.4373472424324
20
4.64477361339192
30
0
41
1
10
51.4805120458282
20
4.47948760581548
30
0
41
1
10
51.5668416526199
20
4.12834046123547
30
0
41
1
10
51.6100064560157
20
3.94248849581427
30
0
41
1
10
51.6963360628073
20
3.55444120214369
30
0
41
1
10
51.7395008662032
20
3.35225733805345
30
0
41
1
10
51.8258304729949
20
2.93633716175523
30
0
41
1
10
51.8689952763907
20
2.72261285395976
30
0
41
1
10
51.9553248831824
20
2.28860282721544
30
0
41
1
10
51.9984896865782
20
2.06832794889533
30
0
41
1
10
52.0848192933699
20
1.62605887397621
30
0
41
1
10
52.1279840967657
20
1.40407308058974
30
0
41
1
10
52.2143137035574
20
0.9627822403381
30
0
41
1
10
52.2574785069532
20
0.743482520176144
30
0
41
1
10
52.3222257120469
20
0.41935616569873
30
0
41
1
10
52.3438081137449
20
0.312112361638128
30
0
41
1
10
52.3761817162917
20
0.15274211227532
30
0
41
1
10
52.3869729171407
20
0.0998675600748413
30
0
41
1
10
52.4085553188386
20
-0.0053387354746519
30
0
41
1
10
52.4193465196875
20
-0.0577095649288708
30
0
41
1
10
52.4733025239324
20
-0.321792981061833
30
0
41
1
10
52.5164673273281
20
-0.537291092893014
30
0
41
1
10
52.6027969341199
20
-0.973495201818935
30
0
41
1
10
52.6459617375157
20
-1.19419791021065
30
0
41
1
10
52.7322913443073
20
-1.63682213103965
30
0
41
1
10
52.7754561477032
20
-1.85873720891163
30
0
41
1
10
52.8617857544948
20
-2.29920884538276
30
0
41
1
10
52.9049505578907
20
-2.51775604056184
30
0
41
1
10
52.9912801646823
20
-2.94656478577528
30
0
41
1
10
53.0344449680781
20
-3.15681491451676
30
0
41
1
10
53.1207745748698
20
-3.56406841953432
30
0
41
1
10
53.1639393782657
20
-3.76105977485207
30
0
41
1
10
53.2502689850574
20
-4.1371584412687
30
0
41
1
10
53.2934337884531
20
-4.31625490241046
30
0
41
1
10
53.3797633952448
20
-4.65260038477294
30
0
41
1
10
53.4229281986406
20
-4.80984139025162
30
0
41
1
10
53.5092578054323
20
-5.09947560461765
30
0
41
1
10
53.5524226088281
20
-5.23186476485967
30
0
41
1
10
53.6387522156198
20
-5.46994267267146
30
0
41
1
10
53.6819170190156
20
-5.57563167351083
30
0
41
1
10
53.7682466258073
20
-5.75966180471355
30
0
41
1
10
53.8114114292031
20
-5.83800700816019
30
0
41
1
10
53.8977410359948
20
-5.96783976469288
30
0
41
1
10
53.9409058393906
20
-6.01933412613792
30
0
41
1
10
54.0272354461823
20
-6.09692523161468
30
0
41
1
10
54.0704002495782
20
-6.12303017366571
30
0
41
1
10
54.1351474546719
20
-6.1447889446635
30
0
41
1
10
54.1567298563697
20
-6.14914707278774
30
0
41
1
10
54.1891034589167
20
-6.15158356683599
30
0
41
1
10
54.1998946597657
20
-6.15171658611911
30
0
41
1
10
54.2214770614636
20
-6.15063680907343
30
0
41
1
10
54.2322682623125
20
-6.1494178701044
30
0
41
1
10
54.2862242665573
20
-6.13982450612656
30
0
41
1
10
54.3293890699531
20
-6.12093378245291
30
0
41
1
10
54.4157186767448
20
-6.05836496554235
30
0
41
1
10
54.4588834801406
20
-6.01467851607191
30
0
41
1
10
54.5452130869323
20
-5.9008084899904
30
0
41
1
10
54.5883778903282
20
-5.83061754440516
30
0
41
1
10
54.6747074971198
20
-5.66293143735305
30
0
41
1
10
54.7178723005156
20
-5.56543124950082
30
0
41
1
10
54.7610371039115
20
-5.45442236054171
30
0
0
SPLINE
5
D7
100
AcDbEntity
8
1
62
256
6
ByLayer
370
13
48
1
60
0
100
AcDbSpline
70
4
71
3
72
78
73
74
40
0
40
0
40
0
40
0
40
0.0312499999999993
40
0.0312499999999993
40
0.0624999999999987
40
0.0624999999999987
40
0.093749999999998
40
0.093749999999998
40
0.124999999999997
40
0.124999999999997
40
0.156249999999997
40
0.156249999999997
40
0.187499999999996
40
0.187499999999996
40
0.218749999999995
40
0.218749999999995
40
0.249999999999995
40
0.249999999999995
40
0.281249999999994
40
0.281249999999994
40
0.312499999999993
40
0.312499999999993
40
0.343749999999993
40
0.343749999999993
40
0.374999999999992
40
0.374999999999992
40
0.382812499999992
40
0.382812499999992
40
0.390624999999992
40
0.390624999999992
40
0.406249999999992
40
0.406249999999992
40
0.437499999999992
40
0.437499999999992
40
0.468749999999992
40
0.468749999999992
40
0.499999999999992
40
0.499999999999992
40
0.531249999999992
40
0.531249999999992
40
0.562499999999992
40
0.562499999999992
40
0.593749999999992
40
0.593749999999992
40
0.624999999999992
40
0.624999999999992
40
0.656249999999992
40
0.656249999999992
40
0.687499999999992
40
0.687499999999992
40
0.718749999999992
40
0.718749999999992
40
0.749999999999992
40
0.749999999999992
40
0.765624999999992
40
0.765624999999992
40
0.773437499999992
40
0.773437499999992
40
0.781249999999992
40
0.781249999999992
40
0.812499999999993
40
0.812499999999993
40
0.843749999999994
40
0.843749999999994
40
0.874999999999995
40
0.874999999999995
40
0.906249999999997
40
0.906249999999997
40
0.937499999999998
40
0.937499999999998
40
0.968749999999999
40
0.968749999999999
40
1
40
1
40
1
40
1
41
1
10
50.1143467079349
20
6.1515
30
0
41
1
10
50.162749732893
20
6.1515
30
0
41
1
10
50.2111527578511
20
6.13798116377876
30
0
41
1
10
50.3079588077673
20
6.08038301725426
30
0
41
1
10
50.3563618327254
20
6.03628883308682
30
0
41
1
10
50.4531678826416
20
5.91494380647708
30
0
41
1
10
50.5015709075997
20
5.83767962660537
30
0
41
1
10
50.5983769575159
20
5.64878657592831
30
0
41
1
10
50.6467799824739
20
5.53714889481603
30
0
41
1
10
50.7435860323901
20
5.28003293850006
30
0
41
1
10
50.7919890573482
20
5.13455301950825
30
0
41
1
10
50.8887951072644
20
4.81217505256734
30
0
41
1
10
50.9371981322225
20
4.6352838481437
30
0
41
1
10
51.0340041821386
20
4.25432955877238
30
0
41
1
10
51.0824072070967
20
4.05028114069603
30
0
41
1
10
51.1792132570129
20
3.62075514497067
30
0
41
1
10
51.227616281971
20
3.39529743363744
30
0
41
1
10
51.3244223318872
20
2.92966220819776
30
0
41
1
10
51.3728253568452
20
2.68950595732849
30
0
41
1
10
51.4696314067614
20
2.20151733237765
30
0
41
1
10
51.5180344317196
20
1.95370383251958
30
0
41
1
10
51.6148404816357
20
1.45716251378394
30
0
41
1
10
51.6632435065937
20
1.20844847320663
30
0
41
1
10
51.7600495565099
20
0.716087051712407
30
0
41
1
10
51.8084525814681
20
0.472447240229826
30
0
41
1
10
51.8689563626657
20
0.174112345956672
30
0
41
1
10
51.8810571189052
20
0.114753180194612
30
0
41
1
10
51.9052586313842
20
-0.0032854648895579
30
0
41
1
10
51.9173593876238
20
-0.0619909892095336
30
0
41
1
10
51.9536616563423
20
-0.239788782003046
30
0
41
1
10
51.9778631688214
20
-0.359636245693565
30
0
41
1
10
52.0504677062585
20
-0.722306253244625
30
0
41
1
10
52.0988707312166
20
-0.968291616534771
30
0
41
1
10
52.1956767811328
20
-1.46341299152641
30
0
41
1
10
52.2440798060908
20
-1.71253928358593
30
0
41
1
10
52.340885856007
20
-2.20766037518265
30
0
41
1
10
52.3892888809651
20
-2.45363944307024
30
0
41
1
10
52.4860949308813
20
-2.93555268395383
30
0
41
1
10
52.5344979558394
20
-3.17146678864628
30
0
41
1
10
52.6313040057555
20
-3.62625060733089
30
0
41
1
10
52.6797070307136
20
-3.84509908342088
30
0
41
1
10
52.7765130806298
20
-4.25929919579264
30
0
41
1
10
52.8249161055879
20
-4.45463235380169
30
0
41
1
10
52.9217221555041
20
-4.81650766892645
30
0
41
1
10
52.9701251804622
20
-4.98303763100481
30
0
41
1
10
53.0669312303783
20
-5.28364348934514
30
0
41
1
10
53.1153342553364
20
-5.41771548011076
30
0
41
1
10
53.2121403052526
20
-5.65162088528217
30
0
41
1
10
53.2605433302107
20
-5.75145863076386
30
0
41
1
10
53.3573493801268
20
-5.91698102345126
30
0
41
1
10
53.405752405085
20
-5.98267636601588
30
0
41
1
10
53.5025584550011
20
-6.08163534909505
30
0
41
1
10
53.5509614799592
20
-6.11491317962702
30
0
41
1
10
53.6235660173963
20
-6.14273545195334
30
0
41
1
10
53.6477675298754
20
-6.14833550345421
30
0
41
1
10
53.684069798594
20
-6.15156172914845
30
0
41
1
10
53.6961705548335
20
-6.151780345546
30
0
41
1
10
53.7203720673126
20
-6.15052674605303
30
0
41
1
10
53.7324728235521
20
-6.14904569234264
30
0
41
1
10
53.7929766047497
20
-6.13722373264608
30
0
41
1
10
53.8413796297078
20
-6.11359932244505
30
0
41
1
10
53.9381856796239
20
-6.03477114802101
30
0
41
1
10
53.986588704582
20
-5.97955271547829
30
0
41
1
10
54.0833947544982
20
-5.83536929422019
30
0
41
1
10
54.1317977794563
20
-5.74639217856321
30
0
41
1
10
54.2286038293725
20
-5.53404481218465
30
0
41
1
10
54.2770068543306
20
-5.4106679543811
30
0
41
1
10
54.3738129042467
20
-5.13068756055384
30
0
41
1
10
54.4222159292047
20
-4.97408522904209
30
0
41
1
10
54.519021979121
20
-4.63072215686344
30
0
41
1
10
54.567425004079
20
-4.44397111982212
30
0
41
1
10
54.6642310539953
20
-4.04511784458648
30
0
41
1
10
54.7126340789533
20
-3.83303243045654
30
0
41
1
10
54.7610371039115
20
-3.61134184486971
30
0
0
SPLINE
5
D8
100
AcDbEntity
8
1
62
256
6
ByLayer
370
13
48
1
60
0
100
AcDbSpline
70
4
71
3
72
76
73
72
40
0
40
0
40
0
40
0
40
0.0312500000000004
40
0.0312500000000004
40
0.0625000000000007
40
0.0625000000000007
40
0.093750000000001
40
0.093750000000001
40
0.125000000000001
40
0.125000000000001
40
0.156250000000002
40
0.156250000000002
40
0.187500000000002
40
0.187500000000002
40
0.218750000000002
40
0.218750000000002
40
0.250000000000003
40
0.250000000000003
40
0.281250000000003
40
0.281250000000003
40
0.312500000000004
40
0.312500000000004
40
0.343750000000004
40
0.343750000000004
40
0.351562500000004
40
0.351562500000004
40
0.359375000000004
40
0.359375000000004
40
0.375000000000005
40
0.375000000000005
40
0.406250000000005
40
0.406250000000005
40
0.437500000000005
40
0.437500000000005
40
0.468750000000005
40
0.468750000000005
40
0.500000000000005
40
0.500000000000005
40
0.531250000000005
40
0.531250000000005
40
0.562500000000005
40
0.562500000000005
40
0.593750000000005
40
0.593750000000005
40
0.625000000000005
40
0.625000000000005
40
0.656250000000005
40
0.656250000000005
40
0.687500000000005
40
0.687500000000005
40
0.703125000000005
40
0.703125000000005
40
0.718750000000005
40
0.718750000000005
40
0.750000000000004
40
0.750000000000004
40
0.781250000000004
40
0.781250000000004
40
0.812500000000003
40
0.812500000000003
40
0.843750000000003
40
0.843750000000003
40
0.875000000000002
40
0.875000000000002
40
0.906250000000002
40
0.906250000000002
40
0.937500000000001
40
0.937500000000001
40
0.968750000000001
40
0.968750000000001
40
1
40
1
40
1
40
1
41
1
10
49.6114774379583
20
6.1515
30
0
41
1
10
49.6651186844786
20
6.1515
30
0
41
1
10
49.718759930999
20
6.13488753911491
30
0
41
1
10
49.8260424240397
20
6.06370127697858
30
0
41
1
10
49.87968367056
20
6.00910271266463
30
0
41
1
10
49.9869661636007
20
5.85867307382216
30
0
41
1
10
50.0406074101211
20
5.76282096973031
30
0
41
1
10
50.1478899031618
20
5.52883384806819
30
0
41
1
10
50.2015311496821
20
5.39068762762173
30
0
41
1
10
50.3088136427228
20
5.07378960735846
30
0
41
1
10
50.3624548892431
20
4.89504111979377
30
0
41
1
10
50.4697373822838
20
4.50147755850026
30
0
41
1
10
50.5233786288042
20
4.28668133156438
30
0
41
1
10
50.6306611218449
20
3.82809007589589
30
0
41
1
10
50.6843023683653
20
3.58432580401254
30
0
41
1
10
50.7915848614059
20
3.07663256262347
30
0
41
1
10
50.8452261079263
20
2.81273911454892
30
0
41
1
10
50.952508600967
20
2.27436380683596
30
0
41
1
10
51.0061498474873
20
1.99991429604111
30
0
41
1
10
51.1134323405279
20
1.44969719883804
30
0
41
1
10
51.1670735870483
20
1.17395288052518
30
0
41
1
10
51.274356080089
20
0.629256277354955
30
0
41
1
10
51.3279973266094
20
0.360315800687005
30
0
41
1
10
51.3950488847598
20
0.0323964350820063
30
0
41
1
10
51.4084591963899
20
-0.0325652068792124
30
0
41
1
10
51.4352798196501
20
-0.163734358894033
30
0
41
1
10
51.4486901312802
20
-0.229727231769715
30
0
41
1
10
51.4889210661704
20
-0.428797047866766
30
0
41
1
10
51.5157416894306
20
-0.562968744494071
30
0
41
1
10
51.5962035592111
20
-0.96865963151771
30
0
41
1
10
51.6498448057314
20
-1.24340356247603
30
0
41
1
10
51.7571272987721
20
-1.79377559281349
30
0
41
1
10
51.8107685452924
20
-2.06938320854036
30
0
41
1
10
51.9180510383331
20
-2.61245333195617
30
0
41
1
10
51.9716922848535
20
-2.87988533138599
30
0
41
1
10
52.0789747778942
20
-3.39702036464888
30
0
41
1
10
52.1326160244146
20
-3.6466879632934
30
0
41
1
10
52.2398985174553
20
-4.11916811660475
30
0
41
1
10
52.2935397639756
20
-4.34194797041525
30
0
41
1
10
52.4008222570163
20
-4.75303756006079
30
0
41
1
10
52.4544635035366
20
-4.94132496152926
30
0
41
1
10
52.5617459965773
20
-5.27817917744318
30
0
41
1
10
52.6153872430976
20
-5.42673871514017
30
0
41
1
10
52.7226697361384
20
-5.68170974923046
30
0
41
1
10
52.7763109826587
20
-5.7881291524069
30
0
41
1
10
52.8835934756993
20
-5.95920204140256
30
0
41
1
10
52.9372347222197
20
-6.0238746609345
30
0
41
1
10
53.0445172152604
20
-6.11422169233424
30
0
41
1
10
53.0981584617808
20
-6.13992049204319
30
0
41
1
10
53.1786203315613
20
-6.15257746182303
30
0
41
1
10
53.2054409548215
20
-6.15257396166663
30
0
41
1
10
53.2590822013418
20
-6.14412115858494
30
0
41
1
10
53.285902824602
20
-6.13558946504796
30
0
41
1
10
53.3663646943825
20
-6.09618787163021
30
0
41
1
10
53.4200059409028
20
-6.05145591916786
30
0
41
1
10
53.5272884339435
20
-5.92139418943938
30
0
41
1
10
53.5809296804638
20
-5.83604187829596
30
0
41
1
10
53.6882121735045
20
-5.62307571653071
30
0
41
1
10
53.7418534200249
20
-5.4954476714818
30
0
41
1
10
53.8491359130656
20
-5.1988964743534
30
0
41
1
10
53.9027771595859
20
-5.02997273900004
30
0
41
1
10
54.0100596526266
20
-4.6546668449908
30
0
41
1
10
54.063700899147
20
-4.44829981359342
30
0
41
1
10
54.1709833921876
20
-4.0046001212817
30
0
41
1
10
54.224624638708
20
-3.76729581297192
30
0
41
1
10
54.3319071317487
20
-3.27020404538806
30
0
41
1
10
54.3855483782691
20
-3.01045168380469
30
0
41
1
10
54.4928308713097
20
-2.47795616506426
30
0
41
1
10
54.54647211783
20
-2.20524682115808
30
0
41
1
10
54.6537546108708
20
-1.65627474546588
30
0
41
1
10
54.7073958573911
20
-1.38003791928696
30
0
41
1
10
54.7610371039114
20
-1.10625613704536
30
0
0
SPLINE
5
D9
100
AcDbEntity
8
1
62
256
6
ByLayer
370
13
48
1
60
0
100
AcDbSpline
70
4
71
3
72
82
73
78
40
0
40
0
40
0
40
0
40
0.0312499999999991
40
0.0312499999999991
40
0.0624999999999983
40
0.0624999999999983
40
0.0937499999999974
40
0.0937499999999974
40
0.124999999999997
40
0.124999999999997
40
0.156249999999996
40
0.156249999999996
40
0.187499999999995
40
0.187499999999995
40
0.218749999999994
40
0.218749999999994
40
0.249999999999993
40
0.249999999999993
40
0.281249999999992
40
0.281249999999992
40
0.312499999999991
40
0.312499999999991
40
0.320312499999991
40
0.320312499999991
40
0.328124999999991
40
0.328124999999991
40
0.343749999999991
40
0.343749999999991
40
0.374999999999991
40
0.374999999999991
40
0.406249999999991
40
0.406249999999991
40
0.43749999999999
40
0.43749999999999
40
0.46874999999999
40
0.46874999999999
40
0.49999999999999
40
0.49999999999999
40
0.531249999999989
40
0.531249999999989
40
0.562499999999989
40
0.562499999999989
40
0.593749999999989
40
0.593749999999989
40
0.624999999999989
40
0.624999999999989
40
0.632812499999989
40
0.632812499999989
40
0.640624999999989
40
0.640624999999989
40
0.65624999999999
40
0.65624999999999
40
0.687499999999991
40
0.687499999999991
40
0.718749999999992
40
0.718749999999992
40
0.749999999999992
40
0.749999999999992
40
0.781249999999993
40
0.781249999999993
40
0.812499999999994
40
0.812499999999994
40
0.843749999999996
40
0.843749999999996
40
0.874999999999997
40
0.874999999999997
40
0.906249999999998
40
0.906249999999998
40
0.937499999999999
40
0.937499999999999
40
0.945312499999999
40
0.945312499999999
40
0.953124999999999
40
0.953124999999999
40
0.968749999999999
40
0.968749999999999
40
1
40
1
40
1
40
1
41
1
10
49.1086081679817
20
6.1515
30
0
41
1
10
49.1674876360643
20
6.1515
30
0
41
1
10
49.2263671041469
20
6.13147187063316
30
0
41
1
10
49.3441260403121
20
6.04517543648208
30
0
41
1
10
49.4030055083947
20
5.97886792827109
30
0
41
1
10
49.5207644445599
20
5.7960531756531
30
0
41
1
10
49.5796439126426
20
5.67951482851885
30
0
41
1
10
49.6974028488077
20
5.39567504505868
30
0
41
1
10
49.7562823168903
20
5.22836202403997
30
0
41
1
10
49.8740412530555
20
4.8464889036178
30
0
41
1
10
49.9329207211381
20
4.63194395273698
30
0
41
1
10
50.0506796573033
20
4.16316990616437
30
0
41
1
10
50.1095591253859
20
3.90898116712535
30
0
41
1
10
50.2273180615511
20
3.37168117262718
30
0
41
1
10
50.2861975296337
20
3.08862482047994
30
0
41
1
10
50.403956465799
20
2.50607241395477
30
0
41
1
10
50.4628359338815
20
2.20663064070473
30
0
41
1
10
50.5805948700467
20
1.6038138659317
30
0
41
1
10
50.6394743381293
20
1.30047958704944
30
0
41
1
10
50.7572332742945
20
0.700937720753387
30
0
41
1
10
50.8161127423771
20
0.40475118138869
30
0
41
1
10
50.8897120774804
20
0.0443911344075332
30
0
41
1
10
50.9044319445011
20
-0.0268986149278589
30
0
41
1
10
50.9338716785424
20
-0.170883558490232
30
0
41
1
10
50.948591545563
20
-0.24336784453169
30
0
41
1
10
50.992751146625
20
-0.462118574114527
30
0
41
1
10
51.0221908806662
20
-0.609688021143995
30
0
41
1
10
51.1105100827901
20
-1.0559943074901
30
0
41
1
10
51.1693895508727
20
-1.35839731777227
30
0
41
1
10
51.2871484870379
20
-1.96252431202373
30
0
41
1
10
51.3460279551206
20
-2.2642126164186
30
0
41
1
10
51.4637868912857
20
-2.85470012745543
30
0
41
1
10
51.5226663593684
20
-3.14344767740786
30
0
41
1
10
51.6404252955336
20
-3.69540830863616
30
0
41
1
10
51.6993047636162
20
-3.95856513347934
30
0
41
1
10
51.8170636997814
20
-4.44793276234694
30
0
41
1
10
51.875943167864
20
-4.67409792024674
30
0
41
1
10
51.9937021040292
20
-5.08089270189777
30
0
41
1
10
52.0525815721118
20
-5.2614997928203
30
0
41
1
10
52.170340508277
20
-5.57247611721306
30
0
41
1
10
52.2292199763596
20
-5.70285011410022
30
0
41
1
10
52.3469789125248
20
-5.91281843871855
30
0
41
1
10
52.4058583806074
20
-5.99243964636133
30
0
41
1
10
52.5236173167726
20
-6.10401870715074
30
0
41
1
10
52.5824967848552
20
-6.13601472074768
30
0
41
1
10
52.6560961199585
20
-6.14981650321246
30
0
41
1
10
52.6708159869791
20
-6.1512719652327
30
0
41
1
10
52.7002557210204
20
-6.1516784798113
30
0
41
1
10
52.7149755880411
20
-6.15063696287734
30
0
41
1
10
52.7591351891029
20
-6.14362489497469
30
0
41
1
10
52.7885749231443
20
-6.13376079383576
30
0
41
1
10
52.8768941252682
20
-6.08743020373365
30
0
41
1
10
52.9357735933509
20
-6.0341411565993
30
0
41
1
10
53.053532529516
20
-5.87814005350316
30
0
41
1
10
53.1124119975986
20
-5.77539353822783
30
0
41
1
10
53.2301709337638
20
-5.51890496724019
30
0
41
1
10
53.2890504018465
20
-5.36514506145329
30
0
41
1
10
53.4068093380116
20
-5.00901226994301
30
0
41
1
10
53.4656888060942
20
-4.80664704007469
30
0
41
1
10
53.5834477422594
20
-4.35982309042413
30
0
41
1
10
53.642327210342
20
-4.11539863006246
30
0
41
1
10
53.7600861465072
20
-3.59447870814273
30
0
41
1
10
53.8189656145898
20
-3.31803564655729
30
0
41
1
10
53.936724550755
20
-2.74526285199528
30
0
41
1
10
53.9956040188376
20
-2.44898905169043
30
0
41
1
10
54.1133629550028
20
-1.84921650986897
30
0
41
1
10
54.1722424230854
20
-1.54576308614304
30
0
41
1
10
54.2900013592507
20
-0.943200489911561
30
0
41
1
10
54.3488808273332
20
-0.64411784558402
30
0
41
1
10
54.4224801624365
20
-0.278838648686587
30
0
41
1
10
54.4372000294571
20
-0.206205305765423
30
0
41
1
10
54.4666397634984
20
-0.061903718401453
30
0
41
1
10
54.4813596305191
20
0.0094263373056265
30
0
41
1
10
54.525519231581
20
0.22516289700701
30
0
41
1
10
54.5549589656223
20
0.370978126313702
30
0
41
1
10
54.6432781677462
20
0.812922772091952
30
0
41
1
10
54.7021576358289
20
1.11362566480426
30
0
41
1
10
54.7610371039115
20
1.41550910273369
30
0
0
SPLINE
5
DA
100
AcDbEntity
8
1
62
256
6
ByLayer
370
13
48
1
60
0
100
AcDbSpline
70
4
71
3
72
84
73
80
40
0
40
0
40
0
40
0
40
0.0312499999999995
40
0.0312499999999995
40
0.062499999999999
40
0.062499999999999
40
0.0937499999999985
40
0.0937499999999985
40
0.124999999999998
40
0.124999999999998
40
0.156249999999998
40
0.156249999999998
40
0.187499999999997
40
0.187499999999997
40
0.218749999999997
40
0.218749999999997
40
0.249999999999996
40
0.249999999999996
40
0.281249999999995
40
0.281249999999995
40
0.289062499999995
40
0.289062499999995
40
0.292968749999995
40
0.292968749999995
40
0.296874999999995
40
0.312499999999995
40
0.312499999999995
40
0.343749999999995
40
0.343749999999995
40
0.374999999999995
40
0.374999999999995
40
0.406249999999995
40
0.406249999999995
40
0.437499999999994
40
0.437499999999994
40
0.468749999999994
40
0.468749999999994
40
0.499999999999994
40
0.499999999999994
40
0.531249999999994
40
0.531249999999994
40
0.562499999999994
40
0.562499999999994
40
0.578124999999994
40
0.578124999999994
40
0.585937499999994
40
0.585937499999994
40
0.593749999999994
40
0.593749999999994
40
0.624999999999995
40
0.624999999999995
40
0.656249999999995
40
0.656249999999995
40
0.687499999999996
40
0.687499999999996
40
0.718749999999997
40
0.718749999999997
40
0.749999999999998
40
0.749999999999998
40
0.781249999999999
40
0.781249999999999
40
0.8125
40
0.8125
40
0.84375
40
0.84375
40
0.859375000000001
40
0.859375000000001
40
0.867187500000001
40
0.871093750000001
40
0.871093750000001
40
0.875000000000001
40
0.875000000000001
40
0.906250000000001
40
0.906250000000001
40
0.9375
40
0.9375
40
0.96875
40
0.96875
40
1
40
1
40
1
40
1
41
1
10
48.6057388980051
20
6.1515
30
0
41
1
10
48.6698565876499
20
6.1515
30
0
41
1
10
48.7339742772948
20
6.12773263995061
30
0
41
1
10
48.8622096565845
20
6.02478458184336
30
0
41
1
10
48.9263273462294
20
5.94554438798849
30
0
41
1
10
49.0545627255191
20
5.72703541325063
30
0
41
1
10
49.118680415164
20
5.58772327061044
30
0
41
1
10
49.2469157944537
20
5.24945400713918
30
0
41
1
10
49.3110334840985
20
5.05048953030513
30
0
41
1
10
49.4392688633882
20
4.59913082578785
30
0
41
1
10
49.5033865530331
20
4.34677452669555
30
0
41
1
10
49.6316219323228
20
3.80024036722293
30
0
41
1
10
49.6957396219677
20
3.50613668461421
30
0
41
1
10
49.8239750012574
20
2.8913738383163
30
0
41
1
10
49.8880926909022
20
2.57080093624273
30
0
41
1
10
50.016328070192
20
1.91951437208081
30
0
41
1
10
50.0804457598368
20
1.58887252322992
30
0
41
1
10
50.2086811391266
20
0.932542635052727
30
0
41
1
10
50.2727988287714
20
0.606895768701094
30
0
41
1
10
50.3529459408275
20
0.210452331326394
30
0
41
1
10
50.3689753632387
20
0.131685625493418
30
0
41
1
10
50.3930194968555
20
0.0144314845152849
30
0
41
1
10
50.4010342080611
20
-0.0244422454674975
30
0
41
1
10
50.4170636304724
20
-0.102662594917547
30
0
41
1
10
50.4571371865004
20
-0.298953346283042
30
0
41
1
10
50.4972107425284
20
-0.498738336207424
30
0
41
1
10
50.5933872769957
20
-0.982939900606851
30
0
41
1
10
50.6575049666405
20
-1.31212929740505
30
0
41
1
10
50.7857403459302
20
-1.9700367800481
30
0
41
1
10
50.8498580355751
20
-2.29870091278121
30
0
41
1
10
50.9780934148648
20
-2.93974912105767
30
0
41
1
10
51.0422111045097
20
-3.25205312253695
30
0
41
1
10
51.1704464837994
20
-3.84410606604595
30
0
41
1
10
51.2345641734443
20
-4.12377005959124
30
0
41
1
10
51.3627995527339
20
-4.63637103544579
30
0
41
1
10
51.4269172423789
20
-4.86924557249287
30
0
41
1
10
51.5551526216685
20
-5.27851472014126
30
0
41
1
10
51.6192703113134
20
-5.45488886366704
30
0
41
1
10
51.7475056906032
20
-5.7471280853774
30
0
41
1
10
51.811623380248
20
-5.8630163381664
30
0
41
1
10
51.9398587595377
20
-6.03592590554703
30
0
41
1
10
52.0039764491826
20
-6.09299935139083
30
0
41
1
10
52.1001529836498
20
-6.13904618681138
30
0
41
1
10
52.1322118284723
20
-6.14783077100827
30
0
41
1
10
52.1803000957059
20
-6.15193289660729
30
0
41
1
10
52.1963295181172
20
-6.15180775243763
30
0
41
1
10
52.2283883629396
20
-6.14855482143395
30
0
41
1
10
52.2444177853508
20
-6.14541113346922
30
0
41
1
10
52.3245648974068
20
-6.12177601114499
30
0
41
1
10
52.3886825870517
20
-6.07741493209633
30
0
41
1
10
52.5169179663414
20
-5.93100050478327
30
0
41
1
10
52.5810356559863
20
-5.82889134846346
30
0
41
1
10
52.709271035276
20
-5.56413068325605
30
0
41
1
10
52.7733887249208
20
-5.40144766935495
30
0
41
1
10
52.9016241042105
20
-5.01813600983323
30
0
41
1
10
52.9657417938554
20
-4.79751730091431
30
0
41
1
10
53.0939771731452
20
-4.30675801563112
30
0
41
1
10
53.15809486279
20
-4.0366714498318
30
0
41
1
10
53.2863302420797
20
-3.46025985755136
30
0
41
1
10
53.3504479317246
20
-3.15401699606696
30
0
41
1
10
53.4786833110143
20
-2.52131549819643
30
0
41
1
10
53.5428010006592
20
-2.19494034232244
30
0
41
1
10
53.6710363799488
20
-1.53814405047808
30
0
41
1
10
53.7351540695937
20
-1.20778401378803
30
0
41
1
10
53.8313306040609
20
-0.719758872583242
30
0
41
1
10
53.8633894488834
20
-0.558314134697895
30
0
41
1
10
53.9114777161171
20
-0.319068095368152
30
0
41
1
10
53.9355218497339
20
-0.200172682318311
30
0
41
1
10
53.9595659833508
20
-0.0825456503977477
30
0
41
1
10
53.975595405762
20
-0.0044274071481993
30
0
41
1
10
53.9836101169676
20
0.0344596568973259
30
0
41
1
10
54.055742517818
20
0.386679195006792
30
0
41
1
10
54.1198602074629
20
0.709366647395086
30
0
41
1
10
54.2480955867525
20
1.36282578589635
30
0
41
1
10
54.3122132763974
20
1.69356400926631
30
0
41
1
10
54.4404486556871
20
2.34867631370014
30
0
41
1
10
54.504566345332
20
2.67298469185732
30
0
41
1
10
54.6328017246217
20
3.29896312592274
30
0
41
1
10
54.6969194142665
20
3.6005480972488
30
0
41
1
10
54.7610371039114
20
3.88292725150544
30
0
0
SPLINE
5
DB
100
AcDbEntity
8
1
62
256
6
ByLayer
370
13
48
1
60
0
100
AcDbSpline
70
4
71
3
72
86
73
82
40
0
40
0
40
0
40
0
40
0.0312499999999999
40
0.0312499999999999
40
0.0624999999999997
40
0.0624999999999997
40
0.0937499999999996
40
0.0937499999999996
40
0.125
40
0.125
40
0.156249999999999
40
0.156249999999999
40
0.187499999999999
40
0.187499999999999
40
0.218749999999999
40
0.218749999999999
40
0.249999999999999
40
0.249999999999999
40
0.265624999999999
40
0.265624999999999
40
0.273437499999999
40
0.273437499999999
40
0.281249999999999
40
0.281249999999999
40
0.312499999999999
40
0.312499999999999
40
0.34375
40
0.34375
40
0.375
40
0.375
40
0.40625
40
0.40625
40
0.437500000000001
40
0.437500000000001
40
0.468750000000001
40
0.468750000000001
40
0.500000000000001
40
0.500000000000001
40
0.531250000000001
40
0.531250000000001
40
0.535156250000002
40
0.535156250000002
40
0.539062500000002
40
0.539062500000002
40
0.546875000000002
40
0.546875000000002
40
0.562500000000002
40
0.562500000000002
40
0.593750000000001
40
0.593750000000001
40
0.625000000000001
40
0.625000000000001
40
0.656250000000001
40
0.656250000000001
40
0.687500000000001
40
0.687500000000001
40
0.718750000000001
40
0.718750000000001
40
0.75
40
0.75
40
0.78125
40
0.78125
40
0.796875
40
0.796875
40
0.8046875
40
0.8046875
40
0.80859375
40
0.80859375
40
0.8125
40
0.8125
40
0.84375
40
0.84375
40
0.875
40
0.875
40
0.90625
40
0.90625
40
0.9375
40
0.9375
40
0.96875
40
0.96875
40
1
40
1
40
1
40
1
41
1
10
48.1028696280285
20
6.1515
30
0
41
1
10
48.1722255392356
20
6.1515
30
0
41
1
10
48.2415814504427
20
6.12366810954759
30
0
41
1
10
48.3802932728569
20
6.00250888550849
30
0
41
1
10
48.449649184064
20
5.90909446533129
30
0
41
1
10
48.5883610064783
20
5.65158910495069
30
0
41
1
10
48.6577169176854
20
5.48744109572166
30
0
41
1
10
48.7964287400996
20
5.09040607185258
30
0
41
1
10
48.8657846513067
20
4.85752434409901
30
0
41
1
10
49.0044964737209
20
4.33296652935556
30
0
41
1
10
49.0738523849281
20
4.04136680079378
30
0
41
1
10
49.2125642073423
20
3.4161008815168
30
0
41
1
10
49.2819201185494
20
3.0825565400593
30
0
41
1
10
49.4206319409637
20
2.3938099936521
30
0
41
1
10
49.4899878521708
20
2.03872905281497
30
0
41
1
10
49.628699674585
20
1.32716796263875
30
0
41
1
10
49.6980555857921
20
0.970769634891838
30
0
41
1
10
49.8020894526028
20
0.447821314618807
30
0
41
1
10
49.8367674082063
20
0.275413144327871
30
0
41
1
10
49.8887843416116
20
0.0208969631561047
30
0
41
1
10
49.9061233194134
20
-0.0630528315192009
30
0
41
1
10
49.940801275017
20
-0.233176969184825
30
0
41
1
10
49.9581402528188
20
-0.318903634149223
30
0
41
1
10
50.0448351418277
20
-0.750362538831723
30
0
41
1
10
50.1141910530347
20
-1.10475745110671
30
0
41
1
10
50.252902875449
20
-1.81617425489998
30
0
41
1
10
50.3222587866561
20
-2.17312516709356
30
0
41
1
10
50.4609706090703
20
-2.8699583336446
30
0
41
1
10
50.5303265202774
20
-3.20972504552256
30
0
41
1
10
50.6690383426917
20
-3.85151961016837
30
0
41
1
10
50.7383942538988
20
-4.15342175566821
30
0
41
1
10
50.877106076313
20
-4.70161718217864
30
0
41
1
10
50.9464619875201
20
-4.94782146747281
30
0
41
1
10
51.0851738099343
20
-5.37295166553284
30
0
41
1
10
51.1545297211415
20
-5.55185706712763
30
0
41
1
10
51.2932415435557
20
-5.83865812725722
30
0
41
1
10
51.3625974547628
20
-5.94660006284033
30
0
41
1
10
51.501309277177
20
-6.09525485984145
30
0
41
1
10
51.5706651883842
20
-6.13605159874695
30
0
41
1
10
51.6486905884922
20
-6.14931313449986
30
0
41
1
10
51.657360077393
20
-6.15033581869153
30
0
41
1
10
51.6746990551949
20
-6.1515009691054
30
0
41
1
10
51.6833685440957
20
-6.15164506918606
30
0
41
1
10
51.7093770107984
20
-6.15077783268495
30
0
41
1
10
51.7267159886002
20
-6.1484535415112
30
0
41
1
10
51.7787329220055
20
-6.13598652856513
30
0
41
1
10
51.813410877609
20
-6.12034236207612
30
0
41
1
10
51.9174447444197
20
-6.04958616879475
30
0
41
1
10
51.9868006556269
20
-5.97046698818684
30
0
41
1
10
52.1255124780411
20
-5.74210707772474
30
0
41
1
10
52.1948683892483
20
-5.59279997922408
30
0
41
1
10
52.3335802116624
20
-5.22438280507416
30
0
41
1
10
52.4029361228695
20
-5.00526321529844
30
0
41
1
10
52.5416479452838
20
-4.50552383666079
30
0
41
1
10
52.6110038564909
20
-4.22496660403354
30
0
41
1
10
52.7497156789051
20
-3.61787201898852
30
0
41
1
10
52.8190715901122
20
-3.29145054699072
30
0
41
1
10
52.9577834125264
20
-2.612582545783
30
0
41
1
10
53.0271393237336
20
-2.26026124588213
30
0
41
1
10
53.1658511461478
20
-1.55018509364837
30
0
41
1
10
53.2352070573549
20
-1.19252233421165
30
0
41
1
10
53.3392409241656
20
-0.665317330648946
30
0
41
1
10
53.3739188797692
20
-0.491100159992072
30
0
41
1
10
53.4259358131744
20
-0.233385120794992
30
0
41
1
10
53.4432747909762
20
-0.1480794405133
30
0
41
1
10
53.4692832576789
20
-0.0211640502369335
30
0
41
1
10
53.4779527465798
20
0.0208773835627483
30
0
41
1
10
53.4952917243816
20
0.105486070476331
30
0
41
1
10
53.5039612132825
20
0.1479641348661
30
0
41
1
10
53.5819866133905
20
0.531724995353954
30
0
41
1
10
53.6513425245976
20
0.883420459804597
30
0
41
1
10
53.7900543470119
20
1.59312879622348
30
0
41
1
10
53.8594102582189
20
1.9510818428264
30
0
41
1
10
53.9981220806332
20
2.6542200779391
30
0
41
1
10
54.0674779918403
20
2.99929699167129
30
0
41
1
10
54.2061898142545
20
3.6559187982898
30
0
41
1
10
54.2755457254616
20
3.96733627048124
30
0
41
1
10
54.4142575478759
20
4.53787065814339
30
0
41
1
10
54.483613459083
20
4.79688739301614
30
0
41
1
10
54.6223252814972
20
5.24944541377229
30
0
41
1
10
54.6916811927043
20
5.44295086443057
30
0
41
1
10
54.7610371039114
20
5.60100806653492
30
0
0
SPLINE
5
DC
100
AcDbEntity
8
1
62
256
6
ByLayer
370
13
48
1
60
0
100
AcDbSpline
70
4
71
3
72
70
73
66
40
0
40
0
40
0
40
0
40
0.0312499999999999
40
0.0312499999999999
40
0.0624999999999998
40
0.0624999999999998
40
0.0937499999999997
40
0.0937499999999997
40
0.125
40
0.125
40
0.15625
40
0.15625
40
0.1875
40
0.1875
40
0.218749999999999
40
0.218749999999999
40
0.249999999999999
40
0.249999999999999
40
0.281249999999999
40
0.281249999999999
40
0.312499999999999
40
0.312499999999999
40
0.343749999999999
40
0.343749999999999
40
0.374999999999999
40
0.374999999999999
40
0.406249999999999
40
0.406249999999999
40
0.437499999999999
40
0.437499999999999
40
0.468749999999999
40
0.468749999999999
40
0.499999999999999
40
0.499999999999999
40
0.531249999999999
40
0.531249999999999
40
0.562499999999999
40
0.562499999999999
40
0.593749999999999
40
0.593749999999999
40
0.624999999999999
40
0.624999999999999
40
0.656249999999999
40
0.656249999999999
40
0.687499999999999
40
0.687499999999999
40
0.718749999999999
40
0.718749999999999
40
0.749999999999999
40
0.749999999999999
40
0.781249999999999
40
0.781249999999999
40
0.812499999999999
40
0.812499999999999
40
0.843749999999999
40
0.843749999999999
40
0.874999999999999
40
0.874999999999999
40
0.90625
40
0.90625
40
0.9375
40
0.9375
40
0.96875
40
0.96875
40
1
40
1
40
1
40
1
41
1
10
47.6000003580518
20
6.1515
30
0
41
1
10
47.6745944908212
20
6.1515
30
0
41
1
10
47.7491886235906
20
6.11927631000935
30
0
41
1
10
47.8983768891293
20
5.97832965876177
30
0
41
1
10
47.9729710218987
20
5.86948316542441
30
0
41
1
10
48.1221592874374
20
5.56970239248091
30
0
41
1
10
48.1967534202068
20
5.37869738103481
30
0
41
1
10
48.3459416857455
20
4.91885860041572
30
0
41
1
10
48.4205358185149
20
4.65005628977798
30
0
41
1
10
48.5697240840537
20
4.0494787995066
30
0
41
1
10
48.644318216823
20
3.71783882453258
30
0
41
1
10
48.7935064823618
20
3.01448329888149
30
0
41
1
10
48.8681006151311
20
2.64295036857786
30
0
41
1
10
49.0172888806699
20
1.88571952466964
30
0
41
1
10
49.0918830134393
20
1.50017509724222
30
0
41
1
10
49.241071278978
20
0.738517136325271
30
0
41
1
10
49.3156654117474
20
0.362481041175272
30
0
41
1
10
49.4648536772861
20
-0.36248017122179
30
0
41
1
10
49.5394478100555
20
-0.738516229563714
30
0
41
1
10
49.6886360755942
20
-1.50017417602464
30
0
41
1
10
49.7632302083636
20
-1.88571860463705
30
0
41
1
10
49.9124184739023
20
-2.64294947125637
30
0
41
1
10
49.9870126066717
20
-3.0144824231345
30
0
41
1
10
50.1362008722104
20
-3.71783801222622
30
0
41
1
10
50.2107950049798
20
-4.04947802906008
30
0
41
1
10
50.3599832705186
20
-4.65005561883839
30
0
41
1
10
50.434577403288
20
-4.91885798705647
30
0
41
1
10
50.5837656688267
20
-5.37869689078082
30
0
41
1
10
50.6583598015961
20
-5.56970196766102
30
0
41
1
10
50.8075480671348
20
-5.86948287077027
30
0
41
1
10
50.8821421999042
20
-5.97832942877335
30
0
41
1
10
51.0313304654429
20
-6.11927620172565
30
0
41
1
10
51.1059245982122
20
-6.15149994873744
30
0
41
1
10
51.255112863751
20
-6.15150005126245
30
0
41
1
10
51.3297069965204
20
-6.11927641829291
30
0
41
1
10
51.4788952620591
20
-5.97832988875004
30
0
41
1
10
51.5534893948285
20
-5.86948346007839
30
0
41
1
10
51.7026776603673
20
-5.56970281730065
30
0
41
1
10
51.7772717931366
20
-5.37869787128867
30
0
41
1
10
51.9264600586753
20
-4.91885921377482
30
0
41
1
10
52.0010541914447
20
-4.65005696071745
30
0
41
1
10
52.1502424569834
20
-4.04947956995304
30
0
41
1
10
52.2248365897528
20
-3.71783963683888
30
0
41
1
10
52.3740248552916
20
-3.01448417462842
30
0
41
1
10
52.4486189880609
20
-2.64295126589931
30
0
41
1
10
52.5978072535997
20
-1.8857204447022
30
0
41
1
10
52.6724013863691
20
-1.5001760184598
30
0
41
1
10
52.8215896519078
20
-0.738518043086856
30
0
41
1
10
52.8961837846772
20
-0.362481932362385
30
0
41
1
10
53.0453720502159
20
0.362479322501912
30
0
41
1
10
53.1199661829853
20
0.738515322802186
30
0
41
1
10
53.269154448524
20
1.50017325480709
30
0
41
1
10
53.3437485812934
20
1.88571768460443
30
0
41
1
10
53.4929368468322
20
2.64294857393483
30
0
41
1
10
53.5675309796015
20
3.01448154738745
30
0
41
1
10
53.7167192451403
20
3.71783719991973
30
0
41
1
10
53.7913133779096
20
4.04947725861345
30
0
41
1
10
53.9405016434484
20
4.65005494789867
30
0
41
1
10
54.0150957762178
20
4.91885737369708
30
0
41
1
10
54.1642840417565
20
5.37869640052665
30
0
41
1
10
54.2388781745258
20
5.56970154284099
30
0
41
1
10
54.3880664400646
20
5.86948257611596
30
0
41
1
10
54.4626605728339
20
5.97832919878479
30
0
41
1
10
54.6118488383727
20
6.11927609344181
30
0
41
1
10
54.686442971142
20
6.15149989747474
30
0
41
1
10
54.7610371039114
20
6.15149999999974
30
0
0
SPLINE
5
DD
100
AcDbEntity
8
1
62
256
6
ByLayer
370
13
48
1
60
0
100
AcDbSpline
70
4
71
3
72
86
73
82
40
0
40
0
40
0
40
0
40
0.03125
40
0.03125
40
0.0625
40
0.0625
40
0.0937500000000001
40
0.0937500000000001
40
0.125
40
0.125
40
0.15625
40
0.15625
40
0.1875
40
0.1875
40
0.19140625
40
0.19140625
40
0.1953125
40
0.1953125
40
0.203125
40
0.203125
40
0.21875
40
0.21875
40
0.25
40
0.25
40
0.28125
40
0.28125
40
0.3125
40
0.3125
40
0.343750000000001
40
0.343750000000001
40
0.375000000000001
40
0.375000000000001
40
0.406250000000001
40
0.406250000000001
40
0.437500000000001
40
0.437500000000001
40
0.453125000000001
40
0.453125000000001
40
0.460937500000001
40
0.460937500000001
40
0.464843750000001
40
0.464843750000001
40
0.468750000000001
40
0.468750000000001
40
0.500000000000001
40
0.500000000000001
40
0.531250000000001
40
0.531250000000001
40
0.562500000000001
40
0.562500000000001
40
0.593750000000001
40
0.593750000000001
40
0.625000000000001
40
0.625000000000001
40
0.656250000000001
40
0.656250000000001
40
0.687500000000001
40
0.687500000000001
40
0.718750000000002
40
0.718750000000002
40
0.726562500000002
40
0.726562500000002
40
0.734375000000002
40
0.734375000000002
40
0.750000000000002
40
0.750000000000002
40
0.781250000000001
40
0.781250000000001
40
0.812500000000001
40
0.812500000000001
40
0.843750000000001
40
0.843750000000001
40
0.875000000000001
40
0.875000000000001
40
0.906250000000001
40
0.906250000000001
40
0.9375
40
0.9375
40
0.96875
40
0.96875
40
1
40
1
40
1
40
1
41
1
10
47.6
20
5.60100969848321
30
0
41
1
10
47.6693559186665
20
5.44295272109556
30
0
41
1
10
47.738711837333
20
5.24944748511567
30
0
41
1
10
47.8774236746661
20
4.79688984833621
30
0
41
1
10
47.9467795933326
20
4.53787328253685
30
0
41
1
10
48.0854914306657
20
3.96733916871094
30
0
41
1
10
48.1548473493322
20
3.65592180117523
30
0
41
1
10
48.2935591866653
20
2.99930013284924
30
0
41
1
10
48.3629151053318
20
2.65422325281213
30
0
41
1
10
48.5016269426649
20
1.95108502040222
30
0
41
1
10
48.5709828613314
20
1.59313194297994
30
0
41
1
10
48.7096946986645
20
0.883423495861507
30
0
41
1
10
48.7790506173309
20
0.531727951719262
30
0
41
1
10
48.8570760258308
20
0.147966984732164
30
0
41
1
10
48.8657455156641
20
0.105488908275333
30
0
41
1
10
48.8830844953308
20
0.0208801967961278
30
0
41
1
10
48.8917539851641
20
-0.0211612414631475
30
0
41
1
10
48.917762454664
20
-0.14807662230649
30
0
41
1
10
48.9351014343306
20
-0.233382297457069
30
0
41
1
10
48.9871183733305
20
-0.491097324978654
30
0
41
1
10
49.0217963326639
20
-0.665314492817743
30
0
41
1
10
49.1258302106636
20
-1.19251950452849
30
0
41
1
10
49.1951861293302
20
-1.55018229176241
30
0
41
1
10
49.3338979666632
20
-2.2602585490857
30
0
41
1
10
49.4032538853297
20
-2.61257992635217
30
0
41
1
10
49.5419657226628
20
-3.29144812845047
30
0
41
1
10
49.6113216413293
20
-3.61786972394233
30
0
41
1
10
49.7500334786623
20
-4.22496458963246
30
0
41
1
10
49.8193893973289
20
-4.50552197926945
30
0
41
1
10
49.958101234662
20
-5.00526168654565
30
0
41
1
10
50.0274571533284
20
-5.22438144776191
30
0
41
1
10
50.1661689906615
20
-5.59279895908028
30
0
41
1
10
50.235524909328
20
-5.74210622316429
30
0
41
1
10
50.3742367466611
20
-5.97046644278549
30
0
41
1
10
50.4435926653276
20
-6.0495857669209
30
0
41
1
10
50.5476265433274
20
-6.12034215207157
30
0
41
1
10
50.5823045026607
20
-6.13598637867224
30
0
41
1
10
50.6343214416606
20
-6.14845347566683
30
0
41
1
10
50.6516604213272
20
-6.15077779384026
30
0
41
1
10
50.6776688908272
20
-6.15164506930034
30
0
41
1
10
50.6863383806605
20
-6.15150098195099
30
0
41
1
10
50.7036773603271
20
-6.15033585734983
30
0
41
1
10
50.7123468501604
20
-6.14931318612994
30
0
41
1
10
50.7903722586603
20
-6.13605176763963
30
0
41
1
10
50.8597281773268
20
-6.09525513677153
30
0
41
1
10
50.9984400146598
20
-5.94660055334424
30
0
41
1
10
51.0677959333264
20
-5.83865872321988
30
0
41
1
10
51.2065077706594
20
-5.55185785924436
30
0
41
1
10
51.275863689326
20
-5.37295254823135
30
0
41
1
10
51.4145755266591
20
-4.94782250517719
30
0
41
1
10
51.4839314453255
20
-4.70161828420737
30
0
41
1
10
51.6226432826586
20
-4.15342295307454
30
0
41
1
10
51.6919992013251
20
-3.85152083859526
30
0
41
1
10
51.8307110386582
20
-3.20972630205739
30
0
41
1
10
51.9000669573247
20
-2.86995958731666
30
0
41
1
10
52.0387787946578
20
-2.17312638664831
30
0
41
1
10
52.1081347133243
20
-1.81617544329899
30
0
41
1
10
52.2468465506573
20
-1.10475855815105
30
0
41
1
10
52.3162024693238
20
-0.750363595772171
30
0
41
1
10
52.402897367657
20
-0.318904622837209
30
0
41
1
10
52.4202363473237
20
-0.233177943939182
30
0
41
1
10
52.454914306657
20
-0.0630537779819917
30
0
41
1
10
52.4722532863235
20
0.0208960282871828
30
0
41
1
10
52.5242702253234
20
0.275412221928491
30
0
41
1
10
52.5589481846567
20
0.447820402479266
30
0
41
1
10
52.6629820626565
20
0.970768759435543
30
0
41
1
10
52.732337981323
20
1.32716711961308
30
0
41
1
10
52.8710498186561
20
2.03872828870442
30
0
41
1
10
52.9404057373226
20
2.39380927602039
30
0
41
1
10
53.0791175746557
20
3.08255592431343
30
0
41
1
10
53.1484734933222
20
3.41610032112817
30
0
41
1
10
53.2871853306553
20
4.04136635244708
30
0
41
1
10
53.3565412493218
20
4.33296613761587
30
0
41
1
10
53.4952530866548
20
4.85752405882755
30
0
41
1
10
53.5646090053214
20
5.09040583637417
30
0
41
1
10
53.7033208426545
20
5.48744094688044
30
0
41
1
10
53.772676761321
20
5.65158899292732
30
0
41
1
10
53.911388598654
20
5.90909441118234
30
0
41
1
10
53.9807445173206
20
6.00250885243605
30
0
41
1
10
54.1194563546536
20
6.12366810352702
30
0
41
1
10
54.1888122733201
20
6.1515
30
0
41
1
10
54.2581681919867
20
6.1515
30
0
0
SPLINE
5
DE
100
AcDbEntity
8
1
62
256
6
ByLayer
370
13
48
1
60
0
100
AcDbSpline
70
4
71
3
72
85
73
81
40
0
40
0
40
0
40
0
40
0.0312499999999998
40
0.0312499999999998
40
0.0624999999999995
40
0.0624999999999995
40
0.0937499999999993
40
0.0937499999999993
40
0.124999999999999
40
0.124999999999999
40
0.128906249999999
40
0.128906249999999
40
0.132812499999999
40
0.140624999999999
40
0.140624999999999
40
0.156249999999999
40
0.156249999999999
40
0.187499999999998
40
0.187499999999998
40
0.218749999999998
40
0.218749999999998
40
0.249999999999997
40
0.249999999999997
40
0.281249999999996
40
0.281249999999996
40
0.312499999999996
40
0.312499999999996
40
0.343749999999995
40
0.343749999999995
40
0.374999999999995
40
0.374999999999995
40
0.406249999999994
40
0.406249999999994
40
0.414062499999994
40
0.414062499999994
40
0.421874999999994
40
0.421874999999994
40
0.437499999999994
40
0.437499999999994
40
0.468749999999995
40
0.468749999999995
40
0.499999999999995
40
0.499999999999995
40
0.531249999999995
40
0.531249999999995
40
0.562499999999996
40
0.562499999999996
40
0.593749999999996
40
0.593749999999996
40
0.624999999999996
40
0.624999999999996
40
0.656249999999996
40
0.656249999999996
40
0.687499999999997
40
0.687499999999997
40
0.703124999999997
40
0.703124999999997
40
0.707031249999997
40
0.707031249999997
40
0.710937499999997
40
0.710937499999997
40
0.718749999999997
40
0.718749999999997
40
0.749999999999997
40
0.749999999999997
40
0.781249999999998
40
0.781249999999998
40
0.812499999999998
40
0.812499999999998
40
0.843749999999998
40
0.843749999999998
40
0.874999999999999
40
0.874999999999999
40
0.906249999999999
40
0.906249999999999
40
0.937499999999999
40
0.937499999999999
40
0.96875
40
0.96875
40
1
40
1
40
1
40
1
41
1
10
47.6
20
3.88293040527947
30
0
41
1
10
47.6641176971043
20
3.60055136052429
30
0
41
1
10
47.7282353942085
20
3.29896646695428
30
0
41
1
10
47.8564707884171
20
2.67298812363873
30
0
41
1
10
47.9205884855214
20
2.34867975855406
30
0
41
1
10
48.0488238797299
20
1.69356742379566
30
0
41
1
10
48.1129415768342
20
1.36282915716564
30
0
41
1
10
48.2411769710427
20
0.709369890130887
30
0
41
1
10
48.305294668147
20
0.386682352602065
30
0
41
1
10
48.3774270773893
20
0.0344627042670709
30
0
41
1
10
48.3854417895274
20
-0.0044243703709697
30
0
41
1
10
48.4014712138034
20
-0.0825426071500601
30
0
41
1
10
48.4255153502175
20
-0.200169630162492
30
0
41
1
10
48.4495594866316
20
-0.319065036778426
30
0
41
1
10
48.4976477594598
20
-0.558311066743642
30
0
41
1
10
48.5297066080119
20
-0.719755803064231
30
0
41
1
10
48.6258831536683
20
-1.20778095502507
30
0
41
1
10
48.6900008507726
20
-1.53814101966734
30
0
41
1
10
48.8182362449812
20
-2.19493741305274
30
0
41
1
10
48.8823539420854
20
-2.5213126425715
30
0
41
1
10
49.0105893362939
20
-3.15401433108298
30
0
41
1
10
49.0747070333982
20
-3.46025730955068
30
0
41
1
10
49.2029424276067
20
-4.03666916955635
30
0
41
1
10
49.2670601247111
20
-4.30675588600704
30
0
41
1
10
49.3952955189196
20
-4.79751549100715
30
0
41
1
10
49.4594132160238
20
-5.01813436885618
30
0
41
1
10
49.5876486102324
20
-5.40144636711045
30
0
41
1
10
49.6517663073367
20
-5.56412955069075
30
0
41
1
10
49.7800017015453
20
-5.82889054049559
30
0
41
1
10
49.8441193986495
20
-5.93099985166759
30
0
41
1
10
49.9723547928581
20
-6.07741456318507
30
0
41
1
10
50.0364724899623
20
-6.1217757715865
30
0
41
1
10
50.1166196113426
20
-6.14541103662572
30
0
41
1
10
50.1326490356187
20
-6.14855475219821
30
0
41
1
10
50.1647078841709
20
-6.15180773652278
30
0
41
1
10
50.1807373084469
20
-6.15193290606388
30
0
41
1
10
50.2288255812751
20
-6.14783085804109
30
0
41
1
10
50.2608844298272
20
-6.13904632651568
30
0
41
1
10
50.3570609754836
20
-6.09299965054385
30
0
41
1
10
50.421178672588
20
-6.03592631297033
30
0
41
1
10
50.5494140667965
20
-5.86301695666836
30
0
41
1
10
50.6135317639007
20
-5.74712880662094
30
0
41
1
10
50.7417671581093
20
-5.45488977437176
30
0
41
1
10
50.8058848552136
20
-5.27851571748099
30
0
41
1
10
50.9341202494221
20
-4.86924671778832
30
0
41
1
10
50.9982379465264
20
-4.63637224199346
30
0
41
1
10
51.1264733407349
20
-4.12377135774219
30
0
41
1
10
51.1905910378392
20
-3.8441073945275
30
0
41
1
10
51.3188264320477
20
-3.25205448033944
30
0
41
1
10
51.382944129152
20
-2.93975047788609
30
0
41
1
10
51.5111795233605
20
-2.29870224080258
30
0
41
1
10
51.5752972204648
20
-1.97003808030732
30
0
41
1
10
51.7035326146734
20
-1.31213052298438
30
0
41
1
10
51.7676503117776
20
-0.982941079340947
30
0
41
1
10
51.863826857434
20
-0.498739436791993
30
0
41
1
10
51.8958857059863
20
-0.338911417489186
30
0
41
1
10
51.9359592666763
20
-0.141922243381629
30
0
41
1
10
51.9439739788144
20
-0.102663625819503
30
0
41
1
10
51.9600034030905
20
-0.024443262090017
30
0
41
1
10
51.9680181152285
20
0.0144304730821148
30
0
41
1
10
51.9920622516426
20
0.13168461999652
30
0
41
1
10
52.0080916759186
20
0.21045133023415
30
0
41
1
10
52.088238797299
20
0.606894791895144
30
0
41
1
10
52.1523564944033
20
0.932541685008545
30
0
41
1
10
52.2805918886118
20
1.58887164070549
30
0
41
1
10
52.3447095857161
20
1.91951353032181
30
0
41
1
10
52.4729449799246
20
2.57080018682566
30
0
41
1
10
52.5370626770289
20
2.89137314045448
30
0
41
1
10
52.6652980712374
20
3.50613609509543
30
0
41
1
10
52.7294157683417
20
3.80023983444346
30
0
41
1
10
52.8576511625502
20
4.34677410572311
30
0
41
1
10
52.9217688596545
20
4.59913045982526
30
0
41
1
10
53.050004253863
20
5.0504892661381
30
0
41
1
10
53.1141219509673
20
5.24945378971543
30
0
41
1
10
53.2423573451758
20
5.58772313384776
30
0
41
1
10
53.3064750422802
20
5.72703531039471
30
0
41
1
10
53.4347104364887
20
5.94554433831715
30
0
41
1
10
53.498828133593
20
6.02478455146857
30
0
41
1
10
53.6270635278014
20
6.12773263439462
30
0
41
1
10
53.6911812249057
20
6.1515
30
0
41
1
10
53.75529892201
20
6.1515
30
0
0
SPLINE
5
DF
100
AcDbEntity
8
1
62
256
6
ByLayer
370
13
48
1
60
0
100
AcDbSpline
70
4
71
3
72
82
73
78
40
0
40
0
40
0
40
0
40
0.0312499999999989
40
0.0312499999999989
40
0.0468749999999985
40
0.0468749999999985
40
0.0546874999999983
40
0.0546874999999983
40
0.0624999999999981
40
0.0624999999999981
40
0.0937499999999976
40
0.0937499999999976
40
0.124999999999997
40
0.124999999999997
40
0.156249999999997
40
0.156249999999997
40
0.187499999999996
40
0.187499999999996
40
0.218749999999996
40
0.218749999999996
40
0.249999999999995
40
0.249999999999995
40
0.281249999999994
40
0.281249999999994
40
0.312499999999994
40
0.312499999999994
40
0.343749999999993
40
0.343749999999993
40
0.359374999999993
40
0.359374999999993
40
0.367187499999993
40
0.367187499999993
40
0.374999999999993
40
0.374999999999993
40
0.406249999999993
40
0.406249999999993
40
0.437499999999993
40
0.437499999999993
40
0.468749999999993
40
0.468749999999993
40
0.499999999999993
40
0.499999999999993
40
0.531249999999993
40
0.531249999999993
40
0.562499999999994
40
0.562499999999994
40
0.593749999999994
40
0.593749999999994
40
0.624999999999994
40
0.624999999999994
40
0.656249999999994
40
0.656249999999994
40
0.671874999999994
40
0.671874999999994
40
0.679687499999994
40
0.679687499999994
40
0.687499999999994
40
0.687499999999994
40
0.718749999999995
40
0.718749999999995
40
0.749999999999995
40
0.749999999999995
40
0.781249999999996
40
0.781249999999996
40
0.812499999999996
40
0.812499999999996
40
0.843749999999997
40
0.843749999999997
40
0.874999999999998
40
0.874999999999998
40
0.906249999999998
40
0.906249999999998
40
0.937499999999999
40
0.937499999999999
40
0.968749999999999
40
0.968749999999999
40
1
40
1
40
1
40
1
41
1
10
47.6
20
1.41551277429963
30
0
41
1
10
47.658879475542
20
1.11362928934338
30
0
41
1
10
47.7177589510841
20
0.812926327681822
30
0
41
1
10
47.8060781643971
20
0.370981555567795
30
0
41
1
10
47.8355179021681
20
0.225166280341654
30
0
41
1
10
47.8796775088246
20
0.0094296473158408
30
0
41
1
10
47.8943973777101
20
-0.061900405949018
30
0
41
1
10
47.9238371154811
20
-0.206201982032724
30
0
41
1
10
47.9385569843666
20
-0.278835320316091
30
0
41
1
10
48.012156328794
20
-0.644114499326463
30
0
41
1
10
48.0710358043361
20
-0.943197146426712
30
0
41
1
10
48.1887947554201
20
-1.54575978818846
30
0
41
1
10
48.2476742309622
20
-1.84921325472973
30
0
41
1
10
48.3654331820462
20
-2.44898592409652
30
0
41
1
10
48.4243126575883
20
-2.74525980915939
30
0
41
1
10
48.5420716086723
20
-3.3180328116818
30
0
41
1
10
48.6009510842143
20
-3.59447599644869
30
0
41
1
10
48.7187100352983
20
-4.11539619413671
30
0
41
1
10
48.7775895108403
20
-4.3598208070149
30
0
41
1
10
48.8953484619244
20
-4.80664507788819
30
0
41
1
10
48.9542279374664
20
-5.0090104763656
30
0
41
1
10
49.0719868885503
20
-5.36514360651145
30
0
41
1
10
49.1308663640924
20
-5.51890368223582
30
0
41
1
10
49.2486253151764
20
-5.77539258111574
30
0
41
1
10
49.3075047907184
20
-5.87813925429299
30
0
41
1
10
49.4252637418024
20
-6.03414065140348
30
0
41
1
10
49.4841432173445
20
-6.08742983464185
30
0
41
1
10
49.5724624306575
20
-6.13376060859605
30
0
41
1
10
49.6019021684285
20
-6.14362476767064
30
0
41
1
10
49.646061775085
20
-6.15063691726095
30
0
41
1
10
49.6607816439705
20
-6.15167846039839
30
0
41
1
10
49.6902213817415
20
-6.1512719971596
30
0
41
1
10
49.704941250627
20
-6.1498165610455
30
0
41
1
10
49.7785405950546
20
-6.13601490906353
30
0
41
1
10
49.8374200705965
20
-6.10401900297634
30
0
41
1
10
49.9551790216806
20
-5.99244015628131
30
0
41
1
10
50.0140584972226
20
-5.91281905518619
30
0
41
1
10
50.1318174483067
20
-5.70285093407463
30
0
41
1
10
50.1906969238487
20
-5.5724770340905
30
0
41
1
10
50.3084558749326
20
-5.2615008852122
30
0
41
1
10
50.3673353504747
20
-5.08089387284193
30
0
41
1
10
50.4850943015587
20
-4.67409922306118
30
0
41
1
10
50.5439737771008
20
-4.44793411843918
30
0
41
1
10
50.6617327281847
20
-3.9585665672862
30
0
41
1
10
50.7206122037267
20
-3.6954097668746
30
0
41
1
10
50.8383711548108
20
-3.14344915613029
30
0
41
1
10
50.8972506303528
20
-2.8547016022606
30
0
41
1
10
51.0150095814368
20
-2.26421405914869
30
0
41
1
10
51.0738890569789
20
-1.96252572664733
30
0
41
1
10
51.1916480080629
20
-1.35839865846552
30
0
41
1
10
51.2505274836049
20
-1.05599560241137
30
0
41
1
10
51.3388466969179
20
-0.609689239580746
30
0
41
1
10
51.368286434689
20
-0.462119765752817
30
0
41
1
10
51.4124460413455
20
-0.243368994658823
30
0
41
1
10
51.427165910231
20
-0.170884694560982
30
0
41
1
10
51.456605648002
20
-0.0268997225479382
30
0
41
1
10
51.4713255168874
20
0.0443900345176758
30
0
41
1
10
51.544924861315
20
0.404750102485849
30
0
41
1
10
51.603804336857
20
0.700936665302237
30
0
41
1
10
51.7215632879411
20
1.30047859169696
30
0
41
1
10
51.780442763483
20
1.60381290723586
30
0
41
1
10
51.8982017145671
20
2.20662976650644
30
0
41
1
10
51.9570811901091
20
2.50607158758982
30
0
41
1
10
52.0748401411931
20
3.08862409697548
30
0
41
1
10
52.1337196167352
20
3.37168050412271
30
0
41
1
10
52.2514785678192
20
3.90898061036444
30
0
41
1
10
52.3103580433612
20
4.16316940610693
30
0
41
1
10
52.4281169944452
20
4.63194356196274
30
0
41
1
10
52.4869964699872
20
4.84648856538439
30
0
41
1
10
52.6047554210712
20
5.2283617817213
30
0
41
1
10
52.6636348966133
20
5.39567484609032
30
0
41
1
10
52.7813938476974
20
5.67951470385137
30
0
41
1
10
52.8402733232393
20
5.79605308193419
30
0
41
1
10
52.9580322743233
20
5.97886788302566
30
0
41
1
10
53.0169117498654
20
6.04517540877754
30
0
41
1
10
53.1346707009494
20
6.13147186553914
30
0
41
1
10
53.1935501764914
20
6.1515
30
0
41
1
10
53.2524296520334
20
6.1515
30
0
0
SPLINE
5
E0
100
AcDbEntity
8
1
62
256
6
ByLayer
370
13
48
1
60
0
100
AcDbSpline
70
4
71
3
72
76
73
72
40
0
40
0
40
0
40
0
40
0.0312500000000002
40
0.0312500000000002
40
0.0625000000000003
40
0.0625000000000003
40
0.0937500000000004
40
0.0937500000000004
40
0.125000000000001
40
0.125000000000001
40
0.156250000000001
40
0.156250000000001
40
0.187500000000001
40
0.187500000000001
40
0.218750000000001
40
0.218750000000001
40
0.250000000000001
40
0.250000000000001
40
0.281250000000001
40
0.281250000000001
40
0.296875000000001
40
0.296875000000001
40
0.312500000000001
40
0.312500000000001
40
0.343750000000001
40
0.343750000000001
40
0.375000000000001
40
0.375000000000001
40
0.406250000000001
40
0.406250000000001
40
0.437500000000002
40
0.437500000000002
40
0.468750000000002
40
0.468750000000002
40
0.500000000000002
40
0.500000000000002
40
0.531250000000002
40
0.531250000000002
40
0.562500000000002
40
0.562500000000002
40
0.593750000000002
40
0.593750000000002
40
0.625000000000002
40
0.625000000000002
40
0.640625000000002
40
0.640625000000002
40
0.648437500000002
40
0.648437500000002
40
0.656250000000002
40
0.656250000000002
40
0.687500000000002
40
0.687500000000002
40
0.718750000000002
40
0.718750000000002
40
0.750000000000001
40
0.750000000000001
40
0.781250000000001
40
0.781250000000001
40
0.812500000000001
40
0.812500000000001
40
0.843750000000001
40
0.843750000000001
40
0.875000000000001
40
0.875000000000001
40
0.906250000000001
40
0.906250000000001
40
0.9375
40
0.9375
40
0.96875
40
0.96875
40
1
40
1
40
1
40
1
41
1
10
47.6
20
-1.10625248209414
30
0
41
1
10
47.6536412539797
20
-1.38003428107086
30
0
41
1
10
47.7072825079595
20
-1.65627114190636
30
0
41
1
10
47.814565015919
20
-2.20524332503334
30
0
41
1
10
47.8682062698987
20
-2.47795274174362
30
0
41
1
10
47.9754887778583
20
-3.01044844267503
30
0
41
1
10
48.029130031838
20
-3.27020091364284
30
0
41
1
10
48.1364125397976
20
-3.76729293074067
30
0
41
1
10
48.1900537937773
20
-4.00459737914471
30
0
41
1
10
48.2973363017369
20
-4.44829737281225
30
0
41
1
10
48.3509775557166
20
-4.65466456541068
30
0
41
1
10
48.4582600636761
20
-5.0299707911505
30
0
41
1
10
48.5119013176559
20
-5.19889469696562
30
0
41
1
10
48.6191838256154
20
-5.49544623224543
30
0
41
1
10
48.6728250795952
20
-5.62307444492882
30
0
41
1
10
48.7801075875547
20
-5.83604092874731
30
0
41
1
10
48.8337488415344
20
-5.92139339427993
30
0
41
1
10
48.9410313494939
20
-6.05145541209552
30
0
41
1
10
48.9946726034737
20
-6.09618749825384
30
0
41
1
10
49.0751344844433
20
-6.13558927366836
30
0
41
1
10
49.1019551114332
20
-6.14412102480645
30
0
41
1
10
49.155596365413
20
-6.15257393675742
30
0
41
1
10
49.1824169924029
20
-6.15257748720634
30
0
41
1
10
49.2628788733725
20
-6.13992067360735
30
0
41
1
10
49.3165201273523
20
-6.11422198097227
30
0
41
1
10
49.4238026353117
20
-6.02387516381248
30
0
41
1
10
49.4774438892915
20
-5.95920265142331
30
0
41
1
10
49.584726397251
20
-5.78812996976077
30
0
41
1
10
49.6383676512308
20
-5.68171066673824
30
0
41
1
10
49.7456501591903
20
-5.42673981865573
30
0
41
1
10
49.79929141317
20
-5.2781803667709
30
0
41
1
10
49.9065739211296
20
-4.9413263017409
30
0
41
1
10
49.9602151751093
20
-4.75303896530943
30
0
41
1
10
50.0674976830688
20
-4.34194948066221
30
0
41
1
10
50.1211389370486
20
-4.11916966679681
30
0
41
1
10
50.2284214450081
20
-3.64668956687541
30
0
41
1
10
50.2820626989879
20
-3.39702198168322
30
0
41
1
10
50.3893452069475
20
-2.87988695045411
30
0
41
1
10
50.4429864609272
20
-2.61245493963301
30
0
41
1
10
50.5502689688867
20
-2.0693847727016
30
0
41
1
10
50.6039102228665
20
-1.79377712488721
30
0
41
1
10
50.711192730826
20
-1.24340501528167
30
0
41
1
10
50.7648339848058
20
-0.968661037177583
30
0
41
1
10
50.8452958657754
20
-0.562970072634499
30
0
41
1
10
50.8721164927653
20
-0.428798349033571
30
0
41
1
10
50.9123474332501
20
-0.229728491304968
30
0
41
1
10
50.925757746745
20
-0.16373560435656
30
0
41
1
10
50.9525783737348
20
-0.0325664238887668
30
0
41
1
10
50.9659886872299
20
0.0323952270927919
30
0
41
1
10
51.0330402547046
20
0.360314613332605
30
0
41
1
10
51.0866815086843
20
0.629255112559264
30
0
41
1
10
51.1939640166438
20
1.17395177293682
30
0
41
1
10
51.2476052706236
20
1.44969612590603
30
0
41
1
10
51.3548877785831
20
1.9999133030999
30
0
41
1
10
51.4085290325628
20
2.27436285922664
30
0
41
1
10
51.5158115405224
20
2.812738265348
30
0
41
1
10
51.5694527945021
20
3.07663176648404
30
0
41
1
10
51.6767353024616
20
3.58432511754336
30
0
41
1
10
51.7303765564414
20
3.82808944601027
30
0
41
1
10
51.8376590644009
20
4.28668081354985
30
0
41
1
10
51.8913003183807
20
4.50147709574469
30
0
41
1
10
51.9985828263401
20
4.89504076160824
30
0
41
1
10
52.0522240803199
20
5.07378929846089
30
0
41
1
10
52.1595065882794
20
5.39068740770082
30
0
41
1
10
52.2131478422592
20
5.5288336678249
30
0
41
1
10
52.3204303502187
20
5.76282085712694
30
0
41
1
10
52.3740716041985
20
5.85867298918353
30
0
41
1
10
52.481354112158
20
6.00910267178972
30
0
41
1
10
52.5349953661377
20
6.06370125191523
30
0
41
1
10
52.6422778740973
20
6.13488753448053
30
0
41
1
10
52.695919128077
20
6.1515
30
0
41
1
10
52.7495603820568
20
6.1515
30
0
0
SPLINE
5
E1
100
AcDbEntity
8
1
62
256
6
ByLayer
370
13
48
1
60
0
100
AcDbSpline
70
4
71
3
72
78
73
74
40
0
40
0
40
0
40
0
40
0.0312499999999983
40
0.0312499999999983
40
0.0624999999999966
40
0.0624999999999966
40
0.093749999999995
40
0.093749999999995
40
0.124999999999993
40
0.124999999999993
40
0.156249999999992
40
0.156249999999992
40
0.18749999999999
40
0.18749999999999
40
0.218749999999988
40
0.218749999999988
40
0.226562499999988
40
0.226562499999988
40
0.234374999999988
40
0.234374999999988
40
0.249999999999988
40
0.249999999999988
40
0.281249999999989
40
0.281249999999989
40
0.312499999999989
40
0.312499999999989
40
0.343749999999989
40
0.343749999999989
40
0.37499999999999
40
0.37499999999999
40
0.40624999999999
40
0.40624999999999
40
0.437499999999991
40
0.437499999999991
40
0.468749999999991
40
0.468749999999991
40
0.499999999999992
40
0.499999999999992
40
0.531249999999992
40
0.531249999999992
40
0.562499999999993
40
0.562499999999993
40
0.593749999999994
40
0.593749999999994
40
0.609374999999994
40
0.609374999999994
40
0.617187499999994
40
0.617187499999994
40
0.624999999999994
40
0.624999999999994
40
0.656249999999994
40
0.656249999999994
40
0.687499999999995
40
0.687499999999995
40
0.718749999999995
40
0.718749999999995
40
0.749999999999996
40
0.749999999999996
40
0.781249999999996
40
0.781249999999996
40
0.812499999999997
40
0.812499999999997
40
0.843749999999997
40
0.843749999999997
40
0.874999999999998
40
0.874999999999998
40
0.906249999999998
40
0.906249999999998
40
0.937499999999999
40
0.937499999999999
40
0.96875
40
0.96875
40
1
40
1
40
1
40
1
41
1
10
47.6
20
-3.61133856504406
30
0
41
1
10
47.6484030324175
20
-3.83302927912311
30
0
41
1
10
47.696806064835
20
-4.04511483510444
30
0
41
1
10
47.79361212967
20
-4.44396841282767
30
0
41
1
10
47.8420151620875
20
-4.63071961046472
30
0
41
1
10
47.9388212269225
20
-4.97408301301255
30
0
41
1
10
47.98722425934
20
-5.13068551425255
30
0
41
1
10
48.084030324175
20
-5.41066624681193
30
0
41
1
10
48.1324333565925
20
-5.53404327358049
30
0
41
1
10
48.2292394214275
20
-5.74639096826925
30
0
41
1
10
48.277642453845
20
-5.83536824324685
30
0
41
1
10
48.37444851868
20
-5.97955196661559
30
0
41
1
10
48.4228515510975
20
-6.03477054194073
30
0
41
1
10
48.5196576159325
20
-6.11359898096046
30
0
41
1
10
48.56806064835
20
-6.13722351298171
30
0
41
1
10
48.6285644388719
20
-6.14904561061635
30
0
41
1
10
48.6406651969762
20
-6.15052669120306
30
0
41
1
10
48.664866713185
20
-6.1517803430165
30
0
41
1
10
48.6769674712894
20
-6.15156175200531
30
0
41
1
10
48.7132697456025
20
-6.14833560391412
30
0
41
1
10
48.7374712618113
20
-6.14273560486333
30
0
41
1
10
48.8100758104375
20
-6.1149134912346
30
0
41
1
10
48.8584788428551
20
-6.08163576832769
30
0
41
1
10
48.9552849076901
20
-5.98267699907456
30
0
41
1
10
49.0036879401076
20
-5.91698176269304
30
0
41
1
10
49.1004940049426
20
-5.75145957509744
30
0
41
1
10
49.14889703736
20
-5.65162192849925
30
0
41
1
10
49.245703102195
20
-5.41771670787088
30
0
41
1
10
49.2941061346125
20
-5.28364480273709
30
0
41
1
10
49.3909121994475
20
-4.98303909720278
30
0
41
1
10
49.4393152318651
20
-4.81650920227511
30
0
41
1
10
49.5361212967001
20
-4.45463399927269
30
0
41
1
10
49.5845243291175
20
-4.25930088622241
30
0
41
1
10
49.6813303939526
20
-3.84510083994982
30
0
41
1
10
49.7297334263701
20
-3.62625238500138
30
0
41
1
10
49.8265394912051
20
-3.17146858541008
30
0
41
1
10
49.8749425236226
20
-2.93555447868366
30
0
41
1
10
49.9717485884576
20
-2.45364121319858
30
0
41
1
10
50.0201516208751
20
-2.20766212276612
30
0
41
1
10
50.1169576857101
20
-1.71254096965316
30
0
41
1
10
50.1653607181276
20
-1.46341463864695
30
0
41
1
10
50.2621667829626
20
-0.968293174156798
30
0
41
1
10
50.3105698153801
20
-0.722307760335923
30
0
41
1
10
50.3831743640063
20
-0.359637671906739
30
0
41
1
10
50.4073758802151
20
-0.239790180407851
30
0
41
1
10
50.4436781545282
20
-0.0619923450449846
30
0
41
1
10
50.4557789126326
20
-0.0032868058933957
30
0
41
1
10
50.4799804288414
20
0.114751847122676
30
0
41
1
10
50.4920811869457
20
0.17411101718821
30
0
41
1
10
50.5525849774676
20
0.47244593468298
30
0
41
1
10
50.6009880098852
20
0.716085770234116
30
0
41
1
10
50.6977940747202
20
1.20844725070913
30
0
41
1
10
50.7461971071376
20
1.45716132620345
30
0
41
1
10
50.8430031719726
20
1.95370272443338
30
0
41
1
10
50.8914062043902
20
2.20151626886724
30
0
41
1
10
50.9882122692252
20
2.6895049903265
30
0
41
1
10
51.0366153016427
20
2.92966129311938
30
0
41
1
10
51.1334213664776
20
3.39529662649326
30
0
41
1
10
51.1818243988952
20
3.6207543938215
30
0
41
1
10
51.2786304637302
20
4.05028050176153
30
0
41
1
10
51.3270334961476
20
4.25432897603869
30
0
41
1
10
51.4238395609826
20
4.63528337411444
30
0
41
1
10
51.4722425934001
20
4.81217463102416
30
0
41
1
10
51.5690486582351
20
5.13455269582403
30
0
41
1
10
51.6174516906526
20
5.28003266017691
30
0
41
1
10
51.7142577554877
20
5.53714869764795
30
0
41
1
10
51.7626607879052
20
5.6487864145505
30
0
41
1
10
51.8594668527402
20
5.83767952598956
30
0
41
1
10
51.9078698851577
20
5.914943730837
30
0
41
1
10
52.0046759499927
20
6.03628879652365
30
0
41
1
10
52.0530789824102
20
6.0803829948016
30
0
41
1
10
52.1498850472452
20
6.13798115960199
30
0
41
1
10
52.1982880796627
20
6.1515
30
0
41
1
10
52.2466911120802
20
6.1515
30
0
0
SPLINE
5
E2
100
AcDbEntity
8
1
62
256
6
ByLayer
370
13
48
1
60
0
100
AcDbSpline
70
4
71
3
72
77
73
73
40
0
40
0
40
0
40
0
40
0.0312499999999986
40
0.0312499999999986
40
0.0624999999999972
40
0.0624999999999972
40
0.0937499999999958
40
0.0937499999999958
40
0.124999999999994
40
0.124999999999994
40
0.132812499999994
40
0.132812499999994
40
0.140624999999994
40
0.140624999999994
40
0.156249999999994
40
0.156249999999994
40
0.187499999999994
40
0.187499999999994
40
0.218749999999994
40
0.218749999999994
40
0.249999999999994
40
0.249999999999994
40
0.281249999999995
40
0.281249999999995
40
0.312499999999995
40
0.312499999999995
40
0.343749999999995
40
0.343749999999995
40
0.374999999999995
40
0.374999999999995
40
0.406249999999995
40
0.406249999999995
40
0.437499999999996
40
0.437499999999996
40
0.468749999999996
40
0.468749999999996
40
0.499999999999996
40
0.499999999999996
40
0.531249999999996
40
0.531249999999996
40
0.562499999999996
40
0.562499999999996
40
0.570312499999996
40
0.570312499999996
40
0.578124999999996
40
0.593749999999997
40
0.593749999999997
40
0.624999999999997
40
0.624999999999997
40
0.656249999999997
40
0.656249999999997
40
0.687499999999997
40
0.687499999999997
40
0.718749999999998
40
0.718749999999998
40
0.749999999999998
40
0.749999999999998
40
0.781249999999998
40
0.781249999999998
40
0.812499999999998
40
0.812499999999998
40
0.843749999999999
40
0.843749999999999
40
0.874999999999999
40
0.874999999999999
40
0.906249999999999
40
0.906249999999999
40
0.937499999999999
40
0.937499999999999
40
0.96875
40
0.96875
40
1
40
1
40
1
40
1
41
1
10
47.6
20
-5.45442051890402
30
0
41
1
10
47.6431648108552
20
-5.5654295759152
30
0
41
1
10
47.6863296217105
20
-5.66292992955886
30
0
41
1
10
47.772659243421
20
-5.83061635722072
30
0
41
1
10
47.8158240542762
20
-5.90080745761256
30
0
41
1
10
47.9021536759867
20
-6.01467777741385
30
0
41
1
10
47.945318486842
20
-6.05836436579517
30
0
41
1
10
48.0316481085524
20
-6.12093344149613
30
0
41
1
10
48.0748129194077
20
-6.1398242850548
30
0
41
1
10
48.1287689329767
20
-6.14941778611177
30
0
41
1
10
48.1395601356906
20
-6.15063675186167
30
0
41
1
10
48.1611425411182
20
-6.15171658119195
30
0
41
1
10
48.1719337438321
20
-6.1515835873181
30
0
41
1
10
48.2043073519735
20
-6.14914717076991
30
0
41
1
10
48.2258897574011
20
-6.14478909495966
30
0
41
1
10
48.290636973684
20
-6.1230304822212
30
0
41
1
10
48.3338017845392
20
-6.09692564745555
30
0
41
1
10
48.4201314062497
20
-6.01933475617457
30
0
41
1
10
48.4632962171049
20
-5.96784050162961
30
0
41
1
10
48.5496258388154
20
-5.83800795397528
30
0
41
1
10
48.5927906496706
20
-5.75966285249209
30
0
41
1
10
48.6791202713811
20
-5.57563291552455
30
0
41
1
10
48.7222850822364
20
-5.46994400693956
30
0
41
1
10
48.8086147039469
20
-5.23186626944459
30
0
41
1
10
48.8517795148021
20
-5.09947718724817
30
0
41
1
10
48.9381091365127
20
-4.80984311107744
30
0
41
1
10
48.9812739473678
20
-4.65260216573566
30
0
41
1
10
49.0676035690783
20
-4.31625678330121
30
0
41
1
10
49.1107683799336
20
-4.13716036194469
30
0
41
1
10
49.1970980016441
20
-3.76106175384635
30
0
41
1
10
49.2402628124993
20
-3.56407041706387
30
0
41
1
10
49.3265924342098
20
-3.15681692855887
30
0
41
1
10
49.3697572450651
20
-2.94656679780417
30
0
41
1
10
49.4560868667755
20
-2.51775803012012
30
0
41
1
10
49.4992516776308
20
-2.29921081449797
30
0
41
1
10
49.5855812993413
20
-1.85873912186344
30
0
41
1
10
49.6287461101965
20
-1.63682400828691
30
0
41
1
10
49.715075731907
20
-1.19419970452932
30
0
41
1
10
49.7582405427622
20
-0.973496948927817
30
0
41
1
10
49.8445701644728
20
-0.537292737950906
30
0
41
1
10
49.887734975328
20
-0.321794571289274
30
0
41
1
10
49.9416909888971
20
-0.0577110841215074
30
0
41
1
10
49.9524821916108
20
-0.0053402393368742
30
0
41
1
10
49.9740645970385
20
0.0998660640799756
30
0
41
1
10
50.0064382051799
20
0.258488976315704
30
0
41
1
10
50.0388118133214
20
0.419354697844085
30
0
41
1
10
50.1035590296042
20
0.74348108686732
30
0
41
1
10
50.1467238404595
20
0.962780834977849
30
0
41
1
10
50.23305346217
20
1.40407174057088
30
0
41
1
10
50.2762182730252
20
1.62605757135216
30
0
41
1
10
50.3625478947357
20
2.06832672934311
30
0
41
1
10
50.405712705591
20
2.28860165333848
30
0
41
1
10
50.4920423273015
20
2.72261177776719
30
0
41
1
10
50.5352071381567
20
2.93633613756575
30
0
41
1
10
50.6215367598672
20
3.35225642158639
30
0
41
1
10
50.6647015707224
20
3.55444034138623
30
0
41
1
10
50.7510311924329
20
3.9424877471464
30
0
41
1
10
50.7941960032881
20
4.12833976893575
30
0
41
1
10
50.8805256249986
20
4.47948702378085
30
0
41
1
10
50.9236904358539
20
4.64477308524263
30
0
41
1
10
51.0100200575644
20
4.95142390210168
30
0
41
1
10
51.0531848684196
20
5.09278313832277
30
0
41
1
10
51.1395144901301
20
5.34931271145982
30
0
41
1
10
51.1826793009854
20
5.46448181146792
30
0
41
1
10
51.2690089226959
20
5.66756344043293
30
0
41
1
10
51.3121737335511
20
5.75547880456213
30
0
41
1
10
51.3985033552616
20
5.90415964733316
30
0
41
1
10
51.4416681661168
20
5.96493112433515
30
0
41
1
10
51.5279977878273
20
6.06046865992519
30
0
41
1
10
51.5711625986826
20
6.09524258479502
30
0
41
1
10
51.6574922203931
20
6.14075405316834
30
0
41
1
10
51.7006570312483
20
6.1515
30
0
41
1
10
51.7438218421036
20
6.1515
30
0
0
SPLINE
5
E3
100
AcDbEntity
8
1
62
256
6
ByLayer
370
13
48
1
60
0
100
AcDbSpline
70
4
71
3
72
46
73
42
40
0
40
0
40
0
40
0
40
0.0156249999999999
40
0.0156249999999999
40
0.0312499999999998
40
0.0312499999999998
40
0.0624999999999997
40
0.0624999999999997
40
0.125
40
0.125
40
0.1875
40
0.1875
40
0.25
40
0.25
40
0.3125
40
0.3125
40
0.375
40
0.375
40
0.4375
40
0.4375
40
0.5
40
0.5
40
0.515625
40
0.515625
40
0.53125
40
0.53125
40
0.5625
40
0.5625
40
0.625
40
0.625
40
0.6875
40
0.6875
40
0.75
40
0.75
40
0.8125
40
0.8125
40
0.875
40
0.875
40
0.9375
40
0.9375
40
1
40
1
40
1
40
1
41
1
10
47.6
20
-6.14435354814691
30
0
41
1
10
47.6189632946466
20
-6.14888060317853
30
0
41
1
10
47.637926589293
20
-6.15121742500634
30
0
41
1
10
47.675853178586
20
-6.15173430214759
30
0
41
1
10
47.6948164732324
20
-6.14992704594493
30
0
41
1
10
47.7517063571719
20
-6.1379777427137
30
0
41
1
10
47.7896329464649
20
-6.12129439913079
30
0
41
1
10
47.9034127143439
20
-6.04269565298725
30
0
41
1
10
47.9792658929299
20
-5.95196147016591
30
0
41
1
10
48.1309722501018
20
-5.68612883636206
30
0
41
1
10
48.2068254286878
20
-5.51093410631617
30
0
41
1
10
48.3585317858598
20
-5.07810724282001
30
0
41
1
10
48.4343849644458
20
-4.82048246643873
30
0
41
1
10
48.5860913216177
20
-4.23616913438408
30
0
41
1
10
48.6619445002037
20
-3.90960786934914
30
0
41
1
10
48.8136508573756
20
-3.21021875610796
30
0
41
1
10
48.8895040359616
20
-2.83758621405627
30
0
41
1
10
49.0412103931335
20
-2.07317782585147
30
0
41
1
10
49.1170635717196
20
-1.68157907066043
30
0
41
1
10
49.2687699288915
20
-0.90476806170733
30
0
41
1
10
49.3446231074775
20
-0.519653720261772
30
0
41
1
10
49.43943958071
20
-0.0545165131364342
30
0
41
1
10
49.4584028753565
20
0.0372388991733033
30
0
41
1
10
49.4963294646494
20
0.223094921432079
30
0
41
1
10
49.515292759296
20
0.316825993494575
30
0
41
1
10
49.5721826432355
20
0.600038918778097
30
0
41
1
10
49.6101092325284
20
0.791554221582629
30
0
41
1
10
49.7238890004073
20
1.37059278030509
30
0
41
1
10
49.7997421789934
20
1.76276331102937
30
0
41
1
10
49.9514485361653
20
2.53543769143499
30
0
41
1
10
50.0273017147513
20
2.91578165260751
30
0
41
1
10
50.1790080719233
20
3.63763325589017
30
0
41
1
10
50.2548612505092
20
3.9789420747552
30
0
41
1
10
50.4065676076812
20
4.59810554132275
30
0
41
1
10
50.4824207862672
20
4.87580732240298
30
0
41
1
10
50.6341271434391
20
5.35130512973336
30
0
41
1
10
50.7099803220251
20
5.54906070316622
30
0
41
1
10
50.861686679197
20
5.85948739833896
30
0
41
1
10
50.9375398577831
20
5.97223227760992
30
0
41
1
10
51.089246214955
20
6.1181716827239
30
0
41
1
10
51.165099393541
20
6.1515
30
0
41
1
10
51.240952572127
20
6.1515
30
0
0
SPLINE
5
E4
100
AcDbEntity
8
1
62
256
6
ByLayer
370
13
48
1
60
0
100
AcDbSpline
70
4
71
3
72
42
73
38
40
0
40
0
40
0
40
0
40
0.0625000000000006
40
0.0625000000000006
40
0.125000000000001
40
0.125000000000001
40
0.187500000000002
40
0.187500000000002
40
0.250000000000002
40
0.250000000000002
40
0.312500000000003
40
0.312500000000003
40
0.375000000000004
40
0.375000000000004
40
0.406250000000004
40
0.406250000000004
40
0.421875000000004
40
0.421875000000004
40
0.437500000000004
40
0.437500000000004
40
0.500000000000003
40
0.500000000000003
40
0.562500000000003
40
0.562500000000003
40
0.625000000000003
40
0.625000000000003
40
0.687500000000002
40
0.687500000000002
40
0.750000000000002
40
0.750000000000002
40
0.812500000000001
40
0.812500000000001
40
0.875000000000001
40
0.875000000000001
40
0.9375
40
0.9375
40
1
40
1
40
1
40
1
41
1
10
47.6
20
-5.72983604265633
30
0
41
1
10
47.6653767354615
20
-5.6001013727645
30
0
41
1
10
47.7307534709229
20
-5.43887280777949
30
0
41
1
10
47.8615069418458
20
-5.05578499661164
30
0
41
1
10
47.9268836773073
20
-4.83393338443057
30
0
41
1
10
48.0576371482302
20
-4.33819492640922
30
0
41
1
10
48.1230138836917
20
-4.06436556675382
30
0
41
1
10
48.2537673546146
20
-3.47860009922331
30
0
41
1
10
48.3191440900761
20
-3.16675402384414
30
0
41
1
10
48.449897560999
20
-2.52191771626911
30
0
41
1
10
48.5152742964605
20
-2.1890195314279
30
0
41
1
10
48.6460277673835
20
-1.51922174493853
30
0
41
1
10
48.7114045028449
20
-1.18238903977866
30
0
41
1
10
48.8094696060371
20
-0.685272276912514
30
0
41
1
10
48.8421579737678
20
-0.52089783368865
30
0
41
1
10
48.8911905253639
20
-0.277459595937387
30
0
41
1
10
48.9075347092293
20
-0.196832158806842
30
0
41
1
10
48.9402230769601
20
-0.0367786264100971
30
0
41
1
10
48.9565672608254
20
0.0423447128090686
30
0
41
1
10
49.0382881801522
20
0.4426181105556
30
0
41
1
10
49.1036649156137
20
0.772574384499336
30
0
41
1
10
49.2344183865366
20
1.43993240716452
30
0
41
1
10
49.2997951219981
20
1.77729461940416
30
0
41
1
10
49.430548592921
20
2.44391669656542
30
0
41
1
10
49.4959253283825
20
2.77310139297882
30
0
41
1
10
49.6266787993054
20
3.40604506554007
30
0
41
1
10
49.6920555347669
20
3.70970950236725
30
0
41
1
10
49.8228090056898
20
4.27513955666629
30
0
41
1
10
49.8881857411513
20
4.53682081953855
30
0
41
1
10
50.0189392120742
20
5.00546672636307
30
0
41
1
10
50.0843159475356
20
5.21238581787028
30
0
41
1
10
50.2150694184585
20
5.56439431342341
30
0
41
1
10
50.28044615392
20
5.70948897377468
30
0
41
1
10
50.411199624843
20
5.93707015819916
30
0
41
1
10
50.4765763603044
20
6.01960324860229
30
0
41
1
10
50.6073298312273
20
6.12678546754356
30
0
41
1
10
50.6727065666888
20
6.1515
30
0
41
1
10
50.7380833021503
20
6.1515
30
0
0
SPLINE
5
E5
100
AcDbEntity
8
1
62
256
6
ByLayer
370
13
48
1
60
0
100
AcDbSpline
70
4
71
3
72
14
73
10
40
0
40
0
40
0
40
0
40
0.25
40
0.25
40
0.5
40
0.5
40
0.75
40
0.75
40
1
40
1
40
1
40
1
41
1
10
54.1373008677479
20
6.1515
30
0
41
1
10
54.1892788874282
20
6.1515
30
0
41
1
10
54.2412569071084
20
6.13590464600185
30
0
41
1
10
54.3452129464691
20
6.06919680510404
30
0
41
1
10
54.3971909661494
20
6.01806313084657
30
0
41
1
10
54.5011470055099
20
5.87722514876515
30
0
41
1
10
54.5531250251903
20
5.7875025096599
30
0
41
1
10
54.6570810645509
20
5.56835616397316
30
0
41
1
10
54.7090590842311
20
5.43892189011987
30
0
41
1
10
54.7610371039114
20
5.29025966301847
30
0
0
SPLINE
5
E6
100
AcDbEntity
8
1
62
256
6
ByLayer
370
13
48
1
60
0
100
AcDbSpline
70
4
71
3
72
42
73
38
40
0
40
0
40
0
40
0
40
0.0624999999999996
40
0.0624999999999996
40
0.124999999999999
40
0.124999999999999
40
0.187499999999999
40
0.187499999999999
40
0.249999999999998
40
0.249999999999998
40
0.312499999999998
40
0.312499999999998
40
0.328124999999998
40
0.328124999999998
40
0.343749999999998
40
0.343749999999998
40
0.374999999999997
40
0.374999999999997
40
0.437499999999998
40
0.437499999999998
40
0.499999999999998
40
0.499999999999998
40
0.562499999999998
40
0.562499999999998
40
0.624999999999998
40
0.624999999999998
40
0.687499999999999
40
0.687499999999999
40
0.749999999999999
40
0.749999999999999
40
0.812499999999999
40
0.812499999999999
40
0.874999999999999
40
0.874999999999999
40
0.9375
40
0.9375
40
1
40
1
40
1
40
1
41
1
10
47.6
20
-4.14320324914792
30
0
41
1
10
47.6549002923369
20
-3.91230011119151
30
0
41
1
10
47.7098005846739
20
-3.66571086371948
30
0
41
1
10
47.8196011693478
20
-3.15040243641616
30
0
41
1
10
47.8745014616848
20
-2.88172300117361
30
0
41
1
10
47.9843020463587
20
-2.33247862729726
30
0
41
1
10
48.0392023386956
20
-2.05195056754434
30
0
41
1
10
48.1490029233696
20
-1.48900382899671
30
0
41
1
10
48.2039032157064
20
-1.20661194657896
30
0
41
1
10
48.3137038003804
20
-0.648703128527984
30
0
41
1
10
48.3686040927173
20
-0.373199866565528
30
0
41
1
10
48.4372294581385
20
-0.0374435920718383
30
0
41
1
10
48.4509545312227
20
0.0290393269867764
30
0
41
1
10
48.4784046773912
20
0.163270282984712
30
0
41
1
10
48.4921297504754
20
0.230813918419784
30
0
41
1
10
48.5333049697282
20
0.434585948590495
30
0
41
1
10
48.5607551158967
20
0.571959364861215
30
0
41
1
10
48.6431055544021
20
0.98736630877147
30
0
41
1
10
48.6980058467391
20
1.26873978574957
30
0
41
1
10
48.807806431413
20
1.83207671625806
30
0
41
1
10
48.8627067237499
20
2.11401668006584
30
0
41
1
10
48.9725073084238
20
2.66875317676437
30
0
41
1
10
49.0274076007607
20
2.94151491325732
30
0
41
1
10
49.1372081854346
20
3.46761579710827
30
0
41
1
10
49.1921084777716
20
3.7209150746298
30
0
41
1
10
49.3019090624455
20
4.19841432921314
30
0
41
1
10
49.3568093547825
20
4.42257848901852
30
0
41
1
10
49.4666099394564
20
4.83390540480474
30
0
41
1
10
49.5215102317933
20
5.02104512923611
30
0
41
1
10
49.6313108164672
20
5.35311003648098
30
0
41
1
10
49.6862111088042
20
5.49802982920559
30
0
41
1
10
49.7960116934781
20
5.74357086946245
30
0
41
1
10
49.850911985815
20
5.84420367492379
30
0
41
1
10
49.9607125704889
20
6.00211542969663
30
0
41
1
10
50.0156128628259
20
6.059417612537
30
0
41
1
10
50.1254134474998
20
6.13409601169337
30
0
41
1
10
50.1803137398367
20
6.1515
30
0
41
1
10
50.2352140321737
20
6.1515
30
0
0
SPLINE
5
E7
100
AcDbEntity
8
1
62
256
6
ByLayer
370
13
48
1
60
0
100
AcDbSpline
70
4
71
3
72
22
73
18
40
0
40
0
40
0
40
0
40
0.125
40
0.125
40
0.25
40
0.25
40
0.375
40
0.375
40
0.5
40
0.5
40
0.625
40
0.625
40
0.75
40
0.75
40
0.875
40
0.875
40
1
40
1
40
1
40
1
41
1
10
53.6344315977713
20
6.1515
30
0
41
1
10
53.6813734938605
20
6.1515
30
0
41
1
10
53.7283153899496
20
6.13878682669997
30
0
41
1
10
53.822199182128
20
6.08471017212577
30
0
41
1
10
53.8691410782172
20
6.04333392143934
30
0
41
1
10
53.9630248703955
20
5.92951575309093
30
0
41
1
10
54.0099667664847
20
5.85706223456614
30
0
41
1
10
54.103850558663
20
5.67988064376979
30
0
41
1
10
54.1507924547522
20
5.57514455070844
30
0
41
1
10
54.2446762469305
20
5.33369924955659
30
0
41
1
10
54.2916181430197
20
5.19698779528125
30
0
41
1
10
54.385501935198
20
4.89356549703282
30
0
41
1
10
54.4324438312872
20
4.7268594174613
30
0
41
1
10
54.5263276234656
20
4.36705963295313
30
0
41
1
10
54.5732695195547
20
4.17397742436091
30
0
41
1
10
54.6671533117331
20
3.76642856713656
30
0
41
1
10
54.7140952078222
20
3.55197828081057
30
0
41
1
10
54.7610371039114
20
3.32981981273238
30
0
0
SPLINE
5
E8
100
AcDbEntity
8
1
62
256
6
ByLayer
370
13
48
1
60
0
100
AcDbSpline
70
4
71
3
72
42
73
38
40
0
40
0
40
0
40
0
40
0.0624999999999999
40
0.0624999999999999
40
0.125
40
0.125
40
0.15625
40
0.15625
40
0.171875
40
0.171875
40
0.1875
40
0.1875
40
0.25
40
0.25
40
0.3125
40
0.3125
40
0.375
40
0.375
40
0.4375
40
0.4375
40
0.5
40
0.5
40
0.5625
40
0.5625
40
0.625
40
0.625
40
0.6875
40
0.6875
40
0.75
40
0.75
40
0.8125
40
0.8125
40
0.875
40
0.875
40
0.9375
40
0.9375
40
1
40
1
40
1
40
1
41
1
10
47.6
20
-1.72552307468558
30
0
41
1
10
47.6444238492124
20
-1.49768856871867
30
0
41
1
10
47.6888476984249
20
-1.26940200588959
30
0
41
1
10
47.7776953968497
20
-0.816578384837015
30
0
41
1
10
47.8221192460622
20
-0.592046699314153
30
0
41
1
10
47.8887550198808
20
-0.260991514147946
30
0
41
1
10
47.9109669444871
20
-0.151590389868687
30
0
41
1
10
47.9442848313964
20
0.0107804231763851
30
0
41
1
10
47.9553907936995
20
0.0647015492363892
30
0
41
1
10
47.9776027183057
20
0.173474293643949
30
0
41
1
10
47.9887086806089
20
0.228137502917605
30
0
41
1
10
48.0442384921244
20
0.502710957722798
30
0
41
1
10
48.0886623413368
20
0.726426590628733
30
0
41
1
10
48.1775100397617
20
1.17818704638321
30
0
41
1
10
48.2219338889742
20
1.40622699687759
30
0
41
1
10
48.310781587399
20
1.86206382955643
30
0
41
1
10
48.3552054366115
20
2.08985210716708
30
0
41
1
10
48.4440531350363
20
2.54003028490504
30
0
41
1
10
48.4884769842488
20
2.76240837127534
30
0
41
1
10
48.5773246826736
20
3.19633694245198
30
0
41
1
10
48.6217485318861
20
3.40787374835409
30
0
41
1
10
48.7105962303109
20
3.81480502164715
30
0
41
1
10
48.7550200795234
20
4.01018592556491
30
0
41
1
10
48.8438677779482
20
4.38002194431493
30
0
41
1
10
48.8882916271607
20
4.55446578470074
30
0
41
1
10
48.9771393255856
20
4.87855646322234
30
0
41
1
10
49.021563174798
20
5.02819611377032
30
0
41
1
10
49.1104108732229
20
5.30000273912222
30
0
41
1
10
49.1548347224353
20
5.42216755695299
30
0
41
1
10
49.2436824208603
20
5.63768725224122
30
0
41
1
10
49.2881062700727
20
5.73104489317913
30
0
41
1
10
49.3769539684975
20
5.88894085976551
30
0
41
1
10
49.42137781771
20
5.95348584342571
30
0
41
1
10
49.5102255161349
20
6.05492898023797
30
0
41
1
10
49.5546493653473
20
6.09183612911306
30
0
41
1
10
49.6434970637721
20
6.14011678873393
30
0
41
1
10
49.6879209129847
20
6.1515
30
0
41
1
10
49.7323447621971
20
6.1515
30
0
0
SPLINE
5
E9
100
AcDbEntity
8
1
62
256
6
ByLayer
370
13
48
1
60
0
100
AcDbSpline
70
4
71
3
72
22
73
18
40
0
40
0
40
0
40
0
40
0.125
40
0.125
40
0.25
40
0.25
40
0.375
40
0.375
40
0.5
40
0.5
40
0.625
40
0.625
40
0.75
40
0.75
40
0.875
40
0.875
40
1
40
1
40
1
40
1
41
1
10
53.1315623277946
20
6.1515
30
0
41
1
10
53.1994571101329
20
6.1515
30
0
41
1
10
53.267351892471
20
6.12483467673579
30
0
41
1
10
53.4031414571475
20
6.00891302995146
30
0
41
1
10
53.4710362394857
20
5.91957813808077
30
0
41
1
10
53.6068258041621
20
5.67328132862039
30
0
41
1
10
53.6747205865003
20
5.51626624116429
30
0
41
1
10
53.8105101511766
20
5.13604302457131
30
0
41
1
10
53.8784049335149
20
4.9128355390167
30
0
41
1
10
54.0141944981913
20
4.40901908830625
30
0
41
1
10
54.0820892805294
20
4.12847390688685
30
0
41
1
10
54.2178788452059
20
3.52517369221323
30
0
41
1
10
54.2857736275441
20
3.20252580954892
30
0
41
1
10
54.4215631922204
20
2.53394445846661
30
0
41
1
10
54.4894579745587
20
2.18812244587952
30
0
41
1
10
54.625247539235
20
1.4924119907368
30
0
41
1
10
54.6931423215732
20
1.14260373835424
30
0
41
1
10
54.7610371039115
20
0.799020301567992
30
0
0
SPLINE
5
EA
100
AcDbEntity
8
1
62
256
6
ByLayer
370
13
48
1
60
0
100
AcDbSpline
70
4
71
3
72
22
73
18
40
0
40
0
40
0
40
0
40
0.125
40
0.125
40
0.25
40
0.25
40
0.375
40
0.375
40
0.5
40
0.5
40
0.625
40
0.625
40
0.75
40
0.75
40
0.875
40
0.875
40
1
40
1
40
1
40
1
41
1
10
47.6
20
0.799016677705538
30
0
41
1
10
47.6678948121758
20
1.14260022286013
30
0
41
1
10
47.7357896243517
20
1.49240861463298
30
0
41
1
10
47.8715792487033
20
2.1881194013761
30
0
41
1
10
47.9394740608792
20
2.53394160612942
30
0
41
1
10
48.0752636852309
20
3.20252337311129
30
0
41
1
10
48.1431584974068
20
3.52517147930766
30
0
41
1
10
48.2789481217585
20
4.12847214281544
30
0
41
1
10
48.3468429339344
20
4.40901754924769
30
0
41
1
10
48.4826325582861
20
4.91283442113402
30
0
41
1
10
48.5505273704619
20
5.1360421026105
30
0
41
1
10
48.6863169948136
20
5.51626565925778
30
0
41
1
10
48.7542118069895
20
5.67328089076136
30
0
41
1
10
48.8900014313412
20
5.91957792650072
30
0
41
1
10
48.957896243517
20
6.00891290068228
30
0
41
1
10
49.0936858678687
20
6.12483465317302
30
0
41
1
10
49.1615806800446
20
6.1515
30
0
41
1
10
49.2294754922204
20
6.1515
30
0
0
SPLINE
5
EB
100
AcDbEntity
8
1
62
256
6
ByLayer
370
13
48
1
60
0
100
AcDbSpline
70
4
71
3
72
42
73
38
40
0
40
0
40
0
40
0
40
0.0624999999999998
40
0.0624999999999998
40
0.125
40
0.125
40
0.187499999999999
40
0.187499999999999
40
0.249999999999999
40
0.249999999999999
40
0.312499999999999
40
0.312499999999999
40
0.374999999999999
40
0.374999999999999
40
0.437499999999999
40
0.437499999999999
40
0.499999999999999
40
0.499999999999999
40
0.562499999999999
40
0.562499999999999
40
0.624999999999998
40
0.624999999999998
40
0.687499999999998
40
0.687499999999998
40
0.749999999999998
40
0.749999999999998
40
0.812499999999998
40
0.812499999999998
40
0.828124999999998
40
0.828124999999998
40
0.843749999999998
40
0.843749999999998
40
0.874999999999998
40
0.874999999999998
40
0.937499999999999
40
0.937499999999999
40
1
40
1
40
1
40
1
41
1
10
52.628693057818
20
6.1515
30
0
41
1
10
52.6731168921117
20
6.1515
30
0
41
1
10
52.7175407264053
20
6.14011679639455
30
0
41
1
10
52.8063883949925
20
6.09183617009461
30
0
41
1
10
52.8508122292861
20
6.05492904689601
30
0
41
1
10
52.9396598978733
20
5.95348598117306
30
0
41
1
10
52.9840837321669
20
5.88894104293971
30
0
41
1
10
53.0729314007542
20
5.73104518723957
30
0
41
1
10
53.1173552350478
20
5.637687611769
30
0
41
1
10
53.206202903635
20
5.42216806595883
30
0
41
1
10
53.2506267379286
20
5.30000333213726
30
0
41
1
10
53.3394744065158
20
5.02819688996416
30
0
41
1
10
53.3838982408094
20
4.8785573385735
30
0
41
1
10
53.4727459093967
20
4.55446686845349
30
0
41
1
10
53.5171697436902
20
4.38002313729044
30
0
41
1
10
53.6060174122775
20
4.01018734082572
30
0
41
1
10
53.6504412465712
20
3.81480654994388
30
0
41
1
10
53.7392889151584
20
3.40787549988298
30
0
41
1
10
53.783712749452
20
3.19633880415111
30
0
41
1
10
53.8725604180392
20
2.76241044417512
30
0
41
1
10
53.9169842523328
20
2.54003245881515
30
0
41
1
10
54.00583192092
20
2.08985446874647
30
0
41
1
10
54.0502557552136
20
1.86206627778392
30
0
41
1
10
54.1391034238009
20
1.40622960040005
30
0
41
1
10
54.1835272580944
20
1.17818971855146
30
0
41
1
10
54.2723749266817
20
0.726429380177848
30
0
41
1
10
54.3167987609754
20
0.502713796013865
30
0
41
1
10
54.3723285538423
20
0.22814038952697
30
0
41
1
10
54.3834345124158
20
0.173477189290196
30
0
41
1
10
54.4056464295626
20
0.0647044617122958
30
0
41
1
10
54.4167523881359
20
0.0107833391163297
30
0
41
1
10
54.4500702638562
20
-0.151587388073324
30
0
41
1
10
54.472282181003
20
-0.26098845605776
30
0
41
1
10
54.5389179324434
20
-0.592043476542614
30
0
41
1
10
54.583341766737
20
-0.816575057864839
30
0
41
1
10
54.6721894353242
20
-1.26939848964872
30
0
41
1
10
54.7166132696178
20
-1.49768496743772
30
0
41
1
10
54.7610371039114
20
-1.7255194020382
30
0
0
SPLINE
5
EC
100
AcDbEntity
8
1
62
256
6
ByLayer
370
13
48
1
60
0
100
AcDbSpline
70
4
71
3
72
8
73
4
40
0
40
0
40
0
40
0
40
1
40
1
40
1
40
1
41
1
10
54.7610371039114
20
-6.04919415748043
30
0
41
1
10
55.5073580692742
20
-4.03196229300795
30
0
41
1
10
56.253679034637
20
-2.01555918715718
30
0
41
1
10
56.9999999999998
20
-4.832E-13
30
0
0
SPLINE
5
ED
100
AcDbEntity
8
1
62
256
6
ByLayer
370
13
48
1
60
0
100
AcDbSpline
70
4
71
3
72
8
73
4
40
0
40
0
40
0
40
0
40
1
40
1
40
1
40
1
41
1
10
54.7610371039116
20
4.37120070202573
30
0
41
1
10
55.5073580692744
20
2.910903554133
30
0
41
1
10
56.2536790346371
20
1.45383300405297
30
0
41
1
10
56.9999999999998
20
3.411E-13
30
0
0
SPLINE
5
EE
100
AcDbEntity
8
1
62
256
6
ByLayer
370
13
48
1
60
0
100
AcDbSpline
70
4
71
3
72
8
73
4
40
0
40
0
40
0
40
0
40
1
40
1
40
1
40
1
41
1
10
54.7610371039114
20
1.08453978835507
30
0
41
1
10
55.5073580692743
20
0.727545603825519
30
0
41
1
10
56.2536790346372
20
0.366031431140357
30
0
41
1
10
57.0000000000001
20
-2.84E-14
30
0
0
SPLINE
5
EF
100
AcDbEntity
8
1
62
256
6
ByLayer
370
13
48
1
60
0
100
AcDbSpline
70
4
71
3
72
8
73
4
40
0
40
0
40
0
40
0
40
1
40
1
40
1
40
1
41
1
10
54.7610371039114
20
-6.15097686456033
30
0
41
1
10
55.5073580692743
20
-4.10071111576059
30
0
41
1
10
56.2536790346372
20
-2.05038035509767
30
0
41
1
10
57.0000000000001
20
1.421E-13
30
0
0
SPLINE
5
F0
100
AcDbEntity
8
1
62
256
6
ByLayer
370
13
48
1
60
0
100
AcDbSpline
70
4
71
3
72
8
73
4
40
0
40
0
40
0
40
0
40
1
40
1
40
1
40
1
41
1
10
54.7610371039114
20
-5.71653519293176
30
0
41
1
10
55.5073580692743
20
-3.80932778891776
30
0
41
1
10
56.2536790346372
20
-1.90381128323702
30
0
41
1
10
57.0000000000001
20
1.421E-13
30
0
0
SPLINE
5
F1
100
AcDbEntity
8
1
62
256
6
ByLayer
370
13
48
1
60
0
100
AcDbSpline
70
4
71
3
72
8
73
4
40
0
40
0
40
0
40
0
40
1
40
1
40
1
40
1
41
1
10
54.7610371039115
20
4.25683161437814
30
0
41
1
10
55.5073580692743
20
2.84120197415683
30
0
41
1
10
56.2536790346371
20
1.42225454337915
30
0
41
1
10
56.9999999999999
20
1.137E-13
30
0
0
SPLINE
5
F2
100
AcDbEntity
8
1
62
256
6
ByLayer
370
13
48
1
60
0
100
AcDbSpline
70
4
71
3
72
8
73
4
40
0
40
0
40
0
40
0
40
1
40
1
40
1
40
1
41
1
10
54.7610371039116
20
-2.30288632772397
30
0
41
1
10
55.5073580692744
20
-1.53951470076618
30
0
41
1
10
56.2536790346371
20
-0.771883997258044
30
0
41
1
10
56.9999999999998
20
-1.705E-13
30
0
0
SPLINE
5
F3
100
AcDbEntity
8
1
62
256
6
ByLayer
370
13
48
1
60
0
100
AcDbSpline
70
4
71
3
72
8
73
4
40
0
40
0
40
0
40
0
40
1
40
1
40
1
40
1
41
1
10
54.7610371039116
20
3.44625505135397
30
0
41
1
10
55.5073580692744
20
2.2937004775107
30
0
41
1
10
56.2536790346371
20
1.14494591758444
30
0
41
1
10
56.9999999999998
20
2.558E-13
30
0
0
SPLINE
5
F4
100
AcDbEntity
8
1
62
256
6
ByLayer
370
13
48
1
60
0
100
AcDbSpline
70
4
71
3
72
8
73
4
40
0
40
0
40
0
40
0
40
1
40
1
40
1
40
1
41
1
10
54.7610371039116
20
1.24209177565328
30
0
41
1
10
55.5073580692744
20
0.82356475260903
30
0
41
1
10
56.2536790346371
20
0.40953312672346
30
0
41
1
10
56.9999999999998
20
8.53E-14
30
0
0
SPLINE
5
F5
100
AcDbEntity
8
1
62
256
6
ByLayer
370
13
48
1
60
0
100
AcDbSpline
70
4
71
3
72
8
73
4
40
0
40
0
40
0
40
0
40
1
40
1
40
1
40
1
41
1
10
54.7610371039115
20
6.14975134667839
30
0
41
1
10
55.5073580692743
20
4.09994369028789
30
0
41
1
10
56.2536790346371
20
2.05002143656816
30
0
41
1
10
57
20
0
30
0
0
SPLINE
5
F6
100
AcDbEntity
8
1
62
256
6
ByLayer
370
13
48
1
60
0
100
AcDbSpline
70
4
71
3
72
8
73
4
40
0
40
0
40
0
40
0
40
1
40
1
40
1
40
1
41
1
10
54.7610371039116
20
2.38977808463818
30
0
41
1
10
55.5073580692744
20
1.5889549996667
30
0
41
1
10
56.2536790346371
20
0.792360311681051
30
0
41
1
10
56.9999999999998
20
1.99E-13
30
0
0
SPLINE
5
F7
100
AcDbEntity
8
1
62
256
6
ByLayer
370
13
48
1
60
0
100
AcDbSpline
70
4
71
3
72
8
73
4
40
0
40
0
40
0
40
0
40
1
40
1
40
1
40
1
41
1
10
54.7610371039114
20
-4.41770128629565
30
0
41
1
10
55.5073580692743
20
-2.94193937329135
30
0
41
1
10
56.2536790346372
20
-1.46936858957403
30
0
41
1
10
57.0000000000001
20
1.137E-13
30
0
0
SPLINE
5
F8
100
AcDbEntity
8
1
62
256
6
ByLayer
370
13
48
1
60
0
100
AcDbSpline
70
4
71
3
72
8
73
4
40
0
40
0
40
0
40
0
40
1
40
1
40
1
40
1
41
1
10
54.7610371039116
20
-3.36799256309891
30
0
41
1
10
55.5073580692744
20
-2.24917012216468
30
0
41
1
10
56.2536790346371
20
-1.12650311732412
30
0
41
1
10
56.9999999999998
20
-2.558E-13
30
0
0
SPLINE
5
F9
100
AcDbEntity
8
1
62
256
6
ByLayer
370
13
48
1
60
0
100
AcDbSpline
70
4
71
3
72
8
73
4
40
0
40
0
40
0
40
0
40
1
40
1
40
1
40
1
41
1
10
54.7610371039114
20
-2.45087067193728
30
0
41
1
10
55.5073580692743
20
-1.62970290472541
30
0
41
1
10
56.2536790346372
20
-0.812743969914635
30
0
41
1
10
57.0000000000001
20
5.68E-14
30
0
0
SPLINE
5
FA
100
AcDbEntity
8
1
62
256
6
ByLayer
370
13
48
1
60
0
100
AcDbSpline
70
4
71
3
72
8
73
4
40
0
40
0
40
0
40
0
40
1
40
1
40
1
40
1
41
1
10
54.7610371039116
20
-1.14988709984797
30
0
41
1
10
55.5073580692744
20
-0.771101470777324
30
0
41
1
10
56.2536790346371
20
-0.387804806338295
30
0
41
1
10
56.9999999999998
20
-8.53E-14
30
0
0
SPLINE
5
FB
100
AcDbEntity
8
1
62
256
6
ByLayer
370
13
48
1
60
0
100
AcDbSpline
70
4
71
3
72
8
73
4
40
0
40
0
40
0
40
0
40
1
40
1
40
1
40
1
41
1
10
54.7610371039116
20
0.0469992348414507
30
0
41
1
10
55.5073580692744
20
0.0267419638085187
30
0
41
1
10
56.2536790346371
20
0.0110755167628156
30
0
41
1
10
56.9999999999998
20
0
30
0
0
SPLINE
5
FC
100
AcDbEntity
8
1
62
256
6
ByLayer
370
13
48
1
60
0
100
AcDbSpline
70
4
71
3
72
8
73
4
40
0
40
0
40
0
40
0
40
1
40
1
40
1
40
1
41
1
10
54.7610371039114
20
-5.07682684706936
30
0
41
1
10
55.5073580692744
20
-3.38714374689775
30
0
41
1
10
56.2536790346373
20
-1.69486388739287
30
0
41
1
10
57.0000000000003
20
6.253E-13
30
0
0
SPLINE
5
FD
100
AcDbEntity
8
1
62
256
6
ByLayer
370
13
48
1
60
0
100
AcDbSpline
70
4
71
3
72
8
73
4
40
0
40
0
40
0
40
0
40
1
40
1
40
1
40
1
41
1
10
54.7610371039116
20
5.69165792394739
30
0
41
1
10
55.5073580692744
20
3.79269695444936
30
0
41
1
10
56.2536790346371
20
1.89547289258681
30
0
41
1
10
56.9999999999998
20
4.547E-13
30
0
0
SPLINE
5
FE
100
AcDbEntity
8
1
62
256
6
ByLayer
370
13
48
1
60
0
100
AcDbSpline
70
4
71
3
72
8
73
4
40
0
40
0
40
0
40
0
40
1
40
1
40
1
40
1
41
1
10
54.7610371039116
20
6.03677233259876
30
0
41
1
10
55.5073580692744
20
4.02363235571477
30
0
41
1
10
56.2536790346371
20
2.01136986857694
30
0
41
1
10
56.9999999999998
20
4.832E-13
30
0
0
SPLINE
5
FF
100
AcDbEntity
8
1
62
256
6
ByLayer
370
13
48
1
60
0
100
AcDbSpline
70
4
71
3
72
8
73
4
40
0
40
0
40
0
40
0
40
1
40
1
40
1
40
1
41
1
10
54.7610371039114
20
-4.30455448366021
30
0
41
1
10
55.5073580692742
20
-2.8729827078572
30
0
41
1
10
56.253679034637
20
-1.43812761414236
30
0
41
1
10
56.9999999999998
20
-3.411E-13
30
0
0
SPLINE
5
100
100
AcDbEntity
8
1
62
256
6
ByLayer
370
13
48
1
60
0
100
AcDbSpline
70
4
71
3
72
8
73
4
40
0
40
0
40
0
40
0
40
1
40
1
40
1
40
1
41
1
10
54.7610371039115
20
5.62885886824222
30
0
41
1
10
55.5073580692743
20
3.75442443261932
30
0
41
1
10
56.2536790346372
20
1.87813343879077
30
0
41
1
10
57
20
0
30
0
0
SPLINE
5
101
100
AcDbEntity
8
1
62
256
6
ByLayer
370
13
48
1
60
0
100
AcDbSpline
70
4
71
3
72
8
73
4
40
0
40
0
40
0
40
0
40
1
40
1
40
1
40
1
41
1
10
54.7610371039114
20
-3.5010982216568
30
0
41
1
10
55.5073580692743
20
-2.33029059707681
30
0
41
1
10
56.2536790346372
20
-1.1632549345384
30
0
41
1
10
57.0000000000001
20
8.53E-14
30
0
0
SPLINE
5
102
100
AcDbEntity
8
1
62
256
6
ByLayer
370
13
48
1
60
0
100
AcDbSpline
70
4
71
3
72
8
73
4
40
0
40
0
40
0
40
0
40
1
40
1
40
1
40
1
41
1
10
54.7610371039114
20
2.24113261372722
30
0
41
1
10
55.5073580692743
20
1.49836387585953
30
0
41
1
10
56.2536790346372
20
0.751317795262992
30
0
41
1
10
57.0000000000001
20
-5.68E-14
30
0
0
SPLINE
5
103
100
AcDbEntity
8
1
62
256
6
ByLayer
370
13
48
1
60
0
100
AcDbSpline
70
4
71
3
72
8
73
4
40
0
40
0
40
0
40
0
40
1
40
1
40
1
40
1
41
1
10
54.7610371039115
20
5.03900571749361
30
0
41
1
10
55.5073580692743
20
3.36197043925529
30
0
41
1
10
56.2536790346371
20
1.68229765450775
30
0
41
1
10
56.9999999999999
20
1.421E-13
30
0
0
SPLINE
5
104
100
AcDbEntity
8
1
62
256
6
ByLayer
370
13
48
1
60
0
100
AcDbSpline
70
4
71
3
72
8
73
4
40
0
40
0
40
0
40
0
40
1
40
1
40
1
40
1
41
1
10
54.7610371039114
20
-0.11344606902972
30
0
41
1
10
55.5073580692743
20
-0.0710405000512253
30
0
41
1
10
56.2536790346372
20
-0.0332250527597751
30
0
41
1
10
57.0000000000001
20
0
30
0
0
SPLINE
5
105
100
AcDbEntity
8
1
62
256
6
ByLayer
370
13
48
1
60
0
100
AcDbSpline
70
4
71
3
72
8
73
4
40
0
40
0
40
0
40
0
40
1
40
1
40
1
40
1
41
1
10
54.7610371039115
20
6.00387846670483
30
0
41
1
10
55.5073580692743
20
4.00358537911032
30
0
41
1
10
56.2536790346372
20
2.00228753984692
30
0
41
1
10
57
20
0
30
0
0
SPLINE
5
106
100
AcDbEntity
8
1
62
256
6
ByLayer
370
13
48
1
60
0
100
AcDbSpline
70
4
71
3
72
8
73
4
40
0
40
0
40
0
40
0
40
1
40
1
40
1
40
1
41
1
10
54.7610371039114
20
-5.65533475991631
30
0
41
1
10
55.5073580692742
20
-3.77202953845409
30
0
41
1
10
56.253679034637
20
-1.88691322531861
30
0
41
1
10
56.9999999999998
20
-4.547E-13
30
0
0
SPLINE
5
107
100
AcDbEntity
8
1
62
256
6
ByLayer
370
13
48
1
60
0
100
AcDbSpline
70
4
71
3
72
8
73
4
40
0
40
0
40
0
40
0
40
1
40
1
40
1
40
1
41
1
10
54.7610371039114
20
-6.01799862972035
30
0
41
1
10
55.5073580692743
20
-4.01295035877106
30
0
41
1
10
56.2536790346372
20
-2.00694578674566
30
0
41
1
10
57.0000000000001
20
1.421E-13
30
0
0
SPLINE
5
108
100
AcDbEntity
8
1
62
256
6
ByLayer
370
13
48
1
60
0
100
AcDbSpline
70
4
71
3
72
8
73
4
40
0
40
0
40
0
40
0
40
1
40
1
40
1
40
1
41
1
10
54.7610371039114
20
-1.30710209285979
30
0
41
1
10
55.5073580692743
20
-0.866915240339125
30
0
41
1
10
56.2536790346372
20
-0.431213454393827
30
0
41
1
10
57.0000000000001
20
2.84E-14
30
0
0
SPLINE
5
109
100
AcDbEntity
8
1
62
256
6
ByLayer
370
13
48
1
60
0
100
AcDbSpline
70
4
71
3
72
8
73
4
40
0
40
0
40
0
40
0
40
1
40
1
40
1
40
1
41
1
10
54.7610371039115
20
3.31218936654514
30
0
41
1
10
55.5073580692743
20
2.21199492014401
30
0
41
1
10
56.2536790346371
20
1.10792902742196
30
0
41
1
10
56.9999999999999
20
8.53E-14
30
0
0
SPLINE
5
10A
100
AcDbEntity
8
1
62
256
6
ByLayer
370
13
48
1
60
0
100
AcDbSpline
70
4
71
3
72
8
73
4
40
0
40
0
40
0
40
0
40
1
40
1
40
1
40
1
41
1
10
54.7610371039114
20
-5.16569638216339
30
0
41
1
10
55.5073580692743
20
-3.44130477183228
30
0
41
1
10
56.2536790346372
20
-1.71940166396183
30
0
41
1
10
57.0000000000001
20
1.137E-13
30
0
0
SPLINE
5
10B
100
AcDbEntity
8
1
62
256
6
ByLayer
370
13
48
1
60
0
100
AcDbSpline
70
4
71
3
72
8
73
4
40
0
40
0
40
0
40
0
40
1
40
1
40
1
40
1
41
1
10
54.7610371039116
20
5.12931314608261
30
0
41
1
10
55.5073580692744
20
3.41700778007623
30
0
41
1
10
56.2536790346371
20
1.70723244799882
30
0
41
1
10
56.9999999999998
20
3.979E-13
30
0
0
LINE
5
7D
100
AcDbEntity
8
81
62
256
6
ByLayer
370
18
48
1
60
0
100
AcDbLine
10
57
20
0
30
0
11
62
21
0
31
0
39
0
210
0
220
0
230
1
0
LINE
5
7E
100
AcDbEntity
8
80
62
256
6
ByLayer
370
18
48
1
60
0
100
AcDbLine
10
0
20
0
30
0
11
-5
21
0
31
0
39
0
210
0
220
0
230
1
0
LINE
5
7F
100
AcDbEntity
8
4
62
256
6
ByLayer
370
18
48
0.05
60
0
100
AcDbLine
10
-5
20
0
30
0
11
62
21
0
31
0
39
0
210
0
220
0
230
1
0
LINE
5
81
100
AcDbEntity
8
SK4
62
256
6
ByLayer
370
18
48
0.05
60
0
100
AcDbLine
10
-53
20
0
30
0
11
62
21
0
31
0
39
0
210
0
220
0
230
1
0
LINE
5
83
100
AcDbEntity
8
1
62
256
6
ByLayer
370
18
48
1
60
0
100
AcDbLine
10
10
20
-6.1
30
0
11
25.739234
21
-6.1
31
0
39
0
210
0
220
0
230
1
0
LINE
5
84
100
AcDbEntity
8
1
62
256
6
ByLayer
370
18
48
1
60
0
100
AcDbLine
10
25.739234
20
6.1
30
0
11
10
21
6.1
31
0
39
0
210
0
220
0
230
1
0
LINE
5
85
100
AcDbEntity
8
1
62
256
6
ByLayer
370
18
48
1
60
0
100
AcDbLine
10
57
20
0
30
0
11
54.761037
21
6.1515
31
0
39
0
210
0
220
0
230
1
0
LINE
5
86
100
AcDbEntity
8
1
62
256
6
ByLayer
370
18
48
1
60
0
100
AcDbLine
10
54.761037
20
-6.1515
30
0
11
57
21
0
31
0
39
0
210
0
220
0
230
1
0
LINE
5
87
100
AcDbEntity
8
1
62
256
6
ByLayer
370
18
48
1
60
0
100
AcDbLine
10
10
20
6.1
30
0
11
0
21
7.9375
31
0
39
0
210
0
220
0
230
1
0
LINE
5
88
100
AcDbEntity
8
1
62
256
6
ByLayer
370
18
48
1
60
0
100
AcDbLine
10
0
20
-7.9375
30
0
11
10
21
-6.1
31
0
39
0
210
0
220
0
230
1
0
LINE
5
89
100
AcDbEntity
8
1
62
256
6
ByLayer
370
18
48
1
60
0
100
AcDbLine
10
57
20
0
30
0
11
54.761037
21
6.1515
31
0
39
0
210
0
220
0
230
1
0
LINE
5
8A
100
AcDbEntity
8
1
62
256
6
ByLayer
370
18
48
1
60
0
100
AcDbLine
10
54.761037
20
-6.1515
30
0
11
57
21
0
31
0
39
0
210
0
220
0
230
1
0
LINE
5
8B
100
AcDbEntity
8
1
62
256
6
ByLayer
370
18
48
1
60
0
100
AcDbLine
10
47.6
20
-6.1515
30
0
11
54.761037
21
-6.1515
31
0
39
0
210
0
220
0
230
1
0
LINE
5
8C
100
AcDbEntity
8
SK1
62
256
6
ByLayer
370
18
48
1
60
0
100
AcDbLine
10
-48
20
-6.9375
30
0
11
-47
21
-7.9375
31
0
39
0
210
0
220
0
230
1
0
LINE
5
8E
100
AcDbEntity
8
SK1
62
256
6
ByLayer
370
18
48
1
60
0
100
AcDbLine
10
-47
20
7.9375
30
0
11
-48
21
6.9375
31
0
39
0
210
0
220
0
230
1
0
LINE
5
8F
100
AcDbEntity
8
SK1
62
256
6
ByLayer
370
18
48
1
60
0
100
AcDbLine
10
-47
20
-7.9375
30
0
11
0
21
-7.9375
31
0
39
0
210
0
220
0
230
1
0
LINE
5
90
100
AcDbEntity
8
SK1
62
256
6
ByLayer
370
18
48
1
60
0
100
AcDbLine
10
0
20
7.9375
30
0
11
-47
21
7.9375
31
0
39
0
210
0
220
0
230
1
0
LINE
5
91
100
AcDbEntity
8
1
62
256
6
ByLayer
370
18
48
1
60
0
100
AcDbLine
10
0
20
7.9375
30
0
11
0
21
-7.9375
31
0
39
0
210
0
220
0
230
1
0
LINE
5
92
100
AcDbEntity
8
1
62
256
6
ByLayer
370
18
48
1
60
0
100
AcDbLine
10
54.761037
20
6.1515
30
0
11
54.761037
21
5.956178
31
0
39
0
210
0
220
0
230
1
0
LINE
5
93
100
AcDbEntity
8
1
62
256
6
ByLayer
370
18
48
1
60
0
100
AcDbLine
10
54.761037
20
-6.1515
30
0
11
54.761037
21
-0.877654
31
0
39
0
210
0
220
0
230
1
0
LINE
5
94
100
AcDbEntity
8
1
62
256
6
ByLayer
370
18
48
1
60
0
100
AcDbLine
10
10
20
-6.1
30
0
11
10
21
-3.558401
31
0
39
0
210
0
220
0
230
1
0
LINE
5
95
100
AcDbEntity
8
1
62
256
6
ByLayer
370
18
48
1
60
0
100
AcDbLine
10
10
20
6.1
30
0
11
10
21
3.951158
31
0
39
0
210
0
220
0
230
1
0
LINE
5
96
100
AcDbEntity
8
SK1
62
256
6
ByLayer
370
18
48
1
60
0
100
AcDbLine
10
-8.796218
20
-4.876987
30
0
11
-8.796218
21
4.876987
31
0
39
0
210
0
220
0
230
1
0
LINE
5
97
100
AcDbEntity
8
SK1
62
256
6
ByLayer
370
18
48
1
60
0
100
AcDbLine
10
-48
20
-6.9375
30
0
11
-48
21
6.9375
31
0
39
0
210
0
220
0
230
1
0
LINE
5
98
100
AcDbEntity
8
SK1
62
256
6
ByLayer
370
18
48
1
60
0
100
AcDbLine
10
0
20
7.9375
30
0
11
0
21
-7.9375
31
0
39
0
210
0
220
0
230
1
0
LINE
5
99
100
AcDbEntity
8
SK1
62
256
6
ByLayer
370
18
48
1
60
0
100
AcDbLine
10
-47
20
-7.9375
30
0
11
-47
21
7.9375
31
0
39
0
210
0
220
0
230
1
0
LINE
5
9A
100
AcDbEntity
8
SK1
62
256
6
ByLayer
370
18
48
1
60
0
100
AcDbLine
10
-8.796218
20
-4.876987
30
0
11
-39.438037
21
-4.876987
31
0
39
0
210
0
220
0
230
1
0
LINE
5
9B
100
AcDbEntity
8
SK1
62
256
6
ByLayer
370
18
48
1
60
0
100
AcDbLine
10
-39.438037
20
4.876987
30
0
11
-8.796218
21
4.876987
31
0
39
0
210
0
220
0
230
1
0
LINE
5
9C
100
AcDbEntity
8
SK1
62
256
6
ByLayer
370
18
48
1
60
0
100
AcDbLine
10
-39.438037
20
-4.876987
30
0
11
-39.438037
21
4.876987
31
0
39
0
210
0
220
0
230
1
0
LINE
5
9D
100
AcDbEntity
8
1
62
256
6
ByLayer
370
18
48
1
60
0
100
AcDbLine
10
54.761037
20
6.1515
30
0
11
54.761037
21
-6.1515
31
0
39
0
210
0
220
0
230
1
0
LINE
5
9E
100
AcDbEntity
8
1
62
256
6
ByLayer
370
18
48
1
60
0
100
AcDbLine
10
54.761037
20
6.1515
30
0
11
54.761037
21
-6.1515
31
0
39
0
210
0
220
0
230
1
0
LINE
5
9F
100
AcDbEntity
8
1
62
256
6
ByLayer
370
18
48
1
60
0
100
AcDbLine
10
54.761037
20
6.1515
30
0
11
54.761037
21
-6.1515
31
0
39
0
210
0
220
0
230
1
0
LINE
5
A0
100
AcDbEntity
8
1
62
256
6
ByLayer
370
18
48
1
60
0
100
AcDbLine
10
47.6
20
6.1515
30
0
11
47.6
21
-6.1515
31
0
39
0
210
0
220
0
230
1
0
LINE
5
A1
100
AcDbEntity
8
1
62
256
6
ByLayer
370
18
48
1
60
0
100
AcDbLine
10
47.6
20
6.1515
30
0
11
47.6
21
-6.1515
31
0
39
0
210
0
220
0
230
1
0
LINE
5
A2
100
AcDbEntity
8
1
62
256
6
ByLayer
370
18
48
1
60
0
100
AcDbLine
10
54.761037
20
6.1515
30
0
11
54.761037
21
-6.1515
31
0
39
0
210
0
220
0
230
1
0
LINE
5
A3
100
AcDbEntity
8
1
62
256
6
ByLayer
370
18
48
1
60
0
100
AcDbLine
10
47.6
20
6.1515
30
0
11
47.6
21
-6.1515
31
0
39
0
210
0
220
0
230
1
0
LINE
5
A4
100
AcDbEntity
8
1
62
256
6
ByLayer
370
18
48
1
60
0
100
AcDbLine
10
54.761037
20
6.1515
30
0
11
54.761037
21
-6.1515
31
0
39
0
210
0
220
0
230
1
0
LINE
5
A5
100
AcDbEntity
8
SK2
62
256
6
ByLayer
370
13
48
1
60
0
100
AcDbLine
10
-54.5
20
-7.9375
30
0
11
-54.5
21
36.212183
31
0
39
0
210
0
220
0
230
1
0
LINE
5
A7
100
AcDbEntity
8
SK2
62
256
6
ByLayer
370
13
48
1
60
0
100
AcDbLine
10
-49.5875
20
7.9375
30
0
11
-56.5
21
7.9375
31
0
39
0
210
0
220
0
230
1
0
LINE
5
A8
100
AcDbEntity
8
SK2
62
256
6
ByLayer
370
13
48
1
60
0
100
AcDbLine
10
-49.5875
20
-7.9375
30
0
11
-56.5
21
-7.9375
31
0
39
0
210
0
220
0
230
1
0
LINE
5
A9
100
AcDbEntity
8
1
62
256
6
ByLayer
370
18
48
1
60
1
100
AcDbLine
10
-54.5
20
7.9375
30
0
11
-54.039216
21
4.437502
31
0
39
0
210
0
220
0
230
1
0
LINE
5
AA
100
AcDbEntity
8
1
62
256
6
ByLayer
370
18
48
1
60
1
100
AcDbLine
10
-54.039216
20
4.437502
30
0
11
-54.960784
21
4.437498
31
0
39
0
210
0
220
0
230
1
0
LINE
5
AB
100
AcDbEntity
8
1
62
256
6
ByLayer
370
18
48
1
60
1
100
AcDbLine
10
-54.960784
20
4.437498
30
0
11
-54.5
21
7.9375
31
0
39
0
210
0
220
0
230
1
0
LINE
5
AC
100
AcDbEntity
8
1
62
256
6
ByLayer
370
18
48
1
60
1
100
AcDbLine
10
-54.5
20
-7.9375
30
0
11
-54.960784
21
-4.437502
31
0
39
0
210
0
220
0
230
1
0
LINE
5
AD
100
AcDbEntity
8
1
62
256
6
ByLayer
370
18
48
1
60
1
100
AcDbLine
10
-54.960784
20
-4.437502
30
0
11
-54.039216
21
-4.437498
31
0
39
0
210
0
220
0
230
1
0
LINE
5
AE
100
AcDbEntity
8
1
62
256
6
ByLayer
370
18
48
1
60
1
100
AcDbLine
10
-54.039216
20
-4.437498
30
0
11
-54.5
21
-7.9375
31
0
39
0
210
0
220
0
230
1
0
LINE
5
AF
100
AcDbEntity
8
2
62
256
6
ByLayer
370
13
48
1
60
0
100
AcDbLine
10
64.5
20
-6.1515
30
0
11
64.5
21
34.426183
31
0
39
0
210
0
220
0
230
1
0
LINE
5
B1
100
AcDbEntity
8
2
62
256
6
ByLayer
370
13
48
1
60
0
100
AcDbLine
10
56.348537
20
6.1515
30
0
11
66.5
21
6.1515
31
0
39
0
210
0
220
0
230
1
0
LINE
5
B2
100
AcDbEntity
8
2
62
256
6
ByLayer
370
13
48
1
60
0
100
AcDbLine
10
56.348537
20
-6.1515
30
0
11
66.5
21
-6.1515
31
0
39
0
210
0
220
0
230
1
0
LINE
5
B3
100
AcDbEntity
8
1
62
256
6
ByLayer
370
18
48
1
60
1
100
AcDbLine
10
64.5
20
6.1515
30
0
11
64.960784
21
2.651502
31
0
39
0
210
0
220
0
230
1
0
LINE
5
B4
100
AcDbEntity
8
1
62
256
6
ByLayer
370
18
48
1
60
1
100
AcDbLine
10
64.960784
20
2.651502
30
0
11
64.039216
21
2.651498
31
0
39
0
210
0
220
0
230
1
0
LINE
5
B5
100
AcDbEntity
8
1
62
256
6
ByLayer
370
18
48
1
60
1
100
AcDbLine
10
64.039216
20
2.651498
30
0
11
64.5
21
6.1515
31
0
39
0
210
0
220
0
230
1
0
LINE
5
B6
100
AcDbEntity
8
1
62
256
6
ByLayer
370
18
48
1
60
1
100
AcDbLine
10
64.5
20
-6.1515
30
0
11
64.039216
21
-2.651502
31
0
39
0
210
0
220
0
230
1
0
LINE
5
B7
100
AcDbEntity
8
1
62
256
6
ByLayer
370
18
48
1
60
1
100
AcDbLine
10
64.039216
20
-2.651502
30
0
11
64.960784
21
-2.651498
31
0
39
0
210
0
220
0
230
1
0
LINE
5
B8
100
AcDbEntity
8
1
62
256
6
ByLayer
370
18
48
1
60
1
100
AcDbLine
10
64.960784
20
-2.651498
30
0
11
64.5
21
-6.1515
31
0
39
0
210
0
220
0
230
1
0
LINE
5
B9
100
AcDbEntity
8
SK2
62
256
6
ByLayer
370
13
48
1
60
0
100
AcDbLine
10
57.542957
20
-1.491762
30
0
11
64.182423
21
-19.733545
31
0
39
0
210
0
220
0
230
1
0
LINE
5
BA
100
AcDbEntity
8
SK2
62
256
6
ByLayer
370
13
48
1
60
0
100
AcDbLine
10
57.542957
20
1.491762
30
0
11
64.182423
21
19.733545
31
0
39
0
210
0
220
0
230
1
0
LINE
5
BB
100
AcDbEntity
8
1
62
256
6
ByLayer
370
18
48
1
60
1
100
AcDbLine
10
63.498383
20
-17.85416
30
0
11
66.551575
21
-16.082064
31
0
39
0
210
0
220
0
230
1
0
LINE
5
BC
100
AcDbEntity
8
1
62
256
6
ByLayer
370
18
48
1
60
1
100
AcDbLine
10
66.551575
20
-16.082064
30
0
11
66.906196
21
-16.93267
31
0
39
0
210
0
220
0
230
1
0
LINE
5
BD
100
AcDbEntity
8
1
62
256
6
ByLayer
370
18
48
1
60
1
100
AcDbLine
10
66.906196
20
-16.93267
30
0
11
63.498383
21
-17.85416
31
0
39
0
210
0
220
0
230
1
0
LINE
5
BE
100
AcDbEntity
8
1
62
256
6
ByLayer
370
18
48
1
60
1
100
AcDbLine
10
63.498383
20
17.85416
30
0
11
66.906193
21
16.932671
31
0
39
0
210
0
220
0
230
1
0
LINE
5
BF
100
AcDbEntity
8
1
62
256
6
ByLayer
370
18
48
1
60
1
100
AcDbLine
10
66.906193
20
16.932671
30
0
11
66.551579
21
16.082063
31
0
39
0
210
0
220
0
230
1
0
LINE
5
C0
100
AcDbEntity
8
1
62
256
6
ByLayer
370
18
48
1
60
1
100
AcDbLine
10
66.551579
20
16.082063
30
0
11
63.498383
21
17.85416
31
0
39
0
210
0
220
0
230
1
0
LINE
5
110
100
AcDbEntity
8
1
62
256
6
ByLayer
370
18
48
1
60
1
100
AcDbLine
10
-54.5
20
7.9375
30
0
11
-54.039216
21
4.437502
31
0
39
0
210
0
220
0
230
1
0
LINE
5
111
100
AcDbEntity
8
1
62
256
6
ByLayer
370
18
48
1
60
1
100
AcDbLine
10
-54.039216
20
4.437502
30
0
11
-54.960784
21
4.437498
31
0
39
0
210
0
220
0
230
1
0
LINE
5
112
100
AcDbEntity
8
1
62
256
6
ByLayer
370
18
48
1
60
1
100
AcDbLine
10
-54.960784
20
4.437498
30
0
11
-54.5
21
7.9375
31
0
39
0
210
0
220
0
230
1
0
LINE
5
114
100
AcDbEntity
8
1
62
256
6
ByLayer
370
18
48
1
60
1
100
AcDbLine
10
-54.5
20
-7.9375
30
0
11
-54.960784
21
-4.437502
31
0
39
0
210
0
220
0
230
1
0
LINE
5
115
100
AcDbEntity
8
1
62
256
6
ByLayer
370
18
48
1
60
1
100
AcDbLine
10
-54.960784
20
-4.437502
30
0
11
-54.039216
21
-4.437498
31
0
39
0
210
0
220
0
230
1
0
LINE
5
116
100
AcDbEntity
8
1
62
256
6
ByLayer
370
18
48
1
60
1
100
AcDbLine
10
-54.039216
20
-4.437498
30
0
11
-54.5
21
-7.9375
31
0
39
0
210
0
220
0
230
1
0
LINE
5
11A
100
AcDbEntity
8
1
62
256
6
ByLayer
370
18
48
1
60
1
100
AcDbLine
10
64.5
20
6.1515
30
0
11
64.960784
21
2.651502
31
0
39
0
210
0
220
0
230
1
0
LINE
5
11B
100
AcDbEntity
8
1
62
256
6
ByLayer
370
18
48
1
60
1
100
AcDbLine
10
64.960784
20
2.651502
30
0
11
64.039216
21
2.651498
31
0
39
0
210
0
220
0
230
1
0
LINE
5
11C
100
AcDbEntity
8
1
62
256
6
ByLayer
370
18
48
1
60
1
100
AcDbLine
10
64.039216
20
2.651498
30
0
11
64.5
21
6.1515
31
0
39
0
210
0
220
0
230
1
0
LINE
5
11E
100
AcDbEntity
8
1
62
256
6
ByLayer
370
18
48
1
60
1
100
AcDbLine
10
64.5
20
-6.1515
30
0
11
64.039216
21
-2.651502
31
0
39
0
210
0
220
0
230
1
0
LINE
5
11F
100
AcDbEntity
8
1
62
256
6
ByLayer
370
18
48
1
60
1
100
AcDbLine
10
64.039216
20
-2.651502
30
0
11
64.960784
21
-2.651498
31
0
39
0
210
0
220
0
230
1
0
LINE
5
120
100
AcDbEntity
8
1
62
256
6
ByLayer
370
18
48
1
60
1
100
AcDbLine
10
64.960784
20
-2.651498
30
0
11
64.5
21
-6.1515
31
0
39
0
210
0
220
0
230
1
0
LINE
5
123
100
AcDbEntity
8
1
62
256
6
ByLayer
370
18
48
1
60
1
100
AcDbLine
10
63.498383
20
-17.85416
30
0
11
66.551575
21
-16.082064
31
0
39
0
210
0
220
0
230
1
0
LINE
5
124
100
AcDbEntity
8
1
62
256
6
ByLayer
370
18
48
1
60
1
100
AcDbLine
10
66.551575
20
-16.082064
30
0
11
66.906196
21
-16.93267
31
0
39
0
210
0
220
0
230
1
0
LINE
5
125
100
AcDbEntity
8
1
62
256
6
ByLayer
370
18
48
1
60
1
100
AcDbLine
10
66.906196
20
-16.93267
30
0
11
63.498383
21
-17.85416
31
0
39
0
210
0
220
0
230
1
0
LINE
5
127
100
AcDbEntity
8
1
62
256
6
ByLayer
370
18
48
1
60
1
100
AcDbLine
10
63.498383
20
17.85416
30
0
11
66.906193
21
16.932671
31
0
39
0
210
0
220
0
230
1
0
LINE
5
128
100
AcDbEntity
8
1
62
256
6
ByLayer
370
18
48
1
60
1
100
AcDbLine
10
66.906193
20
16.932671
30
0
11
66.551579
21
16.082063
31
0
39
0
210
0
220
0
230
1
0
LINE
5
129
100
AcDbEntity
8
1
62
256
6
ByLayer
370
18
48
1
60
1
100
AcDbLine
10
66.551579
20
16.082063
30
0
11
63.498383
21
17.85416
31
0
39
0
210
0
220
0
230
1
0
MTEXT
5
10C
100
AcDbEntity
8
SK2
62
256
6
ByLayer
370
18
48
1
60
0
100
AcDbMText
10
-55.841114
20
19.595938
30
0
210
0
220
0
230
1
1
%%c
40
3
41
0
44
1.084337
50
90
71
7
72
5
7
iso_b_vert
0
MTEXT
5
10F
100
AcDbEntity
8
SK2
62
256
6
ByLayer
370
18
48
1
60
0
100
AcDbMText
10
-55.841114
20
25.5725
30
0
210
0
220
0
230
1
1
\W0.7022;15.875
40
3
41
0
44
1.084337
50
90
71
7
72
5
7
iso_b_vert
0
MTEXT
5
118
100
AcDbEntity
8
2
62
256
6
ByLayer
370
18
48
1
60
0
100
AcDbMText
10
63.158886
20
17.809938
30
0
210
0
220
0
230
1
1
%%c
40
3
41
0
44
1.084337
50
90
71
7
72
5
7
iso_b_vert
0
MTEXT
5
119
100
AcDbEntity
8
2
62
256
6
ByLayer
370
18
48
1
60
0
100
AcDbMText
10
63.158886
20
23.7865
30
0
210
0
220
0
230
1
1
\W0.7022;12.303
40
3
41
0
44
1.084337
50
90
71
7
72
5
7
iso_b_vert
0
MTEXT
5
122
100
AcDbEntity
8
SK2
62
256
6
ByLayer
370
18
48
1
60
0
100
AcDbMText
10
76.909114
20
3.734657
30
0
210
0
220
0
230
1
1
\W0.7071;140%%d
40
3
41
0
44
1.084337
50
270
71
7
72
5
7
iso_b_vert
0
MTEXT
5
12B
100
AcDbEntity
8
SK6
62
256
6
ByLayer
370
18
48
1
60
0
100
AcDbMText
10
-23.292511
20
-67.114886
30
0
210
0
220
0
230
1
1
\W0.7662;H85331/64
40
3
41
0
44
1.084337
50
0
71
7
72
5
7
iso_b_vert
0
HATCH
5
113
100
AcDbEntity
8
SK2
62
256
6
ByLayer
370
13
48
1
60
0
100
AcDbHatch
10
0
20
0
30
0
210
0
220
0
230
1
2
ANSI31
70
0
71
0
91
1
92
5
93
3
72
1
10
-54.5
20
7.9375
11
-54.0392162584472
21
4.43750169255318
72
1
10
-54.0392162584472
20
4.43750169255318
11
-54.9607837415528
21
4.43749830744682
72
1
10
-54.9607837415528
20
4.43749830744682
11
-54.5
21
7.9375
97
0
75
0
76
1
52
0
41
0.0062
77
0
78
1
53
45
43
0
44
0
45
-0.0139193969876572
46
0.0139193969876572
79
0
47
0
98
1
10
0
20
0
0
HATCH
5
117
100
AcDbEntity
8
SK2
62
256
6
ByLayer
370
13
48
1
60
0
100
AcDbHatch
10
0
20
0
30
0
210
0
220
0
230
1
2
ANSI31
70
0
71
0
91
1
92
5
93
3
72
1
10
-54.5
20
-7.9375
11
-54.9607837415528
21
-4.43750169255318
72
1
10
-54.9607837415528
20
-4.43750169255318
11
-54.0392162584472
21
-4.43749830744682
72
1
10
-54.0392162584472
20
-4.43749830744682
11
-54.5
21
-7.9375
97
0
75
0
76
1
52
0
41
0.0062
77
0
78
1
53
45
43
0
44
0
45
-0.0139193969876572
46
0.0139193969876572
79
0
47
0
98
1
10
0
20
0
0
HATCH
5
11D
100
AcDbEntity
8
2
62
256
6
ByLayer
370
13
48
1
60
0
100
AcDbHatch
10
0
20
0
30
0
210
0
220
0
230
1
2
ANSI31
70
0
71
0
91
1
92
5
93
3
72
1
10
64.5
20
6.1515
11
64.9607837415528
21
2.65150169255318
72
1
10
64.9607837415528
20
2.65150169255318
11
64.0392162584472
21
2.65149830744681
72
1
10
64.0392162584472
20
2.65149830744681
11
64.5
21
6.1515
97
0
75
0
76
1
52
0
41
0.0062
77
0
78
1
53
45
43
0
44
0
45
-0.0139193969876572
46
0.0139193969876572
79
0
47
0
98
1
10
0
20
0
0
HATCH
5
121
100
AcDbEntity
8
2
62
256
6
ByLayer
370
13
48
1
60
0
100
AcDbHatch
10
0
20
0
30
0
210
0
220
0
230
1
2
ANSI31
70
0
71
0
91
1
92
5
93
3
72
1
10
64.5
20
-6.1515
11
64.0392162584472
21
-2.65150169255318
72
1
10
64.0392162584472
20
-2.65150169255318
11
64.9607837415528
21
-2.65149830744681
72
1
10
64.9607837415528
20
-2.65149830744681
11
64.5
21
-6.1515
97
0
75
0
76
1
52
0
41
0.0062
77
0
78
1
53
45
43
0
44
0
45
-0.0139193969876572
46
0.0139193969876572
79
0
47
0
98
1
10
0
20
0
0
HATCH
5
126
100
AcDbEntity
8
SK2
62
256
6
ByLayer
370
13
48
1
60
0
100
AcDbHatch
10
0
20
0
30
0
210
0
220
0
230
1
2
ANSI31
70
0
71
0
91
1
92
5
93
3
72
1
10
63.4983827231877
20
-17.8541597949323
11
66.5515754256929
21
-16.0820638240608
72
1
10
66.5515754256929
20
-16.0820638240608
11
66.9061958339751
21
-16.9326700737196
72
1
10
66.9061958339751
20
-16.9326700737196
11
63.4983827231877
21
-17.8541597949323
97
0
75
0
76
1
52
0
41
0.0062
77
0
78
1
53
45
43
0
44
0
45
-0.0139193969876572
46
0.0139193969876572
79
0
47
0
98
1
10
0
20
0
0
HATCH
5
12A
100
AcDbEntity
8
SK2
62
256
6
ByLayer
370
13
48
1
60
0
100
AcDbHatch
10
0
20
0
30
0
210
0
220
0
230
1
2
ANSI31
70
0
71
0
91
1
92
5
93
3
72
1
10
63.4983827231877
20
17.8541597949323
11
66.9061927095191
21
16.9326713763016
72
1
10
66.9061927095191
20
16.9326713763016
11
66.5515785501489
21
16.0820625214788
72
1
10
66.5515785501489
20
16.0820625214788
11
63.4983827231877
21
17.8541597949323
97
0
75
0
76
1
52
0
41
0.0062
77
0
78
1
53
45
43
0
44
0
45
-0.0139193969876572
46
0.0139193969876572
79
0
47
0
98
1
10
0
20
0
0
DIMENSION
5
12E
100
AcDbEntity
8
SK2
62
256
6
ByLayer
370
18
48
1
60
0
100
AcDbDimension
2
_U0
10
57
20
-45.952229
30
0
11
4.5
21
-45.952229
31
0
70
32
71
1
72
1
41
1
210
0
220
0
230
1
3
Standard
100
AcDbAlignedDimension
13
-48
23
-7.9375
33
0
14
57
24
0
34
0
50
0
100
AcDbRotatedDimension
1001
ACAD
1000
DSTYLE
1002
{
1070
   371
1070
    13
1070
   372
1070
    13
1070
     3
1000

1070
   170
1070
     0
1070
   144
1040
1.0
1070
   277
1070
     2
1070
   284
1070
     8
1070
   278
1070
    46
1070
   146
1040
1.166667
1070
   345
1005
16
1070
   347
1005
16
1070
   346
1005
16
1070
   344
1005
0
1070
   343
1005
0
1070
   172
1070
     1
1070
    76
1070
     0
1070
    75
1070
     0
1070
   282
1070
     0
1070
   281
1070
     0
1070
    71
1070
     0
1070
    74
1070
     0
1070
   279
1070
     0
1070
   173
1070
     1
1070
   340
1005
10D
1070
   271
1070
     2
1070
   272
1070
     3
1070
    77
1070
     1
1070
    73
1070
     1
1070
   171
1070
     3
1070
   274
1070
     4
1070
   177
1070
     2
1070
   176
1070
     2
1070
   178
1070
     2
1070
    78
1070
     8
1070
    48
1040
-0.1
1070
    41
1040
3.5
1070
   147
1040
1.5
1070
    42
1040
1.5875
1070
    44
1040
2.0
1070
   140
1040
3.0
1002
}
1001
ACAD_DSTYLE_DIM_LINETYPE
1070
   380
1005
16
1001
ACAD_DSTYLE_DIM_EXT1_LINETYPE
1070
   381
1005
16
1001
ACAD_DSTYLE_DIM_EXT2_LINETYPE
1070
   382
1005
16
0
DIMENSION
5
147
100
AcDbEntity
8
SK2
62
256
6
ByLayer
370
18
48
1
60
0
100
AcDbDimension
2
_U1
10
3
20
-35.952229
30
0
11
30
21
-35.952229
31
0
70
32
71
1
72
1
41
1
210
0
220
0
230
1
3
Standard
100
AcDbAlignedDimension
13
57
23
0
33
0
14
3
24
-6.1515
34
0
50
0
100
AcDbRotatedDimension
1001
ACAD
1000
DSTYLE
1002
{
1070
   371
1070
    13
1070
   372
1070
    13
1070
     3
1000

1070
   170
1070
     0
1070
   144
1040
1.0
1070
   277
1070
     2
1070
   284
1070
     8
1070
   278
1070
    46
1070
   146
1040
1.166667
1070
   345
1005
16
1070
   347
1005
16
1070
   346
1005
16
1070
   344
1005
0
1070
   343
1005
0
1070
   172
1070
     1
1070
    76
1070
     0
1070
    75
1070
     0
1070
   282
1070
     0
1070
   281
1070
     0
1070
    71
1070
     0
1070
    74
1070
     0
1070
   279
1070
     0
1070
   173
1070
     1
1070
   340
1005
10D
1070
   271
1070
     2
1070
   272
1070
     3
1070
    77
1070
     1
1070
    73
1070
     1
1070
   171
1070
     3
1070
   274
1070
     4
1070
   177
1070
     2
1070
   176
1070
     2
1070
   178
1070
     2
1070
    78
1070
     8
1070
    48
1040
-0.1
1070
    41
1040
3.5
1070
   147
1040
1.5
1070
    42
1040
1.5875
1070
    44
1040
2.0
1070
   140
1040
3.0
1002
}
1001
ACAD_DSTYLE_DIM_LINETYPE
1070
   380
1005
16
1001
ACAD_DSTYLE_DIM_EXT1_LINETYPE
1070
   381
1005
16
1001
ACAD_DSTYLE_DIM_EXT2_LINETYPE
1070
   382
1005
16
0
DIMENSION
5
15F
100
AcDbEntity
8
SK2
62
256
6
ByLayer
370
18
48
1
60
0
100
AcDbDimension
2
_U2
10
0
20
-35.952229
30
0
11
-24
21
-35.952229
31
0
70
32
71
1
72
1
41
1
210
0
220
0
230
1
3
Standard
100
AcDbAlignedDimension
13
-48
23
-7.9375
33
0
14
0
24
-7.9375
34
0
50
0
100
AcDbRotatedDimension
1001
ACAD
1000
DSTYLE
1002
{
1070
   371
1070
    13
1070
   372
1070
    13
1070
     3
1000

1070
   170
1070
     0
1070
   144
1040
1.0
1070
   277
1070
     2
1070
   284
1070
     8
1070
   278
1070
    46
1070
   146
1040
1.166667
1070
   345
1005
16
1070
   347
1005
16
1070
   346
1005
16
1070
   344
1005
0
1070
   343
1005
0
1070
   172
1070
     1
1070
    76
1070
     0
1070
    75
1070
     0
1070
   282
1070
     0
1070
   281
1070
     0
1070
    71
1070
     0
1070
    74
1070
     0
1070
   279
1070
     0
1070
   173
1070
     1
1070
   340
1005
10D
1070
   271
1070
     2
1070
   272
1070
     3
1070
    77
1070
     1
1070
    73
1070
     1
1070
   171
1070
     3
1070
   274
1070
     4
1070
   177
1070
     2
1070
   176
1070
     2
1070
   178
1070
     2
1070
    78
1070
     8
1070
    48
1040
-0.1
1070
    41
1040
3.5
1070
   147
1040
1.5
1070
    42
1040
1.5875
1070
    44
1040
2.0
1070
   140
1040
3.0
1002
}
1001
ACAD_DSTYLE_DIM_LINETYPE
1070
   380
1005
16
1001
ACAD_DSTYLE_DIM_EXT1_LINETYPE
1070
   381
1005
16
1001
ACAD_DSTYLE_DIM_EXT2_LINETYPE
1070
   382
1005
16
0
DIMENSION
5
177
100
AcDbEntity
8
SK2
62
256
6
ByLayer
370
18
48
1
60
0
100
AcDbDimension
2
_U3
10
13
20
32.952229
30
0
11
35
21
32.952229
31
0
70
32
71
1
72
1
41
1
210
0
220
0
230
1
3
Standard
100
AcDbAlignedDimension
13
57
23
0
33
0
14
13
24
6.1515
34
0
50
0
100
AcDbRotatedDimension
1001
ACAD
1000
DSTYLE
1002
{
1070
   371
1070
    13
1070
   372
1070
    13
1070
     3
1000

1070
   170
1070
     0
1070
   144
1040
1.0
1070
   277
1070
     2
1070
   284
1070
     8
1070
   278
1070
    46
1070
   146
1040
1.166667
1070
   345
1005
16
1070
   347
1005
16
1070
   346
1005
16
1070
   344
1005
0
1070
   343
1005
0
1070
   172
1070
     1
1070
    76
1070
     0
1070
    75
1070
     0
1070
   282
1070
     0
1070
   281
1070
     0
1070
    71
1070
     0
1070
    74
1070
     0
1070
   279
1070
     0
1070
   173
1070
     1
1070
   340
1005
10D
1070
   271
1070
     2
1070
   272
1070
     3
1070
    77
1070
     1
1070
    73
1070
     1
1070
   171
1070
     3
1070
   274
1070
     4
1070
   177
1070
     2
1070
   176
1070
     2
1070
   178
1070
     2
1070
    78
1070
     8
1070
    48
1040
-0.1
1070
    41
1040
3.5
1070
   147
1040
1.5
1070
    42
1040
1.5875
1070
    44
1040
2.0
1070
   140
1040
3.0
1002
}
1001
ACAD_DSTYLE_DIM_LINETYPE
1070
   380
1005
16
1001
ACAD_DSTYLE_DIM_EXT1_LINETYPE
1070
   381
1005
16
1001
ACAD_DSTYLE_DIM_EXT2_LINETYPE
1070
   382
1005
16
0
ENDSEC
0
SECTION
2
OBJECTS
0
DICTIONARY
5
1ff
330
0
100
AcDbDictionary
280
0
281
1
3
ACAD_GROUP
350
200
3
ACAD_MLINESTYLE
350
201
0
DICTIONARY
5
200
330
0
100
AcDbDictionary
280
0
281
1
0
DICTIONARY
5
201
330
0
100
AcDbDictionary
280
0
281
1
3
Standard
350
18
0
MLINESTYLE
5
18
330
201
100
AcDbMlineStyle
2
Standard
70
0
3

62
256
51
90
52
90
71
2
49
-0.5
62
256
6
ByLayer
49
0.5
62
256
6
ByLayer
0
RASTERVARIABLES
5
1ed
330

100
AcDbRasterVariables
90
0
70
1
71
1
72
1
0
ENDSEC
0
EOF
