0
SECTION
2
HEADER
9
$ACADVER
1
AC1015
9
$DWGCODEPAGE
3
ANSI_1252
9
$HANDSEED
5
23e
9
$ANGBASE
50
0
9
$ANGDIR
70
0
9
$ATTMODE
70
1
9
$AUNITS
70
0
9
$AUPREC
70
0
9
$CECOLOR
62
256
9
$CELTSCALE
40
1
9
$CELTYPE
6
ByLayer
9
$CELWEIGHT
370
18
9
$CLAYER
8
0
9
$CMLJUST
70
0
9
$CMLSCALE
40
1
9
$CMLSTYLE
2
Standard
9
$DIMSTYLE
2
Standard
9
$TEXTSIZE
40
0.2
9
$TEXTSTYLE
7
Standard
9
$LUNITS
70
2
9
$LUPREC
70
4
9
$EXTNAMES
290
1
9
$INSUNITS
70
4
9
$LTSCALE
40
1
9
$LWDISPLAY
290
1
9
$PDMODE
70
0
9
$PDSIZE
40
0
9
$PLINEGEN
70
0
0
ENDSEC
0
SECTION
2
CLASSES
0
CLASS
1
RASTERVARIABLES
2
AcDbRasterVariables
3
ISM
90
0
280
0
281
0
0
ENDSEC
0
SECTION
2
TABLES
0
TABLE
2
VPORT
5
234
100
AcDbSymbolTable
0
VPORT
5
1
100
AcDbSymbolTableRecord
100
AcDbViewportTableRecord
2
*Active
70
0
10
0
20
0
11
1
21
1
12
-1
22
1
13
0
23
0
14
0.5
24
0.5
15
10
25
10
16
0
26
0
36
1
17
0
27
0
37
0
0
ENDTAB
0
TABLE
2
LTYPE
5
235
100
AcDbSymbolTable
0
LTYPE
5
14
100
AcDbSymbolTableRecord
100
AcDbLinetypeTableRecord
70
0
2
ByBlock
3

72
65
73
0
40
0
0
LTYPE
5
15
100
AcDbSymbolTableRecord
100
AcDbLinetypeTableRecord
70
0
2
ByLayer
3

72
65
73
0
40
0
0
LTYPE
5
16
100
AcDbSymbolTableRecord
100
AcDbLinetypeTableRecord
70
0
2
Continuous
3
Solid line
72
65
73
0
40
0
0
LTYPE
5
6E
100
AcDbSymbolTableRecord
100
AcDbLinetypeTableRecord
70
0
2
CENTER
3
____ _ ____ _ ____ _ ____
72
65
73
4
40
47.5
49
22
74
0
49
-8.5
74
0
49
8.5
74
0
49
-8.5
74
0
0
LTYPE
5
6F
100
AcDbSymbolTableRecord
100
AcDbLinetypeTableRecord
70
0
2
DASHED
3
__ __ __ __ __ __ __ __ __
72
65
73
2
40
25.72
49
12.86
74
0
49
-12.86
74
0
0
ENDTAB
0
TABLE
2
LAYER
5
236
100
AcDbSymbolTable
0
LAYER
5
10
100
AcDbSymbolTableRecord
100
AcDbLayerTableRecord
2
0
70
0
62
7
6
Continuous
290
1
370
-3
390
0
0
LAYER
5
71
100
AcDbSymbolTableRecord
100
AcDbLayerTableRecord
2
80
70
0
62
-6
6
Continuous
290
1
370
-3
390
0
0
LAYER
5
73
100
AcDbSymbolTableRecord
100
AcDbLayerTableRecord
2
81
70
0
62
-3
6
Continuous
290
1
370
-3
390
0
0
LAYER
5
75
100
AcDbSymbolTableRecord
100
AcDbLayerTableRecord
2
1
70
0
62
4
6
Continuous
290
1
370
-3
390
0
0
LAYER
5
7E
100
AcDbSymbolTableRecord
100
AcDbLayerTableRecord
2
4
70
0
62
-2
6
CENTER
290
1
370
-3
390
0
0
LAYER
5
B1
100
AcDbSymbolTableRecord
100
AcDbLayerTableRecord
2
2
70
0
62
7
6
Continuous
290
1
370
-3
390
0
0
LAYER
5
163
100
AcDbSymbolTableRecord
100
AcDbLayerTableRecord
2
Defpoints
70
0
62
7
6
Continuous
290
0
370
-3
390
0
0
LAYER
5
220
100
AcDbSymbolTableRecord
100
AcDbLayerTableRecord
2
SK4
70
0
62
2
6
CENTER
290
1
370
-3
390
0
0
LAYER
5
221
100
AcDbSymbolTableRecord
100
AcDbLayerTableRecord
2
SK1
70
0
62
4
6
Continuous
290
1
370
-3
390
0
0
LAYER
5
222
100
AcDbSymbolTableRecord
100
AcDbLayerTableRecord
2
SK2
70
0
62
7
6
Continuous
290
1
370
-3
390
0
0
LAYER
5
223
100
AcDbSymbolTableRecord
100
AcDbLayerTableRecord
2
SK6
70
0
62
5
6
Continuous
290
1
370
-3
390
0
0
ENDTAB
0
TABLE
2
STYLE
5
237
100
AcDbSymbolTable
0
STYLE
5
11
100
AcDbSymbolTableRecord
100
AcDbTextStyleTableRecord
2
Standard
3
txt
70
0
71
0
40
0
41
1
42
0
50
0
0
STYLE
5
13F
100
AcDbSymbolTableRecord
100
AcDbTextStyleTableRecord
2
iso_b_vert
3
simplex.shx
70
0
71
0
40
0
41
1
42
0
50
0
0
STYLE
5
140
100
AcDbSymbolTableRecord
100
AcDbTextStyleTableRecord
2
DWGDirectTextStyle
3
simplex
70
0
71
0
40
0
41
1
42
0
50
0
0
ENDTAB
0
TABLE
2
DIMSTYLE
5
238
100
AcDbSymbolTable
100
AcDbDimStyleTable
0
DIMSTYLE
105
27
100
AcDbSymbolTableRecord
100
AcDbDimStyleTableRecord
2
Standard
70
0
3
<>
41
0.18
42
0.0625
44
0.18
140
0.18
147
0.09
73
0
74
0
77
1
271
2
275
0
278
52
280
0
340
11
0
ENDTAB
0
TABLE
2
VIEW
5
239
100
AcDbSymbolTable
0
ENDTAB
0
TABLE
2
UCS
5
23a
100
AcDbSymbolTable
0
ENDTAB
0
TABLE
2
APPID
5
23b
100
AcDbSymbolTable
0
APPID
5
12
100
AcDbSymbolTableRecord
100
AcDbRegAppTableRecord
2
ACAD
70
0
0
APPID
5
15F
100
AcDbSymbolTableRecord
100
AcDbRegAppTableRecord
2
ACAD_DSTYLE_DIMBREAK
70
0
0
APPID
5
1DF
100
AcDbSymbolTableRecord
100
AcDbRegAppTableRecord
2
ACAD_DSTYLE_DIM_LINETYPE
70
0
0
APPID
5
1E0
100
AcDbSymbolTableRecord
100
AcDbRegAppTableRecord
2
ACAD_DSTYLE_DIM_EXT1_LINETYPE
70
0
0
APPID
5
1E1
100
AcDbSymbolTableRecord
100
AcDbRegAppTableRecord
2
ACAD_DSTYLE_DIM_EXT2_LINETYPE
70
0
0
APPID
5
21C
100
AcDbSymbolTableRecord
100
AcDbRegAppTableRecord
2
ACAD_MLEADERVER
70
0
0
ENDTAB
0
TABLE
2
BLOCK_RECORD
5
23c
100
AcDbSymbolTable
0
BLOCK_RECORD
5
1F
100
AcDbSymbolTableRecord
100
AcDbBlockTableRecord
2
*Model_Space
340
0
70
0
0
BLOCK_RECORD
5
1B
100
AcDbSymbolTableRecord
100
AcDbBlockTableRecord
2
*Paper_Space
340
0
70
0
0
BLOCK_RECORD
5
23
100
AcDbSymbolTableRecord
100
AcDbBlockTableRecord
2
*Paper_Space0
340
0
70
0
0
BLOCK_RECORD
5
164
100
AcDbSymbolTableRecord
100
AcDbBlockTableRecord
2
*D1
340
0
70
0
0
BLOCK_RECORD
5
170
100
AcDbSymbolTableRecord
100
AcDbBlockTableRecord
2
_U0
340
0
70
0
0
BLOCK_RECORD
5
17C
100
AcDbSymbolTableRecord
100
AcDbBlockTableRecord
2
*D3
340
0
70
0
0
BLOCK_RECORD
5
188
100
AcDbSymbolTableRecord
100
AcDbBlockTableRecord
2
_U1
340
0
70
0
0
BLOCK_RECORD
5
194
100
AcDbSymbolTableRecord
100
AcDbBlockTableRecord
2
*D5
340
0
70
0
0
BLOCK_RECORD
5
1A0
100
AcDbSymbolTableRecord
100
AcDbBlockTableRecord
2
_U2
340
0
70
0
0
BLOCK_RECORD
5
1AC
100
AcDbSymbolTableRecord
100
AcDbBlockTableRecord
2
*D7
340
0
70
0
0
BLOCK_RECORD
5
1B8
100
AcDbSymbolTableRecord
100
AcDbBlockTableRecord
2
_U3
340
0
70
0
0
ENDTAB
0
ENDSEC
0
SECTION
2
BLOCKS
0
BLOCK
5
20
100
AcDbEntity
8
0
100
AcDbBlockBegin
2
*Model_Space
70
0
10
0
20
0
30
0
3
*Model_Space
0
ENDBLK
5
21
100
AcDbEntity
8
0
100
AcDbBlockEnd
0
BLOCK
5
1C
100
AcDbEntity
8
0
100
AcDbBlockBegin
2
*Paper_Space
70
0
10
0
20
0
30
0
3
*Paper_Space
0
ENDBLK
5
1D
100
AcDbEntity
8
0
100
AcDbBlockEnd
0
BLOCK
5
24
100
AcDbEntity
8
0
100
AcDbBlockBegin
2
*Paper_Space0
70
0
10
0
20
0
30
0
3
*Paper_Space0
0
ENDBLK
5
25
100
AcDbEntity
8
0
100
AcDbBlockEnd
0
BLOCK
5
165
100
AcDbEntity
8
0
100
AcDbBlockBegin
2
*D1
70
1
10
0
20
0
30
0
3
*D1
0
LINE
5
167
100
AcDbEntity
8
0
62
256
6
ByLayer
370
-2
48
1
60
0
100
AcDbLine
10
-56
20
-14.2875
30
0
11
-56
21
-47.952229
31
0
39
0
210
0
220
0
230
1
0
LINE
5
168
100
AcDbEntity
8
0
62
256
6
ByLayer
370
-2
48
1
60
0
100
AcDbLine
10
114.2
20
-1.5875
30
0
11
114.2
21
-47.952229
31
0
39
0
210
0
220
0
230
1
0
LINE
5
169
100
AcDbEntity
8
0
62
256
6
ByLayer
370
-2
48
1
60
0
100
AcDbLine
10
-52.5
20
-45.952229
30
0
11
110.7
21
-45.952229
31
0
39
0
210
0
220
0
230
1
0
SOLID
5
16A
100
AcDbEntity
8
0
62
256
6
ByLayer
370
-1
48
1
60
0
100
AcDbTrace
10
-52.5
20
-45.368896
30
0
11
-52.5
21
-46.535563
31
0
12
-56
22
-45.952229
32
0
13
-56
23
-45.952229
33
0
39
0
210
0
220
0
230
1
0
SOLID
5
16B
100
AcDbEntity
8
0
62
256
6
ByLayer
370
-1
48
1
60
0
100
AcDbTrace
10
110.7
20
-46.535563
30
0
11
110.7
21
-45.368896
31
0
12
114.2
22
-45.952229
32
0
13
114.2
23
-45.952229
33
0
39
0
210
0
220
0
230
1
0
MTEXT
5
16C
100
AcDbEntity
8
0
62
256
6
ByLayer
370
18
48
1
60
0
100
AcDbMText
10
29.1
20
-39.952229
30
0
210
0
220
0
230
1
1
\A1;170.2
40
3
41
0
44
1
50
0
71
5
72
5
7
iso_b_vert
0
POINT
5
16D
100
AcDbEntity
8
Defpoints
62
0
6
ByLayer
370
-1
48
1
60
0
100
AcDbPoint
10
-56
20
-12.7
30
0
39
0
210
0
220
0
230
1
50
360
0
POINT
5
16E
100
AcDbEntity
8
Defpoints
62
0
6
ByLayer
370
-1
48
1
60
0
100
AcDbPoint
10
114.2
20
0
30
0
39
0
210
0
220
0
230
1
50
360
0
POINT
5
16F
100
AcDbEntity
8
Defpoints
62
0
6
ByLayer
370
-1
48
1
60
0
100
AcDbPoint
10
114.2
20
-45.952229
30
0
39
0
210
0
220
0
230
1
50
360
0
ENDBLK
5
166
100
AcDbEntity
8
0
100
AcDbBlockEnd
0
BLOCK
5
177
100
AcDbEntity
8
0
100
AcDbBlockBegin
2
_U0
70
0
10
0
20
0
30
0
3
_U0
0
MTEXT
5
171
100
AcDbEntity
8
SK2
62
256
6
ByLayer
370
18
48
1
60
0
100
AcDbMText
10
23.871658
20
-45.067115
30
0
210
0
220
0
230
1
1
\W0.7022;170.20
40
3
41
0
44
1.084337
50
0
71
7
72
5
7
iso_b_vert
0
LINE
5
172
100
AcDbEntity
8
SK2
62
256
6
ByLayer
370
13
48
1
60
0
100
AcDbLine
10
-56
20
-14.2875
30
0
11
-56
21
-47.952229
31
0
39
0
210
0
220
0
230
1
0
LINE
5
173
100
AcDbEntity
8
SK2
62
256
6
ByLayer
370
13
48
1
60
0
100
AcDbLine
10
114.2
20
-1.5875
30
0
11
114.2
21
-47.952229
31
0
39
0
210
0
220
0
230
1
0
LINE
5
174
100
AcDbEntity
8
SK2
62
256
6
ByLayer
370
13
48
1
60
0
100
AcDbLine
10
-56
20
-45.952229
30
0
11
114.2
21
-45.952229
31
0
39
0
210
0
220
0
230
1
0
SOLID
5
175
100
AcDbEntity
8
SK2
62
256
6
ByLayer
370
18
48
1
60
0
100
AcDbTrace
10
-56
20
-45.952229
30
0
11
-52.500002
21
-45.491446
31
0
12
-52.499998
22
-46.413013
32
0
13
-52.499998
23
-46.413013
33
0
39
0
210
0
220
0
230
1
0
SOLID
5
176
100
AcDbEntity
8
SK2
62
256
6
ByLayer
370
18
48
1
60
0
100
AcDbTrace
10
114.2
20
-45.952229
30
0
11
110.700002
21
-46.413013
31
0
12
110.699998
22
-45.491446
32
0
13
110.699998
23
-45.491446
33
0
39
0
210
0
220
0
230
1
0
ENDBLK
5
178
100
AcDbEntity
8
0
100
AcDbBlockEnd
0
BLOCK
5
17D
100
AcDbEntity
8
0
100
AcDbBlockBegin
2
*D3
70
1
10
0
20
0
30
0
3
*D3
0
LINE
5
17F
100
AcDbEntity
8
0
62
256
6
ByLayer
370
-2
48
1
60
0
100
AcDbLine
10
114.2
20
-1.5875
30
0
11
114.2
21
-37.952229
31
0
39
0
210
0
220
0
230
1
0
LINE
5
180
100
AcDbEntity
8
0
62
256
6
ByLayer
370
-2
48
1
60
0
100
AcDbLine
10
3
20
-13.8905
30
0
11
3
21
-37.952229
31
0
39
0
210
0
220
0
230
1
0
LINE
5
181
100
AcDbEntity
8
0
62
256
6
ByLayer
370
-2
48
1
60
0
100
AcDbLine
10
110.7
20
-35.952229
30
0
11
6.5
21
-35.952229
31
0
39
0
210
0
220
0
230
1
0
SOLID
5
182
100
AcDbEntity
8
0
62
256
6
ByLayer
370
-1
48
1
60
0
100
AcDbTrace
10
110.7
20
-36.535563
30
0
11
110.7
21
-35.368896
31
0
12
114.2
22
-35.952229
32
0
13
114.2
23
-35.952229
33
0
39
0
210
0
220
0
230
1
0
SOLID
5
183
100
AcDbEntity
8
0
62
256
6
ByLayer
370
-1
48
1
60
0
100
AcDbTrace
10
6.5
20
-35.368896
30
0
11
6.5
21
-36.535563
31
0
12
3
22
-35.952229
32
0
13
3
23
-35.952229
33
0
39
0
210
0
220
0
230
1
0
MTEXT
5
184
100
AcDbEntity
8
0
62
256
6
ByLayer
370
18
48
1
60
0
100
AcDbMText
10
58.6
20
-29.952229
30
0
210
0
220
0
230
1
1
\A1;111.2
40
3
41
0
44
1
50
0
71
5
72
5
7
iso_b_vert
0
POINT
5
185
100
AcDbEntity
8
Defpoints
62
0
6
ByLayer
370
-1
48
1
60
0
100
AcDbPoint
10
114.2
20
0
30
0
39
0
210
0
220
0
230
1
50
360
0
POINT
5
186
100
AcDbEntity
8
Defpoints
62
0
6
ByLayer
370
-1
48
1
60
0
100
AcDbPoint
10
3
20
-12.303
30
0
39
0
210
0
220
0
230
1
50
360
0
POINT
5
187
100
AcDbEntity
8
Defpoints
62
0
6
ByLayer
370
-1
48
1
60
0
100
AcDbPoint
10
3
20
-35.952229
30
0
39
0
210
0
220
0
230
1
50
360
0
ENDBLK
5
17E
100
AcDbEntity
8
0
100
AcDbBlockEnd
0
BLOCK
5
18F
100
AcDbEntity
8
0
100
AcDbBlockBegin
2
_U1
70
0
10
0
20
0
30
0
3
_U1
0
MTEXT
5
189
100
AcDbEntity
8
SK2
62
256
6
ByLayer
370
18
48
1
60
0
100
AcDbMText
10
54.121544
20
-35.067115
30
0
210
0
220
0
230
1
1
\W0.6041;111.20
40
3
41
0
44
1.084337
50
0
71
7
72
5
7
iso_b_vert
0
LINE
5
18A
100
AcDbEntity
8
SK2
62
256
6
ByLayer
370
13
48
1
60
0
100
AcDbLine
10
114.2
20
-1.5875
30
0
11
114.2
21
-37.952229
31
0
39
0
210
0
220
0
230
1
0
LINE
5
18B
100
AcDbEntity
8
SK2
62
256
6
ByLayer
370
13
48
1
60
0
100
AcDbLine
10
3
20
-13.8905
30
0
11
3
21
-37.952229
31
0
39
0
210
0
220
0
230
1
0
LINE
5
18C
100
AcDbEntity
8
SK2
62
256
6
ByLayer
370
13
48
1
60
0
100
AcDbLine
10
114.2
20
-35.952229
30
0
11
3
21
-35.952229
31
0
39
0
210
0
220
0
230
1
0
SOLID
5
18D
100
AcDbEntity
8
SK2
62
256
6
ByLayer
370
18
48
1
60
0
100
AcDbTrace
10
114.2
20
-35.952229
30
0
11
110.700002
21
-36.413013
31
0
12
110.699998
22
-35.491446
32
0
13
110.699998
23
-35.491446
33
0
39
0
210
0
220
0
230
1
0
SOLID
5
18E
100
AcDbEntity
8
SK2
62
256
6
ByLayer
370
18
48
1
60
0
100
AcDbTrace
10
3
20
-35.952229
30
0
11
6.499998
21
-35.491446
31
0
12
6.500002
22
-36.413013
32
0
13
6.500002
23
-36.413013
33
0
39
0
210
0
220
0
230
1
0
ENDBLK
5
190
100
AcDbEntity
8
0
100
AcDbBlockEnd
0
BLOCK
5
195
100
AcDbEntity
8
0
100
AcDbBlockBegin
2
*D5
70
1
10
0
20
0
30
0
3
*D5
0
LINE
5
197
100
AcDbEntity
8
0
62
256
6
ByLayer
370
-2
48
1
60
0
100
AcDbLine
10
-56
20
-14.2875
30
0
11
-56
21
-37.952229
31
0
39
0
210
0
220
0
230
1
0
LINE
5
198
100
AcDbEntity
8
0
62
256
6
ByLayer
370
-2
48
1
60
0
100
AcDbLine
10
0
20
-14.2875
30
0
11
0
21
-37.952229
31
0
39
0
210
0
220
0
230
1
0
LINE
5
199
100
AcDbEntity
8
0
62
256
6
ByLayer
370
-2
48
1
60
0
100
AcDbLine
10
-52.5
20
-35.952229
30
0
11
-3.5
21
-35.952229
31
0
39
0
210
0
220
0
230
1
0
SOLID
5
19A
100
AcDbEntity
8
0
62
256
6
ByLayer
370
-1
48
1
60
0
100
AcDbTrace
10
-52.5
20
-35.368896
30
0
11
-52.5
21
-36.535563
31
0
12
-56
22
-35.952229
32
0
13
-56
23
-35.952229
33
0
39
0
210
0
220
0
230
1
0
SOLID
5
19B
100
AcDbEntity
8
0
62
256
6
ByLayer
370
-1
48
1
60
0
100
AcDbTrace
10
-3.5
20
-36.535563
30
0
11
-3.5
21
-35.368896
31
0
12
0
22
-35.952229
32
0
13
0
23
-35.952229
33
0
39
0
210
0
220
0
230
1
0
MTEXT
5
19C
100
AcDbEntity
8
0
62
256
6
ByLayer
370
18
48
1
60
0
100
AcDbMText
10
-28
20
-29.952229
30
0
210
0
220
0
230
1
1
\A1;56
40
3
41
0
44
1
50
0
71
5
72
5
7
iso_b_vert
0
POINT
5
19D
100
AcDbEntity
8
Defpoints
62
0
6
ByLayer
370
-1
48
1
60
0
100
AcDbPoint
10
-56
20
-12.7
30
0
39
0
210
0
220
0
230
1
50
360
0
POINT
5
19E
100
AcDbEntity
8
Defpoints
62
0
6
ByLayer
370
-1
48
1
60
0
100
AcDbPoint
10
0
20
-12.7
30
0
39
0
210
0
220
0
230
1
50
360
0
POINT
5
19F
100
AcDbEntity
8
Defpoints
62
0
6
ByLayer
370
-1
48
1
60
0
100
AcDbPoint
10
0
20
-35.952229
30
0
39
0
210
0
220
0
230
1
50
360
0
ENDBLK
5
196
100
AcDbEntity
8
0
100
AcDbBlockEnd
0
BLOCK
5
1A7
100
AcDbEntity
8
0
100
AcDbBlockBegin
2
_U2
70
0
10
0
20
0
30
0
3
_U2
0
MTEXT
5
1A1
100
AcDbEntity
8
SK2
62
256
6
ByLayer
370
18
48
1
60
0
100
AcDbMText
10
-32.48237
20
-35.067115
30
0
210
0
220
0
230
1
1
\W0.7468;56.00
40
3
41
0
44
1.084337
50
0
71
7
72
5
7
iso_b_vert
0
LINE
5
1A2
100
AcDbEntity
8
SK2
62
256
6
ByLayer
370
13
48
1
60
0
100
AcDbLine
10
-56
20
-14.2875
30
0
11
-56
21
-37.952229
31
0
39
0
210
0
220
0
230
1
0
LINE
5
1A3
100
AcDbEntity
8
SK2
62
256
6
ByLayer
370
13
48
1
60
0
100
AcDbLine
10
0
20
-14.2875
30
0
11
0
21
-37.952229
31
0
39
0
210
0
220
0
230
1
0
LINE
5
1A4
100
AcDbEntity
8
SK2
62
256
6
ByLayer
370
13
48
1
60
0
100
AcDbLine
10
-56
20
-35.952229
30
0
11
0
21
-35.952229
31
0
39
0
210
0
220
0
230
1
0
SOLID
5
1A5
100
AcDbEntity
8
SK2
62
256
6
ByLayer
370
18
48
1
60
0
100
AcDbTrace
10
-56
20
-35.952229
30
0
11
-52.500002
21
-35.491446
31
0
12
-52.499998
22
-36.413013
32
0
13
-52.499998
23
-36.413013
33
0
39
0
210
0
220
0
230
1
0
SOLID
5
1A6
100
AcDbEntity
8
SK2
62
256
6
ByLayer
370
18
48
1
60
0
100
AcDbTrace
10
0
20
-35.952229
30
0
11
-3.499998
21
-36.413013
31
0
12
-3.500002
22
-35.491446
32
0
13
-3.500002
23
-35.491446
33
0
39
0
210
0
220
0
230
1
0
ENDBLK
5
1A8
100
AcDbEntity
8
0
100
AcDbBlockEnd
0
BLOCK
5
1AD
100
AcDbEntity
8
0
100
AcDbBlockBegin
2
*D7
70
1
10
0
20
0
30
0
3
*D7
0
LINE
5
1AF
100
AcDbEntity
8
0
62
256
6
ByLayer
370
-2
48
1
60
0
100
AcDbLine
10
114.2
20
1.5875
30
0
11
114.2
21
34.952229
31
0
39
0
210
0
220
0
230
1
0
LINE
5
1B0
100
AcDbEntity
8
0
62
256
6
ByLayer
370
-2
48
1
60
0
100
AcDbLine
10
28
20
13.8905
30
0
11
28
21
34.952229
31
0
39
0
210
0
220
0
230
1
0
LINE
5
1B1
100
AcDbEntity
8
0
62
256
6
ByLayer
370
-2
48
1
60
0
100
AcDbLine
10
110.7
20
32.952229
30
0
11
31.5
21
32.952229
31
0
39
0
210
0
220
0
230
1
0
SOLID
5
1B2
100
AcDbEntity
8
0
62
256
6
ByLayer
370
-1
48
1
60
0
100
AcDbTrace
10
110.7
20
32.368896
30
0
11
110.7
21
33.535563
31
0
12
114.2
22
32.952229
32
0
13
114.2
23
32.952229
33
0
39
0
210
0
220
0
230
1
0
SOLID
5
1B3
100
AcDbEntity
8
0
62
256
6
ByLayer
370
-1
48
1
60
0
100
AcDbTrace
10
31.5
20
33.535563
30
0
11
31.5
21
32.368896
31
0
12
28
22
32.952229
32
0
13
28
23
32.952229
33
0
39
0
210
0
220
0
230
1
0
MTEXT
5
1B4
100
AcDbEntity
8
0
62
256
6
ByLayer
370
18
48
1
60
0
100
AcDbMText
10
71.1
20
38.952229
30
0
210
0
220
0
230
1
1
\A1;86.2
40
3
41
0
44
1
50
0
71
5
72
5
7
iso_b_vert
0
POINT
5
1B5
100
AcDbEntity
8
Defpoints
62
0
6
ByLayer
370
-1
48
1
60
0
100
AcDbPoint
10
114.2
20
0
30
0
39
0
210
0
220
0
230
1
50
360
0
POINT
5
1B6
100
AcDbEntity
8
Defpoints
62
0
6
ByLayer
370
-1
48
1
60
0
100
AcDbPoint
10
28
20
12.303
30
0
39
0
210
0
220
0
230
1
50
360
0
POINT
5
1B7
100
AcDbEntity
8
Defpoints
62
0
6
ByLayer
370
-1
48
1
60
0
100
AcDbPoint
10
28
20
32.952229
30
0
39
0
210
0
220
0
230
1
50
360
0
ENDBLK
5
1AE
100
AcDbEntity
8
0
100
AcDbBlockEnd
0
BLOCK
5
1BF
100
AcDbEntity
8
0
100
AcDbBlockBegin
2
_U3
70
0
10
0
20
0
30
0
3
_U3
0
MTEXT
5
1B9
100
AcDbEntity
8
SK2
62
256
6
ByLayer
370
18
48
1
60
0
100
AcDbMText
10
66.61763
20
33.837344
30
0
210
0
220
0
230
1
1
\W0.7468;86.20
40
3
41
0
44
1.084337
50
0
71
7
72
5
7
iso_b_vert
0
LINE
5
1BA
100
AcDbEntity
8
SK2
62
256
6
ByLayer
370
13
48
1
60
0
100
AcDbLine
10
114.2
20
1.5875
30
0
11
114.2
21
34.952229
31
0
39
0
210
0
220
0
230
1
0
LINE
5
1BB
100
AcDbEntity
8
SK2
62
256
6
ByLayer
370
13
48
1
60
0
100
AcDbLine
10
28
20
13.8905
30
0
11
28
21
34.952229
31
0
39
0
210
0
220
0
230
1
0
LINE
5
1BC
100
AcDbEntity
8
SK2
62
256
6
ByLayer
370
13
48
1
60
0
100
AcDbLine
10
114.2
20
32.952229
30
0
11
28
21
32.952229
31
0
39
0
210
0
220
0
230
1
0
SOLID
5
1BD
100
AcDbEntity
8
SK2
62
256
6
ByLayer
370
18
48
1
60
0
100
AcDbTrace
10
114.2
20
32.952229
30
0
11
110.700002
21
32.491446
31
0
12
110.699998
22
33.413013
32
0
13
110.699998
23
33.413013
33
0
39
0
210
0
220
0
230
1
0
SOLID
5
1BE
100
AcDbEntity
8
SK2
62
256
6
ByLayer
370
18
48
1
60
0
100
AcDbTrace
10
28
20
32.952229
30
0
11
31.499998
21
33.413013
31
0
12
31.500002
22
32.491446
32
0
13
31.500002
23
32.491446
33
0
39
0
210
0
220
0
230
1
0
ENDBLK
5
1C0
100
AcDbEntity
8
0
100
AcDbBlockEnd
0
ENDSEC
0
SECTION
2
ENTITIES
0
ARC
5
C2
100
AcDbEntity
8
SK2
62
256
6
ByLayer
370
13
48
1
60
0
100
AcDbCircle
39
0
10
114.2
20
0
30
0
40
18.9999999999999
210
0
220
0
230
1
100
AcDbArc
50
290
51
70
0
ELLIPSE
5
C3
100
AcDbEntity
8
SK1
62
256
6
ByLayer
370
18
48
1
60
0
100
AcDbEllipse
10
-37.157058
20
0
30
0
11
-2.33287510403163E-15
21
-12.7
31
0
210
0
220
0
230
1
40
0.932515
41
-2.1956929134288
42
-0.945899740160989
0
ELLIPSE
5
C4
100
AcDbEntity
8
SK1
62
256
6
ByLayer
370
18
48
1
60
0
100
AcDbEllipse
10
-20.619083
20
0
30
0
11
13.6190826173124
21
-1.54317782980885E-14
31
0
210
0
220
0
230
1
40
0.932515
41
-0.624896586633934
42
0.624896586633934
0
POINT
5
70
100
AcDbEntity
8
80
62
256
6
ByLayer
370
18
48
1
60
0
100
AcDbPoint
10
0
20
0
30
0
39
0
210
0
220
0
230
1
50
360
0
POINT
5
72
100
AcDbEntity
8
81
62
256
6
ByLayer
370
18
48
1
60
0
100
AcDbPoint
10
114.2
20
0
30
0
39
0
210
0
220
0
230
1
50
360
0
POINT
5
74
100
AcDbEntity
8
1
62
256
6
ByLayer
370
18
48
1
60
1
100
AcDbPoint
10
-56
20
-12.7
30
0
39
0
210
0
220
0
230
1
50
360
0
POINT
5
76
100
AcDbEntity
8
1
62
256
6
ByLayer
370
18
48
1
60
1
100
AcDbPoint
10
114.2
20
0
30
0
39
0
210
0
220
0
230
1
50
360
0
POINT
5
77
100
AcDbEntity
8
1
62
256
6
ByLayer
370
18
48
1
60
1
100
AcDbPoint
10
114.2
20
0
30
0
39
0
210
0
220
0
230
1
50
360
0
POINT
5
78
100
AcDbEntity
8
1
62
256
6
ByLayer
370
18
48
1
60
1
100
AcDbPoint
10
3
20
-12.303
30
0
39
0
210
0
220
0
230
1
50
360
0
POINT
5
79
100
AcDbEntity
8
1
62
256
6
ByLayer
370
18
48
1
60
1
100
AcDbPoint
10
-56
20
-12.7
30
0
39
0
210
0
220
0
230
1
50
360
0
POINT
5
7A
100
AcDbEntity
8
1
62
256
6
ByLayer
370
18
48
1
60
1
100
AcDbPoint
10
0
20
-12.7
30
0
39
0
210
0
220
0
230
1
50
360
0
POINT
5
7B
100
AcDbEntity
8
1
62
256
6
ByLayer
370
18
48
1
60
1
100
AcDbPoint
10
114.2
20
0
30
0
39
0
210
0
220
0
230
1
50
360
0
POINT
5
7C
100
AcDbEntity
8
1
62
256
6
ByLayer
370
18
48
1
60
1
100
AcDbPoint
10
28
20
12.303
30
0
39
0
210
0
220
0
230
1
50
360
0
SPLINE
5
C5
100
AcDbEntity
8
1
62
256
6
ByLayer
370
18
48
1
60
0
100
AcDbSpline
70
4
71
3
72
10
73
6
40
0
40
0
40
0
40
0
40
0.572696682878232
40
0.572696682878232
40
1
40
1
40
1
40
1
41
1
10
98.8
20
-12.2704176475926
30
0
41
1
10
99.2556928841221
20
-12.2821655169151
30
0
41
1
10
99.7112033420899
20
-12.2905843306776
30
0
41
1
10
100.506184539817
20
-12.2994624317548
30
0
41
1
10
100.845744328343
20
-12.3013993049886
30
0
41
1
10
101.185176966059
20
-12.3014633905524
30
0
0
SPLINE
5
C6
100
AcDbEntity
8
1
62
256
6
ByLayer
370
18
48
1
60
0
100
AcDbSpline
70
4
71
3
72
135
73
131
40
0
40
0
40
0
40
0
40
0.0312499999999994
40
0.0312499999999994
40
0.0624999999999989
40
0.0624999999999989
40
0.0703124999999988
40
0.0703124999999988
40
0.0781249999999986
40
0.0781249999999986
40
0.0937499999999988
40
0.0937499999999988
40
0.109374999999999
40
0.109374999999999
40
0.124999999999999
40
0.140624999999999
40
0.140624999999999
40
0.15625
40
0.15625
40
0.1875
40
0.1875
40
0.203125000000001
40
0.203125000000001
40
0.218750000000001
40
0.218750000000001
40
0.226562500000002
40
0.226562500000002
40
0.234375000000002
40
0.234375000000002
40
0.250000000000002
40
0.250000000000002
40
0.281250000000003
40
0.281250000000003
40
0.289062500000003
40
0.289062500000003
40
0.296875000000003
40
0.296875000000003
40
0.304687500000003
40
0.304687500000003
40
0.312500000000003
40
0.312500000000003
40
0.343750000000003
40
0.343750000000003
40
0.359375000000003
40
0.359375000000003
40
0.367187500000003
40
0.367187500000003
40
0.375000000000004
40
0.375000000000004
40
0.390625000000005
40
0.390625000000005
40
0.406250000000005
40
0.406250000000005
40
0.437500000000008
40
0.437500000000008
40
0.445312500000008
40
0.445312500000008
40
0.453125000000009
40
0.453125000000009
40
0.468750000000009
40
0.468750000000009
40
0.48437500000001
40
0.48437500000001
40
0.500000000000011
40
0.500000000000011
40
0.515625000000011
40
0.515625000000011
40
0.523437500000012
40
0.523437500000012
40
0.531250000000012
40
0.531250000000012
40
0.562500000000014
40
0.562500000000014
40
0.578125000000015
40
0.578125000000015
40
0.585937500000016
40
0.585937500000016
40
0.593750000000016
40
0.593750000000016
40
0.625000000000017
40
0.625000000000017
40
0.656250000000019
40
0.656250000000019
40
0.664062500000019
40
0.664062500000019
40
0.671875000000019
40
0.671875000000019
40
0.687500000000019
40
0.687500000000019
40
0.718750000000019
40
0.718750000000019
40
0.734375000000018
40
0.734375000000018
40
0.742187500000018
40
0.742187500000018
40
0.750000000000018
40
0.750000000000018
40
0.765625000000016
40
0.765625000000016
40
0.781250000000015
40
0.781250000000015
40
0.796875000000013
40
0.796875000000013
40
0.804687500000012
40
0.804687500000012
40
0.812500000000011
40
0.812500000000011
40
0.82031250000001
40
0.82031250000001
40
0.828125000000008
40
0.828125000000008
40
0.843750000000006
40
0.843750000000006
40
0.859375000000004
40
0.859375000000004
40
0.875000000000001
40
0.875000000000001
40
0.882812500000001
40
0.882812500000001
40
0.890625
40
0.890625
40
0.906249999999999
40
0.906249999999999
40
0.937499999999999
40
0.937499999999999
40
0.953124999999999
40
0.953124999999999
40
0.968749999999999
40
0.968749999999999
40
1
40
1
40
1
40
1
41
1
10
18.8290451156011
20
9.04431257736096
30
0
41
1
10
19.6620359140799
20
8.86044398075484
30
0
41
1
10
20.4952475669903
20
8.66947047803995
30
0
41
1
10
22.1615633350008
20
8.27259005673162
30
0
41
1
10
22.994670069345
20
8.06668675032105
30
0
41
1
10
24.0356744619721
20
7.7992349451946
30
0
41
1
10
24.2438554224626
20
7.74523751438323
30
0
41
1
10
24.6601755289395
20
7.6362174662078
30
0
41
1
10
24.8683183081205
20
7.58120196171635
30
0
41
1
10
25.4928892430667
20
7.41506765851926
30
0
41
1
10
25.9094823983851
20
7.30291620232393
30
0
41
1
10
26.742961107733
20
7.07556708456818
30
0
41
1
10
27.1597934940014
20
6.96038895656949
30
0
41
1
10
27.9932186414745
20
6.72701809749435
30
0
41
1
10
28.8265133688642
20
6.49060660569069
30
0
41
1
10
29.6594131849799
20
6.24778023323236
30
0
41
1
10
30.4920513615658
20
6.00156097358635
30
0
41
1
10
30.9081970320486
20
5.87664200835601
30
0
41
1
10
32.1572805447866
20
5.49937674977588
30
0
41
1
10
32.9905562938925
20
5.24378828930429
30
0
41
1
10
34.2408560634508
20
4.8532308823585
30
0
41
1
10
34.6577192866423
20
4.7218485097454
30
0
41
1
10
35.491024817504
20
4.45667762469191
30
0
41
1
10
35.907520706987
20
4.32285738861793
30
0
41
1
10
36.5320048277779
20
4.12019496759206
30
0
41
1
10
36.7401307433288
20
4.05233954927002
30
0
41
1
10
37.1564453908957
20
3.91639023586239
30
0
41
1
10
37.3646329369745
20
3.8482935227089
30
0
41
1
10
37.9892606110803
20
3.64357196695013
30
0
41
1
10
38.4057600389796
20
3.50650044017865
30
0
41
1
10
39.6553822200775
20
3.09320435305571
30
0
41
1
10
40.4886497315349
20
2.8149632631403
30
0
41
1
10
41.5301498306409
20
2.4628502674075
30
0
41
1
10
41.7384455788912
20
2.39221133699795
30
0
41
1
10
42.1550209769664
20
2.25047639216788
30
0
41
1
10
42.363283423922
20
2.17935870462588
30
0
41
1
10
42.7797462945714
20
2.03693262297091
30
0
41
1
10
42.9879776888572
20
1.96566529712555
30
0
41
1
10
43.4044857986567
20
1.82315292122308
30
0
41
1
10
43.6127541409468
20
1.7518839232911
30
0
41
1
10
44.6541255053953
20
1.39535680988732
30
0
41
1
10
45.4873077997257
20
1.10952675266478
30
0
41
1
10
46.7368602997981
20
0.678870578796307
30
0
41
1
10
47.1533390393043
20
0.534993957644019
30
0
41
1
10
47.777951192489
20
0.318550821691446
30
0
41
1
10
47.9861338330267
20
0.246287497984639
30
0
41
1
10
48.4024746297896
20
0.101581987940762
30
0
41
1
10
48.6106399455049
20
0.0291604801960261
30
0
41
1
10
49.2353181745887
20
-0.1877366798671
30
0
41
1
10
49.6520328844044
20
-0.33193983098235
30
0
41
1
10
50.48554537061
20
-0.619822522273239
30
0
41
1
10
50.9022687859227
20
-0.763461663104181
30
0
41
1
10
52.1522617575304
20
-1.19370652703535
30
0
41
1
10
52.9853522683985
20
-1.47964863726594
30
0
41
1
10
54.0260911757765
20
-1.836878084928
30
0
41
1
10
54.2342005255497
20
-1.90833429685594
30
0
41
1
10
54.6504508330852
20
-2.05095649759639
30
0
41
1
10
54.8586075396385
20
-2.12207762211219
30
0
41
1
10
55.4832112222753
20
-2.33476235958955
30
0
41
1
10
55.8997626522203
20
-2.47573074101888
30
0
41
1
10
56.7330614586714
20
-2.75632103100452
30
0
41
1
10
57.1498145270494
20
-2.89592669760231
30
0
41
1
10
57.9834730341528
20
-3.17391458386822
30
0
41
1
10
58.4002208540302
20
-3.31224885840723
30
0
41
1
10
59.2333945310595
20
-3.58774195140222
30
0
41
1
10
59.6498211805096
20
-3.72494511459271
30
0
41
1
10
60.2742428108341
20
-3.92985700179904
30
0
41
1
10
60.4823622850151
20
-3.99796980863206
30
0
41
1
10
60.898683114885
20
-4.13347711084958
30
0
41
1
10
61.1068745140018
20
-4.20089911769088
30
0
41
1
10
62.1479438098732
20
-4.53647521834151
30
0
41
1
10
62.9811276455767
20
-4.80012149195113
30
0
41
1
10
64.2310323930996
20
-5.18936758478537
30
0
41
1
10
64.6476880721117
20
-5.3180788195973
30
0
41
1
10
65.2726553374828
20
-5.50969915943699
30
0
41
1
10
65.4809871039949
20
-5.57333500282905
30
0
41
1
10
65.8975195464929
20
-5.70010364949289
30
0
41
1
10
66.1057269266088
20
-5.76325195185919
30
0
41
1
10
67.1467643789425
20
-6.07706310929433
30
0
41
1
10
67.9798909494837
20
-6.32122323399543
30
0
41
1
10
69.6460967569454
20
-6.79757607582641
30
0
41
1
10
70.4792006903307
20
-7.02970700433445
30
0
41
1
10
71.5202566766927
20
-7.31297399640974
30
0
41
1
10
71.7284448877485
20
-7.36929660680187
30
0
41
1
10
72.1448217373454
20
-7.48117035799808
30
0
41
1
10
72.3530212986535
20
-7.53669666240069
30
0
41
1
10
72.977819902451
20
-7.70167805133389
30
0
41
1
10
73.3946086331088
20
-7.80965705003575
30
0
41
1
10
74.6447175684316
20
-8.12780565220228
30
0
41
1
10
75.4780262177427
20
-8.33219675362244
30
0
41
1
10
76.7274787874331
20
-8.62796848996172
30
0
41
1
10
77.14387641804
20
-8.72475515216135
30
0
41
1
10
77.7682956164097
20
-8.86728553165094
30
0
41
1
10
77.9764048529599
20
-8.91435470904469
30
0
41
1
10
78.3926863007275
20
-9.00737638365896
30
0
41
1
10
78.6008704964613
20
-9.05330740477373
30
0
41
1
10
79.2255462355691
20
-9.18938596849745
30
0
41
1
10
79.6421478755014
20
-9.27784441274619
30
0
41
1
10
80.4755615099994
20
-9.45043405611364
30
0
41
1
10
80.8924412562899
20
-9.5345678352158
30
0
41
1
10
81.725991556767
20
-9.69851116899181
30
0
41
1
10
82.1426597678299
20
-9.77832401877106
30
0
41
1
10
82.7674524701911
20
-9.89486470831721
30
0
41
1
10
82.9756817736593
20
-9.93318149096996
30
0
41
1
10
83.3920624977905
20
-10.0087604170581
30
0
41
1
10
83.6002058270612
20
-10.0460342930477
30
0
41
1
10
84.0164595947076
20
-10.1194530083323
30
0
41
1
10
84.2245829854804
20
-10.1555785495485
30
0
41
1
10
84.6409171020657
20
-10.2265325020477
30
0
41
1
10
84.8491158997329
20
-10.261378757577
30
0
41
1
10
85.4737820144584
20
-10.364072725886
30
0
41
1
10
85.8903140708976
20
-10.4300835421507
30
0
41
1
10
86.7234908902452
20
-10.5573122698096
30
0
41
1
10
87.140138235231
20
-10.6185268676876
30
0
41
1
10
87.9734881079426
20
-10.7362254046415
30
0
41
1
10
88.3902332107953
20
-10.7927159207798
30
0
41
1
10
89.0151993613392
20
-10.8739054032251
30
0
41
1
10
89.223465462828
20
-10.9003738968122
30
0
41
1
10
89.6398809532983
20
-10.9521184878879
30
0
41
1
10
89.8480328165018
20
-10.9773908312059
30
0
41
1
10
90.4725121824913
20
-11.0512145303957
30
0
41
1
10
90.8888970380823
20
-11.0977466694833
30
0
41
1
10
92.1380593798924
20
-11.2295791523735
30
0
41
1
10
92.9708557124404
20
-11.3071236726973
30
0
41
1
10
94.2197290694793
20
-11.4082298772716
30
0
41
1
10
94.6359648228807
20
-11.4393925060418
30
0
41
1
10
95.4682622623975
20
-11.4966222128607
30
0
41
1
10
95.8842744052956
20
-11.5227031048033
30
0
41
1
10
97.1330671812366
20
-11.5927387597443
30
0
41
1
10
97.9663209444883
20
-11.6287053822762
30
0
41
1
10
98.8
20
-11.6541593419979
30
0
0
SPLINE
5
C7
100
AcDbEntity
8
1
62
256
6
ByLayer
370
18
48
1
60
0
100
AcDbSpline
70
4
71
3
72
95
73
91
40
0
40
0
40
0
40
0
40
0.0051436158848582
40
0.0051436158848582
40
0.0263107729936904
40
0.0263107729936904
40
0.0474779301025227
40
0.0474779301025227
40
0.0580615086569388
40
0.0580615086569388
40
0.068645087211355
40
0.068645087211355
40
0.11097940142902
40
0.11097940142902
40
0.132146558537852
40
0.132146558537852
40
0.153313715646684
40
0.153313715646684
40
0.1638972942011
40
0.1638972942011
40
0.174480872755516
40
0.195648029864348
40
0.195648029864348
40
0.237982344082012
40
0.237982344082012
40
0.259149501190844
40
0.259149501190844
40
0.280316658299676
40
0.280316658299676
40
0.32265097251734
40
0.32265097251734
40
0.333234551071757
40
0.333234551071757
40
0.343818129626174
40
0.343818129626174
40
0.364985286735007
40
0.364985286735007
40
0.38615244384384
40
0.38615244384384
40
0.407319600952673
40
0.407319600952673
40
0.428486758061506
40
0.428486758061506
40
0.449653915170339
40
0.449653915170339
40
0.491988229388005
40
0.491988229388005
40
0.513155386496838
40
0.513155386496838
40
0.523738965051255
40
0.523738965051255
40
0.534322543605671
40
0.534322543605671
40
0.576656857823338
40
0.576656857823338
40
0.618991172041005
40
0.618991172041005
40
0.629574750595421
40
0.629574750595421
40
0.640158329149838
40
0.640158329149838
40
0.661325486258671
40
0.661325486258671
40
0.703659800476338
40
0.703659800476338
40
0.714243379030754
40
0.714243379030754
40
0.724826957585171
40
0.724826957585171
40
0.745994114694004
40
0.745994114694004
40
0.767161271802837
40
0.767161271802837
40
0.788328428911671
40
0.788328428911671
40
0.809495586020504
40
0.809495586020504
40
0.82007916457492
40
0.82007916457492
40
0.830662743129336
40
0.830662743129336
40
0.872997057347002
40
0.872997057347002
40
0.894164214455834
40
0.894164214455834
40
0.915331371564667
40
0.915331371564667
40
0.957665685782334
40
0.957665685782334
40
1
40
1
40
1
40
1
41
1
10
76.4763720088614
20
-8.57345907000354
30
0
41
1
10
76.3684280875729
20
-8.59884925197659
30
0
41
1
10
76.2604771396103
20
-8.62410528161521
30
0
41
1
10
75.7082487233608
20
-8.75261286383812
30
0
41
1
10
75.2638158077344
20
-8.85374503632363
30
0
41
1
10
74.3753034536699
20
-9.05143343900079
30
0
41
1
10
73.9311668513597
20
-9.14800768120324
30
0
41
1
10
73.2651718822673
20
-9.28949771910825
30
0
41
1
10
73.0432105535421
20
-9.33610230616182
30
0
41
1
10
72.5993493122991
20
-9.42816563920022
30
0
41
1
10
72.3774440604703
20
-9.4736143792031
30
0
41
1
10
71.2677704019648
20
-9.69748113245376
30
0
41
1
10
70.3796658006337
20
-9.86598455654155
30
0
41
1
10
69.0471869753616
20
-10.1033741755033
30
0
41
1
10
68.6029726179563
20
-10.1799370039519
30
0
41
1
10
67.7144818711284
20
-10.327972378246
30
0
41
1
10
67.2702345631372
20
-10.3994554925877
30
0
41
1
10
66.6042265595631
20
-10.5027294858916
30
0
41
1
10
66.3822532720467
20
-10.5364803161352
30
0
41
1
10
65.9382684147839
20
-10.6025158600241
30
0
41
1
10
65.2722604143424
20
-10.6994053897386
30
0
41
1
10
64.6061894653863
20
-10.7898772721226
30
0
41
1
10
63.2740144174763
20
-10.9623686146171
30
0
41
1
10
62.3858512734983
20
-11.0661131333028
30
0
41
1
10
61.0537888915035
20
-11.2049411355227
30
0
41
1
10
60.6098467365177
20
-11.2484435871935
30
0
41
1
10
59.7214904257102
20
-11.3293757429431
30
0
41
1
10
59.277233205745
20
-11.366831733045
30
0
41
1
10
57.9446873040968
20
-11.4702591985967
30
0
41
1
10
57.0564452377301
20
-11.5273205928517
30
0
41
1
10
55.9465060946322
20
-11.5838670624162
30
0
41
1
10
55.7245365158618
20
-11.5944355295533
30
0
41
1
10
55.2806372424257
20
-11.6140849207711
30
0
41
1
10
55.0587145737285
20
-11.6231678055717
30
0
41
1
10
54.3929311049831
20
-11.648148769722
30
0
41
1
10
53.948962999754
20
-11.6617519197757
30
0
41
1
10
53.0607083216764
20
-11.682883702486
30
0
41
1
10
52.6164206873947
20
-11.6904193315639
30
0
41
1
10
51.7277003593258
20
-11.6994522033119
30
0
41
1
10
51.2834323358766
20
-11.7009482521238
30
0
41
1
10
50.3951245299902
20
-11.6978963193986
30
0
41
1
10
49.9510871933378
20
-11.6933480351059
30
0
41
1
10
49.063277786985
20
-11.6781569358073
30
0
41
1
10
48.6195193394209
20
-11.6675000184977
30
0
41
1
10
47.2877705104914
20
-11.6265485012194
30
0
41
1
10
46.3995548865315
20
-11.5872805447429
30
0
41
1
10
45.0668757901537
20
-11.5104712921306
30
0
41
1
10
44.6225258171336
20
-11.4818729678115
30
0
41
1
10
43.9561961870521
20
-11.4344582298253
30
0
41
1
10
43.7341304712415
20
-11.4179014278898
30
0
41
1
10
43.2900910210237
20
-11.3832751685768
30
0
41
1
10
43.068122236678
20
-11.3652015584021
30
0
41
1
10
41.9582896533732
20
-11.2711912085379
30
0
41
1
10
41.0702277261633
20
-11.1845321534581
30
0
41
1
10
39.2939608296118
20
-10.9884290040116
30
0
41
1
10
38.405765985787
20
-10.8789779890555
30
0
41
1
10
37.2956416908041
20
-10.7275203334528
30
0
41
1
10
37.0736225099079
20
-10.6964941731327
30
0
41
1
10
36.6294891338641
20
-10.6330951687542
30
0
41
1
10
36.4073895744999
20
-10.6007338338071
30
0
41
1
10
35.7411378421374
20
-10.5016904560166
30
0
41
1
10
35.29697926693
20
-10.4330393003952
30
0
41
1
10
33.9645853847416
20
-10.219205553054
30
0
41
1
10
33.0764238700206
20
-10.0661742851529
30
0
41
1
10
31.9665631829102
20
-9.86140380002078
30
0
41
1
10
31.7446087216112
20
-9.81977301571149
30
0
41
1
10
31.3007317450791
20
-9.73515619098075
30
0
41
1
10
31.0788063123901
20
-9.69217390344136
30
0
41
1
10
30.4129011441071
20
-9.56147785307314
30
0
41
1
10
29.9687991403607
20
-9.47200924386675
30
0
41
1
10
29.0803109737754
20
-9.28836001275823
30
0
41
1
10
28.6358944343849
20
-9.19417385758555
30
0
41
1
10
27.7473686282098
20
-9.00116360508153
30
0
41
1
10
27.3031920295896
20
-8.90232652313679
30
0
41
1
10
26.4150593929581
20
-8.69988679279189
30
0
41
1
10
25.9711109214522
20
-8.59626881326454
30
0
41
1
10
25.3053528869052
20
-8.43723847053965
30
0
41
1
10
25.0834517694113
20
-8.38364532612997
30
0
41
1
10
24.639578265866
20
-8.27551215909801
30
0
41
1
10
24.4176130420727
20
-8.2209583432971
30
0
41
1
10
23.3076588344985
20
-7.94573755274274
30
0
41
1
10
22.4192887994764
20
-7.71772869003908
30
0
41
1
10
21.08634213172
20
-7.36353620203528
30
0
41
1
10
20.6420385991727
20
-7.24345001333688
30
0
41
1
10
19.7538864052291
20
-6.99923046890288
30
0
41
1
10
19.3100372954345
20
-6.8749430514097
30
0
41
1
10
17.9782566663932
20
-6.49767847836171
30
0
41
1
10
17.0901622337152
20
-6.24017151037924
30
0
41
1
10
15.3137939778514
20
-5.71256354075493
30
0
41
1
10
14.4255121568422
20
-5.44248402696459
30
0
41
1
10
13.5373144633969
20
-5.16555027542449
30
0
0
SPLINE
5
C8
100
AcDbEntity
8
1
62
256
6
ByLayer
370
18
48
1
60
0
100
AcDbSpline
70
4
71
3
72
22
73
18
40
0
40
0
40
0
40
0
40
0.125000000000009
40
0.125000000000009
40
0.18750000000001
40
0.18750000000001
40
0.250000000000012
40
0.250000000000012
40
0.500000000000003
40
0.500000000000003
40
0.625000000000003
40
0.625000000000003
40
0.687500000000002
40
0.687500000000002
40
0.750000000000002
40
0.750000000000002
40
1
40
1
40
1
40
1
41
1
10
109.722074207807
20
-1.75594575780286
30
0
41
1
10
109.26647345456
20
-1.59199862618399
30
0
41
1
10
108.811109681446
20
-1.42745931519187
30
0
41
1
10
108.128452106416
20
-1.17967258225602
30
0
41
1
10
107.90096396246
20
-1.0969149044609
30
0
41
1
10
107.445984532693
20
-0.931440074530798
30
0
41
1
10
107.218488344273
20
-0.848736451851522
30
0
41
1
10
106.080991545687
20
-0.435341146611165
30
0
41
1
10
105.170950142355
20
-0.104998530251265
30
0
41
1
10
103.806104291838
20
0.390736987099274
30
0
41
1
10
103.351195478758
20
0.556029346960372
30
0
41
1
10
102.668931839078
20
0.804147924292238
30
0
41
1
10
102.441532289845
20
0.886898079709937
30
0
41
1
10
101.986742033182
20
1.05239106613774
30
0
41
1
10
101.759339641774
20
1.1351016792573
30
0
41
1
10
100.62200996308
20
1.54770008461878
30
0
41
1
10
99.711320306475
20
1.87525055172173
30
0
41
1
10
98.8
20
2.20081216070705
30
0
0
SPLINE
5
C9
100
AcDbEntity
8
1
62
256
6
ByLayer
370
18
48
1
60
0
100
AcDbSpline
70
4
71
3
72
94
73
90
40
0
40
0
40
0
40
0
40
0.0312499999999994
40
0.0312499999999994
40
0.0624999999999988
40
0.0624999999999988
40
0.0937499999999983
40
0.0937499999999983
40
0.124999999999998
40
0.124999999999998
40
0.140624999999998
40
0.140624999999998
40
0.148437499999998
40
0.148437499999998
40
0.156249999999999
40
0.1875
40
0.1875
40
0.218750000000001
40
0.218750000000001
40
0.250000000000002
40
0.250000000000002
40
0.281250000000003
40
0.281250000000003
40
0.296875000000004
40
0.296875000000004
40
0.304687500000003
40
0.304687500000003
40
0.312500000000003
40
0.312500000000003
40
0.343750000000002
40
0.343750000000002
40
0.375
40
0.375
40
0.406249999999999
40
0.406249999999999
40
0.437499999999998
40
0.437499999999998
40
0.445312499999998
40
0.445312499999998
40
0.453124999999998
40
0.468749999999998
40
0.468749999999998
40
0.499999999999997
40
0.499999999999997
40
0.531249999999997
40
0.531249999999997
40
0.539062499999997
40
0.539062499999997
40
0.546874999999997
40
0.562499999999997
40
0.562499999999997
40
0.593749999999996
40
0.593749999999996
40
0.624999999999996
40
0.624999999999996
40
0.632812499999996
40
0.632812499999996
40
0.640624999999996
40
0.656249999999996
40
0.656249999999996
40
0.687499999999996
40
0.687499999999996
40
0.718749999999997
40
0.718749999999997
40
0.726562499999997
40
0.726562499999997
40
0.734374999999996
40
0.734374999999996
40
0.749999999999997
40
0.749999999999997
40
0.781249999999998
40
0.781249999999998
40
0.812499999999999
40
0.812499999999999
40
0.84375
40
0.84375
40
0.8515625
40
0.8515625
40
0.859375
40
0.875
40
0.875
40
0.90625
40
0.937499999999999
40
0.968749999999998
40
0.968749999999998
40
0.976562499999999
40
0.976562499999999
40
0.984374999999999
40
1
40
1
40
1
40
1
41
1
10
109.722074207823
20
11.9123451743885
30
0
41
1
10
109.798911736004
20
11.7218285019056
30
0
41
1
10
109.875870033565
20
11.5284518202981
30
0
41
1
10
110.030158848584
20
11.1364292978991
30
0
41
1
10
110.107489230684
20
10.9377824528645
30
0
41
1
10
110.262613896073
20
10.5355446687361
30
0
41
1
10
110.340408235307
20
10.3319531751397
30
0
41
1
10
110.49651532082
20
9.92005141241117
30
0
41
1
10
110.574828339097
20
9.71174088748566
30
0
41
1
10
110.69269606624
20
9.3958391676515
30
0
41
1
10
110.732051322055
20
9.28996527490577
30
0
41
1
10
110.791180695466
20
9.13030140785546
30
0
41
1
10
110.810920186762
20
9.07690089407777
30
0
41
1
10
110.850360698794
20
8.97000534923265
30
0
41
1
10
110.948816825032
20
8.70266074103543
30
0
41
1
10
111.046556945121
20
8.43479577826176
30
0
41
1
10
111.201960640019
20
8.00554114422286
30
0
41
1
10
111.279173205801
20
7.79057879855136
30
0
41
1
10
111.432441991281
20
7.35993363230108
30
0
41
1
10
111.508499963658
20
7.14425142318885
30
0
41
1
10
111.659131672883
20
6.71205796566946
30
0
41
1
10
111.73370844196
20
6.49554780417301
30
0
41
1
10
111.844048282048
20
6.17001675722963
30
0
41
1
10
111.880571933834
20
6.0613779814561
30
0
41
1
10
111.934898784268
20
5.89820085769961
30
0
41
1
10
111.952940597649
20
5.84374315416062
30
0
41
1
10
111.988809761499
20
5.73489082464519
30
0
41
1
10
112.006627493885
20
5.68052571998189
30
0
41
1
10
112.095095819427
20
5.40899246726926
30
0
41
1
10
112.163906969421
20
5.1927036449801
30
0
41
1
10
112.296359447777
20
4.76163235925745
30
0
41
1
10
112.360009719833
20
4.54685133492686
30
0
41
1
10
112.480207163121
20
4.11835447075717
30
0
41
1
10
112.536764470396
20
3.90463954159952
30
0
41
1
10
112.639864774545
20
3.47770219475302
30
0
41
1
10
112.686412395772
20
3.2644780300154
30
0
41
1
10
112.735746237321
20
2.9978167889208
30
0
41
1
10
112.745171879491
20
2.9444509155766
30
0
41
1
10
112.763036235338
20
2.83780883456134
30
0
41
1
10
112.788282664957
20
2.67840760462823
30
0
41
1
10
112.808607364367
20
2.52071404703807
30
0
41
1
10
112.842033494465
20
2.2076923051558
30
0
41
1
10
112.854615390054
20
2.0021543234763
30
0
41
1
10
112.85802838205
20
1.5980974079304
30
0
41
1
10
112.848839824825
20
1.39958185888517
30
0
41
1
10
112.823847032112
20
1.15647007650011
30
0
41
1
10
112.818174338912
20
1.10806022953574
30
0
41
1
10
112.805541095298
20
1.01193432241146
30
0
41
1
10
112.784728625773
20
0.869281466794092
30
0
41
1
10
112.758651660967
20
0.731179244439772
30
0
41
1
10
112.700355644853
20
0.460893603462381
30
0
41
1
10
112.65333595021
20
0.288583877446598
30
0
41
1
10
112.547231193318
20
-0.0408982782024054
30
0
41
1
10
112.488155021834
20
-0.198075150814304
30
0
41
1
10
112.408733274963
20
-0.385233890734014
30
0
41
1
10
112.392555465672
20
-0.422224803904015
30
0
41
1
10
112.359725886571
20
-0.495156780352687
30
0
41
1
10
112.309867028002
20
-0.602767830989308
30
0
41
1
10
112.258355793908
20
-0.705123873321128
30
0
41
1
10
112.153530578727
20
-0.90304086997736
30
0
41
1
10
112.081267318752
20
-1.02594432339589
30
0
41
1
10
111.933384374628
20
-1.25427835649495
30
0
41
1
10
111.857754676576
20
-1.3597056296193
30
0
41
1
10
111.761575246013
20
-1.48058942033677
30
0
41
1
10
111.742256021019
20
-1.50421988391199
30
0
41
1
10
111.703458090844
20
-1.55038378187393
30
0
41
1
10
111.683963305861
20
-1.57293420930787
30
0
41
1
10
111.62549349087
20
-1.63866113394602
30
0
41
1
10
111.586467919253
20
-1.67999676958581
30
0
41
1
10
111.469315162867
20
-1.79672505109639
30
0
41
1
10
111.391117748825
20
-1.86485409438657
30
0
41
1
10
111.234673762704
20
-1.98222765219148
30
0
41
1
10
111.156424748004
20
-2.03147019927294
30
0
41
1
10
110.999853452683
20
-2.11110027984836
30
0
41
1
10
110.92153005457
20
-2.14148781346898
30
0
41
1
10
110.823498304539
20
-2.16743816199841
30
0
41
1
10
110.803869725392
20
-2.1720274872394
30
0
41
1
10
110.764769183715
20
-2.17995950745859
30
0
41
1
10
110.706298136833
20
-2.19000468713463
30
0
41
1
10
110.648347177558
20
-2.19455346891635
30
0
41
1
10
110.533087802193
20
-2.19644782992239
30
0
41
1
10
110.381121600416
20
-2.17979039676695
30
0
41
1
10
110.157509332872
20
-2.0983037487745
30
0
41
1
10
110.010800312877
20
-2.00624891925551
30
0
41
1
10
109.919681459917
20
-1.93666676825433
30
0
41
1
10
109.901495888895
20
-1.9221533141573
30
0
41
1
10
109.865276727554
20
-1.8919979073637
30
0
41
1
10
109.811141526959
20
-1.84504578937032
30
0
41
1
10
109.757564021062
20
-1.79295366030306
30
0
41
1
10
109.722074207823
20
-1.7559457578086
30
0
0
SPLINE
5
CA
100
AcDbEntity
8
1
62
256
6
ByLayer
370
18
48
1
60
0
100
AcDbSpline
70
4
71
3
72
22
73
18
40
0
40
0
40
0
40
0
40
0.0405948428765906
40
0.0405948428765906
40
0.120545272636868
40
0.120545272636868
40
0.200495702397146
40
0.200495702397146
40
0.36039656191771
40
0.36039656191771
40
0.680198280958846
40
0.680198280958846
40
0.760148710719135
40
0.760148710719135
40
0.840099140479423
40
0.840099140479423
40
1
40
1
40
1
40
1
41
1
10
101.185176851237
20
12.3014633905307
30
0
41
1
10
101.300671554944
20
12.3014851963065
30
0
41
1
10
101.416151537693
20
12.3012901790164
30
0
41
1
10
101.759023771911
20
12.3000653565171
30
0
41
1
10
101.98640098701
20
12.2984089309549
30
0
41
1
10
102.44124249527
20
12.2934257896585
30
0
41
1
10
102.668690228519
20
12.2900992521511
30
0
41
1
10
103.351078605494
20
12.277628914074
30
0
41
1
10
103.806058141193
20
12.2659950612568
30
0
41
1
10
105.17104266046
20
12.2211687871517
30
0
41
1
10
106.081103819966
20
12.1780905002182
30
0
41
1
10
107.218337558332
20
12.107346388087
30
0
41
1
10
107.445755322484
20
12.092343025874
30
0
41
1
10
107.90066342203
20
12.0606845589624
30
0
41
1
10
108.128177998186
20
12.04404317302
30
0
41
1
10
108.810956068823
20
11.9917299851757
30
0
41
1
10
109.266411854762
20
11.953649252657
30
0
41
1
10
109.722074207807
20
11.9123451743902
30
0
0
SPLINE
5
CB
100
AcDbEntity
8
1
62
256
6
ByLayer
370
18
48
1
60
0
100
AcDbSpline
70
4
71
3
72
46
73
42
40
0
40
0
40
0
40
0
40
0.0485252291508273
40
0.0485252291508273
40
0.0765097812346288
40
0.0765097812346288
40
0.10449433331843
40
0.10449433331843
40
0.160463437486033
40
0.160463437486033
40
0.216432541653636
40
0.216432541653636
40
0.272401645821239
40
0.272401645821239
40
0.300386197905039
40
0.300386197905039
40
0.328370749988839
40
0.328370749988839
40
0.356355302072639
40
0.356355302072639
40
0.384339854156439
40
0.384339854156439
40
0.440308958324038
40
0.440308958324038
40
0.496278062491638
40
0.496278062491638
40
0.552247166659238
40
0.552247166659238
40
0.580231718743035
40
0.580231718743035
40
0.608216270826833
40
0.608216270826833
40
0.664185374994429
40
0.664185374994429
40
0.776123583329619
40
0.776123583329619
40
0.832092687497215
40
0.832092687497215
40
0.888061791664811
40
0.888061791664811
40
1
40
1
40
1
40
1
41
1
10
76.4771667679703
20
8.56861982862776
30
0
41
1
10
76.8382382313071
20
8.65368244145208
30
0
41
1
10
77.199241469168
20
8.73739281892162
30
0
41
1
10
77.7682956164097
20
8.86728553165094
30
0
41
1
10
77.9764048529601
20
8.91435470904469
30
0
41
1
10
78.3926863007275
20
9.00737638365896
30
0
41
1
10
78.6008704964614
20
9.0533074047737
30
0
41
1
10
79.2255462355692
20
9.18938596849745
30
0
41
1
10
79.6421478755015
20
9.27784441274619
30
0
41
1
10
80.4755615099997
20
9.45043405611364
30
0
41
1
10
80.8924412562899
20
9.53456783521577
30
0
41
1
10
81.725991556767
20
9.69851116899181
30
0
41
1
10
82.1426597678299
20
9.77832401877109
30
0
41
1
10
82.7674524701913
20
9.89486470831724
30
0
41
1
10
82.9756817736594
20
9.93318149096996
30
0
41
1
10
83.3920624977906
20
10.0087604170581
30
0
41
1
10
83.6002058270613
20
10.0460342930477
30
0
41
1
10
84.0164595947077
20
10.1194530083323
30
0
41
1
10
84.2245829854805
20
10.1555785495485
30
0
41
1
10
84.6409171020658
20
10.2265325020477
30
0
41
1
10
84.849115899733
20
10.261378757577
30
0
41
1
10
85.4737820144584
20
10.364072725886
30
0
41
1
10
85.8903140708977
20
10.4300835421507
30
0
41
1
10
86.7234908902453
20
10.5573122698096
30
0
41
1
10
87.140138235231
20
10.6185268676875
30
0
41
1
10
87.9734881079426
20
10.7362254046415
30
0
41
1
10
88.3902332107953
20
10.7927159207798
30
0
41
1
10
89.0151993613392
20
10.8739054032251
30
0
41
1
10
89.2234654628281
20
10.9003738968122
30
0
41
1
10
89.6398809532983
20
10.952118487888
30
0
41
1
10
89.8480328165018
20
10.9773908312059
30
0
41
1
10
90.4725121824913
20
11.0512145303957
30
0
41
1
10
90.8888970380824
20
11.0977466694833
30
0
41
1
10
92.1380593798926
20
11.2295791523735
30
0
41
1
10
92.9708557124405
20
11.3071236726973
30
0
41
1
10
94.2197290694794
20
11.4082298772715
30
0
41
1
10
94.6359648228808
20
11.4393925060418
30
0
41
1
10
95.4682622623976
20
11.4966222128607
30
0
41
1
10
95.8842744052956
20
11.5227031048033
30
0
41
1
10
97.1330671812367
20
11.5927387597443
30
0
41
1
10
97.9663209444883
20
11.6287053822762
30
0
41
1
10
98.8
20
11.6541593419979
30
0
0
SPLINE
5
CC
100
AcDbEntity
8
1
62
256
6
ByLayer
370
18
48
1
60
0
100
AcDbSpline
70
4
71
3
72
81
73
77
40
0
40
0
40
0
40
0
40
0.0279759406394202
40
0.0279759406394202
40
0.0419639109591295
40
0.0419639109591295
40
0.0559518812788388
40
0.0559518812788388
40
0.0839278219182558
40
0.0839278219182558
40
0.111903762557673
40
0.111903762557673
40
0.13987970319709
40
0.13987970319709
40
0.167855643836507
40
0.167855643836507
40
0.181843614156215
40
0.181843614156215
40
0.195831584475922
40
0.195831584475922
40
0.223807525115338
40
0.223807525115338
40
0.279759406394168
40
0.279759406394168
40
0.293747376713876
40
0.293747376713876
40
0.307735347033584
40
0.307735347033584
40
0.335711287673
40
0.335711287673
40
0.391663168951831
40
0.391663168951831
40
0.419639109591247
40
0.419639109591247
40
0.433627079910955
40
0.433627079910955
40
0.447615050230664
40
0.447615050230664
40
0.475590990870079
40
0.475590990870079
40
0.503566931509495
40
0.503566931509495
40
0.53154287214891
40
0.53154287214891
40
0.545530842468618
40
0.545530842468618
40
0.559518812788326
40
0.559518812788326
40
0.615470694067157
40
0.615470694067157
40
0.643446634706573
40
0.643446634706573
40
0.671422575345988
40
0.671422575345988
40
0.685410545665696
40
0.685410545665696
40
0.699398515985404
40
0.727374456624822
40
0.727374456624822
40
0.783326337903655
40
0.783326337903655
40
0.811302278543072
40
0.811302278543072
40
0.839278219182489
40
0.839278219182489
40
0.895230100461323
40
0.895230100461323
40
0.909218070781032
40
0.909218070781032
40
0.923206041100741
40
0.923206041100741
40
0.95118198174016
40
0.95118198174016
40
0.979157922379578
40
0.979157922379578
40
1
40
1
40
1
40
1
41
1
10
98.8
20
1.88599003556223
30
0
41
1
10
98.3556290483705
20
2.03751111828657
30
0
41
1
10
97.911380429725
20
2.18855385292446
30
0
41
1
10
97.2452268185974
20
2.41449794136611
30
0
41
1
10
97.0232117984642
20
2.48970813849763
30
0
41
1
10
96.5792576721878
20
2.6399277261836
30
0
41
1
10
96.3573256683417
20
2.71495700067308
30
0
41
1
10
95.691547138558
20
2.93946924468568
30
0
41
1
10
95.2476366409796
20
3.08814825476307
30
0
41
1
10
94.3596555871013
20
3.38340825836099
30
0
41
1
10
93.9155992121766
20
3.53002910946685
30
0
41
1
10
93.0273877174478
20
3.82134993154526
30
0
41
1
10
92.5832320680824
20
3.96604850797382
30
0
41
1
10
91.6948653792603
20
4.25363855391993
30
0
41
1
10
91.25060078106
20
4.39655404692354
30
0
41
1
10
90.584384852818
20
4.6095632197773
30
0
41
1
10
90.3623694339276
20
4.6803465646899
30
0
41
1
10
89.9183575411858
20
4.8212212739611
30
0
41
1
10
89.6963488533258
20
4.89128059471741
30
0
41
1
10
89.0302962141656
20
5.10028259334797
30
0
41
1
10
88.5862373605222
20
5.2380809864693
30
0
41
1
10
87.2540469057646
20
5.64704895621762
30
0
41
1
10
86.3658915887082
20
5.91377773914252
30
0
41
1
10
85.2558762625279
20
6.24029040030265
30
0
41
1
10
85.0338817889887
20
6.30524624389588
30
0
41
1
10
84.5899133802137
20
6.4344685849816
30
0
41
1
10
84.3679411167285
20
6.49873864711671
30
0
41
1
10
83.701902914979
20
6.69014343820331
30
0
41
1
10
83.2576104218058
20
6.81581332344948
30
0
41
1
10
81.9248717293808
20
7.18695657836287
30
0
41
1
10
81.036526087203
20
7.42658223071416
30
0
41
1
10
79.7044633620257
20
7.77487122046068
30
0
41
1
10
79.2605233953728
20
7.88911608854855
30
0
41
1
10
78.594748307206
20
8.0577065281507
30
0
41
1
10
78.3728427932592
20
8.11343335137028
30
0
41
1
10
77.9289593384554
20
8.22371388322051
30
0
41
1
10
77.7069812388257
20
8.27826801201724
30
0
41
1
10
77.040946285986
20
8.44019722272651
30
0
41
1
10
76.5967901318188
20
8.54584279416054
30
0
41
1
10
75.7082487233608
20
8.75261286383812
30
0
41
1
10
75.2638158077344
20
8.85374503632363
30
0
41
1
10
74.37530345367
20
9.05143343900079
30
0
41
1
10
73.9311668513597
20
9.14800768120327
30
0
41
1
10
73.2651718822673
20
9.28949771910828
30
0
41
1
10
73.0432105535422
20
9.33610230616185
30
0
41
1
10
72.5993493122992
20
9.42816563920022
30
0
41
1
10
72.3774440604704
20
9.4736143792031
30
0
41
1
10
71.2677704019648
20
9.69748113245376
30
0
41
1
10
70.3796658006338
20
9.86598455654155
30
0
41
1
10
69.0471869753617
20
10.1033741755033
30
0
41
1
10
68.6029726179563
20
10.1799370039519
30
0
41
1
10
67.7144818711283
20
10.327972378246
30
0
41
1
10
67.2702345631372
20
10.3994554925877
30
0
41
1
10
66.6042265595631
20
10.5027294858916
30
0
41
1
10
66.3822532720467
20
10.5364803161352
30
0
41
1
10
65.938268414784
20
10.6025158600241
30
0
41
1
10
65.2722604143425
20
10.6994053897386
30
0
41
1
10
64.6061894653863
20
10.7898772721226
30
0
41
1
10
63.2740144174764
20
10.962368614617
30
0
41
1
10
62.3858512734983
20
11.0661131333028
30
0
41
1
10
61.0537888915036
20
11.2049411355227
30
0
41
1
10
60.6098467365177
20
11.2484435871935
30
0
41
1
10
59.7214904257102
20
11.3293757429431
30
0
41
1
10
59.277233205745
20
11.366831733045
30
0
41
1
10
57.9446873040968
20
11.4702591985967
30
0
41
1
10
57.0564452377302
20
11.5273205928517
30
0
41
1
10
55.9465060946323
20
11.5838670624162
30
0
41
1
10
55.7245365158619
20
11.5944355295533
30
0
41
1
10
55.2806372424257
20
11.6140849207711
30
0
41
1
10
55.0587145737285
20
11.6231678055717
30
0
41
1
10
54.3929311049831
20
11.648148769722
30
0
41
1
10
53.948962999754
20
11.6617519197757
30
0
41
1
10
53.0607083216764
20
11.682883702486
30
0
41
1
10
52.6164206873947
20
11.6904193315639
30
0
41
1
10
51.8410121718642
20
11.6983005124617
30
0
41
1
10
51.5100149607056
20
11.6999888668598
30
0
41
1
10
51.1790779784439
20
11.7000001574177
30
0
0
SPLINE
5
CD
100
AcDbEntity
8
1
62
256
6
ByLayer
370
18
48
1
60
0
100
AcDbSpline
70
4
71
3
72
96
73
92
40
0
40
0
40
0
40
0
40
0.0624999999999917
40
0.0624999999999917
40
0.0937499999999866
40
0.0937499999999866
40
0.124999999999982
40
0.124999999999982
40
0.156249999999976
40
0.156249999999976
40
0.187499999999971
40
0.187499999999971
40
0.195312499999971
40
0.195312499999971
40
0.20312499999997
40
0.218749999999969
40
0.218749999999969
40
0.249999999999967
40
0.249999999999967
40
0.281249999999965
40
0.281249999999965
40
0.296874999999964
40
0.296874999999964
40
0.304687499999964
40
0.304687499999964
40
0.312499999999964
40
0.312499999999964
40
0.343749999999964
40
0.343749999999964
40
0.374999999999965
40
0.374999999999965
40
0.390624999999966
40
0.390624999999966
40
0.394531249999966
40
0.394531249999966
40
0.398437499999967
40
0.406249999999967
40
0.406249999999967
40
0.437499999999968
40
0.437499999999968
40
0.468749999999969
40
0.468749999999969
40
0.48437499999997
40
0.48437499999997
40
0.499999999999971
40
0.499999999999971
40
0.531249999999972
40
0.531249999999972
40
0.546874999999972
40
0.546874999999972
40
0.554687499999972
40
0.558593749999973
40
0.558593749999973
40
0.562499999999973
40
0.562499999999973
40
0.593749999999975
40
0.593749999999975
40
0.624999999999977
40
0.624999999999977
40
0.632812499999978
40
0.632812499999978
40
0.640624999999978
40
0.640624999999978
40
0.65624999999998
40
0.65624999999998
40
0.687499999999983
40
0.687499999999983
40
0.718749999999986
40
0.718749999999986
40
0.749999999999989
40
0.749999999999989
40
0.757812499999989
40
0.757812499999989
40
0.765624999999989
40
0.78124999999999
40
0.78124999999999
40
0.812499999999991
40
0.812499999999991
40
0.843749999999992
40
0.843749999999992
40
0.874999999999993
40
0.874999999999993
40
0.906249999999994
40
0.906249999999994
40
0.937499999999995
40
0.937499999999995
40
0.953124999999996
40
0.953124999999996
40
0.968749999999997
40
0.968749999999997
40
1
40
1
40
1
40
1
41
1
10
10
20
9.48761247553375
30
0
41
1
10
9.55226224360544
20
9.45398330119559
30
0
41
1
10
9.11552188329458
20
9.40409868772255
30
0
41
1
10
8.47693969865239
20
9.30143117376815
30
0
41
1
10
8.26683960961779
20
9.26254914673342
30
0
41
1
10
7.85225223303379
20
9.1746093234137
30
0
41
1
10
7.64776431427859
20
9.12555365736202
30
0
41
1
10
7.2445677484636
20
9.01616564110807
30
0
41
1
10
7.04585810721071
20
8.95583670166909
30
0
41
1
10
6.65448404907005
20
8.822473493639
30
0
41
1
10
6.4618179940442
20
8.74944486080668
30
0
41
1
10
6.22501595400635
20
8.64903842784233
30
0
41
1
10
6.17787555477608
20
8.62850587634372
30
0
41
1
10
6.0844144895697
20
8.5866803629292
30
0
41
1
10
5.94530099063778
20
8.52273765096948
30
0
41
1
10
5.80943674279411
20
8.45510683069304
30
0
41
1
10
5.5421016357472
20
8.31469948048979
30
0
41
1
10
5.36972636195117
20
8.21424773252417
30
0
41
1
10
5.03720601798673
20
7.99813886008934
30
0
41
1
10
4.87705677392344
20
7.88248874394682
30
0
41
1
10
4.6466714574112
20
7.69608355686142
30
0
41
1
10
4.57151928173411
20
7.63178871948321
30
0
41
1
10
4.46137448062439
20
7.53186110658311
30
0
41
1
10
4.42504532285034
20
7.4979266841888
30
0
41
1
10
4.35350565512678
20
7.42907505921113
30
0
41
1
10
4.31832271814534
20
7.39418736905236
30
0
41
1
10
4.14536082943351
20
7.21739716335622
30
0
41
1
10
4.01641633541161
20
7.06845802165668
30
0
41
1
10
3.77820954948672
20
6.75420325324561
30
0
41
1
10
3.66893897725279
20
6.58889563885774
30
0
41
1
10
3.52095941645825
20
6.32719243777137
30
0
41
1
10
3.47429370390304
20
6.23766240518543
30
0
41
1
10
3.41946959096077
20
6.12267660906954
30
0
41
1
10
3.40867053951524
20
6.09950353465243
30
0
41
1
10
3.38749906717604
20
6.05300012348602
30
0
41
1
10
3.35636833591659
20
5.98298402438758
30
0
41
1
10
3.32711318239919
20
5.91218318668354
30
0
41
1
10
3.23375522585732
20
5.67442611727665
30
0
41
1
10
3.17234143483279
20
5.47861828725249
30
0
41
1
10
3.07642031070912
20
5.07535323298947
30
0
41
1
10
3.04190722320604
20
4.86789877437087
30
0
41
1
10
3.01134944714735
20
4.54739827105291
30
0
41
1
10
3.00470630524882
20
4.43897123660639
30
0
41
1
10
2.99880088466426
20
4.21901905787127
30
0
41
1
10
2.9995749736083
20
4.10893122873162
30
0
41
1
10
3.01272129235642
20
3.7783412144662
30
0
41
1
10
3.03588645513844
20
3.55751133482749
30
0
41
1
10
3.09144851187509
20
3.2256693860428
30
0
41
1
10
3.11344643569078
20
3.11495618174135
30
0
41
1
10
3.15162836456864
20
2.94874738051544
30
0
41
1
10
3.17201624622695
20
2.86560825806927
30
0
41
1
10
3.19434948296228
20
2.78241914172753
30
0
41
1
10
3.20967099120335
20
2.72694887025187
30
0
41
1
10
3.21755535295941
20
2.69918372658506
30
0
41
1
10
3.29027484837178
20
2.44989041970271
30
0
41
1
10
3.36730560875802
20
2.23266620540213
30
0
41
1
10
3.54383959625514
20
1.80620690862099
30
0
41
1
10
3.6433555013941
20
1.59697638825861
30
0
41
1
10
3.78088875139824
20
1.34015553876228
30
0
41
1
10
3.80905387917829
20
1.28902779501425
30
0
41
1
10
3.86668373433827
20
1.1872401746746
30
0
41
1
10
3.89617805125042
20
1.13653371992382
30
0
41
1
10
3.98610109484153
20
0.985906028249389
30
0
41
1
10
4.04809708367321
20
0.887237332570578
30
0
41
1
10
4.23982871587313
20
0.596131350432927
30
0
41
1
10
4.37529331319126
20
0.408581341085352
30
0
41
1
10
4.65984872575456
20
0.0450627066613833
30
0
41
1
10
4.80894640602645
20
-0.130900023455553
30
0
41
1
10
5.11951906069848
20
-0.472344053296666
30
0
41
1
10
5.28099824170098
20
-0.63782175483712
30
0
41
1
10
5.48994614639716
20
-0.838678019810686
30
0
41
1
10
5.53207619353367
20
-0.878533717200014
30
0
41
1
10
5.6167265227825
20
-0.957380206309722
30
0
41
1
10
5.74439875153999
20
-1.07445986817803
30
0
41
1
10
5.87408879965443
20
-1.18810345936126
30
0
41
1
10
6.1359843006793
20
-1.41113106423049
30
0
41
1
10
6.3139310898147
20
-1.55414508797119
30
0
41
1
10
6.67571311878933
20
-1.83030027304196
30
0
41
1
10
6.85954972342532
20
-1.96343875237244
30
0
41
1
10
7.23241935371647
20
-2.2210666871398
30
0
41
1
10
7.42145292315897
20
-2.34555485914538
30
0
41
1
10
7.80411108816079
20
-2.58692719511083
30
0
41
1
10
7.99773562171151
20
-2.70381104359487
30
0
41
1
10
8.38905048261827
20
-2.93086340457819
30
0
41
1
10
8.58674030056417
20
-3.04103226987937
30
0
41
1
10
8.88599746527785
20
-3.20179703652656
30
0
41
1
10
8.98624219654133
20
-3.25465524477977
30
0
41
1
10
9.18735207726337
20
-3.35882264310277
30
0
41
1
10
9.28822504262453
20
-3.41013698092954
30
0
41
1
10
9.59175248258205
20
-3.56188906627943
30
0
41
1
10
9.79531172618297
20
-3.66014338332076
30
0
41
1
10
9.99999999999997
20
-3.75570772055716
30
0
0
SPLINE
5
CE
100
AcDbEntity
8
1
62
256
6
ByLayer
370
18
48
1
60
0
100
AcDbSpline
70
4
71
3
72
14
73
10
40
0
40
0
40
0
40
0
40
0.25
40
0.25
40
0.5
40
0.5
40
0.75
40
0.75
40
1
40
1
40
1
40
1
41
1
10
13.5373144633969
20
-5.16555027542447
30
0
41
1
10
13.2343892412753
20
-5.06822664424254
30
0
41
1
10
12.9338274777489
20
-4.96539640639048
30
0
41
1
10
12.3367628284312
20
-4.74978877193775
30
0
41
1
10
12.0402571951903
20
-4.63701827968657
30
0
41
1
10
11.4509386576829
20
-4.40198826996456
30
0
41
1
10
11.1581246160429
20
-4.27973295320183
30
0
41
1
10
10.5761935630176
20
-4.02539383129377
30
0
41
1
10
10.2870772376737
20
-3.89331075671862
30
0
41
1
10
10
20
-3.75570772055716
30
0
0
SPLINE
5
CF
100
AcDbEntity
8
1
62
256
6
ByLayer
370
18
48
1
60
0
100
AcDbSpline
70
4
71
4
72
16
73
11
40
0
40
0
40
0
40
0
40
0
40
0.286870467515387
40
0.286870467515387
40
0.286870467515387
40
0.713129532484612
40
0.713129532484612
40
0.713129532484612
40
1
40
1
40
1
40
1
40
1
41
0.996522744747036
10
18.8290451156012
20
9.04431257736096
30
0
41
0.994683167777483
10
18.6620840302587
20
8.30283363885051
30
0
41
0.994580264638651
10
18.3792275169663
20
7.26966528319091
30
0
41
1
10
17.9945511384787
20
6.02329327687198
30
0
41
1
10
16.9784501261229
20
2.9319074895632
30
0
41
0.988033871712585
10
16.183179789499
20
0.681360048170719
30
0
41
1
10
15.3879094528752
20
-1.33916492777769
30
0
41
1
10
14.3718084405193
20
-3.70484299315717
30
0
41
0.994580264638651
10
13.9871320620318
20
-4.52441082402056
30
0
41
0.994683167777484
10
13.7042755487393
20
-5.01034936365572
30
0
41
0.996522744747036
10
13.5373144633969
20
-5.1655502754245
30
0
0
SPLINE
5
D0
100
AcDbEntity
8
1
62
256
6
ByLayer
370
18
48
1
60
0
100
AcDbSpline
70
4
71
3
72
26
73
22
40
0
40
0
40
0
40
0
40
0.12499999999999
40
0.12499999999999
40
0.24999999999998
40
0.24999999999998
40
0.374999999999971
40
0.374999999999971
40
0.437499999999968
40
0.437499999999968
40
0.468749999999967
40
0.468749999999967
40
0.499999999999966
40
0.499999999999966
40
0.624999999999974
40
0.624999999999974
40
0.749999999999983
40
0.749999999999983
40
0.874999999999991
40
0.874999999999991
40
1
40
1
40
1
40
1
41
1
10
10
20
9.48761247553375
30
0
41
1
10
10.3664937518652
20
9.54309902545924
30
0
41
1
10
10.7345260224433
20
9.58679614338794
30
0
41
1
10
11.4734503401503
20
9.65386211377609
30
0
41
1
10
11.8443438164362
20
9.6772139519104
30
0
41
1
10
12.5888495909048
20
9.70542854307135
30
0
41
1
10
12.9624630195733
20
9.71027980598254
30
0
41
1
10
13.5248429682934
20
9.70435694712566
30
0
41
1
10
13.7126297603114
20
9.70017625958144
30
0
41
1
10
13.9947905730558
20
9.69063285119239
30
0
41
1
10
14.0889843999435
20
9.68690325590183
30
0
41
1
10
14.2772618486656
20
9.67836831511815
30
0
41
1
10
14.3711875445423
20
9.67357090081723
30
0
41
1
10
14.8397815980767
20
9.64698560657595
30
0
41
1
10
15.2113475451257
20
9.61741804883525
30
0
41
1
10
15.9486231895419
20
9.54271291761819
30
0
41
1
10
16.314331596413
20
9.49756619104255
30
0
41
1
10
17.040657515505
20
9.39250080564631
30
0
41
1
10
17.4012759100276
20
9.33257926570499
30
0
41
1
10
18.1182043343164
20
9.19874795604611
30
0
41
1
10
18.4745177408481
20
9.12484409397899
30
0
41
1
10
18.8290451156012
20
9.04431257736098
30
0
0
SPLINE
5
D1
100
AcDbEntity
8
1
62
256
6
ByLayer
370
13
48
1
60
0
100
AcDbSpline
70
4
71
3
72
8
73
4
40
0
40
0
40
0
40
0
40
1
40
1
40
1
40
1
41
1
10
98.8
20
12.1765777436002
30
0
41
1
10
98.8898275881939
20
12.2629221332422
30
0
41
1
10
98.9796551763878
20
12.303
30
0
41
1
10
99.0694827645817
20
12.303
30
0
0
SPLINE
5
D2
100
AcDbEntity
8
1
62
256
6
ByLayer
370
13
48
1
60
0
100
AcDbSpline
70
4
71
3
72
142
73
138
40
0
40
0
40
0
40
0
40
0.015625
40
0.015625
40
0.03125
40
0.03125
40
0.0468750000000001
40
0.0468750000000001
40
0.0625000000000001
40
0.0625000000000001
40
0.0781250000000001
40
0.0781250000000001
40
0.0937500000000001
40
0.0937500000000001
40
0.109375
40
0.109375
40
0.125
40
0.125
40
0.140625
40
0.140625
40
0.15625
40
0.15625
40
0.171875
40
0.171875
40
0.1875
40
0.1875
40
0.203125
40
0.203125
40
0.2109375
40
0.2109375
40
0.21484375
40
0.21484375
40
0.21875
40
0.21875
40
0.234375
40
0.234375
40
0.25
40
0.25
40
0.265625
40
0.265625
40
0.28125
40
0.28125
40
0.296875
40
0.296875
40
0.3125
40
0.3125
40
0.328125
40
0.328125
40
0.34375
40
0.34375
40
0.359375
40
0.359375
40
0.375
40
0.375
40
0.390625
40
0.390625
40
0.40625
40
0.40625
40
0.421875
40
0.421875
40
0.4375
40
0.4375
40
0.453125
40
0.453125
40
0.46875
40
0.46875
40
0.4765625
40
0.4765625
40
0.484375
40
0.484375
40
0.5
40
0.5
40
0.515624999999999
40
0.515624999999999
40
0.531249999999999
40
0.531249999999999
40
0.546874999999999
40
0.546874999999999
40
0.562499999999999
40
0.562499999999999
40
0.578124999999999
40
0.578124999999999
40
0.593749999999999
40
0.593749999999999
40
0.609374999999999
40
0.609374999999999
40
0.624999999999999
40
0.624999999999999
40
0.640624999999999
40
0.640624999999999
40
0.656249999999999
40
0.656249999999999
40
0.671874999999999
40
0.671874999999999
40
0.687499999999998
40
0.687499999999998
40
0.703124999999998
40
0.703124999999998
40
0.718749999999998
40
0.718749999999998
40
0.734374999999998
40
0.734374999999998
40
0.742187499999998
40
0.742187499999998
40
0.749999999999998
40
0.749999999999998
40
0.765624999999998
40
0.765624999999998
40
0.781249999999998
40
0.781249999999998
40
0.796874999999998
40
0.796874999999998
40
0.812499999999999
40
0.812499999999999
40
0.828124999999999
40
0.828124999999999
40
0.843749999999999
40
0.843749999999999
40
0.859374999999999
40
0.859374999999999
40
0.874999999999999
40
0.874999999999999
40
0.890624999999999
40
0.890624999999999
40
0.906249999999999
40
0.906249999999999
40
0.921874999999999
40
0.921874999999999
40
0.9375
40
0.9375
40
0.953125
40
0.953125
40
0.96875
40
0.96875
40
0.984375
40
0.984375
40
1
40
1
40
1
40
1
41
1
10
98.7999999999999
20
11.8799602434756
30
0
41
1
10
98.8543638855579
20
11.7814861807041
30
0
41
1
10
98.908727771116
20
11.6648668168715
30
0
41
1
10
99.017455542232
20
11.3944599254482
30
0
41
1
10
99.07181942779
20
11.2406683588303
30
0
41
1
10
99.1805471989061
20
10.8960356491233
30
0
41
1
10
99.2349110844641
20
10.7051926164064
30
0
41
1
10
99.3436388555801
20
10.2876741245558
30
0
41
1
10
99.3980027411381
20
10.0609993768335
30
0
41
1
10
99.5067305122542
20
9.57415235100211
30
0
41
1
10
99.5610943978121
20
9.31398352892867
30
0
41
1
10
99.6698221689281
20
8.76353870397602
30
0
41
1
10
99.7241860544861
20
8.47326867888026
30
0
41
1
10
99.8329138256022
20
7.86692451014537
30
0
41
1
10
99.8872777111602
20
7.55085829302828
30
0
41
1
10
99.9960054822763
20
6.89792640556641
30
0
41
1
10
100.050369367834
20
6.56106977967417
30
0
41
1
10
100.15909713895
20
5.87200534829668
30
0
41
1
10
100.213461024508
20
5.51980676273459
30
0
41
1
10
100.322188795624
20
4.80567261759916
30
0
41
1
10
100.376552681182
20
4.44374556097097
30
0
41
1
10
100.485280452298
20
3.71566540119409
30
0
41
1
10
100.539644337856
20
3.34951937817468
30
0
41
1
10
100.648372108972
20
2.61817265730957
30
0
41
1
10
100.70273599453
20
2.25297718002
30
0
41
1
10
100.811463765646
20
1.52817742223081
30
0
41
1
10
100.865827651204
20
1.16857635358022
30
0
41
1
10
100.947373479541
20
0.636363320327689
30
0
41
1
10
100.97455542232
20
0.460151687726125
30
0
41
1
10
101.015328336489
20
0.197947132128519
30
0
41
1
10
101.028919307878
20
0.11089740769566
30
0
41
1
10
101.056101250658
20
-0.0624487620992227
30
0
41
1
10
101.069692222047
20
-0.149240291885405
30
0
41
1
10
101.137647078995
20
-0.58558792772476
30
0
41
1
10
101.192010964553
20
-0.940398806696379
30
0
41
1
10
101.300738735669
20
-1.65788539231755
30
0
41
1
10
101.355102621227
20
-2.02055895536449
30
0
41
1
10
101.463830392343
20
-2.74947372406555
30
0
41
1
10
101.518194277901
20
-3.11571080605654
30
0
41
1
10
101.626922049017
20
-3.84685306633475
30
0
41
1
10
101.681285934575
20
-4.21175214549172
30
0
41
1
10
101.790013705691
20
-4.93487010152239
30
0
41
1
10
101.844377591249
20
-5.29308118173401
30
0
41
1
10
101.953105362365
20
-5.99723589980519
30
0
41
1
10
102.007469247923
20
-6.34317060834849
30
0
41
1
10
102.116197019039
20
-7.01719977018337
30
0
41
1
10
102.170560904597
20
-7.34528496588413
30
0
41
1
10
102.279288675713
20
-7.97833285465387
30
0
41
1
10
102.333652561271
20
-8.283286896275
30
0
41
1
10
102.442380332387
20
-8.86535313914823
30
0
41
1
10
102.496744217945
20
-9.14245820702371
30
0
41
1
10
102.605471989061
20
-9.6649103077844
30
0
41
1
10
102.659835874619
20
-9.91025245492844
30
0
41
1
10
102.768563645735
20
-10.3662485535532
30
0
41
1
10
102.822927531293
20
-10.5769002883273
30
0
41
1
10
102.931655302409
20
-10.9616792805726
30
0
41
1
10
102.986019187967
20
-11.135807044327
30
0
41
1
10
103.094746959083
20
-11.4468212038108
30
0
41
1
10
103.149110844641
20
-11.5837105344711
30
0
41
1
10
103.257838615757
20
-11.8205972600946
30
0
41
1
10
103.312202501315
20
-11.9205994618539
30
0
41
1
10
103.420930272431
20
-12.0850091903358
30
0
41
1
10
103.475294157989
20
-12.1494227000699
30
0
41
1
10
103.584021929105
20
-12.2447354990794
30
0
41
1
10
103.638385814663
20
-12.2756412399954
30
0
41
1
10
103.719931643
20
-12.2988699903488
30
0
41
1
10
103.747113585779
20
-12.3027619525114
30
0
41
1
10
103.801477471337
20
-12.3032168544932
30
0
41
1
10
103.828659414116
20
-12.2997910072113
30
0
41
1
10
103.910205242453
20
-12.2779954672732
30
0
41
1
10
103.964569128011
20
-12.2480904411339
30
0
41
1
10
104.073296899127
20
-12.1548542359915
30
0
41
1
10
104.127660784685
20
-12.0915166013516
30
0
41
1
10
104.236388555801
20
-11.9293124574548
30
0
41
1
10
104.290752441359
20
-11.8304399402209
30
0
41
1
10
104.399480212475
20
-11.5958394709654
30
0
41
1
10
104.453844098033
20
-11.4601066647647
30
0
41
1
10
104.562571869149
20
-11.1514009600446
30
0
41
1
10
104.616935754707
20
-10.9784250590071
30
0
41
1
10
104.725663525823
20
-10.5959109193686
30
0
41
1
10
104.780027411381
20
-10.3863720929706
30
0
41
1
10
104.888755182497
20
-9.93252812733067
30
0
41
1
10
104.943119068055
20
-9.68822511908164
30
0
41
1
10
105.051846839171
20
-9.16774481824433
30
0
41
1
10
105.106210724729
20
-8.89157233299025
30
0
41
1
10
105.214938495845
20
-8.31123650760048
30
0
41
1
10
105.269302381403
20
-8.00708024066492
30
0
41
1
10
105.37803015252
20
-7.37547152740683
30
0
41
1
10
105.432394038077
20
-7.04802769854479
30
0
41
1
10
105.541121809193
20
-6.37511135388357
30
0
41
1
10
105.595485694751
20
-6.02964809120871
30
0
41
1
10
105.704213465867
20
-5.32626147410588
30
0
41
1
10
105.758577351426
20
-4.96834707230954
30
0
41
1
10
105.867305122542
20
-4.24565118230018
30
0
41
1
10
105.921669008099
20
-3.88087753586714
30
0
41
1
10
106.030396779215
20
-3.14982567127711
30
0
41
1
10
106.084760664773
20
-2.78355361067801
30
0
41
1
10
106.19348843589
20
-2.05442496940262
30
0
41
1
10
106.247852321448
20
-1.69157257513115
30
0
41
1
10
106.356580092564
20
-0.973604847228216
30
0
41
1
10
106.410943978122
20
-0.618491716465542
30
0
41
1
10
106.492489806459
20
-0.0943454092945899
30
0
41
1
10
106.519671749238
20
0.0781537812600277
30
0
41
1
10
106.574035634796
20
0.427408663306153
30
0
41
1
10
106.601217577575
20
0.603457363253
30
0
41
1
10
106.682763405912
20
1.13522382541851
30
0
41
1
10
106.73712729147
20
1.49458355156781
30
0
41
1
10
106.845855062586
20
2.21903488283257
30
0
41
1
10
106.900218948144
20
2.58412333800607
30
0
41
1
10
107.00894671926
20
3.31540894567644
30
0
41
1
10
107.063310604818
20
3.68160093921705
30
0
41
1
10
107.172038375934
20
4.40993980859093
30
0
41
1
10
107.226402261492
20
4.77207965699859
30
0
41
1
10
107.335130032608
20
5.48681340742118
30
0
41
1
10
107.389493918166
20
5.83939884131786
30
0
41
1
10
107.498221689282
20
6.52941031242253
30
0
41
1
10
107.55258557484
20
6.86682713921198
30
0
41
1
10
107.661313345956
20
7.52104346950745
30
0
41
1
10
107.715677231514
20
7.83783390877804
30
0
41
1
10
107.82440500263
20
8.44577278042394
30
0
41
1
10
107.878768888188
20
8.73691323805429
30
0
41
1
10
107.987496659304
20
9.28921995224366
30
0
41
1
10
108.041860544862
20
9.55038016021263
30
0
41
1
10
108.150588315978
20
10.039300108394
30
0
41
1
10
108.204952201536
20
10.2670563089366
30
0
41
1
10
108.313679972652
20
10.6867937017453
30
0
41
1
10
108.36804385821
20
10.8787740976768
30
0
41
1
10
108.476771629326
20
11.225702666153
30
0
41
1
10
108.531135514884
20
11.3806526529666
30
0
41
1
10
108.639863286
20
11.6533643912197
30
0
41
1
10
108.694227171558
20
11.771130123986
30
0
41
1
10
108.802954942674
20
11.970329629143
30
0
41
1
10
108.857318828232
20
12.0517689051229
30
0
41
1
10
108.966046599348
20
12.1800391361235
30
0
41
1
10
109.020410484906
20
12.22687640038
30
0
41
1
10
109.129138256022
20
12.2883536106222
30
0
41
1
10
109.18350214158
20
12.303
30
0
41
1
10
109.237866027138
20
12.303
30
0
0
SPLINE
5
D3
100
AcDbEntity
8
1
62
256
6
ByLayer
370
13
48
1
60
0
100
AcDbSpline
70
4
71
3
72
18
73
14
40
0
40
0
40
0
40
0
40
0.250000000000001
40
0.250000000000001
40
0.500000000000002
40
0.500000000000002
40
0.625000000000001
40
0.625000000000001
40
0.750000000000001
40
0.750000000000001
40
0.875
40
0.875
40
1
40
1
40
1
40
1
41
1
10
108.484175081872
20
12.303
30
0
41
1
10
108.587333342368
20
12.303
30
0
41
1
10
108.690491602864
20
12.2500780368611
30
0
41
1
10
108.896808123855
20
12.0200679047938
30
0
41
1
10
108.999966384351
20
11.8428254835403
30
0
41
1
10
109.154703775095
20
11.4763235056787
30
0
41
1
10
109.206282905343
20
11.3374658302698
30
0
41
1
10
109.309441165839
20
11.026298806795
30
0
41
1
10
109.361020296087
20
10.8539875949616
30
0
41
1
10
109.464178556583
20
10.4767141156958
30
0
41
1
10
109.515757686831
20
10.2717518194772
30
0
41
1
10
109.618915947327
20
9.83088468679597
30
0
41
1
10
109.670495077575
20
9.59498182147283
30
0
41
1
10
109.722074207823
20
9.3449015413413
30
0
0
SPLINE
5
D4
100
AcDbEntity
8
1
62
256
6
ByLayer
370
13
48
1
60
0
100
AcDbSpline
70
4
71
3
72
132
73
128
40
0
40
0
40
0
40
0
40
0.0156249999999998
40
0.0156249999999998
40
0.0312499999999997
40
0.0312499999999997
40
0.0468749999999995
40
0.0468749999999995
40
0.0624999999999994
40
0.0624999999999994
40
0.0781249999999993
40
0.0781249999999993
40
0.0937499999999991
40
0.0937499999999991
40
0.109374999999999
40
0.109374999999999
40
0.124999999999999
40
0.124999999999999
40
0.156249999999999
40
0.156249999999999
40
0.171874999999998
40
0.171874999999998
40
0.175781249999998
40
0.175781249999998
40
0.179687499999998
40
0.179687499999998
40
0.187499999999998
40
0.187499999999998
40
0.218749999999999
40
0.218749999999999
40
0.234374999999999
40
0.234374999999999
40
0.249999999999999
40
0.249999999999999
40
0.265624999999999
40
0.265624999999999
40
0.281249999999999
40
0.281249999999999
40
0.296874999999999
40
0.296874999999999
40
0.312499999999999
40
0.312499999999999
40
0.328125
40
0.328125
40
0.34375
40
0.34375
40
0.359375
40
0.359375
40
0.375
40
0.375
40
0.390625
40
0.390625
40
0.40625
40
0.40625
40
0.437500000000001
40
0.437500000000001
40
0.445312500000001
40
0.445312500000001
40
0.449218750000001
40
0.449218750000001
40
0.453125000000001
40
0.453125000000001
40
0.468750000000001
40
0.468750000000001
40
0.500000000000001
40
0.500000000000001
40
0.515625000000001
40
0.515625000000001
40
0.531250000000001
40
0.531250000000001
40
0.546875000000001
40
0.546875000000001
40
0.5625
40
0.5625
40
0.578125
40
0.578125
40
0.59375
40
0.59375
40
0.609375
40
0.609375
40
0.625
40
0.625
40
0.640625
40
0.640625
40
0.65625
40
0.65625
40
0.671875
40
0.671875
40
0.6875
40
0.6875
40
0.71875
40
0.71875
40
0.72265625
40
0.72265625
40
0.7265625
40
0.7265625
40
0.734375
40
0.734375
40
0.75
40
0.75
40
0.78125
40
0.78125
40
0.796875
40
0.796875
40
0.8125
40
0.8125
40
0.828125
40
0.828125
40
0.84375
40
0.84375
40
0.859375
40
0.859375
40
0.875
40
0.875
40
0.890625
40
0.890625
40
0.90625
40
0.90625
40
0.921875
40
0.921875
40
0.9375
40
0.9375
40
0.953125
40
0.953125
40
0.96875
40
0.96875
40
1
40
1
40
1
40
1
41
1
10
98.8
20
10.5158361670677
30
0
41
1
10
98.851841965106
20
10.3178206928483
30
0
41
1
10
98.9036839302119
20
10.1034921352233
30
0
41
1
10
99.007367860424
20
9.6441809251115
30
0
41
1
10
99.0592098255299
20
9.39920083355315
30
0
41
1
10
99.1628937557419
20
8.88143886502826
30
0
41
1
10
99.2147357208479
20
8.60866147705693
30
0
41
1
10
99.3184196510599
20
8.0389299329461
30
0
41
1
10
99.3702616161659
20
7.74198181074081
30
0
41
1
10
99.4739455463778
20
7.12814696414804
30
0
41
1
10
99.5257875114838
20
6.81126724644565
30
0
41
1
10
99.6294714416958
20
6.16222253483363
30
0
41
1
10
99.6813134068018
20
5.83006485050063
30
0
41
1
10
99.7849973370138
20
5.15531528607346
30
0
41
1
10
99.8368393021197
20
4.81273035704305
30
0
41
1
10
99.9405232323317
20
4.12195870062499
30
0
41
1
10
99.9923651974377
20
3.7737780089285
30
0
41
1
10
100.147891092756
20
2.72775854586564
30
0
41
1
10
100.251575022968
20
2.02870590374607
30
0
41
1
10
100.407100918286
20
1.00148370831235
30
0
41
1
10
100.458942883392
20
0.662574756220806
30
0
41
1
10
100.523745339774
20
0.245288445328924
30
0
41
1
10
100.536705831051
20
0.16214722282362
30
0
41
1
10
100.562626813604
20
-0.003459583223588
30
0
41
1
10
100.57558730488
20
-0.0859442746034631
30
0
41
1
10
100.61446877871
20
-0.335076355035653
30
0
41
1
10
100.640389761263
20
-0.502486018037985
30
0
41
1
10
100.769994674028
20
-1.3452305467064
30
0
41
1
10
100.87367860424
20
-2.03800363683536
30
0
41
1
10
101.029204499558
20
-3.08318386720086
30
0
41
1
10
101.081046464664
20
-3.43250876080992
30
0
41
1
10
101.184730394876
20
-4.1286490275036
30
0
41
1
10
101.236572359981
20
-4.47545919258368
30
0
41
1
10
101.340256290193
20
-5.16186199693726
30
0
41
1
10
101.392098255299
20
-5.50144823637299
30
0
41
1
10
101.495782185511
20
-6.16854250383241
30
0
41
1
10
101.547624150617
20
-6.49604338940543
30
0
41
1
10
101.651308080829
20
-7.13415865122499
30
0
41
1
10
101.703150045935
20
-7.44476574406281
30
0
41
1
10
101.806833976147
20
-8.04455636728417
30
0
41
1
10
101.858675941253
20
-8.33373314935787
30
0
41
1
10
101.962359871465
20
-8.8866104866415
30
0
41
1
10
102.014201836571
20
-9.15030547697589
30
0
41
1
10
102.117885766783
20
-9.64883810798881
30
0
41
1
10
102.169727731889
20
-9.88367188392058
30
0
41
1
10
102.273411662101
20
-10.3219157967444
30
0
41
1
10
102.325253627207
20
-10.5253240730532
30
0
41
1
10
102.428937557419
20
-10.8990523675179
30
0
41
1
10
102.480779522525
20
-11.0693725815526
30
0
41
1
10
102.584463452737
20
-11.3761867333487
30
0
41
1
10
102.636305417843
20
-11.5126827340641
30
0
41
1
10
102.739989348055
20
-11.7520022082555
30
0
41
1
10
102.791831313161
20
-11.8548292334916
30
0
41
1
10
102.947357208479
20
-12.1142410270124
30
0
41
1
10
103.051041138691
20
-12.2215019071943
30
0
41
1
10
103.180646051456
20
-12.2830190772619
30
0
41
1
10
103.206567034009
20
-12.2917146942315
30
0
41
1
10
103.245448507839
20
-12.2995782346069
30
0
41
1
10
103.258408999115
20
-12.3013362726398
30
0
41
1
10
103.284329981668
20
-12.303166573374
30
0
41
1
10
103.297290472944
20
-12.3032435173664
30
0
41
1
10
103.362092929327
20
-12.2994515760332
30
0
41
1
10
103.413934894433
20
-12.2829495682531
30
0
41
1
10
103.569460789751
20
-12.1893209697651
30
0
41
1
10
103.673144719963
20
-12.0677716396822
30
0
41
1
10
103.828670615281
20
-11.786053803468
30
0
41
1
10
103.880512580387
20
-11.675650283906
30
0
41
1
10
103.984196510599
20
-11.4210679394623
30
0
41
1
10
104.036038475705
20
-11.2768858601418
30
0
41
1
10
104.139722405917
20
-10.9547857740928
30
0
41
1
10
104.191564371023
20
-10.7768661001981
30
0
41
1
10
104.295248301235
20
-10.3882340591939
30
0
41
1
10
104.347090266341
20
-10.1775219539382
30
0
41
1
10
104.450774196553
20
-9.72517438922247
30
0
41
1
10
104.502616161659
20
-9.48354125853342
30
0
41
1
10
104.606300091871
20
-8.97210853840915
30
0
41
1
10
104.658142056977
20
-8.70231323441828
30
0
41
1
10
104.761825987189
20
-8.13810072556842
30
0
41
1
10
104.813667952295
20
-7.84368940543669
30
0
41
1
10
104.917351882507
20
-7.23442291154797
30
0
41
1
10
104.969193847613
20
-6.91957466696934
30
0
41
1
10
105.072877777825
20
-6.27405133045195
30
0
41
1
10
105.124719742931
20
-5.94338354807505
30
0
41
1
10
105.228403673142
20
-5.27106086938113
30
0
41
1
10
105.280245638249
20
-4.92941299542491
30
0
41
1
10
105.383929568461
20
-4.23997505254388
30
0
41
1
10
105.435771533567
20
-3.8921911460549
30
0
41
1
10
105.539455463779
20
-3.19513136130189
30
0
41
1
10
105.591297428885
20
-2.84586037798957
30
0
41
1
10
105.746823324202
20
-1.80224184696863
30
0
41
1
10
105.850507254414
20
-1.11238256387634
30
0
41
1
10
105.967151675903
20
-0.358730196326064
30
0
41
1
10
105.980112167179
20
-0.275296818271215
30
0
41
1
10
106.006033149732
20
-0.109086242171259
30
0
41
1
10
106.018993641009
20
-0.0265151730552873
30
0
41
1
10
106.057875114838
20
0.221705831357525
30
0
41
1
10
106.083796097391
20
0.388546830910286
30
0
41
1
10
106.16155904505
20
0.892616562697214
30
0
41
1
10
106.213401010156
20
1.23341027641857
30
0
41
1
10
106.368926905474
20
2.26508832774047
30
0
41
1
10
106.472610835686
20
2.96550104193813
30
0
41
1
10
106.628136731004
20
4.01048821345657
30
0
41
1
10
106.67997869611
20
4.35781541304723
30
0
41
1
10
106.783662626322
20
5.04579725115116
30
0
41
1
10
106.835504591428
20
5.38644560575452
30
0
41
1
10
106.93918852164
20
6.05621650266522
30
0
41
1
10
106.991030486746
20
6.38533195875061
30
0
41
1
10
107.094714416958
20
7.02721191756905
30
0
41
1
10
107.146556382064
20
7.33996911944109
30
0
41
1
10
107.250240312276
20
7.94455376841452
30
0
41
1
10
107.302082277382
20
8.2363743724936
30
0
41
1
10
107.405766207594
20
8.79496818799498
30
0
41
1
10
107.4576081727
20
9.06173567112347
30
0
41
1
10
107.561292102912
20
9.56675784041852
30
0
41
1
10
107.613134068018
20
9.80500844933854
30
0
41
1
10
107.71681799823
20
10.2503327159714
30
0
41
1
10
107.768659963336
20
10.4574042784878
30
0
41
1
10
107.872343893548
20
10.8386012016068
30
0
41
1
10
107.924185858654
20
11.0127265303022
30
0
41
1
10
108.027869788866
20
11.3271886174465
30
0
41
1
10
108.079711753972
20
11.4675272433142
30
0
41
1
10
108.183395684184
20
11.7144720484337
30
0
41
1
10
108.23523764929
20
11.8210816339161
30
0
41
1
10
108.338921579502
20
12.0014423068398
30
0
41
1
10
108.390763544608
20
12.075197859207
30
0
41
1
10
108.546289439926
20
12.2495344042119
30
0
41
1
10
108.649973370138
20
12.303
30
0
41
1
10
108.75365730035
20
12.303
30
0
0
SPLINE
5
D5
100
AcDbEntity
8
1
62
256
6
ByLayer
370
13
48
1
60
0
100
AcDbSpline
70
4
71
3
72
22
73
18
40
0
40
0
40
0
40
0
40
0.125
40
0.125
40
0.25
40
0.25
40
0.375
40
0.375
40
0.5
40
0.5
40
0.625
40
0.625
40
0.75
40
0.75
40
0.875
40
0.875
40
1
40
1
40
1
40
1
41
1
10
107.999966355083
20
12.303
30
0
41
1
10
108.071720848948
20
12.303
30
0
41
1
10
108.143475342812
20
12.2774608280346
30
0
41
1
10
108.28698433054
20
12.1688148647587
30
0
41
1
10
108.358738824404
20
12.0856822521484
30
0
41
1
10
108.502247812132
20
11.8569932798377
30
0
41
1
10
108.574002305997
20
11.7114134828742
30
0
41
1
10
108.717511293725
20
11.3554114739003
30
0
41
1
10
108.789265787589
20
11.1449731072933
30
0
41
1
10
108.932774775317
20
10.6598859781826
30
0
41
1
10
109.004529269182
20
10.3852327923081
30
0
41
1
10
109.14803825691
20
9.77572351297783
30
0
41
1
10
109.219792750774
20
9.44087721383693
30
0
41
1
10
109.363301738502
20
8.71829115275705
30
0
41
1
10
109.435056232366
20
8.33057479972078
30
0
41
1
10
109.578565220095
20
7.51235633325692
30
0
41
1
10
109.650319713959
20
7.08188741553619
30
0
41
1
10
109.722074207823
20
6.63604520951299
30
0
0
SPLINE
5
D6
100
AcDbEntity
8
1
62
256
6
ByLayer
370
13
48
1
60
0
100
AcDbSpline
70
4
71
3
72
87
73
83
40
0
40
0
40
0
40
0
40
0.0312499999999996
40
0.0312499999999996
40
0.0624999999999992
40
0.0624999999999992
40
0.0937499999999988
40
0.0937499999999988
40
0.124999999999998
40
0.124999999999998
40
0.132812499999998
40
0.132812499999998
40
0.136718749999998
40
0.136718749999998
40
0.140624999999998
40
0.140624999999998
40
0.156249999999998
40
0.156249999999998
40
0.187499999999998
40
0.187499999999998
40
0.218749999999997
40
0.218749999999997
40
0.249999999999997
40
0.249999999999997
40
0.281249999999997
40
0.281249999999997
40
0.312499999999996
40
0.312499999999996
40
0.343749999999996
40
0.343749999999996
40
0.374999999999996
40
0.374999999999996
40
0.406249999999995
40
0.406249999999995
40
0.421874999999995
40
0.421874999999995
40
0.425781249999995
40
0.425781249999995
40
0.429687499999995
40
0.437499999999995
40
0.437499999999995
40
0.468749999999995
40
0.468749999999995
40
0.499999999999996
40
0.499999999999996
40
0.531249999999996
40
0.531249999999996
40
0.562499999999996
40
0.562499999999996
40
0.593749999999996
40
0.593749999999996
40
0.624999999999997
40
0.624999999999997
40
0.656249999999997
40
0.656249999999997
40
0.687499999999997
40
0.687499999999997
40
0.703124999999997
40
0.703124999999997
40
0.710937499999997
40
0.710937499999997
40
0.714843749999998
40
0.714843749999998
40
0.718749999999998
40
0.718749999999998
40
0.749999999999998
40
0.749999999999998
40
0.781249999999998
40
0.781249999999998
40
0.812499999999998
40
0.812499999999998
40
0.843749999999999
40
0.843749999999999
40
0.874999999999999
40
0.874999999999999
40
0.906249999999999
40
0.906249999999999
40
0.937499999999999
40
0.937499999999999
40
0.96875
40
0.96875
40
1
40
1
40
1
40
1
41
1
10
98.7999999999999
20
8.22645304193753
30
0
41
1
10
98.8986400893079
20
7.67928273960294
30
0
41
1
10
98.9972801786158
20
7.08902899853697
30
0
41
1
10
99.1945603572317
20
5.85315581473196
30
0
41
1
10
99.2932004465396
20
5.20771657455174
30
0
41
1
10
99.4904806251554
20
3.89517481904747
30
0
41
1
10
99.5891207144634
20
3.22822384628177
30
0
41
1
10
99.7864008930793
20
1.90377205453424
30
0
41
1
10
99.8850409823872
20
1.2463588016567
30
0
41
1
10
100.008341094022
20
0.446017150369244
30
0
41
1
10
100.033001116349
20
0.287001959585922
30
0
41
1
10
100.06999114984
20
0.0502918817672082
30
0
41
1
10
100.082321161003
20
-0.0281286202024944
30
0
41
1
10
100.10698118333
20
-0.18582165431161
30
0
41
1
10
100.119311194494
20
-0.264971775739468
30
0
41
1
10
100.180961250311
20
-0.662146195119306
30
0
41
1
10
100.230281294965
20
-0.984460997008057
30
0
41
1
10
100.378241428927
20
-1.96105264655137
30
0
41
1
10
100.476881518235
20
-2.62518017609281
30
0
41
1
10
100.674161696851
20
-3.95238480499239
30
0
41
1
10
100.772801786159
20
-4.61534902888025
30
0
41
1
10
100.970081964774
20
-5.90775366358668
30
0
41
1
10
101.068722054083
20
-6.53702646980318
30
0
41
1
10
101.266002232698
20
-7.72866908773881
30
0
41
1
10
101.364642322006
20
-8.29086196147517
30
0
41
1
10
101.561922500622
20
-9.31942840995973
30
0
41
1
10
101.66056258993
20
-9.78567376874352
30
0
41
1
10
101.857842768546
20
-10.6026911415871
30
0
41
1
10
101.956482857854
20
-10.95342407642
30
0
41
1
10
102.15376303647
20
-11.5316593545761
30
0
41
1
10
102.252403125778
20
-11.759213761318
30
0
41
1
10
102.449683304394
20
-12.0950055017112
30
0
41
1
10
102.548323393701
20
-12.2033537311343
30
0
41
1
10
102.696283527663
20
-12.2861323513592
30
0
41
1
10
102.745603572317
20
-12.3004940164393
30
0
41
1
10
102.807253628135
20
-12.30325016604
30
0
41
1
10
102.819583639298
20
-12.3030475222079
30
0
41
1
10
102.844243661625
20
-12.3011204021973
30
0
41
1
10
102.881233695115
20
-12.2959381618987
30
0
41
1
10
102.918223728606
20
-12.2837224637464
30
0
41
1
10
103.041523840241
20
-12.2267068983468
30
0
41
1
10
103.140163929549
20
-12.1286865654984
30
0
41
1
10
103.337444108165
20
-11.814417284892
30
0
41
1
10
103.436084197473
20
-11.5980542994722
30
0
41
1
10
103.633364376089
20
-11.0421144598001
30
0
41
1
10
103.732004465397
20
-10.7024784734291
30
0
41
1
10
103.929284644012
20
-9.90645541535937
30
0
41
1
10
104.02792473332
20
-9.45009857209197
30
0
41
1
10
104.225204911936
20
-8.43908862185623
30
0
41
1
10
104.323845001244
20
-7.88455678498084
30
0
41
1
10
104.52112517986
20
-6.70533765478442
30
0
41
1
10
104.619765269168
20
-6.0808252224418
30
0
41
1
10
104.817045447784
20
-4.7948524167162
30
0
41
1
10
104.915685537092
20
-4.13356275981835
30
0
41
1
10
105.112965715708
20
-2.80689858157163
30
0
41
1
10
105.211605805016
20
-2.14164304266515
30
0
41
1
10
105.359565938977
20
-1.16170470172384
30
0
41
1
10
105.408885983631
20
-0.838000433434388
30
0
41
1
10
105.482866050612
20
-0.358962233826162
30
0
41
1
10
105.507526072939
20
-0.200365446849474
30
0
41
1
10
105.54451610643
20
0.035677048735721
30
0
41
1
10
105.556846117593
20
0.114280446888671
30
0
41
1
10
105.58150613992
20
0.27241126919904
30
0
41
1
10
105.593836151084
20
0.351773526529115
30
0
41
1
10
105.704806251555
20
1.06853270166812
30
0
41
1
10
105.803446340863
20
1.72373156146949
30
0
41
1
10
106.000726519479
20
3.04630477905897
30
0
41
1
10
106.099366608787
20
3.71359804545176
30
0
41
1
10
106.296646787403
20
5.02982790432222
30
0
41
1
10
106.395286876711
20
5.67861779158616
30
0
41
1
10
106.592567055327
20
6.92423973945066
30
0
41
1
10
106.691207144635
20
7.52089201927339
30
0
41
1
10
106.88848732325
20
8.6306230180939
30
0
41
1
10
106.987127412558
20
9.1435446022378
30
0
41
1
10
107.184407591174
20
10.0614647937926
30
0
41
1
10
107.283047680482
20
10.4663810475482
30
0
41
1
10
107.480327859098
20
11.1549818137936
30
0
41
1
10
107.578967948406
20
11.4386793112284
30
0
41
1
10
107.776248127022
20
11.8836556327289
30
0
41
1
10
107.87488821633
20
12.0450239883592
30
0
41
1
10
108.072168394946
20
12.254634122668
30
0
41
1
10
108.170808484253
20
12.303
30
0
41
1
10
108.269448573561
20
12.303
30
0
0
SPLINE
5
D7
100
AcDbEntity
8
1
62
256
6
ByLayer
370
13
48
1
60
0
100
AcDbSpline
70
4
71
3
72
22
73
18
40
0
40
0
40
0
40
0
40
0.125
40
0.125
40
0.25
40
0.25
40
0.375
40
0.375
40
0.5
40
0.5
40
0.625
40
0.625
40
0.75
40
0.75
40
0.875
40
0.875
40
1
40
1
40
1
40
1
41
1
10
107.515757628295
20
12.303
30
0
41
1
10
107.607687485775
20
12.303
30
0
41
1
10
107.699617343256
20
12.2610166595338
30
0
41
1
10
107.883477058216
20
12.0798626460272
30
0
41
1
10
107.975406915697
20
11.940604021887
30
0
41
1
10
108.159266630657
20
11.5566205949143
30
0
41
1
10
108.251196488138
20
11.3118274498721
30
0
41
1
10
108.435056203098
20
10.7160509507953
30
0
41
1
10
108.526986060579
20
10.3650455098438
30
0
41
1
10
108.710845775539
20
9.56513079533073
30
0
41
1
10
108.80277563302
20
9.1162614349266
30
0
41
1
10
108.98663534798
20
8.13769171654494
30
0
41
1
10
109.078565205461
20
7.60808748139121
30
0
41
1
10
109.262424920421
20
6.49182090776353
30
0
41
1
10
109.354354777902
20
5.90528384844515
30
0
41
1
10
109.538214492862
20
4.70218272596244
30
0
41
1
10
109.630144350343
20
4.08573726311431
30
0
41
1
10
109.722074207823
20
3.46752445730678
30
0
0
SPLINE
5
D8
100
AcDbEntity
8
1
62
256
6
ByLayer
370
13
48
1
60
0
100
AcDbSpline
70
4
71
3
72
87
73
83
40
0
40
0
40
0
40
0
40
0.03125
40
0.03125
40
0.0625
40
0.0625
40
0.078125
40
0.078125
40
0.0859375
40
0.0859375
40
0.08984375
40
0.08984375
40
0.09375
40
0.09375
40
0.125
40
0.125
40
0.15625
40
0.15625
40
0.1875
40
0.1875
40
0.21875
40
0.21875
40
0.25
40
0.25
40
0.28125
40
0.28125
40
0.3125
40
0.3125
40
0.34375
40
0.34375
40
0.375
40
0.375
40
0.390625
40
0.390625
40
0.39453125
40
0.39453125
40
0.3984375
40
0.40625
40
0.40625
40
0.4375
40
0.4375
40
0.46875
40
0.46875
40
0.5
40
0.5
40
0.53125
40
0.53125
40
0.5625
40
0.5625
40
0.59375
40
0.59375
40
0.625
40
0.625
40
0.65625
40
0.65625
40
0.6875
40
0.6875
40
0.6953125
40
0.6953125
40
0.69921875
40
0.69921875
40
0.703125
40
0.703125
40
0.71875
40
0.71875
40
0.75
40
0.75
40
0.78125
40
0.78125
40
0.8125
40
0.8125
40
0.84375
40
0.84375
40
0.875
40
0.875
40
0.90625
40
0.90625
40
0.9375
40
0.9375
40
0.96875
40
0.96875
40
1
40
1
40
1
40
1
41
1
10
98.7999999999999
20
5.26243726312256
30
0
41
1
10
98.8935962484038
20
4.64929235489421
30
0
41
1
10
98.9871924968078
20
4.02103558837663
30
0
41
1
10
99.1743849936155
20
2.76192716470905
30
0
41
1
10
99.2679812420194
20
2.13116505987026
30
0
41
1
10
99.4083756146253
20
1.20095219738505
30
0
41
1
10
99.4551737388272
20
0.893496329189787
30
0
41
1
10
99.5253709251301
20
0.438048891706472
30
0
41
1
10
99.5487699872311
20
0.287186106896087
30
0
41
1
10
99.5838685803825
20
0.0625203620494972
30
0
41
1
10
99.595568111433
20
-0.0119147669918505
30
0
41
1
10
99.6189671735339
20
-0.161445227835514
30
0
41
1
10
99.6306667045845
20
-0.236485215668296
30
0
41
1
10
99.7359624840388
20
-0.914173881774531
30
0
41
1
10
99.8295587324428
20
-1.53337839701567
30
0
41
1
10
100.016751229251
20
-2.78548886459461
30
0
41
1
10
100.110347477654
20
-3.41833867493989
30
0
41
1
10
100.297539974462
20
-4.67229800852391
30
0
41
1
10
100.391136222866
20
-5.29330184783683
30
0
41
1
10
100.578328719674
20
-6.49506982777021
30
0
41
1
10
100.671924968078
20
-7.07569772382595
30
0
41
1
10
100.859117464886
20
-8.16888055866801
30
0
41
1
10
100.952713713289
20
-8.68130527186426
30
0
41
1
10
101.139906210097
20
-9.61506505769003
30
0
41
1
10
101.233502458501
20
-10.0363151602882
30
0
41
1
10
101.420694955309
20
-10.7728980103259
30
0
41
1
10
101.514291203713
20
-11.0882138575883
30
0
41
1
10
101.70148370052
20
-11.6078824790392
30
0
41
1
10
101.795079948924
20
-11.8122828297664
30
0
41
1
10
101.982272445732
20
-12.1143577432545
30
0
41
1
10
102.075868694136
20
-12.2121197522081
30
0
41
1
10
102.216263066742
20
-12.2872583104214
30
0
41
1
10
102.263061190944
20
-12.3004339748017
30
0
41
1
10
102.321558846196
20
-12.3032158411691
30
0
41
1
10
102.333258377247
20
-12.3030927252013
30
0
41
1
10
102.356657439348
20
-12.3014792804842
30
0
41
1
10
102.391756032499
20
-12.2969994393946
30
0
41
1
10
102.426854625651
20
-12.28620469202
30
0
41
1
10
102.543849936155
20
-12.2356162507605
30
0
41
1
10
102.637446184559
20
-12.1482027091815
30
0
41
1
10
102.824638681367
20
-11.8677105448789
30
0
41
1
10
102.918234929771
20
-11.6745421703752
30
0
41
1
10
103.105427426579
20
-11.1773810468089
30
0
41
1
10
103.199023674983
20
-10.8733352849198
30
0
41
1
10
103.38621617179
20
-10.1583349633185
30
0
41
1
10
103.479812420194
20
-9.74739010534097
30
0
41
1
10
103.667004917002
20
-8.83231953116911
30
0
41
1
10
103.760601165406
20
-8.32827246123401
30
0
41
1
10
103.947793662214
20
-7.2492112351317
30
0
41
1
10
104.041389910618
20
-6.6743243465634
30
0
41
1
10
104.228582407426
20
-5.48109136977337
30
0
41
1
10
104.322178655829
20
-4.86288278765693
30
0
41
1
10
104.509371152637
20
-3.61167942505307
30
0
41
1
10
104.602967401041
20
-2.97879468374717
30
0
41
1
10
104.790159897849
20
-1.72422792571754
30
0
41
1
10
104.883756146253
20
-1.10260735805787
30
0
41
1
10
105.000751456757
20
-0.345502297225181
30
0
41
1
10
105.024150518858
20
-0.195062425706311
30
0
41
1
10
105.05924911201
20
0.0289306266016354
30
0
41
1
10
105.07094864306
20
0.103490344505843
30
0
41
1
10
105.094347705161
20
0.25346457873917
30
0
41
1
10
105.106047236212
20
0.32872000774563
30
0
41
1
10
105.164544891464
20
0.706257084258567
30
0
41
1
10
105.211343015666
20
1.01233395449947
30
0
41
1
10
105.351737388272
20
1.93919865082822
30
0
41
1
10
105.445333636676
20
2.56878677337465
30
0
41
1
10
105.632526133484
20
3.82820353177021
30
0
41
1
10
105.726122381888
20
4.45794767171421
30
0
41
1
10
105.913314878695
20
5.69015253607876
30
0
41
1
10
106.006911127099
20
6.29248704111012
30
0
41
1
10
106.194103623907
20
7.44122622374033
30
0
41
1
10
106.287699872311
20
7.98749282035931
30
0
41
1
10
106.474892369119
20
8.99842516665774
30
0
41
1
10
106.568488617523
20
9.46298143339655
30
0
41
1
10
106.75568111433
20
10.2916692444273
30
0
41
1
10
106.849277362734
20
10.6557521495387
30
0
41
1
10
107.036469859542
20
11.2739956444927
30
0
41
1
10
107.130066107946
20
11.5281769448611
30
0
41
1
10
107.317258604754
20
11.9268715299208
30
0
41
1
10
107.410854853158
20
12.0714581747708
30
0
41
1
10
107.598047349965
20
12.2594743882433
30
0
41
1
10
107.691643598369
20
12.303
30
0
41
1
10
107.785239846773
20
12.303
30
0
0
SPLINE
5
D9
100
AcDbEntity
8
1
62
256
6
ByLayer
370
13
48
1
60
0
100
AcDbSpline
70
4
71
3
72
38
73
34
40
0
40
0
40
0
40
0
40
0.0625
40
0.0625
40
0.125
40
0.125
40
0.1875
40
0.1875
40
0.25
40
0.25
40
0.3125
40
0.3125
40
0.375
40
0.375
40
0.4375
40
0.4375
40
0.5
40
0.5
40
0.5625
40
0.5625
40
0.625
40
0.625
40
0.6875
40
0.6875
40
0.75
40
0.75
40
0.8125
40
0.8125
40
0.875
40
0.875
40
0.9375
40
0.9375
40
1
40
1
40
1
40
1
41
1
10
107.031548901507
20
12.303
30
0
41
1
10
107.087601512055
20
12.303
30
0
41
1
10
107.143654122603
20
12.287428377782
30
0
41
1
10
107.2557593437
20
12.2219794198799
30
0
41
1
10
107.311811954248
20
12.1720945722135
30
0
41
1
10
107.423917175344
20
12.0354059431639
30
0
41
1
10
107.479969785893
20
11.9485948466169
30
0
41
1
10
107.592075006989
20
11.7362290661877
30
0
41
1
10
107.648127617537
20
11.6106681018937
30
0
41
1
10
107.760232838634
20
11.3199738196824
30
0
41
1
10
107.816285449182
20
11.154836140917
30
0
41
1
10
107.928390670279
20
10.7853186016128
30
0
41
1
10
107.984443280827
20
10.5809370748653
30
0
41
1
10
108.096548501923
20
10.1345141899951
30
0
41
1
10
108.152601112472
20
9.8924743565556
30
0
41
1
10
108.264706333568
20
9.3735730977015
30
0
41
1
10
108.320758944117
20
9.09671646979317
30
0
41
1
10
108.432864165213
20
8.51218078760647
30
0
41
1
10
108.488916775761
20
8.20450941439128
30
0
41
1
10
108.601021996858
20
7.56331518049461
30
0
41
1
10
108.657074607406
20
7.22980207135689
30
0
41
1
10
108.769179828503
20
6.54260205900118
30
0
41
1
10
108.825232439051
20
6.18892588595293
30
0
41
1
10
108.937337660147
20
5.46747252813074
30
0
41
1
10
108.993390270696
20
5.09970588552531
30
0
41
1
10
109.105495491792
20
4.35621585009872
30
0
41
1
10
109.16154810234
20
3.9805017765463
30
0
41
1
10
109.273653323437
20
3.22703086748245
30
0
41
1
10
109.329705933985
20
2.84928138131255
30
0
41
1
10
109.441811155082
20
2.09717073679195
30
0
41
1
10
109.49786376563
20
1.7228145733219
30
0
41
1
10
109.609968986726
20
0.982252448909662
30
0
41
1
10
109.666021597275
20
0.616049096911098
30
0
41
1
10
109.722074207823
20
0.255910237823144
30
0
0
SPLINE
5
DA
100
AcDbEntity
8
1
62
256
6
ByLayer
370
13
48
1
60
0
100
AcDbSpline
70
4
71
3
72
87
73
83
40
0
40
0
40
0
40
0
40
0.0312500000000005
40
0.0312500000000005
40
0.0351562500000006
40
0.0351562500000006
40
0.0390625000000007
40
0.0390625000000007
40
0.0468750000000008
40
0.0468750000000008
40
0.0625000000000011
40
0.0625000000000011
40
0.0937500000000016
40
0.0937500000000016
40
0.125000000000002
40
0.125000000000002
40
0.156250000000003
40
0.156250000000003
40
0.187500000000003
40
0.187500000000003
40
0.218750000000004
40
0.218750000000004
40
0.250000000000004
40
0.250000000000004
40
0.281250000000005
40
0.281250000000005
40
0.312500000000005
40
0.312500000000005
40
0.343750000000006
40
0.343750000000006
40
0.351562500000006
40
0.355468750000006
40
0.355468750000006
40
0.359375000000006
40
0.359375000000006
40
0.375000000000006
40
0.375000000000006
40
0.406250000000006
40
0.406250000000006
40
0.437500000000006
40
0.437500000000006
40
0.468750000000006
40
0.468750000000006
40
0.500000000000007
40
0.500000000000007
40
0.531250000000007
40
0.531250000000007
40
0.562500000000007
40
0.562500000000007
40
0.593750000000007
40
0.593750000000007
40
0.625000000000007
40
0.625000000000007
40
0.656250000000007
40
0.656250000000007
40
0.671875000000007
40
0.671875000000007
40
0.675781250000007
40
0.675781250000007
40
0.679687500000007
40
0.679687500000007
40
0.687500000000007
40
0.687500000000007
40
0.718750000000006
40
0.718750000000006
40
0.750000000000006
40
0.750000000000006
40
0.781250000000005
40
0.781250000000005
40
0.812500000000004
40
0.812500000000004
40
0.843750000000004
40
0.843750000000004
40
0.875000000000003
40
0.875000000000003
40
0.906250000000002
40
0.906250000000002
40
0.937500000000001
40
0.937500000000001
40
0.968750000000001
40
0.968750000000001
40
1
40
1
40
1
40
1
41
1
10
98.7999999999999
20
2.02579156451665
30
0
41
1
10
98.8885524074998
20
1.43441791327575
30
0
41
1
10
98.9771048149996
20
0.849877725531627
30
0
41
1
10
99.0767262734369
20
0.209322422109608
30
0
41
1
10
99.0877953243745
20
0.138383247945228
30
0
41
1
10
99.1099334262495
20
-0.0030008662302805
30
0
41
1
10
99.1210024771868
20
-0.0734600171813895
30
0
41
1
10
99.1542096299992
20
-0.286066030876668
30
0
41
1
10
99.1763477318742
20
-0.428773300254932
30
0
41
1
10
99.2427620374991
20
-0.85946837980481
30
0
41
1
10
99.2870382412491
20
-1.15003921245324
30
0
41
1
10
99.4198668524989
20
-2.02902476867703
30
0
41
1
10
99.5084192599987
20
-2.62484389723005
30
0
41
1
10
99.6855240749984
20
-3.81638390511063
30
0
41
1
10
99.7740764824982
20
-4.41204025174036
30
0
41
1
10
99.9511812974979
20
-5.57998896994445
30
0
41
1
10
100.039733704998
20
-6.15218651870308
30
0
41
1
10
100.216838519997
20
-7.24892684939348
30
0
41
1
10
100.305390927497
20
-7.7733643590621
30
0
41
1
10
100.482495742497
20
-8.75235887929716
30
0
41
1
10
100.571048149997
20
-9.20682762462741
30
0
41
1
10
100.748152964997
20
-10.0287357979644
30
0
41
1
10
100.836705372496
20
-10.3961276900844
30
0
41
1
10
101.013810187496
20
-11.0339295443169
30
0
41
1
10
101.102362594996
20
-11.3043422454204
30
0
41
1
10
101.279467409996
20
-11.7461216021248
30
0
41
1
10
101.368019817495
20
-11.9175337505266
30
0
41
1
10
101.545124632495
20
-12.1663691871852
30
0
41
1
10
101.633677039995
20
-12.2438618736062
30
0
41
1
10
101.74436754937
20
-12.2884696584938
30
0
41
1
10
101.777574702182
20
-12.2979474893277
30
0
41
1
10
101.810781854995
20
-12.3017880705792
30
0
41
1
10
101.83291995687
20
-12.3031213516128
30
0
41
1
10
101.843989007807
20
-12.3031772974499
30
0
41
1
10
101.899334262494
20
-12.3004124803134
30
0
41
1
10
101.943610466244
20
-12.28839526542
30
0
41
1
10
102.076439077494
20
-12.2205828709973
30
0
41
1
10
102.164991484994
20
-12.1328808032178
30
0
41
1
10
102.342096299994
20
-11.8627428143808
30
0
41
1
10
102.430648707493
20
-11.6802391209362
30
0
41
1
10
102.607753522493
20
-11.2161190724906
30
0
41
1
10
102.696305929993
20
-10.9344612552624
30
0
41
1
10
102.873410744993
20
-10.2748893019088
30
0
41
1
10
102.961963152492
20
-9.89697804508558
30
0
41
1
10
103.139067967492
20
-9.05563150771641
30
0
41
1
10
103.227620374992
20
-8.5922491878371
30
0
41
1
10
103.404725189992
20
-7.59773743290023
30
0
41
1
10
103.493277597491
20
-7.06669956395012
30
0
41
1
10
103.670382412491
20
-5.95946935910015
30
0
41
1
10
103.758934819991
20
-5.3833824363372
30
0
41
1
10
103.936039634991
20
-4.21040375408424
30
0
41
1
10
104.02459204249
20
-3.61360415263033
30
0
41
1
10
104.20169685749
20
-2.4222418674569
30
0
41
1
10
104.29024926499
20
-1.82773961188772
30
0
41
1
10
104.42307787624
20
-0.952202789052649
30
0
41
1
10
104.46735407999
20
-0.663025843467466
30
0
41
1
10
104.522699334677
20
-0.306116446930275
30
0
41
1
10
104.533768385615
20
-0.234961882417878
30
0
41
1
10
104.55590648749
20
-0.0931349137338202
30
0
41
1
10
104.566975538427
20
-0.0226128960429151
30
0
41
1
10
104.600182691239
20
0.189325484737594
30
0
41
1
10
104.622320793114
20
0.331611708113314
30
0
41
1
10
104.733011302489
20
1.04746323073516
30
0
41
1
10
104.821563709989
20
1.63448176713445
30
0
41
1
10
104.998668524989
20
2.8199898602945
30
0
41
1
10
105.087220932489
20
3.41843544285132
30
0
41
1
10
105.264325747488
20
4.60521877854217
30
0
41
1
10
105.352878154988
20
5.19347693601372
30
0
41
1
10
105.529982969988
20
6.33581246544111
30
0
41
1
10
105.618535377488
20
6.88978726478493
30
0
41
1
10
105.795640192487
20
7.93978443047126
30
0
41
1
10
105.884192599987
20
8.43570560632526
30
0
41
1
10
106.061297414987
20
9.34928443013013
30
0
41
1
10
106.149849822487
20
9.76686960348849
30
0
41
1
10
106.326954637486
20
10.5096336953108
30
0
41
1
10
106.415507044986
20
10.8347872425579
30
0
41
1
10
106.592611859986
20
11.3862388951247
30
0
41
1
10
106.681164267486
20
11.6125605001942
30
0
41
1
10
106.858269082485
20
11.9676107084423
30
0
41
1
10
106.946821489985
20
12.0963980530516
30
0
41
1
10
107.123926304985
20
12.26405610808
30
0
41
1
10
107.212478712485
20
12.303
30
0
41
1
10
107.301031119985
20
12.303
30
0
0
SPLINE
5
DB
100
AcDbEntity
8
1
62
256
6
ByLayer
370
13
48
1
60
0
100
AcDbSpline
70
4
71
3
72
42
73
38
40
0
40
0
40
0
40
0
40
0.0625000000000004
40
0.0625000000000004
40
0.125000000000001
40
0.125000000000001
40
0.187500000000001
40
0.187500000000001
40
0.250000000000002
40
0.250000000000002
40
0.312500000000002
40
0.312500000000002
40
0.375000000000003
40
0.375000000000003
40
0.437500000000003
40
0.437500000000003
40
0.500000000000003
40
0.500000000000003
40
0.562500000000004
40
0.562500000000004
40
0.625000000000004
40
0.625000000000004
40
0.687500000000005
40
0.687500000000005
40
0.750000000000005
40
0.750000000000005
40
0.812500000000006
40
0.812500000000006
40
0.843750000000006
40
0.843750000000006
40
0.859375000000006
40
0.859375000000006
40
0.875000000000005
40
0.875000000000005
40
0.937500000000003
40
0.937500000000003
40
1
40
1
40
1
40
1
41
1
10
106.547340174718
20
12.303
30
0
41
1
10
106.613480467074
20
12.303
30
0
41
1
10
106.679620759431
20
12.2813081679948
30
0
41
1
10
106.811901344144
20
12.1894171265624
30
0
41
1
10
106.8780416365
20
12.1192007180065
30
0
41
1
10
107.010322221213
20
11.9262749734127
30
0
41
1
10
107.076462513569
20
11.8035495607953
30
0
41
1
10
107.208743098282
20
11.5032991923037
30
0
41
1
10
107.274883390638
20
11.3257620332524
30
0
41
1
10
107.407163975351
20
10.9156956633666
30
0
41
1
10
107.473304267707
20
10.6831607915623
30
0
41
1
10
107.60558485242
20
10.1652985267152
30
0
41
1
10
107.671725144776
20
9.87997387007869
30
0
41
1
10
107.804005729489
20
9.26117354014426
30
0
41
1
10
107.870146021845
20
8.92770939574928
30
0
41
1
10
108.002426606558
20
8.21949947241333
30
0
41
1
10
108.068566898914
20
7.84477266656046
30
0
41
1
10
108.200847483627
20
7.06267022154805
30
0
41
1
10
108.266987775983
20
6.65531815222064
30
0
41
1
10
108.399268360696
20
5.81771099474949
30
0
41
1
10
108.465408653052
20
5.38748044165035
30
0
41
1
10
108.597689237765
20
4.51423910441284
30
0
41
1
10
108.663829530121
20
4.07125032461022
30
0
41
1
10
108.796110114834
20
3.18228113196716
30
0
41
1
10
108.86225040719
20
2.73631761701654
30
0
41
1
10
108.994530991903
20
1.85026092368471
30
0
41
1
10
109.060671284259
20
1.41017828647304
30
0
41
1
10
109.159881722794
20
0.760097214604855
30
0
41
1
10
109.192951868972
20
0.545065908186842
30
0
41
1
10
109.242557088239
20
0.225607745867933
30
0
41
1
10
109.259092161328
20
0.119635717283046
30
0
41
1
10
109.292162307507
20
-0.0911904452148349
30
0
41
1
10
109.308697380596
20
-0.196971408413845
30
0
41
1
10
109.391372746041
20
-0.728937567234169
30
0
41
1
10
109.457513038397
20
-1.16286293785555
30
0
41
1
10
109.58979362311
20
-2.04071341508802
30
0
41
1
10
109.655933915467
20
-2.48463135366868
30
0
41
1
10
109.722074207823
20
-2.92945549000581
30
0
0
SPLINE
5
DC
100
AcDbEntity
8
1
62
256
6
ByLayer
370
13
48
1
60
0
100
AcDbSpline
70
4
71
3
72
81
73
77
40
0
40
0
40
0
40
0
40
0.0312499999999999
40
0.0312499999999999
40
0.0624999999999998
40
0.0624999999999998
40
0.0937499999999996
40
0.0937499999999996
40
0.125
40
0.125
40
0.156249999999999
40
0.156249999999999
40
0.187499999999999
40
0.187499999999999
40
0.218749999999999
40
0.218749999999999
40
0.249999999999999
40
0.249999999999999
40
0.281249999999999
40
0.281249999999999
40
0.312499999999999
40
0.312499999999999
40
0.316406249999999
40
0.316406249999999
40
0.320312499999999
40
0.320312499999999
40
0.328124999999999
40
0.328124999999999
40
0.343749999999998
40
0.343749999999998
40
0.374999999999999
40
0.374999999999999
40
0.406249999999999
40
0.406249999999999
40
0.437499999999999
40
0.437499999999999
40
0.468749999999999
40
0.468749999999999
40
0.499999999999999
40
0.499999999999999
40
0.531249999999999
40
0.531249999999999
40
0.562499999999999
40
0.562499999999999
40
0.593749999999999
40
0.593749999999999
40
0.624999999999999
40
0.624999999999999
40
0.656249999999999
40
0.656249999999999
40
0.660156249999999
40
0.660156249999999
40
0.664062499999999
40
0.671874999999999
40
0.671874999999999
40
0.687499999999999
40
0.687499999999999
40
0.718749999999999
40
0.718749999999999
40
0.749999999999999
40
0.749999999999999
40
0.781249999999999
40
0.781249999999999
40
0.8125
40
0.8125
40
0.84375
40
0.84375
40
0.875
40
0.875
40
0.90625
40
0.90625
40
0.9375
40
0.9375
40
0.96875
40
0.96875
40
1
40
1
40
1
40
1
41
1
10
98.7999999999999
20
-1.13227306075973
30
0
41
1
10
98.8835085665957
20
-1.68140512736022
30
0
41
1
10
98.9670171331916
20
-2.24061340280474
30
0
41
1
10
99.1340342663832
20
-3.36336911026879
30
0
41
1
10
99.217542832979
20
-3.92687477250186
30
0
41
1
10
99.3845599661706
20
-5.03931344678927
30
0
41
1
10
99.4680685327664
20
-5.58818113310608
30
0
41
1
10
99.6350856659579
20
-6.65098887065904
30
0
41
1
10
99.7185942325538
20
-7.16485082612184
30
0
41
1
10
99.8856113657453
20
-8.13805043865176
30
0
41
1
10
99.9691199323412
20
-8.5973145135346
30
0
41
1
10
100.136137065533
20
-9.44482627481247
30
0
41
1
10
100.219645632128
20
-9.833022741684
30
0
41
1
10
100.38666276532
20
-10.5269499591406
30
0
41
1
10
100.470171331916
20
-10.8326632142575
30
0
41
1
10
100.637188465107
20
-11.3562831537871
30
0
41
1
10
100.720697031703
20
-11.5742067841628
30
0
41
1
10
100.887714164895
20
-11.9230155516071
30
0
41
1
10
100.971222731491
20
-12.0539431054211
30
0
41
1
10
101.138239864682
20
-12.2347042768832
30
0
41
1
10
101.221748431278
20
-12.2845920196203
30
0
41
1
10
101.315695568698
20
-12.300510419772
30
0
41
1
10
101.326134139523
20
-12.301722438752
30
0
41
1
10
101.347011281172
20
-12.3030543451607
30
0
41
1
10
101.357449851996
20
-12.3031762267481
30
0
41
1
10
101.388765564469
20
-12.3019205006942
30
0
41
1
10
101.409642706119
20
-12.2989086265733
30
0
41
1
10
101.472274131065
20
-12.2830953946181
30
0
41
1
10
101.514028414363
20
-12.2635112413678
30
0
41
1
10
101.639291264257
20
-12.1757662026141
30
0
41
1
10
101.722799830853
20
-12.0784883092888
30
0
41
1
10
101.889816964044
20
-11.7988432307113
30
0
41
1
10
101.97332553064
20
-11.6164271822548
30
0
41
1
10
102.140342663832
20
-11.1634553748691
30
0
41
1
10
102.223851230427
20
-10.8928709124415
30
0
41
1
10
102.390868363619
20
-10.2663167431599
30
0
41
1
10
102.474376930215
20
-9.91035010296298
30
0
41
1
10
102.641394063406
20
-9.12201513609028
30
0
41
1
10
102.724902630002
20
-8.689685234336
30
0
41
1
10
102.891919763194
20
-7.76321782022552
30
0
41
1
10
102.97542832979
20
-7.26914679701525
30
0
41
1
10
103.142445462981
20
-6.23778923781774
30
0
41
1
10
103.225954029577
20
-5.70058125266615
30
0
41
1
10
103.392971162769
20
-4.60329643450149
30
0
41
1
10
103.476479729364
20
-4.04329183620578
30
0
41
1
10
103.643496862556
20
-2.92018324976218
30
0
41
1
10
103.727005429152
20
-2.35713127884338
30
0
41
1
10
103.894022562343
20
-1.24520918621286
30
0
41
1
10
103.977531128939
20
-0.696365203003069
30
0
41
1
10
104.07147826636
20
-0.0945468355163257
30
0
41
1
10
104.081916837184
20
-0.0280153141958976
30
0
41
1
10
104.102793978833
20
0.105187295877783
30
0
41
1
10
104.134109691306
20
0.305655057848924
30
0
41
1
10
104.16542540378
20
0.508015137691785
30
0
41
1
10
104.228056828727
20
0.914971433012198
30
0
41
1
10
104.269811112024
20
1.18926483075728
30
0
41
1
10
104.395073961918
20
2.01853391805864
30
0
41
1
10
104.478582528514
20
2.58000299855584
30
0
41
1
10
104.645599661706
20
3.70367126543121
30
0
41
1
10
104.729108228301
20
4.26582348069414
30
0
41
1
10
104.896125361493
20
5.37150132411335
30
0
41
1
10
104.979633928089
20
5.91495791495169
30
0
41
1
10
105.14665106128
20
6.96285299072289
30
0
41
1
10
105.230159627876
20
7.467212775614
30
0
41
1
10
105.397176761068
20
8.41775988784119
30
0
41
1
10
105.480685327663
20
8.86387682032313
30
0
41
1
10
105.647702460855
20
9.68232989017682
30
0
41
1
10
105.731211027451
20
10.0546210086489
30
0
41
1
10
105.898228160642
20
10.7151530367796
30
0
41
1
10
105.981736727238
20
11.0033836990699
30
0
41
1
10
106.14875386043
20
11.4917199520232
30
0
41
1
10
106.232262427026
20
11.6918485885081
30
0
41
1
10
106.399279560217
20
12.0058925416573
30
0
41
1
10
106.482788126813
20
12.1198537925749
30
0
41
1
10
106.649805260005
20
12.2683801177545
30
0
41
1
10
106.7333138266
20
12.303
30
0
41
1
10
106.816822393196
20
12.303
30
0
0
SPLINE
5
DD
100
AcDbEntity
8
1
62
256
6
ByLayer
370
13
48
1
60
0
100
AcDbSpline
70
4
71
3
72
43
73
39
40
0
40
0
40
0
40
0
40
0.0625000000000006
40
0.0625000000000006
40
0.125000000000001
40
0.125000000000001
40
0.187500000000002
40
0.187500000000002
40
0.250000000000002
40
0.250000000000002
40
0.312500000000003
40
0.312500000000003
40
0.375000000000004
40
0.375000000000004
40
0.437500000000004
40
0.437500000000004
40
0.500000000000005
40
0.500000000000005
40
0.562500000000006
40
0.562500000000006
40
0.625000000000006
40
0.625000000000006
40
0.687500000000007
40
0.687500000000007
40
0.718750000000007
40
0.718750000000007
40
0.734375000000008
40
0.742187500000008
40
0.742187500000008
40
0.750000000000008
40
0.750000000000008
40
0.812500000000006
40
0.812500000000006
40
0.875000000000004
40
0.875000000000004
40
0.937500000000002
40
0.937500000000002
40
1
40
1
40
1
40
1
41
1
10
106.06313144793
20
12.303
30
0
41
1
10
106.139359422094
20
12.303
30
0
41
1
10
106.215587396259
20
12.2741687203855
30
0
41
1
10
106.368043344588
20
12.1511153015231
30
0
41
1
10
106.444271318752
20
12.0568582805008
30
0
41
1
10
106.596727267081
20
11.7973623768173
30
0
41
1
10
106.672955241245
20
11.6320926835348
30
0
41
1
10
106.825411189574
20
11.2281950029402
30
0
41
1
10
106.901639163739
20
10.9895477565099
30
0
41
1
10
107.054095112068
20
10.4405134112216
30
0
41
1
10
107.130323086232
20
10.1301249701848
30
0
41
1
10
107.282779034561
20
9.44355289232701
30
0
41
1
10
107.359007008725
20
9.06738854039355
30
0
41
1
10
107.511462957054
20
8.25927223534185
30
0
41
1
10
107.587690931219
20
7.82735767943757
30
0
41
1
10
107.740146879547
20
6.92094619579132
30
0
41
1
10
107.816374853712
20
6.44649745112437
30
0
41
1
10
107.968830802041
20
5.47010450240913
30
0
41
1
10
108.045058776205
20
4.96820951410018
30
0
41
1
10
108.197514724534
20
3.95239299925439
30
0
41
1
10
108.273742698699
20
3.43851275742344
30
0
41
1
10
108.426198647027
20
2.41318648981735
30
0
41
1
10
108.502426621192
20
1.9017681592911
30
0
41
1
10
108.616768582438
20
1.14576609729323
30
0
41
1
10
108.654882569521
20
0.895601014967696
30
0
41
1
10
108.712053550144
20
0.524082098711716
30
0
41
1
10
108.740639040456
20
0.339252811398438
30
0
41
1
10
108.769224530767
20
0.15598321366835
30
0
41
1
10
108.788281524309
20
0.0341670569422661
30
0
41
1
10
108.797810021079
20
-0.0264587352569379
30
0
41
1
10
108.883566492014
20
-0.574492951472848
30
0
41
1
10
108.959794466178
20
-1.07340978298043
30
0
41
1
10
109.112250414507
20
-2.08475457167981
30
0
41
1
10
109.188478388672
20
-2.59716815385397
30
0
41
1
10
109.340934337001
20
-3.62284915523642
30
0
41
1
10
109.417162311165
20
-4.13608709347733
30
0
41
1
10
109.569618259494
20
-5.14879799347807
30
0
41
1
10
109.645846233658
20
-5.64822834271371
30
0
41
1
10
109.722074207823
20
-6.13303264969113
30
0
0
SPLINE
5
DE
100
AcDbEntity
8
1
62
256
6
ByLayer
370
13
48
1
60
0
100
AcDbSpline
70
4
71
3
72
80
73
76
40
0
40
0
40
0
40
0
40
0.0312499999999996
40
0.0312499999999996
40
0.0624999999999992
40
0.0624999999999992
40
0.0937499999999988
40
0.0937499999999988
40
0.124999999999998
40
0.124999999999998
40
0.156249999999998
40
0.156249999999998
40
0.187499999999998
40
0.187499999999998
40
0.218749999999997
40
0.218749999999997
40
0.249999999999997
40
0.249999999999997
40
0.265624999999997
40
0.265624999999997
40
0.273437499999997
40
0.273437499999997
40
0.277343749999997
40
0.277343749999997
40
0.281249999999997
40
0.281249999999997
40
0.312499999999996
40
0.312499999999996
40
0.343749999999996
40
0.343749999999996
40
0.374999999999996
40
0.374999999999996
40
0.406249999999996
40
0.406249999999996
40
0.437499999999996
40
0.437499999999996
40
0.468749999999996
40
0.468749999999996
40
0.499999999999996
40
0.499999999999996
40
0.531249999999995
40
0.531249999999995
40
0.562499999999995
40
0.562499999999995
40
0.593749999999995
40
0.593749999999995
40
0.624999999999995
40
0.624999999999995
40
0.632812499999995
40
0.632812499999995
40
0.640624999999995
40
0.640624999999995
40
0.656249999999996
40
0.656249999999996
40
0.687499999999996
40
0.687499999999996
40
0.718749999999996
40
0.718749999999996
40
0.749999999999997
40
0.749999999999997
40
0.781249999999997
40
0.781249999999997
40
0.812499999999998
40
0.812499999999998
40
0.843749999999998
40
0.843749999999998
40
0.874999999999998
40
0.874999999999998
40
0.906249999999999
40
0.906249999999999
40
0.937499999999999
40
0.937499999999999
40
0.968749999999999
40
0.968749999999999
40
1
40
1
40
1
40
1
41
1
10
98.7999999999999
20
-4.37081435324055
30
0
41
1
10
98.8784647256917
20
-4.89432844268572
30
0
41
1
10
98.9569294513835
20
-5.41194274673066
30
0
41
1
10
99.113858902767
20
-6.41862848314332
30
0
41
1
10
99.1923236284587
20
-6.90764320730196
30
0
41
1
10
99.3492530798422
20
-7.84065173921294
30
0
41
1
10
99.4277178055339
20
-8.28458990044723
30
0
41
1
10
99.5846472569175
20
-9.11305680681158
30
0
41
1
10
99.6631119826092
20
-9.49754287665687
30
0
41
1
10
99.8200414339927
20
-10.1963267145678
30
0
41
1
10
99.8985061596844
20
-10.5106035848344
30
0
41
1
10
100.055435611068
20
-11.0627827150555
30
0
41
1
10
100.13390033676
20
-11.3006885429999
30
0
41
1
10
100.290829788143
20
-11.698795708778
30
0
41
1
10
100.369294513835
20
-11.8590212799792
30
0
41
1
10
100.526223965218
20
-12.1048572609179
30
0
41
1
10
100.60468869091
20
-12.1905044738427
30
0
41
1
10
100.722385779448
20
-12.2679332001174
30
0
41
1
10
100.761618142294
20
-12.2852591858929
30
0
41
1
10
100.820466686562
20
-12.2993032302378
30
0
41
1
10
100.840082867985
20
-12.3019947450345
30
0
41
1
10
100.86950714012
20
-12.3031525483089
30
0
41
1
10
100.879315230831
20
-12.3030612074982
30
0
41
1
10
100.898931412254
20
-12.301918858756
30
0
41
1
10
100.908739502966
20
-12.3008660970725
30
0
41
1
10
100.997012319369
20
-12.2869774772581
30
0
41
1
10
101.075477045061
20
-12.24316177034
30
0
41
1
10
101.232406496444
20
-12.0845944773511
30
0
41
1
10
101.310871222136
20
-11.9698029696917
30
0
41
1
10
101.467800673519
20
-11.6639600945003
30
0
41
1
10
101.546265399211
20
-11.4728758322366
30
0
41
1
10
101.703194850595
20
-11.0129986681678
30
0
41
1
10
101.781659576286
20
-10.7441889789803
30
0
41
1
10
101.93858902767
20
-10.1320672947388
30
0
41
1
10
102.017053753362
20
-9.78876137661658
30
0
41
1
10
102.173983204745
20
-9.03569158177845
30
0
41
1
10
102.252447930437
20
-8.62595799876635
30
0
41
1
10
102.40937738182
20
-7.75236851647182
30
0
41
1
10
102.487842107512
20
-7.28856178804048
30
0
41
1
10
102.644771558896
20
-6.32223396397279
30
0
41
1
10
102.723236284587
20
-5.81977039996252
30
0
41
1
10
102.880165735971
20
-4.79296434256199
30
0
41
1
10
102.958630461663
20
-4.26867576063708
30
0
41
1
10
103.115559913046
20
-3.21476506405375
30
0
41
1
10
103.194024638738
20
-2.68518379189894
30
0
41
1
10
103.350954090121
20
-1.63548894578321
30
0
41
1
10
103.429418815813
20
-1.11539861679739
30
0
41
1
10
103.527499722928
20
-0.478754981107869
30
0
41
1
10
103.547115904351
20
-0.352092343801814
30
0
41
1
10
103.586348267197
20
-0.10025721291484
30
0
41
1
10
103.60596444862
20
0.0244099077862074
30
0
41
1
10
103.664812992888
20
0.401251730948246
30
0
41
1
10
103.704045355734
20
0.655526829587899
30
0
41
1
10
103.821742444272
20
1.42555413897864
30
0
41
1
10
103.900207169963
20
1.94859823799797
30
0
41
1
10
104.057136621347
20
3.00144819998258
30
0
41
1
10
104.135601347039
20
3.53122720034966
30
0
41
1
10
104.292530798422
20
4.58233698671958
30
0
41
1
10
104.370995524114
20
5.10362378825681
30
0
41
1
10
104.527924975498
20
6.1210403471085
30
0
41
1
10
104.606389701189
20
6.61711458650632
30
0
41
1
10
104.763319152573
20
7.56741791004015
30
0
41
1
10
104.841783878264
20
8.02159015856358
30
0
41
1
10
104.998713329648
20
8.87315066825244
30
0
41
1
10
105.07717805534
20
9.27049280676837
30
0
41
1
10
105.234107506723
20
9.99679448137741
30
0
41
1
10
105.312572232415
20
10.3257283398559
30
0
41
1
10
105.469501683798
20
10.9080656676388
30
0
41
1
10
105.54796640949
20
11.161467937632
30
0
41
1
10
105.704895860874
20
11.5904575238448
30
0
41
1
10
105.783360586565
20
11.7660655051797
30
0
41
1
10
105.940290037949
20
12.0417371779155
30
0
41
1
10
106.018754763641
20
12.1418359052473
30
0
41
1
10
106.175684215024
20
12.2724471838573
30
0
41
1
10
106.254148940716
20
12.303
30
0
41
1
10
106.332613666408
20
12.303
30
0
0
SPLINE
5
DF
100
AcDbEntity
8
1
62
256
6
ByLayer
370
13
48
1
60
0
100
AcDbSpline
70
4
71
3
72
43
73
39
40
0
40
0
40
0
40
0
40
0.0624999999999991
40
0.0624999999999991
40
0.124999999999998
40
0.124999999999998
40
0.187499999999997
40
0.187499999999997
40
0.249999999999996
40
0.249999999999996
40
0.312499999999995
40
0.312499999999995
40
0.374999999999994
40
0.374999999999994
40
0.437499999999993
40
0.437499999999993
40
0.499999999999993
40
0.499999999999993
40
0.562499999999991
40
0.562499999999991
40
0.62499999999999
40
0.62499999999999
40
0.65624999999999
40
0.65624999999999
40
0.66406249999999
40
0.66406249999999
40
0.67187499999999
40
0.68749999999999
40
0.68749999999999
40
0.749999999999992
40
0.749999999999992
40
0.812499999999994
40
0.812499999999994
40
0.874999999999996
40
0.874999999999996
40
0.937499999999998
40
0.937499999999998
40
1
40
1
40
1
40
1
41
1
10
105.578922721141
20
12.303
30
0
41
1
10
105.665238377114
20
12.303
30
0
41
1
10
105.751554033087
20
12.2660053966432
30
0
41
1
10
105.924185345031
20
12.10698230999
30
0
41
1
10
106.010501001004
20
11.9848893067678
30
0
41
1
10
106.183132312949
20
11.6483492267445
30
0
41
1
10
106.269447968922
20
11.433849320622
30
0
41
1
10
106.442079280867
20
10.9108465383423
30
0
41
1
10
106.528394936839
20
10.6023200499797
30
0
41
1
10
106.701026248784
20
9.89649972839419
30
0
41
1
10
106.787341904757
20
9.49922368362496
30
0
41
1
10
106.959973216702
20
8.62814972847247
30
0
41
1
10
107.046288872674
20
8.1544110180437
30
0
41
1
10
107.21892018462
20
7.14849820201911
30
0
41
1
10
107.305235840592
20
6.61641083437192
30
0
41
1
10
107.477867152537
20
5.51547330844295
30
0
41
1
10
107.56418280851
20
4.94671501334872
30
0
41
1
10
107.736814120455
20
3.7949246238903
30
0
41
1
10
107.823129776427
20
3.21196797783182
30
0
41
1
10
107.995761088372
20
2.05249837058412
30
0
41
1
10
108.082076744345
20
1.47603157231435
30
0
41
1
10
108.211550228304
20
0.628975730844331
30
0
41
1
10
108.25470805629
20
0.349531948061809
30
0
41
1
10
108.308655341273
20
0.0049298624300036
30
0
41
1
10
108.319444798269
20
-0.0637338422375535
30
0
41
1
10
108.341023712262
20
-0.201839663775672
30
0
41
1
10
108.373392083252
20
-0.409690889265391
30
0
41
1
10
108.405760454242
20
-0.6195076690299
30
0
41
1
10
108.513655024207
20
-1.32272495511646
30
0
41
1
10
108.59997068018
20
-1.89771759489904
30
0
41
1
10
108.772601992125
20
-3.05592870950463
30
0
41
1
10
108.858917648098
20
-3.63910388237713
30
0
41
1
10
109.031548960043
20
-4.79328495839454
30
0
41
1
10
109.117864616015
20
-5.36421767203416
30
0
41
1
10
109.29049592796
20
-6.47152156018828
30
0
41
1
10
109.376811583933
20
-7.00780154844691
30
0
41
1
10
109.549442895878
20
-8.02393346556656
30
0
41
1
10
109.63575855185
20
-8.50369722881953
30
0
41
1
10
109.722074207823
20
-8.94596555392712
30
0
0
SPLINE
5
E0
100
AcDbEntity
8
1
62
256
6
ByLayer
370
13
48
1
60
0
100
AcDbSpline
70
4
71
3
72
80
73
76
40
0
40
0
40
0
40
0
40
0.0312500000000005
40
0.0312500000000005
40
0.0625000000000009
40
0.0625000000000009
40
0.0937500000000014
40
0.0937500000000014
40
0.125000000000002
40
0.125000000000002
40
0.156250000000002
40
0.156250000000002
40
0.187500000000003
40
0.187500000000003
40
0.218750000000003
40
0.218750000000003
40
0.222656250000003
40
0.222656250000003
40
0.226562500000003
40
0.226562500000003
40
0.234375000000003
40
0.234375000000003
40
0.250000000000003
40
0.250000000000003
40
0.281250000000003
40
0.281250000000003
40
0.312500000000003
40
0.312500000000003
40
0.343750000000003
40
0.343750000000003
40
0.375000000000003
40
0.375000000000003
40
0.406250000000003
40
0.406250000000003
40
0.437500000000003
40
0.437500000000003
40
0.468750000000002
40
0.468750000000002
40
0.500000000000002
40
0.500000000000002
40
0.531250000000002
40
0.531250000000002
40
0.562500000000002
40
0.562500000000002
40
0.593750000000002
40
0.593750000000002
40
0.609375000000002
40
0.609375000000002
40
0.617187500000002
40
0.617187500000002
40
0.625000000000001
40
0.625000000000001
40
0.656250000000001
40
0.656250000000001
40
0.687500000000001
40
0.687500000000001
40
0.718750000000001
40
0.718750000000001
40
0.750000000000001
40
0.750000000000001
40
0.781250000000001
40
0.781250000000001
40
0.812500000000001
40
0.812500000000001
40
0.843750000000001
40
0.843750000000001
40
0.875000000000001
40
0.875000000000001
40
0.90625
40
0.90625
40
0.9375
40
0.9375
40
0.96875
40
0.96875
40
1
40
1
40
1
40
1
41
1
10
98.7999999999999
20
-7.45371660083649
30
0
41
1
10
98.8734208847877
20
-7.88781411676851
30
0
41
1
10
98.9468417695753
20
-8.30177720116558
30
0
41
1
10
99.0936835391508
20
-9.07779301842578
30
0
41
1
10
99.1671044239385
20
-9.43981500487877
30
0
41
1
10
99.3139461935139
20
-10.1029893054773
30
0
41
1
10
99.3873670783016
20
-10.4041253745715
30
0
41
1
10
99.534208847877
20
-10.9400537634786
30
0
41
1
10
99.6076297326647
20
-11.1748463387453
30
0
41
1
10
99.7544715022401
20
-11.5763426733396
30
0
41
1
10
99.8278923870278
20
-11.7430612821461
30
0
41
1
10
99.9747341566033
20
-12.0101562476719
30
0
41
1
10
100.048155041391
20
-12.1105573074122
30
0
41
1
10
100.194996810966
20
-12.2496417790506
30
0
41
1
10
100.268417695754
20
-12.288353977261
30
0
41
1
10
100.35101619114
20
-12.3009452629134
30
0
41
1
10
100.360193801739
20
-12.3019152764716
30
0
41
1
10
100.378549022936
20
-12.303011742491
30
0
41
1
10
100.387726633534
20
-12.3031393545471
30
0
41
1
10
100.415259465329
20
-12.302270164744
30
0
41
1
10
100.433614686526
20
-12.3000124478798
30
0
41
1
10
100.488680350117
20
-12.2880314897508
30
0
41
1
10
100.525390792511
20
-12.2730974898177
30
0
41
1
10
100.635522119692
20
-12.2061638854183
30
0
41
1
10
100.70894300448
20
-12.1319636338238
30
0
41
1
10
100.855784774056
20
-11.9188822215937
30
0
41
1
10
100.929205658843
20
-11.7799739753311
30
0
41
1
10
101.076047428419
20
-11.4344347278544
30
0
41
1
10
101.149468313206
20
-11.2277841267033
30
0
41
1
10
101.296310082782
20
-10.7469824272454
30
0
41
1
10
101.36973096757
20
-10.472824610683
30
0
41
1
10
101.516572737145
20
-9.86090942961343
30
0
41
1
10
101.589993621933
20
-9.52316149817958
30
0
41
1
10
101.736835391508
20
-8.7916147442981
30
0
41
1
10
101.810256276296
20
-8.39784117111344
30
0
41
1
10
101.957098045871
20
-7.5649140169364
30
0
41
1
10
102.030518930659
20
-7.12579726120811
30
0
41
1
10
102.177360700234
20
-6.21502577862213
30
0
41
1
10
102.250781585022
20
-5.7434124857769
30
0
41
1
10
102.397623354597
20
-4.78145846296673
30
0
41
1
10
102.471044239385
20
-4.29115625882594
30
0
41
1
10
102.61788600896
20
-3.30537541589334
30
0
41
1
10
102.691306893748
20
-2.80992650970469
30
0
41
1
10
102.838148663323
20
-1.82609931028139
30
0
41
1
10
102.911569548111
20
-1.33773899153366
30
0
41
1
10
103.021700875293
20
-0.618165652330163
30
0
41
1
10
103.058411317687
20
-0.380451609164027
30
0
41
1
10
103.113476981277
20
-0.0278860773869383
30
0
41
1
10
103.131832202474
20
0.0887750169051742
30
0
41
1
10
103.168542644868
20
0.324276388813075
30
0
41
1
10
103.186897866065
20
0.442682830210686
30
0
41
1
10
103.27867397205
20
1.03767240344166
30
0
41
1
10
103.352094856837
20
1.52321875228577
30
0
41
1
10
103.498936626413
20
2.50370879509177
30
0
41
1
10
103.572357511201
20
2.99863702859153
30
0
41
1
10
103.719199280776
20
3.98603955361094
30
0
41
1
10
103.792620165564
20
4.47848640515193
30
0
41
1
10
103.939461935139
20
5.4475875369927
30
0
41
1
10
104.012882819927
20
5.92420471173392
30
0
41
1
10
104.159724589502
20
6.84780086449697
30
0
41
1
10
104.23314547429
20
7.29473841861116
30
0
41
1
10
104.379987243865
20
8.14582417503976
30
0
41
1
10
104.453408128653
20
8.54993397452822
30
0
41
1
10
104.600249898228
20
9.30413456602912
30
0
41
1
10
104.673670783016
20
9.65419725193004
30
0
41
1
10
104.820512552591
20
10.2920201697662
30
0
41
1
10
104.893933437379
20
10.5797675377396
30
0
41
1
10
105.040775206955
20
11.0882531996353
30
0
41
1
10
105.114196091742
20
11.3089950387123
30
0
41
1
10
105.261037861318
20
11.6824802951153
30
0
41
1
10
105.334458746105
20
11.8352410496466
30
0
41
1
10
105.481300515681
20
12.0751655094949
30
0
41
1
10
105.554721400468
20
12.1623552348901
30
0
41
1
10
105.701563170044
20
12.2762580066046
30
0
41
1
10
105.774984054832
20
12.303
30
0
41
1
10
105.848404939619
20
12.303
30
0
0
SPLINE
5
E1
100
AcDbEntity
8
1
62
256
6
ByLayer
370
13
48
1
60
0
100
AcDbSpline
70
4
71
3
72
44
73
40
40
0
40
0
40
0
40
0
40
0.0624999999999997
40
0.0624999999999997
40
0.124999999999999
40
0.124999999999999
40
0.187499999999999
40
0.187499999999999
40
0.249999999999999
40
0.249999999999999
40
0.312499999999998
40
0.312499999999998
40
0.374999999999998
40
0.374999999999998
40
0.437499999999997
40
0.437499999999997
40
0.499999999999997
40
0.499999999999997
40
0.562499999999997
40
0.562499999999997
40
0.578124999999997
40
0.578124999999997
40
0.585937499999997
40
0.585937499999997
40
0.593749999999997
40
0.593749999999997
40
0.624999999999997
40
0.624999999999997
40
0.687499999999998
40
0.687499999999998
40
0.749999999999998
40
0.749999999999998
40
0.812499999999999
40
0.812499999999999
40
0.874999999999999
40
0.874999999999999
40
0.937499999999999
40
0.937499999999999
40
1
40
1
40
1
40
1
41
1
10
105.094713994353
20
12.303
30
0
41
1
10
105.191117332134
20
12.303
30
0
41
1
10
105.287520669914
20
12.2568125576703
30
0
41
1
10
105.480327345476
20
12.0569315812203
30
0
41
1
10
105.576730683256
20
11.9031270779215
30
0
41
1
10
105.769537358817
20
11.4790001465406
30
0
41
1
10
105.865940696598
20
11.2085955255325
30
0
41
1
10
106.058747372159
20
10.5516276404226
30
0
41
1
10
106.15515070994
20
10.1650472314336
30
0
41
1
10
106.347957385501
20
9.28708054665495
30
0
41
1
10
106.444360723282
20
8.79576022992106
30
0
41
1
10
106.637167398843
20
7.72996980059131
30
0
41
1
10
106.733570736624
20
7.15563432817223
30
0
41
1
10
106.926377412185
20
5.95267469484028
30
0
41
1
10
107.022780749965
20
5.32421134943931
30
0
41
1
10
107.215587425527
20
4.04444766385379
30
0
41
1
10
107.311990763307
20
3.39328554485351
30
0
41
1
10
107.504797438868
20
2.09749920947343
30
0
41
1
10
107.601200776649
20
1.45295877504125
30
0
41
1
10
107.721704948875
20
0.666286996620045
30
0
41
1
10
107.74580578332
20
0.509886657849165
30
0
41
1
10
107.781957034988
20
0.276914679929888
30
0
41
1
10
107.79400745221
20
0.199528556718775
30
0
41
1
10
107.818108286656
20
0.0453339915242736
30
0
41
1
10
107.830158703878
20
-0.0313091549424769
30
0
41
1
10
107.890410789991
20
-0.416619671659191
30
0
41
1
10
107.938612458881
20
-0.729523804510791
30
0
41
1
10
108.083217465552
20
-1.67857393118689
30
0
41
1
10
108.179620803333
20
-2.3252531985537
30
0
41
1
10
108.372427478894
20
-3.62211789951897
30
0
41
1
10
108.468830816675
20
-4.27221237129459
30
0
41
1
10
108.661637492236
20
-5.54618277223756
30
0
41
1
10
108.758040830017
20
-6.16991569749189
30
0
41
1
10
108.950847505578
20
-7.3597956842118
30
0
41
1
10
109.047250843359
20
-7.92578235538281
30
0
41
1
10
109.24005751892
20
-8.97186837384112
30
0
41
1
10
109.3364608567
20
-9.45183933077726
30
0
41
1
10
109.529267532262
20
-10.3051845903865
30
0
41
1
10
109.625670870042
20
-10.6785026153127
30
0
41
1
10
109.722074207823
20
-10.9934155327046
30
0
0
SPLINE
5
E2
100
AcDbEntity
8
1
62
256
6
ByLayer
370
13
48
1
60
0
100
AcDbSpline
70
4
71
3
72
80
73
76
40
0
40
0
40
0
40
0
40
0.0312499999999996
40
0.0312499999999996
40
0.0624999999999992
40
0.0624999999999992
40
0.0937499999999987
40
0.0937499999999987
40
0.124999999999998
40
0.124999999999998
40
0.156249999999998
40
0.156249999999998
40
0.164062499999998
40
0.164062499999998
40
0.171874999999998
40
0.171874999999998
40
0.187499999999998
40
0.187499999999998
40
0.218749999999998
40
0.218749999999998
40
0.249999999999999
40
0.249999999999999
40
0.281249999999999
40
0.281249999999999
40
0.312499999999999
40
0.312499999999999
40
0.343749999999999
40
0.343749999999999
40
0.374999999999999
40
0.374999999999999
40
0.406249999999999
40
0.406249999999999
40
0.437499999999999
40
0.437499999999999
40
0.468749999999999
40
0.468749999999999
40
0.499999999999999
40
0.499999999999999
40
0.53125
40
0.53125
40
0.5625
40
0.5625
40
0.578125
40
0.578125
40
0.58203125
40
0.58203125
40
0.5859375
40
0.5859375
40
0.59375
40
0.59375
40
0.625
40
0.625
40
0.65625
40
0.65625
40
0.6875
40
0.6875
40
0.71875
40
0.71875
40
0.75
40
0.75
40
0.78125
40
0.78125
40
0.8125
40
0.8125
40
0.84375
40
0.84375
40
0.875
40
0.875
40
0.90625
40
0.90625
40
0.9375
40
0.9375
40
0.96875
40
0.96875
40
1
40
1
40
1
40
1
41
1
10
98.8
20
-9.96508458870261
30
0
41
1
10
98.8683770438836
20
-10.262571414511
30
0
41
1
10
98.9367540877673
20
-10.5330704350154
30
0
41
1
10
99.0735081755346
20
-11.0161839783627
30
0
41
1
10
99.1418852194182
20
-11.2288001448558
30
0
41
1
10
99.2786393071856
20
-11.5950222047347
30
0
41
1
10
99.3470163510692
20
-11.7486390530613
30
0
41
1
10
99.4837704388366
20
-11.9983415850483
30
0
41
1
10
99.5521474827202
20
-12.0944445631105
30
0
41
1
10
99.6889015704875
20
-12.2327670357059
30
0
41
1
10
99.7572786143713
20
-12.2750066400266
30
0
41
1
10
99.8427499192258
20
-12.2974048466906
30
0
41
1
10
99.8598441801966
20
-12.3003674592118
30
0
41
1
10
99.8940327021384
20
-12.3033508092256
30
0
41
1
10
99.9111269631094
20
-12.3033832244256
30
0
41
1
10
99.9624097460221
20
-12.2991074915007
30
0
41
1
10
99.996598267964
20
-12.2903756078171
30
0
41
1
10
100.099163833789
20
-12.2454512017265
30
0
41
1
10
100.167540877673
20
-12.1904832288909
30
0
41
1
10
100.30429496544
20
-12.0256414888523
30
0
41
1
10
100.372672009324
20
-11.9157479806452
30
0
41
1
10
100.509426097091
20
-11.6378804472584
30
0
41
1
10
100.577803140975
20
-11.4698903556469
30
0
41
1
10
100.714557228742
20
-11.0749400817789
30
0
41
1
10
100.782934272626
20
-10.8479709884712
30
0
41
1
10
100.919688360393
20
-10.336846222334
30
0
41
1
10
100.988065404277
20
-10.052691477525
30
0
41
1
10
101.124819492044
20
-9.43178091486556
30
0
41
1
10
101.193196535928
20
-9.09503681816622
30
0
41
1
10
101.329950623695
20
-8.37614697071942
30
0
41
1
10
101.398327667579
20
-7.99402244459955
30
0
41
1
10
101.535081755346
20
-7.19368363018222
30
0
41
1
10
101.60345879923
20
-6.77549672826043
30
0
41
1
10
101.740212886997
20
-5.91371368935282
30
0
41
1
10
101.808589930881
20
-5.47014658628686
30
0
41
1
10
101.945344018648
20
-4.56878786783292
30
0
41
1
10
102.013721062532
20
-4.11102247210897
30
0
41
1
10
102.150475150299
20
-3.19211053396688
30
0
41
1
10
102.218852194183
20
-2.73098407244541
30
0
41
1
10
102.35560628195
20
-1.81514599984683
30
0
41
1
10
102.423983325834
20
-1.3604467201402
30
0
41
1
10
102.526548891659
20
-0.689402327828333
30
0
41
1
10
102.560737413601
20
-0.467541829628089
30
0
41
1
10
102.603473066028
20
-0.193032590345638
30
0
41
1
10
102.612020196514
20
-0.138271283913753
30
0
41
1
10
102.629114457485
20
-0.0290421434835935
30
0
41
1
10
102.63766158797
20
0.0253475329005823
30
0
41
1
10
102.663302979427
20
0.18917134685924
30
0
41
1
10
102.680397240398
20
0.298974940944845
30
0
41
1
10
102.765868545252
20
0.850679436341977
30
0
41
1
10
102.834245589136
20
1.30070942841633
30
0
41
1
10
102.970999676903
20
2.21052255743982
30
0
41
1
10
103.039376720787
20
2.67029634980284
30
0
41
1
10
103.176130808554
20
3.59035321981659
30
0
41
1
10
103.244507852438
20
4.05061905265677
30
0
41
1
10
103.381261940205
20
4.961153816522
30
0
41
1
10
103.449638984089
20
5.41139854289452
30
0
41
1
10
103.586393071856
20
6.29074973440055
30
0
41
1
10
103.654770115739
20
6.71982774627685
30
0
41
1
10
103.791524203507
20
7.54587110992614
30
0
41
1
10
103.85990124739
20
7.94280789753319
30
0
41
1
10
103.996655335158
20
8.69463379430172
30
0
41
1
10
104.065032379041
20
9.04949886972884
30
0
41
1
10
104.201786466809
20
9.70909265837204
30
0
41
1
10
104.270163510692
20
10.0138057851991
30
0
41
1
10
104.40691759846
20
10.5674615937371
30
0
41
1
10
104.475294642343
20
10.8163992652197
30
0
41
1
10
104.612048730111
20
11.2556398477433
30
0
41
1
10
104.680425773994
20
11.4459481923372
30
0
41
1
10
104.817179861762
20
11.7678265602763
30
0
41
1
10
104.885556905645
20
11.8994103350459
30
0
41
1
10
105.022310993413
20
12.1061991429194
30
0
41
1
10
105.090688037296
20
12.181422946579
30
0
41
1
10
105.227442125064
20
12.2798132224759
30
0
41
1
10
105.295819168947
20
12.303
30
0
41
1
10
105.364196212831
20
12.303
30
0
0
SPLINE
5
E3
100
AcDbEntity
8
1
62
256
6
ByLayer
370
13
48
1
60
0
100
AcDbSpline
70
4
71
3
72
71
73
67
40
0
40
0
40
0
40
0
40
0.0625
40
0.0625
40
0.09375
40
0.09375
40
0.125
40
0.125
40
0.15625
40
0.15625
40
0.1875
40
0.1875
40
0.21875
40
0.21875
40
0.25
40
0.25
40
0.28125
40
0.28125
40
0.3125
40
0.3125
40
0.34375
40
0.34375
40
0.375
40
0.375
40
0.40625
40
0.40625
40
0.4375
40
0.4375
40
0.46875
40
0.46875
40
0.5
40
0.5
40
0.53125
40
0.53125
40
0.5390625
40
0.5390625
40
0.546875
40
0.5625
40
0.5625
40
0.59375
40
0.59375
40
0.625
40
0.625
40
0.65625
40
0.65625
40
0.6875
40
0.6875
40
0.71875
40
0.71875
40
0.75
40
0.75
40
0.78125
40
0.78125
40
0.8125
40
0.8125
40
0.84375
40
0.84375
40
0.875
40
0.875
40
0.90625
40
0.90625
40
0.9375
40
0.9375
40
0.96875
40
0.96875
40
1
40
1
40
1
40
1
41
1
10
104.610505267565
20
12.303
30
0
41
1
10
104.716996287153
20
12.303
30
0
41
1
10
104.823487306742
20
12.2465834793004
30
0
41
1
10
104.983223836125
20
12.0623073318444
30
0
41
1
10
105.03646934592
20
11.984325416687
30
0
41
1
10
105.142960365508
20
11.7936018321945
30
0
41
1
10
105.196205875302
20
11.6808551377102
30
0
41
1
10
105.302696894891
20
11.4197312871038
30
0
41
1
10
105.355942404686
20
11.271350405012
30
0
41
1
10
105.462433424274
20
10.9390085522177
30
0
41
1
10
105.515678934069
20
10.7550457221714
30
0
41
1
10
105.622169953657
20
10.3525973194599
30
0
41
1
10
105.675415463452
20
10.1341121609036
30
0
41
1
10
105.78190648304
20
9.66470647968276
30
0
41
1
10
105.835151992835
20
9.41378879662375
30
0
41
1
10
105.941643012423
20
8.88258698111463
30
0
41
1
10
105.994888522218
20
8.60230795740304
30
0
41
1
10
106.101379541807
20
8.01631376656496
30
0
41
1
10
106.154625051601
20
7.71060551862442
30
0
41
1
10
106.26111607119
20
7.07836209554819
30
0
41
1
10
106.314361580984
20
6.7518349580148
30
0
41
1
10
106.420852600573
20
6.08301465130234
30
0
41
1
10
106.474098110367
20
5.74072982922735
30
0
41
1
10
106.580589129956
20
5.0456577488504
30
0
41
1
10
106.63383463975
20
4.69287835603393
30
0
41
1
10
106.740325659339
20
3.98203722812701
30
0
41
1
10
106.793571169133
20
3.62398222349319
30
0
41
1
10
106.900062188722
20
2.90754514824374
30
0
41
1
10
106.953307698516
20
2.54916823682007
30
0
41
1
10
107.059798718105
20
1.83659798368416
30
0
41
1
10
107.113044227899
20
1.48240803855319
30
0
41
1
10
107.219535247488
20
0.782148856103305
30
0
41
1
10
107.272780757283
20
0.436081286244189
30
0
41
1
10
107.339337644525
20
0.0106272664038727
30
0
41
1
10
107.352649021974
20
-0.0740512823987842
30
0
41
1
10
107.379271776871
20
-0.244583220180203
30
0
41
1
10
107.419205909217
20
-0.501427818785459
30
0
41
1
10
107.459140041563
20
-0.7612008017054
30
0
41
1
10
107.539008306254
20
-1.28402796985981
30
0
41
1
10
107.592253816049
20
-1.63697394311691
30
0
41
1
10
107.698744835637
20
-2.34784163438843
30
0
41
1
10
107.751990345432
20
-2.70576028911822
30
0
41
1
10
107.85848136502
20
-3.42216573293334
30
0
41
1
10
107.911726874815
20
-3.78064768652649
30
0
41
1
10
108.018217894403
20
-4.49329893846436
30
0
41
1
10
108.071463404198
20
-4.84746177546506
30
0
41
1
10
108.177954423787
20
-5.54629108594781
30
0
41
1
10
108.231199933581
20
-5.8909498630191
30
0
41
1
10
108.33769095317
20
-6.56549856243657
30
0
41
1
10
108.390936462964
20
-6.89538017048966
30
0
41
1
10
108.497427482553
20
-7.53525602796367
30
0
41
1
10
108.550672992347
20
-7.84524211867154
30
0
41
1
10
108.657164011936
20
-8.44061264627953
30
0
41
1
10
108.71040952173
20
-8.72598989588033
30
0
41
1
10
108.816900541319
20
-9.26806601012288
30
0
41
1
10
108.870146051113
20
-9.52475938274495
30
0
41
1
10
108.976637070702
20
-10.0062214410756
30
0
41
1
10
109.029882580496
20
-10.2309868395569
30
0
41
1
10
109.136373600085
20
-10.646310502103
30
0
41
1
10
109.189619109879
20
-10.8368678992988
30
0
41
1
10
109.296110129468
20
-11.1825198182807
30
0
41
1
10
109.349355639262
20
-11.3376157969536
30
0
41
1
10
109.455846658851
20
-11.6121063300385
30
0
41
1
10
109.509092168645
20
-11.7315042998017
30
0
41
1
10
109.615583188234
20
-11.9353027286451
30
0
41
1
10
109.668828698029
20
-12.019708016071
30
0
41
1
10
109.722074207823
20
-12.0873747823131
30
0
0
SPLINE
5
E4
100
AcDbEntity
8
1
62
256
6
ByLayer
370
13
48
1
60
0
100
AcDbSpline
70
4
71
3
72
78
73
74
40
0
40
0
40
0
40
0
40
0.0312500000000003
40
0.0312500000000003
40
0.0625000000000006
40
0.0625000000000006
40
0.0937500000000009
40
0.0937500000000009
40
0.101562500000001
40
0.101562500000001
40
0.109375000000001
40
0.109375000000001
40
0.125000000000001
40
0.125000000000001
40
0.15625
40
0.15625
40
0.1875
40
0.1875
40
0.21875
40
0.21875
40
0.249999999999999
40
0.249999999999999
40
0.281249999999999
40
0.281249999999999
40
0.312499999999998
40
0.312499999999998
40
0.343749999999998
40
0.343749999999998
40
0.374999999999998
40
0.374999999999998
40
0.406249999999997
40
0.406249999999997
40
0.437499999999997
40
0.437499999999997
40
0.468749999999997
40
0.468749999999997
40
0.499999999999996
40
0.499999999999996
40
0.531249999999996
40
0.531249999999996
40
0.546874999999996
40
0.546874999999996
40
0.554687499999996
40
0.554687499999996
40
0.562499999999996
40
0.562499999999996
40
0.593749999999996
40
0.593749999999996
40
0.624999999999996
40
0.624999999999996
40
0.656249999999997
40
0.656249999999997
40
0.687499999999997
40
0.687499999999997
40
0.718749999999997
40
0.718749999999997
40
0.749999999999998
40
0.749999999999998
40
0.781249999999998
40
0.781249999999998
40
0.812499999999998
40
0.812499999999998
40
0.843749999999999
40
0.843749999999999
40
0.874999999999999
40
0.874999999999999
40
0.906249999999999
40
0.906249999999999
40
0.9375
40
0.9375
40
0.96875
40
0.96875
40
1
40
1
40
1
40
1
41
1
10
98.7999999999999
20
-11.598488891427
30
0
41
1
10
98.8633332029795
20
-11.7484964464852
30
0
41
1
10
98.9266664059591
20
-11.8733219644927
30
0
41
1
10
99.0533328119184
20
-12.0743670374651
30
0
41
1
10
99.116666014898
20
-12.1505991944773
30
0
41
1
10
99.2433324208572
20
-12.2577154625358
30
0
41
1
10
99.3066656238369
20
-12.2886134087999
30
0
41
1
10
99.3858321275614
20
-12.3016024458718
30
0
41
1
10
99.4016654283062
20
-12.3029206310108
30
0
41
1
10
99.433332029796
20
-12.3030724121552
30
0
41
1
10
99.4491653305409
20
-12.3019081885244
30
0
41
1
10
99.4966652327757
20
-12.2945835986238
30
0
41
1
10
99.5283318342656
20
-12.2845895214337
30
0
41
1
10
99.623331638735
20
-12.2384248682922
30
0
41
1
10
99.6866648417145
20
-12.186037196563
30
0
41
1
10
99.8133312476737
20
-12.0342012873973
30
0
41
1
10
99.8766644506534
20
-11.9347395656931
30
0
41
1
10
100.003330856613
20
-11.6861633730152
30
0
41
1
10
100.066664059592
20
-11.5370376350991
30
0
41
1
10
100.193330465551
20
-11.1881938254866
30
0
41
1
10
100.256663668531
20
-10.9884687626564
30
0
41
1
10
100.38333007449
20
-10.5394211077289
30
0
41
1
10
100.44666327747
20
-10.2900974923302
30
0
41
1
10
100.573329683429
20
-9.74490812546549
30
0
41
1
10
100.636662886409
20
-9.44904815533974
30
0
41
1
10
100.763329292368
20
-8.81583290720883
30
0
41
1
10
100.826662495348
20
-8.47848986837954
30
0
41
1
10
100.953328901307
20
-7.76907385744229
30
0
41
1
10
101.016662104286
20
-7.39701803188385
30
0
41
1
10
101.143328510246
20
-6.62621247205078
30
0
41
1
10
101.206661713225
20
-6.22748236497105
30
0
41
1
10
101.333328119184
20
-5.41207325321221
30
0
41
1
10
101.396661322164
20
-4.99541362612877
30
0
41
1
10
101.523327728123
20
-4.15300377051651
30
0
41
1
10
101.586660931103
20
-3.72727025449203
30
0
41
1
10
101.713327337062
20
-2.87513398864655
30
0
41
1
10
101.776660540042
20
-2.4487436468977
30
0
41
1
10
101.903326946001
20
-1.60283583512751
30
0
41
1
10
101.96666014898
20
-1.18332579367032
30
0
41
1
10
102.06165995345
20
-0.563988057365918
30
0
41
1
10
102.09332655494
20
-0.359186830635338
30
0
41
1
10
102.140826457174
20
-0.0549551706965588
30
0
41
1
10
102.156659757919
20
0.04568911835986
30
0
41
1
10
102.188326359409
20
0.248449743832197
30
0
41
1
10
102.204159660154
20
0.350325630499413
30
0
41
1
10
102.283326163878
20
0.861980250297222
30
0
41
1
10
102.346659366858
20
1.27863571543526
30
0
41
1
10
102.473325772817
20
2.1205925829415
30
0
41
1
10
102.536658975797
20
2.54588783652156
30
0
41
1
10
102.663325381756
20
3.39787329272986
30
0
41
1
10
102.726658584736
20
3.82455234427656
30
0
41
1
10
102.853324990695
20
4.671082760064
30
0
41
1
10
102.916658193675
20
5.09091840173264
30
0
41
1
10
103.043324599634
20
5.91497343146509
30
0
41
1
10
103.106657802613
20
6.31917392256579
30
0
41
1
10
103.233324208573
20
7.10312985246605
30
0
41
1
10
103.296657411552
20
7.48286546970076
30
0
41
1
10
103.423323817512
20
8.20961286572279
30
0
41
1
10
103.486657020491
20
8.55660660343949
30
0
41
1
10
103.61332342645
20
9.21072013128335
30
0
41
1
10
103.67665662943
20
9.51782622625063
30
0
41
1
10
103.803323035389
20
10.0866286360186
30
0
41
1
10
103.866656238369
20
10.3483174217733
30
0
41
1
10
103.993322644328
20
10.8226881523967
30
0
41
1
10
104.056655847308
20
11.0353694036988
30
0
41
1
10
104.183322253267
20
11.4101915271937
30
0
41
1
10
104.246655456247
20
11.5723379884198
30
0
41
1
10
104.373321862206
20
11.8465438408974
30
0
41
1
10
104.436655065185
20
11.9586135886051
30
0
41
1
10
104.563321471145
20
12.1348603705676
30
0
41
1
10
104.626654674124
20
12.1990505159507
30
0
41
1
10
104.753321080083
20
12.2831134068743
30
0
41
1
10
104.816654283063
20
12.303
30
0
41
1
10
104.879987486043
20
12.303
30
0
0
SPLINE
5
E5
100
AcDbEntity
8
1
62
256
6
ByLayer
370
13
48
1
60
0
100
AcDbSpline
70
4
71
3
72
77
73
73
40
0
40
0
40
0
40
0
40
0.03125
40
0.03125
40
0.0624999999999999
40
0.0624999999999999
40
0.0937499999999999
40
0.0937499999999999
40
0.125
40
0.125
40
0.15625
40
0.15625
40
0.1875
40
0.1875
40
0.21875
40
0.21875
40
0.25
40
0.25
40
0.28125
40
0.28125
40
0.3125
40
0.3125
40
0.343749999999999
40
0.343749999999999
40
0.374999999999999
40
0.374999999999999
40
0.406249999999999
40
0.406249999999999
40
0.437499999999999
40
0.437499999999999
40
0.468749999999999
40
0.468749999999999
40
0.484374999999999
40
0.484374999999999
40
0.492187499999999
40
0.492187499999999
40
0.499999999999999
40
0.499999999999999
40
0.531249999999999
40
0.531249999999999
40
0.562499999999999
40
0.562499999999999
40
0.593749999999999
40
0.593749999999999
40
0.624999999999999
40
0.624999999999999
40
0.656249999999999
40
0.656249999999999
40
0.687499999999999
40
0.687499999999999
40
0.718749999999999
40
0.718749999999999
40
0.749999999999999
40
0.749999999999999
40
0.78125
40
0.78125
40
0.8125
40
0.8125
40
0.84375
40
0.84375
40
0.875
40
0.875
40
0.90625
40
0.90625
40
0.9375
40
0.9375
40
0.96875
40
0.96875
40
0.9765625
40
0.9765625
40
0.984375
40
1
40
1
40
1
40
1
41
1
10
104.126296540776
20
12.303
30
0
41
1
10
104.184585891474
20
12.303
30
0
41
1
10
104.242875242173
20
12.2861590833881
30
0
41
1
10
104.35945394357
20
12.2152497534264
30
0
41
1
10
104.417743294268
20
12.161172200205
30
0
41
1
10
104.534321995665
20
12.0128960607976
30
0
41
1
10
104.592611346363
20
11.918688643946
30
0
41
1
10
104.70919004776
20
11.6882018114529
30
0
41
1
10
104.767479398459
20
11.5519149859333
30
0
41
1
10
104.884058099855
20
11.236509031604
30
0
41
1
10
104.942347450554
20
11.057385069403
30
0
41
1
10
105.058926151951
20
10.6569232998479
30
0
41
1
10
105.117215502649
20
10.4355842084892
30
0
41
1
10
105.233794204046
20
9.95278465970588
30
0
41
1
10
105.292083554744
20
9.69132702146956
30
0
41
1
10
105.408662256141
20
9.1318354986654
30
0
41
1
10
105.466951606839
20
8.8338084973029
30
0
41
1
10
105.583530308236
20
8.20602969104488
30
0
41
1
10
105.641819658935
20
7.87628815453192
30
0
41
1
10
105.758398360331
20
7.1909775247268
30
0
41
1
10
105.81668771103
20
6.83542087535128
30
0
41
1
10
105.933266412427
20
6.10507724955997
30
0
41
1
10
105.991555763125
20
5.73030339172968
30
0
41
1
10
106.108134464522
20
4.96843312683532
30
0
41
1
10
106.16642381522
20
4.58134902049895
30
0
41
1
10
106.283002516617
20
3.80168961724166
30
0
41
1
10
106.341291867316
20
3.40912459065083
30
0
41
1
10
106.457870568712
20
2.62491535439418
30
0
41
1
10
106.516159919411
20
2.2332786258776
30
0
41
1
10
106.632738620808
20
1.45664987771292
30
0
41
1
10
106.691027971506
20
1.07166229221897
30
0
41
1
10
106.778461997554
20
0.502806816311903
30
0
41
1
10
106.807606672903
20
0.314618804467528
30
0
41
1
10
106.851323685927
20
0.0348705338836623
30
0
41
1
10
106.865896023601
20
-0.0577796263713992
30
0
41
1
10
106.89504069895
20
-0.244416549896243
30
0
41
1
10
106.909613036625
20
-0.338154325191312
30
0
41
1
10
106.982474724998
20
-0.808782029503533
30
0
41
1
10
107.040764075696
20
-1.19152530856326
30
0
41
1
10
107.157342777093
20
-1.9648598152493
30
0
41
1
10
107.215632127792
20
-2.35544729613784
30
0
41
1
10
107.332210829188
20
-3.13893894363812
30
0
41
1
10
107.390500179887
20
-3.53183632301818
30
0
41
1
10
107.507078881284
20
-4.31367879308189
30
0
41
1
10
107.565368231982
20
-4.7026142046945
30
0
41
1
10
107.681946933379
20
-5.469774094103
30
0
41
1
10
107.740236284077
20
-5.84798664443082
30
0
41
1
10
107.856814985474
20
-6.58677960940645
30
0
41
1
10
107.915104336172
20
-6.94734696750388
30
0
41
1
10
108.031683037569
20
-7.64414534051019
30
0
41
1
10
108.089972388268
20
-7.98036361940723
30
0
41
1
10
108.206551089664
20
-8.62236938354135
30
0
41
1
10
108.264840440363
20
-8.92814597911988
30
0
41
1
10
108.38141914176
20
-9.50414395368392
30
0
41
1
10
108.439708492458
20
-9.77435759056453
30
0
41
1
10
108.556287193855
20
-10.2753594499108
30
0
41
1
10
108.614576544553
20
-10.5061438936205
30
0
41
1
10
108.73115524595
20
-10.9258468301328
30
0
41
1
10
108.789444596648
20
-11.1147656949012
30
0
41
1
10
108.906023298045
20
-11.4497778094117
30
0
41
1
10
108.964312648744
20
-11.5958751524763
30
0
41
1
10
109.08089135014
20
-11.8456962417615
30
0
41
1
10
109.139180700839
20
-11.9494269060988
30
0
41
1
10
109.255759402236
20
-12.1162093258691
30
0
41
1
10
109.314048752934
20
-12.1792696890148
30
0
41
1
10
109.430627454331
20
-12.2674114347969
30
0
41
1
10
109.488916805029
20
-12.2925019756328
30
0
41
1
10
109.561778493402
20
-12.3022747421077
30
0
41
1
10
109.576350831077
20
-12.303151551599
30
0
41
1
10
109.605495506426
20
-12.3028058926145
30
0
41
1
10
109.64921251945
20
-12.2991267445478
30
0
41
1
10
109.692929532474
20
-12.2856999735074
30
0
41
1
10
109.722074207823
20
-12.2721951651055
30
0
0
SPLINE
5
E6
100
AcDbEntity
8
1
62
256
6
ByLayer
370
13
48
1
60
0
100
AcDbSpline
70
4
71
3
72
78
73
74
40
0
40
0
40
0
40
0
40
0.0156250000000001
40
0.0156250000000001
40
0.0234375000000004
40
0.0234375000000004
40
0.0312500000000006
40
0.0312500000000006
40
0.0625000000000006
40
0.0625000000000006
40
0.0937500000000005
40
0.0937500000000005
40
0.125000000000001
40
0.125000000000001
40
0.15625
40
0.15625
40
0.1875
40
0.1875
40
0.21875
40
0.21875
40
0.25
40
0.25
40
0.28125
40
0.28125
40
0.3125
40
0.3125
40
0.34375
40
0.34375
40
0.375
40
0.375
40
0.40625
40
0.40625
40
0.4375
40
0.4375
40
0.46875
40
0.46875
40
0.5
40
0.5
40
0.5078125
40
0.5078125
40
0.515625
40
0.515625
40
0.531250000000001
40
0.531250000000001
40
0.562500000000001
40
0.562500000000001
40
0.593750000000001
40
0.593750000000001
40
0.625
40
0.625
40
0.65625
40
0.65625
40
0.6875
40
0.6875
40
0.71875
40
0.71875
40
0.75
40
0.75
40
0.78125
40
0.78125
40
0.8125
40
0.8125
40
0.84375
40
0.84375
40
0.875
40
0.875
40
0.90625
40
0.90625
40
0.9375
40
0.9375
40
0.96875
40
0.96875
40
1
40
1
40
1
40
1
41
1
10
98.8
20
-12.2721946590058
30
0
41
1
10
98.8291446810378
20
-12.2856995837736
30
0
41
1
10
98.8582893620755
20
-12.2946508763975
30
0
41
1
10
98.9020063836321
20
-12.3015792134579
30
0
41
1
10
98.9165787241512
20
-12.3028058285142
30
0
41
1
10
98.9457234051889
20
-12.3031515903954
30
0
41
1
10
98.9602957457077
20
-12.3022748322213
30
0
41
1
10
99.0331574483022
20
-12.292502324755
30
0
41
1
10
99.0914468103777
20
-12.2674119955958
30
0
41
1
10
99.2080255345289
20
-12.1792706765608
30
0
41
1
10
99.2663148966045
20
-12.1162105284763
30
0
41
1
10
99.3828936207555
20
-11.9494285356243
30
0
41
1
10
99.4411829828311
20
-11.8456980831293
30
0
41
1
10
99.5577617069822
20
-11.5958774070396
30
0
41
1
10
99.6160510690579
20
-11.4497802653088
30
0
41
1
10
99.7326297932091
20
-11.1147685355154
30
0
41
1
10
99.7909191552846
20
-10.9258498541089
30
0
41
1
10
99.9074978794357
20
-10.5061472593532
30
0
41
1
10
99.9657872415113
20
-10.2753629740176
30
0
41
1
10
100.082365965662
20
-9.77436140052868
30
0
41
1
10
100.140655327738
20
-9.5041478911148
30
0
41
1
10
100.257234051889
20
-8.92815013633748
30
0
41
1
10
100.315523413965
20
-8.62237363306943
30
0
41
1
10
100.432102138116
20
-7.98036801622482
30
0
41
1
10
100.490391500191
20
-7.64414979230597
30
0
41
1
10
100.606970224343
20
-6.94735149197311
30
0
41
1
10
100.665259586418
20
-6.58678415157857
30
0
41
1
10
100.781838310569
20
-5.84799118690293
30
0
41
1
10
100.840127672645
20
-5.46977861918668
30
0
41
1
10
100.956706396796
20
-4.70261866385985
30
0
41
1
10
101.014995758871
20
-4.31368320373579
30
0
41
1
10
101.131574483023
20
-3.53184061075223
30
0
41
1
10
101.189863845098
20
-3.13894315698303
30
0
41
1
10
101.306442569249
20
-2.35545134075346
30
0
41
1
10
101.364731931325
20
-1.96486376554205
30
0
41
1
10
101.481310655476
20
-1.19152905634746
30
0
41
1
10
101.539600017552
20
-0.808785669115537
30
0
41
1
10
101.612461720146
20
-0.338157824525012
30
0
41
1
10
101.627034060665
20
-0.244420020919847
30
0
41
1
10
101.656178741703
20
-0.0577830403496478
30
0
41
1
10
101.670751082222
20
0.0348671405369885
30
0
41
1
10
101.714468103778
20
0.314615435106987
30
0
41
1
10
101.743612784816
20
0.502803465076482
30
0
41
1
10
101.831046827929
20
1.07165900184597
30
0
41
1
10
101.889336190005
20
1.45664663659511
30
0
41
1
10
102.005914914156
20
2.23327550039767
30
0
41
1
10
102.064204276232
20
2.62491229530087
30
0
41
1
10
102.180783000383
20
3.40912168019918
30
0
41
1
10
102.239072362458
20
3.80168678904539
30
0
41
1
10
102.355651086609
20
4.58134637031591
30
0
41
1
10
102.413940448685
20
4.96843057240602
30
0
41
1
10
102.530519172836
20
5.73030103889246
30
0
41
1
10
102.588808534912
20
6.10507500255235
30
0
41
1
10
102.705387259063
20
6.83541884581248
30
0
41
1
10
102.763676621138
20
7.19097560681465
30
0
41
1
10
102.880255345289
20
7.87628646087495
30
0
41
1
10
102.938544707365
20
8.20602811000185
30
0
41
1
10
103.055123431516
20
8.83380713756554
30
0
41
1
10
103.113412793592
20
9.13183424760535
30
0
41
1
10
103.229991517743
20
9.69132597924735
30
0
41
1
10
103.288280879819
20
9.95278371763226
30
0
41
1
10
103.40485960397
20
10.4355834543354
30
0
41
1
10
103.463148966045
20
10.6569226334577
30
0
41
1
10
103.579727690196
20
11.0573845633359
30
0
41
1
10
103.638017052272
20
11.236508598094
30
0
41
1
10
103.754595776423
20
11.5519146806962
30
0
41
1
10
103.812885138499
20
11.6882015619341
30
0
41
1
10
103.92946386265
20
11.9186884885782
30
0
41
1
10
103.987753224725
20
12.0128959438687
30
0
41
1
10
104.104331948876
20
12.1611721434869
30
0
41
1
10
104.162621310952
20
12.2152497184886
30
0
41
1
10
104.279200035103
20
12.2861590768048
30
0
41
1
10
104.337489397179
20
12.303
30
0
41
1
10
104.395778759254
20
12.303
30
0
0
SPLINE
5
E7
100
AcDbEntity
8
1
62
256
6
ByLayer
370
13
48
1
60
0
100
AcDbSpline
70
4
71
3
72
78
73
74
40
0
40
0
40
0
40
0
40
0.03125
40
0.03125
40
0.0625
40
0.0625
40
0.09375
40
0.09375
40
0.125
40
0.125
40
0.15625
40
0.15625
40
0.1875
40
0.1875
40
0.21875
40
0.21875
40
0.25
40
0.25
40
0.28125
40
0.28125
40
0.3125
40
0.3125
40
0.34375
40
0.34375
40
0.375
40
0.375
40
0.40625
40
0.40625
40
0.437500000000001
40
0.437500000000001
40
0.445312500000001
40
0.445312500000001
40
0.453125000000001
40
0.453125000000001
40
0.468750000000001
40
0.468750000000001
40
0.500000000000001
40
0.500000000000001
40
0.531250000000001
40
0.531250000000001
40
0.562500000000001
40
0.562500000000001
40
0.593750000000001
40
0.593750000000001
40
0.625000000000001
40
0.625000000000001
40
0.656250000000001
40
0.656250000000001
40
0.687500000000001
40
0.687500000000001
40
0.718750000000001
40
0.718750000000001
40
0.750000000000001
40
0.750000000000001
40
0.781250000000001
40
0.781250000000001
40
0.812500000000001
40
0.812500000000001
40
0.843750000000001
40
0.843750000000001
40
0.875000000000001
40
0.875000000000001
40
0.890625000000001
40
0.890625000000001
40
0.898437500000001
40
0.898437500000001
40
0.906250000000001
40
0.906250000000001
40
0.937500000000001
40
0.937500000000001
40
0.96875
40
0.96875
40
1
40
1
40
1
40
1
41
1
10
103.642087813988
20
12.303
30
0
41
1
10
103.70542100559
20
12.303
30
0
41
1
10
103.768754197193
20
12.2831134140312
30
0
41
1
10
103.895420580398
20
12.199050554097
30
0
41
1
10
103.958753772
20
12.134860432559
30
0
41
1
10
104.085420155205
20
11.9586137165793
30
0
41
1
10
104.148753346807
20
11.8465440110208
30
0
41
1
10
104.275419730012
20
11.5723382616208
30
0
41
1
10
104.338752921615
20
11.4101918613305
30
0
41
1
10
104.46541930482
20
11.0353698775573
30
0
41
1
10
104.528752496422
20
10.8226887050419
30
0
41
1
10
104.655418879627
20
10.3483181473655
30
0
41
1
10
104.71875207123
20
10.0866294557643
30
0
41
1
10
104.845418454434
20
9.51782724573607
30
0
41
1
10
104.908751646037
20
9.210721256341
30
0
41
1
10
105.035418029242
20
8.55660794598222
30
0
41
1
10
105.098751220844
20
8.20961432015937
30
0
41
1
10
105.225417604049
20
7.48286714852918
30
0
41
1
10
105.288750795651
20
7.10313164377186
30
0
41
1
10
105.415417178856
20
6.31917593366018
30
0
41
1
10
105.478750370459
20
5.91497554985233
30
0
41
1
10
105.605416753664
20
5.09092072433634
30
0
41
1
10
105.668749945266
20
4.67108517957826
30
0
41
1
10
105.795416328471
20
3.82455494308903
30
0
41
1
10
105.858749520074
20
3.3978759739239
30
0
41
1
10
105.985415903278
20
2.54589066514376
30
0
41
1
10
106.048749094881
20
2.12059547661096
30
0
41
1
10
106.175415478086
20
1.27863872047374
30
0
41
1
10
106.238748669688
20
0.861983301663486
30
0
41
1
10
106.317915159191
20
0.350328728025289
30
0
41
1
10
106.333748457092
20
0.248452850005407
30
0
41
1
10
106.365415052893
20
0.045692240668302
30
0
41
1
10
106.381248350794
20
-0.0549520293896819
30
0
41
1
10
106.428748244495
20
-0.359183603784459
30
0
41
1
10
106.460414840297
20
-0.56398477441121
30
0
41
1
10
106.555414627701
20
-1.18332234638956
30
0
41
1
10
106.618747819303
20
-1.60283228359592
30
0
41
1
10
106.745414202508
20
-2.44873990441354
30
0
41
1
10
106.80874739411
20
-2.87513015948181
30
0
41
1
10
106.935413777315
20
-3.7272662767021
30
0
41
1
10
106.998746968918
20
-4.15299973080781
30
0
41
1
10
107.125413352122
20
-4.99540949400142
30
0
41
1
10
107.188746543725
20
-5.41206909061174
30
0
41
1
10
107.31541292693
20
-6.22747817821741
30
0
41
1
10
107.378746118532
20
-6.62620829163978
30
0
41
1
10
107.505412501737
20
-7.39701390425495
30
0
41
1
10
107.568745693339
20
-7.76906977626641
30
0
41
1
10
107.695412076545
20
-8.47848592087729
30
0
41
1
10
107.758745268147
20
-8.8158290469282
30
0
41
1
10
107.885411651352
20
-9.44904450807707
30
0
41
1
10
107.948744842954
20
-9.74490460398695
30
0
41
1
10
108.075411226159
20
-10.2900942561065
30
0
41
1
10
108.138744417762
20
-10.5394180309526
30
0
41
1
10
108.265410800967
20
-10.9884660314198
30
0
41
1
10
108.328743992569
20
-11.1881912803127
30
0
41
1
10
108.455410375774
20
-11.5370354803039
30
0
41
1
10
108.518743567376
20
-11.686161422506
30
0
41
1
10
108.645409950581
20
-11.9347380331741
30
0
41
1
10
108.708743142184
20
-12.0341999685571
30
0
41
1
10
108.835409525389
20
-12.186036306063
30
0
41
1
10
108.898742716991
20
-12.2384241924359
30
0
41
1
10
108.993742504395
20
-12.2845891627468
30
0
41
1
10
109.025409100196
20
-12.2945833448707
30
0
41
1
10
109.072908993898
20
-12.3019080903989
30
0
41
1
10
109.088742291798
20
-12.3030723655194
30
0
41
1
10
109.1204088876
20
-12.3029206870503
30
0
41
1
10
109.1362421855
20
-12.3016025544786
30
0
41
1
10
109.215408675003
20
-12.2886137863692
30
0
41
1
10
109.278741866606
20
-12.2577160749856
30
0
41
1
10
109.405408249811
20
-12.1506003138341
30
0
41
1
10
109.468741441413
20
-12.0743684288595
30
0
41
1
10
109.595407824618
20
-11.8733239318526
30
0
41
1
10
109.65874101622
20
-11.7484987177718
30
0
41
1
10
109.722074207823
20
-11.5984914783671
30
0
0
SPLINE
5
E8
100
AcDbEntity
8
1
62
256
6
ByLayer
370
13
48
1
60
0
100
AcDbSpline
70
4
71
3
72
72
73
68
40
0
40
0
40
0
40
0
40
0.0312499999999993
40
0.0312499999999993
40
0.0624999999999987
40
0.0624999999999987
40
0.093749999999998
40
0.093749999999998
40
0.124999999999997
40
0.124999999999997
40
0.156249999999997
40
0.156249999999997
40
0.187499999999996
40
0.187499999999996
40
0.218749999999995
40
0.218749999999995
40
0.249999999999995
40
0.249999999999995
40
0.281249999999994
40
0.281249999999994
40
0.312499999999994
40
0.312499999999994
40
0.343749999999993
40
0.343749999999993
40
0.374999999999992
40
0.374999999999992
40
0.406249999999992
40
0.406249999999992
40
0.437499999999991
40
0.437499999999991
40
0.453124999999991
40
0.453124999999991
40
0.460937499999991
40
0.460937499999991
40
0.468749999999991
40
0.468749999999991
40
0.499999999999992
40
0.499999999999992
40
0.531249999999992
40
0.531249999999992
40
0.562499999999993
40
0.562499999999993
40
0.593749999999993
40
0.593749999999993
40
0.624999999999994
40
0.624999999999994
40
0.656249999999994
40
0.656249999999994
40
0.687499999999995
40
0.687499999999995
40
0.718749999999995
40
0.718749999999995
40
0.749999999999996
40
0.749999999999996
40
0.781249999999996
40
0.781249999999996
40
0.812499999999997
40
0.812499999999997
40
0.843749999999997
40
0.843749999999997
40
0.874999999999998
40
0.874999999999998
40
0.906249999999998
40
0.906249999999998
40
0.937499999999999
40
0.937499999999999
40
1
40
1
40
1
40
1
41
1
10
98.7999999999999
20
-12.0873761703366
30
0
41
1
10
98.8532455211715
20
-12.0197096181252
30
0
41
1
10
98.9064910423431
20
-11.9353045439823
30
0
41
1
10
99.0129820846861
20
-11.7315065342702
30
0
41
1
10
99.0662276058576
20
-11.612108770343
30
0
41
1
10
99.1727186482007
20
-11.3376186352693
30
0
41
1
10
99.2259641693722
20
-11.182522848757
30
0
41
1
10
99.3324552117151
20
-10.8368712943509
30
0
41
1
10
99.3857007328868
20
-10.6463140695553
30
0
41
1
10
99.4921917752297
20
-10.2309907265725
30
0
41
1
10
99.5454372964012
20
-10.0062254752408
30
0
41
1
10
99.6519283387443
20
-9.5247636815113
30
0
41
1
10
99.7051738599158
20
-9.26807042633055
30
0
41
1
10
99.8116649022588
20
-8.72599451420427
30
0
41
1
10
99.8649104234304
20
-8.4406173492732
30
0
41
1
10
99.9714014657734
20
-7.84524695679872
30
0
41
1
10
100.024646986945
20
-7.53526091655505
30
0
41
1
10
100.131138029288
20
-6.89538512606697
30
0
41
1
10
100.18438355046
20
-6.56550353454139
30
0
41
1
10
100.290874592802
20
-5.89095483610805
30
0
41
1
10
100.344120113974
20
-5.54629604350347
30
0
41
1
10
100.450611156317
20
-4.84746667312009
30
0
41
1
10
100.503856677489
20
-4.49330379176476
30
0
41
1
10
100.610347719832
20
-3.78065242653625
30
0
41
1
10
100.663593241003
20
-3.42217040402059
30
0
41
1
10
100.770084283346
20
-2.70576480264742
30
0
41
1
10
100.823329804518
20
-2.3478460592946
30
0
41
1
10
100.929820846861
20
-1.63697817615008
30
0
41
1
10
100.983066368032
20
-1.28403209965342
30
0
41
1
10
101.06293464979
20
-0.761204769384875
30
0
41
1
10
101.089557410375
20
-0.588022725522364
30
0
41
1
10
101.129491551254
20
-0.330202131100094
30
0
41
1
10
101.142802931547
20
-0.244587020041735
30
0
41
1
10
101.169425692133
20
-0.0740550252399998
30
0
41
1
10
101.182737072425
20
0.0106235494736495
30
0
41
1
10
101.24929397389
20
0.436077608673458
30
0
41
1
10
101.302539495061
20
0.782145217829282
30
0
41
1
10
101.409030537404
20
1.48240449473579
30
0
41
1
10
101.462276058576
20
1.83659449503054
30
0
41
1
10
101.568767100919
20
2.54916487388806
30
0
41
1
10
101.62201262209
20
2.90754185587164
30
0
41
1
10
101.728503664434
20
3.62397908634992
30
0
41
1
10
101.781749185605
20
3.9820341756523
30
0
41
1
10
101.888240227948
20
4.69287548487682
30
0
41
1
10
101.94148574912
20
5.04565497433902
30
0
41
1
10
102.047976791463
20
5.74072725707023
30
0
41
1
10
102.101222312634
20
6.08301218484752
30
0
41
1
10
102.207713354977
20
6.75183270846404
30
0
41
1
10
102.260958876149
20
7.07835995719057
30
0
41
1
10
102.367449918492
20
7.71060360416965
30
0
41
1
10
102.420695439663
20
8.01631196480986
30
0
41
1
10
102.527186482006
20
8.60230637844745
30
0
41
1
10
102.580432003178
20
8.88258551224865
30
0
41
1
10
102.686923045521
20
9.41378754139797
30
0
41
1
10
102.740168566692
20
9.66470532799855
30
0
41
1
10
102.846659609035
20
10.1341112062958
30
0
41
1
10
102.899905130207
20
10.3525964583803
30
0
41
1
10
103.00639617255
20
10.755045035384
30
0
41
1
10
103.059641693721
20
10.9390079461907
30
0
41
1
10
103.166132736064
20
11.2713499458486
30
0
41
1
10
103.219378257236
20
11.4197308940434
30
0
41
1
10
103.325869299579
20
11.6808548612271
30
0
41
1
10
103.379114820751
20
11.7936016061884
30
0
41
1
10
103.485605863094
20
11.9843252759196
30
0
41
1
10
103.538851384265
20
12.0623072258434
30
0
41
1
10
103.69858794778
20
12.2465834550527
30
0
41
1
10
103.805078990123
20
12.303
30
0
41
1
10
103.911570032466
20
12.303
30
0
0
SPLINE
5
E9
100
AcDbEntity
8
1
62
256
6
ByLayer
370
13
48
1
60
0
100
AcDbSpline
70
4
71
3
72
79
73
75
40
0
40
0
40
0
40
0
40
0.0312499999999996
40
0.0312499999999996
40
0.0624999999999991
40
0.0624999999999991
40
0.0937499999999987
40
0.0937499999999987
40
0.124999999999998
40
0.124999999999998
40
0.156249999999998
40
0.156249999999998
40
0.187499999999997
40
0.187499999999997
40
0.218749999999997
40
0.218749999999997
40
0.249999999999997
40
0.249999999999997
40
0.281249999999996
40
0.281249999999996
40
0.312499999999996
40
0.312499999999996
40
0.343749999999995
40
0.343749999999995
40
0.374999999999995
40
0.374999999999995
40
0.406249999999994
40
0.406249999999994
40
0.414062499999994
40
0.414062499999994
40
0.417968749999994
40
0.417968749999994
40
0.421874999999994
40
0.437499999999994
40
0.437499999999994
40
0.468749999999994
40
0.468749999999994
40
0.499999999999995
40
0.499999999999995
40
0.531249999999995
40
0.531249999999995
40
0.562499999999995
40
0.562499999999995
40
0.593749999999995
40
0.593749999999995
40
0.624999999999995
40
0.624999999999995
40
0.656249999999996
40
0.656249999999996
40
0.687499999999996
40
0.687499999999996
40
0.718749999999996
40
0.718749999999996
40
0.749999999999996
40
0.749999999999996
40
0.781249999999996
40
0.781249999999996
40
0.812499999999996
40
0.812499999999996
40
0.828124999999996
40
0.828124999999996
40
0.835937499999996
40
0.835937499999996
40
0.843749999999996
40
0.843749999999996
40
0.874999999999997
40
0.874999999999997
40
0.906249999999998
40
0.906249999999998
40
0.937499999999999
40
0.937499999999999
40
0.968749999999999
40
0.968749999999999
40
1
40
1
40
1
40
1
41
1
10
103.157879087199
20
12.303
30
0
41
1
10
103.226256119706
20
12.303
30
0
41
1
10
103.294633152212
20
12.2798132302074
30
0
41
1
10
103.431387217225
20
12.1814229879606
30
0
41
1
10
103.499764249732
20
12.1061992102363
30
0
41
1
10
103.636518314745
20
11.8994104741727
30
0
41
1
10
103.704895347251
20
11.7678267452921
30
0
41
1
10
103.841649412264
20
11.4459484893335
30
0
41
1
10
103.910026444771
20
11.2556402108391
30
0
41
1
10
104.046780509784
20
10.8163997791393
30
0
41
1
10
104.11515754229
20
10.5674621923789
30
0
41
1
10
104.251911607303
20
10.0138065683873
30
0
41
1
10
104.32028863981
20
9.70909354137123
30
0
41
1
10
104.457042704823
20
9.04949996220947
30
0
41
1
10
104.525419737329
20
8.69463499643012
30
0
41
1
10
104.662173802342
20
7.94280932240505
30
0
41
1
10
104.730550834849
20
7.54587264786593
30
0
41
1
10
104.867304899862
20
6.71982950699763
30
0
41
1
10
104.935681932368
20
6.29075160480775
30
0
41
1
10
105.072435997381
20
5.41140062296554
30
0
41
1
10
105.140813029888
20
4.96115599655039
30
0
41
1
10
105.277567094901
20
4.0506214177064
30
0
41
1
10
105.345944127407
20
3.5903556699198
30
0
41
1
10
105.48269819242
20
2.67029895156981
30
0
41
1
10
105.551075224927
20
2.21052522581675
30
0
41
1
10
105.68782928994
20
1.30071220981065
30
0
41
1
10
105.756206322446
20
0.850682264151516
30
0
41
1
10
105.841677613079
20
0.298977814088801
30
0
41
1
10
105.858771871206
20
0.189174228439526
30
0
41
1
10
105.884413258396
20
0.0253504261986279
30
0
41
1
10
105.892960387459
20
-0.0290392407905529
30
0
41
1
10
105.910054645586
20
-0.138268352597834
30
0
41
1
10
105.952790290902
20
-0.412073702502823
30
0
41
1
10
105.995525936219
20
-0.689399255654024
30
0
41
1
10
106.098091484979
20
-1.36044348554171
30
0
41
1
10
106.166468517485
20
-1.81514266310273
30
0
41
1
10
106.303222582498
20
-2.73098055186398
30
0
41
1
10
106.371599615005
20
-3.19210693172391
30
0
41
1
10
106.508353680018
20
-4.1110187353213
30
0
41
1
10
106.576730712524
20
-4.56878407819804
30
0
41
1
10
106.713484777537
20
-5.47014272715487
30
0
41
1
10
106.781861810044
20
-5.91370981360606
30
0
41
1
10
106.918615875057
20
-6.77549286089942
30
0
41
1
10
106.986992907563
20
-7.19367978784788
30
0
41
1
10
107.123746972576
20
-7.99401869639928
30
0
41
1
10
107.192124005083
20
-8.37614329163662
30
0
41
1
10
107.328878070096
20
-9.09503332034305
30
0
41
1
10
107.397255102602
20
-9.43177752917521
30
0
41
1
10
107.534009167615
20
-10.0526883545298
30
0
41
1
10
107.602386200122
20
-10.3368432498742
30
0
41
1
10
107.739140265134
20
-10.8479683479367
30
0
41
1
10
107.807517297641
20
-11.0749376225962
30
0
41
1
10
107.944271362654
20
-11.4698882804766
30
0
41
1
10
108.01264839516
20
-11.637878574708
30
0
41
1
10
108.149402460174
20
-11.9157465243457
30
0
41
1
10
108.21777949268
20
-12.0256402461485
30
0
41
1
10
108.354533557693
20
-12.1904824145078
30
0
41
1
10
108.4229105902
20
-12.2454506020438
30
0
41
1
10
108.525476138959
20
-12.2903753246134
30
0
41
1
10
108.559664655212
20
-12.299107312874
30
0
41
1
10
108.610947429592
20
-12.303383200619
30
0
41
1
10
108.628041687719
20
-12.3033508362768
30
0
41
1
10
108.662230203972
20
-12.3003675915008
30
0
41
1
10
108.679324462099
20
-12.2974050329243
30
0
41
1
10
108.764795752732
20
-12.2750071025696
30
0
41
1
10
108.833172785239
20
-12.2327677405116
30
0
41
1
10
108.969926850251
20
-12.0944457915851
30
0
41
1
10
109.038303882758
20
-11.9983430949407
30
0
41
1
10
109.175057947771
20
-11.7486411578108
30
0
41
1
10
109.243434980277
20
-11.5950246229159
30
0
41
1
10
109.38018904529
20
-11.228803210836
30
0
41
1
10
109.448566077797
20
-11.0161873786793
30
0
41
1
10
109.58532014281
20
-10.5330745104607
30
0
41
1
10
109.653697175316
20
-10.2625758306963
30
0
41
1
10
109.722074207823
20
-9.96508934054827
30
0
0
SPLINE
5
EA
100
AcDbEntity
8
1
62
256
6
ByLayer
370
13
48
1
60
0
100
AcDbSpline
70
4
71
3
72
43
73
39
40
0
40
0
40
0
40
0
40
0.0625000000000004
40
0.0625000000000004
40
0.125000000000001
40
0.125000000000001
40
0.187500000000001
40
0.187500000000001
40
0.250000000000001
40
0.250000000000001
40
0.312500000000002
40
0.312500000000002
40
0.375000000000002
40
0.375000000000002
40
0.406250000000002
40
0.406250000000002
40
0.414062500000002
40
0.414062500000002
40
0.421875000000002
40
0.437500000000002
40
0.437500000000002
40
0.500000000000001
40
0.500000000000001
40
0.562500000000001
40
0.562500000000001
40
0.625000000000001
40
0.625000000000001
40
0.687500000000001
40
0.687500000000001
40
0.750000000000001
40
0.750000000000001
40
0.812500000000001
40
0.812500000000001
40
0.875
40
0.875
40
0.9375
40
0.9375
40
1
40
1
40
1
40
1
41
1
10
98.8
20
-10.9934191005269
30
0
41
1
10
98.896403360535
20
-10.6785065464714
30
0
41
1
10
98.9928067210699
20
-10.3051888484064
30
0
41
1
10
99.1856134421398
20
-9.45184413652814
30
0
41
1
10
99.2820168026747
20
-8.97187340023351
30
0
41
1
10
99.4748235237446
20
-7.92578769922022
30
0
41
1
10
99.5712268842795
20
-7.35980112481906
30
0
41
1
10
99.7640336053494
20
-6.16992121004665
30
0
41
1
10
99.8604369658844
20
-5.54618826013777
30
0
41
1
10
100.053243686954
20
-4.27221770853689
30
0
41
1
10
100.149647047489
20
-3.62212311103554
30
0
41
1
10
100.342453768559
20
-2.32525808841044
30
0
41
1
10
100.438857129094
20
-1.67857862537443
30
0
41
1
10
100.583462169897
20
-0.729528177617624
30
0
41
1
10
100.631663850164
20
-0.416623933134929
30
0
41
1
10
100.691915950498
20
-0.0313132734847841
30
0
41
1
10
100.703966370565
20
0.0453298891213194
30
0
41
1
10
100.728067210699
20
0.199524470263242
30
0
41
1
10
100.764218470899
20
0.431682427251189
30
0
41
1
10
100.8003697311
20
0.666282964647081
30
0
41
1
10
100.920873931769
20
1.45295484948244
30
0
41
1
10
101.017277292304
20
2.09749539804119
30
0
41
1
10
101.210084013374
20
3.39328201594125
30
0
41
1
10
101.306487373909
20
4.04444430335232
30
0
41
1
10
101.499294094978
20
5.32420836655825
30
0
41
1
10
101.595697455513
20
5.95267192107707
30
0
41
1
10
101.788504176583
20
7.15563199105884
30
0
41
1
10
101.884907537118
20
7.72996769082039
30
0
41
1
10
102.077714258188
20
8.79575856627392
30
0
41
1
10
102.174117618723
20
9.28707910157144
30
0
41
1
10
102.366924339793
20
10.1650461897727
30
0
41
1
10
102.463327700328
20
10.5516267834662
30
0
41
1
10
102.656134421398
20
11.2085949868968
30
0
41
1
10
102.752537781933
20
11.4789997414852
30
0
41
1
10
102.945344503003
20
11.9031268823305
30
0
41
1
10
103.041747863538
20
12.0569314615869
30
0
41
1
10
103.234554584607
20
12.2568125357685
30
0
41
1
10
103.330957945143
20
12.303
30
0
41
1
10
103.427361305677
20
12.303
30
0
0
SPLINE
5
EB
100
AcDbEntity
8
1
62
256
6
ByLayer
370
13
48
1
60
0
100
AcDbSpline
70
4
71
3
72
80
73
76
40
0
40
0
40
0
40
0
40
0.0312500000000003
40
0.0312500000000003
40
0.0625000000000005
40
0.0625000000000005
40
0.0937500000000008
40
0.0937500000000008
40
0.125000000000001
40
0.125000000000001
40
0.156250000000001
40
0.156250000000001
40
0.187500000000002
40
0.187500000000002
40
0.218750000000002
40
0.218750000000002
40
0.250000000000002
40
0.250000000000002
40
0.281250000000002
40
0.281250000000002
40
0.312500000000003
40
0.312500000000003
40
0.343750000000003
40
0.343750000000003
40
0.375000000000003
40
0.375000000000003
40
0.382812500000003
40
0.382812500000003
40
0.390625000000003
40
0.390625000000003
40
0.406250000000003
40
0.406250000000003
40
0.437500000000003
40
0.437500000000003
40
0.468750000000003
40
0.468750000000003
40
0.500000000000003
40
0.500000000000003
40
0.531250000000003
40
0.531250000000003
40
0.562500000000003
40
0.562500000000003
40
0.593750000000003
40
0.593750000000003
40
0.625000000000003
40
0.625000000000003
40
0.656250000000003
40
0.656250000000003
40
0.687500000000003
40
0.687500000000003
40
0.718750000000003
40
0.718750000000003
40
0.750000000000003
40
0.750000000000003
40
0.765625000000003
40
0.765625000000003
40
0.773437500000003
40
0.773437500000003
40
0.777343750000002
40
0.777343750000002
40
0.781250000000002
40
0.781250000000002
40
0.812500000000002
40
0.812500000000002
40
0.843750000000002
40
0.843750000000002
40
0.875000000000001
40
0.875000000000001
40
0.906250000000001
40
0.906250000000001
40
0.937500000000001
40
0.937500000000001
40
0.96875
40
0.96875
40
1
40
1
40
1
40
1
41
1
10
102.673670360411
20
12.303
30
0
41
1
10
102.747091233821
20
12.303
30
0
41
1
10
102.820512107232
20
12.276258014912
30
0
41
1
10
102.967353854053
20
12.1623552795332
30
0
41
1
10
103.040774727464
20
12.0751655821886
30
0
41
1
10
103.187616474285
20
11.8352412000223
30
0
41
1
10
103.261037347695
20
11.6824804951407
30
0
41
1
10
103.407879094516
20
11.3089953595578
30
0
41
1
10
103.481299967927
20
11.0882535916594
30
0
41
1
10
103.628141714748
20
10.5797680912431
30
0
41
1
10
103.701562588158
20
10.2920208135635
30
0
41
1
10
103.84840433498
20
9.65419809066998
30
0
41
1
10
103.92182520839
20
9.30413550939511
30
0
41
1
10
104.068666955211
20
8.54993513481287
30
0
41
1
10
104.142087828622
20
8.14582544758292
30
0
41
1
10
104.288929575443
20
7.29473991560303
30
0
41
1
10
104.362350448853
20
6.84780247364193
30
0
41
1
10
104.509192195674
20
5.92420653743767
30
0
41
1
10
104.582613069085
20
5.44758946707128
30
0
41
1
10
104.729454815906
20
4.47848852966507
30
0
41
1
10
104.802875689317
20
3.98604176816553
30
0
41
1
10
104.949717436138
20
2.99863940421739
30
0
41
1
10
105.023138309548
20
2.50371124174376
30
0
41
1
10
105.169980056369
20
1.5232213194846
30
0
41
1
10
105.24340092978
20
1.03767502016981
30
0
41
1
10
105.335177021543
20
0.442685495173038
30
0
41
1
10
105.353532239896
20
0.324279062743045
30
0
41
1
10
105.390242676601
20
0.0887777074235601
30
0
41
1
10
105.408597894954
20
-0.0278833742742108
30
0
41
1
10
105.463663550011
20
-0.38044882045736
30
0
41
1
10
105.500373986717
20
-0.618162807624742
30
0
41
1
10
105.610505296833
20
-1.33773598365508
30
0
41
1
10
105.683926170243
20
-1.82609620003356
30
0
41
1
10
105.830767917064
20
-2.80992321696905
30
0
41
1
10
105.904188790475
20
-3.30537204307953
30
0
41
1
10
106.051030537296
20
-4.29115275767717
30
0
41
1
10
106.124451410706
20
-4.78145491360925
30
0
41
1
10
106.271293157527
20
-5.74340888013094
30
0
41
1
10
106.344714030938
20
-6.21502216494167
30
0
41
1
10
106.491555777759
20
-7.12579367718573
30
0
41
1
10
106.56497665117
20
-7.56491047063665
30
0
41
1
10
106.711818397991
20
-8.39783774769666
30
0
41
1
10
106.785239271401
20
-8.79161140604674
30
0
41
1
10
106.932081018222
20
-9.52315837496127
30
0
41
1
10
107.005501891633
20
-9.86090643624019
30
0
41
1
10
107.152343638454
20
-10.4728219147817
30
0
41
1
10
107.225764511864
20
-10.7469798989267
30
0
41
1
10
107.372606258685
20
-11.2277819612606
30
0
41
1
10
107.446027132096
20
-11.4344327576509
30
0
41
1
10
107.592868878917
20
-11.7799724116213
30
0
41
1
10
107.666289752328
20
-11.9188808690877
30
0
41
1
10
107.813131499149
20
-12.1319627080377
30
0
41
1
10
107.886552372559
20
-12.2061631751113
30
0
41
1
10
107.996683682675
20
-12.2730970981923
30
0
41
1
10
108.033394119381
20
-12.2880312036104
30
0
41
1
10
108.088459774438
20
-12.3000123180359
30
0
41
1
10
108.106814992791
20
-12.3022700866782
30
0
41
1
10
108.13434782032
20
-12.3031393535758
30
0
41
1
10
108.143525429496
20
-12.3030117671099
30
0
41
1
10
108.161880647849
20
-12.3019153532843
30
0
41
1
10
108.171058257025
20
-12.300945366179
30
0
41
1
10
108.253656739612
20
-12.2883543217986
30
0
41
1
10
108.327077613023
20
-12.2496423609586
30
0
41
1
10
108.473919359844
20
-12.1105584065778
30
0
41
1
10
108.547340233254
20
-12.0101576267416
30
0
41
1
10
108.694181980075
20
-11.7430632555437
30
0
41
1
10
108.767602853486
20
-11.5763449611509
30
0
41
1
10
108.914444600307
20
-11.1748492769992
30
0
41
1
10
108.987865473718
20
-10.9400570377183
30
0
41
1
10
109.134707220539
20
-10.4041293253683
30
0
41
1
10
109.208128093949
20
-10.1029935967731
30
0
41
1
10
109.35496984077
20
-9.43981996235951
30
0
41
1
10
109.428390714181
20
-9.0777983015048
30
0
41
1
10
109.575232461002
20
-8.30178310132686
30
0
41
1
10
109.648653334412
20
-7.88782030833144
30
0
41
1
10
109.722074207823
20
-7.45372305845973
30
0
0
SPLINE
5
EC
100
AcDbEntity
8
1
62
256
6
ByLayer
370
13
48
1
60
0
100
AcDbSpline
70
4
71
3
72
43
73
39
40
0
40
0
40
0
40
0
40
0.0625
40
0.0625
40
0.125
40
0.125
40
0.1875
40
0.1875
40
0.25
40
0.25
40
0.3125
40
0.3125
40
0.328125
40
0.3359375
40
0.3359375
40
0.34375
40
0.34375
40
0.375
40
0.375
40
0.4375
40
0.4375
40
0.5
40
0.5
40
0.5625
40
0.5625
40
0.625
40
0.625
40
0.6875
40
0.6875
40
0.75
40
0.75
40
0.8125
40
0.8125
40
0.875
40
0.875
40
0.9375
40
0.9375
40
1
40
1
40
1
40
1
41
1
10
98.7999999999999
20
-8.94597115023018
30
0
41
1
10
98.8863156787268
20
-8.50370302314448
30
0
41
1
10
98.9726313574537
20
-8.02393940418125
30
0
41
1
10
99.1452627149074
20
-7.00780766398844
30
0
41
1
10
99.2315783936342
20
-6.47152770842351
30
0
41
1
10
99.4042097510878
20
-5.36422378379604
30
0
41
1
10
99.4905254298149
20
-4.7932910011406
30
0
41
1
10
99.6631567872685
20
-3.63910970586332
30
0
41
1
10
99.7494724659954
20
-3.05593438293147
30
0
41
1
10
99.9221038234491
20
-1.89772291316396
30
0
41
1
10
100.008419502176
20
-1.32273006843724
30
0
41
1
10
100.116314100584
20
-0.619512508253678
30
0
41
1
10
100.148682480107
20
-0.409695644907941
30
0
41
1
10
100.18105085963
20
-0.201844334233755
30
0
41
1
10
100.202629779311
20
-0.0637384555949723
30
0
41
1
10
100.213419239152
20
0.0049252761467926
30
0
41
1
10
100.267366538356
20
0.349527400721485
30
0
41
1
10
100.31052437772
20
0.62897122097516
30
0
41
1
10
100.43999789581
20
1.47602719412674
30
0
41
1
10
100.526313574537
20
2.05249410608954
30
0
41
1
10
100.698944931991
20
3.21196398960026
30
0
41
1
10
100.785260610718
20
3.79492079824371
30
0
41
1
10
100.957891968171
20
4.94671155182351
30
0
41
1
10
101.044207646898
20
5.5154700484072
30
0
41
1
10
101.216839004352
20
6.61640799965198
30
0
41
1
10
101.303154683079
20
7.14849559101719
30
0
41
1
10
101.475786040532
20
8.15440885587245
30
0
41
1
10
101.562101719259
20
8.62814779127322
30
0
41
1
10
101.734733076713
20
9.49922217636819
30
0
41
1
10
101.82104875544
20
9.89649842598209
30
0
41
1
10
101.993680112894
20
10.6023191195921
30
0
41
1
10
102.079995791621
20
10.910845775065
30
0
41
1
10
102.252627149074
20
11.4338488430448
30
0
41
1
10
102.338942827801
20
11.648348867759
30
0
41
1
10
102.511574185255
20
11.984889133446
30
0
41
1
10
102.597889863981
20
12.1069822037986
30
0
41
1
10
102.770521221435
20
12.2660053770708
30
0
41
1
10
102.856836900162
20
12.303
30
0
41
1
10
102.943152578889
20
12.303
30
0
0
SPLINE
5
ED
100
AcDbEntity
8
1
62
256
6
ByLayer
370
13
48
1
60
0
100
AcDbSpline
70
4
71
3
72
80
73
76
40
0
40
0
40
0
40
0
40
0.03125
40
0.03125
40
0.0625
40
0.0625
40
0.09375
40
0.09375
40
0.125
40
0.125
40
0.15625
40
0.15625
40
0.1875
40
0.1875
40
0.21875
40
0.21875
40
0.25
40
0.25
40
0.28125
40
0.28125
40
0.3125
40
0.3125
40
0.34375
40
0.34375
40
0.359375
40
0.359375
40
0.3671875
40
0.3671875
40
0.375
40
0.375
40
0.40625
40
0.40625
40
0.4375
40
0.4375
40
0.46875
40
0.46875
40
0.5
40
0.5
40
0.531249999999999
40
0.531249999999999
40
0.562499999999999
40
0.562499999999999
40
0.593749999999999
40
0.593749999999999
40
0.624999999999999
40
0.624999999999999
40
0.656249999999999
40
0.656249999999999
40
0.687499999999998
40
0.687499999999998
40
0.718749999999998
40
0.718749999999998
40
0.722656249999998
40
0.722656249999998
40
0.726562499999998
40
0.726562499999998
40
0.734374999999998
40
0.734374999999998
40
0.749999999999998
40
0.749999999999998
40
0.781249999999998
40
0.781249999999998
40
0.812499999999999
40
0.812499999999999
40
0.843749999999999
40
0.843749999999999
40
0.874999999999999
40
0.874999999999999
40
0.906249999999999
40
0.906249999999999
40
0.9375
40
0.9375
40
0.96875
40
0.96875
40
1
40
1
40
1
40
1
41
1
10
102.189461633623
20
12.303
30
0
41
1
10
102.267926347937
20
12.303
30
0
41
1
10
102.346391062252
20
12.272447192742
30
0
41
1
10
102.503320490881
20
12.1418359531774
30
0
41
1
10
102.581785205196
20
12.0417372560354
30
0
41
1
10
102.738714633825
20
11.7660656668894
30
0
41
1
10
102.817179348139
20
11.5904577389768
30
0
41
1
10
102.974108776769
20
11.1614682823203
30
0
41
1
10
103.052573491083
20
10.9080660884677
30
0
41
1
10
103.209502919712
20
10.3257289322739
30
0
41
1
10
103.287967634027
20
9.99679516922896
30
0
41
1
10
103.444897062656
20
9.27049369859165
30
0
41
1
10
103.523361776971
20
8.87315166857817
30
0
41
1
10
103.6802912056
20
8.02159138076675
30
0
41
1
10
103.758755919914
20
7.56741924557079
30
0
41
1
10
103.915685348543
20
6.61711614459202
30
0
41
1
10
103.994150062858
20
6.12104201437597
30
0
41
1
10
104.151079491487
20
5.10362566152895
30
0
41
1
10
104.229544205802
20
4.58233895678265
30
0
41
1
10
104.386473634431
20
3.53122934530009
30
0
41
1
10
104.464938348746
20
3.00145042301747
30
0
41
1
10
104.621867777375
20
1.94860059477003
30
0
41
1
10
104.700332491689
20
1.42555655141015
30
0
41
1
10
104.818029563161
20
0.655529307880158
30
0
41
1
10
104.857261920319
20
0.401254228275945
30
0
41
1
10
104.916110456054
20
0.0244124293505195
30
0
41
1
10
104.935726634633
20
-0.100254666986956
30
0
41
1
10
104.97495899179
20
-0.352089741062343
30
0
41
1
10
104.994575170369
20
-0.478752350263562
30
0
41
1
10
105.092656063262
20
-1.1153958473185
30
0
41
1
10
105.171120777577
20
-1.6354860714026
30
0
41
1
10
105.328050206206
20
-2.68518073037251
30
0
41
1
10
105.406514920521
20
-3.21476192033424
30
0
41
1
10
105.56344434915
20
-4.26867248616713
30
0
41
1
10
105.641909063464
20
-4.79296101959716
30
0
41
1
10
105.798838492093
20
-5.81976702314984
30
0
41
1
10
105.877303206408
20
-6.32223058186574
30
0
41
1
10
106.034232635037
20
-7.28855844463808
30
0
41
1
10
106.112697349352
20
-7.75236521710477
30
0
41
1
10
106.269626777981
20
-8.62595483806575
30
0
41
1
10
106.348091492296
20
-9.03568851570935
30
0
41
1
10
106.505020920925
20
-9.78875854626426
30
0
41
1
10
106.583485635239
20
-10.1320646054345
30
0
41
1
10
106.740415063868
20
-10.744186609197
30
0
41
1
10
106.818879778183
20
-11.0129964767941
30
0
41
1
10
106.975809206812
20
-11.4728740227559
30
0
41
1
10
107.054273921127
20
-11.6639584884327
30
0
41
1
10
107.211203349756
20
-11.9698017819378
30
0
41
1
10
107.289668064071
20
-12.0845935044387
30
0
41
1
10
107.4465974927
20
-12.2431612257911
30
0
41
1
10
107.525062207015
20
-12.2869771461943
30
0
41
1
10
107.613335010618
20
-12.3008659995014
30
0
41
1
10
107.623143099908
20
-12.3019187870375
30
0
41
1
10
107.642759278486
20
-12.3030611872859
30
0
41
1
10
107.652567367776
20
-12.3031525535946
30
0
41
1
10
107.681991635644
20
-12.301994828136
30
0
41
1
10
107.701607814222
20
-12.2993033667396
30
0
41
1
10
107.760456349958
20
-12.2852594871357
30
0
41
1
10
107.799688707116
20
-12.2679336172514
30
0
41
1
10
107.917385778587
20
-12.1905052562508
30
0
41
1
10
107.995850492902
20
-12.1048583104974
30
0
41
1
10
108.152779921531
20
-11.8590229038103
30
0
41
1
10
108.231244635846
20
-11.6987976396869
30
0
41
1
10
108.388174064475
20
-11.3006911145907
30
0
41
1
10
108.46663877879
20
-11.0627856202035
30
0
41
1
10
108.623568207419
20
-10.5106071648987
30
0
41
1
10
108.702032921733
20
-10.1963306359019
30
0
41
1
10
108.858962350363
20
-9.49754746633843
30
0
41
1
10
108.937427064677
20
-9.11306172345732
30
0
41
1
10
109.094356493306
20
-8.284595434702
30
0
41
1
10
109.172821207621
20
-7.84065756400508
30
0
41
1
10
109.32975063625
20
-6.90764955802814
30
0
41
1
10
109.408215350565
20
-6.41863506919466
30
0
41
1
10
109.565144779194
20
-5.41194973556665
30
0
41
1
10
109.643609493508
20
-4.89433559896213
30
0
41
1
10
109.722074207823
20
-4.37082164041237
30
0
0
SPLINE
5
EE
100
AcDbEntity
8
1
62
256
6
ByLayer
370
13
48
1
60
0
100
AcDbSpline
70
4
71
3
72
43
73
39
40
0
40
0
40
0
40
0
40
0.0625000000000033
40
0.0625000000000033
40
0.125000000000007
40
0.125000000000007
40
0.18750000000001
40
0.18750000000001
40
0.250000000000013
40
0.250000000000013
40
0.257812500000013
40
0.257812500000013
40
0.265625000000013
40
0.281250000000013
40
0.281250000000013
40
0.312500000000012
40
0.312500000000012
40
0.375000000000011
40
0.375000000000011
40
0.43750000000001
40
0.43750000000001
40
0.500000000000009
40
0.500000000000009
40
0.562500000000008
40
0.562500000000008
40
0.625000000000007
40
0.625000000000007
40
0.687500000000006
40
0.687500000000006
40
0.750000000000005
40
0.750000000000005
40
0.812500000000003
40
0.812500000000003
40
0.875000000000002
40
0.875000000000002
40
0.937500000000001
40
0.937500000000001
40
1
40
1
40
1
40
1
41
1
10
98.8
20
-6.13303959604886
30
0
41
1
10
98.8762279969187
20
-5.6482352840797
30
0
41
1
10
98.9524559938376
20
-5.14880488419249
30
0
41
1
10
99.104911987675
20
-4.13609380616302
30
0
41
1
10
99.1811399845937
20
-3.62285574065646
30
0
41
1
10
99.3335959784312
20
-2.59717442754959
30
0
41
1
10
99.4098239753501
20
-2.08476066102256
30
0
41
1
10
99.5622799691875
20
-1.0734154673487
30
0
41
1
10
99.6385079661062
20
-0.574498415298365
30
0
41
1
10
99.7242644626399
20
-0.0264639415249803
30
0
41
1
10
99.7337929622547
20
0.0341618674091251
30
0
41
1
10
99.7528499614845
20
0.1559780398741
30
0
41
1
10
99.7814354603291
20
0.339247662256895
30
0
41
1
10
99.8100209591736
20
0.524076977375785
30
0
41
1
10
99.8671919568626
20
0.895595953479869
30
0
41
1
10
99.9053059553221
20
1.14576108136151
30
0
41
1
10
100.0196479507
20
1.90176329698144
30
0
41
1
10
100.095875947619
20
2.41318175267944
30
0
41
1
10
100.248331941456
20
3.4385083126555
30
0
41
1
10
100.324559938375
20
3.95238872168824
30
0
41
1
10
100.477015932213
20
4.96820560459545
30
0
41
1
10
100.553243929131
20
5.47010079373339
30
0
41
1
10
100.705699922969
20
6.44649416483739
30
0
41
1
10
100.781927919888
20
6.92094313100014
30
0
41
1
10
100.934383913725
20
7.82735506232024
30
0
41
1
10
101.010611910644
20
8.25926984431828
30
0
41
1
10
101.163067904482
20
9.06738658935603
30
0
41
1
10
101.2392959014
20
9.44355115509913
30
0
41
1
10
101.391751895238
20
10.1301236332493
30
0
41
1
10
101.467979892157
20
10.4405122607097
30
0
41
1
10
101.620435885994
20
10.989546940357
30
0
41
1
10
101.696663882913
20
11.2281943347005
30
0
41
1
10
101.84911987675
20
11.6320922666903
30
0
41
1
10
101.925347873669
20
11.7973620634697
30
0
41
1
10
102.077803867507
20
12.0568581290856
30
0
41
1
10
102.154031864425
20
12.1511152085844
30
0
41
1
10
102.306487858263
20
12.2741687031286
30
0
41
1
10
102.382715855182
20
12.303
30
0
41
1
10
102.458943852101
20
12.303
30
0
0
SPLINE
5
EF
100
AcDbEntity
8
1
62
256
6
ByLayer
370
13
48
1
60
0
100
AcDbSpline
70
4
71
3
72
81
73
77
40
0
40
0
40
0
40
0
40
0.0312499999999999
40
0.0312499999999999
40
0.0624999999999998
40
0.0624999999999998
40
0.0937499999999997
40
0.0937499999999997
40
0.125
40
0.125
40
0.15625
40
0.15625
40
0.1875
40
0.1875
40
0.21875
40
0.21875
40
0.25
40
0.25
40
0.28125
40
0.28125
40
0.3125
40
0.3125
40
0.328125
40
0.328125
40
0.3359375
40
0.33984375
40
0.33984375
40
0.34375
40
0.34375
40
0.375
40
0.375
40
0.40625
40
0.40625
40
0.4375
40
0.4375
40
0.46875
40
0.46875
40
0.5
40
0.5
40
0.53125
40
0.53125
40
0.5625
40
0.5625
40
0.59375
40
0.59375
40
0.625
40
0.625
40
0.65625
40
0.65625
40
0.671875
40
0.671875
40
0.6796875
40
0.6796875
40
0.68359375
40
0.68359375
40
0.6875
40
0.6875
40
0.71875
40
0.71875
40
0.75
40
0.75
40
0.78125
40
0.78125
40
0.8125
40
0.8125
40
0.84375
40
0.84375
40
0.875
40
0.875
40
0.90625
40
0.90625
40
0.9375
40
0.9375
40
0.96875
40
0.96875
40
1
40
1
40
1
40
1
41
1
10
101.705252906834
20
12.303
30
0
41
1
10
101.788761462053
20
12.303
30
0
41
1
10
101.872270017271
20
12.2683801272178
30
0
41
1
10
102.039287127709
20
12.119853843817
30
0
41
1
10
102.122795682927
20
12.0058926252515
30
0
41
1
10
102.289812793365
20
11.6918487616251
30
0
41
1
10
102.373321348583
20
11.4917201823376
30
0
41
1
10
102.540338459021
20
11.0033840675314
30
0
41
1
10
102.623847014239
20
10.7151534861946
30
0
41
1
10
102.790864124676
20
10.0546216391201
30
0
41
1
10
102.874372679895
20
9.68233062072437
30
0
41
1
10
103.041389790332
20
8.86387776235935
30
0
41
1
10
103.124898345551
20
8.41776094123759
30
0
41
1
10
103.291915455988
20
7.46721405325366
30
0
41
1
10
103.375424011207
20
6.96285438118352
30
0
41
1
10
103.542441121644
20
5.91495952254843
30
0
41
1
10
103.625949676863
20
5.37150303597298
30
0
41
1
10
103.7929667873
20
4.26582538412083
30
0
41
1
10
103.876475342519
20
3.70367325613395
30
0
41
1
10
104.043492452956
20
2.58000514122742
30
0
41
1
10
104.127001008175
20
2.01853612542223
30
0
41
1
10
104.252263841002
20
1.18926711645031
30
0
41
1
10
104.294018118612
20
0.914973741722179
30
0
41
1
10
104.356649535026
20
0.508017476277331
30
0
41
1
10
104.387965243233
20
0.305657410211864
30
0
41
1
10
104.41928095144
20
0.105189660292893
30
0
41
1
10
104.440158090244
20
-0.0280129421265372
30
0
41
1
10
104.450596659647
20
-0.0945444446888644
30
0
41
1
10
104.544543784268
20
-0.696362683894307
30
0
41
1
10
104.628052339486
20
-1.24520655791736
30
0
41
1
10
104.795069449924
20
-2.35712845358373
30
0
41
1
10
104.878578005142
20
-2.92018033678525
30
0
41
1
10
105.04559511558
20
-4.04328878172686
30
0
41
1
10
105.129103670798
20
-4.60329332631662
30
0
41
1
10
105.296120781235
20
-5.70057808212494
30
0
41
1
10
105.379629336454
20
-6.23778605870271
30
0
41
1
10
105.546646446891
20
-7.2691436531087
30
0
41
1
10
105.63015500211
20
-7.76321472014914
30
0
41
1
10
105.797172112547
20
-8.68968227578409
30
0
41
1
10
105.880680667766
20
-9.12201227523184
30
0
41
1
10
106.047697778203
20
-9.91034748630207
30
0
41
1
10
106.131206333422
20
-10.2663142729515
30
0
41
1
10
106.298223443859
20
-10.8928687731332
30
0
41
1
10
106.381731999078
20
-11.1634534199241
30
0
41
1
10
106.548749109515
20
-11.6164256195784
30
0
41
1
10
106.632257664734
20
-11.7988418758512
30
0
41
1
10
106.799274775171
20
-12.0784873782257
30
0
41
1
10
106.882783330389
20
-12.1757654874628
30
0
41
1
10
107.008046163217
20
-12.2635108458189
30
0
41
1
10
107.049800440827
20
-12.2830951049108
30
0
41
1
10
107.112431857241
20
-12.2989084935097
30
0
41
1
10
107.133308996045
20
-12.3019204194936
30
0
41
1
10
107.164624704252
20
-12.3031762226952
30
0
41
1
10
107.175063273655
20
-12.3030543666642
30
0
41
1
10
107.195940412459
20
-12.3017225125121
30
0
41
1
10
107.206378981862
20
-12.3005105200654
30
0
41
1
10
107.300326106483
20
-12.2845923623458
30
0
41
1
10
107.383834661701
20
-12.2347048612063
30
0
41
1
10
107.550851772138
20
-12.0539442203448
30
0
41
1
10
107.634360327357
20
-11.9230169555557
30
0
41
1
10
107.801377437794
20
-11.5742088017602
30
0
41
1
10
107.884885993013
20
-11.3562854959753
30
0
41
1
10
108.05190310345
20
-10.8326662223929
30
0
41
1
10
108.135411658669
20
-10.5269533085374
30
0
41
1
10
108.302428769106
20
-9.83302676642421
30
0
41
1
10
108.385937324325
20
-9.44483063349546
30
0
41
1
10
108.552954434762
20
-8.59731950747567
30
0
41
1
10
108.636462989981
20
-8.13805573376447
30
0
41
1
10
108.803480100418
20
-7.16485666841328
30
0
41
1
10
108.886988655637
20
-6.65099495885443
30
0
41
1
10
109.054005766074
20
-5.58818764219006
30
0
41
1
10
109.137514321293
20
-5.03932013082394
30
0
41
1
10
109.30453143173
20
-3.92688172868867
30
0
41
1
10
109.388039986948
20
-3.36337616369264
30
0
41
1
10
109.555057097386
20
-2.240620574997
30
0
41
1
10
109.638565652604
20
-1.68141232116551
30
0
41
1
10
109.722074207823
20
-1.13228024285118
30
0
0
SPLINE
5
F0
100
AcDbEntity
8
1
62
256
6
ByLayer
370
13
48
1
60
0
100
AcDbSpline
70
4
71
3
72
41
73
37
40
0
40
0
40
0
40
0
40
0.062500000000001
40
0.062500000000001
40
0.125000000000002
40
0.125000000000002
40
0.140625000000002
40
0.140625000000002
40
0.156250000000002
40
0.187500000000002
40
0.187500000000002
40
0.250000000000002
40
0.250000000000002
40
0.312500000000002
40
0.312500000000002
40
0.375000000000002
40
0.375000000000002
40
0.437500000000001
40
0.437500000000001
40
0.500000000000001
40
0.500000000000001
40
0.562500000000001
40
0.562500000000001
40
0.625000000000001
40
0.625000000000001
40
0.687500000000001
40
0.687500000000001
40
0.750000000000001
40
0.750000000000001
40
0.8125
40
0.8125
40
0.875
40
0.875
40
0.9375
40
0.9375
40
1
40
1
40
1
40
1
41
1
10
98.8
20
-2.92946283560715
30
0
41
1
10
98.8661403151106
20
-2.48463853686283
30
0
41
1
10
98.9322806302212
20
-2.04072041220809
30
0
41
1
10
99.0645612604426
20
-1.16286953109224
30
0
41
1
10
99.1307015755533
20
-0.728943942706621
30
0
41
1
10
99.2133769694417
20
-0.196977501089521
30
0
41
1
10
99.2299120482193
20
-0.0911964441253019
30
0
41
1
10
99.2629822057747
20
0.11962974861811
30
0
41
1
10
99.3125874421077
20
0.43754433529395
30
0
41
1
10
99.3621926784407
20
0.760091354869985
30
0
41
1
10
99.4614031511067
20
1.41017256138903
30
0
41
1
10
99.5275434662173
20
1.850255308133
30
0
41
1
10
99.6598240964387
20
2.73631225864884
30
0
41
1
10
99.7259644115494
20
3.18227592125999
30
0
41
1
10
99.8582450417707
20
4.0712454428251
30
0
41
1
10
99.9243853568813
20
4.51423440388271
30
0
41
1
10
100.056665987103
20
5.38747612951332
30
0
41
1
10
100.122806302213
20
5.81770688972659
30
0
41
1
10
100.255086932435
20
6.6553144768431
30
0
41
1
10
100.321227247545
20
7.0626667686623
30
0
41
1
10
100.453507877767
20
7.84476966182297
30
0
41
1
10
100.519648192877
20
8.2194966932841
30
0
41
1
10
100.651928823099
20
8.927707058306
30
0
41
1
10
100.718069138209
20
9.26117141873118
30
0
41
1
10
100.850349768431
20
9.87997215953251
30
0
41
1
10
100.916490083541
20
10.1652970109687
30
0
41
1
10
101.048770713763
20
10.6831596348971
30
0
41
1
10
101.114911028873
20
10.9156946709632
30
0
41
1
10
101.247191659095
20
11.3257613327482
30
0
41
1
10
101.313331974205
20
11.503298619436
30
0
41
1
10
101.445612604427
20
11.8035492040034
30
0
41
1
10
101.511752919537
20
11.9262747050755
30
0
41
1
10
101.644033549759
20
12.1192005881088
30
0
41
1
10
101.71017386487
20
12.1894170466753
30
0
41
1
10
101.842454495091
20
12.2813081530418
30
0
41
1
10
101.908594810202
20
12.303
30
0
41
1
10
101.974735125312
20
12.303
30
0
0
SPLINE
5
F1
100
AcDbEntity
8
1
62
256
6
ByLayer
370
13
48
1
60
0
100
AcDbSpline
70
4
71
3
72
86
73
82
40
0
40
0
40
0
40
0
40
0.0312500000000006
40
0.0312500000000006
40
0.0625000000000012
40
0.0625000000000012
40
0.0937500000000017
40
0.0937500000000017
40
0.125000000000002
40
0.125000000000002
40
0.156250000000003
40
0.156250000000003
40
0.187500000000003
40
0.187500000000003
40
0.218750000000004
40
0.218750000000004
40
0.250000000000005
40
0.250000000000005
40
0.281250000000005
40
0.281250000000005
40
0.312500000000006
40
0.312500000000006
40
0.320312500000006
40
0.320312500000006
40
0.324218750000006
40
0.324218750000006
40
0.328125000000006
40
0.343750000000006
40
0.343750000000006
40
0.375000000000005
40
0.375000000000005
40
0.406250000000005
40
0.406250000000005
40
0.437500000000005
40
0.437500000000005
40
0.468750000000005
40
0.468750000000005
40
0.500000000000004
40
0.500000000000004
40
0.531250000000004
40
0.531250000000004
40
0.562500000000004
40
0.562500000000004
40
0.593750000000003
40
0.593750000000003
40
0.625000000000003
40
0.625000000000003
40
0.640625000000003
40
0.640625000000003
40
0.644531250000003
40
0.644531250000003
40
0.648437500000003
40
0.656250000000003
40
0.656250000000003
40
0.687500000000002
40
0.687500000000002
40
0.718750000000002
40
0.718750000000002
40
0.750000000000002
40
0.750000000000002
40
0.781250000000002
40
0.781250000000002
40
0.812500000000002
40
0.812500000000002
40
0.843750000000002
40
0.843750000000002
40
0.875000000000001
40
0.875000000000001
40
0.906250000000001
40
0.906250000000001
40
0.937500000000001
40
0.937500000000001
40
0.953125000000001
40
0.953125000000001
40
0.960937500000001
40
0.960937500000001
40
0.964843750000001
40
0.964843750000001
40
0.968750000000001
40
0.968750000000001
40
1
40
1
40
1
40
1
41
1
10
101.221044180046
20
12.303
30
0
41
1
10
101.309596576168
20
12.303
30
0
41
1
10
101.398148972291
20
12.2640561181238
30
0
41
1
10
101.575253764536
20
12.0963981076295
30
0
41
1
10
101.663806160659
20
11.9676107975569
30
0
41
1
10
101.840910952904
20
11.6125606847794
30
0
41
1
10
101.929463349027
20
11.3862391406749
30
0
41
1
10
102.106568141273
20
10.8347876346592
30
0
41
1
10
102.195120537395
20
10.5096341729962
30
0
41
1
10
102.372225329641
20
9.7668702709617
30
0
41
1
10
102.460777725763
20
9.3492852017647
30
0
41
1
10
102.637882518009
20
8.43570659533157
30
0
41
1
10
102.726434914131
20
7.93978553261576
30
0
41
1
10
102.903539706377
20
6.88978859089454
30
0
41
1
10
102.992092102499
20
6.33581390230097
30
0
41
1
10
103.169196894745
20
5.19347858125215
30
0
41
1
10
103.257749290867
20
4.60522052135434
30
0
41
1
10
103.434854083113
20
3.41843735949232
30
0
41
1
10
103.523406479235
20
2.81999185317213
30
0
41
1
10
103.700511271481
20
1.63448388671799
30
0
41
1
10
103.789063667603
20
1.04746540080285
30
0
41
1
10
103.899754162757
20
0.331613924761797
30
0
41
1
10
103.921892261788
20
0.189327709884253
30
0
41
1
10
103.955099410333
20
-0.0226106593609359
30
0
41
1
10
103.966168459849
20
-0.0931326593657218
30
0
41
1
10
103.988306558879
20
-0.234959599546841
30
0
41
1
10
104.043651806456
20
-0.590729253351469
30
0
41
1
10
104.098997054033
20
-0.952200366815049
30
0
41
1
10
104.231825648217
20
-1.82773703212547
30
0
41
1
10
104.320378044339
20
-2.42223919189541
30
0
41
1
10
104.497482836585
20
-3.61360131783326
30
0
41
1
10
104.586035232708
20
-4.21040085594584
30
0
41
1
10
104.763140024953
20
-5.38337945703489
30
0
41
1
10
104.851692421076
20
-5.95946636207532
30
0
41
1
10
105.028797213321
20
-7.0666965862109
30
0
41
1
10
105.117349609444
20
-7.59773449223718
30
0
41
1
10
105.294454401689
20
-8.59224637865688
30
0
41
1
10
105.383006797812
20
-9.05562879294808
30
0
41
1
10
105.560111590057
20
-9.89697557125911
30
0
41
1
10
105.64866398618
20
-10.2748869745492
30
0
41
1
10
105.825768778425
20
-10.9344592608087
30
0
41
1
10
105.914321174548
20
-11.2161172643688
30
0
41
1
10
106.091425966793
20
-11.6802377090436
30
0
41
1
10
106.179978362916
20
-11.8627416122745
30
0
41
1
10
106.357083155161
20
-12.1328800270139
30
0
41
1
10
106.445635551284
20
-12.2205823108283
30
0
41
1
10
106.578464145468
20
-12.2883950227535
30
0
41
1
10
106.622740343529
20
-12.3004123424141
30
0
41
1
10
106.678085591106
20
-12.3031772882314
30
0
41
1
10
106.689154640621
20
-12.3031213679079
30
0
41
1
10
106.711292739652
20
-12.3017881390755
30
0
41
1
10
106.744499888198
20
-12.2979476374138
30
0
41
1
10
106.777707036744
20
-12.2884698900237
30
0
41
1
10
106.888397531897
20
-12.2438623917398
30
0
41
1
10
106.97694992802
20
-12.1663699619873
30
0
41
1
10
107.154054720265
20
-11.9175350857574
30
0
41
1
10
107.242607116388
20
-11.7461232411231
30
0
41
1
10
107.419711908633
20
-11.3043445228284
30
0
41
1
10
107.508264304756
20
-11.0339321562945
30
0
41
1
10
107.685369097001
20
-10.3961309781011
30
0
41
1
10
107.773921493124
20
-10.0287394273009
30
0
41
1
10
107.951026285369
20
-9.20683191515866
30
0
41
1
10
108.039578681492
20
-8.75236348951739
30
0
41
1
10
108.216683473737
20
-7.77336955972893
30
0
41
1
10
108.30523586986
20
-7.24893232065958
30
0
41
1
10
108.482340662105
20
-6.15219246102737
30
0
41
1
10
108.570893058228
20
-5.57999511265052
30
0
41
1
10
108.747997850473
20
-4.41204671385128
30
0
41
1
10
108.836550246596
20
-3.81639048626448
30
0
41
1
10
109.013655038841
20
-2.62485063476268
30
0
41
1
10
109.102207434964
20
-2.02903154363773
30
0
41
1
10
109.235036029148
20
-1.1500459888122
30
0
41
1
10
109.27931222721
20
-0.859475147566798
30
0
41
1
10
109.345726524301
20
-0.42878004276173
30
0
41
1
10
109.367864623332
20
-0.286072762907509
30
0
41
1
10
109.401071771878
20
-0.0734667305843288
30
0
41
1
10
109.412140821394
20
-0.0030075715789053
30
0
41
1
10
109.434278920424
20
0.138376493069814
30
0
41
1
10
109.44534796994
20
0.209315642825061
30
0
41
1
10
109.544969415577
20
0.849870729980438
30
0
41
1
10
109.6335218117
20
1.4344107497605
30
0
41
1
10
109.722074207823
20
2.02578427050085
30
0
0
SPLINE
5
F2
100
AcDbEntity
8
1
62
256
6
ByLayer
370
13
48
1
60
0
100
AcDbSpline
70
4
71
3
72
38
73
34
40
0
40
0
40
0
40
0
40
0.0625
40
0.0625
40
0.125
40
0.125
40
0.1875
40
0.1875
40
0.25
40
0.25
40
0.3125
40
0.3125
40
0.375
40
0.375
40
0.4375
40
0.4375
40
0.5
40
0.5
40
0.5625
40
0.5625
40
0.625
40
0.625
40
0.6875
40
0.6875
40
0.75
40
0.75
40
0.8125
40
0.8125
40
0.875
40
0.875
40
0.9375
40
0.9375
40
1
40
1
40
1
40
1
41
1
10
98.7999999999999
20
0.255903220375046
30
0
41
1
10
98.8560526333026
20
0.616042147322162
30
0
41
1
10
98.9121052666052
20
0.982245583714757
30
0
41
1
10
99.0242105332104
20
1.72280791025443
30
0
41
1
10
99.0802631665129
20
2.09716419146659
30
0
41
1
10
99.192368433118
20
2.84927510336016
30
0
41
1
10
99.2484210664206
20
3.22702473916456
30
0
41
1
10
99.3605263330257
20
3.98049597599885
30
0
41
1
10
99.4165789663284
20
4.35621022768404
30
0
41
1
10
99.5286842329335
20
5.0997006425402
30
0
41
1
10
99.5847368662361
20
5.46746748643162
30
0
41
1
10
99.6968421328412
20
6.1889212629099
30
0
41
1
10
99.7528947661438
20
6.54259765331028
30
0
41
1
10
99.865000032749
20
7.22979810806839
30
0
41
1
10
99.9210526660515
20
7.56331144223307
30
0
41
1
10
100.033157932657
20
8.20450612481915
30
0
41
1
10
100.089210565959
20
8.51217772167132
30
0
41
1
10
100.201315832565
20
9.09671384077222
30
0
41
1
10
100.257368465867
20
9.37357068193398
30
0
41
1
10
100.369473732472
20
9.89247234876092
30
0
41
1
10
100.425526365775
20
10.1345123769012
30
0
41
1
10
100.53763163238
20
10.5809356259358
30
0
41
1
10
100.593684265683
20
10.7853173221358
30
0
41
1
10
100.705789532288
20
11.1548351703322
30
0
41
1
10
100.76184216559
20
11.3199729885344
30
0
41
1
10
100.873947432195
20
11.610667516968
30
0
41
1
10
100.930000065498
20
11.7362285880523
30
0
41
1
10
101.042105332103
20
11.9485945488712
30
0
41
1
10
101.098157965406
20
12.0354057190284
30
0
41
1
10
101.210263232011
20
12.1720944634198
30
0
41
1
10
101.266315865313
20
12.2219793528322
30
0
41
1
10
101.378421131919
20
12.2874283651235
30
0
41
1
10
101.434473765221
20
12.303
30
0
41
1
10
101.490526398524
20
12.303
30
0
0
SPLINE
5
F3
100
AcDbEntity
8
1
62
256
6
ByLayer
370
13
48
1
60
0
100
AcDbSpline
70
4
71
3
72
87
73
83
40
0
40
0
40
0
40
0
40
0.0312499999999994
40
0.0312499999999994
40
0.0624999999999988
40
0.0624999999999988
40
0.0937499999999983
40
0.0937499999999983
40
0.124999999999998
40
0.124999999999998
40
0.156249999999997
40
0.156249999999997
40
0.187499999999997
40
0.187499999999997
40
0.218749999999996
40
0.218749999999996
40
0.249999999999995
40
0.249999999999995
40
0.281249999999995
40
0.281249999999995
40
0.296874999999994
40
0.296874999999994
40
0.300781249999994
40
0.300781249999994
40
0.304687499999994
40
0.304687499999994
40
0.312499999999994
40
0.312499999999994
40
0.343749999999994
40
0.343749999999994
40
0.374999999999995
40
0.374999999999995
40
0.406249999999995
40
0.406249999999995
40
0.437499999999995
40
0.437499999999995
40
0.468749999999995
40
0.468749999999995
40
0.499999999999996
40
0.499999999999996
40
0.531249999999996
40
0.531249999999996
40
0.562499999999996
40
0.562499999999996
40
0.593749999999997
40
0.593749999999997
40
0.601562499999997
40
0.605468749999997
40
0.605468749999997
40
0.609374999999997
40
0.609374999999997
40
0.624999999999997
40
0.624999999999997
40
0.656249999999997
40
0.656249999999997
40
0.687499999999997
40
0.687499999999997
40
0.718749999999998
40
0.718749999999998
40
0.749999999999998
40
0.749999999999998
40
0.781249999999998
40
0.781249999999998
40
0.812499999999998
40
0.812499999999998
40
0.843749999999998
40
0.843749999999998
40
0.874999999999998
40
0.874999999999998
40
0.906249999999999
40
0.906249999999999
40
0.910156249999999
40
0.910156249999999
40
0.914062499999999
40
0.914062499999999
40
0.921874999999999
40
0.921874999999999
40
0.937499999999999
40
0.937499999999999
40
0.968749999999999
40
0.968749999999999
40
1
40
1
40
1
40
1
41
1
10
100.736835453257
20
12.303
30
0
41
1
10
100.830431690284
20
12.303
30
0
41
1
10
100.924027927311
20
12.2594743988694
30
0
41
1
10
101.111220401364
20
12.0714582327081
30
0
41
1
10
101.204816638391
20
11.9268716246004
30
0
41
1
10
101.392009112444
20
11.5281771409631
30
0
41
1
10
101.485605349471
20
11.2739959053095
30
0
41
1
10
101.672797823525
20
10.6557525650813
30
0
41
1
10
101.766394060551
20
10.2916697499696
30
0
41
1
10
101.953586534605
20
9.46298213663525
30
0
41
1
10
102.047182771631
20
8.99842597752973
30
0
41
1
10
102.234375245685
20
7.98749385275656
30
0
41
1
10
102.327971482712
20
7.44122736993441
30
0
41
1
10
102.515163956765
20
6.29248840836095
30
0
41
1
10
102.608760193792
20
5.69015401050024
30
0
41
1
10
102.795952667845
20
4.45794934270555
30
0
41
1
10
102.889548904872
20
3.82820529210977
30
0
41
1
10
103.076741378925
20
2.56878868717897
30
0
41
1
10
103.170337615952
20
1.93920062874648
30
0
41
1
10
103.310731971492
20
1.01233600751479
30
0
41
1
10
103.357530090006
20
0.706259158829511
30
0
41
1
10
103.416027738147
20
0.328722104935338
30
0
41
1
10
103.427727267776
20
0.253466680236926
30
0
41
1
10
103.451126327032
20
0.103492454190899
30
0
41
1
10
103.462825856661
20
0.0289327360188452
30
0
41
1
10
103.497924445546
20
-0.19506027327327
30
0
41
1
10
103.521323504802
20
-0.345500116431197
30
0
41
1
10
103.638318801086
20
-1.10260503757897
30
0
41
1
10
103.731915038113
20
-1.72422550020656
30
0
41
1
10
103.919107512166
20
-2.97879207676539
30
0
41
1
10
104.012703749193
20
-3.61167674173942
30
0
41
1
10
104.199896223246
20
-4.86287999569657
30
0
41
1
10
104.293492460273
20
-5.48108854562551
30
0
41
1
10
104.480684934326
20
-6.6743215139829
30
0
41
1
10
104.574281171353
20
-7.24920842640563
30
0
41
1
10
104.761473645406
20
-8.3282697609842
30
0
41
1
10
104.855069882433
20
-8.83231691556526
30
0
41
1
10
105.042262356487
20
-9.74738771550057
30
0
41
1
10
105.135858593514
20
-10.1583327145283
30
0
41
1
10
105.323051067567
20
-10.8733333619142
30
0
41
1
10
105.416647304593
20
-11.1773793084074
30
0
41
1
10
105.603839778647
20
-11.6745408267032
30
0
41
1
10
105.697436015674
20
-11.8677094111933
30
0
41
1
10
105.884628489727
20
-12.1482020017123
30
0
41
1
10
105.978224726754
20
-12.2356157594213
30
0
41
1
10
106.095220023037
20
-12.2862044643429
30
0
41
1
10
106.130318611922
20
-12.2969992903435
30
0
41
1
10
106.165417200807
20
-12.3014792091101
30
0
41
1
10
106.188816260064
20
-12.3030927053765
30
0
41
1
10
106.200515789692
20
-12.303215846817
30
0
41
1
10
106.259013437834
20
-12.3004341104615
30
0
41
1
10
106.305811556348
20
-12.2872585573754
30
0
41
1
10
106.446205911888
20
-12.2121203543204
30
0
41
1
10
106.539802148914
20
-12.1143586108268
30
0
41
1
10
106.726994622968
20
-11.8122842754851
30
0
41
1
10
106.820590859994
20
-11.6078842374355
30
0
41
1
10
107.007783334048
20
-11.0882162683238
30
0
41
1
10
107.101379571075
20
-10.7729007606058
30
0
41
1
10
107.288572045128
20
-10.0363185879807
30
0
41
1
10
107.382168282155
20
-9.61506882304255
30
0
41
1
10
107.569360756208
20
-8.68130967878702
30
0
41
1
10
107.662956993235
20
-8.16888526927235
30
0
41
1
10
107.850149467288
20
-7.07570297941777
30
0
41
1
10
107.943745704315
20
-6.49507532450755
30
0
41
1
10
108.130938178368
20
-5.2933077454777
30
0
41
1
10
108.224534415395
20
-4.6723040658857
30
0
41
1
10
108.411726889449
20
-3.41834496407932
30
0
41
1
10
108.505323126476
20
-2.78549522587002
30
0
41
1
10
108.692515600529
20
-1.533384820642
30
0
41
1
10
108.786111837556
20
-0.9141802957582
30
0
41
1
10
108.891407604211
20
-0.236491580715011
30
0
41
1
10
108.903107133839
20
-0.161451586919441
30
0
41
1
10
108.926506193096
20
-0.0119211131322459
30
0
41
1
10
108.938205722724
20
0.0625139961763921
30
0
41
1
10
108.973304311609
20
0.287179667438977
30
0
41
1
10
108.996703370866
20
0.438042404725735
30
0
41
1
10
109.066900548636
20
0.893489704917585
30
0
41
1
10
109.113698667149
20
1.20094548862454
30
0
41
1
10
109.254093022689
20
2.13115812430542
30
0
41
1
10
109.347689259716
20
2.76192011365151
30
0
41
1
10
109.534881733769
20
4.02102840561227
30
0
41
1
10
109.628477970796
20
4.64928515615455
30
0
41
1
10
109.722074207823
20
5.26243010811913
30
0
0
SPLINE
5
F4
100
AcDbEntity
8
1
62
256
6
ByLayer
370
13
48
1
60
0
100
AcDbSpline
70
4
71
3
72
22
73
18
40
0
40
0
40
0
40
0
40
0.125
40
0.125
40
0.25
40
0.25
40
0.375
40
0.375
40
0.5
40
0.5
40
0.625
40
0.625
40
0.75
40
0.75
40
0.875
40
0.875
40
1
40
1
40
1
40
1
41
1
10
98.8
20
3.46751711239591
30
0
41
1
10
98.8919299029889
20
4.0857302390815
30
0
41
1
10
98.9838598059779
20
4.70217607080713
30
0
41
1
10
99.1677196119558
20
5.90527799643917
30
0
41
1
10
99.2596495149448
20
6.49181548981767
30
0
41
1
10
99.4435093209227
20
7.60808295266554
30
0
41
1
10
99.5354392239117
20
8.13768764263756
30
0
41
1
10
99.7192990298897
20
9.11625824241548
30
0
41
1
10
99.8112289328787
20
9.5651280290484
30
0
41
1
10
99.9950887388567
20
10.3650435242805
30
0
41
1
10
100.087018641846
20
10.7160493194988
30
0
41
1
10
100.270878447824
20
11.3118264267875
30
0
41
1
10
100.362808350813
20
11.556619825744
30
0
41
1
10
100.54666815679
20
11.9406036505419
30
0
41
1
10
100.638598059779
20
12.0798624187275
30
0
41
1
10
100.822457865757
20
12.2610166177998
30
0
41
1
10
100.914387768746
20
12.303
30
0
41
1
10
101.006317671735
20
12.303
30
0
0
SPLINE
5
F5
100
AcDbEntity
8
1
62
256
6
ByLayer
370
13
48
1
60
0
100
AcDbSpline
70
4
71
3
72
88
73
84
40
0
40
0
40
0
40
0
40
0.0312499999999998
40
0.0312499999999998
40
0.0624999999999997
40
0.0624999999999997
40
0.0937499999999995
40
0.0937499999999995
40
0.124999999999999
40
0.124999999999999
40
0.156249999999999
40
0.156249999999999
40
0.187499999999999
40
0.187499999999999
40
0.218749999999999
40
0.218749999999999
40
0.249999999999999
40
0.249999999999999
40
0.281249999999999
40
0.281249999999999
40
0.285156249999999
40
0.285156249999999
40
0.289062499999999
40
0.289062499999999
40
0.296874999999999
40
0.296874999999999
40
0.312499999999999
40
0.312499999999999
40
0.34375
40
0.34375
40
0.375000000000001
40
0.375000000000001
40
0.406250000000001
40
0.406250000000001
40
0.437500000000002
40
0.437500000000002
40
0.468750000000003
40
0.468750000000003
40
0.500000000000004
40
0.500000000000004
40
0.531250000000004
40
0.531250000000004
40
0.562500000000005
40
0.562500000000005
40
0.570312500000005
40
0.570312500000005
40
0.574218750000005
40
0.574218750000005
40
0.578125000000005
40
0.578125000000005
40
0.593750000000005
40
0.593750000000005
40
0.625000000000005
40
0.625000000000005
40
0.656250000000004
40
0.656250000000004
40
0.687500000000004
40
0.687500000000004
40
0.718750000000003
40
0.718750000000003
40
0.750000000000003
40
0.750000000000003
40
0.781250000000003
40
0.781250000000003
40
0.812500000000002
40
0.812500000000002
40
0.843750000000002
40
0.843750000000002
40
0.859375000000002
40
0.859375000000002
40
0.863281250000002
40
0.863281250000002
40
0.867187500000002
40
0.867187500000002
40
0.875000000000002
40
0.875000000000002
40
0.906250000000001
40
0.906250000000001
40
0.937500000000001
40
0.937500000000001
40
0.96875
40
0.96875
40
1
40
1
40
1
40
1
41
1
10
100.252626726469
20
12.303
30
0
41
1
10
100.3512668044
20
12.303
30
0
41
1
10
100.44990688233
20
12.2546341338783
30
0
41
1
10
100.647187038192
20
12.0450240496783
30
0
41
1
10
100.745827116123
20
11.8836557330164
30
0
41
1
10
100.943107271984
20
11.4386795188826
30
0
41
1
10
101.041747349915
20
11.154982089884
30
0
41
1
10
101.239027505777
20
10.4663814862674
30
0
41
1
10
101.337667583707
20
10.0614653266801
30
0
41
1
10
101.534947739569
20
9.14354533982669
30
0
41
1
10
101.6335878175
20
8.63062386612643
30
0
41
1
10
101.830867973361
20
7.5208930911885
30
0
41
1
10
101.929508051292
20
6.92424092468465
30
0
41
1
10
102.126788207154
20
5.6786191924156
30
0
41
1
10
102.225428285084
20
5.02982940733017
30
0
41
1
10
102.422708440946
20
3.71359973054032
30
0
41
1
10
102.521348518877
20
3.04630654400944
30
0
41
1
10
102.718628674738
20
1.72373345761739
30
0
41
1
10
102.817268752669
20
1.06853464917032
30
0
41
1
10
102.928238840341
20
0.351775515210988
30
0
41
1
10
102.940568850082
20
0.272413262228923
30
0
41
1
10
102.965228869565
20
0.114282448162555
30
0
41
1
10
102.977558879306
20
0.0356790490578476
30
0
41
1
10
103.014548908531
20
-0.200363403505747
30
0
41
1
10
103.039208928013
20
-0.35896016213394
30
0
41
1
10
103.113188986461
20
-0.837998278053703
30
0
41
1
10
103.162509025427
20
-1.16170249235557
30
0
41
1
10
103.310469142323
20
-2.14164067982895
30
0
41
1
10
103.409109220254
20
-2.80689612776311
30
0
41
1
10
103.606389376115
20
-4.13356016404549
30
0
41
1
10
103.705029454046
20
-4.79484977010367
30
0
41
1
10
103.902309609908
20
-6.08082252938041
30
0
41
1
10
104.000949687838
20
-6.70533496625589
30
0
41
1
10
104.1982298437
20
-7.88455416906876
30
0
41
1
10
104.296869921631
20
-8.43908607408963
30
0
41
1
10
104.494150077492
20
-9.45009622223711
30
0
41
1
10
104.592790155423
20
-9.9064531952142
30
0
41
1
10
104.790070311284
20
-10.7024765619702
30
0
41
1
10
104.888710389215
20
-11.0421127271672
30
0
41
1
10
105.085990545077
20
-11.5980529542396
30
0
41
1
10
105.184630623007
20
-11.8144161480597
30
0
41
1
10
105.381910778869
20
-12.1286858536885
30
0
41
1
10
105.4805508568
20
-12.2267064030301
30
0
41
1
10
105.603850954213
20
-12.2837222324608
30
0
41
1
10
105.628510973696
20
-12.2918660837173
30
0
41
1
10
105.66550100292
20
-12.2993927945557
30
0
41
1
10
105.677831012661
20
-12.3011203273922
30
0
41
1
10
105.702491032144
20
-12.3030474989888
30
0
41
1
10
105.714821041885
20
-12.3032501682882
30
0
41
1
10
105.776471090592
20
-12.3004941485886
30
0
41
1
10
105.825791129558
20
-12.2861325951098
30
0
41
1
10
105.973751246454
20
-12.2033543320682
30
0
41
1
10
106.072391324384
20
-12.0950063709835
30
0
41
1
10
106.269671480246
20
-11.7592152158596
30
0
41
1
10
106.368311558177
20
-11.5316611260276
30
0
41
1
10
106.565591714038
20
-10.9534265066714
30
0
41
1
10
106.664231791969
20
-10.6026939135664
30
0
41
1
10
106.861511947831
20
-9.78567721626467
30
0
41
1
10
106.960152025761
20
-9.31943219102595
30
0
41
1
10
107.157432181623
20
-8.29086636622097
30
0
41
1
10
107.256072259554
20
-7.72867378234847
30
0
41
1
10
107.453352415415
20
-6.53703167117527
30
0
41
1
10
107.551992493346
20
-5.90775908170056
30
0
41
1
10
107.749272649207
20
-4.61535479072424
30
0
41
1
10
107.847912727138
20
-3.95239069383325
30
0
41
1
10
108.045192883
20
-2.6251862274882
30
0
41
1
10
108.143832960931
20
-1.96105873364252
30
0
41
1
10
108.291793077827
20
-0.984467077319749
30
0
41
1
10
108.341113116792
20
-0.662152263201278
30
0
41
1
10
108.402763165499
20
-0.264977817394168
30
0
41
1
10
108.41509317524
20
-0.185827690124739
30
0
41
1
10
108.439753194723
20
-0.0281346432565215
30
0
41
1
10
108.452083204464
20
0.0502858452418593
30
0
41
1
10
108.489073233688
20
0.286995849392611
30
0
41
1
10
108.513733253171
20
0.446010992674559
30
0
41
1
10
108.637033350584
20
1.24635241577116
30
0
41
1
10
108.735673428515
20
1.90376551595602
30
0
41
1
10
108.932953584377
20
3.22821709452799
30
0
41
1
10
109.031593662308
20
3.89516800709856
30
0
41
1
10
109.228873818169
20
5.20770976151374
30
0
41
1
10
109.3275138961
20
5.85314906106515
30
0
41
1
10
109.524794051961
20
7.08902249544491
30
0
41
1
10
109.623434129892
20
7.67927642782465
30
0
41
1
10
109.722074207823
20
8.22644698330927
30
0
0
SPLINE
5
F6
100
AcDbEntity
8
1
62
256
6
ByLayer
370
13
48
1
60
0
100
AcDbSpline
70
4
71
3
72
22
73
18
40
0
40
0
40
0
40
0
40
0.125
40
0.125
40
0.25
40
0.25
40
0.375
40
0.375
40
0.5
40
0.5
40
0.625
40
0.625
40
0.75
40
0.75
40
0.875
40
0.875
40
1
40
1
40
1
40
1
41
1
10
98.8
20
6.6360384231472
30
0
41
1
10
98.8717545393729
20
7.08188106739263
30
0
41
1
10
98.9435090787456
20
7.51235043585734
30
0
41
1
10
99.0870181574911
20
8.33056979945567
30
0
41
1
10
99.1587726968639
20
8.71828659874646
30
0
41
1
10
99.3022817756094
20
9.44087351873981
30
0
41
1
10
99.3740363149823
20
9.77572023041932
30
0
41
1
10
99.5175453937279
20
10.3852302763557
30
0
41
1
10
99.5892999331006
20
10.6598838162205
30
0
41
1
10
99.7328090118462
20
11.1449715773895
30
0
41
1
10
99.804563551219
20
11.355410222044
30
0
41
1
10
99.9480726299646
20
11.7114127026548
30
0
41
1
10
100.019827169337
20
11.8569926932402
30
0
41
1
10
100.163336248083
20
12.0856819685012
30
0
41
1
10
100.235090787456
20
12.1688146905079
30
0
41
1
10
100.378599866201
20
12.2774607955667
30
0
41
1
10
100.450354405574
20
12.303
30
0
41
1
10
100.522108944947
20
12.303
30
0
0
SPLINE
5
F7
100
AcDbEntity
8
1
62
256
6
ByLayer
370
13
48
1
60
0
100
AcDbSpline
70
4
71
3
72
131
73
127
40
0
40
0
40
0
40
0
40
0.0312500000000001
40
0.0312500000000001
40
0.0468750000000001
40
0.0468750000000001
40
0.0625000000000001
40
0.0625000000000001
40
0.0781250000000001
40
0.0781250000000001
40
0.0937500000000002
40
0.0937500000000002
40
0.109375
40
0.109375
40
0.125
40
0.125
40
0.140625
40
0.140625
40
0.15625
40
0.15625
40
0.171875
40
0.171875
40
0.187500000000001
40
0.187500000000001
40
0.203125000000001
40
0.203125000000001
40
0.218750000000001
40
0.218750000000001
40
0.250000000000001
40
0.250000000000001
40
0.265625000000001
40
0.265625000000001
40
0.273437500000001
40
0.273437500000001
40
0.277343750000001
40
0.277343750000001
40
0.281250000000001
40
0.281250000000001
40
0.312500000000001
40
0.312500000000001
40
0.328125000000001
40
0.328125000000001
40
0.343750000000001
40
0.343750000000001
40
0.359375000000001
40
0.359375000000001
40
0.375000000000001
40
0.375000000000001
40
0.390625000000001
40
0.390625000000001
40
0.406250000000001
40
0.406250000000001
40
0.421875000000001
40
0.421875000000001
40
0.437500000000001
40
0.437500000000001
40
0.453125000000001
40
0.453125000000001
40
0.468750000000001
40
0.468750000000001
40
0.484375000000001
40
0.484375000000001
40
0.500000000000001
40
0.500000000000001
40
0.531250000000001
40
0.531250000000001
40
0.546875000000001
40
0.546875000000001
40
0.550781250000001
40
0.550781250000001
40
0.554687500000001
40
0.562500000000001
40
0.562500000000001
40
0.593750000000001
40
0.593750000000001
40
0.609375000000001
40
0.609375000000001
40
0.625000000000001
40
0.625000000000001
40
0.640625000000001
40
0.640625000000001
40
0.656250000000001
40
0.656250000000001
40
0.671875
40
0.671875
40
0.6875
40
0.6875
40
0.703125
40
0.703125
40
0.71875
40
0.71875
40
0.734375
40
0.734375
40
0.75
40
0.75
40
0.765625
40
0.765625
40
0.78125
40
0.78125
40
0.8125
40
0.8125
40
0.8203125
40
0.8203125
40
0.82421875
40
0.82421875
40
0.828125
40
0.828125
40
0.84375
40
0.84375
40
0.875
40
0.875
40
0.890625
40
0.890625
40
0.90625
40
0.90625
40
0.921875
40
0.921875
40
0.9375
40
0.9375
40
0.953125
40
0.953125
40
0.96875
40
0.96875
40
0.984375
40
0.984375
40
1
40
1
40
1
40
1
41
1
10
99.7684179996805
20
12.303
30
0
41
1
10
99.8721019185153
20
12.303
30
0
41
1
10
99.9757858373502
20
12.2495344160084
30
0
41
1
10
100.131311715602
20
12.0751979106982
30
0
41
1
10
100.18315367502
20
12.0014423752071
30
0
41
1
10
100.286837593855
20
11.8210817436664
30
0
41
1
10
100.338679553272
20
11.714472182693
30
0
41
1
10
100.442363472107
20
11.4675274342196
30
0
41
1
10
100.494205431524
20
11.3271888404902
30
0
41
1
10
100.597889350359
20
11.0127268248438
30
0
41
1
10
100.649731309776
20
10.8386015355082
30
0
41
1
10
100.753415228611
20
10.4574046974986
30
0
41
1
10
100.805257188029
20
10.2503331807305
30
0
41
1
10
100.908941106863
20
9.80500901074652
30
0
41
1
10
100.960783066281
20
9.56675845272426
30
0
41
1
10
101.064466985116
20
9.0617363887946
30
0
41
1
10
101.116308944533
20
8.79496896012986
30
0
41
1
10
101.219992863368
20
8.2363752552989
30
0
41
1
10
101.271834822785
20
7.94455470742196
30
0
41
1
10
101.37551874162
20
7.33997017065226
30
0
41
1
10
101.427360701038
20
7.02721302477721
30
0
41
1
10
101.531044619872
20
6.38533317583173
30
0
41
1
10
101.58288657929
20
6.05621777361813
30
0
41
1
10
101.686570498125
20
5.38644698056618
30
0
41
1
10
101.738412457542
20
5.04579867594657
30
0
41
1
10
101.842096376377
20
4.35781693242947
30
0
41
1
10
101.893938335794
20
4.01048977743994
30
0
41
1
10
102.049464214046
20
2.96550272992931
30
0
41
1
10
102.153148132881
20
2.26509008514762
30
0
41
1
10
102.308674011134
20
1.2334121146414
30
0
41
1
10
102.360515970551
20
0.892618424023169
30
0
41
1
10
102.438278909677
20
0.38854872111844
30
0
41
1
10
102.464199889386
20
0.221707730233618
30
0
41
1
10
102.503081358949
20
-0.0265132625970637
30
0
41
1
10
102.516041848803
20
-0.109084314036664
30
0
41
1
10
102.541962828512
20
-0.275294861677224
30
0
41
1
10
102.554923318366
20
-0.358728225599606
30
0
41
1
10
102.671567727055
20
-1.1123804669823
30
0
41
1
10
102.77525164589
20
-1.80223964511435
30
0
41
1
10
102.930777524142
20
-2.84585804345215
30
0
41
1
10
102.98261948356
20
-3.19512898668302
30
0
41
1
10
103.086303402395
20
-3.89218870193906
30
0
41
1
10
103.138145361812
20
-4.23997257901843
30
0
41
1
10
103.241829280647
20
-4.92941047595042
30
0
41
1
10
103.293671240064
20
-5.27105833337322
30
0
41
1
10
103.397355158899
20
-5.94338099371348
30
0
41
1
10
103.449197118317
20
-6.27404877427549
30
0
41
1
10
103.552881037151
20
-6.9195721231842
30
0
41
1
10
103.604722996569
20
-7.23442038197297
30
0
41
1
10
103.708406915404
20
-7.84368692093432
30
0
41
1
10
103.760248874821
20
-8.13809827193032
30
0
41
1
10
103.863932793656
20
-8.70231085902751
30
0
41
1
10
103.915774753073
20
-8.9721062104008
30
0
41
1
10
104.019458671908
20
-9.48353904089134
30
0
41
1
10
104.071300631325
20
-9.72517223456123
30
0
41
1
10
104.17498455016
20
-10.1775199391946
30
0
41
1
10
104.226826509578
20
-10.388232121382
30
0
41
1
10
104.330510428412
20
-10.7768643279545
30
0
41
1
10
104.38235238783
20
-10.9547840904796
30
0
41
1
10
104.486036306665
20
-11.2768843628116
30
0
41
1
10
104.537878266082
20
-11.4210665397781
30
0
41
1
10
104.641562184917
20
-11.6756490856218
30
0
41
1
10
104.693404144334
20
-11.7860527089315
30
0
41
1
10
104.848930022587
20
-12.0677708611351
30
0
41
1
10
104.952613941421
20
-12.1893204080434
30
0
41
1
10
105.108139819674
20
-12.2829493251495
30
0
41
1
10
105.159981779091
20
-12.2994514380668
30
0
41
1
10
105.224784228363
20
-12.3032435081681
30
0
41
1
10
105.237744718217
20
-12.3031665896695
30
0
41
1
10
105.263665697926
20
-12.3013363412973
30
0
41
1
10
105.302547167489
20
-12.2960626514243
30
0
41
1
10
105.341428637052
20
-12.2830193105287
30
0
41
1
10
105.471033535595
20
-12.2215024321745
30
0
41
1
10
105.57471745443
20
-12.1142418174112
30
0
41
1
10
105.730243332682
20
-11.8548304607995
30
0
41
1
10
105.7820852921
20
-11.7520035875563
30
0
41
1
10
105.885769210935
20
-11.5126844272222
30
0
41
1
10
105.937611170352
20
-11.3761885883678
30
0
41
1
10
106.041295089187
20
-11.0693747665102
30
0
41
1
10
106.093137048604
20
-10.8990547205468
30
0
41
1
10
106.196820967439
20
-10.5253267641205
30
0
41
1
10
106.248662926857
20
-10.3219186577701
30
0
41
1
10
106.352346845691
20
-9.88367508200344
30
0
41
1
10
106.404188805109
20
-9.64884147315996
30
0
41
1
10
106.507872723944
20
-9.15030916856915
30
0
41
1
10
106.559714683361
20
-8.88661433755755
30
0
41
1
10
106.663398602196
20
-8.33373730646017
30
0
41
1
10
106.715240561613
20
-8.04456067123971
30
0
41
1
10
106.818924480448
20
-7.44477032507385
30
0
41
1
10
106.870766439866
20
-7.13416336243029
30
0
41
1
10
106.9744503587
20
-6.49604834094686
30
0
41
1
10
107.026292318118
20
-6.16854756551078
30
0
41
1
10
107.129976236953
20
-5.50145349585952
30
0
41
1
10
107.18181819637
20
-5.16186734409348
30
0
41
1
10
107.285502115205
20
-4.47546469128645
30
0
41
1
10
107.337344074622
20
-4.12865459008498
30
0
41
1
10
107.441027993457
20
-3.43251442711056
30
0
41
1
10
107.492869952874
20
-3.08318957334654
30
0
41
1
10
107.648395831127
20
-2.03800942757164
30
0
41
1
10
107.752079749961
20
-1.34523634695211
30
0
41
1
10
107.881684648505
20
-0.502491780928068
30
0
41
1
10
107.907605628214
20
-0.335082108015598
30
0
41
1
10
107.946487097777
20
-0.085950009293839
30
0
41
1
10
107.959447587631
20
-0.0034653099087052
30
0
41
1
10
107.98536856734
20
0.162141446689731
30
0
41
1
10
107.998329057194
20
0.245282644887055
30
0
41
1
10
108.063131506466
20
0.662568836494245
30
0
41
1
10
108.114973465883
20
1.00147770037108
30
0
41
1
10
108.270499344136
20
2.02869965958459
30
0
41
1
10
108.37418326297
20
2.72775218233488
30
0
41
1
10
108.529709141222
20
3.77377154926302
30
0
41
1
10
108.58155110064
20
4.12195222269676
30
0
41
1
10
108.685235019475
20
4.81272387353653
30
0
41
1
10
108.737076978892
20
5.15530881526175
30
0
41
1
10
108.840760897727
20
5.83005843839143
30
0
41
1
10
108.892602857144
20
6.1622161687402
30
0
41
1
10
108.996286775979
20
6.81126100673993
30
0
41
1
10
109.048128735397
20
7.12814080481857
30
0
41
1
10
109.151812654231
20
7.74197584605227
30
0
41
1
10
109.203654613649
20
8.03892408252182
30
0
41
1
10
109.307338532484
20
8.60865588700995
30
0
41
1
10
109.359180491901
20
8.88143342108904
30
0
41
1
10
109.462864410736
20
9.39919571015227
30
0
41
1
10
109.514706370153
20
9.64417597613155
30
0
41
1
10
109.618390288988
20
10.103487558622
30
0
41
1
10
109.670232248405
20
10.317816314192
30
0
41
1
10
109.722074207823
20
10.5158319952719
30
0
0
SPLINE
5
F8
100
AcDbEntity
8
1
62
256
6
ByLayer
370
13
48
1
60
0
100
AcDbSpline
70
4
71
3
72
18
73
14
40
0
40
0
40
0
40
0
40
0.125
40
0.125
40
0.25
40
0.25
40
0.375
40
0.375
40
0.5
40
0.5
40
0.75
40
0.75
40
1
40
1
40
1
40
1
41
1
10
98.8
20
9.34489624579558
30
0
41
1
10
98.8515791757567
20
9.59497694622704
30
0
41
1
10
98.9031583515132
20
9.83088021736683
30
0
41
1
10
99.0063167030264
20
10.271748120317
30
0
41
1
10
99.057895878783
20
10.4767107809669
30
0
41
1
10
99.1610542302962
20
10.8539849380074
30
0
41
1
10
99.2126334060528
20
11.0262964631742
30
0
41
1
10
99.315791757566
20
11.3374640557148
30
0
41
1
10
99.3673709333226
20
11.4763219868569
30
0
41
1
10
99.5221084605925
20
11.8428246407736
30
0
41
1
10
99.6252668121057
20
12.0200673898574
30
0
41
1
10
99.8315835151321
20
12.2500779429784
30
0
41
1
10
99.9347418666453
20
12.303
30
0
41
1
10
100.037900218158
20
12.303
30
0
0
SPLINE
5
F9
100
AcDbEntity
8
1
62
256
6
ByLayer
370
13
48
1
60
0
100
AcDbSpline
70
4
71
3
72
141
73
137
40
0
40
0
40
0
40
0
40
0.0156250000000001
40
0.0156250000000001
40
0.0312500000000001
40
0.0312500000000001
40
0.0468750000000002
40
0.0468750000000002
40
0.0625000000000003
40
0.0625000000000003
40
0.0781250000000003
40
0.0781250000000003
40
0.0937500000000004
40
0.0937500000000004
40
0.109375000000001
40
0.109375000000001
40
0.125000000000001
40
0.125000000000001
40
0.140625000000001
40
0.140625000000001
40
0.156250000000001
40
0.156250000000001
40
0.171875000000001
40
0.171875000000001
40
0.187500000000001
40
0.187500000000001
40
0.203125000000001
40
0.203125000000001
40
0.218750000000001
40
0.218750000000001
40
0.234375000000001
40
0.234375000000001
40
0.250000000000001
40
0.250000000000001
40
0.257812500000001
40
0.257812500000001
40
0.265625000000001
40
0.265625000000001
40
0.281250000000001
40
0.281250000000001
40
0.296875
40
0.296875
40
0.3125
40
0.3125
40
0.328125
40
0.328125
40
0.34375
40
0.34375
40
0.359374999999999
40
0.359374999999999
40
0.374999999999999
40
0.374999999999999
40
0.390624999999999
40
0.390624999999999
40
0.406249999999999
40
0.406249999999999
40
0.421874999999998
40
0.421874999999998
40
0.437499999999998
40
0.437499999999998
40
0.453124999999998
40
0.453124999999998
40
0.468749999999997
40
0.468749999999997
40
0.484374999999997
40
0.484374999999997
40
0.499999999999996
40
0.499999999999996
40
0.515624999999996
40
0.515624999999996
40
0.523437499999996
40
0.523437499999996
40
0.531249999999996
40
0.531249999999996
40
0.546874999999996
40
0.546874999999996
40
0.562499999999996
40
0.562499999999996
40
0.578124999999996
40
0.578124999999996
40
0.593749999999996
40
0.593749999999996
40
0.609374999999996
40
0.609374999999996
40
0.624999999999996
40
0.624999999999996
40
0.640624999999996
40
0.640624999999996
40
0.656249999999996
40
0.656249999999996
40
0.671874999999996
40
0.671874999999996
40
0.687499999999996
40
0.687499999999996
40
0.703124999999996
40
0.703124999999996
40
0.718749999999996
40
0.718749999999996
40
0.734374999999996
40
0.734374999999996
40
0.749999999999996
40
0.749999999999996
40
0.765624999999996
40
0.765624999999996
40
0.781249999999996
40
0.781249999999996
40
0.785156249999996
40
0.785156249999996
40
0.789062499999996
40
0.796874999999996
40
0.796874999999996
40
0.812499999999997
40
0.812499999999997
40
0.828124999999997
40
0.828124999999997
40
0.843749999999997
40
0.843749999999997
40
0.859374999999997
40
0.859374999999997
40
0.874999999999998
40
0.874999999999998
40
0.890624999999998
40
0.890624999999998
40
0.906249999999998
40
0.906249999999998
40
0.921874999999999
40
0.921874999999999
40
0.937499999999999
40
0.937499999999999
40
0.953124999999999
40
0.953124999999999
40
0.968749999999999
40
0.968749999999999
40
0.984375
40
0.984375
40
1
40
1
40
1
40
1
41
1
10
99.2842092728921
20
12.303
30
0
41
1
10
99.3385731527615
20
12.303
30
0
41
1
10
99.392937032631
20
12.288353613691
30
0
41
1
10
99.5016647923698
20
12.22687641661
30
0
41
1
10
99.5560286722393
20
12.1800391624492
30
0
41
1
10
99.6647564319781
20
12.0517689593296
30
0
41
1
10
99.7191203118476
20
11.9703297011382
30
0
41
1
10
99.8278480715864
20
11.771130239587
30
0
41
1
10
99.8822119514558
20
11.6533645326406
30
0
41
1
10
99.9909397111946
20
11.3806528539809
30
0
41
1
10
100.045303591064
20
11.2257029009423
30
0
41
1
10
100.154031350803
20
10.8787744074212
30
0
41
1
10
100.208395230672
20
10.6867940526695
30
0
41
1
10
100.317122990411
20
10.2670567485882
30
0
41
1
10
100.371486870281
20
10.0393005955909
30
0
41
1
10
100.48021463002
20
9.5503807473772
30
0
41
1
10
100.534578509889
20
9.28922059182676
30
0
41
1
10
100.643306269628
20
8.73691398549829
30
0
41
1
10
100.697670149497
20
8.44577358330523
30
0
41
1
10
100.806397909236
20
7.8378348234771
30
0
41
1
10
100.860761789106
20
7.52104444058133
30
0
41
1
10
100.969489548845
20
6.86682822183346
30
0
41
1
10
101.023853428714
20
6.52941145021137
30
0
41
1
10
101.132581188453
20
5.83940008619763
30
0
41
1
10
101.186945068322
20
5.48681470422002
30
0
41
1
10
101.295672828061
20
4.77208105260348
30
0
41
1
10
101.35003670793
20
4.40994125107983
30
0
41
1
10
101.458764467669
20
3.68160246902031
30
0
41
1
10
101.513128347539
20
3.31541051590875
30
0
41
1
10
101.621856107278
20
2.58412498165421
30
0
41
1
10
101.676219987147
20
2.2190365594677
30
0
41
1
10
101.784947746886
20
1.49458528619516
30
0
41
1
10
101.839311626755
20
1.13522558505258
30
0
41
1
10
101.92085744656
20
0.603459154323446
30
0
41
1
10
101.948039386494
20
0.427410463846201
30
0
41
1
10
102.002403266364
20
0.0781555987410627
30
0
41
1
10
102.029585206299
20
-0.0943435728629254
30
0
41
1
10
102.111131026103
20
-0.618489795024487
30
0
41
1
10
102.165494905972
20
-0.973602870821196
30
0
41
1
10
102.274222665711
20
-1.69157049465898
30
0
41
1
10
102.32858654558
20
-2.05442283983595
30
0
41
1
10
102.437314305319
20
-2.78355139141485
30
0
41
1
10
102.491678185189
20
-3.14982341141814
30
0
41
1
10
102.600405944927
20
-3.88087520593584
30
0
41
1
10
102.654769824797
20
-4.24564882289951
30
0
41
1
10
102.763497584536
20
-4.96834466751503
30
0
41
1
10
102.817861464405
20
-5.32625905339413
30
0
41
1
10
102.926589224144
20
-6.02964565421189
30
0
41
1
10
102.980953104013
20
-6.37510891652525
30
0
41
1
10
103.089680863752
20
-7.04802527738755
30
0
41
1
10
103.144044743622
20
-7.37546912281664
30
0
41
1
10
103.252772503361
20
-8.00707788671156
30
0
41
1
10
103.30713638323
20
-8.31123418771861
30
0
41
1
10
103.415864142969
20
-8.89157009844141
30
0
41
1
10
103.470228022838
20
-9.1677426349556
30
0
41
1
10
103.578955782577
20
-9.68822305429342
30
0
41
1
10
103.633319662447
20
-9.93252612977847
30
0
41
1
10
103.742047422185
20
-10.3863702438515
30
0
41
1
10
103.796411302055
20
-10.5959091514399
30
0
41
1
10
103.905139061794
20
-10.9784234647608
30
0
41
1
10
103.959502941663
20
-11.1513994582823
30
0
41
1
10
104.068230701402
20
-11.460105356196
30
0
41
1
10
104.122594581271
20
-11.5958382630981
30
0
41
1
10
104.23132234101
20
-11.8304389387357
30
0
41
1
10
104.28568622088
20
-11.9293115616432
30
0
41
1
10
104.394413980619
20
-12.091515918685
30
0
41
1
10
104.448777860488
20
-12.1548536607908
30
0
41
1
10
104.557505620227
20
-12.2480900797442
30
0
41
1
10
104.611869500096
20
-12.2779952122247
30
0
41
1
10
104.6934153199
20
-12.2997909089491
30
0
41
1
10
104.720597259835
20
-12.3032168078829
30
0
41
1
10
104.774961139705
20
-12.3027620086883
30
0
41
1
10
104.802143079639
20
-12.2988701000319
30
0
41
1
10
104.883688899443
20
-12.2756415164764
30
0
41
1
10
104.938052779313
20
-12.2447358951606
30
0
41
1
10
105.046780539052
20
-12.1494233511978
30
0
41
1
10
105.101144418921
20
-12.0850099769132
30
0
41
1
10
105.20987217866
20
-11.9206005332706
30
0
41
1
10
105.26423605853
20
-11.8205984809011
30
0
41
1
10
105.372963818268
20
-11.5837120650843
30
0
41
1
10
105.427327698138
20
-11.4468228948377
30
0
41
1
10
105.536055457877
20
-11.1358090633369
30
0
41
1
10
105.590419337746
20
-10.9616814671449
30
0
41
1
10
105.699147097485
20
-10.5769028125093
30
0
41
1
10
105.753510977354
20
-10.3662512477722
30
0
41
1
10
105.862238737093
20
-9.91025548650239
30
0
41
1
10
105.916602616963
20
-9.66491350666374
30
0
41
1
10
106.025330376702
20
-9.14246173241028
30
0
41
1
10
106.079694256571
20
-8.86535682372332
30
0
41
1
10
106.18842201631
20
-8.28329088595567
30
0
41
1
10
106.242785896179
20
-7.9783369902394
30
0
41
1
10
106.351513655918
20
-7.3452893754469
30
0
41
1
10
106.405877535788
20
-7.01720430780915
30
0
41
1
10
106.514605295526
20
-6.34317538064309
30
0
41
1
10
106.568969175396
20
-5.99724077870019
30
0
41
1
10
106.677696935135
20
-5.29308624991023
30
0
41
1
10
106.732060815004
20
-4.93487525237839
30
0
41
1
10
106.840788574743
20
-4.21175743658586
30
0
41
1
10
106.895152454613
20
-3.84685841499021
30
0
41
1
10
107.003880214351
20
-3.11571624474181
30
0
41
1
10
107.058244094221
20
-2.74947919522538
30
0
41
1
10
107.16697185396
20
-2.02056446749981
30
0
41
1
10
107.221335733829
20
-1.65789091296179
30
0
41
1
10
107.330063493568
20
-0.940404322378811
30
0
41
1
10
107.384427373437
20
-0.585593429945135
30
0
41
1
10
107.452382223274
20
-0.149245765175124
30
0
41
1
10
107.465973193241
20
-0.0624542060279225
30
0
41
1
10
107.493155133176
20
0.110891913951633
30
0
41
1
10
107.533928043078
20
0.37204030424445
30
0
41
1
10
107.57470095298
20
0.636357683909125
30
0
41
1
10
107.656246772784
20
1.16857058521225
30
0
41
1
10
107.710610652654
20
1.52817157460097
30
0
41
1
10
107.819338412393
20
2.25297119625299
30
0
41
1
10
107.873702292262
20
2.61816661667976
30
0
41
1
10
107.982430052001
20
3.34951325095463
30
0
41
1
10
108.036793931871
20
3.71565924426031
30
0
41
1
10
108.145521691609
20
4.4437393758455
30
0
41
1
10
108.199885571479
20
4.80566643400905
30
0
41
1
10
108.308613331218
20
5.51980061649212
30
0
41
1
10
108.362977211087
20
5.87199923787733
30
0
41
1
10
108.471704970826
20
6.56106377679072
30
0
41
1
10
108.526068850695
20
6.89792047440224
30
0
41
1
10
108.634796610434
20
7.55085254110915
30
0
41
1
10
108.689160490304
20
7.86691886575284
30
0
41
1
10
108.797888250043
20
8.47326328345341
30
0
41
1
10
108.852252129912
20
8.76353344998287
30
0
41
1
10
108.960979889651
20
9.31397858807728
30
0
41
1
10
109.01534376952
20
9.57414758184777
30
0
41
1
10
109.124071529259
20
10.0609949762142
30
0
41
1
10
109.178435409129
20
10.2876699207594
30
0
41
1
10
109.287163168867
20
10.7051888251665
30
0
41
1
10
109.341527048737
20
10.8960320735999
30
0
41
1
10
109.450254808476
20
11.2406652268156
30
0
41
1
10
109.504618688345
20
11.3944570212089
30
0
41
1
10
109.613346448084
20
11.664864373333
30
0
41
1
10
109.667710327954
20
11.7814839700767
30
0
41
1
10
109.722074207823
20
11.8799582650623
30
0
0
SPLINE
5
FA
100
AcDbEntity
8
1
62
256
6
ByLayer
370
13
48
1
60
0
100
AcDbSpline
70
4
71
3
72
8
73
4
40
0
40
0
40
0
40
0
40
1
40
1
40
1
40
1
41
1
10
109.452592535449
20
12.303
30
0
41
1
10
109.542419759573
20
12.303
30
0
41
1
10
109.632246983698
20
12.2629224593485
30
0
41
1
10
109.722074207823
20
12.1765787934533
30
0
0
SPLINE
5
FB
100
AcDbEntity
8
1
62
256
6
ByLayer
370
13
48
1
60
0
100
AcDbSpline
70
4
71
3
72
14
73
10
40
0
40
0
40
0
40
0
40
0.25
40
0.25
40
0.5
40
0.5
40
0.75
40
0.75
40
1
40
1
40
1
40
1
41
1
10
98.7999999999999
20
11.2413602592755
30
0
41
1
10
98.8628076242808
20
11.4255576377857
30
0
41
1
10
98.9256152485617
20
11.5849016208372
30
0
41
1
10
99.0512304971233
20
11.8543671754248
30
0
41
1
10
99.1140381214042
20
11.9644987724821
30
0
41
1
10
99.2396533699659
20
12.1377113656469
30
0
41
1
10
99.3024609942467
20
12.2008049663085
30
0
41
1
10
99.4280762428083
20
12.2834426423384
30
0
41
1
10
99.4908838670893
20
12.303
30
0
41
1
10
99.5536914913701
20
12.303
30
0
0
SPLINE
5
FC
100
AcDbEntity
8
1
62
256
6
ByLayer
370
13
48
1
60
0
100
AcDbSpline
70
4
71
3
72
134
73
130
40
0
40
0
40
0
40
0
40
0.015625
40
0.015625
40
0.03125
40
0.03125
40
0.046875
40
0.046875
40
0.0625000000000001
40
0.0625000000000001
40
0.0781250000000001
40
0.0781250000000001
40
0.0937500000000001
40
0.0937500000000001
40
0.109375
40
0.109375
40
0.125
40
0.125
40
0.140625
40
0.140625
40
0.15625
40
0.15625
40
0.171875
40
0.171875
40
0.1875
40
0.1875
40
0.203125
40
0.203125
40
0.21875
40
0.21875
40
0.234375
40
0.234375
40
0.25
40
0.25
40
0.265625
40
0.265625
40
0.28125
40
0.28125
40
0.296875
40
0.296875
40
0.3125
40
0.3125
40
0.328125
40
0.328125
40
0.34375
40
0.34375
40
0.359375
40
0.359375
40
0.375
40
0.375
40
0.390625
40
0.390625
40
0.40625
40
0.40625
40
0.421875
40
0.421875
40
0.4375
40
0.4375
40
0.453125
40
0.453125
40
0.46875
40
0.46875
40
0.484375
40
0.484375
40
0.5
40
0.5
40
0.515625
40
0.515625
40
0.53125
40
0.53125
40
0.546875
40
0.546875
40
0.5625
40
0.5625
40
0.578125
40
0.578125
40
0.59375
40
0.59375
40
0.609375
40
0.609375
40
0.625
40
0.625
40
0.640625
40
0.640625
40
0.65625
40
0.65625
40
0.671875
40
0.671875
40
0.6875
40
0.6875
40
0.703125
40
0.703125
40
0.71875
40
0.71875
40
0.734375
40
0.734375
40
0.75
40
0.75
40
0.765625
40
0.765625
40
0.78125
40
0.78125
40
0.796875
40
0.796875
40
0.8125
40
0.8125
40
0.828125
40
0.828125
40
0.84375
40
0.84375
40
0.859375
40
0.859375
40
0.875
40
0.875
40
0.890625
40
0.890625
40
0.90625
40
0.90625
40
0.921875
40
0.921875
40
0.9375
40
0.9375
40
0.953125
40
0.953125
40
0.96875
40
0.96875
40
0.984375
40
0.984375
40
1
40
1
40
1
40
1
41
1
10
98.8000005461037
20
12.303
30
0
41
1
10
98.8568863464252
20
12.303
30
0
41
1
10
98.9137721467466
20
12.2869613999221
30
0
41
1
10
99.0275437473895
20
12.2195050915249
30
0
41
1
10
99.0844295477109
20
12.1680792943949
30
0
41
1
10
99.1982011483538
20
12.0271326431473
30
0
41
1
10
99.2550869486753
20
11.9376039345942
30
0
41
1
10
99.3688585493182
20
11.7185789291171
30
0
41
1
10
99.4257443496396
20
11.5890759443771
30
0
41
1
10
99.5395159502826
20
11.2892951714336
30
0
41
1
10
99.5964017506041
20
11.1190128409551
30
0
41
1
10
99.7101733512469
20
10.7381037167796
30
0
41
1
10
99.7670591515684
20
10.5274753717601
30
0
41
1
10
99.8808307522113
20
10.067636591141
30
0
41
1
10
99.9377165525328
20
9.81842811504831
30
0
41
1
10
100.051488153176
20
9.28451897902289
30
0
41
1
10
100.108373953497
20
8.99982383442028
30
0
41
1
10
100.22214555414
20
8.39924634414893
30
0
41
1
10
100.279031354461
20
8.08337258487418
30
0
41
1
10
100.392802955104
20
7.42574400110391
30
0
41
1
10
100.449688755426
20
7.08399988623964
30
0
41
1
10
100.563460356069
20
6.38064436058852
30
0
41
1
10
100.62034615639
20
6.01904454800962
30
0
41
1
10
100.734117757033
20
5.28235942425692
30
0
41
1
10
100.791003557355
20
4.90728531520162
30
0
41
1
10
100.904775157998
20
4.15005447129337
30
0
41
1
10
100.961660958319
20
3.76790743809673
30
0
41
1
10
101.075432558962
20
3.00263708866567
30
0
41
1
10
101.132318359283
20
2.61952121402595
30
0
41
1
10
101.246089959926
20
1.857863253109
30
0
41
1
10
101.302975760248
20
1.47932600095544
30
0
41
1
10
101.41674736089
20
0.731633980262529
30
0
41
1
10
101.473633161212
20
0.362481476151998
30
0
41
1
10
101.587404761855
20
-0.362479736245064
30
0
41
1
10
101.644290562176
20
-0.73163220070532
30
0
41
1
10
101.758062162819
20
-1.47932419159096
30
0
41
1
10
101.814947963141
20
-1.85786143235791
30
0
41
1
10
101.928719563784
20
-2.61951937881884
30
0
41
1
10
101.985605364105
20
-3.00263525039341
30
0
41
1
10
102.099376964748
20
-3.7679056030712
30
0
41
1
10
102.156262765069
20
-4.15005264258375
30
0
41
1
10
102.270034365713
20
-4.90728350920307
30
0
41
1
10
102.326920166034
20
-5.28235763465671
30
0
41
1
10
102.440691766677
20
-6.01904280152104
30
0
41
1
10
102.497577566998
20
-6.38064264081484
30
0
41
1
10
102.611349167641
20
-7.08399822990657
30
0
41
1
10
102.668234967963
20
-7.42574238149621
30
0
41
1
10
102.782006568605
20
-8.08337104786443
30
0
41
1
10
102.838892368927
20
-8.39924485300932
30
0
41
1
10
102.95266396957
20
-8.99982244278763
30
0
41
1
10
103.009549769891
20
-9.28451764102275
30
0
41
1
10
103.123321370534
20
-9.81842689028429
30
0
41
1
10
103.180207170856
20
-10.0676354259751
30
0
41
1
10
103.293978771499
20
-10.5274743296995
30
0
41
1
10
103.35086457182
20
-10.7381027382203
30
0
41
1
10
103.464636172463
20
-11.1190119911503
30
0
41
1
10
103.521521972784
20
-11.2892943868767
30
0
41
1
10
103.635293573427
20
-11.5890752899859
30
0
41
1
10
103.692179373749
20
-11.7185783396396
30
0
41
1
10
103.805950974392
20
-11.9376034727514
30
0
41
1
10
103.862836774713
20
-12.0271322440228
30
0
41
1
10
103.976608375356
20
-12.1680790169752
30
0
41
1
10
104.033494175678
20
-12.2195048730904
30
0
41
1
10
104.14726577632
20
-12.286961294566
30
0
41
1
10
104.204151576642
20
-12.3029999487374
30
0
41
1
10
104.317923177285
20
-12.3030000512624
30
0
41
1
10
104.374808977606
20
-12.2869615052779
30
0
41
1
10
104.488580578249
20
-12.2195053099591
30
0
41
1
10
104.545466378571
20
-12.1680795718144
30
0
41
1
10
104.659237979213
20
-12.0271330422715
30
0
41
1
10
104.716123779535
20
-11.9376043964368
30
0
41
1
10
104.829895380178
20
-11.7185795185943
30
0
41
1
10
104.886781180499
20
-11.5890765987679
30
0
41
1
10
105.000552781142
20
-11.2892959559902
30
0
41
1
10
105.057438581464
20
-11.1190136907596
30
0
41
1
10
105.171210182107
20
-10.7381046953387
30
0
41
1
10
105.228095982428
20
-10.5274764138204
30
0
41
1
10
105.341867583071
20
-10.0676377563066
30
0
41
1
10
105.398753383392
20
-9.81842933981207
30
0
41
1
10
105.512524984035
20
-9.28452031702278
30
0
41
1
10
105.569410784357
20
-8.99982522605271
30
0
41
1
10
105.683182385
20
-8.39924783528829
30
0
41
1
10
105.740068185321
20
-8.08337412188371
30
0
41
1
10
105.853839785964
20
-7.42574562071144
30
0
41
1
10
105.910725586286
20
-7.08400154257254
30
0
41
1
10
106.024497186928
20
-6.38064608036206
30
0
41
1
10
106.08138298725
20
-6.01904629449805
30
0
41
1
10
106.195154587893
20
-5.28236121385703
30
0
41
1
10
106.252040388214
20
-4.90728712120008
30
0
41
1
10
106.365811988857
20
-4.15005630000297
30
0
41
1
10
106.422697789179
20
-3.7679092731222
30
0
41
1
10
106.536469389822
20
-3.00263892693792
30
0
41
1
10
106.593355190143
20
-2.6195230492331
30
0
41
1
10
106.707126790786
20
-1.85786507386018
30
0
41
1
10
106.764012591107
20
-1.47932781032
30
0
41
1
10
106.87778419175
20
-0.731635759819852
30
0
41
1
10
106.934669992072
20
-0.362483237292594
30
0
41
1
10
107.048441592715
20
0.362478017571675
30
0
41
1
10
107.105327393036
20
0.731630421148196
30
0
41
1
10
107.219098993679
20
1.47932238222654
30
0
41
1
10
107.275984794
20
1.85785961160681
30
0
41
1
10
107.389756394643
20
2.61951754361172
30
0
41
1
10
107.446642194965
20
3.00263341212116
30
0
41
1
10
107.560413795608
20
3.76790376804567
30
0
41
1
10
107.617299595929
20
4.15005081387406
30
0
41
1
10
107.731071196572
20
4.90728170320446
30
0
41
1
10
107.787956996893
20
5.2823558450564
30
0
41
1
10
107.901728597536
20
6.01904105503235
30
0
41
1
10
107.958614397858
20
6.38064092104102
30
0
41
1
10
108.072385998501
20
7.08399657357333
30
0
41
1
10
108.129271798822
20
7.42574076188831
30
0
41
1
10
108.243043399465
20
8.08336951085448
30
0
41
1
10
108.299929199787
20
8.39924336186951
30
0
41
1
10
108.413700800429
20
8.99982105115473
30
0
41
1
10
108.470586600751
20
9.28451630302234
30
0
41
1
10
108.584358201394
20
9.81842566551995
30
0
41
1
10
108.641244001715
20
10.067634260809
30
0
41
1
10
108.755015602358
20
10.5274732876385
30
0
41
1
10
108.81190140268
20
10.7381017596607
30
0
41
1
10
108.925673003323
20
11.1190111413452
30
0
41
1
10
108.982558803644
20
11.2892936023195
30
0
41
1
10
109.096330404287
20
11.5890746355944
30
0
41
1
10
109.153216204608
20
11.7185777501618
30
0
41
1
10
109.266987805251
20
11.9376030109082
30
0
41
1
10
109.323873605573
20
12.0271318448981
30
0
41
1
10
109.437645206216
20
12.1680787395551
30
0
41
1
10
109.494531006537
20
12.2195046546556
30
0
41
1
10
109.60830260718
20
12.2869611892097
30
0
41
1
10
109.665188407501
20
12.3029998974745
30
0
41
1
10
109.722074207823
20
12.3029999999995
30
0
0
SPLINE
5
FD
100
AcDbEntity
8
1
62
256
6
ByLayer
370
13
48
1
60
0
100
AcDbSpline
70
4
71
3
72
14
73
10
40
0
40
0
40
0
40
0
40
0.25
40
0.25
40
0.5
40
0.5
40
0.75
40
0.75
40
1
40
1
40
1
40
1
41
1
10
108.96838380866
20
12.303
30
0
41
1
10
109.031191341924
20
12.303
30
0
41
1
10
109.093998875187
20
12.2834426991146
30
0
41
1
10
109.219613941714
20
12.2008052687937
30
0
41
1
10
109.282421474978
20
12.1377118571612
30
0
41
1
10
109.408036541505
20
11.9644997870264
30
0
41
1
10
109.470844074769
20
11.8543685240565
30
0
41
1
10
109.596459141296
20
11.584903786652
30
0
41
1
10
109.659266674559
20
11.4255602867532
30
0
41
1
10
109.722074207823
20
11.241363462415
30
0
0
SPLINE
5
FE
100
AcDbEntity
8
1
62
256
6
ByLayer
370
13
48
1
60
0
100
AcDbSpline
70
4
71
3
72
8
73
4
40
0
40
0
40
0
40
0
40
1
40
1
40
1
40
1
41
1
10
109.722074207823
20
-8.75141376750679
30
0
41
1
10
111.214716138548
20
-5.82136845608611
30
0
41
1
10
112.707358069274
20
-2.90420132980731
30
0
41
1
10
114.2
20
1.99E-13
30
0
0
SPLINE
5
FF
100
AcDbEntity
8
1
62
256
6
ByLayer
370
13
48
1
60
0
100
AcDbSpline
70
4
71
3
72
8
73
4
40
0
40
0
40
0
40
0
40
1
40
1
40
1
40
1
41
1
10
109.722074207823
20
-11.3402785161433
30
0
41
1
10
111.214716138548
20
-7.56730698622803
30
0
41
1
10
112.707358069274
20
-3.78717622490819
30
0
41
1
10
114.2
20
2.558E-13
30
0
0
SPLINE
5
100
100
AcDbEntity
8
1
62
256
6
ByLayer
370
13
48
1
60
0
100
AcDbSpline
70
4
71
3
72
8
73
4
40
0
40
0
40
0
40
0
40
1
40
1
40
1
40
1
41
1
10
109.722074207823
20
-11.7531694331933
30
0
41
1
10
111.214716138548
20
-7.84087483219773
30
0
41
1
10
112.707358069274
20
-3.92311239098501
30
0
41
1
10
114.2
20
2.842E-13
30
0
0
SPLINE
5
101
100
AcDbEntity
8
1
62
256
6
ByLayer
370
13
48
1
60
0
100
AcDbSpline
70
4
71
3
72
8
73
4
40
0
40
0
40
0
40
0
40
1
40
1
40
1
40
1
41
1
10
109.722074207823
20
8.64208022636959
30
0
41
1
10
111.214716138549
20
5.77445730421772
30
0
41
1
10
112.707358069274
20
2.89373497022299
30
0
41
1
10
114.2
20
2.84E-14
30
0
0
SPLINE
5
102
100
AcDbEntity
8
1
62
256
6
ByLayer
370
13
48
1
60
0
100
AcDbSpline
70
4
71
3
72
8
73
4
40
0
40
0
40
0
40
0
40
1
40
1
40
1
40
1
41
1
10
109.722074207823
20
10.877219421068
30
0
41
1
10
111.214716138549
20
7.24289855765002
30
0
41
1
10
112.707358069275
20
3.61712242802537
30
0
41
1
10
114.200000000001
20
-1.3642E-12
30
0
0
SPLINE
5
103
100
AcDbEntity
8
1
62
256
6
ByLayer
370
13
48
1
60
0
100
AcDbSpline
70
4
71
3
72
8
73
4
40
0
40
0
40
0
40
0
40
1
40
1
40
1
40
1
41
1
10
109.722074207823
20
11.7895080363361
30
0
41
1
10
111.214716138548
20
7.85442197386433
30
0
41
1
10
112.707358069274
20
3.92454657918293
30
0
41
1
10
114.2
20
9.095E-13
30
0
0
SPLINE
5
104
100
AcDbEntity
8
1
62
256
6
ByLayer
370
13
48
1
60
0
100
AcDbSpline
70
4
71
3
72
8
73
4
40
0
40
0
40
0
40
0
40
1
40
1
40
1
40
1
41
1
10
109.722074207823
20
-11.3937498087676
30
0
41
1
10
111.214716138548
20
-7.5889046658279
30
0
41
1
10
112.707358069274
20
-3.79095000855492
30
0
41
1
10
114.2
20
2.558E-13
30
0
0
SPLINE
5
105
100
AcDbEntity
8
1
62
256
6
ByLayer
370
13
48
1
60
0
100
AcDbSpline
70
4
71
3
72
8
73
4
40
0
40
0
40
0
40
0
40
1
40
1
40
1
40
1
41
1
10
109.722074207823
20
-1.28233629592336
30
0
41
1
10
111.214716138548
20
-0.83662691395881
30
0
41
1
10
112.707358069274
20
-0.409177257499749
30
0
41
1
10
114.2
20
-2.84E-14
30
0
0
SPLINE
5
106
100
AcDbEntity
8
1
62
256
6
ByLayer
370
13
48
1
60
0
100
AcDbSpline
70
4
71
3
72
8
73
4
40
0
40
0
40
0
40
0
40
1
40
1
40
1
40
1
41
1
10
109.722074207823
20
8.7410072801311
30
0
41
1
10
111.214716138548
20
5.81441509663375
30
0
41
1
10
112.707358069274
20
2.90071683431077
30
0
41
1
10
114.2
20
-1.99E-13
30
0
0
SPLINE
5
107
100
AcDbEntity
8
1
62
256
6
ByLayer
370
13
48
1
60
0
100
AcDbSpline
70
4
71
3
72
8
73
4
40
0
40
0
40
0
40
0
40
1
40
1
40
1
40
1
41
1
10
109.722074207823
20
-12.2367577494645
30
0
41
1
10
111.214716138548
20
-8.15974158519671
30
0
41
1
10
112.707358069274
20
-4.08078143420752
30
0
41
1
10
114.2
20
-3.411E-13
30
0
0
SPLINE
5
108
100
AcDbEntity
8
1
62
256
6
ByLayer
370
13
48
1
60
0
100
AcDbSpline
70
4
71
3
72
8
73
4
40
0
40
0
40
0
40
0
40
1
40
1
40
1
40
1
41
1
10
109.722074207823
20
11.748786871599
30
0
41
1
10
111.214716138549
20
7.8379742198307
30
0
41
1
10
112.707358069274
20
3.92167264705873
30
0
41
1
10
114.2
20
8.53E-14
30
0
0
SPLINE
5
109
100
AcDbEntity
8
1
62
256
6
ByLayer
370
13
48
1
60
0
100
AcDbSpline
70
4
71
3
72
8
73
4
40
0
40
0
40
0
40
0
40
1
40
1
40
1
40
1
41
1
10
109.722074207823
20
-3.64393626826538
30
0
41
1
10
111.214716138549
20
-2.41175083962153
30
0
41
1
10
112.707358069274
20
-1.19709329757953
30
0
41
1
10
114.2
20
0
30
0
0
SPLINE
5
10A
100
AcDbEntity
8
1
62
256
6
ByLayer
370
13
48
1
60
0
100
AcDbSpline
70
4
71
3
72
8
73
4
40
0
40
0
40
0
40
0
40
1
40
1
40
1
40
1
41
1
10
109.722074207823
20
-2.3379673920445
30
0
41
1
10
111.214716138548
20
-1.57667427041517
30
0
41
1
10
112.707358069274
20
-0.797343932743274
30
0
41
1
10
114.2
20
5.68E-14
30
0
0
SPLINE
5
10B
100
AcDbEntity
8
1
62
256
6
ByLayer
370
13
48
1
60
0
100
AcDbSpline
70
4
71
3
72
8
73
4
40
0
40
0
40
0
40
0
40
1
40
1
40
1
40
1
41
1
10
109.722074207823
20
-11.793729749668
30
0
41
1
10
111.214716138548
20
-7.85725761773918
30
0
41
1
10
112.707358069274
20
-3.92597497110054
30
0
41
1
10
114.2
20
2.842E-13
30
0
0
SPLINE
5
10C
100
AcDbEntity
8
1
62
256
6
ByLayer
370
13
48
1
60
0
100
AcDbSpline
70
4
71
3
72
8
73
4
40
0
40
0
40
0
40
0
40
1
40
1
40
1
40
1
41
1
10
109.722074207823
20
-9.55657008549954
30
0
41
1
10
111.214716138548
20
-6.3594813223811
30
0
41
1
10
112.707358069274
20
-3.17392606148283
30
0
41
1
10
114.2
20
2.274E-13
30
0
0
SPLINE
5
10D
100
AcDbEntity
8
1
62
256
6
ByLayer
370
13
48
1
60
0
100
AcDbSpline
70
4
71
3
72
8
73
4
40
0
40
0
40
0
40
0
40
1
40
1
40
1
40
1
41
1
10
109.722074207823
20
9.54724432538697
30
0
41
1
10
111.214716138548
20
6.35324700138401
30
0
41
1
10
112.707358069274
20
3.17080035841391
30
0
41
1
10
114.2
20
7.39E-13
30
0
0
SPLINE
5
10E
100
AcDbEntity
8
1
62
256
6
ByLayer
370
13
48
1
60
0
100
AcDbSpline
70
4
71
3
72
8
73
4
40
0
40
0
40
0
40
0
40
1
40
1
40
1
40
1
41
1
10
109.722074207823
20
-5.86560866759268
30
0
41
1
10
111.214716138548
20
-3.89426325485709
30
0
41
1
10
112.707358069274
20
-1.93904081695251
30
0
41
1
10
114.2
20
-1.705E-13
30
0
0
SPLINE
5
10F
100
AcDbEntity
8
1
62
256
6
ByLayer
370
13
48
1
60
0
100
AcDbSpline
70
4
71
3
72
8
73
4
40
0
40
0
40
0
40
0
40
1
40
1
40
1
40
1
41
1
10
109.722074207823
20
11.3345323036016
30
0
41
1
10
111.214716138549
20
7.56349653078337
30
0
41
1
10
112.707358069274
20
3.78528119277982
30
0
41
1
10
114.2
20
2.84E-14
30
0
0
SPLINE
5
110
100
AcDbEntity
8
1
62
256
6
ByLayer
370
13
48
1
60
0
100
AcDbSpline
70
4
71
3
72
8
73
4
40
0
40
0
40
0
40
0
40
1
40
1
40
1
40
1
41
1
10
109.722074207823
20
-12.3028014911583
30
0
41
1
10
111.214716138548
20
-8.20197197999022
30
0
41
1
10
112.707358069274
20
-4.10099703373186
30
0
41
1
10
114.2
20
2.842E-13
30
0
0
SPLINE
5
111
100
AcDbEntity
8
1
62
256
6
ByLayer
370
13
48
1
60
0
100
AcDbSpline
70
4
71
3
72
8
73
4
40
0
40
0
40
0
40
0
40
1
40
1
40
1
40
1
41
1
10
109.722074207823
20
-1.14323915623751
30
0
41
1
10
111.214716138548
20
-0.780443954678191
30
0
41
1
10
112.707358069274
20
-0.399360354161644
30
0
41
1
10
114.2
20
2.84E-14
30
0
0
SPLINE
5
112
100
AcDbEntity
8
1
62
256
6
ByLayer
370
13
48
1
60
0
100
AcDbSpline
70
4
71
3
72
8
73
4
40
0
40
0
40
0
40
0
40
1
40
1
40
1
40
1
41
1
10
109.722074207823
20
-5.74236276864326
30
0
41
1
10
111.214716138548
20
-3.84448279684173
30
0
41
1
10
112.707358069274
20
-1.9303426289124
30
0
41
1
10
114.2
20
1.421E-13
30
0
0
SPLINE
5
113
100
AcDbEntity
8
1
62
256
6
ByLayer
370
13
48
1
60
0
100
AcDbSpline
70
4
71
3
72
8
73
4
40
0
40
0
40
0
40
0
40
1
40
1
40
1
40
1
41
1
10
109.722074207823
20
-10.2697618071219
30
0
41
1
10
111.214716138548
20
-6.83639575370356
30
0
41
1
10
112.707358069274
20
-3.41310753061305
30
0
41
1
10
114.2
20
2.558E-13
30
0
0
SPLINE
5
114
100
AcDbEntity
8
1
62
256
6
ByLayer
370
13
48
1
60
0
100
AcDbSpline
70
4
71
3
72
8
73
4
40
0
40
0
40
0
40
0
40
1
40
1
40
1
40
1
41
1
10
109.722074207823
20
12.2490781831364
30
0
41
1
10
111.214716138548
20
8.16433468030533
30
0
41
1
10
112.707358069274
20
4.08126768901764
30
0
41
1
10
114.2
20
9.663E-13
30
0
0
SPLINE
5
115
100
AcDbEntity
8
1
62
256
6
ByLayer
370
13
48
1
60
0
100
AcDbSpline
70
4
71
3
72
8
73
4
40
0
40
0
40
0
40
0
40
1
40
1
40
1
40
1
41
1
10
109.722074207823
20
6.76846706184239
30
0
41
1
10
111.214716138549
20
4.52764652980301
30
0
41
1
10
112.707358069274
20
2.27146817129727
30
0
41
1
10
114.2
20
0
30
0
0
SPLINE
5
116
100
AcDbEntity
8
1
62
256
6
ByLayer
370
13
48
1
60
0
100
AcDbSpline
70
4
71
3
72
8
73
4
40
0
40
0
40
0
40
0
40
1
40
1
40
1
40
1
41
1
10
109.722074207823
20
3.4960126292809
30
0
41
1
10
111.214716138549
20
2.34828204293612
30
0
41
1
10
112.707358069274
20
1.18293275745117
30
0
41
1
10
114.2
20
0
30
0
0
SPLINE
5
117
100
AcDbEntity
8
1
62
256
6
ByLayer
370
13
48
1
60
0
100
AcDbSpline
70
4
71
3
72
8
73
4
40
0
40
0
40
0
40
0
40
1
40
1
40
1
40
1
41
1
10
109.722074207823
20
-4.77776109600455
30
0
41
1
10
111.214716138548
20
-3.16825137424286
30
0
41
1
10
112.707358069274
20
-1.57564843168936
30
0
41
1
10
114.2
20
-1.421E-13
30
0
0
SPLINE
5
118
100
AcDbEntity
8
1
62
256
6
ByLayer
370
13
48
1
60
0
100
AcDbSpline
70
4
71
3
72
8
73
4
40
0
40
0
40
0
40
0
40
1
40
1
40
1
40
1
41
1
10
109.722074207823
20
2.46054909492267
30
0
41
1
10
111.214716138548
20
1.62237310171173
30
0
41
1
10
112.707358069274
20
0.802181907135434
30
0
41
1
10
114.2
20
-5.68E-14
30
0
0
SPLINE
5
119
100
AcDbEntity
8
1
62
256
6
ByLayer
370
13
48
1
60
0
100
AcDbSpline
70
4
71
3
72
8
73
4
40
0
40
0
40
0
40
0
40
1
40
1
40
1
40
1
41
1
10
109.722074207823
20
-12.2504531566952
30
0
41
1
10
111.214716138548
20
-8.16527332013018
30
0
41
1
10
112.707358069274
20
-4.08174799965383
30
0
41
1
10
114.2
20
2.842E-13
30
0
0
SPLINE
5
11A
100
AcDbEntity
8
1
62
256
6
ByLayer
370
13
48
1
60
0
100
AcDbSpline
70
4
71
3
72
8
73
4
40
0
40
0
40
0
40
0
40
1
40
1
40
1
40
1
41
1
10
109.722074207823
20
-6.89701042977879
30
0
41
1
10
111.214716138548
20
-4.58279993828336
30
0
41
1
10
112.707358069274
20
-2.28377346294897
30
0
41
1
10
114.2
20
1.705E-13
30
0
0
SPLINE
5
11B
100
AcDbEntity
8
1
62
256
6
ByLayer
370
13
48
1
60
0
100
AcDbSpline
70
4
71
3
72
8
73
4
40
0
40
0
40
0
40
0
40
1
40
1
40
1
40
1
41
1
10
109.722074207823
20
-6.78081850280154
30
0
41
1
10
111.214716138548
20
-4.53586866193331
30
0
41
1
10
112.707358069274
20
-2.27557311520368
30
0
41
1
10
114.2
20
1.705E-13
30
0
0
SPLINE
5
11C
100
AcDbEntity
8
1
62
256
6
ByLayer
370
13
48
1
60
0
100
AcDbSpline
70
4
71
3
72
8
73
4
40
0
40
0
40
0
40
0
40
1
40
1
40
1
40
1
41
1
10
109.722074207823
20
1.12850553809449
30
0
41
1
10
111.214716138548
20
0.7706235817015
30
0
41
1
10
112.707358069274
20
0.394451236465045
30
0
41
1
10
114.2
20
2.84E-14
30
0
0
SPLINE
5
11D
100
AcDbEntity
8
1
62
256
6
ByLayer
370
13
48
1
60
0
100
AcDbSpline
70
4
71
3
72
8
73
4
40
0
40
0
40
0
40
0
40
1
40
1
40
1
40
1
41
1
10
109.722074207823
20
-4.64864724258203
30
0
41
1
10
111.214716138548
20
-3.11610078088205
30
0
41
1
10
112.707358069274
20
-1.56653610758596
30
0
41
1
10
114.2
20
1.137E-13
30
0
0
SPLINE
5
11E
100
AcDbEntity
8
1
62
256
6
ByLayer
370
13
48
1
60
0
100
AcDbSpline
70
4
71
3
72
8
73
4
40
0
40
0
40
0
40
0
40
1
40
1
40
1
40
1
41
1
10
109.722074207823
20
4.63494398142478
30
0
41
1
10
111.214716138549
20
3.10697360639796
30
0
41
1
10
112.707358069274
20
1.56197673258893
30
0
41
1
10
114.2
20
0
30
0
0
SPLINE
5
11F
100
AcDbEntity
8
1
62
256
6
ByLayer
370
13
48
1
60
0
100
AcDbSpline
70
4
71
3
72
8
73
4
40
0
40
0
40
0
40
0
40
1
40
1
40
1
40
1
41
1
10
109.722074207823
20
-2.47504518504832
30
0
41
1
10
111.214716138549
20
-1.63204159198628
30
0
41
1
10
112.707358069274
20
-0.807018318907865
30
0
41
1
10
114.2
20
5.68E-14
30
0
0
SPLINE
5
120
100
AcDbEntity
8
1
62
256
6
ByLayer
370
13
48
1
60
0
100
AcDbSpline
70
4
71
3
72
8
73
4
40
0
40
0
40
0
40
0
40
1
40
1
40
1
40
1
41
1
10
109.722074207823
20
-10.8182580550064
30
0
41
1
10
111.214716138548
20
-7.22091758122897
30
0
41
1
10
112.707358069274
20
-3.61479537943373
30
0
41
1
10
114.2
20
2.558E-13
30
0
0
SPLINE
5
121
100
AcDbEntity
8
1
62
256
6
ByLayer
370
13
48
1
60
0
100
AcDbSpline
70
4
71
3
72
8
73
4
40
0
40
0
40
0
40
0
40
1
40
1
40
1
40
1
41
1
10
109.722074207823
20
-7.8620410175098
30
0
41
1
10
111.214716138548
20
-5.22723551191825
30
0
41
1
10
112.707358069274
20
-2.60652894529355
30
0
41
1
10
114.2
20
1.705E-13
30
0
0
SPLINE
5
122
100
AcDbEntity
8
1
62
256
6
ByLayer
370
13
48
1
60
0
100
AcDbSpline
70
4
71
3
72
8
73
4
40
0
40
0
40
0
40
0
40
1
40
1
40
1
40
1
41
1
10
109.722074207823
20
2.32343851749823
30
0
41
1
10
111.214716138548
20
1.56699253813025
30
0
41
1
10
112.707358069274
20
0.792505207181478
30
0
41
1
10
114.2
20
5.68E-14
30
0
0
SPLINE
5
123
100
AcDbEntity
8
1
62
256
6
ByLayer
370
13
48
1
60
0
100
AcDbSpline
70
4
71
3
72
8
73
4
40
0
40
0
40
0
40
0
40
1
40
1
40
1
40
1
41
1
10
109.722074207823
20
12.0499807459771
30
0
41
1
10
111.214716138549
20
8.03702567027571
30
0
41
1
10
112.707358069274
20
4.02032513862844
30
0
41
1
10
114.2
20
-2.84E-14
30
0
0
SPLINE
5
124
100
AcDbEntity
8
1
62
256
6
ByLayer
370
13
48
1
60
0
100
AcDbSpline
70
4
71
3
72
8
73
4
40
0
40
0
40
0
40
0
40
1
40
1
40
1
40
1
41
1
10
109.722074207823
20
6.88475235472208
30
0
41
1
10
111.214716138548
20
4.5746155177315
30
0
41
1
10
112.707358069274
20
2.27967510842342
30
0
41
1
10
114.2
20
-1.705E-13
30
0
0
SPLINE
5
125
100
AcDbEntity
8
1
62
256
6
ByLayer
370
13
48
1
60
0
100
AcDbSpline
70
4
71
3
72
8
73
4
40
0
40
0
40
0
40
0
40
1
40
1
40
1
40
1
41
1
10
109.722074207823
20
3.62980073318087
30
0
41
1
10
111.214716138548
20
2.40232062065684
30
0
41
1
10
112.707358069274
20
1.19237497090526
30
0
41
1
10
114.2
20
-8.53E-14
30
0
0
SPLINE
5
126
100
AcDbEntity
8
1
62
256
6
ByLayer
370
13
48
1
60
0
100
AcDbSpline
70
4
71
3
72
8
73
4
40
0
40
0
40
0
40
0
40
1
40
1
40
1
40
1
41
1
10
109.722074207823
20
12.30270853779
30
0
41
1
10
111.214716138549
20
8.20193209699067
30
0
41
1
10
112.707358069274
20
4.10098813542533
30
0
41
1
10
114.2
20
0
30
0
0
SPLINE
5
127
100
AcDbEntity
8
1
62
256
6
ByLayer
370
13
48
1
60
0
100
AcDbSpline
70
4
71
3
72
8
73
4
40
0
40
0
40
0
40
0
40
1
40
1
40
1
40
1
41
1
10
109.722074207823
20
5.85259755028002
30
0
41
1
10
111.214716138548
20
3.88557865838345
30
0
41
1
10
112.707358069274
20
1.93469330310083
30
0
41
1
10
114.2
20
-1.421E-13
30
0
0
SPLINE
5
128
100
AcDbEntity
8
1
62
256
6
ByLayer
370
13
48
1
60
0
100
AcDbSpline
70
4
71
3
72
8
73
4
40
0
40
0
40
0
40
0
40
1
40
1
40
1
40
1
41
1
10
109.722074207823
20
-12.0529574824439
30
0
41
1
10
111.214716138548
20
-8.03898852644954
30
0
41
1
10
112.707358069274
20
-4.02129573943742
30
0
41
1
10
114.2
20
2.842E-13
30
0
0
SPLINE
5
129
100
AcDbEntity
8
1
62
256
6
ByLayer
370
13
48
1
60
0
100
AcDbSpline
70
4
71
3
72
8
73
4
40
0
40
0
40
0
40
0
40
1
40
1
40
1
40
1
41
1
10
109.722074207823
20
-12.0802165035331
30
0
41
1
10
111.214716138548
20
-8.04999876343459
30
0
41
1
10
112.707358069274
20
-4.02321956889736
30
0
41
1
10
114.2
20
2.842E-13
30
0
0
SPLINE
5
12A
100
AcDbEntity
8
1
62
256
6
ByLayer
370
13
48
1
60
0
100
AcDbSpline
70
4
71
3
72
8
73
4
40
0
40
0
40
0
40
0
40
1
40
1
40
1
40
1
41
1
10
109.722074207823
20
11.388158881438
30
0
41
1
10
111.214716138548
20
7.5851569318944
30
0
41
1
10
112.707358069274
20
3.78906593581806
30
0
41
1
10
114.2
20
8.811E-13
30
0
0
SPLINE
5
12B
100
AcDbEntity
8
1
62
256
6
ByLayer
370
13
48
1
60
0
100
AcDbSpline
70
4
71
3
72
8
73
4
40
0
40
0
40
0
40
0
40
1
40
1
40
1
40
1
41
1
10
109.722074207823
20
1.26761914924458
30
0
41
1
10
111.214716138548
20
0.826813193998902
30
0
41
1
10
112.707358069274
20
0.404269302291226
30
0
41
1
10
114.2
20
-2.84E-14
30
0
0
SPLINE
5
12C
100
AcDbEntity
8
1
62
256
6
ByLayer
370
13
48
1
60
0
100
AcDbSpline
70
4
71
3
72
8
73
4
40
0
40
0
40
0
40
0
40
1
40
1
40
1
40
1
41
1
10
109.722074207823
20
10.1838365133748
30
0
41
1
10
111.214716138549
20
6.79952825208986
30
0
41
1
10
112.707358069274
20
3.40488201251139
30
0
41
1
10
114.2
20
2.84E-14
30
0
0
SPLINE
5
12D
100
AcDbEntity
8
1
62
256
6
ByLayer
370
13
48
1
60
0
100
AcDbSpline
70
4
71
3
72
8
73
4
40
0
40
0
40
0
40
0
40
1
40
1
40
1
40
1
41
1
10
109.722074207823
20
9.45846864413156
30
0
41
1
10
111.214716138549
20
6.31738946688409
30
0
41
1
10
112.707358069274
20
3.16453493639514
30
0
41
1
10
114.2
20
2.84E-14
30
0
0
SPLINE
5
12E
100
AcDbEntity
8
1
62
256
6
ByLayer
370
13
48
1
60
0
100
AcDbSpline
70
4
71
3
72
8
73
4
40
0
40
0
40
0
40
0
40
1
40
1
40
1
40
1
41
1
10
109.722074207823
20
10.2616065177428
30
0
41
1
10
111.214716138548
20
6.83094046515572
30
0
41
1
10
112.707358069274
20
3.41037069917448
30
0
41
1
10
114.2
20
-2.274E-13
30
0
0
SPLINE
5
12F
100
AcDbEntity
8
1
62
256
6
ByLayer
370
13
48
1
60
0
100
AcDbSpline
70
4
71
3
72
8
73
4
40
0
40
0
40
0
40
0
40
1
40
1
40
1
40
1
41
1
10
109.722074207823
20
-9.46792431966438
30
0
41
1
10
111.214716138548
20
-6.32367626223706
30
0
41
1
10
112.707358069274
20
-3.16766980836002
30
0
41
1
10
114.2
20
2.274E-13
30
0
0
SPLINE
5
130
100
AcDbEntity
8
1
62
256
6
ByLayer
370
13
48
1
60
0
100
AcDbSpline
70
4
71
3
72
8
73
4
40
0
40
0
40
0
40
0
40
1
40
1
40
1
40
1
41
1
10
109.722074207823
20
10.8112034883563
30
0
41
1
10
111.214716138549
20
7.21623395140625
30
0
41
1
10
112.707358069274
20
3.61246329533904
30
0
41
1
10
114.2
20
2.84E-14
30
0
0
SPLINE
5
131
100
AcDbEntity
8
1
62
256
6
ByLayer
370
13
48
1
60
0
100
AcDbSpline
70
4
71
3
72
8
73
4
40
0
40
0
40
0
40
0
40
1
40
1
40
1
40
1
41
1
10
109.722074207823
20
-7.75402119835999
30
0
41
1
10
111.214716138548
20
-5.18360504536446
30
0
41
1
10
112.707358069274
20
-2.59890535126721
30
0
41
1
10
114.2
20
1.705E-13
30
0
0
SPLINE
5
132
100
AcDbEntity
8
1
62
256
6
ByLayer
370
13
48
1
60
0
100
AcDbSpline
70
4
71
3
72
8
73
4
40
0
40
0
40
0
40
0
40
1
40
1
40
1
40
1
41
1
10
109.722074207823
20
0.0624906760227475
30
0
41
1
10
111.214716138548
20
0.0232967138987306
30
0
41
1
10
112.707358069274
20
0.0024663410871995
30
0
41
1
10
114.2
20
0
30
0
0
SPLINE
5
133
100
AcDbEntity
8
1
62
256
6
ByLayer
370
13
48
1
60
0
100
AcDbSpline
70
4
71
3
72
8
73
4
40
0
40
0
40
0
40
0
40
1
40
1
40
1
40
1
41
1
10
109.722074207823
20
12.0774046305073
30
0
41
1
10
111.214716138549
20
8.04810249752964
30
0
41
1
10
112.707358069275
20
4.02226060347024
30
0
41
1
10
114.200000000001
20
-1.5064E-12
30
0
0
SPLINE
5
134
100
AcDbEntity
8
1
62
256
6
ByLayer
370
13
48
1
60
0
100
AcDbSpline
70
4
71
3
72
8
73
4
40
0
40
0
40
0
40
0
40
1
40
1
40
1
40
1
41
1
10
109.722074207823
20
-10.8841257598939
30
0
41
1
10
111.214716138548
20
-7.24752231652377
30
0
41
1
10
112.707358069274
20
-3.61944405081147
30
0
41
1
10
114.2
20
2.558E-13
30
0
0
SPLINE
5
135
100
AcDbEntity
8
1
62
256
6
ByLayer
370
13
48
1
60
0
100
AcDbSpline
70
4
71
3
72
8
73
4
40
0
40
0
40
0
40
0
40
1
40
1
40
1
40
1
41
1
10
109.722074207823
20
7.74252751297561
30
0
41
1
10
111.214716138549
20
5.17595649814797
30
0
41
1
10
112.707358069274
20
2.59508807087724
30
0
41
1
10
114.2
20
0
30
0
0
SPLINE
5
136
100
AcDbEntity
8
1
62
256
6
ByLayer
370
13
48
1
60
0
100
AcDbSpline
70
4
71
3
72
8
73
4
40
0
40
0
40
0
40
0
40
1
40
1
40
1
40
1
41
1
10
109.722074207823
20
7.85065394637468
30
0
41
1
10
111.214716138548
20
5.21963002744246
30
0
41
1
10
112.707358069274
20
2.60271918929874
30
0
41
1
10
114.2
20
5.969E-13
30
0
0
SPLINE
5
137
100
AcDbEntity
8
1
62
256
6
ByLayer
370
13
48
1
60
0
100
AcDbSpline
70
4
71
3
72
8
73
4
40
0
40
0
40
0
40
0
40
1
40
1
40
1
40
1
41
1
10
109.722074207823
20
4.76412214476304
30
0
41
1
10
111.214716138548
20
3.15915017528476
30
0
41
1
10
112.707358069274
20
1.57109359542119
30
0
41
1
10
114.2
20
-1.137E-13
30
0
0
SPLINE
5
138
100
AcDbEntity
8
1
62
256
6
ByLayer
370
13
48
1
60
0
100
AcDbSpline
70
4
71
3
72
8
73
4
40
0
40
0
40
0
40
0
40
1
40
1
40
1
40
1
41
1
10
109.722074207823
20
-0.0772872534996054
30
0
41
1
10
111.214716138549
20
-0.0331612243480208
30
0
41
1
10
112.707358069274
20
-0.0073986095941336
30
0
41
1
10
114.2
20
0
30
0
0
SPLINE
5
139
100
AcDbEntity
8
1
62
256
6
ByLayer
370
13
48
1
60
0
100
AcDbSpline
70
4
71
3
72
8
73
4
40
0
40
0
40
0
40
0
40
1
40
1
40
1
40
1
41
1
10
109.722074207823
20
-8.65260555037315
30
0
41
1
10
111.214716138548
20
-5.781458663172
30
0
41
1
10
112.707358069274
20
-2.89722785271931
30
0
41
1
10
114.2
20
1.99E-13
30
0
0
SPLINE
5
13A
100
AcDbEntity
8
1
62
256
6
ByLayer
370
13
48
1
60
0
100
AcDbSpline
70
4
71
3
72
8
73
4
40
0
40
0
40
0
40
0
40
1
40
1
40
1
40
1
41
1
10
109.722074207823
20
5.72927243225183
30
0
41
1
10
111.214716138549
20
3.83576620285706
30
0
41
1
10
112.707358069274
20
1.92598952410461
30
0
41
1
10
114.2
20
0
30
0
0
SPLINE
5
13B
100
AcDbEntity
8
1
62
256
6
ByLayer
370
13
48
1
60
0
100
AcDbSpline
70
4
71
3
72
8
73
4
40
0
40
0
40
0
40
0
40
1
40
1
40
1
40
1
41
1
10
109.722074207823
20
12.2352154837967
30
0
41
1
10
111.214716138549
20
8.15873537413461
30
0
41
1
10
112.707358069274
20
4.08028931678203
30
0
41
1
10
114.2
20
0
30
0
0
SPLINE
5
13C
100
AcDbEntity
8
1
62
256
6
ByLayer
370
13
48
1
60
0
100
AcDbSpline
70
4
71
3
72
8
73
4
40
0
40
0
40
0
40
0
40
1
40
1
40
1
40
1
41
1
10
109.722074207823
20
-3.51019694625202
30
0
41
1
10
111.214716138548
20
-2.35773196547456
30
0
41
1
10
112.707358069274
20
-1.18765452695007
30
0
41
1
10
114.2
20
8.53E-14
30
0
0
SPLINE
5
13D
100
AcDbEntity
8
1
62
256
6
ByLayer
370
13
48
1
60
0
100
AcDbSpline
70
4
71
3
72
8
73
4
40
0
40
0
40
0
40
0
40
1
40
1
40
1
40
1
41
1
10
109.722074207823
20
-10.192131546767
30
0
41
1
10
111.214716138548
20
-6.80503998487671
30
0
41
1
10
112.707358069274
20
-3.40762870650684
30
0
41
1
10
114.2
20
2.274E-13
30
0
0
LINE
5
7D
100
AcDbEntity
8
4
62
256
6
ByLayer
370
18
48
0.05
60
0
100
AcDbLine
10
-5
20
0
30
0
11
119.2
21
0
31
0
39
0
210
0
220
0
230
1
0
LINE
5
7F
100
AcDbEntity
8
81
62
256
6
ByLayer
370
18
48
1
60
0
100
AcDbLine
10
114.2
20
0
30
0
11
119.2
21
0
31
0
39
0
210
0
220
0
230
1
0
LINE
5
80
100
AcDbEntity
8
SK4
62
256
6
ByLayer
370
18
48
0.05
60
0
100
AcDbLine
10
-61
20
0
30
0
11
119.2
21
0
31
0
39
0
210
0
220
0
230
1
0
LINE
5
82
100
AcDbEntity
8
80
62
256
6
ByLayer
370
18
48
1
60
0
100
AcDbLine
10
0
20
0
30
0
11
-5
21
0
31
0
39
0
210
0
220
0
230
1
0
LINE
5
83
100
AcDbEntity
8
1
62
256
6
ByLayer
370
18
48
1
60
0
100
AcDbLine
10
0
20
12.7
30
0
11
0
21
-12.7
31
0
39
0
210
0
220
0
230
1
0
LINE
5
84
100
AcDbEntity
8
1
62
256
6
ByLayer
370
18
48
1
60
0
100
AcDbLine
10
109.722074
20
12.303
30
0
11
109.722074
21
11.912345
31
0
39
0
210
0
220
0
230
1
0
LINE
5
85
100
AcDbEntity
8
1
62
256
6
ByLayer
370
18
48
1
60
0
100
AcDbLine
10
109.722074
20
-12.303
30
0
11
109.722074
21
-1.755946
31
0
39
0
210
0
220
0
230
1
0
LINE
5
86
100
AcDbEntity
8
1
62
256
6
ByLayer
370
18
48
1
60
0
100
AcDbLine
10
10
20
-11.7
30
0
11
10
21
-3.755708
31
0
39
0
210
0
220
0
230
1
0
LINE
5
87
100
AcDbEntity
8
1
62
256
6
ByLayer
370
18
48
1
60
0
100
AcDbLine
10
10
20
11.7
30
0
11
10
21
9.487612
31
0
39
0
210
0
220
0
230
1
0
LINE
5
88
100
AcDbEntity
8
SK1
62
256
6
ByLayer
370
18
48
1
60
0
100
AcDbLine
10
-9.573685
20
-7.42967
30
0
11
-9.573685
21
7.42967
31
0
39
0
210
0
220
0
230
1
0
LINE
5
8A
100
AcDbEntity
8
SK1
62
256
6
ByLayer
370
18
48
1
60
0
100
AcDbLine
10
-56
20
-11.7
30
0
11
-56
21
11.7
31
0
39
0
210
0
220
0
230
1
0
LINE
5
8B
100
AcDbEntity
8
SK1
62
256
6
ByLayer
370
18
48
1
60
0
100
AcDbLine
10
-46.761964
20
-7.42967
30
0
11
-46.761964
21
7.42967
31
0
39
0
210
0
220
0
230
1
0
LINE
5
8C
100
AcDbEntity
8
SK1
62
256
6
ByLayer
370
18
48
1
60
0
100
AcDbLine
10
0
20
12.7
30
0
11
0
21
-12.7
31
0
39
0
210
0
220
0
230
1
0
LINE
5
8D
100
AcDbEntity
8
SK1
62
256
6
ByLayer
370
18
48
1
60
0
100
AcDbLine
10
-55
20
-12.7
30
0
11
-55
21
12.7
31
0
39
0
210
0
220
0
230
1
0
LINE
5
8E
100
AcDbEntity
8
SK1
62
256
6
ByLayer
370
18
48
1
60
0
100
AcDbLine
10
-9.573685
20
-7.42967
30
0
11
-46.761964
21
-7.42967
31
0
39
0
210
0
220
0
230
1
0
LINE
5
8F
100
AcDbEntity
8
SK1
62
256
6
ByLayer
370
18
48
1
60
0
100
AcDbLine
10
-46.761964
20
7.42967
30
0
11
-9.573685
21
7.42967
31
0
39
0
210
0
220
0
230
1
0
LINE
5
90
100
AcDbEntity
8
1
62
256
6
ByLayer
370
18
48
1
60
0
100
AcDbLine
10
10
20
-11.7
30
0
11
51.178276
21
-11.7
31
0
39
0
210
0
220
0
230
1
0
LINE
5
91
100
AcDbEntity
8
1
62
256
6
ByLayer
370
18
48
1
60
0
100
AcDbLine
10
51.178276
20
11.7
30
0
11
10
21
11.7
31
0
39
0
210
0
220
0
230
1
0
LINE
5
92
100
AcDbEntity
8
1
62
256
6
ByLayer
370
18
48
1
60
0
100
AcDbLine
10
114.2
20
0
30
0
11
109.722074
21
12.303
31
0
39
0
210
0
220
0
230
1
0
LINE
5
93
100
AcDbEntity
8
1
62
256
6
ByLayer
370
18
48
1
60
0
100
AcDbLine
10
109.722074
20
-12.303
30
0
11
114.2
21
0
31
0
39
0
210
0
220
0
230
1
0
LINE
5
94
100
AcDbEntity
8
1
62
256
6
ByLayer
370
18
48
1
60
0
100
AcDbLine
10
10
20
11.7
30
0
11
0
21
12.7
31
0
39
0
210
0
220
0
230
1
0
LINE
5
95
100
AcDbEntity
8
1
62
256
6
ByLayer
370
18
48
1
60
0
100
AcDbLine
10
0
20
-12.7
30
0
11
10
21
-11.7
31
0
39
0
210
0
220
0
230
1
0
LINE
5
96
100
AcDbEntity
8
1
62
256
6
ByLayer
370
18
48
1
60
0
100
AcDbLine
10
109.722074
20
12.303
30
0
11
98.8
21
12.303
31
0
39
0
210
0
220
0
230
1
0
LINE
5
97
100
AcDbEntity
8
1
62
256
6
ByLayer
370
18
48
1
60
0
100
AcDbLine
10
98.8
20
-12.303
30
0
11
109.722074
21
-12.303
31
0
39
0
210
0
220
0
230
1
0
LINE
5
98
100
AcDbEntity
8
1
62
256
6
ByLayer
370
18
48
1
60
0
100
AcDbLine
10
114.2
20
0
30
0
11
109.722074
21
12.303
31
0
39
0
210
0
220
0
230
1
0
LINE
5
99
100
AcDbEntity
8
1
62
256
6
ByLayer
370
18
48
1
60
0
100
AcDbLine
10
109.722074
20
-12.303
30
0
11
114.2
21
0
31
0
39
0
210
0
220
0
230
1
0
LINE
5
9A
100
AcDbEntity
8
SK1
62
256
6
ByLayer
370
18
48
1
60
0
100
AcDbLine
10
-56
20
-11.7
30
0
11
-55
21
-12.7
31
0
39
0
210
0
220
0
230
1
0
LINE
5
9B
100
AcDbEntity
8
SK1
62
256
6
ByLayer
370
18
48
1
60
0
100
AcDbLine
10
-55
20
12.7
30
0
11
-56
21
11.7
31
0
39
0
210
0
220
0
230
1
0
LINE
5
9C
100
AcDbEntity
8
SK1
62
256
6
ByLayer
370
18
48
1
60
0
100
AcDbLine
10
-55
20
-12.7
30
0
11
0
21
-12.7
31
0
39
0
210
0
220
0
230
1
0
LINE
5
9D
100
AcDbEntity
8
SK1
62
256
6
ByLayer
370
18
48
1
60
0
100
AcDbLine
10
0
20
12.7
30
0
11
-55
21
12.7
31
0
39
0
210
0
220
0
230
1
0
LINE
5
9E
100
AcDbEntity
8
1
62
256
6
ByLayer
370
18
48
1
60
0
100
AcDbLine
10
109.722074
20
12.303
30
0
11
109.722074
21
-12.303
31
0
39
0
210
0
220
0
230
1
0
LINE
5
9F
100
AcDbEntity
8
1
62
256
6
ByLayer
370
18
48
1
60
0
100
AcDbLine
10
109.722074
20
12.303
30
0
11
109.722074
21
-12.303
31
0
39
0
210
0
220
0
230
1
0
LINE
5
A0
100
AcDbEntity
8
1
62
256
6
ByLayer
370
18
48
1
60
0
100
AcDbLine
10
109.722074
20
12.303
30
0
11
109.722074
21
-12.303
31
0
39
0
210
0
220
0
230
1
0
LINE
5
A1
100
AcDbEntity
8
1
62
256
6
ByLayer
370
18
48
1
60
0
100
AcDbLine
10
98.8
20
12.303
30
0
11
98.8
21
-12.303
31
0
39
0
210
0
220
0
230
1
0
LINE
5
A2
100
AcDbEntity
8
1
62
256
6
ByLayer
370
18
48
1
60
0
100
AcDbLine
10
98.8
20
12.303
30
0
11
98.8
21
-12.303
31
0
39
0
210
0
220
0
230
1
0
LINE
5
A3
100
AcDbEntity
8
1
62
256
6
ByLayer
370
18
48
1
60
0
100
AcDbLine
10
109.722074
20
12.303
30
0
11
109.722074
21
-12.303
31
0
39
0
210
0
220
0
230
1
0
LINE
5
A4
100
AcDbEntity
8
1
62
256
6
ByLayer
370
18
48
1
60
0
100
AcDbLine
10
98.8
20
12.303
30
0
11
98.8
21
-12.303
31
0
39
0
210
0
220
0
230
1
0
LINE
5
A5
100
AcDbEntity
8
1
62
256
6
ByLayer
370
18
48
1
60
0
100
AcDbLine
10
109.722074
20
12.303
30
0
11
109.722074
21
-12.303
31
0
39
0
210
0
220
0
230
1
0
LINE
5
A6
100
AcDbEntity
8
SK2
62
256
6
ByLayer
370
13
48
1
60
0
100
AcDbLine
10
-62.5
20
-12.7
30
0
11
-62.5
21
42.040455
31
0
39
0
210
0
220
0
230
1
0
LINE
5
A8
100
AcDbEntity
8
SK2
62
256
6
ByLayer
370
13
48
1
60
0
100
AcDbLine
10
-57.5875
20
12.7
30
0
11
-64.5
21
12.7
31
0
39
0
210
0
220
0
230
1
0
LINE
5
A9
100
AcDbEntity
8
SK2
62
256
6
ByLayer
370
13
48
1
60
0
100
AcDbLine
10
-57.5875
20
-12.7
30
0
11
-64.5
21
-12.7
31
0
39
0
210
0
220
0
230
1
0
LINE
5
AA
100
AcDbEntity
8
1
62
256
6
ByLayer
370
18
48
1
60
1
100
AcDbLine
10
-62.5
20
12.7
30
0
11
-62.039216
21
9.200002
31
0
39
0
210
0
220
0
230
1
0
LINE
5
AB
100
AcDbEntity
8
1
62
256
6
ByLayer
370
18
48
1
60
1
100
AcDbLine
10
-62.039216
20
9.200002
30
0
11
-62.960784
21
9.199998
31
0
39
0
210
0
220
0
230
1
0
LINE
5
AC
100
AcDbEntity
8
1
62
256
6
ByLayer
370
18
48
1
60
1
100
AcDbLine
10
-62.960784
20
9.199998
30
0
11
-62.5
21
12.7
31
0
39
0
210
0
220
0
230
1
0
LINE
5
AD
100
AcDbEntity
8
1
62
256
6
ByLayer
370
18
48
1
60
1
100
AcDbLine
10
-62.5
20
-12.7
30
0
11
-62.960784
21
-9.200002
31
0
39
0
210
0
220
0
230
1
0
LINE
5
AE
100
AcDbEntity
8
1
62
256
6
ByLayer
370
18
48
1
60
1
100
AcDbLine
10
-62.960784
20
-9.200002
30
0
11
-62.039216
21
-9.199998
31
0
39
0
210
0
220
0
230
1
0
LINE
5
AF
100
AcDbEntity
8
1
62
256
6
ByLayer
370
18
48
1
60
1
100
AcDbLine
10
-62.039216
20
-9.199998
30
0
11
-62.5
21
-12.7
31
0
39
0
210
0
220
0
230
1
0
LINE
5
B0
100
AcDbEntity
8
2
62
256
6
ByLayer
370
13
48
1
60
0
100
AcDbLine
10
121.7
20
-12.303
30
0
11
121.7
21
41.643455
31
0
39
0
210
0
220
0
230
1
0
LINE
5
B2
100
AcDbEntity
8
2
62
256
6
ByLayer
370
13
48
1
60
0
100
AcDbLine
10
111.309574
20
12.303
30
0
11
123.7
21
12.303
31
0
39
0
210
0
220
0
230
1
0
LINE
5
B3
100
AcDbEntity
8
2
62
256
6
ByLayer
370
13
48
1
60
0
100
AcDbLine
10
111.309574
20
-12.303
30
0
11
123.7
21
-12.303
31
0
39
0
210
0
220
0
230
1
0
LINE
5
B4
100
AcDbEntity
8
1
62
256
6
ByLayer
370
18
48
1
60
1
100
AcDbLine
10
121.7
20
12.303
30
0
11
122.160784
21
8.803002
31
0
39
0
210
0
220
0
230
1
0
LINE
5
B5
100
AcDbEntity
8
1
62
256
6
ByLayer
370
18
48
1
60
1
100
AcDbLine
10
122.160784
20
8.803002
30
0
11
121.239216
21
8.802998
31
0
39
0
210
0
220
0
230
1
0
LINE
5
B6
100
AcDbEntity
8
1
62
256
6
ByLayer
370
18
48
1
60
1
100
AcDbLine
10
121.239216
20
8.802998
30
0
11
121.7
21
12.303
31
0
39
0
210
0
220
0
230
1
0
LINE
5
B7
100
AcDbEntity
8
1
62
256
6
ByLayer
370
18
48
1
60
1
100
AcDbLine
10
121.7
20
-12.303
30
0
11
121.239216
21
-8.803002
31
0
39
0
210
0
220
0
230
1
0
LINE
5
B8
100
AcDbEntity
8
1
62
256
6
ByLayer
370
18
48
1
60
1
100
AcDbLine
10
121.239216
20
-8.803002
30
0
11
122.160784
21
-8.802998
31
0
39
0
210
0
220
0
230
1
0
LINE
5
B9
100
AcDbEntity
8
1
62
256
6
ByLayer
370
18
48
1
60
1
100
AcDbLine
10
122.160784
20
-8.802998
30
0
11
121.7
21
-12.303
31
0
39
0
210
0
220
0
230
1
0
LINE
5
BA
100
AcDbEntity
8
SK2
62
256
6
ByLayer
370
13
48
1
60
0
100
AcDbLine
10
114.742957
20
-1.491762
30
0
11
121.382423
21
-19.733545
31
0
39
0
210
0
220
0
230
1
0
LINE
5
BB
100
AcDbEntity
8
SK2
62
256
6
ByLayer
370
13
48
1
60
0
100
AcDbLine
10
114.742957
20
1.491762
30
0
11
121.382423
21
19.733545
31
0
39
0
210
0
220
0
230
1
0
LINE
5
BC
100
AcDbEntity
8
1
62
256
6
ByLayer
370
18
48
1
60
1
100
AcDbLine
10
120.698383
20
-17.85416
30
0
11
123.751575
21
-16.082064
31
0
39
0
210
0
220
0
230
1
0
LINE
5
BD
100
AcDbEntity
8
1
62
256
6
ByLayer
370
18
48
1
60
1
100
AcDbLine
10
123.751575
20
-16.082064
30
0
11
124.106196
21
-16.93267
31
0
39
0
210
0
220
0
230
1
0
LINE
5
BE
100
AcDbEntity
8
1
62
256
6
ByLayer
370
18
48
1
60
1
100
AcDbLine
10
124.106196
20
-16.93267
30
0
11
120.698383
21
-17.85416
31
0
39
0
210
0
220
0
230
1
0
LINE
5
BF
100
AcDbEntity
8
1
62
256
6
ByLayer
370
18
48
1
60
1
100
AcDbLine
10
120.698383
20
17.85416
30
0
11
124.106193
21
16.932671
31
0
39
0
210
0
220
0
230
1
0
LINE
5
C0
100
AcDbEntity
8
1
62
256
6
ByLayer
370
18
48
1
60
1
100
AcDbLine
10
124.106193
20
16.932671
30
0
11
123.751579
21
16.082063
31
0
39
0
210
0
220
0
230
1
0
LINE
5
C1
100
AcDbEntity
8
1
62
256
6
ByLayer
370
18
48
1
60
1
100
AcDbLine
10
123.751579
20
16.082063
30
0
11
120.698383
21
17.85416
31
0
39
0
210
0
220
0
230
1
0
LINE
5
142
100
AcDbEntity
8
1
62
256
6
ByLayer
370
18
48
1
60
1
100
AcDbLine
10
-62.5
20
12.7
30
0
11
-62.039216
21
9.200002
31
0
39
0
210
0
220
0
230
1
0
LINE
5
143
100
AcDbEntity
8
1
62
256
6
ByLayer
370
18
48
1
60
1
100
AcDbLine
10
-62.039216
20
9.200002
30
0
11
-62.960784
21
9.199998
31
0
39
0
210
0
220
0
230
1
0
LINE
5
144
100
AcDbEntity
8
1
62
256
6
ByLayer
370
18
48
1
60
1
100
AcDbLine
10
-62.960784
20
9.199998
30
0
11
-62.5
21
12.7
31
0
39
0
210
0
220
0
230
1
0
LINE
5
146
100
AcDbEntity
8
1
62
256
6
ByLayer
370
18
48
1
60
1
100
AcDbLine
10
-62.5
20
-12.7
30
0
11
-62.960784
21
-9.200002
31
0
39
0
210
0
220
0
230
1
0
LINE
5
147
100
AcDbEntity
8
1
62
256
6
ByLayer
370
18
48
1
60
1
100
AcDbLine
10
-62.960784
20
-9.200002
30
0
11
-62.039216
21
-9.199998
31
0
39
0
210
0
220
0
230
1
0
LINE
5
148
100
AcDbEntity
8
1
62
256
6
ByLayer
370
18
48
1
60
1
100
AcDbLine
10
-62.039216
20
-9.199998
30
0
11
-62.5
21
-12.7
31
0
39
0
210
0
220
0
230
1
0
LINE
5
14C
100
AcDbEntity
8
1
62
256
6
ByLayer
370
18
48
1
60
1
100
AcDbLine
10
121.7
20
12.303
30
0
11
122.160784
21
8.803002
31
0
39
0
210
0
220
0
230
1
0
LINE
5
14D
100
AcDbEntity
8
1
62
256
6
ByLayer
370
18
48
1
60
1
100
AcDbLine
10
122.160784
20
8.803002
30
0
11
121.239216
21
8.802998
31
0
39
0
210
0
220
0
230
1
0
LINE
5
14E
100
AcDbEntity
8
1
62
256
6
ByLayer
370
18
48
1
60
1
100
AcDbLine
10
121.239216
20
8.802998
30
0
11
121.7
21
12.303
31
0
39
0
210
0
220
0
230
1
0
LINE
5
150
100
AcDbEntity
8
1
62
256
6
ByLayer
370
18
48
1
60
1
100
AcDbLine
10
121.7
20
-12.303
30
0
11
121.239216
21
-8.803002
31
0
39
0
210
0
220
0
230
1
0
LINE
5
151
100
AcDbEntity
8
1
62
256
6
ByLayer
370
18
48
1
60
1
100
AcDbLine
10
121.239216
20
-8.803002
30
0
11
122.160784
21
-8.802998
31
0
39
0
210
0
220
0
230
1
0
LINE
5
152
100
AcDbEntity
8
1
62
256
6
ByLayer
370
18
48
1
60
1
100
AcDbLine
10
122.160784
20
-8.802998
30
0
11
121.7
21
-12.303
31
0
39
0
210
0
220
0
230
1
0
LINE
5
155
100
AcDbEntity
8
1
62
256
6
ByLayer
370
18
48
1
60
1
100
AcDbLine
10
120.698383
20
-17.85416
30
0
11
123.751575
21
-16.082064
31
0
39
0
210
0
220
0
230
1
0
LINE
5
156
100
AcDbEntity
8
1
62
256
6
ByLayer
370
18
48
1
60
1
100
AcDbLine
10
123.751575
20
-16.082064
30
0
11
124.106196
21
-16.93267
31
0
39
0
210
0
220
0
230
1
0
LINE
5
157
100
AcDbEntity
8
1
62
256
6
ByLayer
370
18
48
1
60
1
100
AcDbLine
10
124.106196
20
-16.93267
30
0
11
120.698383
21
-17.85416
31
0
39
0
210
0
220
0
230
1
0
LINE
5
159
100
AcDbEntity
8
1
62
256
6
ByLayer
370
18
48
1
60
1
100
AcDbLine
10
120.698383
20
17.85416
30
0
11
124.106193
21
16.932671
31
0
39
0
210
0
220
0
230
1
0
LINE
5
15A
100
AcDbEntity
8
1
62
256
6
ByLayer
370
18
48
1
60
1
100
AcDbLine
10
124.106193
20
16.932671
30
0
11
123.751579
21
16.082063
31
0
39
0
210
0
220
0
230
1
0
LINE
5
15B
100
AcDbEntity
8
1
62
256
6
ByLayer
370
18
48
1
60
1
100
AcDbLine
10
123.751579
20
16.082063
30
0
11
120.698383
21
17.85416
31
0
39
0
210
0
220
0
230
1
0
MTEXT
5
13E
100
AcDbEntity
8
SK2
62
256
6
ByLayer
370
18
48
1
60
0
100
AcDbMText
10
-63.841114
20
24.358438
30
0
210
0
220
0
230
1
1
%%c
40
3
41
0
44
1.084337
50
90
71
7
72
5
7
iso_b_vert
0
MTEXT
5
141
100
AcDbEntity
8
SK2
62
256
6
ByLayer
370
18
48
1
60
0
100
AcDbMText
10
-63.841114
20
30.335
30
0
210
0
220
0
230
1
1
\W0.7728;25.400
40
3
41
0
44
1.084337
50
90
71
7
72
5
7
iso_b_vert
0
MTEXT
5
14A
100
AcDbEntity
8
2
62
256
6
ByLayer
370
18
48
1
60
0
100
AcDbMText
10
120.358886
20
23.961437
30
0
210
0
220
0
230
1
1
%%c
40
3
41
0
44
1.084337
50
90
71
7
72
5
7
iso_b_vert
0
MTEXT
5
14B
100
AcDbEntity
8
2
62
256
6
ByLayer
370
18
48
1
60
0
100
AcDbMText
10
120.358886
20
29.938
30
0
210
0
220
0
230
1
1
\W0.7728;24.606
40
3
41
0
44
1.084337
50
90
71
7
72
5
7
iso_b_vert
0
MTEXT
5
154
100
AcDbEntity
8
SK2
62
256
6
ByLayer
370
18
48
1
60
0
100
AcDbMText
10
134.109114
20
3.734657
30
0
210
0
220
0
230
1
1
\W0.7071;140%%d
40
3
41
0
44
1.084337
50
270
71
7
72
5
7
iso_b_vert
0
MTEXT
5
15D
100
AcDbEntity
8
SK6
62
256
6
ByLayer
370
18
48
1
60
0
100
AcDbMText
10
1.623374
20
-67.114886
30
0
210
0
220
0
230
1
1
\W0.7564;H85331/32
40
3
41
0
44
1.084337
50
0
71
7
72
5
7
iso_b_vert
0
HATCH
5
145
100
AcDbEntity
8
SK2
62
256
6
ByLayer
370
13
48
1
60
0
100
AcDbHatch
10
0
20
0
30
0
210
0
220
0
230
1
2
ANSI31
70
0
71
0
91
1
92
5
93
3
72
1
10
-62.5
20
12.7
11
-62.0392162584472
21
9.2000016925532
72
1
10
-62.0392162584472
20
9.2000016925532
11
-62.9607837415528
21
9.19999830744683
72
1
10
-62.9607837415528
20
9.19999830744683
11
-62.5
21
12.7
97
0
75
0
76
1
52
0
41
0.0062
77
0
78
1
53
45
43
0
44
0
45
-0.0139193969876572
46
0.0139193969876572
79
0
47
0
98
1
10
0
20
0
0
HATCH
5
149
100
AcDbEntity
8
SK2
62
256
6
ByLayer
370
13
48
1
60
0
100
AcDbHatch
10
0
20
0
30
0
210
0
220
0
230
1
2
ANSI31
70
0
71
0
91
1
92
5
93
3
72
1
10
-62.5
20
-12.7
11
-62.9607837415528
21
-9.20000169255317
72
1
10
-62.9607837415528
20
-9.20000169255317
11
-62.0392162584472
21
-9.1999983074468
72
1
10
-62.0392162584472
20
-9.1999983074468
11
-62.5
21
-12.7
97
0
75
0
76
1
52
0
41
0.0062
77
0
78
1
53
45
43
0
44
0
45
-0.0139193969876572
46
0.0139193969876572
79
0
47
0
98
1
10
0
20
0
0
HATCH
5
14F
100
AcDbEntity
8
2
62
256
6
ByLayer
370
13
48
1
60
0
100
AcDbHatch
10
0
20
0
30
0
210
0
220
0
230
1
2
ANSI31
70
0
71
0
91
1
92
5
93
3
72
1
10
121.7
20
12.303
11
122.160783741553
21
8.80300169255318
72
1
10
122.160783741553
20
8.80300169255318
11
121.239216258447
21
8.80299830744681
72
1
10
121.239216258447
20
8.80299830744681
11
121.7
21
12.303
97
0
75
0
76
1
52
0
41
0.0062
77
0
78
1
53
45
43
0
44
0
45
-0.0139193969876572
46
0.0139193969876572
79
0
47
0
98
1
10
0
20
0
0
HATCH
5
153
100
AcDbEntity
8
2
62
256
6
ByLayer
370
13
48
1
60
0
100
AcDbHatch
10
0
20
0
30
0
210
0
220
0
230
1
2
ANSI31
70
0
71
0
91
1
92
5
93
3
72
1
10
121.7
20
-12.303
11
121.239216258447
21
-8.80300169255318
72
1
10
121.239216258447
20
-8.80300169255318
11
122.160783741553
21
-8.80299830744681
72
1
10
122.160783741553
20
-8.80299830744681
11
121.7
21
-12.303
97
0
75
0
76
1
52
0
41
0.0062
77
0
78
1
53
45
43
0
44
0
45
-0.0139193969876572
46
0.0139193969876572
79
0
47
0
98
1
10
0
20
0
0
HATCH
5
158
100
AcDbEntity
8
SK2
62
256
6
ByLayer
370
13
48
1
60
0
100
AcDbHatch
10
0
20
0
30
0
210
0
220
0
230
1
2
ANSI31
70
0
71
0
91
1
92
5
93
3
72
1
10
120.698382723188
20
-17.8541597949322
11
123.751575425693
21
-16.0820638240607
72
1
10
123.751575425693
20
-16.0820638240607
11
124.106195833975
21
-16.9326700737196
72
1
10
124.106195833975
20
-16.9326700737196
11
120.698382723188
21
-17.8541597949322
97
0
75
0
76
1
52
0
41
0.0062
77
0
78
1
53
45
43
0
44
0
45
-0.0139193969876572
46
0.0139193969876572
79
0
47
0
98
1
10
0
20
0
0
HATCH
5
15C
100
AcDbEntity
8
SK2
62
256
6
ByLayer
370
13
48
1
60
0
100
AcDbHatch
10
0
20
0
30
0
210
0
220
0
230
1
2
ANSI31
70
0
71
0
91
1
92
5
93
3
72
1
10
120.698382723188
20
17.8541597949322
11
124.106192709519
21
16.9326713763016
72
1
10
124.106192709519
20
16.9326713763016
11
123.751578550149
21
16.0820625214787
72
1
10
123.751578550149
20
16.0820625214787
11
120.698382723188
21
17.8541597949322
97
0
75
0
76
1
52
0
41
0.0062
77
0
78
1
53
45
43
0
44
0
45
-0.0139193969876572
46
0.0139193969876572
79
0
47
0
98
1
10
0
20
0
0
DIMENSION
5
160
100
AcDbEntity
8
SK2
62
256
6
ByLayer
370
18
48
1
60
0
100
AcDbDimension
2
_U0
10
114.2
20
-45.952229
30
0
11
29.1
21
-45.952229
31
0
70
32
71
1
72
1
41
1
210
0
220
0
230
1
3
Standard
100
AcDbAlignedDimension
13
-56
23
-12.7
33
0
14
114.2
24
0
34
0
50
0
100
AcDbRotatedDimension
1001
ACAD
1000
DSTYLE
1002
{
1070
   371
1070
    13
1070
   372
1070
    13
1070
     3
1000

1070
   170
1070
     0
1070
   144
1040
1.0
1070
   277
1070
     2
1070
   284
1070
     8
1070
   278
1070
    46
1070
   146
1040
1.166667
1070
   345
1005
16
1070
   347
1005
16
1070
   346
1005
16
1070
   344
1005
0
1070
   343
1005
0
1070
   172
1070
     1
1070
    76
1070
     0
1070
    75
1070
     0
1070
   282
1070
     0
1070
   281
1070
     0
1070
    71
1070
     0
1070
    74
1070
     0
1070
   279
1070
     0
1070
   173
1070
     1
1070
   340
1005
13F
1070
   271
1070
     2
1070
   272
1070
     3
1070
    77
1070
     1
1070
    73
1070
     1
1070
   171
1070
     3
1070
   274
1070
     4
1070
   177
1070
     2
1070
   176
1070
     2
1070
   178
1070
     2
1070
    78
1070
     8
1070
    48
1040
-0.1
1070
    41
1040
3.5
1070
   147
1040
1.5
1070
    42
1040
1.5875
1070
    44
1040
2.0
1070
   140
1040
3.0
1002
}
1001
ACAD_DSTYLE_DIM_LINETYPE
1070
   380
1005
16
1001
ACAD_DSTYLE_DIM_EXT1_LINETYPE
1070
   381
1005
16
1001
ACAD_DSTYLE_DIM_EXT2_LINETYPE
1070
   382
1005
16
0
DIMENSION
5
179
100
AcDbEntity
8
SK2
62
256
6
ByLayer
370
18
48
1
60
0
100
AcDbDimension
2
_U1
10
3
20
-35.952229
30
0
11
58.6
21
-35.952229
31
0
70
32
71
1
72
1
41
1
210
0
220
0
230
1
3
Standard
100
AcDbAlignedDimension
13
114.2
23
0
33
0
14
3
24
-12.303
34
0
50
0
100
AcDbRotatedDimension
1001
ACAD
1000
DSTYLE
1002
{
1070
   371
1070
    13
1070
   372
1070
    13
1070
     3
1000

1070
   170
1070
     0
1070
   144
1040
1.0
1070
   277
1070
     2
1070
   284
1070
     8
1070
   278
1070
    46
1070
   146
1040
1.166667
1070
   345
1005
16
1070
   347
1005
16
1070
   346
1005
16
1070
   344
1005
0
1070
   343
1005
0
1070
   172
1070
     1
1070
    76
1070
     0
1070
    75
1070
     0
1070
   282
1070
     0
1070
   281
1070
     0
1070
    71
1070
     0
1070
    74
1070
     0
1070
   279
1070
     0
1070
   173
1070
     1
1070
   340
1005
13F
1070
   271
1070
     2
1070
   272
1070
     3
1070
    77
1070
     1
1070
    73
1070
     1
1070
   171
1070
     3
1070
   274
1070
     4
1070
   177
1070
     2
1070
   176
1070
     2
1070
   178
1070
     2
1070
    78
1070
     8
1070
    48
1040
-0.1
1070
    41
1040
3.5
1070
   147
1040
1.5
1070
    42
1040
1.5875
1070
    44
1040
2.0
1070
   140
1040
3.0
1002
}
1001
ACAD_DSTYLE_DIM_LINETYPE
1070
   380
1005
16
1001
ACAD_DSTYLE_DIM_EXT1_LINETYPE
1070
   381
1005
16
1001
ACAD_DSTYLE_DIM_EXT2_LINETYPE
1070
   382
1005
16
0
DIMENSION
5
191
100
AcDbEntity
8
SK2
62
256
6
ByLayer
370
18
48
1
60
0
100
AcDbDimension
2
_U2
10
0
20
-35.952229
30
0
11
-28
21
-35.952229
31
0
70
32
71
1
72
1
41
1
210
0
220
0
230
1
3
Standard
100
AcDbAlignedDimension
13
-56
23
-12.7
33
0
14
0
24
-12.7
34
0
50
0
100
AcDbRotatedDimension
1001
ACAD
1000
DSTYLE
1002
{
1070
   371
1070
    13
1070
   372
1070
    13
1070
     3
1000

1070
   170
1070
     0
1070
   144
1040
1.0
1070
   277
1070
     2
1070
   284
1070
     8
1070
   278
1070
    46
1070
   146
1040
1.166667
1070
   345
1005
16
1070
   347
1005
16
1070
   346
1005
16
1070
   344
1005
0
1070
   343
1005
0
1070
   172
1070
     1
1070
    76
1070
     0
1070
    75
1070
     0
1070
   282
1070
     0
1070
   281
1070
     0
1070
    71
1070
     0
1070
    74
1070
     0
1070
   279
1070
     0
1070
   173
1070
     1
1070
   340
1005
13F
1070
   271
1070
     2
1070
   272
1070
     3
1070
    77
1070
     1
1070
    73
1070
     1
1070
   171
1070
     3
1070
   274
1070
     4
1070
   177
1070
     2
1070
   176
1070
     2
1070
   178
1070
     2
1070
    78
1070
     8
1070
    48
1040
-0.1
1070
    41
1040
3.5
1070
   147
1040
1.5
1070
    42
1040
1.5875
1070
    44
1040
2.0
1070
   140
1040
3.0
1002
}
1001
ACAD_DSTYLE_DIM_LINETYPE
1070
   380
1005
16
1001
ACAD_DSTYLE_DIM_EXT1_LINETYPE
1070
   381
1005
16
1001
ACAD_DSTYLE_DIM_EXT2_LINETYPE
1070
   382
1005
16
0
DIMENSION
5
1A9
100
AcDbEntity
8
SK2
62
256
6
ByLayer
370
18
48
1
60
0
100
AcDbDimension
2
_U3
10
28
20
32.952229
30
0
11
71.1
21
32.952229
31
0
70
32
71
1
72
1
41
1
210
0
220
0
230
1
3
Standard
100
AcDbAlignedDimension
13
114.2
23
0
33
0
14
28
24
12.303
34
0
50
0
100
AcDbRotatedDimension
1001
ACAD
1000
DSTYLE
1002
{
1070
   371
1070
    13
1070
   372
1070
    13
1070
     3
1000

1070
   170
1070
     0
1070
   144
1040
1.0
1070
   277
1070
     2
1070
   284
1070
     8
1070
   278
1070
    46
1070
   146
1040
1.166667
1070
   345
1005
16
1070
   347
1005
16
1070
   346
1005
16
1070
   344
1005
0
1070
   343
1005
0
1070
   172
1070
     1
1070
    76
1070
     0
1070
    75
1070
     0
1070
   282
1070
     0
1070
   281
1070
     0
1070
    71
1070
     0
1070
    74
1070
     0
1070
   279
1070
     0
1070
   173
1070
     1
1070
   340
1005
13F
1070
   271
1070
     2
1070
   272
1070
     3
1070
    77
1070
     1
1070
    73
1070
     1
1070
   171
1070
     3
1070
   274
1070
     4
1070
   177
1070
     2
1070
   176
1070
     2
1070
   178
1070
     2
1070
    78
1070
     8
1070
    48
1040
-0.1
1070
    41
1040
3.5
1070
   147
1040
1.5
1070
    42
1040
1.5875
1070
    44
1040
2.0
1070
   140
1040
3.0
1002
}
1001
ACAD_DSTYLE_DIM_LINETYPE
1070
   380
1005
16
1001
ACAD_DSTYLE_DIM_EXT1_LINETYPE
1070
   381
1005
16
1001
ACAD_DSTYLE_DIM_EXT2_LINETYPE
1070
   382
1005
16
0
ENDSEC
0
SECTION
2
OBJECTS
0
DICTIONARY
5
231
330
0
100
AcDbDictionary
280
0
281
1
3
ACAD_GROUP
350
232
3
ACAD_MLINESTYLE
350
233
0
DICTIONARY
5
232
330
0
100
AcDbDictionary
280
0
281
1
0
DICTIONARY
5
233
330
0
100
AcDbDictionary
280
0
281
1
3
Standard
350
18
0
MLINESTYLE
5
18
330
233
100
AcDbMlineStyle
2
Standard
70
0
3

62
256
51
90
52
90
71
2
49
-0.5
62
256
6
ByLayer
49
0.5
62
256
6
ByLayer
0
RASTERVARIABLES
5
21f
330

100
AcDbRasterVariables
90
0
70
1
71
1
72
1
0
ENDSEC
0
EOF
