0
SECTION
2
HEADER
9
$ACADVER
1
AC1015
9
$DWGCODEPAGE
3
ANSI_1252
9
$HANDSEED
5
252
9
$ANGBASE
50
0
9
$ANGDIR
70
0
9
$ATTMODE
70
1
9
$AUNITS
70
0
9
$AUPREC
70
0
9
$CECOLOR
62
256
9
$CELTSCALE
40
1
9
$CELTYPE
6
ByLayer
9
$CELWEIGHT
370
18
9
$CLAYER
8
0
9
$CMLJUST
70
0
9
$CMLSCALE
40
1
9
$CMLSTYLE
2
Standard
9
$DIMSTYLE
2
Standard
9
$TEXTSIZE
40
0.2
9
$TEXTSTYLE
7
Standard
9
$LUNITS
70
2
9
$LUPREC
70
4
9
$EXTNAMES
290
1
9
$INSUNITS
70
4
9
$LTSCALE
40
1
9
$LWDISPLAY
290
1
9
$PDMODE
70
0
9
$PDSIZE
40
0
9
$PLINEGEN
70
0
0
ENDSEC
0
SECTION
2
CLASSES
0
CLASS
1
RASTERVARIABLES
2
AcDbRasterVariables
3
ISM
90
0
280
0
281
0
0
ENDSEC
0
SECTION
2
TABLES
0
TABLE
2
VPORT
5
248
100
AcDbSymbolTable
0
VPORT
5
1
100
AcDbSymbolTableRecord
100
AcDbViewportTableRecord
2
*Active
70
0
10
0
20
0
11
1
21
1
12
-1
22
1
13
0
23
0
14
0.5
24
0.5
15
10
25
10
16
0
26
0
36
1
17
0
27
0
37
0
0
ENDTAB
0
TABLE
2
LTYPE
5
249
100
AcDbSymbolTable
0
LTYPE
5
14
100
AcDbSymbolTableRecord
100
AcDbLinetypeTableRecord
70
0
2
ByBlock
3

72
65
73
0
40
0
0
LTYPE
5
15
100
AcDbSymbolTableRecord
100
AcDbLinetypeTableRecord
70
0
2
ByLayer
3

72
65
73
0
40
0
0
LTYPE
5
16
100
AcDbSymbolTableRecord
100
AcDbLinetypeTableRecord
70
0
2
Continuous
3
Solid line
72
65
73
0
40
0
0
LTYPE
5
6E
100
AcDbSymbolTableRecord
100
AcDbLinetypeTableRecord
70
0
2
CENTER
3
____ _ ____ _ ____ _ ____
72
65
73
4
40
47.5
49
22
74
0
49
-8.5
74
0
49
8.5
74
0
49
-8.5
74
0
0
LTYPE
5
6F
100
AcDbSymbolTableRecord
100
AcDbLinetypeTableRecord
70
0
2
DASHED
3
__ __ __ __ __ __ __ __ __
72
65
73
2
40
25.72
49
12.86
74
0
49
-12.86
74
0
0
ENDTAB
0
TABLE
2
LAYER
5
24a
100
AcDbSymbolTable
0
LAYER
5
10
100
AcDbSymbolTableRecord
100
AcDbLayerTableRecord
2
0
70
0
62
7
6
Continuous
290
1
370
-3
390
0
0
LAYER
5
71
100
AcDbSymbolTableRecord
100
AcDbLayerTableRecord
2
80
70
0
62
-6
6
Continuous
290
1
370
-3
390
0
0
LAYER
5
73
100
AcDbSymbolTableRecord
100
AcDbLayerTableRecord
2
81
70
0
62
-3
6
Continuous
290
1
370
-3
390
0
0
LAYER
5
75
100
AcDbSymbolTableRecord
100
AcDbLayerTableRecord
2
1
70
0
62
4
6
Continuous
290
1
370
-3
390
0
0
LAYER
5
7F
100
AcDbSymbolTableRecord
100
AcDbLayerTableRecord
2
4
70
0
62
-2
6
CENTER
290
1
370
-3
390
0
0
LAYER
5
B1
100
AcDbSymbolTableRecord
100
AcDbLayerTableRecord
2
2
70
0
62
7
6
Continuous
290
1
370
-3
390
0
0
LAYER
5
177
100
AcDbSymbolTableRecord
100
AcDbLayerTableRecord
2
Defpoints
70
0
62
7
6
Continuous
290
0
370
-3
390
0
0
LAYER
5
234
100
AcDbSymbolTableRecord
100
AcDbLayerTableRecord
2
SK4
70
0
62
2
6
CENTER
290
1
370
-3
390
0
0
LAYER
5
235
100
AcDbSymbolTableRecord
100
AcDbLayerTableRecord
2
SK1
70
0
62
4
6
Continuous
290
1
370
-3
390
0
0
LAYER
5
236
100
AcDbSymbolTableRecord
100
AcDbLayerTableRecord
2
SK2
70
0
62
7
6
Continuous
290
1
370
-3
390
0
0
LAYER
5
237
100
AcDbSymbolTableRecord
100
AcDbLayerTableRecord
2
SK6
70
0
62
5
6
Continuous
290
1
370
-3
390
0
0
ENDTAB
0
TABLE
2
STYLE
5
24b
100
AcDbSymbolTable
0
STYLE
5
11
100
AcDbSymbolTableRecord
100
AcDbTextStyleTableRecord
2
Standard
3
txt
70
0
71
0
40
0
41
1
42
0
50
0
0
STYLE
5
153
100
AcDbSymbolTableRecord
100
AcDbTextStyleTableRecord
2
iso_b_vert
3
simplex.shx
70
0
71
0
40
0
41
1
42
0
50
0
0
STYLE
5
154
100
AcDbSymbolTableRecord
100
AcDbTextStyleTableRecord
2
DWGDirectTextStyle
3
simplex
70
0
71
0
40
0
41
1
42
0
50
0
0
ENDTAB
0
TABLE
2
DIMSTYLE
5
24c
100
AcDbSymbolTable
100
AcDbDimStyleTable
0
DIMSTYLE
105
27
100
AcDbSymbolTableRecord
100
AcDbDimStyleTableRecord
2
Standard
70
0
3
<>
41
0.18
42
0.0625
44
0.18
140
0.18
147
0.09
73
0
74
0
77
1
271
2
275
0
278
52
280
0
340
11
0
ENDTAB
0
TABLE
2
VIEW
5
24d
100
AcDbSymbolTable
0
ENDTAB
0
TABLE
2
UCS
5
24e
100
AcDbSymbolTable
0
ENDTAB
0
TABLE
2
APPID
5
24f
100
AcDbSymbolTable
0
APPID
5
12
100
AcDbSymbolTableRecord
100
AcDbRegAppTableRecord
2
ACAD
70
0
0
APPID
5
173
100
AcDbSymbolTableRecord
100
AcDbRegAppTableRecord
2
ACAD_DSTYLE_DIMBREAK
70
0
0
APPID
5
1F3
100
AcDbSymbolTableRecord
100
AcDbRegAppTableRecord
2
ACAD_DSTYLE_DIM_LINETYPE
70
0
0
APPID
5
1F4
100
AcDbSymbolTableRecord
100
AcDbRegAppTableRecord
2
ACAD_DSTYLE_DIM_EXT1_LINETYPE
70
0
0
APPID
5
1F5
100
AcDbSymbolTableRecord
100
AcDbRegAppTableRecord
2
ACAD_DSTYLE_DIM_EXT2_LINETYPE
70
0
0
APPID
5
230
100
AcDbSymbolTableRecord
100
AcDbRegAppTableRecord
2
ACAD_MLEADERVER
70
0
0
ENDTAB
0
TABLE
2
BLOCK_RECORD
5
250
100
AcDbSymbolTable
0
BLOCK_RECORD
5
1F
100
AcDbSymbolTableRecord
100
AcDbBlockTableRecord
2
*Model_Space
340
0
70
0
0
BLOCK_RECORD
5
1B
100
AcDbSymbolTableRecord
100
AcDbBlockTableRecord
2
*Paper_Space
340
0
70
0
0
BLOCK_RECORD
5
23
100
AcDbSymbolTableRecord
100
AcDbBlockTableRecord
2
*Paper_Space0
340
0
70
0
0
BLOCK_RECORD
5
178
100
AcDbSymbolTableRecord
100
AcDbBlockTableRecord
2
*D1
340
0
70
0
0
BLOCK_RECORD
5
184
100
AcDbSymbolTableRecord
100
AcDbBlockTableRecord
2
_U0
340
0
70
0
0
BLOCK_RECORD
5
190
100
AcDbSymbolTableRecord
100
AcDbBlockTableRecord
2
*D3
340
0
70
0
0
BLOCK_RECORD
5
19C
100
AcDbSymbolTableRecord
100
AcDbBlockTableRecord
2
_U1
340
0
70
0
0
BLOCK_RECORD
5
1A8
100
AcDbSymbolTableRecord
100
AcDbBlockTableRecord
2
*D5
340
0
70
0
0
BLOCK_RECORD
5
1B4
100
AcDbSymbolTableRecord
100
AcDbBlockTableRecord
2
_U2
340
0
70
0
0
BLOCK_RECORD
5
1C0
100
AcDbSymbolTableRecord
100
AcDbBlockTableRecord
2
*D7
340
0
70
0
0
BLOCK_RECORD
5
1CC
100
AcDbSymbolTableRecord
100
AcDbBlockTableRecord
2
_U3
340
0
70
0
0
ENDTAB
0
ENDSEC
0
SECTION
2
BLOCKS
0
BLOCK
5
20
100
AcDbEntity
8
0
100
AcDbBlockBegin
2
*Model_Space
70
0
10
0
20
0
30
0
3
*Model_Space
0
ENDBLK
5
21
100
AcDbEntity
8
0
100
AcDbBlockEnd
0
BLOCK
5
1C
100
AcDbEntity
8
0
100
AcDbBlockBegin
2
*Paper_Space
70
0
10
0
20
0
30
0
3
*Paper_Space
0
ENDBLK
5
1D
100
AcDbEntity
8
0
100
AcDbBlockEnd
0
BLOCK
5
24
100
AcDbEntity
8
0
100
AcDbBlockBegin
2
*Paper_Space0
70
0
10
0
20
0
30
0
3
*Paper_Space0
0
ENDBLK
5
25
100
AcDbEntity
8
0
100
AcDbBlockEnd
0
BLOCK
5
179
100
AcDbEntity
8
0
100
AcDbBlockBegin
2
*D1
70
1
10
0
20
0
30
0
3
*D1
0
LINE
5
17B
100
AcDbEntity
8
0
62
256
6
ByLayer
370
-2
48
1
60
0
100
AcDbLine
10
-60
20
-17.5875
30
0
11
-60
21
-47.952229
31
0
39
0
210
0
220
0
230
1
0
LINE
5
17C
100
AcDbEntity
8
0
62
256
6
ByLayer
370
-2
48
1
60
0
100
AcDbLine
10
120
20
-1.5875
30
0
11
120
21
-47.952229
31
0
39
0
210
0
220
0
230
1
0
LINE
5
17D
100
AcDbEntity
8
0
62
256
6
ByLayer
370
-2
48
1
60
0
100
AcDbLine
10
-56.5
20
-45.952229
30
0
11
116.5
21
-45.952229
31
0
39
0
210
0
220
0
230
1
0
SOLID
5
17E
100
AcDbEntity
8
0
62
256
6
ByLayer
370
-1
48
1
60
0
100
AcDbTrace
10
-56.5
20
-45.368896
30
0
11
-56.5
21
-46.535563
31
0
12
-60
22
-45.952229
32
0
13
-60
23
-45.952229
33
0
39
0
210
0
220
0
230
1
0
SOLID
5
17F
100
AcDbEntity
8
0
62
256
6
ByLayer
370
-1
48
1
60
0
100
AcDbTrace
10
116.5
20
-46.535563
30
0
11
116.5
21
-45.368896
31
0
12
120
22
-45.952229
32
0
13
120
23
-45.952229
33
0
39
0
210
0
220
0
230
1
0
MTEXT
5
180
100
AcDbEntity
8
0
62
256
6
ByLayer
370
18
48
1
60
0
100
AcDbMText
10
30
20
-39.952229
30
0
210
0
220
0
230
1
1
\A1;180
40
3
41
0
44
1
50
0
71
5
72
5
7
iso_b_vert
0
POINT
5
181
100
AcDbEntity
8
Defpoints
62
0
6
ByLayer
370
-1
48
1
60
0
100
AcDbPoint
10
-60
20
-16
30
0
39
0
210
0
220
0
230
1
50
360
0
POINT
5
182
100
AcDbEntity
8
Defpoints
62
0
6
ByLayer
370
-1
48
1
60
0
100
AcDbPoint
10
120
20
0
30
0
39
0
210
0
220
0
230
1
50
360
0
POINT
5
183
100
AcDbEntity
8
Defpoints
62
0
6
ByLayer
370
-1
48
1
60
0
100
AcDbPoint
10
120
20
-45.952229
30
0
39
0
210
0
220
0
230
1
50
360
0
ENDBLK
5
17A
100
AcDbEntity
8
0
100
AcDbBlockEnd
0
BLOCK
5
18B
100
AcDbEntity
8
0
100
AcDbBlockBegin
2
_U0
70
0
10
0
20
0
30
0
3
_U0
0
MTEXT
5
185
100
AcDbEntity
8
SK2
62
256
6
ByLayer
370
18
48
1
60
0
100
AcDbMText
10
24.771658
20
-45.067115
30
0
210
0
220
0
230
1
1
\W0.7022;180.00
40
3
41
0
44
1.084337
50
0
71
7
72
5
7
iso_b_vert
0
LINE
5
186
100
AcDbEntity
8
SK2
62
256
6
ByLayer
370
13
48
1
60
0
100
AcDbLine
10
-60
20
-17.5875
30
0
11
-60
21
-47.952229
31
0
39
0
210
0
220
0
230
1
0
LINE
5
187
100
AcDbEntity
8
SK2
62
256
6
ByLayer
370
13
48
1
60
0
100
AcDbLine
10
120
20
-1.5875
30
0
11
120
21
-47.952229
31
0
39
0
210
0
220
0
230
1
0
LINE
5
188
100
AcDbEntity
8
SK2
62
256
6
ByLayer
370
13
48
1
60
0
100
AcDbLine
10
-60
20
-45.952229
30
0
11
120
21
-45.952229
31
0
39
0
210
0
220
0
230
1
0
SOLID
5
189
100
AcDbEntity
8
SK2
62
256
6
ByLayer
370
18
48
1
60
0
100
AcDbTrace
10
-60
20
-45.952229
30
0
11
-56.500002
21
-45.491446
31
0
12
-56.499998
22
-46.413013
32
0
13
-56.499998
23
-46.413013
33
0
39
0
210
0
220
0
230
1
0
SOLID
5
18A
100
AcDbEntity
8
SK2
62
256
6
ByLayer
370
18
48
1
60
0
100
AcDbTrace
10
120
20
-45.952229
30
0
11
116.500002
21
-46.413013
31
0
12
116.499998
22
-45.491446
32
0
13
116.499998
23
-45.491446
33
0
39
0
210
0
220
0
230
1
0
ENDBLK
5
18C
100
AcDbEntity
8
0
100
AcDbBlockEnd
0
BLOCK
5
191
100
AcDbEntity
8
0
100
AcDbBlockBegin
2
*D3
70
1
10
0
20
0
30
0
3
*D3
0
LINE
5
193
100
AcDbEntity
8
0
62
256
6
ByLayer
370
-2
48
1
60
0
100
AcDbLine
10
120
20
-1.5875
30
0
11
120
21
-37.952229
31
0
39
0
210
0
220
0
230
1
0
LINE
5
194
100
AcDbEntity
8
0
62
256
6
ByLayer
370
-2
48
1
60
0
100
AcDbLine
10
3
20
-15.5875
30
0
11
3
21
-37.952229
31
0
39
0
210
0
220
0
230
1
0
LINE
5
195
100
AcDbEntity
8
0
62
256
6
ByLayer
370
-2
48
1
60
0
100
AcDbLine
10
116.5
20
-35.952229
30
0
11
6.5
21
-35.952229
31
0
39
0
210
0
220
0
230
1
0
SOLID
5
196
100
AcDbEntity
8
0
62
256
6
ByLayer
370
-1
48
1
60
0
100
AcDbTrace
10
116.5
20
-36.535563
30
0
11
116.5
21
-35.368896
31
0
12
120
22
-35.952229
32
0
13
120
23
-35.952229
33
0
39
0
210
0
220
0
230
1
0
SOLID
5
197
100
AcDbEntity
8
0
62
256
6
ByLayer
370
-1
48
1
60
0
100
AcDbTrace
10
6.5
20
-35.368896
30
0
11
6.5
21
-36.535563
31
0
12
3
22
-35.952229
32
0
13
3
23
-35.952229
33
0
39
0
210
0
220
0
230
1
0
MTEXT
5
198
100
AcDbEntity
8
0
62
256
6
ByLayer
370
18
48
1
60
0
100
AcDbMText
10
61.5
20
-29.952229
30
0
210
0
220
0
230
1
1
\A1;117
40
3
41
0
44
1
50
0
71
5
72
5
7
iso_b_vert
0
POINT
5
199
100
AcDbEntity
8
Defpoints
62
0
6
ByLayer
370
-1
48
1
60
0
100
AcDbPoint
10
120
20
0
30
0
39
0
210
0
220
0
230
1
50
360
0
POINT
5
19A
100
AcDbEntity
8
Defpoints
62
0
6
ByLayer
370
-1
48
1
60
0
100
AcDbPoint
10
3
20
-14
30
0
39
0
210
0
220
0
230
1
50
360
0
POINT
5
19B
100
AcDbEntity
8
Defpoints
62
0
6
ByLayer
370
-1
48
1
60
0
100
AcDbPoint
10
3
20
-35.952229
30
0
39
0
210
0
220
0
230
1
50
360
0
ENDBLK
5
192
100
AcDbEntity
8
0
100
AcDbBlockEnd
0
BLOCK
5
1A3
100
AcDbEntity
8
0
100
AcDbBlockBegin
2
_U1
70
0
10
0
20
0
30
0
3
_U1
0
MTEXT
5
19D
100
AcDbEntity
8
SK2
62
256
6
ByLayer
370
18
48
1
60
0
100
AcDbMText
10
56.646601
20
-35.067115
30
0
210
0
220
0
230
1
1
\W0.6532;117.00
40
3
41
0
44
1.084337
50
0
71
7
72
5
7
iso_b_vert
0
LINE
5
19E
100
AcDbEntity
8
SK2
62
256
6
ByLayer
370
13
48
1
60
0
100
AcDbLine
10
120
20
-1.5875
30
0
11
120
21
-37.952229
31
0
39
0
210
0
220
0
230
1
0
LINE
5
19F
100
AcDbEntity
8
SK2
62
256
6
ByLayer
370
13
48
1
60
0
100
AcDbLine
10
3
20
-15.5875
30
0
11
3
21
-37.952229
31
0
39
0
210
0
220
0
230
1
0
LINE
5
1A0
100
AcDbEntity
8
SK2
62
256
6
ByLayer
370
13
48
1
60
0
100
AcDbLine
10
120
20
-35.952229
30
0
11
3
21
-35.952229
31
0
39
0
210
0
220
0
230
1
0
SOLID
5
1A1
100
AcDbEntity
8
SK2
62
256
6
ByLayer
370
18
48
1
60
0
100
AcDbTrace
10
120
20
-35.952229
30
0
11
116.500002
21
-36.413013
31
0
12
116.499998
22
-35.491446
32
0
13
116.499998
23
-35.491446
33
0
39
0
210
0
220
0
230
1
0
SOLID
5
1A2
100
AcDbEntity
8
SK2
62
256
6
ByLayer
370
18
48
1
60
0
100
AcDbTrace
10
3
20
-35.952229
30
0
11
6.499998
21
-35.491446
31
0
12
6.500002
22
-36.413013
32
0
13
6.500002
23
-36.413013
33
0
39
0
210
0
220
0
230
1
0
ENDBLK
5
1A4
100
AcDbEntity
8
0
100
AcDbBlockEnd
0
BLOCK
5
1A9
100
AcDbEntity
8
0
100
AcDbBlockBegin
2
*D5
70
1
10
0
20
0
30
0
3
*D5
0
LINE
5
1AB
100
AcDbEntity
8
0
62
256
6
ByLayer
370
-2
48
1
60
0
100
AcDbLine
10
-60
20
-17.5875
30
0
11
-60
21
-37.952229
31
0
39
0
210
0
220
0
230
1
0
LINE
5
1AC
100
AcDbEntity
8
0
62
256
6
ByLayer
370
-2
48
1
60
0
100
AcDbLine
10
0
20
-17.5875
30
0
11
0
21
-37.952229
31
0
39
0
210
0
220
0
230
1
0
LINE
5
1AD
100
AcDbEntity
8
0
62
256
6
ByLayer
370
-2
48
1
60
0
100
AcDbLine
10
-56.5
20
-35.952229
30
0
11
-3.5
21
-35.952229
31
0
39
0
210
0
220
0
230
1
0
SOLID
5
1AE
100
AcDbEntity
8
0
62
256
6
ByLayer
370
-1
48
1
60
0
100
AcDbTrace
10
-56.5
20
-35.368896
30
0
11
-56.5
21
-36.535563
31
0
12
-60
22
-35.952229
32
0
13
-60
23
-35.952229
33
0
39
0
210
0
220
0
230
1
0
SOLID
5
1AF
100
AcDbEntity
8
0
62
256
6
ByLayer
370
-1
48
1
60
0
100
AcDbTrace
10
-3.5
20
-36.535563
30
0
11
-3.5
21
-35.368896
31
0
12
0
22
-35.952229
32
0
13
0
23
-35.952229
33
0
39
0
210
0
220
0
230
1
0
MTEXT
5
1B0
100
AcDbEntity
8
0
62
256
6
ByLayer
370
18
48
1
60
0
100
AcDbMText
10
-30
20
-29.952229
30
0
210
0
220
0
230
1
1
\A1;60
40
3
41
0
44
1
50
0
71
5
72
5
7
iso_b_vert
0
POINT
5
1B1
100
AcDbEntity
8
Defpoints
62
0
6
ByLayer
370
-1
48
1
60
0
100
AcDbPoint
10
-60
20
-16
30
0
39
0
210
0
220
0
230
1
50
360
0
POINT
5
1B2
100
AcDbEntity
8
Defpoints
62
0
6
ByLayer
370
-1
48
1
60
0
100
AcDbPoint
10
0
20
-16
30
0
39
0
210
0
220
0
230
1
50
360
0
POINT
5
1B3
100
AcDbEntity
8
Defpoints
62
0
6
ByLayer
370
-1
48
1
60
0
100
AcDbPoint
10
0
20
-35.952229
30
0
39
0
210
0
220
0
230
1
50
360
0
ENDBLK
5
1AA
100
AcDbEntity
8
0
100
AcDbBlockEnd
0
BLOCK
5
1BB
100
AcDbEntity
8
0
100
AcDbBlockBegin
2
_U2
70
0
10
0
20
0
30
0
3
_U2
0
MTEXT
5
1B5
100
AcDbEntity
8
SK2
62
256
6
ByLayer
370
18
48
1
60
0
100
AcDbMText
10
-34.48237
20
-35.067115
30
0
210
0
220
0
230
1
1
\W0.7468;60.00
40
3
41
0
44
1.084337
50
0
71
7
72
5
7
iso_b_vert
0
LINE
5
1B6
100
AcDbEntity
8
SK2
62
256
6
ByLayer
370
13
48
1
60
0
100
AcDbLine
10
-60
20
-17.5875
30
0
11
-60
21
-37.952229
31
0
39
0
210
0
220
0
230
1
0
LINE
5
1B7
100
AcDbEntity
8
SK2
62
256
6
ByLayer
370
13
48
1
60
0
100
AcDbLine
10
0
20
-17.5875
30
0
11
0
21
-37.952229
31
0
39
0
210
0
220
0
230
1
0
LINE
5
1B8
100
AcDbEntity
8
SK2
62
256
6
ByLayer
370
13
48
1
60
0
100
AcDbLine
10
-60
20
-35.952229
30
0
11
0
21
-35.952229
31
0
39
0
210
0
220
0
230
1
0
SOLID
5
1B9
100
AcDbEntity
8
SK2
62
256
6
ByLayer
370
18
48
1
60
0
100
AcDbTrace
10
-60
20
-35.952229
30
0
11
-56.500002
21
-35.491446
31
0
12
-56.499998
22
-36.413013
32
0
13
-56.499998
23
-36.413013
33
0
39
0
210
0
220
0
230
1
0
SOLID
5
1BA
100
AcDbEntity
8
SK2
62
256
6
ByLayer
370
18
48
1
60
0
100
AcDbTrace
10
0
20
-35.952229
30
0
11
-3.499998
21
-36.413013
31
0
12
-3.500002
22
-35.491446
32
0
13
-3.500002
23
-35.491446
33
0
39
0
210
0
220
0
230
1
0
ENDBLK
5
1BC
100
AcDbEntity
8
0
100
AcDbBlockEnd
0
BLOCK
5
1C1
100
AcDbEntity
8
0
100
AcDbBlockBegin
2
*D7
70
1
10
0
20
0
30
0
3
*D7
0
LINE
5
1C3
100
AcDbEntity
8
0
62
256
6
ByLayer
370
-2
48
1
60
0
100
AcDbLine
10
120
20
1.5875
30
0
11
120
21
34.952229
31
0
39
0
210
0
220
0
230
1
0
LINE
5
1C4
100
AcDbEntity
8
0
62
256
6
ByLayer
370
-2
48
1
60
0
100
AcDbLine
10
23
20
15.5875
30
0
11
23
21
34.952229
31
0
39
0
210
0
220
0
230
1
0
LINE
5
1C5
100
AcDbEntity
8
0
62
256
6
ByLayer
370
-2
48
1
60
0
100
AcDbLine
10
116.5
20
32.952229
30
0
11
26.5
21
32.952229
31
0
39
0
210
0
220
0
230
1
0
SOLID
5
1C6
100
AcDbEntity
8
0
62
256
6
ByLayer
370
-1
48
1
60
0
100
AcDbTrace
10
116.5
20
32.368896
30
0
11
116.5
21
33.535563
31
0
12
120
22
32.952229
32
0
13
120
23
32.952229
33
0
39
0
210
0
220
0
230
1
0
SOLID
5
1C7
100
AcDbEntity
8
0
62
256
6
ByLayer
370
-1
48
1
60
0
100
AcDbTrace
10
26.5
20
33.535563
30
0
11
26.5
21
32.368896
31
0
12
23
22
32.952229
32
0
13
23
23
32.952229
33
0
39
0
210
0
220
0
230
1
0
MTEXT
5
1C8
100
AcDbEntity
8
0
62
256
6
ByLayer
370
18
48
1
60
0
100
AcDbMText
10
71.5
20
38.952229
30
0
210
0
220
0
230
1
1
\A1;97
40
3
41
0
44
1
50
0
71
5
72
5
7
iso_b_vert
0
POINT
5
1C9
100
AcDbEntity
8
Defpoints
62
0
6
ByLayer
370
-1
48
1
60
0
100
AcDbPoint
10
120
20
0
30
0
39
0
210
0
220
0
230
1
50
360
0
POINT
5
1CA
100
AcDbEntity
8
Defpoints
62
0
6
ByLayer
370
-1
48
1
60
0
100
AcDbPoint
10
23
20
14
30
0
39
0
210
0
220
0
230
1
50
360
0
POINT
5
1CB
100
AcDbEntity
8
Defpoints
62
0
6
ByLayer
370
-1
48
1
60
0
100
AcDbPoint
10
23
20
32.952229
30
0
39
0
210
0
220
0
230
1
50
360
0
ENDBLK
5
1C2
100
AcDbEntity
8
0
100
AcDbBlockEnd
0
BLOCK
5
1D3
100
AcDbEntity
8
0
100
AcDbBlockBegin
2
_U3
70
0
10
0
20
0
30
0
3
_U3
0
MTEXT
5
1CD
100
AcDbEntity
8
SK2
62
256
6
ByLayer
370
18
48
1
60
0
100
AcDbMText
10
67.01763
20
33.837344
30
0
210
0
220
0
230
1
1
\W0.7468;97.00
40
3
41
0
44
1.084337
50
0
71
7
72
5
7
iso_b_vert
0
LINE
5
1CE
100
AcDbEntity
8
SK2
62
256
6
ByLayer
370
13
48
1
60
0
100
AcDbLine
10
120
20
1.5875
30
0
11
120
21
34.952229
31
0
39
0
210
0
220
0
230
1
0
LINE
5
1CF
100
AcDbEntity
8
SK2
62
256
6
ByLayer
370
13
48
1
60
0
100
AcDbLine
10
23
20
15.5875
30
0
11
23
21
34.952229
31
0
39
0
210
0
220
0
230
1
0
LINE
5
1D0
100
AcDbEntity
8
SK2
62
256
6
ByLayer
370
13
48
1
60
0
100
AcDbLine
10
120
20
32.952229
30
0
11
23
21
32.952229
31
0
39
0
210
0
220
0
230
1
0
SOLID
5
1D1
100
AcDbEntity
8
SK2
62
256
6
ByLayer
370
18
48
1
60
0
100
AcDbTrace
10
120
20
32.952229
30
0
11
116.500002
21
32.491446
31
0
12
116.499998
22
33.413013
32
0
13
116.499998
23
33.413013
33
0
39
0
210
0
220
0
230
1
0
SOLID
5
1D2
100
AcDbEntity
8
SK2
62
256
6
ByLayer
370
18
48
1
60
0
100
AcDbTrace
10
23
20
32.952229
30
0
11
26.499998
21
33.413013
31
0
12
26.500002
22
32.491446
32
0
13
26.500002
23
32.491446
33
0
39
0
210
0
220
0
230
1
0
ENDBLK
5
1D4
100
AcDbEntity
8
0
100
AcDbBlockEnd
0
ENDSEC
0
SECTION
2
ENTITIES
0
ARC
5
C2
100
AcDbEntity
8
SK2
62
256
6
ByLayer
370
13
48
1
60
0
100
AcDbCircle
39
0
10
120
20
0
30
0
40
19
210
0
220
0
230
1
100
AcDbArc
50
290
51
70
0
ELLIPSE
5
C3
100
AcDbEntity
8
SK1
62
256
6
ByLayer
370
18
48
1
60
0
100
AcDbEllipse
10
375.907546
20
0
30
0
11
458.180052524353
21
-5.19163675692399E-13
31
0
210
0
220
0
230
1
40
0.034921
41
2.59367031451701
42
2.79796683129766
0
ELLIPSE
5
C4
100
AcDbEntity
8
SK1
62
256
6
ByLayer
370
18
48
1
60
0
100
AcDbEllipse
10
-29.157899
20
0
30
0
11
17.1578993603954
21
-1.94416104542868E-14
31
0
210
0
220
0
230
1
40
0.932515
41
-0.494065251162693
42
0.494065251162695
0
ELLIPSE
5
C5
100
AcDbEntity
8
SK1
62
256
6
ByLayer
370
18
48
1
60
0
100
AcDbEllipse
10
375.907546
20
0
30
0
11
458.180052528051
21
-5.19163675696589E-13
31
0
210
0
220
0
230
1
40
0.034921
41
-2.79796683129846
42
-2.59367031451889
0
ELLIPSE
5
C6
100
AcDbEntity
8
SK1
62
256
6
ByLayer
370
18
48
1
60
0
100
AcDbEllipse
10
-42.079759
20
0
30
0
11
-2.93905524917505E-15
21
-16.0000000000073
31
0
210
0
220
0
230
1
40
0.932515
41
-1.80249142112189
42
-1.3391012324679
0
POINT
5
70
100
AcDbEntity
8
80
62
256
6
ByLayer
370
18
48
1
60
0
100
AcDbPoint
10
0
20
0
30
0
39
0
210
0
220
0
230
1
50
360
0
POINT
5
72
100
AcDbEntity
8
81
62
256
6
ByLayer
370
18
48
1
60
0
100
AcDbPoint
10
120
20
0
30
0
39
0
210
0
220
0
230
1
50
360
0
POINT
5
74
100
AcDbEntity
8
1
62
256
6
ByLayer
370
18
48
1
60
1
100
AcDbPoint
10
-60
20
-16
30
0
39
0
210
0
220
0
230
1
50
360
0
POINT
5
76
100
AcDbEntity
8
1
62
256
6
ByLayer
370
18
48
1
60
1
100
AcDbPoint
10
120
20
0
30
0
39
0
210
0
220
0
230
1
50
360
0
POINT
5
77
100
AcDbEntity
8
1
62
256
6
ByLayer
370
18
48
1
60
1
100
AcDbPoint
10
120
20
0
30
0
39
0
210
0
220
0
230
1
50
360
0
POINT
5
78
100
AcDbEntity
8
1
62
256
6
ByLayer
370
18
48
1
60
1
100
AcDbPoint
10
3
20
-14
30
0
39
0
210
0
220
0
230
1
50
360
0
POINT
5
79
100
AcDbEntity
8
1
62
256
6
ByLayer
370
18
48
1
60
1
100
AcDbPoint
10
-60
20
-16
30
0
39
0
210
0
220
0
230
1
50
360
0
POINT
5
7A
100
AcDbEntity
8
1
62
256
6
ByLayer
370
18
48
1
60
1
100
AcDbPoint
10
0
20
-16
30
0
39
0
210
0
220
0
230
1
50
360
0
POINT
5
7B
100
AcDbEntity
8
1
62
256
6
ByLayer
370
18
48
1
60
1
100
AcDbPoint
10
120
20
0
30
0
39
0
210
0
220
0
230
1
50
360
0
POINT
5
7C
100
AcDbEntity
8
1
62
256
6
ByLayer
370
18
48
1
60
1
100
AcDbPoint
10
23
20
14
30
0
39
0
210
0
220
0
230
1
50
360
0
SPLINE
5
C7
100
AcDbEntity
8
1
62
256
6
ByLayer
370
18
48
1
60
0
100
AcDbSpline
70
4
71
3
72
23
73
19
40
0
40
0
40
0
40
0
40
0.124999999999996
40
0.124999999999996
40
0.249999999999991
40
0.249999999999991
40
0.312499999999989
40
0.312499999999989
40
0.374999999999987
40
0.499999999999989
40
0.499999999999989
40
0.749999999999986
40
0.749999999999986
40
0.812499999999989
40
0.812499999999989
40
0.874999999999993
40
0.874999999999993
40
1
40
1
40
1
40
1
41
1
10
114.904416720267
20
-1.99835495719981
30
0
41
1
10
114.378579088975
20
-1.80928892495399
30
0
41
1
10
113.852937048298
20
-1.61976468273653
30
0
41
1
10
112.802109389246
20
-1.23961931580217
30
0
41
1
10
112.276936511195
20
-1.04896297362794
30
0
41
1
10
111.489522957251
20
-0.762147278691543
30
0
41
1
10
111.22709215392
20
-0.666451225960571
30
0
41
1
10
110.702177242208
20
-0.475247908791147
30
0
41
1
10
109.914762213533
20
-0.188622983407839
30
0
41
1
10
109.127256823552
20
0.0975668411911954
30
0
41
1
10
107.552194120812
20
0.6695568958325
30
0
41
1
10
106.502083463655
20
1.05036589605541
30
0
41
1
10
105.189655250076
20
1.52654167672819
30
0
41
1
10
104.927178750064
20
1.62178121758748
30
0
41
1
10
104.402089753342
20
1.81184408093742
30
0
41
1
10
104.139477249143
20
1.90666741528881
30
0
41
1
10
103.351447294942
20
2.19054528202454
30
0
41
1
10
102.82583901512
20
2.37901215398827
30
0
41
1
10
102.3
20
2.566760980731
30
0
0
SPLINE
5
C8
100
AcDbEntity
8
1
62
256
6
ByLayer
370
18
48
1
60
0
100
AcDbSpline
70
4
71
3
72
96
73
92
40
0
40
0
40
0
40
0
40
0.0312500000000002
40
0.0312500000000002
40
0.0625000000000004
40
0.0625000000000004
40
0.0937500000000006
40
0.0937500000000006
40
0.125000000000001
40
0.125000000000001
40
0.140625
40
0.140625
40
0.148437500000001
40
0.148437500000001
40
0.156250000000001
40
0.187500000000002
40
0.187500000000002
40
0.218750000000004
40
0.218750000000004
40
0.250000000000005
40
0.250000000000005
40
0.281250000000007
40
0.281250000000007
40
0.296875000000008
40
0.296875000000008
40
0.304687500000008
40
0.304687500000008
40
0.312500000000007
40
0.312500000000007
40
0.343750000000006
40
0.343750000000006
40
0.375000000000004
40
0.375000000000004
40
0.406250000000002
40
0.406250000000002
40
0.437500000000001
40
0.437500000000001
40
0.445312500000001
40
0.445312500000001
40
0.453125000000001
40
0.468750000000001
40
0.468750000000001
40
0.500000000000001
40
0.500000000000001
40
0.531250000000001
40
0.531250000000001
40
0.535156250000001
40
0.535156250000001
40
0.539062500000001
40
0.539062500000001
40
0.546875
40
0.5625
40
0.5625
40
0.593749999999999
40
0.593749999999999
40
0.624999999999998
40
0.624999999999998
40
0.632812499999998
40
0.632812499999998
40
0.640624999999999
40
0.656249999999999
40
0.656249999999999
40
0.687499999999999
40
0.687499999999999
40
0.71875
40
0.71875
40
0.7265625
40
0.7265625
40
0.734375
40
0.734375
40
0.75
40
0.75
40
0.781249999999999
40
0.781249999999999
40
0.812499999999999
40
0.812499999999999
40
0.843749999999999
40
0.843749999999999
40
0.8515625
40
0.8515625
40
0.859375
40
0.875
40
0.875
40
0.90625
40
0.90625
40
0.9375
40
0.96875
40
0.96875
40
0.984375
40
0.984375
40
1
40
1
40
1
40
1
41
1
10
114.904416720273
20
13.5554311965025
30
0
41
1
10
114.991856588866
20
13.3386321824389
30
0
41
1
10
115.079433533354
20
13.1185762790956
30
0
41
1
10
115.255010778902
20
12.6724626111726
30
0
41
1
10
115.343010928382
20
12.4464036981231
30
0
41
1
10
115.519539257857
20
11.9886529707449
30
0
41
1
10
115.60806750631
20
11.7569605067459
30
0
41
1
10
115.785714152065
20
11.2881985987899
30
0
41
1
10
115.87483285795
20
11.0511288986025
30
0
41
1
10
116.008964055565
20
10.6916087865153
30
0
41
1
10
116.053749573751
20
10.5711153975979
30
0
41
1
10
116.121037604784
20
10.3894031501738
30
0
41
1
10
116.143500749005
20
10.3286281736577
30
0
41
1
10
116.188383214026
20
10.2069702452083
30
0
41
1
10
116.300423787903
20
9.90270484657722
30
0
41
1
10
116.411647457962
20
9.59784607539643
30
0
41
1
10
116.588485871845
20
9.1093069246725
30
0
41
1
10
116.676345923329
20
8.86465479613202
30
0
41
1
10
116.850749817971
20
8.37453163315553
30
0
41
1
10
116.937295730816
20
8.12906138027077
30
0
41
1
10
117.108706587786
20
7.63718398242298
30
0
41
1
10
117.193575274129
20
7.39077823906894
30
0
41
1
10
117.319150702056
20
7.02030357589194
30
0
41
1
10
117.360718970821
20
6.8966668279316
30
0
41
1
10
117.422551488751
20
6.71096373830713
30
0
41
1
10
117.443086962177
20
6.64898637860688
30
0
41
1
10
117.483908143957
20
6.52512278173026
30
0
41
1
10
117.504186426425
20
6.46325949708822
30
0
41
1
10
117.604874546862
20
6.15427170869071
30
0
41
1
10
117.683199102019
20
5.90813627291874
30
0
41
1
10
117.833963616885
20
5.41757351618858
30
0
41
1
10
117.906413522969
20
5.17314776858603
30
0
41
1
10
118.043227188578
20
4.68549839297896
30
0
41
1
10
118.1076025334
20
4.44227582180122
30
0
41
1
10
118.224950592772
20
3.9563758913817
30
0
41
1
10
118.277928614556
20
3.71369657207652
30
0
41
1
10
118.334070396948
20
3.41018407629719
30
0
41
1
10
118.3448001352
20
3.34941927556633
30
0
41
1
10
118.365115956833
20
3.22810827552794
30
0
41
1
10
118.393826312449
20
3.04677745424328
30
0
41
1
10
118.416937453137
20
2.86737793806711
30
0
41
1
10
118.454940955925
20
2.5112527086664
30
0
41
1
10
118.469237447122
20
2.27738861096967
30
0
41
1
10
118.473071825156
20
1.81759318430645
30
0
41
1
10
118.462587154986
20
1.59166564639821
30
0
41
1
10
118.436946842196
20
1.34262152513995
30
0
41
1
10
118.433907548804
20
1.31502129815217
30
0
41
1
10
118.427451754722
20
1.25996608269955
30
0
41
1
10
118.424032005114
20
1.23248731291699
30
0
41
1
10
118.413242665451
20
1.15049163944727
30
0
41
1
10
118.38954605979
20
0.98824158747729
30
0
41
1
10
118.359862267896
20
0.831151325178581
30
0
41
1
10
118.293506932786
20
0.523684542215335
30
0
41
1
10
118.239991261693
20
0.327645873154637
30
0
41
1
10
118.119222302565
20
-0.0472472328819151
30
0
41
1
10
118.051979218575
20
-0.226106731662099
30
0
41
1
10
117.961570534674
20
-0.43910147175481
30
0
41
1
10
117.943148974165
20
-0.481211497284988
30
0
41
1
10
117.905797604085
20
-0.564168140942741
30
0
41
1
10
117.84907077978
20
-0.686574091976723
30
0
41
1
10
117.790461579366
20
-0.803012066106788
30
0
41
1
10
117.671188001904
20
-1.0281686024959
30
0
41
1
10
117.588959170938
20
-1.168001851799
30
0
41
1
10
117.420668797422
20
-1.42780706289247
30
0
41
1
10
117.334595909571
20
-1.54777532687621
30
0
41
1
10
117.225126413344
20
-1.68533855527838
30
0
41
1
10
117.203137203437
20
-1.71222989129814
30
0
41
1
10
117.158976322287
20
-1.76476472110875
30
0
41
1
10
117.136795845871
20
-1.79041635954846
30
0
41
1
10
117.070284295625
20
-1.86516846981738
30
0
41
1
10
117.025889297391
20
-1.91218289698222
30
0
41
1
10
116.892611843362
20
-2.04495399116868
30
0
41
1
10
116.803643544481
20
-2.12245550916219
30
0
41
1
10
116.625635225789
20
-2.2559840555424
30
0
41
1
10
116.536592438383
20
-2.3120088944404
30
0
41
1
10
116.358407572568
20
-2.40260625943335
30
0
41
1
10
116.269264229989
20
-2.43717882731173
30
0
41
1
10
116.157679632128
20
-2.46669553691191
30
0
41
1
10
116.135348616249
20
-2.47191206105836
30
0
41
1
10
116.090872915935
20
-2.48092632826547
30
0
41
1
10
116.024362162645
20
-2.49234138223434
30
0
41
1
10
115.958438097263
20
-2.49750717572334
30
0
41
1
10
115.827314633262
20
-2.49964673465922
30
0
41
1
10
115.740865021996
20
-2.49016428849876
30
0
41
1
10
115.569594778054
20
-2.44977142376385
30
0
41
1
10
115.399953491727
20
-2.38794817959311
30
0
41
1
10
115.232973722011
20
-2.28317410575977
30
0
41
1
10
115.108511604801
20
-2.18812820561129
30
0
41
1
10
115.067288583856
20
-2.1537994084359
30
0
41
1
10
114.985442277467
20
-2.07997297470803
30
0
41
1
10
114.944800029015
20
-2.04046090560729
30
0
41
1
10
114.904416720273
20
-1.99835495720205
30
0
0
SPLINE
5
C9
100
AcDbEntity
8
1
62
256
6
ByLayer
370
18
48
1
60
0
100
AcDbSpline
70
4
71
3
72
22
73
18
40
0
40
0
40
0
40
0
40
0.027552684541673
40
0.027552684541673
40
0.189627237118054
40
0.189627237118054
40
0.351701789694436
40
0.351701789694436
40
0.513776342270817
40
0.513776342270817
40
0.594813618559012
40
0.594813618559012
40
0.675850894847207
40
0.675850894847207
40
0.837925447423603
40
0.837925447423603
40
1
40
1
40
1
40
1
41
1
10
105.184162162268
20
13.9982501403503
30
0
41
1
10
105.273405965734
20
13.9982664164894
30
0
41
1
10
105.36265131885
20
13.998168950313
30
0
41
1
10
105.976901512627
20
13.9967166873018
30
0
41
1
10
106.501979927486
20
13.9915553594877
30
0
41
1
10
107.552125652524
20
13.9734633918412
30
0
41
1
10
108.077203739967
20
13.9605325869733
30
0
41
1
10
109.127284472182
20
13.9268936433187
30
0
41
1
10
109.652284498297
20
13.906185126929
30
0
41
1
10
110.439649834745
20
13.8692188283828
30
0
41
1
10
110.702081111734
20
13.8559115709847
30
0
41
1
10
111.226893015489
20
13.8273110756706
30
0
41
1
10
111.489278917992
20
13.8120179877814
30
0
41
1
10
112.276693991201
20
13.7633043770325
30
0
41
1
10
112.801945620168
20
13.7270459863796
30
0
41
1
10
113.852870124883
20
13.6469388634999
30
0
41
1
10
114.378553218476
20
13.6030939780843
30
0
41
1
10
114.904416720267
20
13.555431196503
30
0
0
SPLINE
5
CA
100
AcDbEntity
8
1
62
256
6
ByLayer
370
18
48
1
60
0
100
AcDbSpline
70
4
71
3
72
44
73
40
40
0
40
0
40
0
40
0
40
0.0344547201685285
40
0.0344547201685285
40
0.0598638064798798
40
0.0598638064798798
40
0.0852728927912311
40
0.0852728927912311
40
0.136091065413937
40
0.136091065413937
40
0.186909238036642
40
0.186909238036642
40
0.288545583282057
40
0.288545583282057
40
0.31395466959341
40
0.31395466959341
40
0.339363755904764
40
0.339363755904764
40
0.390181928527471
40
0.390181928527471
40
0.491818273772882
40
0.491818273772882
40
0.542636446395589
40
0.542636446395589
40
0.568045532706943
40
0.568045532706943
40
0.593454619018296
40
0.593454619018296
40
0.695090964263719
40
0.695090964263719
40
0.796727309509142
40
0.796727309509142
40
0.822136395820499
40
0.822136395820499
40
0.847545482131857
40
0.847545482131857
40
0.898363654754571
40
0.898363654754571
40
1
40
1
40
1
40
1
41
1
10
77.0616881658558
20
10.2212258751193
30
0
41
1
10
77.3515511866054
20
10.2910549909279
30
0
41
1
10
77.6413802510269
20
10.360071744052
30
0
41
1
10
78.1448741694497
20
10.4785925534199
30
0
41
1
10
78.3585538144584
20
10.5284701817073
30
0
41
1
10
78.7858844625063
20
10.6273157136033
30
0
41
1
10
78.9995409591202
20
10.6762732247033
30
0
41
1
10
79.6406596904871
20
10.8214411444575
30
0
41
1
10
80.0682478714095
20
10.9159924026881
30
0
41
1
10
80.9236609536897
20
11.1008748252684
30
0
41
1
10
81.3514936791383
20
11.1912011238988
30
0
41
1
10
82.6352612777254
20
11.4559475095159
30
0
41
1
10
83.4907696543011
20
11.6240030460132
30
0
41
1
10
84.5594612778001
20
11.8238461023443
30
0
41
1
10
84.7731626974725
20
11.8633052322376
30
0
41
1
10
85.2005003188369
20
11.9411858349091
30
0
41
1
10
85.4141408251687
20
11.9796004809171
30
0
41
1
10
86.0551518236298
20
12.0930264507196
30
0
41
1
10
86.4826243618004
20
12.1662077821015
30
0
41
1
10
87.7652635739046
20
12.3787495637573
30
0
41
1
10
88.6206608539778
20
12.5111075347247
30
0
41
1
10
89.9039301036016
20
12.6959951069802
30
0
41
1
10
90.3317657275712
20
12.7553546417468
30
0
41
1
10
90.9733402731832
20
12.8409675943195
30
0
41
1
10
91.187144216684
20
12.8689313963435
30
0
41
1
10
91.6146401662791
20
12.9237083790953
30
0
41
1
10
91.8283342573691
20
12.9505186082352
30
0
41
1
10
92.8968052480477
20
13.0814143692364
30
0
41
1
10
93.751754742078
20
13.1759124674252
30
0
41
1
10
95.4613984663028
20
13.3453394938808
30
0
41
1
10
96.3161278013519
20
13.420235573645
30
0
41
1
10
97.3841544138921
20
13.5016668577043
30
0
41
1
10
97.5977405032959
20
13.517342251515
30
0
41
1
10
98.0248678753577
20
13.5474675297313
30
0
41
1
10
98.238406187128
20
13.5619182302911
30
0
41
1
10
98.879096109073
20
13.603350793831
30
0
41
1
10
99.3063960885387
20
13.6283804765774
30
0
41
1
10
100.588746918813
20
13.6958059074042
30
0
41
1
10
101.444193344707
20
13.7305776465949
30
0
41
1
10
102.3
20
13.7552406190445
30
0
0
SPLINE
5
CB
100
AcDbEntity
8
1
62
256
6
ByLayer
370
18
48
1
60
0
100
AcDbSpline
70
4
71
3
72
80
73
76
40
0
40
0
40
0
40
0
40
0.0514986094398267
40
0.0514986094398267
40
0.0643732617997833
40
0.0643732617997833
40
0.07724791415974
40
0.07724791415974
40
0.102997218879652
40
0.102997218879652
40
0.154495828319476
40
0.154495828319476
40
0.180245133039388
40
0.180245133039388
40
0.2059944377593
40
0.2059944377593
40
0.257493047199122
40
0.257493047199122
40
0.283242351919034
40
0.283242351919034
40
0.308991656638946
40
0.308991656638946
40
0.321866308998902
40
0.321866308998902
40
0.334740961358858
40
0.334740961358858
40
0.36049026607877
40
0.36049026607877
40
0.411988875518595
40
0.411988875518595
40
0.424863527878551
40
0.424863527878551
40
0.437738180238506
40
0.437738180238506
40
0.463487484958415
40
0.463487484958415
40
0.489236789678325
40
0.489236789678325
40
0.514986094398234
40
0.514986094398234
40
0.540735399118143
40
0.540735399118143
40
0.566484703838052
40
0.566484703838052
40
0.617983313277871
40
0.617983313277871
40
0.64373261799778
40
0.64373261799778
40
0.669481922717689
40
0.669481922717689
40
0.682356575077643
40
0.682356575077643
40
0.695231227437597
40
0.695231227437597
40
0.720980532157506
40
0.720980532157506
40
0.772479141597325
40
0.772479141597325
40
0.798228446317235
40
0.798228446317235
40
0.81110309867719
40
0.81110309867719
40
0.823977751037145
40
0.823977751037145
40
0.875476360476965
40
0.875476360476965
40
0.901225665196874
40
0.901225665196874
40
0.914100317556829
40
0.914100317556829
40
0.926974969916784
40
0.926974969916784
40
0.978473579356601
40
0.978473579356601
40
1
40
1
40
1
40
1
41
1
10
102.3
20
2.45623029081099
30
0
41
1
10
101.380345884478
20
2.78037333799773
30
0
41
1
10
100.461038851805
20
3.10205318016207
30
0
41
1
10
99.3125359757492
20
3.50159294397793
30
0
41
1
10
99.082868550784
20
3.58137677605899
30
0
41
1
10
98.6235916607826
20
3.74067173267096
30
0
41
1
10
98.393978706832
20
3.82017322311131
30
0
41
1
10
97.7050602872224
20
4.05782096411903
30
0
41
1
10
97.245682621202
20
4.2151316042453
30
0
41
1
10
95.867311056906
20
4.68387365751963
30
0
41
1
10
94.9480710027145
20
4.99210024416197
30
0
41
1
10
93.5689267313031
20
5.44856961528177
30
0
41
1
10
93.109148937265
20
5.59975948608587
30
0
41
1
10
92.1901049455186
20
5.90007236360097
30
0
41
1
10
91.7307832482122
20
6.04925031496362
30
0
41
1
10
90.3525408799475
20
6.49164356329729
30
0
41
1
10
89.4335671856761
20
6.78030801794637
30
0
41
1
10
88.0550751680005
20
7.2044412912131
30
0
41
1
10
87.5955725855261
20
7.34433972721331
30
0
41
1
10
86.6765998171448
20
7.62126759171429
30
0
41
1
10
86.2171387460586
20
7.75831783183108
30
0
41
1
10
85.5279620411585
20
7.96169851427055
30
0
41
1
10
85.2982291265334
20
8.02910325229269
30
0
41
1
10
84.8386495913326
20
8.16290970946798
30
0
41
1
10
84.6087955442022
20
8.22933141845772
30
0
41
1
10
83.9192888277939
20
8.42710408032377
30
0
41
1
10
83.4596425568996
20
8.55698027739609
30
0
41
1
10
82.0808225681504
20
8.94082720974814
30
0
41
1
10
81.1617600661378
20
9.1890131480545
30
0
41
1
10
80.0133157091092
20
9.48997338351074
30
0
41
1
10
79.7836458799563
20
9.54970049827321
30
0
41
1
10
79.3243482496285
20
9.66822814858162
30
0
41
1
10
79.0947241507058
20
9.72703557896313
30
0
41
1
10
78.4057923901398
20
9.90181988196449
30
0
41
1
10
77.9463691884315
20
10.0160507268681
30
0
41
1
10
77.0272518552856
20
10.2399594508582
30
0
41
1
10
76.5675641685858
20
10.3496499246877
30
0
41
1
10
75.6479595110575
20
10.5645673169324
30
0
41
1
10
75.1881500084717
20
10.6697676723961
30
0
41
1
10
74.2688591527598
20
10.8756488566389
30
0
41
1
10
73.8093327681388
20
10.9763433721045
30
0
41
1
10
72.8905535536345
20
11.173271514509
30
0
41
1
10
72.431352845587
20
11.2695834239197
30
0
41
1
10
71.0534297959449
20
11.5506111442242
30
0
41
1
10
70.1344708689833
20
11.7276020539964
30
0
41
1
10
68.755709382181
20
11.9779687092331
30
0
41
1
10
68.2960676016355
20
12.0588996781603
30
0
41
1
10
67.3767160895666
20
12.2157503993406
30
0
41
1
10
66.9169503261148
20
12.2916802380208
30
0
41
1
10
66.2276701982915
20
12.4017473267564
30
0
41
1
10
65.9979586128143
20
12.437798965503
30
0
41
1
10
65.5385358519281
20
12.5085092713636
30
0
41
1
10
65.3088171093718
20
12.5431596347147
30
0
41
1
10
64.6196392440182
20
12.6450078427787
30
0
41
1
10
64.1601619700825
20
12.7101079870485
30
0
41
1
10
62.7817027469197
20
12.8971192327593
30
0
41
1
10
61.8626836615428
20
13.0107488830331
30
0
41
1
10
60.4843148815552
20
13.1647849290786
30
0
41
1
10
60.0249084955221
20
13.2134087370992
30
0
41
1
10
59.3357769629705
20
13.282146149253
30
0
41
1
10
59.1060429556782
20
13.3043433296685
30
0
41
1
10
58.6464644261289
20
13.3472635884484
30
0
41
1
10
58.4166126553723
20
13.3679944186235
30
0
41
1
10
57.2673184083649
20
13.4680001787325
30
0
41
1
10
56.3480243658557
20
13.5363311314874
30
0
41
1
10
54.9694820570319
20
13.6215259753047
30
0
41
1
10
54.5100370183228
20
13.647037644635
30
0
41
1
10
53.8210017026408
20
13.6809624467357
30
0
41
1
10
53.5913463897379
20
13.6915469750558
30
0
41
1
10
53.132077392435
20
13.7112598868167
30
0
41
1
10
52.9024608488893
20
13.7203864986762
30
0
41
1
10
51.7542098177053
20
13.762291847301
30
0
41
1
10
50.8350657041641
20
13.7839226360015
30
0
41
1
10
49.5311373125678
20
13.7979234903555
30
0
41
1
10
49.1467095004124
20
13.7999923518356
30
0
41
1
10
48.7623887612431
20
13.8000000078727
30
0
0
SPLINE
5
CC
100
AcDbEntity
8
1
62
256
6
ByLayer
370
18
48
1
60
0
100
AcDbSpline
70
4
71
3
72
12
73
8
40
0
40
0
40
0
40
0
40
0.546448145242947
40
0.546448145242947
40
0.819672217864408
40
0.819672217864408
40
1
40
1
40
1
40
1
41
1
10
102.3
20
-13.958286270369
30
0
41
1
10
102.82585374006
20
-13.9727126669746
30
0
41
1
10
103.351450428852
20
-13.9832480513373
30
0
41
1
10
104.139384638651
20
-13.9931850781593
30
0
41
1
10
104.401944050733
20
-13.9955192970021
30
0
41
1
10
104.837692193479
20
-13.9977583508888
30
0
41
1
10
105.010924157278
20
-13.998218545153
30
0
41
1
10
105.1841619604
20
-13.9982501403135
30
0
0
SPLINE
5
CD
100
AcDbEntity
8
1
62
256
6
ByLayer
370
18
48
1
60
0
100
AcDbSpline
70
4
71
3
72
122
73
118
40
0
40
0
40
0
40
0
40
0.0312500000000005
40
0.0312500000000005
40
0.062500000000001
40
0.062500000000001
40
0.0781250000000013
40
0.0781250000000013
40
0.0859375000000012
40
0.0859375000000012
40
0.093750000000001
40
0.093750000000001
40
0.109375000000001
40
0.109375000000001
40
0.125000000000001
40
0.125000000000001
40
0.140625000000002
40
0.140625000000002
40
0.156250000000002
40
0.156250000000002
40
0.164062500000002
40
0.164062500000002
40
0.171875000000002
40
0.171875000000002
40
0.187500000000002
40
0.187500000000002
40
0.203125000000002
40
0.203125000000002
40
0.218750000000001
40
0.218750000000001
40
0.234375000000001
40
0.234375000000001
40
0.242187500000001
40
0.242187500000001
40
0.250000000000001
40
0.250000000000001
40
0.28125
40
0.28125
40
0.312499999999999
40
0.312499999999999
40
0.320312499999999
40
0.320312499999999
40
0.328124999999999
40
0.328124999999999
40
0.343749999999998
40
0.343749999999998
40
0.374999999999998
40
0.374999999999998
40
0.390624999999998
40
0.390624999999998
40
0.398437499999998
40
0.398437499999998
40
0.406249999999998
40
0.406249999999998
40
0.421874999999998
40
0.421874999999998
40
0.437499999999998
40
0.437499999999998
40
0.468749999999998
40
0.468749999999998
40
0.484374999999999
40
0.484374999999999
40
0.499999999999999
40
0.499999999999999
40
0.531250000000001
40
0.531250000000001
40
0.546875000000002
40
0.546875000000002
40
0.562500000000002
40
0.562500000000002
40
0.593750000000004
40
0.593750000000004
40
0.625000000000006
40
0.625000000000006
40
0.640625000000006
40
0.640625000000006
40
0.656250000000007
40
0.656250000000007
40
0.687500000000007
40
0.687500000000007
40
0.703125000000006
40
0.703125000000006
40
0.710937500000006
40
0.710937500000006
40
0.718750000000006
40
0.718750000000006
40
0.734375000000005
40
0.734375000000005
40
0.750000000000005
40
0.750000000000005
40
0.781250000000005
40
0.781250000000005
40
0.789062500000005
40
0.789062500000005
40
0.796875000000005
40
0.796875000000005
40
0.812500000000004
40
0.812500000000004
40
0.843750000000003
40
0.843750000000003
40
0.859375000000002
40
0.859375000000002
40
0.867187500000002
40
0.867187500000002
40
0.875000000000001
40
0.875000000000001
40
0.906250000000002
40
0.906250000000002
40
0.937500000000003
40
0.937500000000003
40
0.945312500000003
40
0.945312500000003
40
0.953125000000003
40
0.953125000000003
40
0.968750000000002
40
0.968750000000002
40
1
40
1
40
1
40
1
41
1
10
20.2047999885827
20
8.28573399844643
30
0
41
1
10
21.0599639303351
20
8.03920886184216
30
0
41
1
10
21.9153103851038
20
7.78785383868262
30
0
41
1
10
23.6259085293768
20
7.27463592728634
30
0
41
1
10
24.481164410574
20
7.01278205579681
30
0
41
1
10
25.7636623528176
20
6.61132504710397
30
0
41
1
10
26.1910790659533
20
6.47601215332631
30
0
41
1
10
26.8321332314185
20
6.27091161291318
30
0
41
1
10
27.045820953512
20
6.20222601993044
30
0
41
1
10
27.4733094260413
20
6.06448671313206
30
0
41
1
10
27.687100757737
20
5.99540986045085
30
0
41
1
10
28.3285937844902
20
5.78750709631396
30
0
41
1
10
28.7564512999187
20
5.64798283696925
30
0
41
1
10
29.6122191347388
20
5.36702970730738
30
0
41
1
10
30.040043498177
20
5.22563885613718
30
0
41
1
10
30.8955264546219
20
4.94090985619087
30
0
41
1
10
31.3231836443239
20
4.7975680810658
30
0
41
1
10
32.1782754632292
20
4.50878132852259
30
0
41
1
10
32.6056995503681
20
4.36330827427639
30
0
41
1
10
33.2466639006284
20
4.14349643228257
30
0
41
1
10
33.4602999075422
20
4.06998470105819
30
0
41
1
10
33.8876528570176
20
3.92279607868926
30
0
41
1
10
34.1013654937143
20
3.84910797676196
30
0
41
1
10
34.7425896332122
20
3.62770620170261
30
0
41
1
10
35.1701823944284
20
3.47964203573037
30
0
41
1
10
36.0255176162007
20
3.18240689991919
30
0
41
1
10
36.4532640044168
20
3.03324648643291
30
0
41
1
10
37.308868942563
20
2.73371603160365
30
0
41
1
10
37.7367867483289
20
2.58332051590728
30
0
41
1
10
38.5923426797141
20
2.28127557120232
30
0
41
1
10
39.0199591608288
20
2.12962063219979
30
0
41
1
10
39.6611214215118
20
1.90113085985601
30
0
41
1
10
39.8748044799536
20
1.82481638220119
30
0
41
1
10
40.3022098517138
20
1.67220289285407
30
0
41
1
10
40.515937170731
20
1.59591783810103
30
0
41
1
10
41.5846626555517
20
1.2145075006712
30
0
41
1
10
42.4398857983787
20
0.909312863626326
30
0
41
1
10
44.1503852114674
20
0.297599419215175
30
0
41
1
10
45.0056650955327
20
-0.0089093224863461
30
0
41
1
10
46.0745446390804
20
-0.393597325249715
30
0
41
1
10
46.2883114844027
20
-0.470607225119977
30
0
41
1
10
46.7159342544251
20
-0.624470952184993
30
0
41
1
10
46.9297769075799
20
-0.701284124469481
30
0
41
1
10
47.5713010077756
20
-0.931340294766414
30
0
41
1
10
47.9990057490567
20
-1.08424870671041
30
0
41
1
10
49.2820608431987
20
-1.54194685525894
30
0
41
1
10
50.1373782977106
20
-1.84563881953301
30
0
41
1
10
51.4199705627875
20
-2.29985827993474
30
0
41
1
10
51.8474363191584
20
-2.45104712232271
30
0
41
1
10
52.4884980882841
20
-2.67760615852339
30
0
41
1
10
52.7021588291172
20
-2.75309846152857
30
0
41
1
10
53.1295265106913
20
-2.90375580146667
30
0
41
1
10
53.3432468580878
20
-2.97888423069719
30
0
41
1
10
53.9845490463269
20
-3.20358418767651
30
0
41
1
10
54.4122479690479
20
-3.35253649682025
30
0
41
1
10
55.2678815679808
20
-3.64900334391069
30
0
41
1
10
55.6958493397584
20
-3.79651362677066
30
0
41
1
10
56.9793315666116
20
-4.23677246377531
30
0
41
1
10
57.8346495667526
20
-4.52734939537692
30
0
41
1
10
59.1167966208097
20
-4.95961412702357
30
0
41
1
10
59.5440187509928
20
-5.10315350588655
30
0
41
1
10
60.3988384135601
20
-5.38732872811744
30
0
41
1
10
60.8263692147942
20
-5.52814171085956
30
0
41
1
10
62.10917613701
20
-5.94716179363809
30
0
41
1
10
62.9646935510251
20
-6.22188726090582
30
0
41
1
10
64.2481424215385
20
-6.62777402740301
30
0
41
1
10
64.6759635558359
20
-6.76202977272439
30
0
41
1
10
65.5311169939396
20
-7.02842976794884
30
0
41
1
10
65.9584627747655
20
-7.16069894286903
30
0
41
1
10
67.2408746474006
20
-7.55215836397213
30
0
41
1
10
68.0960887859003
20
-7.80657825100221
30
0
41
1
10
69.8065322399527
20
-8.30368845621109
30
0
41
1
10
70.6617861171926
20
-8.54632134261612
30
0
41
1
10
71.9443928094081
20
-8.9019880528671
30
0
41
1
10
72.371821234134
20
-9.019286453832
30
0
41
1
10
73.2271576127057
20
-9.24988307481235
30
0
41
1
10
73.6549471886131
20
-9.36320459627831
30
0
41
1
10
74.9381351850598
20
-9.69753453247901
30
0
41
1
10
75.7935325605812
20
-9.91291526259036
30
0
41
1
10
77.0762467728577
20
-10.2253183793326
30
0
41
1
10
77.5037528718215
20
-10.3276747124738
30
0
41
1
10
78.1448741694497
20
-10.4785925534199
30
0
41
1
10
78.3585538144583
20
-10.5284701817073
30
0
41
1
10
78.7858844625061
20
-10.6273157136033
30
0
41
1
10
78.9995409591202
20
-10.6762732247033
30
0
41
1
10
79.640659690487
20
-10.8214411444575
30
0
41
1
10
80.0682478714094
20
-10.9159924026881
30
0
41
1
10
80.9236609536896
20
-11.1008748252684
30
0
41
1
10
81.3514936791383
20
-11.1912011238988
30
0
41
1
10
82.6352612777254
20
-11.4559475095159
30
0
41
1
10
83.4907696543011
20
-11.6240030460132
30
0
41
1
10
84.5594612778001
20
-11.8238461023443
30
0
41
1
10
84.7731626974725
20
-11.8633052322376
30
0
41
1
10
85.2005003188369
20
-11.9411858349091
30
0
41
1
10
85.4141408251686
20
-11.9796004809171
30
0
41
1
10
86.0551518236298
20
-12.0930264507196
30
0
41
1
10
86.4826243618004
20
-12.1662077821015
30
0
41
1
10
87.7652635739046
20
-12.3787495637573
30
0
41
1
10
88.6206608539778
20
-12.5111075347247
30
0
41
1
10
89.9039301036015
20
-12.6959951069802
30
0
41
1
10
90.3317657275711
20
-12.7553546417468
30
0
41
1
10
90.9733402731832
20
-12.8409675943194
30
0
41
1
10
91.187144216684
20
-12.8689313963435
30
0
41
1
10
91.6146401662791
20
-12.9237083790953
30
0
41
1
10
91.8283342573691
20
-12.9505186082352
30
0
41
1
10
92.8968052480476
20
-13.0814143692364
30
0
41
1
10
93.751754742078
20
-13.1759124674252
30
0
41
1
10
95.4613984663027
20
-13.3453394938808
30
0
41
1
10
96.3161278013519
20
-13.420235573645
30
0
41
1
10
97.3841544138922
20
-13.5016668577043
30
0
41
1
10
97.5977405032958
20
-13.517342251515
30
0
41
1
10
98.0248678753576
20
-13.5474675297313
30
0
41
1
10
98.2384061871278
20
-13.5619182302911
30
0
41
1
10
98.8790961090729
20
-13.603350793831
30
0
41
1
10
99.3063960885386
20
-13.6283804765774
30
0
41
1
10
100.588746918813
20
-13.6958059074042
30
0
41
1
10
101.444193344707
20
-13.7305776465949
30
0
41
1
10
102.3
20
-13.7552406190445
30
0
0
SPLINE
5
CE
100
AcDbEntity
8
1
62
256
6
ByLayer
370
18
48
1
60
0
100
AcDbSpline
70
4
71
3
72
92
73
88
40
0
40
0
40
0
40
0
40
0.0151448824236857
40
0.0151448824236857
40
0.037030551703157
40
0.037030551703157
40
0.0589162209826284
40
0.0589162209826284
40
0.0808018902620997
40
0.0808018902620997
40
0.124573228821043
40
0.124573228821043
40
0.146458898100513
40
0.146458898100513
40
0.168344567379984
40
0.168344567379984
40
0.17928740201972
40
0.17928740201972
40
0.190230236659456
40
0.190230236659456
40
0.212115905938929
40
0.212115905938929
40
0.255887244497876
40
0.255887244497876
40
0.27777291377735
40
0.27777291377735
40
0.288715748417087
40
0.288715748417087
40
0.299658583056824
40
0.299658583056824
40
0.343429921615771
40
0.343429921615771
40
0.365315590895245
40
0.365315590895245
40
0.376258425534982
40
0.376258425534982
40
0.387201260174719
40
0.387201260174719
40
0.430972598733668
40
0.430972598733668
40
0.452858268013143
40
0.452858268013143
40
0.474743937292617
40
0.474743937292617
40
0.496629606572092
40
0.496629606572092
40
0.518515275851567
40
0.518515275851567
40
0.562286614410515
40
0.562286614410515
40
0.58417228368999
40
0.58417228368999
40
0.595115118329727
40
0.595115118329727
40
0.606057952969464
40
0.606057952969464
40
0.649829291528414
40
0.649829291528414
40
0.671714960807889
40
0.671714960807889
40
0.682657795447626
40
0.682657795447626
40
0.693600630087363
40
0.693600630087363
40
0.715486299366837
40
0.715486299366837
40
0.737371968646311
40
0.737371968646311
40
0.781143307205259
40
0.781143307205259
40
0.803028976484734
40
0.803028976484734
40
0.824914645764208
40
0.824914645764208
40
0.846800315043682
40
0.846800315043682
40
0.868685984323157
40
0.868685984323157
40
0.890571653602631
40
0.890571653602631
40
0.901514488242368
40
0.901514488242368
40
0.912457322882105
40
0.912457322882105
40
0.956228661441053
40
0.956228661441053
40
1
40
1
40
1
40
1
41
1
10
77.0621419707298
20
-10.2308075839699
30
0
41
1
10
76.7440733347219
20
-10.307317074526
30
0
41
1
10
76.425945036248
20
-10.3827472066173
30
0
41
1
10
75.6479595110576
20
-10.5645673169324
30
0
41
1
10
75.1881500084717
20
-10.669767672396
30
0
41
1
10
74.2688591527598
20
-10.8756488566389
30
0
41
1
10
73.8093327681389
20
-10.9763433721044
30
0
41
1
10
72.8905535536346
20
-11.173271514509
30
0
41
1
10
72.431352845587
20
-11.2695834239197
30
0
41
1
10
71.053429795945
20
-11.5506111442242
30
0
41
1
10
70.1344708689834
20
-11.7276020539964
30
0
41
1
10
68.7557093821811
20
-11.977968709233
30
0
41
1
10
68.2960676016355
20
-12.0588996781603
30
0
41
1
10
67.3767160895666
20
-12.2157503993405
30
0
41
1
10
66.9169503261149
20
-12.2916802380208
30
0
41
1
10
66.2276701982916
20
-12.4017473267563
30
0
41
1
10
65.9979586128144
20
-12.437798965503
30
0
41
1
10
65.538535851928
20
-12.5085092713636
30
0
41
1
10
65.3088171093719
20
-12.5431596347147
30
0
41
1
10
64.6196392440182
20
-12.6450078427787
30
0
41
1
10
64.1601619700825
20
-12.7101079870485
30
0
41
1
10
62.7817027469197
20
-12.8971192327592
30
0
41
1
10
61.8626836615428
20
-13.0107488830331
30
0
41
1
10
60.4843148815551
20
-13.1647849290785
30
0
41
1
10
60.0249084955221
20
-13.2134087370992
30
0
41
1
10
59.3357769629705
20
-13.282146149253
30
0
41
1
10
59.1060429556783
20
-13.3043433296685
30
0
41
1
10
58.6464644261289
20
-13.3472635884483
30
0
41
1
10
58.4166126553723
20
-13.3679944186234
30
0
41
1
10
57.2673184083648
20
-13.4680001787325
30
0
41
1
10
56.3480243658557
20
-13.5363311314874
30
0
41
1
10
54.9694820570319
20
-13.6215259753047
30
0
41
1
10
54.5100370183227
20
-13.647037644635
30
0
41
1
10
53.8210017026408
20
-13.6809624467357
30
0
41
1
10
53.5913463897379
20
-13.6915469750558
30
0
41
1
10
53.132077392435
20
-13.7112598868167
30
0
41
1
10
52.9024608488894
20
-13.7203864986762
30
0
41
1
10
51.7542098177054
20
-13.762291847301
30
0
41
1
10
50.8350657041642
20
-13.7839226360015
30
0
41
1
10
49.4557338730142
20
-13.7987331303494
30
0
41
1
10
48.9958793675218
20
-13.8007248460555
30
0
41
1
10
48.076567171008
20
-13.7988082031613
30
0
41
1
10
47.6170419670911
20
-13.7949006428746
30
0
41
1
10
46.6982866632176
20
-13.7811458837158
30
0
41
1
10
46.2390783852259
20
-13.7712856969196
30
0
41
1
10
45.3204065309216
20
-13.7457081236118
30
0
41
1
10
44.8609952581826
20
-13.7299898903464
30
0
41
1
10
43.4825886571039
20
-13.6740910326712
30
0
41
1
10
42.5634101318631
20
-13.6251882676169
30
0
41
1
10
41.1845018355831
20
-13.5342286936019
30
0
41
1
10
40.724779493585
20
-13.5009584911158
30
0
41
1
10
40.0354902620992
20
-13.4466282727503
30
0
41
1
10
39.8057667240825
20
-13.4277850971617
30
0
41
1
10
39.3462966950955
20
-13.3887007976021
30
0
41
1
10
39.1165557436918
20
-13.3684568536713
30
0
41
1
10
37.9678326042139
20
-13.2637380852132
30
0
41
1
10
37.0487982216534
20
-13.1687847862642
30
0
41
1
10
35.6703480499361
20
-13.0095422555377
30
0
41
1
10
35.2108832337321
20
-12.9536538104974
30
0
41
1
10
34.5217444211906
20
-12.8655579254126
30
0
41
1
10
34.2920409360822
20
-12.8354820765943
30
0
41
1
10
33.8326567253314
20
-12.7738985579375
30
0
41
1
10
33.6029807005936
20
-12.7423852759236
30
0
41
1
10
32.9138730441359
20
-12.6458116828917
30
0
41
1
10
32.454299445203
20
-12.5787888215739
30
0
41
1
10
31.5348010022342
20
-12.439519371404
30
0
41
1
10
31.0750721004204
20
-12.3672912291678
30
0
41
1
10
29.6961138800932
20
-12.1428327350434
30
0
41
1
10
28.7770554862848
20
-11.9828399766155
30
0
41
1
10
27.3990743381365
20
-11.7268964522678
30
0
41
1
10
26.9399024903461
20
-11.6388317341898
30
0
41
1
10
26.0212860531472
20
-11.458060037701
30
0
41
1
10
25.5618535603915
20
-11.3653433797037
30
0
41
1
10
24.6427780346906
20
-11.1752234907059
30
0
41
1
10
24.183134063169
20
-11.0778216567733
30
0
41
1
10
23.2636632564291
20
-10.8782926180191
30
0
41
1
10
22.8037826046999
20
-10.7761529705759
30
0
41
1
10
21.8844233620601
20
-10.5671830034538
30
0
41
1
10
21.424890956665
20
-10.4603393436907
30
0
41
1
10
20.7358370774546
20
-10.2964700080153
30
0
41
1
10
20.5061941202679
20
-10.2412438488165
30
0
41
1
10
20.0468976477374
20
-10.1297600626879
30
0
41
1
10
19.8172350688845
20
-10.0735200739977
30
0
41
1
10
18.6688428955387
20
-9.78985714241261
30
0
41
1
10
17.7499023261723
20
-9.55500938814686
30
0
41
1
10
15.9117992026677
20
-9.06912839070151
30
0
41
1
10
14.9926335645031
20
-8.81810417874493
30
0
41
1
10
14.0735182742169
20
-8.5585128384767
30
0
0
SPLINE
5
CF
100
AcDbEntity
8
1
62
256
6
ByLayer
370
18
48
1
60
0
100
AcDbSpline
70
4
71
3
72
95
73
91
40
0
40
0
40
0
40
0
40
0.0624999999999987
40
0.0624999999999987
40
0.0937499999999981
40
0.0937499999999981
40
0.124999999999998
40
0.124999999999998
40
0.156249999999997
40
0.156249999999997
40
0.164062499999997
40
0.164062499999997
40
0.171874999999997
40
0.187499999999997
40
0.187499999999997
40
0.218749999999995
40
0.218749999999995
40
0.249999999999993
40
0.249999999999993
40
0.281249999999992
40
0.281249999999992
40
0.289062499999991
40
0.289062499999991
40
0.296874999999991
40
0.312499999999991
40
0.312499999999991
40
0.343749999999991
40
0.343749999999991
40
0.374999999999992
40
0.374999999999992
40
0.382812499999992
40
0.382812499999992
40
0.390624999999992
40
0.406249999999991
40
0.406249999999991
40
0.43749999999999
40
0.43749999999999
40
0.468749999999989
40
0.468749999999989
40
0.476562499999989
40
0.480468749999989
40
0.480468749999989
40
0.484374999999988
40
0.484374999999988
40
0.499999999999988
40
0.499999999999988
40
0.531249999999986
40
0.531249999999986
40
0.562499999999985
40
0.562499999999985
40
0.570312499999984
40
0.570312499999984
40
0.578124999999984
40
0.593749999999983
40
0.593749999999983
40
0.624999999999981
40
0.624999999999981
40
0.64062499999998
40
0.64062499999998
40
0.648437499999979
40
0.648437499999979
40
0.656249999999978
40
0.656249999999978
40
0.687499999999976
40
0.687499999999976
40
0.718749999999974
40
0.718749999999974
40
0.749999999999972
40
0.749999999999972
40
0.765624999999972
40
0.765624999999972
40
0.773437499999972
40
0.773437499999972
40
0.781249999999972
40
0.781249999999972
40
0.812499999999976
40
0.812499999999976
40
0.84374999999998
40
0.84374999999998
40
0.874999999999984
40
0.874999999999984
40
0.906249999999988
40
0.906249999999988
40
0.937499999999992
40
0.937499999999992
40
0.953124999999994
40
0.953124999999994
40
0.968749999999996
40
0.968749999999996
40
1
40
1
40
1
40
1
41
1
10
10
20
8.66661820540944
30
0
41
1
10
9.5341117675508
20
8.59155937305502
30
0
41
1
10
9.08180553425461
20
8.49243336282049
30
0
41
1
10
8.42338530687846
20
8.30400398666629
30
0
41
1
10
8.20725893334202
20
8.23454932054335
30
0
41
1
10
7.7817463492587
20
8.08142609390697
30
0
41
1
10
7.57235944737351
20
7.99776017746751
30
0
41
1
10
7.16045835128875
20
7.81500707810054
30
0
41
1
10
6.95794304403756
20
7.71592410300303
30
0
41
1
10
6.70924820712489
20
7.58143586621708
30
0
41
1
10
6.65970013185409
20
7.55398611480788
30
0
41
1
10
6.56142951586196
20
7.49820805994614
30
0
41
1
10
6.41513845130703
20
7.4131586112338
30
0
41
1
10
6.27218907406981
20
7.32391593101119
30
0
41
1
10
5.99075594912864
20
7.13969232590421
30
0
41
1
10
5.80908051049889
20
7.00923668147612
30
0
41
1
10
5.45784348837344
20
6.73202188855714
30
0
41
1
10
5.28827956310624
20
6.5852670956678
30
0
41
1
10
4.96175120404877
20
6.27403084192312
30
0
41
1
10
4.80478261199573
20
6.10955677397354
30
0
41
1
10
4.6169760561348
20
5.89163627125447
30
0
41
1
10
4.57986419621136
20
5.84746334451455
30
0
41
1
10
4.50686929316117
20
5.7583119164041
30
0
41
1
10
4.39908315030635
20
5.62321815668469
30
0
41
1
10
4.29641956806807
20
5.48398693209515
30
0
41
1
10
4.09797448220925
20
5.19987636716456
30
0
41
1
10
3.97483579569615
20
5.00295297399364
30
0
41
1
10
3.74754760785305
20
4.59306341704536
30
0
41
1
10
3.64339128098612
20
4.38010366289092
30
0
41
1
10
3.52589016472302
20
4.1029153809296
30
0
41
1
10
3.50301856568404
20
4.04690620971112
30
0
41
1
10
3.45861097467687
20
3.93383867171909
30
0
41
1
10
3.39430272789568
20
3.76342892644547
30
0
41
1
10
3.33685789492597
20
3.59059716255641
30
0
41
1
10
3.23106549074927
20
3.24169336811926
30
0
41
1
10
3.17264155023844
20
3.00477810713261
30
0
41
1
10
3.0803112988884
20
2.52208824908888
30
0
41
1
10
3.0464002509421
20
2.27631543297784
30
0
41
1
10
3.02006707227085
20
1.96325190137753
30
0
41
1
10
3.01337483249478
20
1.86889317582183
30
0
41
1
10
3.0085261701131
20
1.77386263467633
30
0
41
1
10
3.00570749133212
20
1.71035811445859
30
0
41
1
10
3.00450426684344
20
1.67849987876426
30
0
41
1
10
2.99954790448174
20
1.51936972287004
30
0
41
1
10
2.99895565112274
20
1.39238558553529
30
0
41
1
10
3.00704246410919
20
1.01236894220295
30
0
41
1
10
3.02555825456119
20
0.760269531950598
30
0
41
1
10
3.0881887417201
20
0.258502253580843
30
0
41
1
10
3.13230639684582
20
0.0088346694585937
30
0
41
1
10
3.20356928376694
20
-0.301714530755959
30
0
41
1
10
3.21864160092446
20
-0.363794071562467
30
0
41
1
10
3.25036054651503
20
-0.487597467573323
30
0
41
1
10
3.30013726775823
20
-0.672144677501393
30
0
41
1
10
3.35636547730877
20
-0.853300777834932
30
0
41
1
10
3.47711906063665
20
-1.21127193660968
30
0
41
1
10
3.5686656494357
20
-1.44414079399027
30
0
41
1
10
3.72173982851109
20
-1.78529057861326
30
0
41
1
10
3.77539532005272
20
-1.89764569194378
30
0
41
1
10
3.8597624339053
20
-2.06418058110535
30
0
41
1
10
3.88853235767871
20
-2.11935912645066
30
0
41
1
10
3.94735960595813
20
-2.22905610907031
30
0
41
1
10
3.97745916821873
20
-2.28364783665458
30
0
41
1
10
4.13053834763721
20
-2.55388413120821
30
0
41
1
10
4.26118143313244
20
-2.76136730978288
30
0
41
1
10
4.53730516282025
20
-3.16083675419245
30
0
41
1
10
4.68279281232799
20
-3.35281537236554
30
0
41
1
10
4.98750672924001
20
-3.72269563812938
30
0
41
1
10
5.14673753674356
20
-3.90059248040055
30
0
41
1
10
5.39523901194332
20
-4.15772702501042
30
0
41
1
10
5.47968348200112
20
-4.24181823065513
30
0
41
1
10
5.60869392119866
20
-4.36561791045196
30
0
41
1
10
5.65212031372567
20
-4.40652456848215
30
0
41
1
10
5.73959153895379
20
-4.48743394029759
30
0
41
1
10
5.78358554705767
20
-4.52739093644615
30
0
41
1
10
6.00480963211524
20
-4.72477498757269
30
0
41
1
10
6.18579637569644
20
-4.87501508726371
30
0
41
1
10
6.5549123434387
20
-5.16212304411835
30
0
41
1
10
6.74304338960513
20
-5.29898666755869
30
0
41
1
10
7.12568417574101
20
-5.56097006580166
30
0
41
1
10
7.3201946707579
20
-5.68608766847271
30
0
41
1
10
7.71489527568451
20
-5.92598099985821
30
0
41
1
10
7.91508522046956
20
-6.04075607245849
30
0
41
1
10
8.3205019560626
20
-6.26118048470741
30
0
41
1
10
8.52572774469394
20
-6.3668303404302
30
0
41
1
10
8.83691762707758
20
-6.5192341347063
30
0
41
1
10
8.94120680311801
20
-6.56902205970954
30
0
41
1
10
9.15084294354034
20
-6.66668035477426
30
0
41
1
10
9.25617161996189
20
-6.7145411324241
30
0
41
1
10
9.57312415042199
20
-6.85515752164054
30
0
41
1
10
9.78588929703744
20
-6.94504227974545
30
0
41
1
10
10
20
-7.03141278111127
30
0
0
SPLINE
5
D0
100
AcDbEntity
8
1
62
256
6
ByLayer
370
18
48
1
60
0
100
AcDbSpline
70
4
71
3
72
14
73
10
40
0
40
0
40
0
40
0
40
0.25
40
0.25
40
0.5
40
0.5
40
0.75
40
0.75
40
1
40
1
40
1
40
1
41
1
10
14.0735182742168
20
-8.55851283847664
30
0
41
1
10
13.7228965055115
20
-8.45643095242457
30
0
41
1
10
13.3754664824603
20
-8.34778328577301
30
0
41
1
10
12.6859896628696
20
-8.11846027447532
30
0
41
1
10
12.3439374901245
20
-7.99779843409377
30
0
41
1
10
11.6649080786326
20
-7.7443805303383
30
0
41
1
10
11.3279323548431
20
-7.61162737090635
30
0
41
1
10
10.6595241016276
20
-7.33248812374146
30
0
41
1
10
10.3280979405249
20
-7.18609633532068
30
0
41
1
10
10
20
-7.03141278111127
30
0
0
SPLINE
5
D1
100
AcDbEntity
8
1
62
256
6
ByLayer
370
18
48
1
60
0
100
AcDbSpline
70
4
71
4
72
16
73
11
40
0
40
0
40
0
40
0
40
0
40
0.296089755539666
40
0.296089755539666
40
0.296089755539666
40
0.703910244460331
40
0.703910244460331
40
0.703910244460331
40
1
40
1
40
1
40
1
40
1
41
0.997159329882477
10
20.2047999885828
20
8.2857339984464
30
0
41
0.994815734931945
10
20.0337823294896
20
7.83739532884257
30
0
41
0.993692426274101
10
19.707372719816
20
6.9611373773017
30
0
41
1
10
19.2370332432581
20
5.68484102177297
30
0
41
1
10
18.0441241572256
20
2.43272986743872
30
0
41
0.988033871712585
10
17.1391591313998
20
-0.0457287212423886
30
0
41
1
10
16.2341941055741
20
-2.53962501166436
30
0
41
1
10
15.0412850195416
20
-5.84198518493543
30
0
41
0.993692426274101
10
14.5709455429837
20
-7.1499818400269
30
0
41
0.994815734931946
10
14.2445359333101
20
-8.06719034180647
30
0
41
0.997159329882477
10
14.073518274217
20
-8.55851283847669
30
0
0
SPLINE
5
D2
100
AcDbEntity
8
1
62
256
6
ByLayer
370
18
48
1
60
0
100
AcDbSpline
70
4
71
3
72
28
73
24
40
0
40
0
40
0
40
0
40
0.124999999999993
40
0.124999999999993
40
0.249999999999986
40
0.249999999999986
40
0.374999999999979
40
0.374999999999979
40
0.437499999999978
40
0.437499999999978
40
0.453124999999979
40
0.453124999999979
40
0.468749999999979
40
0.468749999999979
40
0.49999999999998
40
0.49999999999998
40
0.624999999999985
40
0.624999999999985
40
0.74999999999999
40
0.74999999999999
40
0.874999999999995
40
0.874999999999995
40
1
40
1
40
1
40
1
41
1
10
10
20
8.66661820540944
30
0
41
1
10
10.4147071030533
20
8.78284138443431
30
0
41
1
10
10.8331553332754
20
8.87832701178951
30
0
41
1
10
11.6770185432885
20
9.03296585114586
30
0
41
1
10
12.1024374528526
20
9.09208963780566
30
0
41
1
10
12.9599705892952
20
9.1768417787622
30
0
41
1
10
13.3920878695396
20
9.20245101976235
30
0
41
1
10
14.0451812869975
20
9.21672957002482
30
0
41
1
10
14.2636994530533
20
9.21745621421852
30
0
41
1
10
14.5378645120894
20
9.21336605561748
30
0
41
1
10
14.5927483930106
20
9.21229797313438
30
0
41
1
10
14.702617689463
20
9.20966230059625
30
0
41
1
10
14.7576041367289
20
9.20809419464143
30
0
41
1
10
14.9222277901057
20
9.20266026227262
30
0
41
1
10
15.0316929285507
20
9.19806153789312
30
0
41
1
10
15.5776417107883
20
9.17031832395756
30
0
41
1
10
16.0099962063661
20
9.13294950577574
30
0
41
1
10
16.866946948789
20
9.03071298006844
30
0
41
1
10
17.2915396628808
20
8.9658247684396
30
0
41
1
10
18.1340404135661
20
8.81111642684644
30
0
41
1
10
18.5519495246334
20
8.72129222405545
30
0
41
1
10
19.3822375695395
20
8.51945900326308
30
0
41
1
10
19.7946243538693
20
8.40747327674217
30
0
41
1
10
20.2047999885826
20
8.28573399844649
30
0
0
SPLINE
5
D3
100
AcDbEntity
8
SK1
62
256
6
ByLayer
370
18
48
1
60
0
100
AcDbSpline
70
4
71
3
72
37
73
33
40
0
40
0
40
0
40
0
40
0.124999999999999
40
0.124999999999999
40
0.249999999999997
40
0.249999999999997
40
0.374999999999996
40
0.374999999999996
40
0.437499999999996
40
0.437499999999996
40
0.499999999999995
40
0.499999999999995
40
0.624999999999995
40
0.624999999999995
40
0.656249999999996
40
0.656249999999996
40
0.687499999999996
40
0.687499999999996
40
0.749999999999997
40
0.749999999999997
40
0.812499999999999
40
0.812499999999999
40
0.843749999999999
40
0.843749999999999
40
0.874999999999999
40
0.874999999999999
40
0.9375
40
0.9375
40
0.953125
40
0.953125
40
0.96875
40
1
40
1
40
1
40
1
41
1
10
-56.6013095599541
20
-3.67404242557649
30
0
41
1
10
-56.5818983671532
20
-3.76227101295461
30
0
41
1
10
-56.5608730792548
20
-3.84980231602845
30
0
41
1
10
-56.5149011456991
20
-4.02327304907473
30
0
41
1
10
-56.4899592553202
20
-4.1092138747162
30
0
41
1
10
-56.4351919062966
20
-4.27922783366643
30
0
41
1
10
-56.4053764863432
20
-4.36330392303796
30
0
41
1
10
-56.3559085219568
20
-4.48770487574166
30
0
41
1
10
-56.3386238532612
20
-4.52888499906533
30
0
41
1
10
-56.3022004610974
20
-4.6105950760475
30
0
41
1
10
-56.2830277903437
20
-4.65119311461675
30
0
41
1
10
-56.2224911706718
20
-4.77130399167868
30
0
41
1
10
-56.1782467144578
20
-4.84907413383172
30
0
41
1
10
-56.115968443464
20
-4.94231131697211
30
0
41
1
10
-56.10315836213
20
-4.96075692759766
30
0
41
1
10
-56.0767470461803
20
-4.99720157474036
30
0
41
1
10
-56.0631669720757
20
-5.01516889117784
30
0
41
1
10
-56.0213776959376
20
-5.06798704911631
30
0
41
1
10
-55.992061754375
20
-5.10185542724588
30
0
41
1
10
-55.9298321318183
20
-5.16631273888052
30
0
41
1
10
-55.8969272538349
20
-5.19690945406094
30
0
41
1
10
-55.8440712942131
20
-5.23964848292457
30
0
41
1
10
-55.8258658181591
20
-5.25336554431573
30
0
41
1
10
-55.7880772055068
20
-5.27956269503571
30
0
41
1
10
-55.7687283546429
20
-5.29187752331967
30
0
41
1
10
-55.7092375195426
20
-5.32619065397267
30
0
41
1
10
-55.6676447686972
20
-5.34560920419477
30
0
41
1
10
-55.6125612417126
20
-5.36437634382568
30
0
41
1
10
-55.6013755519815
20
-5.36785346658095
30
0
41
1
10
-55.5789098857052
20
-5.37414928699397
30
0
41
1
10
-55.5449888078968
20
-5.38263478003245
30
0
41
1
10
-55.5103812675636
20
-5.38816693911767
30
0
41
1
10
-55.4869828320874
20
-5.39045045482675
30
0
0
SPLINE
5
D4
100
AcDbEntity
8
SK1
62
256
6
ByLayer
370
18
48
1
60
0
100
AcDbSpline
70
4
71
3
72
38
73
34
40
0
40
0
40
0
40
0
40
0.0624999999999988
40
0.0624999999999988
40
0.0937499999999982
40
0.0937499999999982
40
0.109374999999998
40
0.109374999999998
40
0.124999999999999
40
0.124999999999999
40
0.187499999999997
40
0.187499999999997
40
0.218749999999997
40
0.218749999999997
40
0.249999999999996
40
0.249999999999996
40
0.312499999999996
40
0.312499999999996
40
0.374999999999996
40
0.374999999999996
40
0.437499999999996
40
0.437499999999996
40
0.468749999999996
40
0.468749999999996
40
0.499999999999996
40
0.499999999999996
40
0.624999999999997
40
0.624999999999997
40
0.749999999999998
40
0.749999999999998
40
0.874999999999999
40
0.874999999999999
40
1
40
1
40
1
40
1
41
1
10
-55.4869828320874
20
5.39045045482675
30
0
41
1
10
-55.5340112854939
20
5.38586082265942
30
0
41
1
10
-55.5792475407432
20
5.37567921640115
30
0
41
1
10
-55.6448597758275
20
5.35339526064908
30
0
41
1
10
-55.6663543340588
20
5.34479075805541
30
0
41
1
10
-55.6980700363939
20
5.33023526841174
30
0
41
1
10
-55.7085426555182
20
5.32511155488996
30
0
41
1
10
-55.7290868425515
20
5.31446061507978
30
0
41
1
10
-55.7391894091154
20
5.30891956332113
30
0
41
1
10
-55.7889172059676
20
5.28021446580462
30
0
41
1
10
-55.8262117488448
20
5.25408170222258
30
0
41
1
10
-55.87927436858
20
5.21118741343659
30
0
41
1
10
-55.8964771995976
20
5.19626735233749
30
0
41
1
10
-55.9300114215657
20
5.16530406746776
30
0
41
1
10
-55.9462917892921
20
5.14930296213541
30
0
41
1
10
-55.9934356942821
20
5.10035000843709
30
0
41
1
10
-56.0228020768564
20
5.06628595710666
30
0
41
1
10
-56.078326436026
20
4.99590453061043
30
0
41
1
10
-56.1044778219573
20
4.95958275029739
30
0
41
1
10
-56.1541566098393
20
4.88506830814691
30
0
41
1
10
-56.1776808746374
20
4.84687355258669
30
0
41
1
10
-56.2113079014024
20
4.78837896752557
30
0
41
1
10
-56.2222393682362
20
4.76867706562567
30
0
41
1
10
-56.2434756231488
20
4.72911675343036
30
0
41
1
10
-56.2537968848612
20
4.7092302403565
30
0
41
1
10
-56.3040524668077
20
4.60930752204828
30
0
41
1
10
-56.339989360063
20
4.52781806830399
30
0
41
1
10
-56.4056776145828
20
4.36246555081721
30
0
41
1
10
-56.4354058590262
20
4.27859519764016
30
0
41
1
10
-56.4900491389977
20
4.10890313734902
30
0
41
1
10
-56.5149546873468
20
4.02307844746088
30
0
41
1
10
-56.56088189532
20
3.84976160662609
30
0
41
1
10
-56.5818990222464
20
3.76226803539686
30
0
41
1
10
-56.6013095599541
20
3.67404242557649
30
0
0
SPLINE
5
D5
100
AcDbEntity
8
SK1
62
256
6
ByLayer
370
18
48
1
60
0
100
AcDbSpline
70
4
71
3
72
33
73
29
40
0
40
0
40
0
40
0
40
0.125000000000006
40
0.125000000000006
40
0.250000000000012
40
0.250000000000012
40
0.375000000000017
40
0.375000000000017
40
0.40625000000002
40
0.40625000000002
40
0.437500000000023
40
0.437500000000023
40
0.500000000000019
40
0.500000000000019
40
0.625000000000009
40
0.625000000000009
40
0.656250000000005
40
0.656250000000005
40
0.687500000000001
40
0.687500000000001
40
0.749999999999993
40
0.812499999999985
40
0.812499999999985
40
0.843749999999988
40
0.843749999999988
40
0.87499999999999
40
0.87499999999999
40
1
40
1
40
1
40
1
41
1
10
-14.051872681288
20
7.58734230610622
30
0
41
1
10
-14.0806477010082
20
7.63716049470688
30
0
41
1
10
-14.1111960666033
20
7.68574713585582
30
0
41
1
10
-14.1763795738798
20
7.78016829172287
30
0
41
1
10
-14.2110110664831
20
7.82600493913273
30
0
41
1
10
-14.2851110385999
20
7.91451556477941
30
0
41
1
10
-14.3245721279275
20
7.95719387593883
30
0
41
1
10
-14.3776213268518
20
8.00817431396229
30
0
41
1
10
-14.3884185818754
20
8.01825128676794
30
0
41
1
10
-14.4104115542246
20
8.03815365023897
30
0
41
1
10
-14.4216108037395
20
8.04798083475526
30
0
41
1
10
-14.455622663142
20
8.07687937861485
30
0
41
1
10
-14.4789160665747
20
8.09543103467254
30
0
41
1
10
-14.5508106006942
20
8.14878338695524
30
0
41
1
10
-14.6014062936362
20
8.18130323174049
30
0
41
1
10
-14.6687381239779
20
8.21735588111801
30
0
41
1
10
-14.6824104044294
20
8.22433484183665
30
0
41
1
10
-14.710192970406
20
8.23780190427706
30
0
41
1
10
-14.7242927464647
20
8.24428275713819
30
0
41
1
10
-14.7668701147152
20
8.26277278740699
30
0
41
1
10
-14.8246359059293
20
8.28501525135295
30
0
41
1
10
-14.8845078995177
20
8.30218349007504
30
0
41
1
10
-14.9302595196826
20
8.31302504752674
30
0
41
1
10
-14.9456514993249
20
8.31629937780269
30
0
41
1
10
-14.976730334019
20
8.3221411784192
30
0
41
1
10
-14.9924519952567
20
8.32471328587587
30
0
41
1
10
-15.0714171524834
20
8.33566995587665
30
0
41
1
10
-15.1349687406039
20
8.33829643503807
30
0
41
1
10
-15.198909252112
20
8.33463752287949
30
0
0
SPLINE
5
D6
100
AcDbEntity
8
SK1
62
256
6
ByLayer
370
18
48
1
60
0
100
AcDbSpline
70
4
71
3
72
28
73
24
40
0
40
0
40
0
40
0
40
0.124999999999995
40
0.124999999999995
40
0.187499999999992
40
0.187499999999992
40
0.24999999999999
40
0.24999999999999
40
0.374999999999983
40
0.374999999999983
40
0.437499999999979
40
0.437499999999979
40
0.499999999999976
40
0.499999999999976
40
0.624999999999981
40
0.624999999999981
40
0.687499999999984
40
0.687499999999984
40
0.749999999999987
40
0.749999999999987
40
0.874999999999994
40
0.874999999999994
40
1
40
1
40
1
40
1
41
1
10
-15.198909252112
20
-8.33463752287949
30
0
41
1
10
-15.1350143484387
20
-8.33829382518937
30
0
41
1
10
-15.0719017967204
20
-8.33565332559238
30
0
41
1
10
-14.978337274282
20
-8.32279548271791
30
0
41
1
10
-14.9473338896935
20
-8.31702027865589
30
0
41
1
10
-14.8856931933269
20
-8.30251274872501
30
0
41
1
10
-14.8554833479755
20
-8.29387762923409
30
0
41
1
10
-14.7669559756536
20
-8.26429996307647
30
0
41
1
10
-14.7105270717761
20
-8.23965842490713
30
0
41
1
10
-14.6292411643099
20
-8.19624288886422
30
0
41
1
10
-14.6029581616285
20
-8.18081975592636
30
0
41
1
10
-14.5521237698499
20
-8.14844888077508
30
0
41
1
10
-14.5275204196119
20
-8.13147265143903
30
0
41
1
10
-14.4558957807576
20
-8.07840113768455
30
0
41
1
10
-14.411048006958
20
-8.04017416621042
30
0
41
1
10
-14.347408645875
20
-7.9791980354984
30
0
41
1
10
-14.3267704985616
20
-7.9582267315275
30
0
41
1
10
-14.2867812208927
20
-7.91531082173958
30
0
41
1
10
-14.267487937703
20
-7.89343345035931
30
0
41
1
10
-14.2115013365259
20
-7.82665213506647
30
0
41
1
10
-14.1766922853205
20
-7.78060380498701
30
0
41
1
10
-14.1112733091055
20
-7.68587638410847
30
0
41
1
10
-14.080667629502
20
-7.63719499690606
30
0
41
1
10
-14.051872681288
20
-7.58734230610622
30
0
0
SPLINE
5
D7
100
AcDbEntity
8
1
62
256
6
ByLayer
370
13
48
1
60
0
100
AcDbSpline
70
4
71
3
72
38
73
34
40
0
40
0
40
0
40
0
40
0.0625000000000001
40
0.0625000000000001
40
0.125
40
0.125
40
0.1875
40
0.1875
40
0.25
40
0.25
40
0.3125
40
0.3125
40
0.375
40
0.375
40
0.4375
40
0.4375
40
0.5
40
0.5
40
0.5625
40
0.5625
40
0.625
40
0.625
40
0.6875
40
0.6875
40
0.75
40
0.75
40
0.8125
40
0.8125
40
0.875
40
0.875
40
0.9375
40
0.9375
40
1
40
1
40
1
40
1
41
1
10
112.001135090766
20
14
30
0
41
1
10
112.061620124715
20
14
30
0
41
1
10
112.122105158663
20
13.9845100103761
30
0
41
1
10
112.243075226559
20
13.9195938264767
30
0
41
1
10
112.303560260507
20
13.8701615293462
30
0
41
1
10
112.424530328403
20
13.7348703956779
30
0
41
1
10
112.485015362351
20
13.6490055478607
30
0
41
1
10
112.605985430247
20
13.4390200097312
30
0
41
1
10
112.666470464195
20
13.314893985837
30
0
41
1
10
112.787440532091
20
13.0273903737659
30
0
41
1
10
112.847925566039
20
12.8640087622095
30
0
41
1
10
112.968895633935
20
12.4979746655392
30
0
41
1
10
113.029380667883
20
12.2953200524882
30
0
41
1
10
113.150350735779
20
11.8517915150592
30
0
41
1
10
113.210835769728
20
11.6109177897578
30
0
41
1
10
113.331805837624
20
11.0931038793402
30
0
41
1
10
113.392290871572
20
10.816166403024
30
0
41
1
10
113.513260939468
20
10.2294359468596
30
0
41
1
10
113.573745973416
20
9.91964806154499
30
0
41
1
10
113.694716041312
20
9.27136800357977
30
0
41
1
10
113.75520107526
20
8.93288287953308
30
0
41
1
10
113.876171143156
20
8.23211570701773
30
0
41
1
10
113.936656177104
20
7.86984198277088
30
0
41
1
10
114.057626245
20
7.12692768392577
30
0
41
1
10
114.118111278949
20
6.74629589401633
30
0
41
1
10
114.239081346845
20
5.97235836070644
30
0
41
1
10
114.299566380793
20
5.57906104318013
30
0
41
1
10
114.420536448689
20
4.78548687261164
30
0
41
1
10
114.481021482637
20
4.38521738643291
30
0
41
1
10
114.601991550533
20
3.58315535192972
30
0
41
1
10
114.662476584481
20
3.1813686177299
30
0
41
1
10
114.783446652377
20
2.38129119278602
30
0
41
1
10
114.843931686325
20
1.98300451405288
30
0
41
1
10
114.904416720273
20
1.5886826585847
30
0
0
SPLINE
5
D8
100
AcDbEntity
8
1
62
256
6
ByLayer
370
13
48
1
60
0
100
AcDbSpline
70
4
71
3
72
22
73
18
40
0
40
0
40
0
40
0
40
0.125
40
0.125
40
0.25
40
0.25
40
0.375
40
0.375
40
0.5
40
0.5
40
0.625
40
0.625
40
0.75
40
0.75
40
0.875
40
0.875
40
1
40
1
40
1
40
1
41
1
10
102.3
20
10.5398945799045
30
0
41
1
10
102.360338030036
20
10.8319104511022
30
0
41
1
10
102.420676060072
20
11.1075427602933
30
0
41
1
10
102.541352120144
20
11.6228762453858
30
0
41
1
10
102.601690150181
20
11.8625747872708
30
0
41
1
10
102.722366210253
20
12.3039157265537
30
0
41
1
10
102.782704240289
20
12.5055579628366
30
0
41
1
10
102.903380300361
20
12.8697523421531
30
0
41
1
10
102.963718330397
20
13.0323066132175
30
0
41
1
10
103.084394390469
20
13.3183516868477
30
0
41
1
10
103.144732420506
20
13.4418464797998
30
0
41
1
10
103.265408480578
20
13.6507661608086
30
0
41
1
10
103.325746510614
20
13.7361963252314
30
0
41
1
10
103.446422570686
20
13.870805905484
30
0
41
1
10
103.506760600722
20
13.9199912618044
30
0
41
1
10
103.627436660794
20
13.9845852946842
30
0
41
1
10
103.68777469083
20
14
30
0
41
1
10
103.748112720867
20
14
30
0
0
SPLINE
5
D9
100
AcDbEntity
8
1
62
256
6
ByLayer
370
13
48
1
60
0
100
AcDbSpline
70
4
71
3
72
142
73
138
40
0
40
0
40
0
40
0
40
0.0156250000000001
40
0.0156250000000001
40
0.0312500000000001
40
0.0312500000000001
40
0.0468750000000001
40
0.0468750000000001
40
0.0625000000000001
40
0.0625000000000001
40
0.0781250000000002
40
0.0781250000000002
40
0.0937500000000002
40
0.0937500000000002
40
0.109375
40
0.109375
40
0.125
40
0.125
40
0.140625
40
0.140625
40
0.15625
40
0.15625
40
0.171875
40
0.171875
40
0.1875
40
0.1875
40
0.203125
40
0.203125
40
0.21875
40
0.21875
40
0.234375
40
0.234375
40
0.25
40
0.25
40
0.265625
40
0.265625
40
0.28125
40
0.28125
40
0.296875
40
0.296875
40
0.3125
40
0.3125
40
0.328125
40
0.328125
40
0.34375
40
0.34375
40
0.359375
40
0.359375
40
0.375
40
0.375
40
0.390625
40
0.390625
40
0.40625
40
0.40625
40
0.421875
40
0.421875
40
0.4375
40
0.4375
40
0.453125
40
0.453125
40
0.45703125
40
0.45703125
40
0.460937500000001
40
0.460937500000001
40
0.46875
40
0.46875
40
0.484375
40
0.484375
40
0.5
40
0.5
40
0.515625
40
0.515625
40
0.53125
40
0.53125
40
0.546875
40
0.546875
40
0.562499999999999
40
0.562499999999999
40
0.578124999999999
40
0.578124999999999
40
0.593749999999999
40
0.593749999999999
40
0.609374999999999
40
0.609374999999999
40
0.624999999999999
40
0.624999999999999
40
0.640624999999999
40
0.640624999999999
40
0.656249999999998
40
0.656249999999998
40
0.671874999999998
40
0.671874999999998
40
0.687499999999998
40
0.687499999999998
40
0.703124999999998
40
0.703124999999998
40
0.718749999999998
40
0.718749999999998
40
0.726562499999998
40
0.726562499999998
40
0.730468749999997
40
0.730468749999997
40
0.734374999999997
40
0.734374999999997
40
0.749999999999997
40
0.749999999999997
40
0.765624999999998
40
0.765624999999998
40
0.781249999999998
40
0.781249999999998
40
0.796874999999998
40
0.796874999999998
40
0.812499999999998
40
0.812499999999998
40
0.828124999999998
40
0.828124999999998
40
0.843749999999998
40
0.843749999999998
40
0.859374999999999
40
0.859374999999999
40
0.874999999999999
40
0.874999999999999
40
0.890624999999999
40
0.890624999999999
40
0.906249999999999
40
0.906249999999999
40
0.921874999999999
40
0.921874999999999
40
0.937499999999999
40
0.937499999999999
40
0.953125
40
0.953125
40
0.96875
40
0.96875
40
0.984375
40
0.984375
40
1
40
1
40
1
40
1
41
1
10
102.3
20
12.4838211346969
30
0
41
1
10
102.360595332836
20
12.2869144789486
30
0
41
1
10
102.421190665671
20
12.0704195759071
30
0
41
1
10
102.542381331342
20
11.599697979188
30
0
41
1
10
102.602976664178
20
11.3454723622416
30
0
41
1
10
102.724167329849
20
10.8018341608186
30
0
41
1
10
102.784762662685
20
10.5124251831394
30
0
41
1
10
102.905953328356
20
9.90199770899184
30
0
41
1
10
102.966548661192
20
9.58098511160065
30
0
41
1
10
103.087739326863
20
8.91181664406383
30
0
41
1
10
103.148334659699
20
8.56366843015033
30
0
41
1
10
103.26952532537
20
7.84537809423657
30
0
41
1
10
103.330120658206
20
7.47524463497672
30
0
41
1
10
103.451311323877
20
6.71856842043817
30
0
41
1
10
103.511906656712
20
6.33203449180755
30
0
41
1
10
103.633097322384
20
5.54831154135363
30
0
41
1
10
103.693692655219
20
5.15113071052548
30
0
41
1
10
103.814883320891
20
4.35177946090653
30
0
41
1
10
103.875478653726
20
3.94961595568407
30
0
41
1
10
103.996669319397
20
3.1456472798568
30
0
41
1
10
104.057264652233
20
2.74384733295761
30
0
41
1
10
104.178455317904
20
1.94545267662696
30
0
41
1
10
104.23905065074
20
1.54886133784703
30
0
41
1
10
104.360241316411
20
0.765100455956002
30
0
41
1
10
104.420836649247
20
0.377994635661651
30
0
41
1
10
104.542027314918
20
-0.383531834701614
30
0
41
1
10
104.602622647754
20
-0.770754535193163
30
0
41
1
10
104.723813313425
20
-1.55460612406875
30
0
41
1
10
104.784408646261
20
-1.95123342638593
30
0
41
1
10
104.905599311932
20
-2.74967797032159
30
0
41
1
10
104.966194644767
20
-3.15149183228959
30
0
41
1
10
105.087385310439
20
-3.95546351225482
30
0
41
1
10
105.147980643274
20
-4.35761609776364
30
0
41
1
10
105.269171308946
20
-5.15691865573112
30
0
41
1
10
105.329766641781
20
-5.55406170723251
30
0
41
1
10
105.450957307452
20
-6.33768122819831
30
0
41
1
10
105.511552640288
20
-6.72414950187363
30
0
41
1
10
105.632743305959
20
-7.48066671201158
30
0
41
1
10
105.693338638795
20
-7.8507068206055
30
0
41
1
10
105.814529304466
20
-8.56878422568911
30
0
41
1
10
105.875124637302
20
-8.9168128623042
30
0
41
1
10
105.996315302973
20
-9.58571867615299
30
0
41
1
10
106.056910635809
20
-9.90658820399088
30
0
41
1
10
106.17810130148
20
-10.516709889125
30
0
41
1
10
106.238696634316
20
-10.8059561573816
30
0
41
1
10
106.359887299987
20
-11.3492540013086
30
0
41
1
10
106.420482632822
20
-11.6033019821325
30
0
41
1
10
106.541673298494
20
-12.0736586060427
30
0
41
1
10
106.602268631329
20
-12.2899661847162
30
0
41
1
10
106.723459297
20
-12.6834005416647
30
0
41
1
10
106.784054629836
20
-12.8605287035627
30
0
41
1
10
106.905245295507
20
-13.1752605422363
30
0
41
1
10
106.965840628343
20
-13.3128676901998
30
0
41
1
10
107.087031294014
20
-13.5492371343558
30
0
41
1
10
107.14762662685
20
-13.6480044373823
30
0
41
1
10
107.268817292521
20
-13.8082676839452
30
0
41
1
10
107.329412625357
20
-13.8697695338789
30
0
41
1
10
107.450603291028
20
-13.9578030118759
30
0
41
1
10
107.511198623864
20
-13.9843408274949
30
0
41
1
10
107.586942789908
20
-13.9974348419025
30
0
41
1
10
107.602091623117
20
-13.9990508020389
30
0
41
1
10
107.632389289535
20
-14.0003252070321
30
0
41
1
10
107.647538122744
20
-13.9999909434367
30
0
41
1
10
107.69298462237
20
-13.9960372657176
30
0
41
1
10
107.723282288788
20
-13.9894520601451
30
0
41
1
10
107.814175288042
20
-13.9572844247653
30
0
41
1
10
107.874770620877
20
-13.9192733801354
30
0
41
1
10
107.995961286549
20
-13.8074488810022
30
0
41
1
10
108.056556619384
20
-13.7336292691604
30
0
41
1
10
108.177747285055
20
-13.5481104033113
30
0
41
1
10
108.238342617891
20
-13.4364054738523
30
0
41
1
10
108.359533283562
20
-13.1738239595507
30
0
41
1
10
108.420128616398
20
-13.022942815629
30
0
41
1
10
108.541319282069
20
-12.6816581108676
30
0
41
1
10
108.601914614905
20
-12.4912517272069
30
0
41
1
10
108.723105280576
20
-12.071620119987
30
0
41
1
10
108.783700613411
20
-11.8423943088711
30
0
41
1
10
108.904891279083
20
-11.346934695963
30
0
41
1
10
108.965486611918
20
-11.0807028166088
30
0
41
1
10
109.08667727759
20
-10.5141299758148
30
0
41
1
10
109.147272610425
20
-10.2137934236077
30
0
41
1
10
109.268463276097
20
-9.58290282775769
30
0
41
1
10
109.329058608932
20
-9.25235533817877
30
0
41
1
10
109.450249274603
20
-8.56576105439703
30
0
41
1
10
109.510844607439
20
-8.20972234081651
30
0
41
1
10
109.63203527311
20
-7.4774682277947
30
0
41
1
10
109.692630605946
20
-7.10126163944312
30
0
41
1
10
109.813821271617
20
-6.33434222957388
30
0
41
1
10
109.874416604453
20
-5.94363810671965
30
0
41
1
10
109.995607270124
20
-5.1534759945396
30
0
41
1
10
110.05620260296
20
-4.7540258332929
30
0
41
1
10
110.177393268631
20
-3.95195519672256
30
0
41
1
10
110.237988601466
20
-3.5493411077818
30
0
41
1
10
110.359179267138
20
-2.74614211621136
30
0
41
1
10
110.419774599973
20
-2.34556182879476
30
0
41
1
10
110.540965265645
20
-1.5510798140229
30
0
41
1
10
110.60156059848
20
-1.15718084635628
30
0
41
1
10
110.692453597734
20
-0.574332698472915
30
0
41
1
10
110.722751264151
20
-0.381377958233514
30
0
41
1
10
110.768197763778
20
-0.0942613136626562
30
0
41
1
10
110.783346596987
20
0.0007906789078049
30
0
41
1
10
110.813644263405
20
0.1916923952258
30
0
41
1
10
110.828793096614
20
0.287537085208754
30
0
41
1
10
110.904537262658
20
0.768600747802367
30
0
41
1
10
110.965132595494
20
1.15936820307633
30
0
41
1
10
111.086323261165
20
1.94898615169703
30
0
41
1
10
111.146918594001
20
2.34783448226932
30
0
41
1
10
111.268109259672
20
3.14917818384799
30
0
41
1
10
111.328704592508
20
3.55166955708748
30
0
41
1
10
111.449895258179
20
4.35527024011373
30
0
41
1
10
111.510490591015
20
4.75637372697423
30
0
41
1
10
111.631681256686
20
5.55172399204497
30
0
41
1
10
111.692276589521
20
5.94596336838404
30
0
41
1
10
111.813467255193
20
6.72186480842325
30
0
41
1
10
111.874062588028
20
7.10351838572478
30
0
41
1
10
111.9952532537
20
7.84852215763397
30
0
41
1
10
112.055848586535
20
8.21186348665822
30
0
41
1
10
112.177039252206
20
8.91477443514933
30
0
41
1
10
112.237634585042
20
9.25433563830779
30
0
41
1
10
112.358825250713
20
9.9047382819449
30
0
41
1
10
112.419420583549
20
10.2155725822356
30
0
41
1
10
112.54061124922
20
10.8043301518409
30
0
41
1
10
112.601206582056
20
11.0822482474706
30
0
41
1
10
112.722397247727
20
11.6019261376662
30
0
41
1
10
112.782992580563
20
11.8436831664583
30
0
41
1
10
112.904183246234
20
12.2888561880648
30
0
41
1
10
112.964778579069
20
12.4922719527052
30
0
41
1
10
113.085969244741
20
12.8596893530335
30
0
41
1
10
113.146564577576
20
13.0236931162941
30
0
41
1
10
113.267755243248
20
13.3122935834389
30
0
41
1
10
113.328350576083
20
13.43689433548
30
0
41
1
10
113.449541241754
20
13.6476814767499
30
0
41
1
10
113.51013657459
20
13.7338732427635
30
0
41
1
10
113.631327240261
20
13.8696769507873
30
0
41
1
10
113.691922573097
20
13.9192949576162
30
0
41
1
10
113.813113238768
20
13.9844534027586
30
0
41
1
10
113.873708571604
20
14
30
0
41
1
10
113.934303904439
20
14
30
0
0
SPLINE
5
DA
100
AcDbEntity
8
1
62
256
6
ByLayer
370
13
48
1
60
0
100
AcDbSpline
70
4
71
3
72
42
73
38
40
0
40
0
40
0
40
0
40
0.0625000000000002
40
0.0625000000000002
40
0.125
40
0.125
40
0.1875
40
0.1875
40
0.25
40
0.25
40
0.312500000000001
40
0.312500000000001
40
0.375000000000001
40
0.375000000000001
40
0.437500000000001
40
0.437500000000001
40
0.500000000000001
40
0.500000000000001
40
0.562500000000001
40
0.562500000000001
40
0.625000000000001
40
0.625000000000001
40
0.687500000000001
40
0.687500000000001
40
0.750000000000001
40
0.750000000000001
40
0.812500000000001
40
0.812500000000001
40
0.875000000000001
40
0.875000000000001
40
0.906250000000001
40
0.906250000000001
40
0.921875000000001
40
0.921875000000001
40
0.937500000000001
40
0.937500000000001
40
1
40
1
40
1
40
1
41
1
10
111.516078367739
20
14
30
0
41
1
10
111.586668750084
20
14
30
0
41
1
10
111.657259132428
20
13.9788932406641
30
0
41
1
10
111.798439897117
20
13.8898219251352
30
0
41
1
10
111.869030279461
20
13.8218441278455
30
0
41
1
10
112.01021104415
20
13.6353038239279
30
0
41
1
10
112.080801426495
20
13.5167286655549
30
0
41
1
10
112.221982191184
20
13.2266033605848
30
0
41
1
10
112.292572573528
20
13.0550429412795
30
0
41
1
10
112.433753338217
20
12.6582445286366
30
0
41
1
10
112.504343720562
20
12.4330004607944
30
0
41
1
10
112.645524485251
20
11.9300720055506
30
0
41
1
10
112.716114867595
20
11.6523871847372
30
0
41
1
10
112.857295632284
20
11.0478569849216
30
0
41
1
10
112.927886014628
20
10.7210174793909
30
0
41
1
10
113.069066779317
20
10.0234202485079
30
0
41
1
10
113.139657161662
20
9.65267433540797
30
0
41
1
10
113.280837926351
20
8.87420142216629
30
0
41
1
10
113.351428308695
20
8.46649076936703
30
0
41
1
10
113.492609073384
20
7.62229151978119
30
0
41
1
10
113.563199455728
20
7.18582164475021
30
0
41
1
10
113.704380220417
20
6.29303811691233
30
0
41
1
10
113.774970602762
20
5.83674311966655
30
0
41
1
10
113.916151367451
20
4.91340434373285
30
0
41
1
10
113.986741749795
20
4.44637695335965
30
0
41
1
10
114.127922514484
20
3.5102954211296
30
0
41
1
10
114.198512896829
20
3.04125384039827
30
0
41
1
10
114.339693661518
20
2.10905339440669
30
0
41
1
10
114.410284043862
20
1.64590252955296
30
0
41
1
10
114.516169617378
20
0.960678074841098
30
0
41
1
10
114.551464808551
20
0.733844069314102
30
0
41
1
10
114.604407595309
20
0.396499568836646
30
0
41
1
10
114.622055190895
20
0.284535178382441
30
0
41
1
10
114.657350382068
20
0.0616570634459492
30
0
41
1
10
114.674997977654
20
-0.0489643584874671
30
0
41
1
10
114.763235955584
20
-0.605959323085131
30
0
41
1
10
114.833826337929
20
-1.06003668541436
30
0
41
1
10
114.904416720273
20
-1.5196941666328
30
0
0
SPLINE
5
DB
100
AcDbEntity
8
1
62
256
6
ByLayer
370
13
48
1
60
0
100
AcDbSpline
70
4
71
3
72
14
73
10
40
0
40
0
40
0
40
0
40
0.25
40
0.25
40
0.5
40
0.5
40
0.75
40
0.75
40
1
40
1
40
1
40
1
41
1
10
102.3
20
12.5066641395024
30
0
41
1
10
102.380254666487
20
12.7654441442903
30
0
41
1
10
102.460509332973
20
12.9897790415316
30
0
41
1
10
102.621018665946
20
13.3692324772063
30
0
41
1
10
102.701273332433
20
13.5243676024094
30
0
41
1
10
102.861782665406
20
13.7681319263548
30
0
41
1
10
102.942037331893
20
13.8567842226114
30
0
41
1
10
103.102546664866
20
13.9727056900009
30
0
41
1
10
103.182801331353
20
14
30
0
41
1
10
103.263055997839
20
14
30
0
0
SPLINE
5
DC
100
AcDbEntity
8
1
62
256
6
ByLayer
370
13
48
1
60
0
100
AcDbSpline
70
4
71
3
72
138
73
134
40
0
40
0
40
0
40
0
40
0.0156250000000005
40
0.0156250000000005
40
0.0312500000000011
40
0.0312500000000011
40
0.0468750000000016
40
0.0468750000000016
40
0.0625000000000022
40
0.0625000000000022
40
0.0781250000000027
40
0.0781250000000027
40
0.0937500000000033
40
0.0937500000000033
40
0.109375000000004
40
0.109375000000004
40
0.125000000000004
40
0.125000000000004
40
0.140625000000005
40
0.140625000000005
40
0.148437500000005
40
0.148437500000005
40
0.152343750000005
40
0.152343750000005
40
0.156250000000005
40
0.156250000000005
40
0.187500000000005
40
0.187500000000005
40
0.203125000000005
40
0.203125000000005
40
0.218750000000005
40
0.218750000000005
40
0.234375000000004
40
0.234375000000004
40
0.250000000000004
40
0.250000000000004
40
0.265625000000004
40
0.265625000000004
40
0.281250000000004
40
0.281250000000004
40
0.296875000000004
40
0.296875000000004
40
0.312500000000003
40
0.312500000000003
40
0.328125000000003
40
0.328125000000003
40
0.343750000000003
40
0.343750000000003
40
0.359375000000003
40
0.359375000000003
40
0.375000000000003
40
0.375000000000003
40
0.390625000000002
40
0.390625000000002
40
0.406250000000002
40
0.406250000000002
40
0.421875000000002
40
0.421875000000002
40
0.429687500000002
40
0.429687500000002
40
0.433593750000002
40
0.433593750000002
40
0.437500000000002
40
0.437500000000002
40
0.468750000000002
40
0.468750000000002
40
0.484375000000002
40
0.484375000000002
40
0.500000000000001
40
0.500000000000001
40
0.515625000000001
40
0.515625000000001
40
0.531250000000001
40
0.531250000000001
40
0.546875000000001
40
0.546875000000001
40
0.562500000000001
40
0.562500000000001
40
0.578125000000001
40
0.578125000000001
40
0.593750000000001
40
0.593750000000001
40
0.609375000000001
40
0.609375000000001
40
0.625000000000001
40
0.625000000000001
40
0.640625000000001
40
0.640625000000001
40
0.656250000000001
40
0.656250000000001
40
0.671875000000001
40
0.671875000000001
40
0.687500000000001
40
0.687500000000001
40
0.703125000000001
40
0.703125000000001
40
0.710937500000001
40
0.710937500000001
40
0.714843750000001
40
0.714843750000001
40
0.718750000000001
40
0.718750000000001
40
0.75
40
0.75
40
0.765625
40
0.765625
40
0.78125
40
0.78125
40
0.796875
40
0.796875
40
0.8125
40
0.8125
40
0.828125
40
0.828125
40
0.84375
40
0.84375
40
0.859375
40
0.859375
40
0.875
40
0.875
40
0.890625
40
0.890625
40
0.90625
40
0.90625
40
0.921875
40
0.921875
40
0.9375
40
0.9375
40
0.953125
40
0.953125
40
0.96875
40
0.96875
40
1
40
1
40
1
40
1
41
1
10
102.3
20
10.505667538218
30
0
41
1
10
102.358068995737
20
10.2234094134316
30
0
41
1
10
102.416137991473
20
9.9260502632649
30
0
41
1
10
102.532275982946
20
9.30479418775477
30
0
41
1
10
102.590344978683
20
8.980902985727
30
0
41
1
10
102.706482970156
20
8.31090147555929
30
0
41
1
10
102.764551965892
20
7.96479791462073
30
0
41
1
10
102.880689957365
20
7.25514718255238
30
0
41
1
10
102.938758953102
20
6.89160717210825
30
0
41
1
10
103.054896944575
20
6.15210480346377
30
0
41
1
10
103.112965940311
20
5.77614939837827
30
0
41
1
10
103.229103931784
20
5.01686916795194
30
0
41
1
10
103.287172927521
20
4.63355054374375
30
0
41
1
10
103.403310918994
20
3.86442913379719
30
0
41
1
10
103.46137991473
20
3.47863139446645
30
0
41
1
10
103.577517906203
20
2.70909921152611
30
0
41
1
10
103.63558690194
20
2.32536843120039
30
0
41
1
10
103.751724893413
20
1.56404845265928
30
0
41
1
10
103.80979388915
20
1.1864614799851
30
0
41
1
10
103.896897382754
20
0.627327750170878
30
0
41
1
10
103.925931880623
20
0.442153074197819
30
0
41
1
10
103.969483627425
20
0.166483539884524
30
0
41
1
10
103.984000876359
20
0.075021963216841
30
0
41
1
10
104.013035374227
20
-0.107494798760086
30
0
41
1
10
104.027552623161
20
-0.199121239754362
30
0
41
1
10
104.158207863569
20
-1.02687085771365
30
0
41
1
10
104.274345855042
20
-1.78516226727874
30
0
41
1
10
104.448552842251
20
-2.93519003631098
30
0
41
1
10
104.506621837988
20
-3.32055579125083
30
0
41
1
10
104.622759829461
20
-4.09100189350431
30
0
41
1
10
104.680828825197
20
-4.47607782747423
30
0
41
1
10
104.79696681667
20
-5.24120149302428
30
0
41
1
10
104.855035812407
20
-5.62124352670071
30
0
41
1
10
104.97117380388
20
-6.37130391723912
30
0
41
1
10
105.029242799617
20
-6.74131561433862
30
0
41
1
10
105.14538079109
20
-7.46625397809993
30
0
41
1
10
105.203449786826
20
-7.82117350717292
30
0
41
1
10
105.319587778299
20
-8.51100929476624
30
0
41
1
10
105.377656774036
20
-8.84591853273301
30
0
41
1
10
105.493794765509
20
-9.49117338374734
30
0
41
1
10
105.551863761245
20
-9.80151272033123
30
0
41
1
10
105.668001752718
20
-10.3936271943618
30
0
41
1
10
105.726070748455
20
-10.6753973664159
30
0
41
1
10
105.842208739928
20
-11.2071034593346
30
0
41
1
10
105.900277735664
20
-11.4570361467789
30
0
41
1
10
106.016415727137
20
-11.9226521926704
30
0
41
1
10
106.074484722874
20
-12.1383342642038
30
0
41
1
10
106.190622714347
20
-12.533957402822
30
0
41
1
10
106.248691710084
20
-12.7138991160557
30
0
41
1
10
106.364829701557
20
-13.0374826087456
30
0
41
1
10
106.422898697293
20
-13.1811267456395
30
0
41
1
10
106.539036688766
20
-13.4324428039581
30
0
41
1
10
106.597105684503
20
-13.5401184169928
30
0
41
1
10
106.713243675976
20
-13.7206194681336
30
0
41
1
10
106.771312671712
20
-13.7934494708581
30
0
41
1
10
106.887450663185
20
-13.9060499733189
30
0
41
1
10
106.945519658922
20
-13.945825438156
30
0
41
1
10
107.032623152526
20
-13.9824299056409
30
0
41
1
10
107.061657650395
20
-13.9907918907815
30
0
41
1
10
107.105209397197
20
-13.9978195012861
30
0
41
1
10
107.119726646131
20
-13.9992429779989
30
0
41
1
10
107.148761144
20
-14.000294280873
30
0
41
1
10
107.163278392934
20
-13.999928454969
30
0
41
1
10
107.293933633341
20
-13.9884999552421
30
0
41
1
10
107.410071624814
20
-13.9200543295905
30
0
41
1
10
107.584278612023
20
-13.7158099271567
30
0
41
1
10
107.64234760776
20
-13.6308487927811
30
0
41
1
10
107.758485599233
20
-13.4256053831222
30
0
41
1
10
107.81655459497
20
-13.3053187966529
30
0
41
1
10
107.932692586443
20
-13.0285679061628
30
0
41
1
10
107.990761582179
20
-12.8721003316972
30
0
41
1
10
108.106899573652
20
-12.5229614571074
30
0
41
1
10
108.164968569389
20
-12.3302883673389
30
0
41
1
10
108.281106560862
20
-11.9096205730265
30
0
41
1
10
108.339175556598
20
-11.6816258894668
30
0
41
1
10
108.455313548071
20
-11.1921328133025
30
0
41
1
10
108.513382543808
20
-10.930636405125
30
0
41
1
10
108.629520535281
20
-10.3768638970227
30
0
41
1
10
108.687589531017
20
-10.0845916781015
30
0
41
1
10
108.80372752249
20
-9.4728092105205
30
0
41
1
10
108.861796518227
20
-9.15330444740914
30
0
41
1
10
108.9779345097
20
-8.49127435013168
30
0
41
1
10
109.036003505436
20
-8.148755625002
30
0
41
1
10
109.152141496909
20
-7.44540740631388
30
0
41
1
10
109.210210492646
20
-7.08458504649511
30
0
41
1
10
109.326348484119
20
-6.34962315086958
30
0
41
1
10
109.384417479856
20
-5.97549064759275
30
0
41
1
10
109.500555471329
20
-5.21897092463584
30
0
41
1
10
109.558624467065
20
-4.83659007278885
30
0
41
1
10
109.674762458538
20
-4.06850186784271
30
0
41
1
10
109.732831454275
20
-3.68279978676475
30
0
41
1
10
109.848969445748
20
-2.91268695986298
30
0
41
1
10
109.907038441484
20
-2.52828013021465
30
0
41
1
10
110.023176432957
20
-1.76492659323034
30
0
41
1
10
110.081245428694
20
-1.38598236226363
30
0
41
1
10
110.168348922299
20
-0.824378867146777
30
0
41
1
10
110.197383420167
20
-0.638308696516077
30
0
41
1
10
110.240935166969
20
-0.361197607065321
30
0
41
1
10
110.255452415903
20
-0.269159309781571
30
0
41
1
10
110.284486913772
20
-0.0857928941256603
30
0
41
1
10
110.299004162706
20
0.0052899515863203
30
0
41
1
10
110.429659403113
20
0.828544248658602
30
0
41
1
10
110.545797394586
20
1.58386084809732
30
0
41
1
10
110.720004381796
20
2.73157671590954
30
0
41
1
10
110.778073377532
20
3.11652945286761
30
0
41
1
10
110.894211369005
20
3.8869485282867
30
0
41
1
10
110.952280364742
20
4.27241070023601
30
0
41
1
10
111.068418356215
20
5.03916741125187
30
0
41
1
10
111.126487351951
20
5.42045646079967
30
0
41
1
10
111.242625343424
20
6.17390333528874
30
0
41
1
10
111.300694339161
20
6.54605463923295
30
0
41
1
10
111.416832330634
20
7.27616154719314
30
0
41
1
10
111.47490132637
20
7.63411005700866
30
0
41
1
10
111.591039317843
20
8.33085218593334
30
0
41
1
10
111.64910831358
20
8.66963871799115
30
0
41
1
10
111.765246305053
20
9.32341806086961
30
0
41
1
10
111.82331530079
20
9.63840441971877
30
0
41
1
10
111.939453292263
20
10.2404704899502
30
0
41
1
10
111.997522287999
20
10.5275449687314
30
0
41
1
10
112.113660279472
20
11.0703777225732
30
0
41
1
10
112.171729275209
20
11.3261324364301
30
0
41
1
10
112.287867266682
20
11.8037529836727
30
0
41
1
10
112.345936262418
20
12.025617180992
30
0
41
1
10
112.462074253891
20
12.4337996375285
30
0
41
1
10
112.520143249628
20
12.6201182123222
30
0
41
1
10
112.636281241101
20
12.9564876781169
30
0
41
1
10
112.694350236837
20
13.1065406482754
30
0
41
1
10
112.81048822831
20
13.3705556283001
30
0
41
1
10
112.868557224047
20
13.48452112633
30
0
41
1
10
112.98469521552
20
13.6773513313111
30
0
41
1
10
113.042764211256
20
13.7562204836546
30
0
41
1
10
113.216971198466
20
13.9427009367547
30
0
41
1
10
113.333109189939
20
14
30
0
41
1
10
113.449247181412
20
14
30
0
0
SPLINE
5
DD
100
AcDbEntity
8
1
62
256
6
ByLayer
370
13
48
1
60
0
100
AcDbSpline
70
4
71
3
72
42
73
38
40
0
40
0
40
0
40
0
40
0.0625000000000002
40
0.0625000000000002
40
0.125000000000001
40
0.125000000000001
40
0.187500000000001
40
0.187500000000001
40
0.250000000000001
40
0.250000000000001
40
0.312500000000001
40
0.312500000000001
40
0.375000000000002
40
0.375000000000002
40
0.437500000000002
40
0.437500000000002
40
0.500000000000002
40
0.500000000000002
40
0.562500000000002
40
0.562500000000002
40
0.625000000000003
40
0.625000000000003
40
0.687500000000003
40
0.687500000000003
40
0.750000000000003
40
0.750000000000003
40
0.812500000000004
40
0.812500000000004
40
0.828125000000004
40
0.828125000000004
40
0.843750000000003
40
0.843750000000003
40
0.875000000000003
40
0.875000000000003
40
0.937500000000001
40
0.937500000000001
40
1
40
1
40
1
40
1
41
1
10
111.031021644712
20
14
30
0
41
1
10
111.111717375453
20
14
30
0
41
1
10
111.192413106194
20
13.9724042222184
30
0
41
1
10
111.353804567675
20
13.8551688957802
30
0
41
1
10
111.434500298416
20
13.7655035119005
30
0
41
1
10
111.595891759898
20
13.5189338956092
30
0
41
1
10
111.676587490639
20
13.362005974419
30
0
41
1
10
111.83797895212
20
12.9781806797538
30
0
41
1
10
111.918674682861
20
12.7512664099435
30
0
41
1
10
112.080066144343
20
12.2278294819063
30
0
41
1
10
112.160761875084
20
11.9313010382745
30
0
41
1
10
112.322153336566
20
11.2724445359384
30
0
41
1
10
112.402849067307
20
10.9101244227453
30
0
41
1
10
112.564240528788
20
10.1269165447906
30
0
41
1
10
112.644936259529
20
9.70605029053843
30
0
41
1
10
112.806327721011
20
8.81595975865193
30
0
41
1
10
112.887023451752
20
8.34676734593086
30
0
41
1
10
113.048414913233
20
7.37239590993369
30
0
41
1
10
113.129110643974
20
6.86725364115918
30
0
41
1
10
113.290502105456
20
5.8344636213572
30
0
41
1
10
113.371197836197
20
5.30685135137205
30
0
41
1
10
113.532589297679
20
4.24260482063681
30
0
41
1
10
113.613285028419
20
3.70599957635315
30
0
41
1
10
113.774676489901
20
2.63626686484926
30
0
41
1
10
113.855372220642
20
2.10315886566329
30
0
41
1
10
114.016763682124
20
1.05119966673544
30
0
41
1
10
114.097459412864
20
0.532357697832367
30
0
41
1
10
114.198329076291
20
-0.101892249235306
30
0
41
1
10
114.218503008976
20
-0.229103636299555
30
0
41
1
10
114.258850874346
20
-0.48517822857329
30
0
41
1
10
114.279024807032
20
-0.613872718786666
30
0
41
1
10
114.339546605087
20
-1.00173429405672
30
0
41
1
10
114.379894470458
20
-1.26268380200528
30
0
41
1
10
114.500938066569
20
-2.05095210925938
30
0
41
1
10
114.58163379731
20
-2.58375202976171
30
0
41
1
10
114.743025258792
20
-3.65325199622063
30
0
41
1
10
114.823720989532
20
-4.18993291149701
30
0
41
1
10
114.904416720273
20
-4.72234679087401
30
0
0
SPLINE
5
DE
100
AcDbEntity
8
1
62
256
6
ByLayer
370
13
48
1
60
0
100
AcDbSpline
70
4
71
3
72
10
73
6
40
0
40
0
40
0
40
0
40
0.5
40
0.5
40
1
40
1
40
1
40
1
41
1
10
102.3
20
13.6515874602376
30
0
41
1
10
102.379666545802
20
13.7716125215169
30
0
41
1
10
102.459333091604
20
13.8589234550229
30
0
41
1
10
102.618666183208
20
13.97310507749
30
0
41
1
10
102.69833272901
20
14
30
0
41
1
10
102.777999274812
20
14
30
0
0
SPLINE
5
DF
100
AcDbEntity
8
1
62
256
6
ByLayer
370
13
48
1
60
0
100
AcDbSpline
70
4
71
3
72
100
73
96
40
0
40
0
40
0
40
0
40
0.031250000000001
40
0.031250000000001
40
0.062500000000002
40
0.062500000000002
40
0.0937500000000031
40
0.0937500000000031
40
0.109375000000004
40
0.109375000000004
40
0.113281250000004
40
0.113281250000004
40
0.117187500000004
40
0.117187500000004
40
0.125000000000004
40
0.125000000000004
40
0.156250000000004
40
0.156250000000004
40
0.187500000000005
40
0.187500000000005
40
0.218750000000005
40
0.218750000000005
40
0.234375000000005
40
0.234375000000005
40
0.250000000000006
40
0.250000000000006
40
0.265625000000006
40
0.265625000000006
40
0.281250000000006
40
0.281250000000006
40
0.296875000000006
40
0.296875000000006
40
0.312500000000006
40
0.312500000000006
40
0.343750000000007
40
0.343750000000007
40
0.375000000000007
40
0.375000000000007
40
0.406250000000008
40
0.406250000000008
40
0.410156250000008
40
0.410156250000008
40
0.414062500000008
40
0.421875000000008
40
0.421875000000008
40
0.437500000000009
40
0.437500000000009
40
0.468750000000009
40
0.468750000000009
40
0.500000000000009
40
0.500000000000009
40
0.53125000000001
40
0.53125000000001
40
0.54687500000001
40
0.54687500000001
40
0.56250000000001
40
0.56250000000001
40
0.57812500000001
40
0.57812500000001
40
0.59375000000001
40
0.59375000000001
40
0.625000000000011
40
0.625000000000011
40
0.656250000000011
40
0.656250000000011
40
0.687500000000012
40
0.687500000000012
40
0.703125000000012
40
0.703125000000012
40
0.707031250000012
40
0.707031250000012
40
0.710937500000012
40
0.718750000000012
40
0.718750000000012
40
0.75000000000001
40
0.75000000000001
40
0.781250000000009
40
0.781250000000009
40
0.812500000000008
40
0.812500000000008
40
0.828125000000007
40
0.828125000000007
40
0.843750000000007
40
0.843750000000007
40
0.859375000000006
40
0.859375000000006
40
0.875000000000005
40
0.875000000000005
40
0.906250000000004
40
0.906250000000004
40
0.937500000000003
40
0.937500000000003
40
0.968750000000001
40
0.968750000000001
40
1
40
1
40
1
40
1
41
1
10
102.3
20
7.83826619350236
30
0
41
1
10
102.411085317275
20
7.1668912903844
30
0
41
1
10
102.52217063455
20
6.46164934607393
30
0
41
1
10
102.744341269099
20
5.01857281409536
30
0
41
1
10
102.855426586374
20
4.28090273590402
30
0
41
1
10
103.077597220924
20
2.80704511531982
30
0
41
1
10
103.188682538199
20
2.07096524343751
30
0
41
1
10
103.355310514111
20
0.989280786257694
30
0
41
1
10
103.410853172749
20
0.632404545096108
30
0
41
1
10
103.480281496045
20
0.192675902662586
30
0
41
1
10
103.494167160705
20
0.105047271452179
30
0
41
1
10
103.521938490023
20
-0.0695367646822831
30
0
41
1
10
103.535824154683
20
-0.156994008026459
30
0
41
1
10
103.577481148661
20
-0.420572100423556
30
0
41
1
10
103.605252477979
20
-0.597571036181733
30
0
41
1
10
103.744109124573
20
-1.48813161028511
30
0
41
1
10
103.855194441848
20
-2.21868825867108
30
0
41
1
10
104.077365076397
20
-3.689734727857
30
0
41
1
10
104.188450393672
20
-4.43013527603523
30
0
41
1
10
104.410621028222
20
-5.88808969743357
30
0
41
1
10
104.521706345497
20
-6.60549134680505
30
0
41
1
10
104.688334321409
20
-7.63778484130816
30
0
41
1
10
104.743876980046
20
-7.97457472127797
30
0
41
1
10
104.854962297321
20
-8.62928282394543
30
0
41
1
10
104.910504955959
20
-8.94719547404875
30
0
41
1
10
105.021590273234
20
-9.56020473966441
30
0
41
1
10
105.077132931871
20
-9.85529640410923
30
0
41
1
10
105.188218249146
20
-10.4192017996637
30
0
41
1
10
105.243760907783
20
-10.6880116101288
30
0
41
1
10
105.354846225058
20
-11.1965084753901
30
0
41
1
10
105.410388883696
20
-11.4361929427335
30
0
41
1
10
105.52147420097
20
-11.8843100563558
30
0
41
1
10
105.577016859608
20
-12.0927416054792
30
0
41
1
10
105.74364483552
20
-12.6691221568447
30
0
41
1
10
105.854730152795
20
-12.9877835003404
30
0
41
1
10
106.076900787345
20
-13.4923179622648
30
0
41
1
10
106.187986104619
20
-13.678279084998
30
0
41
1
10
106.410156739169
20
-13.9267517827808
30
0
41
1
10
106.521242056444
20
-13.9893875737397
30
0
41
1
10
106.646213038378
20
-13.9999239948634
30
0
41
1
10
106.660098703038
20
-14.0002679698274
30
0
41
1
10
106.687870032356
20
-13.9993249071736
30
0
41
1
10
106.729527026334
20
-13.9954474657217
30
0
41
1
10
106.771184020312
20
-13.9840121266536
30
0
41
1
10
106.854498008269
20
-13.9506357667831
30
0
41
1
10
106.910040666906
20
-13.9143654221168
30
0
41
1
10
107.076668642818
20
-13.7604362622356
30
0
41
1
10
107.187753960093
20
-13.5973751179267
30
0
41
1
10
107.409924594643
20
-13.1396037454126
30
0
41
1
10
107.521009911918
20
-12.8447958629857
30
0
41
1
10
107.743180546467
20
-12.122844358483
30
0
41
1
10
107.854265863742
20
-11.6956731642327
30
0
41
1
10
108.020893839654
20
-10.9644224055249
30
0
41
1
10
108.076436498292
20
-10.7056889210625
30
0
41
1
10
108.187521815567
20
-10.1608477883062
30
0
41
1
10
108.243064474204
20
-9.87474361389224
30
0
41
1
10
108.354149791479
20
-9.27841481828054
30
0
41
1
10
108.409692450116
20
-8.96819482383646
30
0
41
1
10
108.520777767391
20
-8.32742274717475
30
0
41
1
10
108.576320426029
20
-7.99687606762012
30
0
41
1
10
108.742948401941
20
-6.98099438097805
30
0
41
1
10
108.854033719216
20
-6.27141387960179
30
0
41
1
10
109.076204353765
20
-4.82282427658083
30
0
41
1
10
109.18728967104
20
-4.08397589603103
30
0
41
1
10
109.40946030559
20
-2.61056808565192
30
0
41
1
10
109.520545622865
20
-1.87611025518473
30
0
41
1
10
109.687173598777
20
-0.798482896743536
30
0
41
1
10
109.742716257415
20
-0.443228107099799
30
0
41
1
10
109.812144580711
20
-0.0058063353926912
30
0
41
1
10
109.826030245371
20
0.0813175073097625
30
0
41
1
10
109.853801574689
20
0.256664478640914
30
0
41
1
10
109.895458568667
20
0.520660909106056
30
0
41
1
10
109.937115562645
20
0.787407891252855
30
0
41
1
10
110.075972209239
20
1.68181396404745
30
0
41
1
10
110.187057526514
20
2.41442894500955
30
0
41
1
10
110.409228161063
20
3.88689684908749
30
0
41
1
10
110.520313478338
20
4.62665431247635
30
0
41
1
10
110.742484112888
20
6.08020221067525
30
0
41
1
10
110.853569430163
20
6.79383602636233
30
0
41
1
10
111.020197406075
20
7.81812920904099
30
0
41
1
10
111.075740064713
20
8.15186456949516
30
0
41
1
10
111.186825381987
20
8.79973321951888
30
0
41
1
10
111.242368040625
20
9.11386101418839
30
0
41
1
10
111.3534533579
20
9.7186448996122
30
0
41
1
10
111.408996016537
20
10.0092961951476
30
0
41
1
10
111.520081333812
20
10.5637660666788
30
0
41
1
10
111.575623992449
20
10.827580940946
30
0
41
1
10
111.742251968362
20
11.5746912485193
30
0
41
1
10
111.853337285636
20
12.0132570533801
30
0
41
1
10
112.075507920186
20
12.7585387851337
30
0
41
1
10
112.186593237461
20
13.0652744795812
30
0
41
1
10
112.408763872011
20
13.5463867542911
30
0
41
1
10
112.519849189285
20
13.7208563336947
30
0
41
1
10
112.742019823835
20
13.9476002805135
30
0
41
1
10
112.85310514111
20
14
30
0
41
1
10
112.964190458385
20
14
30
0
0
SPLINE
5
E0
100
AcDbEntity
8
1
62
256
6
ByLayer
370
13
48
1
60
0
100
AcDbSpline
70
4
71
3
72
43
73
39
40
0
40
0
40
0
40
0
40
0.0625000000000013
40
0.0625000000000013
40
0.125000000000003
40
0.125000000000003
40
0.187500000000004
40
0.187500000000004
40
0.250000000000005
40
0.250000000000005
40
0.312500000000006
40
0.312500000000006
40
0.375000000000008
40
0.375000000000008
40
0.437500000000009
40
0.437500000000009
40
0.50000000000001
40
0.50000000000001
40
0.562500000000012
40
0.562500000000012
40
0.625000000000013
40
0.625000000000013
40
0.687500000000014
40
0.687500000000014
40
0.718750000000015
40
0.718750000000015
40
0.726562500000015
40
0.726562500000015
40
0.734375000000014
40
0.750000000000014
40
0.750000000000014
40
0.81250000000001
40
0.81250000000001
40
0.875000000000007
40
0.875000000000007
40
0.937500000000003
40
0.937500000000003
40
1
40
1
40
1
40
1
41
1
10
110.545964921685
20
14
30
0
41
1
10
110.636766000822
20
14
30
0
41
1
10
110.727567079959
20
13.9650398933194
30
0
41
1
10
110.909169238234
20
13.8155645321483
30
0
41
1
10
110.999970317371
20
13.7010028274455
30
0
41
1
10
111.181572475645
20
13.3854904480072
30
0
41
1
10
111.272373554783
20
13.1844994160762
30
0
41
1
10
111.453975713057
20
12.6935228640476
30
0
41
1
10
111.544776792194
20
12.4035136829928
30
0
41
1
10
111.726378950469
20
11.7371251112164
30
0
41
1
10
111.817180029606
20
11.3607474140852
30
0
41
1
10
111.998782187881
20
10.5298351054735
30
0
41
1
10
112.089583267018
20
10.0753304939838
30
0
41
1
10
112.271185425293
20
9.10149561335624
30
0
41
1
10
112.36198650443
20
8.58221886557163
30
0
41
1
10
112.543588662704
20
7.49600993167303
30
0
41
1
10
112.634389741842
20
6.92914341865276
30
0
41
1
10
112.815991900116
20
5.76692728369753
30
0
41
1
10
112.906792979253
20
5.17164152999052
30
0
41
1
10
113.088395137528
20
3.97176393573278
30
0
41
1
10
113.179196216665
20
3.3672224016623
30
0
41
1
10
113.36079837494
20
2.16626068919678
30
0
41
1
10
113.451599454077
20
1.56987092508805
30
0
41
1
10
113.587801072783
20
0.692213464900277
30
0
41
1
10
113.633201612351
20
0.402456174398992
30
0
41
1
10
113.689952286812
20
0.0446720590984455
30
0
41
1
10
113.701302421705
20
-0.0265351729015038
30
0
41
1
10
113.724002691489
20
-0.169574135361415
30
0
41
1
10
113.758053096165
20
-0.384795249949121
30
0
41
1
10
113.792103500842
20
-0.601908948375382
30
0
41
1
10
113.905604849763
20
-1.32936948881161
30
0
41
1
10
113.996405928901
20
-1.92346732544976
30
0
41
1
10
114.178008087175
20
-3.1219929431438
30
0
41
1
10
114.268809166312
20
-3.72639315435671
30
0
41
1
10
114.450411324587
20
-4.92848214495532
30
0
41
1
10
114.541212403724
20
-5.52612308283619
30
0
41
1
10
114.722814561999
20
-6.69568996257439
30
0
41
1
10
114.813615641136
20
-7.26755328415109
30
0
41
1
10
114.904416720273
20
-7.81691849158622
30
0
0
SPLINE
5
E1
100
AcDbEntity
8
1
62
256
6
ByLayer
370
13
48
1
60
0
100
AcDbSpline
70
4
71
3
72
87
73
83
40
0
40
0
40
0
40
0
40
0.03125
40
0.03125
40
0.0625
40
0.0625
40
0.0703125
40
0.0703125
40
0.07421875
40
0.07421875
40
0.078125
40
0.078125
40
0.09375
40
0.09375
40
0.125
40
0.125
40
0.15625
40
0.15625
40
0.1875
40
0.1875
40
0.21875
40
0.21875
40
0.25
40
0.25
40
0.28125
40
0.28125
40
0.3125
40
0.3125
40
0.34375
40
0.34375
40
0.375
40
0.375
40
0.37890625
40
0.37890625
40
0.3828125
40
0.3828125
40
0.390625
40
0.390625
40
0.40625
40
0.40625
40
0.4375
40
0.4375
40
0.46875
40
0.46875
40
0.5
40
0.5
40
0.53125
40
0.53125
40
0.5625
40
0.5625
40
0.59375
40
0.59375
40
0.625
40
0.625
40
0.65625
40
0.65625
40
0.6875
40
0.6875
40
0.69140625
40
0.69140625
40
0.6953125
40
0.703125
40
0.703125
40
0.71875
40
0.71875
40
0.75
40
0.75
40
0.78125
40
0.78125
40
0.8125
40
0.8125
40
0.84375
40
0.84375
40
0.875
40
0.875
40
0.90625
40
0.90625
40
0.9375
40
0.9375
40
0.96875
40
0.96875
40
1
40
1
40
1
40
1
41
1
10
102.3
20
4.74563620595941
30
0
41
1
10
102.406032643077
20
4.04622205429672
30
0
41
1
10
102.512065286153
20
3.3393560681871
30
0
41
1
10
102.724130572307
20
1.93834296723929
30
0
41
1
10
102.830163215383
20
1.24425866482062
30
0
41
1
10
102.962704019229
20
0.398473215924099
30
0
41
1
10
102.989212179998
20
0.230391366858783
30
0
41
1
10
103.028974421152
20
-0.0199083129402027
30
0
41
1
10
103.042228501537
20
-0.103147244830353
30
0
41
1
10
103.068736662306
20
-0.270602908709037
30
0
41
1
10
103.08199074269
20
-0.354626071620629
30
0
41
1
10
103.148261144613
20
-0.776130976389425
30
0
41
1
10
103.201277466151
20
-1.11779631381117
30
0
41
1
10
103.360326430767
20
-2.15241954273643
30
0
41
1
10
103.466359073843
20
-2.85518208684164
30
0
41
1
10
103.678424359996
20
-4.26201486236477
30
0
41
1
10
103.784457003073
20
-4.96599938793514
30
0
41
1
10
103.996522289226
20
-6.34580205429876
30
0
41
1
10
104.102554932303
20
-7.02149098841679
30
0
41
1
10
104.314620218456
20
-8.31381924120859
30
0
41
1
10
104.420652861533
20
-8.93031474375783
30
0
41
1
10
104.632718147686
20
-10.0761890317591
30
0
41
1
10
104.738750790763
20
-10.605449740554
30
0
41
1
10
104.950816076916
20
-11.5556912498664
30
0
41
1
10
105.056848719993
20
-11.9766136009313
30
0
41
1
10
105.268914006146
20
-12.6986825227807
30
0
41
1
10
105.374946649223
20
-12.9998417985469
30
0
41
1
10
105.587011935376
20
-13.4812611775556
30
0
41
1
10
105.693044578453
20
-13.6615911828522
30
0
41
1
10
105.905109864606
20
-13.9092871703971
30
0
41
1
10
106.011142507682
20
-13.9767511637807
30
0
41
1
10
106.130429231144
20
-13.997180879728
30
0
41
1
10
106.143683311528
20
-13.9986834101605
30
0
41
1
10
106.170191472298
20
-14.0001858129565
30
0
41
1
10
106.183445552682
20
-14.0001897850556
30
0
41
1
10
106.223207793836
20
-13.9979604091651
30
0
41
1
10
106.249715954605
20
-13.9934687853026
30
0
41
1
10
106.329240436912
20
-13.970596002515
30
0
41
1
10
106.382256758451
20
-13.9428078788709
30
0
41
1
10
106.541305723066
20
-13.8190488304559
30
0
41
1
10
106.647338366142
20
-13.6824626803896
30
0
41
1
10
106.859403652296
20
-13.2906008913798
30
0
41
1
10
106.965436295372
20
-13.0352410619126
30
0
41
1
10
107.177501581526
20
-12.4032127019395
30
0
41
1
10
107.283534224602
20
-12.0265072027968
30
0
41
1
10
107.495599510755
20
-11.1592145598117
30
0
41
1
10
107.601632153832
20
-10.6686590200479
30
0
41
1
10
107.813697439985
20
-9.59128548684319
30
0
41
1
10
107.919730083062
20
-9.00456618902533
30
0
41
1
10
108.131795369215
20
-7.76068984505071
30
0
41
1
10
108.237828012292
20
-7.10367176223164
30
0
41
1
10
108.449893298445
20
-5.74953843514587
30
0
41
1
10
108.555925941522
20
-5.05256221187875
30
0
41
1
10
108.767991227675
20
-3.64903991268125
30
0
41
1
10
108.874023870752
20
-2.94259803219802
30
0
41
1
10
109.086089156905
20
-1.54708827001076
30
0
41
1
10
109.192121799982
20
-0.858073279713949
30
0
41
1
10
109.311408523443
20
-0.104494229670394
30
0
41
1
10
109.324662603828
20
-0.021250404974694
30
0
41
1
10
109.351170764597
20
0.145609520352849
30
0
41
1
10
109.39093300575
20
0.396810189442022
30
0
41
1
10
109.430695246904
20
0.650592189689121
30
0
41
1
10
109.510219729212
20
1.16115801765119
30
0
41
1
10
109.56323605075
20
1.5055503710382
30
0
41
1
10
109.722285015365
20
2.54678354216776
30
0
41
1
10
109.828317658442
20
3.251845671551
30
0
41
1
10
110.040382944595
20
4.65801893732979
30
0
41
1
10
110.146415587671
20
5.35903490433907
30
0
41
1
10
110.358480873825
20
6.72708693696643
30
0
41
1
10
110.464513516901
20
7.39398830619857
30
0
41
1
10
110.676578803055
20
8.66312172593535
30
0
41
1
10
110.782611446131
20
9.26521164110113
30
0
41
1
10
110.994676732285
20
10.3776650399523
30
0
41
1
10
111.100709375361
20
10.8879195752397
30
0
41
1
10
111.312774661514
20
11.7972004905483
30
0
41
1
10
111.418807304591
20
12.1961817290323
30
0
41
1
10
111.630872590745
20
12.8733810452396
30
0
41
1
10
111.736905233821
20
13.1516242945228
30
0
41
1
10
111.948970519974
20
13.5880782581429
30
0
41
1
10
112.055003163051
20
13.7463665743827
30
0
41
1
10
112.267068449204
20
13.9522775364383
30
0
41
1
10
112.373101092281
20
14
30
0
41
1
10
112.479133735357
20
14
30
0
0
SPLINE
5
E2
100
AcDbEntity
8
1
62
256
6
ByLayer
370
13
48
1
60
0
100
AcDbSpline
70
4
71
3
72
43
73
39
40
0
40
0
40
0
40
0
40
0.0625000000000006
40
0.0625000000000006
40
0.125000000000001
40
0.125000000000001
40
0.187500000000002
40
0.187500000000002
40
0.250000000000002
40
0.250000000000002
40
0.312500000000003
40
0.312500000000003
40
0.375000000000004
40
0.375000000000004
40
0.437500000000004
40
0.437500000000004
40
0.500000000000005
40
0.500000000000005
40
0.562500000000005
40
0.562500000000005
40
0.625000000000006
40
0.625000000000006
40
0.640625000000006
40
0.648437500000006
40
0.648437500000006
40
0.656250000000006
40
0.656250000000006
40
0.687500000000005
40
0.687500000000005
40
0.750000000000004
40
0.750000000000004
40
0.812500000000003
40
0.812500000000003
40
0.875000000000002
40
0.875000000000002
40
0.937500000000001
40
0.937500000000001
40
1
40
1
40
1
40
1
41
1
10
110.060908198657
20
14
30
0
41
1
10
110.161814626191
20
14
30
0
41
1
10
110.262721053725
20
13.9567965801027
30
0
41
1
10
110.464533908792
20
13.7709417615377
30
0
41
1
10
110.565440336326
20
13.6282121181928
30
0
41
1
10
110.767253191393
20
13.2347546781376
30
0
41
1
10
110.868159618927
20
12.9839634407932
30
0
41
1
10
111.069972473994
20
12.3726776055644
30
0
41
1
10
111.170878901528
20
12.0121561219024
30
0
41
1
10
111.372691756595
20
11.1879867843813
30
0
41
1
10
111.473598184129
20
10.7243632892279
30
0
41
1
10
111.675411039196
20
9.70893192437475
30
0
41
1
10
111.77631746673
20
9.15719874167695
30
0
41
1
10
111.978130321797
20
7.98734792531056
30
0
41
1
10
112.079036749331
20
7.36933707040703
30
0
41
1
10
112.280849604398
20
6.09278146241974
30
0
41
1
10
112.381756031932
20
5.43434734852548
30
0
41
1
10
112.583568886999
20
4.10347183979823
30
0
41
1
10
112.684475314533
20
3.43111880986217
30
0
41
1
10
112.8862881696
20
2.09652930881904
30
0
41
1
10
112.987194597134
20
1.43434432506714
30
0
41
1
10
113.113327631551
20
0.625173294552354
30
0
41
1
10
113.151167541876
20
0.383794886317872
30
0
41
1
10
113.189007452201
20
0.144759143346079
30
0
41
1
10
113.214234059084
20
-0.0140484938001748
30
0
41
1
10
113.226847362526
20
-0.0932487446925734
30
0
41
1
10
113.289913879735
20
-0.491491883508218
30
0
41
1
10
113.340367093501
20
-0.814393044093578
30
0
41
1
10
113.491726734802
20
-1.79293441140774
30
0
41
1
10
113.592633162336
20
-2.45856628251067
30
0
41
1
10
113.794446017403
20
-3.79597917360914
30
0
41
1
10
113.895352444937
20
-4.46770158102802
30
0
41
1
10
114.097165300004
20
-5.79261457241
30
0
41
1
10
114.198071727538
20
-6.44571125574001
30
0
41
1
10
114.399884582605
20
-7.70675738638093
30
0
41
1
10
114.500791010138
20
-8.31459473346425
30
0
41
1
10
114.702603865206
20
-9.45974215096948
30
0
41
1
10
114.80351029274
20
-9.99694930575157
30
0
41
1
10
114.904416720273
20
-10.4884891266468
30
0
0
SPLINE
5
E3
100
AcDbEntity
8
1
62
256
6
ByLayer
370
13
48
1
60
0
100
AcDbSpline
70
4
71
3
72
87
73
83
40
0
40
0
40
0
40
0
40
0.0156249999999998
40
0.0156249999999998
40
0.0234374999999995
40
0.0234374999999995
40
0.0273437499999994
40
0.0273437499999994
40
0.0312499999999993
40
0.0312499999999993
40
0.0624999999999982
40
0.0624999999999982
40
0.0937499999999971
40
0.0937499999999971
40
0.124999999999996
40
0.124999999999996
40
0.156249999999995
40
0.156249999999995
40
0.187499999999994
40
0.187499999999994
40
0.218749999999993
40
0.218749999999993
40
0.249999999999992
40
0.249999999999992
40
0.281249999999991
40
0.281249999999991
40
0.31249999999999
40
0.31249999999999
40
0.343749999999989
40
0.343749999999989
40
0.347656249999989
40
0.347656249999989
40
0.351562499999988
40
0.351562499999988
40
0.359374999999988
40
0.359374999999988
40
0.374999999999988
40
0.374999999999988
40
0.406249999999988
40
0.406249999999988
40
0.437499999999988
40
0.437499999999988
40
0.468749999999988
40
0.468749999999988
40
0.499999999999988
40
0.499999999999988
40
0.531249999999988
40
0.531249999999988
40
0.562499999999988
40
0.562499999999988
40
0.593749999999988
40
0.593749999999988
40
0.624999999999988
40
0.624999999999988
40
0.656249999999988
40
0.656249999999988
40
0.671874999999988
40
0.671874999999988
40
0.675781249999988
40
0.675781249999988
40
0.679687499999988
40
0.687499999999988
40
0.687499999999988
40
0.718749999999989
40
0.718749999999989
40
0.74999999999999
40
0.74999999999999
40
0.781249999999992
40
0.781249999999992
40
0.812499999999993
40
0.812499999999993
40
0.843749999999994
40
0.843749999999994
40
0.874999999999995
40
0.874999999999995
40
0.906249999999996
40
0.906249999999996
40
0.937499999999998
40
0.937499999999998
40
0.968749999999999
40
0.968749999999999
40
1
40
1
40
1
40
1
41
1
10
102.3
20
1.54268671510016
30
0
41
1
10
102.350489984439
20
1.21378418242608
30
0
41
1
10
102.400979968878
20
0.887695090671457
30
0
41
1
10
102.476714945537
20
0.40443141407863
30
0
41
1
10
102.501959937757
20
0.244319189620484
30
0
41
1
10
102.539827426086
20
0.0057962810636525
30
0
41
1
10
102.552449922196
20
-0.0734107450794852
30
0
41
1
10
102.577694914416
20
-0.232734777492027
30
0
41
1
10
102.590317410526
20
-0.312666724200767
30
0
41
1
10
102.703919875514
20
-1.03434850070565
30
0
41
1
10
102.804899844392
20
-1.69237961517294
30
0
41
1
10
103.006859782149
20
-3.02306260475132
30
0
41
1
10
103.107839751027
20
-3.69567083244064
30
0
41
1
10
103.309799688784
20
-5.03219542716937
30
0
41
1
10
103.410779657663
20
-5.69602988303652
30
0
41
1
10
103.61273959542
20
-6.98873627298948
30
0
41
1
10
103.713719564298
20
-7.61749984014358
30
0
41
1
10
103.915679502055
20
-8.81375018808859
30
0
41
1
10
104.016659470934
20
-9.38112663556541
30
0
41
1
10
104.21861940869
20
-10.4316300419174
30
0
41
1
10
104.319599377569
20
-10.9146736469934
30
0
41
1
10
104.521559315326
20
-11.7798961441933
30
0
41
1
10
104.622539284204
20
-12.162039845128
30
0
41
1
10
104.824499221961
20
-12.8170519587611
30
0
41
1
10
104.925479190839
20
-13.0899378996338
30
0
41
1
10
105.127439128596
20
-13.5264935812728
30
0
41
1
10
105.228419097475
20
-13.6902213810185
30
0
41
1
10
105.430379035232
20
-13.9157954615097
30
0
41
1
10
105.53135900411
20
-13.9777190690378
30
0
41
1
10
105.644961469098
20
-13.9971023051937
30
0
41
1
10
105.657583965208
20
-13.9985600402321
30
0
41
1
10
105.682828957428
20
-14.0001114106451
30
0
41
1
10
105.695451453538
20
-14.0002080302971
30
0
41
1
10
105.733318941867
20
-13.998469795373
30
0
41
1
10
105.758563934087
20
-13.9945905637197
30
0
41
1
10
105.834298910746
20
-13.9744607025297
30
0
41
1
10
105.884788895185
20
-13.9497106424048
30
0
41
1
10
106.036258848502
20
-13.8390468951242
30
0
41
1
10
106.137238817381
20
-13.7165439389798
30
0
41
1
10
106.339198755138
20
-13.3645771903316
30
0
41
1
10
106.440178724016
20
-13.1350450669474
30
0
41
1
10
106.642138661773
20
-12.5658278308657
30
0
41
1
10
106.743118630651
20
-12.2261070808749
30
0
41
1
10
106.945078568408
20
-11.4414377652743
30
0
41
1
10
107.046058537287
20
-10.9965031873956
30
0
41
1
10
107.248018475043
20
-10.0148288257022
30
0
41
1
10
107.348998443922
20
-9.4781551895997
30
0
41
1
10
107.550958381679
20
-8.33371310925946
30
0
41
1
10
107.651938350557
20
-7.72604769026216
30
0
41
1
10
107.853898288314
20
-6.46500732793879
30
0
41
1
10
107.954878257193
20
-5.81174494706761
30
0
41
1
10
108.156838194949
20
-4.48622477334834
30
0
41
1
10
108.257818163828
20
-3.81406149783024
30
0
41
1
10
108.459778101585
20
-2.47557504942051
30
0
41
1
10
108.560758070463
20
-1.80931104594143
30
0
41
1
10
108.712228023781
20
-0.829743045285511
30
0
41
1
10
108.76271800822
20
-0.506486572821643
30
0
41
1
10
108.825830488769
20
-0.107789117316088
30
0
41
1
10
108.838452984879
20
-0.0284796702395624
30
0
41
1
10
108.863697977099
20
0.130377057156636
30
0
41
1
10
108.901565465428
20
0.369490248287121
30
0
41
1
10
108.939432953758
20
0.610957630469613
30
0
41
1
10
109.065657914856
20
1.42045107974053
30
0
41
1
10
109.166637883734
20
2.08297751566144
30
0
41
1
10
109.368597821491
20
3.41841009120114
30
0
41
1
10
109.469577790369
20
4.09126481500272
30
0
41
1
10
109.671537728126
20
5.42327409505916
30
0
41
1
10
109.772517697005
20
6.08234015215314
30
0
41
1
10
109.974477634761
20
7.36023760736879
30
0
41
1
10
110.07545760364
20
7.97895801877121
30
0
41
1
10
110.277417541397
20
9.15023814170789
30
0
41
1
10
110.378397510275
20
9.70269060520093
30
0
41
1
10
110.580357448032
20
10.7195003141225
30
0
41
1
10
110.68133741691
20
11.1837824413947
30
0
41
1
10
110.883297354667
20
12.0091499260165
30
0
41
1
10
110.984277323546
20
12.3702106782945
30
0
41
1
10
111.186237261303
20
12.9824192177493
30
0
41
1
10
111.287217230181
20
13.233593886927
30
0
41
1
10
111.489177167938
20
13.6276516962017
30
0
41
1
10
111.590157136817
20
13.77059846881
30
0
41
1
10
111.792117074573
20
13.9567333577832
30
0
41
1
10
111.893097043452
20
14
30
0
41
1
10
111.99407701233
20
14
30
0
0
SPLINE
5
E4
100
AcDbEntity
8
1
62
256
6
ByLayer
370
13
48
1
60
0
100
AcDbSpline
70
4
71
3
72
52
73
48
40
0
40
0
40
0
40
0
40
0.0625000000000012
40
0.0625000000000012
40
0.125000000000002
40
0.125000000000002
40
0.187500000000003
40
0.187500000000003
40
0.250000000000005
40
0.250000000000005
40
0.281250000000005
40
0.281250000000005
40
0.312500000000006
40
0.312500000000006
40
0.343750000000006
40
0.343750000000006
40
0.375000000000006
40
0.375000000000006
40
0.437500000000007
40
0.437500000000007
40
0.500000000000008
40
0.500000000000008
40
0.562500000000009
40
0.562500000000009
40
0.578125000000009
40
0.578125000000009
40
0.585937500000009
40
0.585937500000009
40
0.593750000000009
40
0.593750000000009
40
0.625000000000008
40
0.625000000000008
40
0.687500000000006
40
0.687500000000006
40
0.750000000000005
40
0.750000000000005
40
0.812500000000003
40
0.812500000000003
40
0.843750000000003
40
0.843750000000003
40
0.875000000000002
40
0.875000000000002
40
0.906250000000001
40
0.906250000000001
40
0.937500000000001
40
0.937500000000001
40
1
40
1
40
1
40
1
41
1
10
109.57585147563
20
14
30
0
41
1
10
109.68686325156
20
14
30
0
41
1
10
109.79787502749
20
13.9476699487421
30
0
41
1
10
110.01989857935
20
13.7212368367734
30
0
41
1
10
110.13091035528
20
13.5470088286194
30
0
41
1
10
110.35293390714
20
13.066562766621
30
0
41
1
10
110.463945683071
20
12.7602519468274
30
0
41
1
10
110.685969234931
20
12.0159829051853
30
0
41
1
10
110.796981010861
20
11.5780048041368
30
0
41
1
10
110.963498674756
20
10.8318575766726
30
0
41
1
10
111.019004562721
20
10.5683770624782
30
0
41
1
10
111.130016338651
20
10.014593326767
30
0
41
1
10
111.185522226616
20
9.72429378729609
30
0
41
1
10
111.296534002546
20
9.12022052009056
30
0
41
1
10
111.352039890511
20
8.80645156572402
30
0
41
1
10
111.463051666441
20
8.1592969967997
30
0
41
1
10
111.518557554406
20
7.82591685552765
30
0
41
1
10
111.685075218301
20
6.80266827093791
30
0
41
1
10
111.796086994231
20
6.08970201853924
30
0
41
1
10
112.018110546092
20
4.63736081632922
30
0
41
1
10
112.129122322022
20
3.89814219054872
30
0
41
1
10
112.351145873882
20
2.4265796393874
30
0
41
1
10
112.462157649812
20
1.69433122429024
30
0
41
1
10
112.600922369724
20
0.800268043547618
30
0
41
1
10
112.628675313707
20
0.622499606095346
30
0
41
1
10
112.670304729681
20
0.357672333281812
30
0
41
1
10
112.684181201672
20
0.269700559608026
30
0
41
1
10
112.711934145654
20
0.0944051837347502
30
0
41
1
10
112.725810617645
20
0.0073049487699848
30
0
41
1
10
112.795192977602
20
-0.429660560772362
30
0
41
1
10
112.850698865567
20
-0.784558780492262
30
0
41
1
10
113.017216529462
20
-1.86115967781228
30
0
41
1
10
113.128228305392
20
-2.59499075003745
30
0
41
1
10
113.350251857252
20
-4.06736454507319
30
0
41
1
10
113.461263633182
20
-4.80580650237053
30
0
41
1
10
113.683287185042
20
-6.25390196950323
30
0
41
1
10
113.794298960972
20
-6.96339563965668
30
0
41
1
10
113.960816624868
20
-7.97943564191473
30
0
41
1
10
114.016322512833
20
-8.31008283812645
30
0
41
1
10
114.127334288763
20
-8.95115448388859
30
0
41
1
10
114.182840176728
20
-9.26157353872435
30
0
41
1
10
114.293851952658
20
-9.85839815883921
30
0
41
1
10
114.349357840623
20
-10.1447990945755
30
0
41
1
10
114.460369616553
20
-10.6903266273157
30
0
41
1
10
114.515875504518
20
-10.9494497370044
30
0
41
1
10
114.682393168413
20
-11.6819958241305
30
0
41
1
10
114.793404944343
20
-12.1102003161294
30
0
41
1
10
114.904416720273
20
-12.472327195307
30
0
0
SPLINE
5
E5
100
AcDbEntity
8
1
62
256
6
ByLayer
370
13
48
1
60
0
100
AcDbSpline
70
4
71
3
72
80
73
76
40
0
40
0
40
0
40
0
40
0.0312499999999998
40
0.0312499999999998
40
0.0624999999999996
40
0.0624999999999996
40
0.0937499999999994
40
0.0937499999999994
40
0.124999999999999
40
0.124999999999999
40
0.156249999999999
40
0.156249999999999
40
0.187499999999999
40
0.187499999999999
40
0.218749999999999
40
0.218749999999999
40
0.249999999999998
40
0.249999999999998
40
0.281249999999998
40
0.281249999999998
40
0.312499999999998
40
0.312499999999998
40
0.316406249999998
40
0.316406249999998
40
0.320312499999998
40
0.328124999999999
40
0.328124999999999
40
0.343749999999999
40
0.343749999999999
40
0.375
40
0.375
40
0.406250000000001
40
0.406250000000001
40
0.437500000000003
40
0.437500000000003
40
0.468750000000004
40
0.468750000000004
40
0.500000000000005
40
0.500000000000005
40
0.531250000000006
40
0.531250000000006
40
0.562500000000007
40
0.562500000000007
40
0.593750000000009
40
0.593750000000009
40
0.62500000000001
40
0.62500000000001
40
0.656250000000011
40
0.656250000000011
40
0.660156250000011
40
0.660156250000011
40
0.664062500000011
40
0.671875000000011
40
0.671875000000011
40
0.68750000000001
40
0.68750000000001
40
0.718750000000009
40
0.718750000000009
40
0.750000000000008
40
0.750000000000008
40
0.781250000000007
40
0.781250000000007
40
0.812500000000006
40
0.812500000000006
40
0.843750000000005
40
0.843750000000005
40
0.875000000000004
40
0.875000000000004
40
0.906250000000003
40
0.906250000000003
40
0.937500000000002
40
0.937500000000002
40
0.968750000000001
40
0.968750000000001
40
1
40
1
40
1
40
1
41
1
10
102.3
20
-1.56567195922142
30
0
41
1
10
102.39592729468
20
-2.19080934309395
30
0
41
1
10
102.491854589361
20
-2.82611651798567
30
0
41
1
10
102.683709178721
20
-4.09875135878247
30
0
41
1
10
102.779636473401
20
-4.73602846542431
30
0
41
1
10
102.971491062762
20
-5.99102303252408
30
0
41
1
10
103.067418357442
20
-6.60866496050707
30
0
41
1
10
103.259272946802
20
-7.80150699304025
30
0
41
1
10
103.355200241483
20
-8.37661971259959
30
0
41
1
10
103.547054830843
20
-9.46272255434354
30
0
41
1
10
103.642982125523
20
-9.97363302184016
30
0
41
1
10
103.834836714884
20
-10.9134370458005
30
0
41
1
10
103.930764009564
20
-11.3422778412477
30
0
41
1
10
104.122618598925
20
-12.1058908555258
30
0
41
1
10
104.218545893605
20
-12.4406484129287
30
0
41
1
10
104.410400482965
20
-13.0109302556123
30
0
41
1
10
104.506327777645
20
-13.2464773208457
30
0
41
1
10
104.698182367006
20
-13.6199247241371
30
0
41
1
10
104.794109661686
20
-13.7578744604664
30
0
41
1
10
104.985964251047
20
-13.9433330651011
30
0
41
1
10
105.081891545727
20
-13.990902595964
30
0
41
1
10
105.189809752242
20
-13.999796667431
30
0
41
1
10
105.201800664077
20
-14.0001676868811
30
0
41
1
10
105.225782487747
20
-13.9996947626707
30
0
41
1
10
105.261755223252
20
-13.9971538499996
30
0
41
1
10
105.297727958758
20
-13.9890090201671
30
0
41
1
10
105.369673429768
20
-13.9649683062243
30
0
41
1
10
105.417637077108
20
-13.9386002767405
30
0
41
1
10
105.561528019128
20
-13.8264334404955
30
0
41
1
10
105.657455313808
20
-13.7074275745772
30
0
41
1
10
105.849309903169
20
-13.3729246725816
30
0
41
1
10
105.945237197849
20
-13.1573747032621
30
0
41
1
10
106.13709178721
20
-12.62690081391
30
0
41
1
10
106.23301908189
20
-12.3119476389061
30
0
41
1
10
106.42487367125
20
-11.5863521507058
30
0
41
1
10
106.520800965931
20
-11.1757165151096
30
0
41
1
10
106.712655555291
20
-10.2693882459011
30
0
41
1
10
106.808582849971
20
-9.77374123732184
30
0
41
1
10
107.000437439332
20
-8.7141854936441
30
0
41
1
10
107.096364734012
20
-8.1503523771899
30
0
41
1
10
107.288219323373
20
-6.97551813918511
30
0
41
1
10
107.384146618053
20
-6.36460452412686
30
0
41
1
10
107.576001207413
20
-5.11847853815342
30
0
41
1
10
107.671928502093
20
-4.48334542434469
30
0
41
1
10
107.863783091454
20
-3.21084758140947
30
0
41
1
10
107.959710386134
20
-2.57353905097699
30
0
41
1
10
108.151564975495
20
-1.31587370159269
30
0
41
1
10
108.247492270175
20
-0.695544357759417
30
0
41
1
10
108.35541047669
20
-0.0156642548501509
30
0
41
1
10
108.367401388525
20
0.0595681702497473
30
0
41
1
10
108.391383212195
20
0.210843359743251
30
0
41
1
10
108.4273559477
20
0.438489598799549
30
0
41
1
10
108.463328683205
20
0.66822282726045
30
0
41
1
10
108.535274154216
20
1.13014466850919
30
0
41
1
10
108.583237801556
20
1.44137494496354
30
0
41
1
10
108.727128743576
20
2.38197980073883
30
0
41
1
10
108.823056038256
20
3.01838344598238
30
0
41
1
10
109.014910627617
20
4.29115726806342
30
0
41
1
10
109.110837922297
20
4.92747404257184
30
0
41
1
10
109.302692511657
20
6.17826332080384
30
0
41
1
10
109.398619806338
20
6.79265835734523
30
0
41
1
10
109.590474395698
20
7.97672358595841
30
0
41
1
10
109.686401690378
20
8.54630622809555
30
0
41
1
10
109.878256279739
20
9.61933427544315
30
0
41
1
10
109.974183574419
20
10.1227019458724
30
0
41
1
10
110.16603816378
20
11.0459150533744
30
0
41
1
10
110.26196545846
20
11.4657112446656
30
0
41
1
10
110.45382004782
20
12.2103957835319
30
0
41
1
10
110.549747342501
20
12.5352734720399
30
0
41
1
10
110.741601931861
20
13.0856616838913
30
0
41
1
10
110.837529226541
20
13.3111982860884
30
0
41
1
10
111.029383815902
20
13.6651216492121
30
0
41
1
10
111.125311110582
20
13.7935596569142
30
0
41
1
10
111.317165699943
20
13.960968352129
30
0
41
1
10
111.413092994623
20
14
30
0
41
1
10
111.509020289303
20
14
30
0
0
SPLINE
5
E6
100
AcDbEntity
8
1
62
256
6
ByLayer
370
13
48
1
60
0
100
AcDbSpline
70
4
71
3
72
74
73
70
40
0
40
0
40
0
40
0
40
0.0312499999999997
40
0.0312499999999997
40
0.0624999999999994
40
0.0624999999999994
40
0.0937499999999991
40
0.0937499999999991
40
0.124999999999999
40
0.124999999999999
40
0.156249999999999
40
0.156249999999999
40
0.187499999999998
40
0.187499999999998
40
0.218749999999998
40
0.218749999999998
40
0.249999999999998
40
0.249999999999998
40
0.281249999999997
40
0.281249999999997
40
0.312499999999997
40
0.312499999999997
40
0.343749999999997
40
0.343749999999997
40
0.374999999999996
40
0.374999999999996
40
0.406249999999996
40
0.406249999999996
40
0.437499999999996
40
0.437499999999996
40
0.468749999999995
40
0.468749999999995
40
0.499999999999995
40
0.499999999999995
40
0.531249999999995
40
0.531249999999995
40
0.539062499999995
40
0.539062499999995
40
0.546874999999995
40
0.546874999999995
40
0.562499999999995
40
0.562499999999995
40
0.593749999999995
40
0.593749999999995
40
0.624999999999996
40
0.624999999999996
40
0.656249999999996
40
0.656249999999996
40
0.687499999999996
40
0.687499999999996
40
0.718749999999997
40
0.718749999999997
40
0.749999999999997
40
0.749999999999997
40
0.781249999999997
40
0.781249999999997
40
0.812499999999998
40
0.812499999999998
40
0.843749999999998
40
0.843749999999998
40
0.874999999999999
40
0.874999999999999
40
0.906249999999999
40
0.906249999999999
40
0.937499999999999
40
0.937499999999999
40
0.96875
40
0.96875
40
1
40
1
40
1
40
1
41
1
10
109.090794752603
20
14
30
0
41
1
10
109.151353314766
20
14
30
0
41
1
10
109.211911876929
20
13.9844722857239
30
0
41
1
10
109.333029001256
20
13.9193946560856
30
0
41
1
10
109.393587563419
20
13.8698386005341
30
0
41
1
10
109.514704687745
20
13.7342058849474
30
0
41
1
10
109.575263249909
20
13.6481231779826
30
0
41
1
10
109.696380374235
20
13.4376034484062
30
0
41
1
10
109.756938936398
20
13.3131610634386
30
0
41
1
10
109.878056060725
20
13.0249264958583
30
0
41
1
10
109.938614622888
20
12.8611302733508
30
0
41
1
10
110.059731747214
20
12.4941743091101
30
0
41
1
10
110.120290309378
20
12.2910124396544
30
0
41
1
10
110.241407433704
20
11.8463879398121
30
0
41
1
10
110.301965995868
20
11.6049255278403
30
0
41
1
10
110.423083120194
20
11.0858693123983
30
0
41
1
10
110.483641682357
20
10.8082782556257
30
0
41
1
10
110.604758806684
20
10.2201966827366
30
0
41
1
10
110.665317368847
20
9.90971131382523
30
0
41
1
10
110.786434493173
20
9.26001639033737
30
0
41
1
10
110.846993055337
20
8.92081394533113
30
0
41
1
10
110.968110179663
20
8.21861763969017
30
0
41
1
10
111.028668741826
20
7.85563216460167
30
0
41
1
10
111.149785866153
20
7.11132476363767
30
0
41
1
10
111.210344428316
20
6.73001167634862
30
0
41
1
10
111.331461552642
20
5.95476456448003
30
0
41
1
10
111.392020114806
20
5.56083900613049
30
0
41
1
10
111.513137239132
20
4.76608027713269
30
0
41
1
10
111.573695801295
20
4.36525449672658
30
0
41
1
10
111.694812925622
20
3.5621660277568
30
0
41
1
10
111.755371487785
20
3.15990915924937
30
0
41
1
10
111.876488612112
20
2.35898673542204
30
0
41
1
10
111.937047174275
20
1.96032518269126
30
0
41
1
10
112.058164298601
20
1.17103105678993
30
0
41
1
10
112.118722860764
20
0.780400656989286
30
0
41
1
10
112.194421063468
20
0.299477412535453
30
0
41
1
10
112.209560704009
20
0.203659266214118
30
0
41
1
10
112.239839985091
20
0.0128075810540054
30
0
41
1
10
112.254979625632
20
-0.0821582106717358
30
0
41
1
10
112.300398547254
20
-0.369002312166515
30
0
41
1
10
112.330677828336
20
-0.561777812122187
30
0
41
1
10
112.421515671581
20
-1.14409823847319
30
0
41
1
10
112.482074233744
20
-1.53765869285243
30
0
41
1
10
112.60319135807
20
-2.3315053086427
30
0
41
1
10
112.663749920234
20
-2.73178873969277
30
0
41
1
10
112.78486704456
20
-3.53445137001822
30
0
41
1
10
112.845425606723
20
-3.93682599047864
30
0
41
1
10
112.96654273105
20
-4.73849042897848
30
0
41
1
10
113.027101293213
20
-5.13777390094143
30
0
41
1
10
113.148218417539
20
-5.92768925983856
30
0
41
1
10
113.208776979703
20
-6.31831335832089
30
0
41
1
10
113.329894104029
20
-7.08517051202111
30
0
41
1
10
113.390452666192
20
-7.46139490214014
30
0
41
1
10
113.511569790519
20
-8.19378974021322
30
0
41
1
10
113.572128352682
20
-8.54995139938686
30
0
41
1
10
113.693245477009
20
-9.23689932882513
30
0
41
1
10
113.753804039172
20
-9.56767752564124
30
0
41
1
10
113.874921163498
20
-10.1991347718138
30
0
41
1
10
113.935479725661
20
-10.4998072575149
30
0
41
1
10
114.056596849988
20
-11.0671495633657
30
0
41
1
10
114.117155412151
20
-11.3338149489985
30
0
41
1
10
114.238272536478
20
-11.8302269455535
30
0
41
1
10
114.298831098641
20
-12.0599715966383
30
0
41
1
10
114.419948222967
20
-12.4807103950425
30
0
41
1
10
114.480506785131
20
-12.6717050856953
30
0
41
1
10
114.601623909457
20
-13.0142176690967
30
0
41
1
10
114.66218247162
20
-13.165738339485
30
0
41
1
10
114.783299595947
20
-13.4296309019772
30
0
41
1
10
114.84385815811
20
-13.5420073123142
30
0
41
1
10
114.904416720273
20
-13.6354447326749
30
0
0
SPLINE
5
E7
100
AcDbEntity
8
1
62
256
6
ByLayer
370
13
48
1
60
0
100
AcDbSpline
70
4
71
3
72
79
73
75
40
0
40
0
40
0
40
0
40
0.0312500000000004
40
0.0312500000000004
40
0.0625000000000008
40
0.0625000000000008
40
0.0937500000000012
40
0.0937500000000012
40
0.125000000000002
40
0.125000000000002
40
0.156250000000002
40
0.156250000000002
40
0.187500000000002
40
0.187500000000002
40
0.218750000000003
40
0.218750000000003
40
0.250000000000003
40
0.250000000000003
40
0.265625000000003
40
0.265625000000003
40
0.273437500000003
40
0.273437500000003
40
0.281250000000004
40
0.281250000000004
40
0.312500000000003
40
0.312500000000003
40
0.343750000000003
40
0.343750000000003
40
0.375000000000003
40
0.375000000000003
40
0.406250000000003
40
0.406250000000003
40
0.437500000000003
40
0.437500000000003
40
0.468750000000003
40
0.468750000000003
40
0.500000000000003
40
0.500000000000003
40
0.531250000000002
40
0.531250000000002
40
0.562500000000002
40
0.562500000000002
40
0.593750000000002
40
0.593750000000002
40
0.625000000000002
40
0.625000000000002
40
0.632812500000002
40
0.636718750000002
40
0.636718750000002
40
0.640625000000002
40
0.640625000000002
40
0.656250000000002
40
0.656250000000002
40
0.687500000000002
40
0.687500000000002
40
0.718750000000002
40
0.718750000000002
40
0.750000000000002
40
0.750000000000002
40
0.781250000000001
40
0.781250000000001
40
0.812500000000001
40
0.812500000000001
40
0.843750000000001
40
0.843750000000001
40
0.875000000000001
40
0.875000000000001
40
0.906250000000001
40
0.906250000000001
40
0.937500000000001
40
0.937500000000001
40
0.96875
40
0.96875
40
1
40
1
40
1
40
1
41
1
10
102.3
20
-4.76890336007801
30
0
41
1
10
102.390874620482
20
-5.36818537674631
30
0
41
1
10
102.481749240964
20
-5.9617823870305
30
0
41
1
10
102.663498481928
20
-7.11841950686892
30
0
41
1
10
102.75437310241
20
-7.68139463285871
30
0
41
1
10
102.936122343374
20
-8.757692530768
30
0
41
1
10
103.026996963856
20
-9.27095003346236
30
0
41
1
10
103.20874620482
20
-10.2309188444143
30
0
41
1
10
103.299620825302
20
-10.6775785892122
30
0
41
1
10
103.481370066267
20
-11.4914658340181
30
0
41
1
10
103.572244686749
20
-11.8586663281359
30
0
41
1
10
103.753993927713
20
-12.5059722153009
30
0
41
1
10
103.844868548195
20
-12.7860790872335
30
0
41
1
10
104.026617789159
20
-13.2571486222016
30
0
41
1
10
104.117492409641
20
-13.4481374748697
30
0
41
1
10
104.299241650605
20
-13.7440993135694
30
0
41
1
10
104.390116271087
20
-13.8491140658775
30
0
41
1
10
104.52642820181
20
-13.9475600601563
30
0
41
1
10
104.571865512051
20
-13.9705573596268
30
0
41
1
10
104.640021477413
20
-13.9912054312465
30
0
41
1
10
104.662740132533
20
-13.9957813421874
30
0
41
1
10
104.708177442774
20
-14.0004787027107
30
0
41
1
10
104.730896097895
20
-14.0006195053919
30
0
41
1
10
104.844489373497
20
-13.990324085747
30
0
41
1
10
104.935363993979
20
-13.9464488161908
30
0
41
1
10
105.117113234943
20
-13.7780301622241
30
0
41
1
10
105.207987855425
20
-13.6534403326718
30
0
41
1
10
105.389737096389
20
-13.317176517904
30
0
41
1
10
105.480611716871
20
-13.1054634457013
30
0
41
1
10
105.662360957836
20
-12.5929223582393
30
0
41
1
10
105.753235578318
20
-12.2920732493768
30
0
41
1
10
105.934984819282
20
-11.6045581650433
30
0
41
1
10
106.025859439764
20
-11.2178972950834
30
0
41
1
10
106.207608680728
20
-10.3676529079055
30
0
41
1
10
106.29848330121
20
-9.90410278116406
30
0
41
1
10
106.480232542174
20
-8.91399350954401
30
0
41
1
10
106.571107162656
20
-8.38749029682623
30
0
41
1
10
106.75285640362
20
-7.28903828126391
30
0
41
1
10
106.843731024102
20
-6.71715594702783
30
0
41
1
10
107.025480265066
20
-5.54727198982226
30
0
41
1
10
107.116354885548
20
-4.94933336127724
30
0
41
1
10
107.298104126512
20
-3.74643012423994
30
0
41
1
10
107.388978746994
20
-3.14151376196406
30
0
41
1
10
107.570727987958
20
-1.94180737891418
30
0
41
1
10
107.66160260844
20
-1.34704526145094
30
0
41
1
10
107.775195884043
20
-0.618704821277078
30
0
41
1
10
107.809273866724
20
-0.401323413392504
30
0
41
1
10
107.843351849404
20
-0.185830097353516
30
0
41
1
10
107.866070504525
20
-0.0426087883143111
30
0
41
1
10
107.877429832085
20
0.0286550431302146
30
0
41
1
10
107.934226469886
20
0.386564556231548
30
0
41
1
10
107.979663780127
20
0.676440530170282
30
0
41
1
10
108.115975710851
20
1.55451000334787
30
0
41
1
10
108.206850331333
20
2.15124957035746
30
0
41
1
10
108.388599572297
20
3.35305470325952
30
0
41
1
10
108.479474192779
20
3.95808990214482
30
0
41
1
10
108.661223433743
20
5.15907543608074
30
0
41
1
10
108.752098054225
20
5.75497539130146
30
0
41
1
10
108.933847295189
20
6.9185005684804
30
0
41
1
10
109.024721915671
20
7.48606171899715
30
0
41
1
10
109.206471156635
20
8.57368798600302
30
0
41
1
10
109.297345777117
20
9.09368713483329
30
0
41
1
10
109.479095018081
20
10.0689373487814
30
0
41
1
10
109.569969638563
20
10.524134585412
30
0
41
1
10
109.751718879527
20
11.3563495608173
30
0
41
1
10
109.842593500009
20
11.7333370676497
30
0
41
1
10
110.024342740973
20
12.4008223879476
30
0
41
1
10
110.115217361455
20
12.6913184094781
30
0
41
1
10
110.29696660242
20
13.1831234490223
30
0
41
1
10
110.387841222902
20
13.3844561703369
30
0
41
1
10
110.569590463866
20
13.7005031943292
30
0
41
1
10
110.660465084348
20
13.8152579985114
30
0
41
1
10
110.842214325312
20
13.9649830828349
30
0
41
1
10
110.933088945794
20
14
30
0
41
1
10
111.023963566276
20
14
30
0
0
SPLINE
5
E8
100
AcDbEntity
8
1
62
256
6
ByLayer
370
13
48
1
60
0
100
AcDbSpline
70
4
71
3
72
72
73
68
40
0
40
0
40
0
40
0
40
0.03125
40
0.03125
40
0.0625000000000001
40
0.0625000000000001
40
0.0937500000000001
40
0.0937500000000001
40
0.125
40
0.125
40
0.15625
40
0.15625
40
0.1875
40
0.1875
40
0.21875
40
0.21875
40
0.25
40
0.25
40
0.28125
40
0.28125
40
0.312500000000001
40
0.312500000000001
40
0.343750000000001
40
0.343750000000001
40
0.375000000000001
40
0.375000000000001
40
0.406250000000001
40
0.406250000000001
40
0.437500000000001
40
0.437500000000001
40
0.468750000000001
40
0.468750000000001
40
0.500000000000001
40
0.500000000000001
40
0.515625
40
0.515625
40
0.53125
40
0.53125
40
0.5625
40
0.5625
40
0.59375
40
0.59375
40
0.625
40
0.625
40
0.65625
40
0.65625
40
0.687500000000001
40
0.687500000000001
40
0.718750000000001
40
0.718750000000001
40
0.750000000000001
40
0.750000000000001
40
0.781250000000001
40
0.781250000000001
40
0.8125
40
0.8125
40
0.84375
40
0.84375
40
0.875
40
0.875
40
0.90625
40
0.90625
40
0.9375
40
0.9375
40
0.96875
40
0.96875
40
1
40
1
40
1
40
1
41
1
10
108.605738029576
20
14
30
0
41
1
10
108.671349265937
20
14
30
0
41
1
10
108.736960502298
20
13.981769596989
30
0
41
1
10
108.868182975021
20
13.905096780329
30
0
41
1
10
108.933794211383
20
13.8466451879621
30
0
41
1
10
109.065016684106
20
13.6864439344939
30
0
41
1
10
109.130627920467
20
13.5846853596431
30
0
41
1
10
109.26185039319
20
13.3357413886269
30
0
41
1
10
109.327461629551
20
13.1885484002278
30
0
41
1
10
109.458684102274
20
12.847816012135
30
0
41
1
10
109.524295338636
20
12.6542714514131
30
0
41
1
10
109.655517811358
20
12.2213210842857
30
0
41
1
10
109.72112904772
20
11.9819135069362
30
0
41
1
10
109.852351520443
20
11.4592344937149
30
0
41
1
10
109.917962756804
20
11.1759652675866
30
0
41
1
10
110.049185229527
20
10.5690678307804
30
0
41
1
10
110.114796465889
20
10.2454458635287
30
0
41
1
10
110.246018938611
20
9.56272813572699
30
0
41
1
10
110.311630174973
20
9.20364210510729
30
0
41
1
10
110.442852647696
20
8.45601945059812
30
0
41
1
10
110.508463884057
20
8.0674949707535
30
0
41
1
10
110.63968635678
20
7.2678239001601
30
0
41
1
10
110.705297593141
20
6.85669046905886
30
0
41
1
10
110.836520065864
20
6.01905005409432
30
0
41
1
10
110.902131302226
20
5.59255578884617
30
0
41
1
10
111.033353774949
20
4.73146855406429
30
0
41
1
10
111.09896501131
20
4.29688660836797
30
0
41
1
10
111.230187484033
20
3.42656441644175
30
0
41
1
10
111.295798720394
20
2.99083263525822
30
0
41
1
10
111.427021193117
20
2.12452144700472
30
0
41
1
10
111.492632429479
20
1.69394754900682
30
0
41
1
10
111.623854902201
20
0.843422349255604
30
0
41
1
10
111.689466138563
20
0.423473640352114
30
0
41
1
10
111.787882993105
20
-0.195100903008836
30
0
41
1
10
111.820688611286
20
-0.402918205113735
30
0
41
1
10
111.886299847647
20
-0.822071564587077
30
0
41
1
10
111.919105465828
20
-1.03327597218899
30
0
41
1
10
112.01752232037
20
-1.67088500486224
30
0
41
1
10
112.083133556731
20
-2.10131376523205
30
0
41
1
10
112.214356029454
20
-2.96744055786726
30
0
41
1
10
112.279967265816
20
-3.4031331348842
30
0
41
1
10
112.411189738539
20
-4.27349628803552
30
0
41
1
10
112.4768009749
20
-4.70815845004012
30
0
41
1
10
112.608023447623
20
-5.56953443487026
30
0
41
1
10
112.673634683984
20
-5.99623727348535
30
0
41
1
10
112.804857156707
20
-6.8344261669742
30
0
41
1
10
112.870468393069
20
-7.24589952353216
30
0
41
1
10
113.001690865792
20
-8.04637792876986
30
0
41
1
10
113.067302102153
20
-8.43536981313162
30
0
41
1
10
113.198524574876
20
-9.18404379683616
30
0
41
1
10
113.264135811237
20
-9.54371372101812
30
0
41
1
10
113.39535828396
20
-10.2276982127604
30
0
41
1
10
113.460969520322
20
-10.552002996326
30
0
41
1
10
113.592191993044
20
-11.160342215612
30
0
41
1
10
113.657803229406
20
-11.4443703388029
30
0
41
1
10
113.789025702129
20
-11.9686170673375
30
0
41
1
10
113.85463693849
20
-12.2088333892927
30
0
41
1
10
113.985859411213
20
-12.6434237199448
30
0
41
1
10
114.051470647575
20
-12.8377994319997
30
0
41
1
10
114.182693120298
20
-13.1801900906831
30
0
41
1
10
114.248304356659
20
-13.3282101452035
30
0
41
1
10
114.379526829382
20
-13.5787804910746
30
0
41
1
10
114.445138065743
20
-13.6813383407089
30
0
41
1
10
114.576360538466
20
-13.8430907631138
30
0
41
1
10
114.641971774827
20
-13.9022942356581
30
0
41
1
10
114.77319424755
20
-13.9804086293341
30
0
41
1
10
114.838805483912
20
-13.9993287327252
30
0
41
1
10
114.904416720273
20
-13.9999824225722
30
0
0
SPLINE
5
E9
100
AcDbEntity
8
1
62
256
6
ByLayer
370
13
48
1
60
0
100
AcDbSpline
70
4
71
3
72
78
73
74
40
0
40
0
40
0
40
0
40
0.0312500000000006
40
0.0312500000000006
40
0.0625000000000012
40
0.0625000000000012
40
0.0937500000000018
40
0.0937500000000018
40
0.125000000000002
40
0.125000000000002
40
0.156250000000003
40
0.156250000000003
40
0.187500000000003
40
0.187500000000003
40
0.218750000000004
40
0.218750000000004
40
0.234375000000004
40
0.234375000000004
40
0.242187500000004
40
0.242187500000004
40
0.250000000000004
40
0.250000000000004
40
0.281250000000004
40
0.281250000000004
40
0.312500000000004
40
0.312500000000004
40
0.343750000000003
40
0.343750000000003
40
0.375000000000003
40
0.375000000000003
40
0.406250000000002
40
0.406250000000002
40
0.437500000000002
40
0.437500000000002
40
0.468750000000002
40
0.468750000000002
40
0.500000000000001
40
0.500000000000001
40
0.531250000000001
40
0.531250000000001
40
0.5625
40
0.5625
40
0.59375
40
0.59375
40
0.609375
40
0.609375
40
0.6171875
40
0.6171875
40
0.625
40
0.625
40
0.65625
40
0.65625
40
0.6875
40
0.6875
40
0.71875
40
0.71875
40
0.75
40
0.75
40
0.78125
40
0.78125
40
0.8125
40
0.8125
40
0.84375
40
0.84375
40
0.875
40
0.875
40
0.90625
40
0.90625
40
0.9375
40
0.9375
40
0.96875
40
0.96875
40
1
40
1
40
1
40
1
41
1
10
102.3
20
-7.85957592066688
30
0
41
1
10
102.385821946284
20
-8.3777103765245
30
0
41
1
10
102.471643892568
20
-8.87548194835583
30
0
41
1
10
102.643287785135
20
-9.81556157503744
30
0
41
1
10
102.729109731419
20
-10.2578270170778
30
0
41
1
10
102.900753623987
20
-11.0748846577689
30
0
41
1
10
102.986575570271
20
-11.4496497975644
30
0
41
1
10
103.158219462838
20
-12.1235994113719
30
0
41
1
10
103.244041409122
20
-12.422776743006
30
0
41
1
10
103.41568530169
20
-12.9418710259799
30
0
41
1
10
103.501507247974
20
-13.1618001235083
30
0
41
1
10
103.673151140542
20
-13.5230637436599
30
0
41
1
10
103.758973086825
20
-13.6644248461714
30
0
41
1
10
103.930616979393
20
-13.8729608984145
30
0
41
1
10
104.016438925677
20
-13.940169868113
30
0
41
1
10
104.145171845102
20
-13.9907541898687
30
0
41
1
10
104.188082818244
20
-13.999262677473
30
0
41
1
10
104.252449277957
20
-14.00029976144
30
0
41
1
10
104.273904764528
20
-13.9987021966815
30
0
41
1
10
104.31681573767
20
-13.9914890066231
30
0
41
1
10
104.338271224241
20
-13.9858723474178
30
0
41
1
10
104.445548657096
20
-13.9474084465589
30
0
41
1
10
104.53137060338
20
-13.8833352071553
30
0
41
1
10
104.703014495948
20
-13.6813388769501
30
0
41
1
10
104.788836442231
20
-13.5433816031784
30
0
41
1
10
104.960480334799
20
-13.1890487367544
30
0
41
1
10
105.046302281083
20
-12.9726460798727
30
0
41
1
10
105.217946173651
20
-12.4605464901795
30
0
41
1
10
105.303768119934
20
-12.164836644297
30
0
41
1
10
105.475412012502
20
-11.4975654362429
30
0
41
1
10
105.561233958786
20
-11.1260103118348
30
0
41
1
10
105.732877851354
20
-10.3149263974126
30
0
41
1
10
105.818699797637
20
-9.87542384053893
30
0
41
1
10
105.990343690205
20
-8.94026941310534
30
0
41
1
10
106.076165636489
20
-8.44465961960194
30
0
41
1
10
106.247809529057
20
-7.41201609034562
30
0
41
1
10
106.33363147534
20
-6.87503218658108
30
0
41
1
10
106.505275367908
20
-5.77585401147212
30
0
41
1
10
106.591097314192
20
-5.2137078782593
30
0
41
1
10
106.76274120676
20
-4.08040088069993
30
0
41
1
10
106.848563153044
20
-3.50927854434957
30
0
41
1
10
107.020207045611
20
-2.37286866580666
30
0
41
1
10
107.106028991895
20
-1.80760559685777
30
0
41
1
10
107.234761911321
20
-0.973495686787913
30
0
41
1
10
107.277672884463
20
-0.697736280738354
30
0
41
1
10
107.342039344176
20
-0.288491025848003
30
0
41
1
10
107.363494830746
20
-0.152806847543985
30
0
41
1
10
107.406405803888
20
0.116953688189511
30
0
41
1
10
107.427861290459
20
0.252367636679395
30
0
41
1
10
107.535138723314
20
0.933792719709004
30
0
41
1
10
107.620960669598
20
1.49084527633758
30
0
41
1
10
107.792604562166
20
2.61769942329573
30
0
41
1
10
107.87842650845
20
3.18748432970193
30
0
41
1
10
108.050070401017
20
4.32609490822634
30
0
41
1
10
108.135892347301
20
4.89488909025337
30
0
41
1
10
108.307536239869
20
6.01590484619945
30
0
41
1
10
108.393358186152
20
6.56808250442762
30
0
41
1
10
108.56500207872
20
7.63949102187664
30
0
41
1
10
108.650824025004
20
8.15867179031375
30
0
41
1
10
108.822467917572
20
9.14838950258365
30
0
41
1
10
108.908289863856
20
9.61887915386299
30
0
41
1
10
109.079933756423
20
10.4976920455548
30
0
41
1
10
109.165755702707
20
10.9059799655021
30
0
41
1
10
109.337399595275
20
11.6503148383847
30
0
41
1
10
109.423221541559
20
11.9863449000117
30
0
41
1
10
109.594865434126
20
12.5803419683666
30
0
41
1
10
109.68068738041
20
12.8383122886602
30
0
41
1
10
109.852331272978
20
13.2748259465959
30
0
41
1
10
109.938153219262
20
13.4533897651771
30
0
41
1
10
110.109797111829
20
13.7338118878142
30
0
41
1
10
110.195619058113
20
13.8357015673381
30
0
41
1
10
110.367262950681
20
13.9687780705056
30
0
41
1
10
110.453084896965
20
14
30
0
41
1
10
110.538906843248
20
14
30
0
0
SPLINE
5
EA
100
AcDbEntity
8
1
62
256
6
ByLayer
370
13
48
1
60
0
100
AcDbSpline
70
4
71
3
72
78
73
74
40
0
40
0
40
0
40
0
40
0.0312500000000003
40
0.0312500000000003
40
0.0625000000000007
40
0.0625000000000007
40
0.093750000000001
40
0.093750000000001
40
0.125000000000001
40
0.125000000000001
40
0.156250000000002
40
0.156250000000002
40
0.187500000000002
40
0.187500000000002
40
0.218750000000002
40
0.218750000000002
40
0.250000000000003
40
0.250000000000003
40
0.281250000000003
40
0.281250000000003
40
0.312500000000003
40
0.312500000000003
40
0.343750000000003
40
0.343750000000003
40
0.375000000000004
40
0.375000000000004
40
0.406250000000004
40
0.406250000000004
40
0.437500000000004
40
0.437500000000004
40
0.453125000000004
40
0.453125000000004
40
0.460937500000004
40
0.460937500000004
40
0.468750000000004
40
0.468750000000004
40
0.500000000000004
40
0.500000000000004
40
0.531250000000003
40
0.531250000000003
40
0.562500000000003
40
0.562500000000003
40
0.593750000000003
40
0.593750000000003
40
0.625000000000002
40
0.625000000000002
40
0.656250000000002
40
0.656250000000002
40
0.687500000000002
40
0.687500000000002
40
0.718750000000002
40
0.718750000000002
40
0.750000000000002
40
0.750000000000002
40
0.781250000000001
40
0.781250000000001
40
0.812500000000001
40
0.812500000000001
40
0.843750000000001
40
0.843750000000001
40
0.875000000000001
40
0.875000000000001
40
0.90625
40
0.90625
40
0.921875
40
0.921875
40
0.9296875
40
0.9296875
40
0.9375
40
0.9375
40
0.96875
40
0.96875
40
1
40
1
40
1
40
1
41
1
10
108.120681306548
20
14
30
0
41
1
10
108.191345217108
20
14
30
0
41
1
10
108.262009127667
20
13.9788491790591
30
0
41
1
10
108.403336948787
20
13.8895874995653
30
0
41
1
10
108.474000859346
20
13.821463330736
30
0
41
1
10
108.615328680466
20
13.6345181412324
30
0
41
1
10
108.685992591025
20
13.5156844060046
30
0
41
1
10
108.827320412145
20
13.2249262742855
30
0
41
1
10
108.897984322704
20
13.052991562082
30
0
41
1
10
109.039312143823
20
12.655333371868
30
0
41
1
10
109.109976054383
20
12.4296038088282
30
0
41
1
10
109.251303875502
20
11.9256065141069
30
0
41
1
10
109.321967786062
20
11.647338378932
30
0
41
1
10
109.463295607181
20
11.0415656389426
30
0
41
1
10
109.533959517741
20
10.7140669778183
30
0
41
1
10
109.67528733886
20
10.0151045451464
30
0
41
1
10
109.74595124942
20
9.64365268685921
30
0
41
1
10
109.887279070539
20
8.86375448242956
30
0
41
1
10
109.957942981099
20
8.45532459834664
30
0
41
1
10
110.099270802218
20
7.60970813618479
30
0
41
1
10
110.169934712778
20
7.17254038810449
30
0
41
1
10
110.311262533897
20
6.27841475265743
30
0
41
1
10
110.381926444456
20
5.82147560482022
30
0
41
1
10
110.523254265576
20
4.89692934463261
30
0
41
1
10
110.593918176135
20
4.42933866926941
30
0
41
1
10
110.735245997255
20
3.49223132763382
30
0
41
1
10
110.805909907814
20
3.02272723344373
30
0
41
1
10
110.947237728934
20
2.0897143341567
30
0
41
1
10
111.017901639493
20
1.62621350790971
30
0
41
1
10
111.123897505333
20
0.940551442096876
30
0
41
1
10
111.159229460613
20
0.713586061688346
30
0
41
1
10
111.212227393532
20
0.37606611091357
30
0
41
1
10
111.229893371172
20
0.264046835791504
30
0
41
1
10
111.265225326452
20
0.0410660903076518
30
0
41
1
10
111.282891304092
20
-0.0696750813469009
30
0
41
1
10
111.371221192291
20
-0.627578917787417
30
0
41
1
10
111.441885102851
20
-1.08236081358527
30
0
41
1
10
111.58321292397
20
-2.00300030043667
30
0
41
1
10
111.65387683453
20
-2.46885325721931
30
0
41
1
10
111.795204655649
20
-3.40452416004214
30
0
41
1
10
111.865868566209
20
-3.87433285623089
30
0
41
1
10
112.007196387328
20
-4.8097436301054
30
0
41
1
10
112.077860297888
20
-5.27533197868803
30
0
41
1
10
112.219188119007
20
-6.19341552777084
30
0
41
1
10
112.289852029567
20
-6.64589347923246
30
0
41
1
10
112.431179850686
20
-7.52862404866286
30
0
41
1
10
112.501843761246
20
-7.95885766467242
30
0
41
1
10
112.643171582365
20
-8.78827309961537
30
0
41
1
10
112.713835492924
20
-9.18743649004097
30
0
41
1
10
112.855163314044
20
-9.94676162239733
30
0
41
1
10
112.925827224603
20
-10.3069079456058
30
0
41
1
10
113.067155045723
20
-10.9816427668505
30
0
41
1
10
113.137818956282
20
-11.2962208723233
30
0
41
1
10
113.279146777401
20
-11.8750511412397
30
0
41
1
10
113.349810687961
20
-12.1392990926757
30
0
41
1
10
113.49113850908
20
-12.6147115902457
30
0
41
1
10
113.56180241964
20
-12.8258781872097
30
0
41
1
10
113.703130240759
20
-13.194412869955
30
0
41
1
10
113.773794151319
20
-13.3517883564602
30
0
41
1
10
113.915121972438
20
-13.613921908034
30
0
41
1
10
113.985785882998
20
-13.7186911267673
30
0
41
1
10
114.127113704117
20
-13.8784044284326
30
0
41
1
10
114.197777614677
20
-13.9333615562567
30
0
41
1
10
114.303773480516
20
-13.9814532866189
30
0
41
1
10
114.339105435796
20
-13.9917683007584
30
0
41
1
10
114.392103368716
20
-13.9991063892302
30
0
41
1
10
114.409769346356
20
-14.0001975756409
30
0
41
1
10
114.445101301636
20
-13.9997441077169
30
0
41
1
10
114.462767279275
20
-13.9981938566238
30
0
41
1
10
114.551097167475
20
-13.9836332950388
30
0
41
1
10
114.621761078034
20
-13.9501626472313
30
0
41
1
10
114.763088899154
20
-13.8351365174388
30
0
41
1
10
114.833752809713
20
-13.7535677235475
30
0
41
1
10
114.904416720273
20
-13.6462512000481
30
0
0
SPLINE
5
EB
100
AcDbEntity
8
1
62
256
6
ByLayer
370
13
48
1
60
0
100
AcDbSpline
70
4
71
3
72
74
73
70
40
0
40
0
40
0
40
0
40
0.0312500000000002
40
0.0312500000000002
40
0.0625000000000003
40
0.0625000000000003
40
0.0937500000000005
40
0.0937500000000005
40
0.125000000000001
40
0.125000000000001
40
0.156250000000001
40
0.156250000000001
40
0.171875000000001
40
0.171875000000001
40
0.187500000000001
40
0.187500000000001
40
0.218750000000001
40
0.218750000000001
40
0.250000000000001
40
0.250000000000001
40
0.281250000000001
40
0.281250000000001
40
0.312500000000001
40
0.312500000000001
40
0.34375
40
0.34375
40
0.375
40
0.375
40
0.40625
40
0.40625
40
0.4375
40
0.4375
40
0.46875
40
0.46875
40
0.5
40
0.5
40
0.53125
40
0.53125
40
0.5625
40
0.5625
40
0.578125000000001
40
0.578125000000001
40
0.593750000000001
40
0.593750000000001
40
0.625000000000001
40
0.625000000000001
40
0.65625
40
0.65625
40
0.6875
40
0.6875
40
0.71875
40
0.71875
40
0.75
40
0.75
40
0.78125
40
0.78125
40
0.8125
40
0.8125
40
0.84375
40
0.84375
40
0.875
40
0.875
40
0.90625
40
0.90625
40
0.9375
40
0.9375
40
0.96875
40
0.96875
40
1
40
1
40
1
40
1
41
1
10
102.3
20
-10.5227965898837
30
0
41
1
10
102.380769272086
20
-10.914544898036
30
0
41
1
10
102.461538544171
20
-11.2769396387421
30
0
41
1
10
102.623077088342
20
-11.9357995039245
30
0
41
1
10
102.703846360428
20
-12.2322567114223
30
0
41
1
10
102.865384904599
20
-12.7554123512986
30
0
41
1
10
102.946154176685
20
-12.9821166655433
30
0
41
1
10
103.107692720856
20
-13.3654019538478
30
0
41
1
10
103.188461992942
20
-13.5219999592981
30
0
41
1
10
103.350000537113
20
-13.7678164171228
30
0
41
1
10
103.430769809199
20
-13.8570586981936
30
0
41
1
10
103.551923717327
20
-13.9443034649568
30
0
41
1
10
103.59230835337
20
-13.9656322793756
30
0
41
1
10
103.673077625456
20
-13.9936022039293
30
0
41
1
10
103.713462261499
20
-14.0002444172575
30
0
41
1
10
103.834616169627
20
-13.9994905889122
30
0
41
1
10
103.915385441713
20
-13.9713076267811
30
0
41
1
10
104.076923985884
20
-13.8527226683929
30
0
41
1
10
104.15769325797
20
-13.7622947197029
30
0
41
1
10
104.319231802141
20
-13.5140324866505
30
0
41
1
10
104.400001074226
20
-13.3561744545567
30
0
41
1
10
104.561539618398
20
-12.970346066974
30
0
41
1
10
104.642308890484
20
-12.7423588472147
30
0
41
1
10
104.803847434655
20
-12.2166751242541
30
0
41
1
10
104.88461670674
20
-11.9189729738764
30
0
41
1
10
105.046155250912
20
-11.2577249791935
30
0
41
1
10
105.126924522997
20
-10.8941873111454
30
0
41
1
10
105.288463067168
20
-10.1085662817948
30
0
41
1
10
105.369232339254
20
-9.68650471064959
30
0
41
1
10
105.530770883426
20
-8.79411291035015
30
0
41
1
10
105.611540155511
20
-8.32381481307496
30
0
41
1
10
105.773078699682
20
-7.34738170381138
30
0
41
1
10
105.853847971768
20
-6.8412836419771
30
0
41
1
10
106.015386515939
20
-5.80677783237553
30
0
41
1
10
106.096155788025
20
-5.27840565416795
30
0
41
1
10
106.257694332196
20
-4.21286260067834
30
0
41
1
10
106.338463604282
20
-3.67572071957588
30
0
41
1
10
106.500002148453
20
-2.60514594518827
30
0
41
1
10
106.580771420539
20
-2.07173241116811
30
0
41
1
10
106.701925328667
20
-1.28247093124151
30
0
41
1
10
106.74230996471
20
-1.02117823102711
30
0
41
1
10
106.823079236796
20
-0.503325399004552
30
0
41
1
10
106.863463872838
20
-0.246867998190226
30
0
41
1
10
106.984617780967
20
0.514521075432469
30
0
41
1
10
107.065387053053
20
1.03362116874186
30
0
41
1
10
107.226925597224
20
2.08622945586339
30
0
41
1
10
107.30769486931
20
2.61972848493832
30
0
41
1
10
107.469233413481
20
3.69036756033617
30
0
41
1
10
107.550002685566
20
4.22748815330203
30
0
41
1
10
107.711541229738
20
5.29286901630664
30
0
41
1
10
107.792310501823
20
5.82110021481839
30
0
41
1
10
107.953849045995
20
6.85519946957012
30
0
41
1
10
108.03461831808
20
7.36103191764468
30
0
41
1
10
108.196156862251
20
8.33681398893594
30
0
41
1
10
108.276926134337
20
8.80672667757293
30
0
41
1
10
108.438464678508
20
9.69824279634381
30
0
41
1
10
108.519233950594
20
10.1198141661797
30
0
41
1
10
108.680772494765
20
10.9043737201946
30
0
41
1
10
108.761541766851
20
11.267340227699
30
0
41
1
10
108.923080311022
20
11.9273946201667
30
0
41
1
10
109.003849583108
20
12.2244744585058
30
0
41
1
10
109.165388127279
20
12.7488943138288
30
0
41
1
10
109.246157399365
20
12.9762400954467
30
0
41
1
10
109.407695943536
20
13.3607968327452
30
0
41
1
10
109.488465215622
20
13.5180247364411
30
0
41
1
10
109.650003759793
20
13.7650637483983
30
0
41
1
10
109.730773031879
20
13.8548986450711
30
0
41
1
10
109.89231157605
20
13.9723537944711
30
0
41
1
10
109.973080848136
20
14
30
0
41
1
10
110.053850120221
20
14
30
0
0
SPLINE
5
EC
100
AcDbEntity
8
1
62
256
6
ByLayer
370
13
48
1
60
0
100
AcDbSpline
70
4
71
3
72
78
73
74
40
0
40
0
40
0
40
0
40
0.0312500000000004
40
0.0312500000000004
40
0.0625000000000008
40
0.0625000000000008
40
0.0937500000000012
40
0.0937500000000012
40
0.125000000000002
40
0.125000000000002
40
0.156250000000002
40
0.156250000000002
40
0.187500000000002
40
0.187500000000002
40
0.218750000000003
40
0.218750000000003
40
0.250000000000003
40
0.250000000000003
40
0.281250000000004
40
0.281250000000004
40
0.312500000000004
40
0.312500000000004
40
0.343750000000004
40
0.343750000000004
40
0.375000000000005
40
0.375000000000005
40
0.406250000000005
40
0.406250000000005
40
0.421875000000005
40
0.421875000000005
40
0.429687500000006
40
0.429687500000006
40
0.437500000000006
40
0.437500000000006
40
0.468750000000006
40
0.468750000000006
40
0.500000000000005
40
0.500000000000005
40
0.531250000000005
40
0.531250000000005
40
0.562500000000005
40
0.562500000000005
40
0.593750000000005
40
0.593750000000005
40
0.625000000000005
40
0.625000000000005
40
0.656250000000005
40
0.656250000000005
40
0.687500000000004
40
0.687500000000004
40
0.718750000000004
40
0.718750000000004
40
0.750000000000004
40
0.750000000000004
40
0.781250000000004
40
0.781250000000004
40
0.812500000000004
40
0.812500000000004
40
0.843750000000004
40
0.843750000000004
40
0.859375000000003
40
0.859375000000003
40
0.867187500000003
40
0.867187500000003
40
0.875000000000003
40
0.875000000000003
40
0.906250000000002
40
0.906250000000002
40
0.937500000000002
40
0.937500000000002
40
0.968750000000001
40
0.968750000000001
40
1
40
1
40
1
40
1
41
1
10
107.635624583521
20
14
30
0
41
1
10
107.711341168279
20
14
30
0
41
1
10
107.787057753037
20
13.9757107027168
30
0
41
1
10
107.938490922552
20
13.8728577603987
30
0
41
1
10
108.01420750731
20
13.7942753145482
30
0
41
1
10
108.165640676826
20
13.5783902302509
30
0
41
1
10
108.241357261584
20
13.4410699738244
30
0
41
1
10
108.392790431099
20
13.1051049386352
30
0
41
1
10
108.468507015857
20
12.9064466806584
30
0
41
1
10
108.619940185373
20
12.4475210904974
30
0
41
1
10
108.695656770131
20
12.1872473013384
30
0
41
1
10
108.847089939646
20
11.6074357159207
30
0
41
1
10
108.922806524404
20
11.287900522097
30
0
41
1
10
109.07423969392
20
10.5946053529173
30
0
41
1
10
109.149956278678
20
10.2208575373408
30
0
41
1
10
109.301389448193
20
9.4266492603137
30
0
41
1
10
109.377106032951
20
9.00620915402337
30
0
41
1
10
109.528539202467
20
8.12810650909765
30
0
41
1
10
109.604255787225
20
7.67046953036237
30
0
41
1
10
109.75568895674
20
6.72873976263793
30
0
41
1
10
109.831405541498
20
6.24467385472482
30
0
41
1
10
109.982838711014
20
5.2613271098634
30
0
41
1
10
110.058555295772
20
4.76207067051712
30
0
41
1
10
110.209988465287
20
3.75927452361847
30
0
41
1
10
110.285705050045
20
3.25575385691599
30
0
41
1
10
110.437138219561
20
2.25439009607626
30
0
41
1
10
110.512854804319
20
1.75655921043321
30
0
41
1
10
110.626429681456
20
1.02045874557763
30
0
41
1
10
110.664287973834
20
0.776853851571161
30
0
41
1
10
110.721075412403
20
0.414768058835193
30
0
41
1
10
110.740004558592
20
0.294625538708232
30
0
41
1
10
110.777862850971
20
0.0555488252027203
30
0
41
1
10
110.796791997161
20
-0.063085319978569
30
0
41
1
10
110.891437728108
20
-0.660904315947477
30
0
41
1
10
110.967154312866
20
-1.1488774233685
30
0
41
1
10
111.118587482381
20
-2.13701337522971
30
0
41
1
10
111.194304067139
20
-2.63716921165496
30
0
41
1
10
111.345737236655
20
-3.64076584117061
30
0
41
1
10
111.421453821413
20
-4.14419262294524
30
0
41
1
10
111.572886990928
20
-5.14408246828225
30
0
41
1
10
111.648603575686
20
-5.64052492414004
30
0
41
1
10
111.800036745202
20
-6.61537578643035
30
0
41
1
10
111.87575332996
20
-7.09375883941559
30
0
41
1
10
112.027186499475
20
-8.02129699916264
30
0
41
1
10
112.102903084233
20
-8.47042518037088
30
0
41
1
10
112.254336253749
20
-9.32893378953455
30
0
41
1
10
112.330052838507
20
-9.73828963629285
30
0
41
1
10
112.481486008023
20
-10.5081960429348
30
0
41
1
10
112.55720259278
20
-10.8687281107318
30
0
41
1
10
112.708635762296
20
-11.5340517396313
30
0
41
1
10
112.784352347054
20
-11.8388335257469
30
0
41
1
10
112.935785516569
20
-12.3882764719074
30
0
41
1
10
113.011502101327
20
-12.6329374600992
30
0
41
1
10
113.162935270843
20
-13.0604646390358
30
0
41
1
10
113.238651855601
20
-13.2433393203733
30
0
41
1
10
113.390085025116
20
-13.5481956136617
30
0
41
1
10
113.465801609874
20
-13.6701920511036
30
0
41
1
10
113.61723477939
20
-13.8564096875725
30
0
41
1
10
113.692951364148
20
-13.920649074772
30
0
41
1
10
113.806526241285
20
-13.9772969101106
30
0
41
1
10
113.844384533663
20
-13.9895725593269
30
0
41
1
10
113.901171972232
20
-13.9986110384972
30
0
41
1
10
113.920101118421
20
-14.0000619103963
30
0
41
1
10
113.9579594108
20
-13.9999340461701
30
0
41
1
10
113.97688855699
20
-13.9983533695149
30
0
41
1
10
114.071534287937
20
-13.982630209655
30
0
41
1
10
114.147250872695
20
-13.9449849853772
30
0
41
1
10
114.29868404221
20
-13.8141405019313
30
0
41
1
10
114.374400626968
20
-13.7209224843794
30
0
41
1
10
114.525833796484
20
-13.474905316337
30
0
41
1
10
114.601550381242
20
-13.3220893138109
30
0
41
1
10
114.752983550758
20
-12.9548237104925
30
0
41
1
10
114.828700135515
20
-12.7403621687675
30
0
41
1
10
114.904416720273
20
-12.4952667734238
30
0
0
SPLINE
5
ED
100
AcDbEntity
8
1
62
256
6
ByLayer
370
13
48
1
60
0
100
AcDbSpline
70
4
71
3
72
78
73
74
40
0
40
0
40
0
40
0
40
0.0312500000000004
40
0.0312500000000004
40
0.0625000000000008
40
0.0625000000000008
40
0.0937500000000012
40
0.0937500000000012
40
0.125000000000001
40
0.125000000000001
40
0.132812500000002
40
0.132812500000002
40
0.140625000000002
40
0.140625000000002
40
0.156250000000002
40
0.156250000000002
40
0.187500000000002
40
0.187500000000002
40
0.218750000000002
40
0.218750000000002
40
0.250000000000003
40
0.250000000000003
40
0.281250000000003
40
0.281250000000003
40
0.312500000000003
40
0.312500000000003
40
0.343750000000004
40
0.343750000000004
40
0.375000000000004
40
0.375000000000004
40
0.406250000000004
40
0.406250000000004
40
0.437500000000005
40
0.437500000000005
40
0.468750000000005
40
0.468750000000005
40
0.500000000000005
40
0.500000000000005
40
0.531250000000006
40
0.531250000000006
40
0.562500000000006
40
0.562500000000006
40
0.570312500000006
40
0.570312500000006
40
0.578125000000006
40
0.578125000000006
40
0.593750000000006
40
0.593750000000006
40
0.625000000000006
40
0.625000000000006
40
0.656250000000005
40
0.656250000000005
40
0.687500000000005
40
0.687500000000005
40
0.718750000000004
40
0.718750000000004
40
0.750000000000004
40
0.750000000000004
40
0.781250000000003
40
0.781250000000003
40
0.812500000000003
40
0.812500000000003
40
0.843750000000002
40
0.843750000000002
40
0.875000000000002
40
0.875000000000002
40
0.906250000000001
40
0.906250000000001
40
0.937500000000001
40
0.937500000000001
40
0.96875
40
0.96875
40
1
40
1
40
1
40
1
41
1
10
102.3
20
-12.4952626933578
30
0
41
1
10
102.375716597887
20
-12.7403584699728
30
0
41
1
10
102.451433195775
20
-12.9548203869679
30
0
41
1
10
102.60286639155
20
-13.3220867145761
30
0
41
1
10
102.678582989437
20
-13.4749030660979
30
0
41
1
10
102.830016185212
20
-13.7209208951689
30
0
41
1
10
102.905732783099
20
-13.8141392247506
30
0
41
1
10
103.057165978874
20
-13.9449842886081
30
0
41
1
10
103.132882576762
20
-13.9826297812815
30
0
41
1
10
103.227528324121
20
-13.9983532475829
30
0
41
1
10
103.246457473593
20
-13.9999339840822
30
0
41
1
10
103.284315772537
20
-14.0000619650975
30
0
41
1
10
103.303244922009
20
-13.9986111518388
30
0
41
1
10
103.360032370424
20
-13.9895728498519
30
0
41
1
10
103.397890669368
20
-13.9772973201419
30
0
41
1
10
103.511465566199
20
-13.920649846029
30
0
41
1
10
103.587182164086
20
-13.8564107033049
30
0
41
1
10
103.738615359861
20
-13.6701935540646
30
0
41
1
10
103.814331957749
20
-13.5481973593519
30
0
41
1
10
103.965765153524
20
-13.2433415394398
30
0
41
1
10
104.041481751411
20
-13.0604670887155
30
0
41
1
10
104.192914947186
20
-12.6329403481478
30
0
41
1
10
104.268631545073
20
-12.3882795676725
30
0
41
1
10
104.420064740848
20
-11.8388370040167
30
0
41
1
10
104.495781338736
20
-11.5340553926519
30
0
41
1
10
104.647214534511
20
-10.8687320721385
30
0
41
1
10
104.722931132398
20
-10.508200137949
30
0
41
1
10
104.874364328173
20
-9.73829395210913
30
0
41
1
10
104.95008092606
20
-9.3289381925334
30
0
41
1
10
105.101514121835
20
-8.47042970952876
30
0
41
1
10
105.177230719723
20
-8.0213015673032
30
0
41
1
10
105.328663915498
20
-7.09376343911651
30
0
41
1
10
105.404380513385
20
-6.61538037873117
30
0
41
1
10
105.55581370916
20
-5.64052946019197
30
0
41
1
10
105.631530307047
20
-5.14408695551779
30
0
41
1
10
105.782963502822
20
-4.1441969783676
30
0
41
1
10
105.85868010071
20
-3.64077011363148
30
0
41
1
10
106.010113296484
20
-2.63717329254908
30
0
41
1
10
106.085829894372
20
-2.13701734755023
30
0
41
1
10
106.237263090147
20
-1.1488811616756
30
0
41
1
10
106.312979688034
20
-0.660907928838469
30
0
41
1
10
106.407625435393
20
-0.0630887706665817
30
0
41
1
10
106.426554584865
20
0.0555453957912846
30
0
41
1
10
106.464412883809
20
0.294622127716508
30
0
41
1
10
106.483342033281
20
0.414764657736896
30
0
41
1
10
106.540129481697
20
0.776850482221477
30
0
41
1
10
106.57798778064
20
1.02045540015422
30
0
41
1
10
106.691562677471
20
1.75655594511284
30
0
41
1
10
106.767279275359
20
2.25438689530995
30
0
41
1
10
106.918712471134
20
3.25575080660505
30
0
41
1
10
106.994429069021
20
3.75927155921292
30
0
41
1
10
107.145862264796
20
4.76206789657178
30
0
41
1
10
107.221578862683
20
5.26132444046843
30
0
41
1
10
107.373012058458
20
6.24467140861552
30
0
41
1
10
107.448728656346
20
6.72873743524994
30
0
41
1
10
107.600161852121
20
7.67046744864393
30
0
41
1
10
107.675878450008
20
8.12810455430517
30
0
41
1
10
107.827311645783
20
9.00620745440767
30
0
41
1
10
107.90302824367
20
9.42664768892206
30
0
41
1
10
108.054461439445
20
10.2208562166262
30
0
41
1
10
108.130178037333
20
10.5946041546297
30
0
41
1
10
108.281611233107
20
11.2878995564147
30
0
41
1
10
108.357327830995
20
11.6074348603965
30
0
41
1
10
108.50876102677
20
12.1872466487328
30
0
41
1
10
108.584477624657
20
12.4475205306418
30
0
41
1
10
108.735910820432
20
12.9064462855565
30
0
41
1
10
108.81162741832
20
13.105104615537
30
0
41
1
10
108.963060614094
20
13.4410697726018
30
0
41
1
10
109.038777211982
20
13.578390078909
30
0
41
1
10
109.190210407757
20
13.7942752412773
30
0
41
1
10
109.265927005644
20
13.8728577153323
30
0
41
1
10
109.417360201419
20
13.9757106942777
30
0
41
1
10
109.493076799306
20
14
30
0
41
1
10
109.568793397194
20
14
30
0
0
SPLINE
5
EE
100
AcDbEntity
8
1
62
256
6
ByLayer
370
13
48
1
60
0
100
AcDbSpline
70
4
71
3
72
74
73
70
40
0
40
0
40
0
40
0
40
0.0312500000000001
40
0.0312500000000001
40
0.0625000000000001
40
0.0625000000000001
40
0.0937500000000002
40
0.0937500000000002
40
0.125
40
0.125
40
0.15625
40
0.15625
40
0.1875
40
0.1875
40
0.21875
40
0.21875
40
0.250000000000001
40
0.250000000000001
40
0.281250000000001
40
0.281250000000001
40
0.312500000000001
40
0.312500000000001
40
0.343750000000001
40
0.343750000000001
40
0.375000000000001
40
0.375000000000001
40
0.406250000000001
40
0.406250000000001
40
0.421875000000001
40
0.421875000000001
40
0.437500000000001
40
0.437500000000001
40
0.468750000000001
40
0.468750000000001
40
0.500000000000001
40
0.500000000000001
40
0.531250000000002
40
0.531250000000002
40
0.562500000000002
40
0.562500000000002
40
0.593750000000002
40
0.593750000000002
40
0.625000000000002
40
0.625000000000002
40
0.656250000000002
40
0.656250000000002
40
0.687500000000002
40
0.687500000000002
40
0.718750000000002
40
0.718750000000002
40
0.750000000000002
40
0.750000000000002
40
0.781250000000002
40
0.781250000000002
40
0.812500000000002
40
0.812500000000002
40
0.828125000000002
40
0.828125000000002
40
0.843750000000002
40
0.843750000000002
40
0.875000000000002
40
0.875000000000002
40
0.906250000000001
40
0.906250000000001
40
0.937500000000001
40
0.937500000000001
40
0.96875
40
0.96875
40
1
40
1
40
1
40
1
41
1
10
107.150567860494
20
14
30
0
41
1
10
107.23133711945
20
14
30
0
41
1
10
107.312106378406
20
13.9723538034783
30
0
41
1
10
107.473644896318
20
13.8548986933433
30
0
41
1
10
107.554414155274
20
13.7650638269494
30
0
41
1
10
107.715952673186
20
13.5180248988373
30
0
41
1
10
107.796721932142
20
13.3607970487254
30
0
41
1
10
107.958260450054
20
12.9762404420776
30
0
41
1
10
108.03902970901
20
12.7488947375357
30
0
41
1
10
108.200568226922
20
12.2244750577755
30
0
41
1
10
108.281337485878
20
11.9273953179195
30
0
41
1
10
108.44287600379
20
11.2673411393918
30
0
41
1
10
108.523645262746
20
10.9043747473263
30
0
41
1
10
108.685183780658
20
10.1198154346877
30
0
41
1
10
108.765953039614
20
9.69824419075943
30
0
41
1
10
108.927491557526
20
8.80672832652073
30
0
41
1
10
109.008260816483
20
8.33681576647339
30
0
41
1
10
109.169799334395
20
7.36103394698912
30
0
41
1
10
109.250568593351
20
6.85520162209977
30
0
41
1
10
109.412107111263
20
5.82110260098713
30
0
41
1
10
109.492876370219
20
5.29287151290666
30
0
41
1
10
109.654414888131
20
4.22749085225152
30
0
41
1
10
109.735184147087
20
3.69037035119408
30
0
41
1
10
109.896722664999
20
2.61973143739201
30
0
41
1
10
109.977491923955
20
2.08623247800713
30
0
41
1
10
110.139030441867
20
1.03362430651205
30
0
41
1
10
110.219799700823
20
0.514524259150932
30
0
41
1
10
110.340953589257
20
-0.246864763057062
30
0
41
1
10
110.381338218735
20
-0.503322052503563
30
0
41
1
10
110.462107477691
20
-1.02117475890472
30
0
41
1
10
110.502492107169
20
-1.28246739789446
30
0
41
1
10
110.623645995603
20
-2.07172870067251
30
0
41
1
10
110.704415254559
20
-2.60514212528776
30
0
41
1
10
110.865953772471
20
-3.67571670815835
30
0
41
1
10
110.946723031427
20
-4.21285850718957
30
0
41
1
10
111.10826154934
20
-5.27840143351168
30
0
41
1
10
111.189030808296
20
-5.8067735666686
30
0
41
1
10
111.350569326208
20
-6.84127933121582
30
0
41
1
10
111.431338585164
20
-7.34737739308702
30
0
41
1
10
111.592877103076
20
-8.3238105525989
30
0
41
1
10
111.673646362032
20
-8.79410870011051
30
0
41
1
10
111.835184879944
20
-9.68650065221567
30
0
41
1
10
111.9159541389
20
-10.108562324932
30
0
41
1
10
112.077492656812
20
-10.8941836055202
30
0
41
1
10
112.158261915768
20
-11.257721423212
30
0
41
1
10
112.31980043368
20
-11.9189697579599
30
0
41
1
10
112.400569692636
20
-12.2166720987172
30
0
41
1
10
112.562108210548
20
-12.7423562328177
30
0
41
1
10
112.642877469504
20
-12.9703436732865
30
0
41
1
10
112.804415987416
20
-13.3561725206263
30
0
41
1
10
112.885185246372
20
-13.5140307917194
30
0
41
1
10
113.046723764284
20
-13.7622935089462
30
0
41
1
10
113.12749302324
20
-13.8527217027744
30
0
41
1
10
113.289031541152
20
-13.9713071466365
30
0
41
1
10
113.369800800108
20
-13.9994903490819
30
0
41
1
10
113.490954688543
20
-14.0002445276123
30
0
41
1
10
113.531339318021
20
-13.9936024366413
30
0
41
1
10
113.612108576977
20
-13.9656327695862
30
0
41
1
10
113.652493206455
20
-13.9443040900306
30
0
41
1
10
113.773647094889
20
-13.857059745563
30
0
41
1
10
113.854416353845
20
-13.7678177697829
30
0
41
1
10
114.015954871757
20
-13.522001963203
30
0
41
1
10
114.096724130713
20
-13.365404303706
30
0
41
1
10
114.258262648625
20
-12.9821197362728
30
0
41
1
10
114.339031907581
20
-12.7554157969166
30
0
41
1
10
114.500570425493
20
-12.2322609196285
30
0
41
1
10
114.581339684449
20
-11.9358040997723
30
0
41
1
10
114.742878202361
20
-11.276945003394
30
0
41
1
10
114.823647461317
20
-10.9145506437723
30
0
41
1
10
114.904416720273
20
-10.5228027032939
30
0
0
SPLINE
5
EF
100
AcDbEntity
8
1
62
256
6
ByLayer
370
13
48
1
60
0
100
AcDbSpline
70
4
71
3
72
77
73
73
40
0
40
0
40
0
40
0
40
0.0312500000000002
40
0.0312500000000002
40
0.0625000000000005
40
0.0625000000000005
40
0.0703125000000006
40
0.0703125000000006
40
0.0781250000000008
40
0.0781250000000008
40
0.093750000000001
40
0.093750000000001
40
0.125000000000001
40
0.125000000000001
40
0.156250000000001
40
0.156250000000001
40
0.187500000000002
40
0.187500000000002
40
0.218750000000002
40
0.218750000000002
40
0.250000000000002
40
0.250000000000002
40
0.281250000000003
40
0.281250000000003
40
0.312500000000003
40
0.312500000000003
40
0.343750000000003
40
0.343750000000003
40
0.375000000000003
40
0.375000000000003
40
0.406250000000004
40
0.406250000000004
40
0.437500000000004
40
0.437500000000004
40
0.468750000000004
40
0.468750000000004
40
0.500000000000004
40
0.500000000000004
40
0.531250000000004
40
0.531250000000004
40
0.539062500000005
40
0.539062500000005
40
0.546875000000005
40
0.562500000000005
40
0.562500000000005
40
0.593750000000005
40
0.593750000000005
40
0.625000000000004
40
0.625000000000004
40
0.656250000000004
40
0.656250000000004
40
0.687500000000003
40
0.687500000000003
40
0.718750000000003
40
0.718750000000003
40
0.750000000000003
40
0.750000000000003
40
0.781250000000002
40
0.781250000000002
40
0.812500000000002
40
0.812500000000002
40
0.843750000000002
40
0.843750000000002
40
0.875000000000001
40
0.875000000000001
40
0.906250000000001
40
0.906250000000001
40
0.937500000000001
40
0.937500000000001
40
0.96875
40
0.96875
40
1
40
1
40
1
40
1
41
1
10
102.3
20
-13.6462492858261
30
0
41
1
10
102.370663923689
20
-13.7535661348012
30
0
41
1
10
102.441327847379
20
-13.8351352364064
30
0
41
1
10
102.582655694757
20
-13.9501619406391
30
0
41
1
10
102.653319618446
20
-13.9836328551844
30
0
41
1
10
102.741649523058
20
-13.9981937230986
30
0
41
1
10
102.75931550398
20
-13.9997440341099
30
0
41
1
10
102.794647465825
20
-14.0001976191647
30
0
41
1
10
102.812313446747
20
-13.9991064911409
30
0
41
1
10
102.865311389514
20
-13.9917685795898
30
0
41
1
10
102.900643351358
20
-13.9814536847149
30
0
41
1
10
103.006639236892
20
-13.9333623148551
30
0
41
1
10
103.077303160582
20
-13.8784054310189
30
0
41
1
10
103.21863100796
20
-13.7186926169011
30
0
41
1
10
103.289294931649
20
-13.6139236417101
30
0
41
1
10
103.430622779028
20
-13.3517905679116
30
0
41
1
10
103.501286702717
20
-13.1944153156149
30
0
41
1
10
103.642614550096
20
-12.8258810825982
30
0
41
1
10
103.713278473785
20
-12.6147147011251
30
0
41
1
10
103.854606321163
20
-12.1393026067902
30
0
41
1
10
103.925270244852
20
-11.8750548430687
30
0
41
1
10
104.066598092231
20
-11.2962249139962
30
0
41
1
10
104.13726201592
20
-10.9816469606282
30
0
41
1
10
104.278589863299
20
-10.3069124022231
30
0
41
1
10
104.349253786988
20
-9.94676618973438
30
0
41
1
10
104.490581634366
20
-9.18744123432867
30
0
41
1
10
104.561245558056
20
-8.7882779101314
30
0
41
1
10
104.702573405434
20
-7.95886256297635
30
0
41
1
10
104.773237329123
20
-7.5286289685364
30
0
41
1
10
104.914565176502
20
-6.64589840022279
30
0
41
1
10
104.985229100191
20
-6.19342042832844
30
0
41
1
10
105.126556947569
20
-5.27533680136776
30
0
41
1
10
105.197220871259
20
-4.8097483953658
30
0
41
1
10
105.338548718637
20
-3.87433747630959
30
0
41
1
10
105.409212642326
20
-3.4045286923851
30
0
41
1
10
105.550540489705
20
-2.46885759127295
30
0
41
1
10
105.621204413394
20
-2.0030045239601
30
0
41
1
10
105.762532260773
20
-1.08236480084719
30
0
41
1
10
105.833196184462
20
-0.627582779335626
30
0
41
1
10
105.921526089073
20
-0.0696787806814712
30
0
41
1
10
105.939192069996
20
0.0410624145758334
30
0
41
1
10
105.97452403184
20
0.264043178307702
30
0
41
1
10
106.027521974607
20
0.600099743283607
30
0
41
1
10
106.080519917374
20
0.9405478489698
30
0
41
1
10
106.186515802908
20
1.62620999269876
30
0
41
1
10
106.257179726597
20
2.08971088129158
30
0
41
1
10
106.398507573976
20
3.02272392538418
30
0
41
1
10
106.469171497665
20
3.49222810203793
30
0
41
1
10
106.610499345043
20
4.42933562662424
30
0
41
1
10
106.681163268733
20
4.89692640247262
30
0
41
1
10
106.822491116111
20
5.82147287811094
30
0
41
1
10
106.8931550398
20
6.27841214090503
30
0
41
1
10
107.034482887179
20
7.17253801590698
30
0
41
1
10
107.105146810868
20
7.60970588857029
30
0
41
1
10
107.246474658246
20
8.45532260376186
30
0
41
1
10
107.317138581936
20
8.86375261627214
30
0
41
1
10
107.458466429314
20
9.64365107522914
30
0
41
1
10
107.529130353003
20
10.0151030595957
30
0
41
1
10
107.670458200382
20
10.7140657361059
30
0
41
1
10
107.741122124071
20
11.041564514971
30
0
41
1
10
107.88244997145
20
11.6473374769191
30
0
41
1
10
107.953113895139
20
11.9256057162994
30
0
41
1
10
108.094441742517
20
12.4296032019688
30
0
41
1
10
108.165105666207
20
12.6553328517459
30
0
41
1
10
108.306433513585
20
13.0529911955686
30
0
41
1
10
108.377097437274
20
13.2249259746455
30
0
41
1
10
108.518425284653
20
13.5156842194298
30
0
41
1
10
108.589089208342
20
13.6345180008571
30
0
41
1
10
108.73041705572
20
13.8214632627009
30
0
41
1
10
108.80108097941
20
13.8895874576819
30
0
41
1
10
108.942408826788
20
13.9788491711871
30
0
41
1
10
109.013072750477
20
14
30
0
41
1
10
109.083736674167
20
14
30
0
0
SPLINE
5
F0
100
AcDbEntity
8
1
62
256
6
ByLayer
370
13
48
1
60
0
100
AcDbSpline
70
4
71
3
72
78
73
74
40
0
40
0
40
0
40
0
40
0.0312500000000003
40
0.0312500000000003
40
0.0625000000000006
40
0.0625000000000006
40
0.0937500000000009
40
0.0937500000000009
40
0.125000000000001
40
0.125000000000001
40
0.156250000000001
40
0.156250000000001
40
0.187500000000002
40
0.187500000000002
40
0.218750000000002
40
0.218750000000002
40
0.250000000000002
40
0.250000000000002
40
0.281250000000003
40
0.281250000000003
40
0.312500000000003
40
0.312500000000003
40
0.343750000000003
40
0.343750000000003
40
0.375000000000004
40
0.375000000000004
40
0.382812500000004
40
0.382812500000004
40
0.390625000000004
40
0.390625000000004
40
0.406250000000003
40
0.406250000000003
40
0.437500000000003
40
0.437500000000003
40
0.468750000000003
40
0.468750000000003
40
0.500000000000003
40
0.500000000000003
40
0.531250000000003
40
0.531250000000003
40
0.562500000000002
40
0.562500000000002
40
0.593750000000002
40
0.593750000000002
40
0.625000000000002
40
0.625000000000002
40
0.656250000000002
40
0.656250000000002
40
0.687500000000002
40
0.687500000000002
40
0.718750000000002
40
0.718750000000002
40
0.750000000000002
40
0.750000000000002
40
0.757812500000001
40
0.757812500000001
40
0.765625000000001
40
0.765625000000001
40
0.781250000000001
40
0.781250000000001
40
0.812500000000001
40
0.812500000000001
40
0.843750000000001
40
0.843750000000001
40
0.875000000000001
40
0.875000000000001
40
0.906250000000001
40
0.906250000000001
40
0.9375
40
0.9375
40
0.96875
40
0.96875
40
1
40
1
40
1
40
1
41
1
10
106.665511137466
20
14
30
0
41
1
10
106.751333070621
20
14
30
0
41
1
10
106.837155003775
20
13.968778080082
30
0
41
1
10
107.008798870083
20
13.8357016188384
30
0
41
1
10
107.094620803238
20
13.7338119716889
30
0
41
1
10
107.266264669546
20
13.4533899387072
30
0
41
1
10
107.3520866027
20
13.2748261774288
30
0
41
1
10
107.523730469009
20
12.8383126588536
30
0
41
1
10
107.609552402163
20
12.580342420627
30
0
41
1
10
107.781196268471
20
11.9863455382338
30
0
41
1
10
107.867018201626
20
11.6503155804921
30
0
41
1
10
108.038662067934
20
10.9059809314926
30
0
41
1
10
108.124484001089
20
10.4976931315147
30
0
41
1
10
108.296127867397
20
9.61888048794034
30
0
41
1
10
108.381949800551
20
9.14839096476749
30
0
41
1
10
108.55359366686
20
8.15867350781249
30
0
41
1
10
108.639415600014
20
7.6394928665396
30
0
41
1
10
108.811059466322
20
6.56808459362989
30
0
41
1
10
108.896881399477
20
6.015907052741
30
0
41
1
10
109.068525265785
20
4.89489151421972
30
0
41
1
10
109.154347198939
20
4.32609743225834
30
0
41
1
10
109.325991065248
20
3.18748703143191
30
0
41
1
10
109.411812998402
20
2.61770220265589
30
0
41
1
10
109.58345686471
20
1.49084818596276
30
0
41
1
10
109.669278797865
20
0.933795681981053
30
0
41
1
10
109.776556214307
20
0.252370649070144
30
0
41
1
10
109.798011697596
20
0.116956688833653
30
0
41
1
10
109.840922664173
20
-0.152803781538836
30
0
41
1
10
109.862378147462
20
-0.288487927442105
30
0
41
1
10
109.926744597327
20
-0.697733086199605
30
0
41
1
10
109.969655563904
20
-0.973492429583757
30
0
41
1
10
110.098388463636
20
-1.80760215787595
30
0
41
1
10
110.18421039679
20
-2.37286511391701
30
0
41
1
10
110.355854263098
20
-3.50927479431292
30
0
41
1
10
110.441676196253
20
-4.08039704547477
30
0
41
1
10
110.613320062561
20
-5.21370391135321
30
0
41
1
10
110.699141995715
20
-5.77584999813166
30
0
41
1
10
110.870785862024
20
-6.8750281282679
30
0
41
1
10
110.956607795178
20
-7.41201203354578
30
0
41
1
10
111.128251661487
20
-8.44465561939353
30
0
41
1
10
111.214073594641
20
-8.94026546800518
30
0
41
1
10
111.385717460949
20
-9.87542006007277
30
0
41
1
10
111.471539394104
20
-10.3149227264705
30
0
41
1
10
111.643183260412
20
-11.1260069099357
30
0
41
1
10
111.729005193566
20
-11.4975621938285
30
0
41
1
10
111.900649059875
20
-12.1648337616994
30
0
41
1
10
111.986470993029
20
-12.4605438078565
30
0
41
1
10
112.158114859338
20
-12.9726438265003
30
0
41
1
10
112.243936792492
20
-13.1890467119929
30
0
41
1
10
112.4155806588
20
-13.5433800501992
30
0
41
1
10
112.501402591955
20
-13.6813375670854
30
0
41
1
10
112.673046458263
20
-13.8833343847299
30
0
41
1
10
112.758868391417
20
-13.9474078684198
30
0
41
1
10
112.86614580786
20
-13.9858720682699
30
0
41
1
10
112.887601291149
20
-13.9914887869612
30
0
41
1
10
112.930512257726
20
-13.9987020952161
30
0
41
1
10
112.951967741014
20
-14.0002997183629
30
0
41
1
10
113.01633419088
20
-13.9992628102693
30
0
41
1
10
113.059245157457
20
-13.990754446496
30
0
41
1
10
113.187978057189
20
-13.9401705156619
30
0
41
1
10
113.273799990343
20
-13.8729618326588
30
0
41
1
10
113.445443856651
20
-13.6644264003736
30
0
41
1
10
113.531265789805
20
-13.5230656311352
30
0
41
1
10
113.702909656114
20
-13.1618027127744
30
0
41
1
10
113.788731589268
20
-12.9418739837382
30
0
41
1
10
113.960375455577
20
-12.4227804560553
30
0
41
1
10
114.046197388731
20
-12.1236035111547
30
0
41
1
10
114.217841255039
20
-11.44965466793
30
0
41
1
10
114.303663188194
20
-11.0748899118878
30
0
41
1
10
114.475307054502
20
-10.2578330128469
30
0
41
1
10
114.561128987656
20
-9.81556792859757
30
0
41
1
10
114.732772853965
20
-8.87548897000619
30
0
41
1
10
114.818594787119
20
-8.37771770838509
30
0
41
1
10
114.904416720273
20
-7.85958353035366
30
0
0
SPLINE
5
F1
100
AcDbEntity
8
1
62
256
6
ByLayer
370
13
48
1
60
0
100
AcDbSpline
70
4
71
3
72
72
73
68
40
0
40
0
40
0
40
0
40
0.0312500000000003
40
0.0312500000000003
40
0.0625000000000007
40
0.0625000000000007
40
0.093750000000001
40
0.093750000000001
40
0.125000000000001
40
0.125000000000001
40
0.156250000000002
40
0.156250000000002
40
0.187500000000002
40
0.187500000000002
40
0.218750000000002
40
0.218750000000002
40
0.250000000000003
40
0.250000000000003
40
0.281250000000003
40
0.281250000000003
40
0.312500000000003
40
0.312500000000003
40
0.343750000000004
40
0.343750000000004
40
0.375000000000004
40
0.375000000000004
40
0.406250000000004
40
0.406250000000004
40
0.437500000000005
40
0.437500000000005
40
0.468750000000005
40
0.468750000000005
40
0.484375000000005
40
0.484375000000005
40
0.500000000000005
40
0.500000000000005
40
0.531250000000005
40
0.531250000000005
40
0.562500000000004
40
0.562500000000004
40
0.593750000000004
40
0.593750000000004
40
0.625000000000004
40
0.625000000000004
40
0.656250000000004
40
0.656250000000004
40
0.687500000000003
40
0.687500000000003
40
0.718750000000003
40
0.718750000000003
40
0.750000000000003
40
0.750000000000003
40
0.781250000000002
40
0.781250000000002
40
0.812500000000002
40
0.812500000000002
40
0.843750000000002
40
0.843750000000002
40
0.875000000000001
40
0.875000000000001
40
0.906250000000001
40
0.906250000000001
40
0.937500000000001
40
0.937500000000001
40
0.96875
40
0.96875
40
1
40
1
40
1
40
1
41
1
10
102.3
20
-13.9999824351278
30
0
41
1
10
102.365611249491
20
-13.9993289788112
30
0
41
1
10
102.431222498982
20
-13.9804091144777
30
0
41
1
10
102.562444997964
20
-13.9022952042518
30
0
41
1
10
102.628056247455
20
-13.843091976092
30
0
41
1
10
102.759278746437
20
-13.6813400409013
30
0
41
1
10
102.824889995928
20
-13.5787824340829
30
0
41
1
10
102.95611249491
20
-13.3282125645578
30
0
41
1
10
103.021723744401
20
-13.1801927435487
30
0
41
1
10
103.152946243383
20
-12.8378025345161
30
0
41
1
10
103.218557492874
20
-12.643427038579
30
0
41
1
10
103.349779991856
20
-12.2088371149631
30
0
41
1
10
103.415391241348
20
-11.9686209839045
30
0
41
1
10
103.54661374033
20
-11.4443746050643
30
0
41
1
10
103.612224989821
20
-11.1603466406522
30
0
41
1
10
103.743447488803
20
-10.5520077014845
30
0
41
1
10
103.809058738294
20
-10.2277030392454
30
0
41
1
10
103.940281237276
20
-9.54371874942666
30
0
41
1
10
104.005892486767
20
-9.18404890583702
30
0
41
1
10
104.137114985749
20
-8.43537504161947
30
0
41
1
10
104.20272623524
20
-8.04638319615657
30
0
41
1
10
104.333948734222
20
-7.24590482838013
30
0
41
1
10
104.399559983713
20
-6.83443147039657
30
0
41
1
10
104.530782482695
20
-5.99624253716041
30
0
41
1
10
104.596393732186
20
-5.56953966024113
30
0
41
1
10
104.727616231168
20
-4.70816356697293
30
0
41
1
10
104.793227480659
20
-4.27350133485433
30
0
41
1
10
104.924449979641
20
-3.40313801576536
30
0
41
1
10
104.990061229132
20
-2.96744534294399
30
0
41
1
10
105.121283728115
20
-2.10131833956669
30
0
41
1
10
105.186894977606
20
-1.67088946427546
30
0
41
1
10
105.285311851842
20
-1.03328024973922
30
0
41
1
10
105.318117476588
20
-0.822075779934011
30
0
41
1
10
105.383728726079
20
-0.402922293654399
30
0
41
1
10
105.416534350824
20
-0.195104881274034
30
0
41
1
10
105.514951225061
20
0.423469713596688
30
0
41
1
10
105.580562474552
20
0.843418466302523
30
0
41
1
10
105.711784973534
20
1.6939437729439
30
0
41
1
10
105.777396223025
20
2.12451773403527
30
0
41
1
10
105.908618722007
20
2.99082906713599
30
0
41
1
10
105.974229971498
20
3.42656093007611
30
0
41
1
10
106.10545247048
20
4.29688330241638
30
0
41
1
10
106.171063719971
20
4.73146534676897
30
0
41
1
10
106.302286218953
20
5.59255279283903
30
0
41
1
10
106.367897468444
20
6.01904717071332
30
0
41
1
10
106.499119967426
20
6.85668782091494
30
0
41
1
10
106.564731216917
20
7.26782137461691
30
0
41
1
10
106.695953715899
20
8.06749269558131
30
0
41
1
10
106.76156496539
20
8.45601730318248
30
0
41
1
10
106.892787464373
20
9.20364021309803
30
0
41
1
10
106.958398713864
20
9.56272637135226
30
0
41
1
10
107.089621212846
20
10.2454443490217
30
0
41
1
10
107.155232462337
20
10.5690664384919
30
0
41
1
10
107.286454961319
20
11.1759641094771
30
0
41
1
10
107.35206621081
20
11.4592334475543
30
0
41
1
10
107.483288709792
20
11.9819126703978
30
0
41
1
10
107.548899959283
20
12.2213203454134
30
0
41
1
10
107.680122458265
20
12.6542708907064
30
0
41
1
10
107.745733707756
20
12.8478155319257
30
0
41
1
10
107.876956206738
20
13.188548062221
30
0
41
1
10
107.942567456229
20
13.3357411123277
30
0
41
1
10
108.073789955211
20
13.5846851875919
30
0
41
1
10
108.139401204702
20
13.6864438049896
30
0
41
1
10
108.270623703684
20
13.8466451251173
30
0
41
1
10
108.336234953175
20
13.9050967416054
30
0
41
1
10
108.467457452157
20
13.9817695896832
30
0
41
1
10
108.533068701648
20
14
30
0
41
1
10
108.598679951139
20
14
30
0
0
SPLINE
5
F2
100
AcDbEntity
8
1
62
256
6
ByLayer
370
13
48
1
60
0
100
AcDbSpline
70
4
71
3
72
79
73
75
40
0
40
0
40
0
40
0
40
0.0312500000000001
40
0.0312500000000001
40
0.0625000000000002
40
0.0625000000000002
40
0.0937500000000003
40
0.0937500000000003
40
0.125
40
0.125
40
0.156250000000001
40
0.156250000000001
40
0.187500000000001
40
0.187500000000001
40
0.218750000000001
40
0.218750000000001
40
0.250000000000001
40
0.250000000000001
40
0.281250000000001
40
0.281250000000001
40
0.312500000000001
40
0.312500000000001
40
0.343750000000002
40
0.343750000000002
40
0.359375000000002
40
0.359375000000002
40
0.363281250000002
40
0.363281250000002
40
0.367187500000002
40
0.375000000000002
40
0.375000000000002
40
0.406250000000002
40
0.406250000000002
40
0.437500000000002
40
0.437500000000002
40
0.468750000000003
40
0.468750000000003
40
0.500000000000003
40
0.500000000000003
40
0.531250000000003
40
0.531250000000003
40
0.562500000000003
40
0.562500000000003
40
0.593750000000003
40
0.593750000000003
40
0.625000000000003
40
0.625000000000003
40
0.656250000000003
40
0.656250000000003
40
0.687500000000003
40
0.687500000000003
40
0.718750000000003
40
0.718750000000003
40
0.726562500000003
40
0.726562500000003
40
0.734375000000003
40
0.734375000000003
40
0.750000000000003
40
0.750000000000003
40
0.781250000000002
40
0.781250000000002
40
0.812500000000002
40
0.812500000000002
40
0.843750000000002
40
0.843750000000002
40
0.875000000000001
40
0.875000000000001
40
0.906250000000001
40
0.906250000000001
40
0.937500000000001
40
0.937500000000001
40
0.96875
40
0.96875
40
1
40
1
40
1
40
1
41
1
10
106.180454414439
20
14
30
0
41
1
10
106.271329021792
20
14
30
0
41
1
10
106.362203629144
20
13.9649830929817
30
0
41
1
10
106.543952843849
20
13.8152580532617
30
0
41
1
10
106.634827451201
20
13.7005032835697
30
0
41
1
10
106.816576665906
20
13.3844563550719
30
0
41
1
10
106.907451273259
20
13.1831236947875
30
0
41
1
10
107.089200487963
20
12.6913188032185
30
0
41
1
10
107.180075095316
20
12.4008228686405
30
0
41
1
10
107.361824310021
20
11.7333377442192
30
0
41
1
10
107.452698917373
20
11.3563503462934
30
0
41
1
10
107.634448132078
20
10.5241356035169
30
0
41
1
10
107.725322739431
20
10.0689384905671
30
0
41
1
10
107.907071954135
20
9.093688529329
30
0
41
1
10
107.997946561488
20
8.57368950947304
30
0
41
1
10
108.179695776193
20
7.48606349548101
30
0
41
1
10
108.270570383545
20
6.91850246895115
30
0
41
1
10
108.45231959825
20
5.75497752538834
30
0
41
1
10
108.543194205603
20
5.15907767976063
30
0
41
1
10
108.724943420307
20
3.95809234347411
30
0
41
1
10
108.81581802766
20
3.35305723263218
30
0
41
1
10
108.997567242365
20
2.15125225010308
30
0
41
1
10
109.088441849717
20
1.55451274543162
30
0
41
1
10
109.224753760746
20
0.676443345634624
30
0
41
1
10
109.270191064422
20
0.386567392824446
30
0
41
1
10
109.326987694017
20
0.0286579020346664
30
0
41
1
10
109.338347019936
20
-0.0426059179584684
30
0
41
1
10
109.361065671774
20
-0.185827194454475
30
0
41
1
10
109.395143649532
20
-0.401320461915418
30
0
41
1
10
109.429221627289
20
-0.61870182202793
30
0
41
1
10
109.542814886479
20
-1.34704210519678
30
0
41
1
10
109.633689493832
20
-1.94180410416413
30
0
41
1
10
109.815438708537
20
-3.1415102766864
30
0
41
1
10
109.906313315889
20
-3.74642654699031
30
0
41
1
10
110.088062530594
20
-4.94932963909775
30
0
41
1
10
110.178937137946
20
-5.54726821475734
30
0
41
1
10
110.360686352651
20
-6.71715211595429
30
0
41
1
10
110.451560960004
20
-7.28903444713396
30
0
41
1
10
110.633310174708
20
-8.38748651312619
30
0
41
1
10
110.724184782061
20
-8.91398977937016
30
0
41
1
10
110.905933996766
20
-9.90409921571668
30
0
41
1
10
110.996808604118
20
-10.3676494536562
30
0
41
1
10
111.178557818823
20
-11.2178941157745
30
0
41
1
10
111.269432426176
20
-11.6045551494313
30
0
41
1
10
111.451181640881
20
-12.2920706030374
30
0
41
1
10
111.542056248233
20
-12.592919917401
30
0
41
1
10
111.723805462938
20
-13.1054614434092
30
0
41
1
10
111.81468007029
20
-13.3171747485757
30
0
41
1
10
111.996429284995
20
-13.6534390412355
30
0
41
1
10
112.087303892348
20
-13.7780291156492
30
0
41
1
10
112.269053107052
20
-13.9464482567726
30
0
41
1
10
112.359927714405
20
-13.9903237685836
30
0
41
1
10
112.473520973595
20
-14.0006194820447
30
0
41
1
10
112.496239625434
20
-14.0004787372005
30
0
41
1
10
112.54167692911
20
-13.995781497046
30
0
41
1
10
112.564395580948
20
-13.9912056480265
30
0
41
1
10
112.632551536462
20
-13.9705577673371
30
0
41
1
10
112.677988840138
20
-13.9475606020541
30
0
41
1
10
112.814300751167
20
-13.8491150302639
30
0
41
1
10
112.90517535852
20
-13.7441005864013
30
0
41
1
10
113.086924573224
20
-13.4481394090857
30
0
41
1
10
113.177799180577
20
-13.2571509093496
30
0
41
1
10
113.359548395282
20
-12.786082108786
30
0
41
1
10
113.450423002634
20
-12.5059756182669
30
0
41
1
10
113.632172217339
20
-11.8586705005295
30
0
41
1
10
113.723046824692
20
-11.4914703943185
30
0
41
1
10
113.904796039396
20
-10.6775839065307
30
0
41
1
10
113.995670646749
20
-10.230924530712
30
0
41
1
10
114.177419861454
20
-9.27095641377139
30
0
41
1
10
114.268294468806
20
-8.75769923598816
30
0
41
1
10
114.450043683511
20
-7.68140192299046
30
0
41
1
10
114.540918290863
20
-7.11842705692459
30
0
41
1
10
114.722667505568
20
-5.96179037833159
30
0
41
1
10
114.813542112921
20
-5.36819354935369
30
0
41
1
10
114.904416720273
20
-4.76891167218963
30
0
0
SPLINE
5
F3
100
AcDbEntity
8
1
62
256
6
ByLayer
370
13
48
1
60
0
100
AcDbSpline
70
4
71
3
72
74
73
70
40
0
40
0
40
0
40
0
40
0.03125
40
0.03125
40
0.0624999999999999
40
0.0624999999999999
40
0.0937499999999999
40
0.0937499999999999
40
0.125
40
0.125
40
0.15625
40
0.15625
40
0.1875
40
0.1875
40
0.21875
40
0.21875
40
0.25
40
0.25
40
0.28125
40
0.28125
40
0.3125
40
0.3125
40
0.34375
40
0.34375
40
0.375
40
0.375
40
0.40625
40
0.40625
40
0.4375
40
0.4375
40
0.453125
40
0.453125
40
0.4609375
40
0.4609375
40
0.46875
40
0.46875
40
0.5
40
0.5
40
0.53125
40
0.53125
40
0.5625
40
0.5625
40
0.59375
40
0.59375
40
0.625
40
0.625
40
0.65625
40
0.65625
40
0.6875
40
0.6875
40
0.71875
40
0.71875
40
0.75
40
0.75
40
0.78125
40
0.78125
40
0.8125
40
0.8125
40
0.84375
40
0.84375
40
0.875
40
0.875
40
0.90625
40
0.90625
40
0.9375
40
0.9375
40
0.96875
40
0.96875
40
1
40
1
40
1
40
1
41
1
10
102.3
20
-13.6354466774412
30
0
41
1
10
102.360558575293
20
-13.542009499122
30
0
41
1
10
102.421117150586
20
-13.4296333284719
30
0
41
1
10
102.542234301171
20
-13.1657412338968
30
0
41
1
10
102.602792876464
20
-13.0142207917241
30
0
41
1
10
102.72391002705
20
-12.6717086464251
30
0
41
1
10
102.784468602343
20
-12.480714165643
30
0
41
1
10
102.905585752928
20
-12.0599757621449
30
0
41
1
10
102.966144328221
20
-11.8302312960797
30
0
41
1
10
103.087261478807
20
-11.3338196390736
30
0
41
1
10
103.1478200541
20
-11.0671544079567
30
0
41
1
10
103.268937204685
20
-10.4998123762878
30
0
41
1
10
103.329495779978
20
-10.1991400102439
30
0
41
1
10
103.450612930564
20
-9.56768296581311
30
0
41
1
10
103.511171505857
20
-9.23690485107826
30
0
41
1
10
103.632288656442
20
-8.54995704733386
30
0
41
1
10
103.692847231735
20
-8.19379543177538
30
0
41
1
10
103.813964382321
20
-7.46140064340594
30
0
41
1
10
103.874522957614
20
-7.08517625938336
30
0
41
1
10
103.995640108199
20
-6.31831908296772
30
0
41
1
10
104.056198683492
20
-5.92769495568547
30
0
41
1
10
104.177315834078
20
-5.13777950826895
30
0
41
1
10
104.237874409371
20
-4.73849597660063
30
0
41
1
10
104.358991559956
20
-3.9368313927304
30
0
41
1
10
104.419550135249
20
-3.53445668661922
30
0
41
1
10
104.540667285835
20
-2.73179386452839
30
0
41
1
10
104.601225861128
20
-2.33151032737661
30
0
41
1
10
104.722343011713
20
-1.53766348453462
30
0
41
1
10
104.782901587006
20
-1.14410290921583
30
0
41
1
10
104.873739449945
20
-0.561782294354771
30
0
41
1
10
104.904018737592
20
-0.369006730376157
30
0
41
1
10
104.949437669061
20
-0.0821625315372785
30
0
41
1
10
104.964577312885
20
0.012803289451881
30
0
41
1
10
104.994856600531
20
0.203654992522161
30
0
41
1
10
105.009996244354
20
0.299473148344163
30
0
41
1
10
105.08569446347
20
0.780396443050137
30
0
41
1
10
105.146253038763
20
1.17102689187806
30
0
41
1
10
105.267370189349
20
1.96032113357756
30
0
41
1
10
105.327928764642
20
2.35898275308301
30
0
41
1
10
105.449045915227
20
3.15990532748921
30
0
41
1
10
105.50960449052
20
3.56216227980258
30
0
41
1
10
105.630721641106
20
4.36525093179756
30
0
41
1
10
105.691280216399
20
4.7660768114219
30
0
41
1
10
105.812397366984
20
5.56083575173898
30
0
41
1
10
105.872955942277
20
5.95476142218536
30
0
41
1
10
105.994073092863
20
6.73000876776197
30
0
41
1
10
106.054631668156
20
7.11132197665501
30
0
41
1
10
106.175748818741
20
7.85562962630661
30
0
41
1
10
106.236307394034
20
8.21861522846905
30
0
41
1
10
106.35742454462
20
8.92081178929175
30
0
41
1
10
106.417983119913
20
9.26001436239477
30
0
41
1
10
106.539100270498
20
9.90970953856723
30
0
41
1
10
106.599658845791
20
10.2201950320554
30
0
41
1
10
106.720775996377
20
10.808276846283
30
0
41
1
10
106.78133457167
20
11.0858680198078
30
0
41
1
10
106.902451722255
20
11.6049244571806
30
0
41
1
10
106.963010297548
20
11.8463869743241
30
0
41
1
10
107.084127448134
20
12.2910116699728
30
0
41
1
10
107.144686023427
20
12.4941736300599
30
0
41
1
10
107.265803174012
20
12.8611297590143
30
0
41
1
10
107.326361749305
20
13.0249260556041
30
0
41
1
10
107.447478899891
20
13.3131607537928
30
0
41
1
10
107.508037475184
20
13.4376031952893
30
0
41
1
10
107.629154625769
20
13.6481230203176
30
0
41
1
10
107.689713201062
20
13.7342057662107
30
0
41
1
10
107.810830351648
20
13.8698385428329
30
0
41
1
10
107.871388926941
20
13.9193946204979
30
0
41
1
10
107.992506077526
20
13.9844722789834
30
0
41
1
10
108.053064652819
20
14
30
0
41
1
10
108.113623228112
20
14
30
0
0
SPLINE
5
F4
100
AcDbEntity
8
1
62
256
6
ByLayer
370
13
48
1
60
0
100
AcDbSpline
70
4
71
3
72
80
73
76
40
0
40
0
40
0
40
0
40
0.0312500000000017
40
0.0312500000000017
40
0.0625000000000034
40
0.0625000000000034
40
0.0937500000000051
40
0.0937500000000051
40
0.125000000000007
40
0.125000000000007
40
0.156250000000008
40
0.156250000000008
40
0.18750000000001
40
0.18750000000001
40
0.218750000000012
40
0.218750000000012
40
0.250000000000014
40
0.250000000000014
40
0.281250000000015
40
0.281250000000015
40
0.312500000000017
40
0.312500000000017
40
0.328125000000018
40
0.328125000000018
40
0.335937500000018
40
0.339843750000019
40
0.339843750000019
40
0.343750000000019
40
0.343750000000019
40
0.375000000000019
40
0.375000000000019
40
0.406250000000019
40
0.406250000000019
40
0.437500000000019
40
0.437500000000019
40
0.468750000000019
40
0.468750000000019
40
0.50000000000002
40
0.50000000000002
40
0.53125000000002
40
0.53125000000002
40
0.56250000000002
40
0.56250000000002
40
0.59375000000002
40
0.59375000000002
40
0.62500000000002
40
0.62500000000002
40
0.65625000000002
40
0.65625000000002
40
0.67187500000002
40
0.67187500000002
40
0.67968750000002
40
0.68359375000002
40
0.68359375000002
40
0.68750000000002
40
0.68750000000002
40
0.718750000000018
40
0.718750000000018
40
0.750000000000016
40
0.750000000000016
40
0.781250000000014
40
0.781250000000014
40
0.812500000000012
40
0.812500000000012
40
0.84375000000001
40
0.84375000000001
40
0.875000000000008
40
0.875000000000008
40
0.906250000000006
40
0.906250000000006
40
0.937500000000004
40
0.937500000000004
40
0.968750000000002
40
0.968750000000002
40
1
40
1
40
1
40
1
41
1
10
105.695397691412
20
14
30
0
41
1
10
105.791324972962
20
14
30
0
41
1
10
105.887252254513
20
13.9609683628475
30
0
41
1
10
106.079106817614
20
13.7935597149356
30
0
41
1
10
106.175034099165
20
13.6651217438595
30
0
41
1
10
106.366888662266
20
13.3111984820907
30
0
41
1
10
106.462815943817
20
13.0856619446529
30
0
41
1
10
106.654670506918
20
12.5352738892646
30
0
41
1
10
106.750597788469
20
12.2103962924652
30
0
41
1
10
106.94245235157
20
11.4657119588349
30
0
41
1
10
107.038379633121
20
11.0459158810423
30
0
41
1
10
107.230234196222
20
10.1227030136116
30
0
41
1
10
107.326161477773
20
9.61933546969729
30
0
41
1
10
107.518016040874
20
8.54630767742398
30
0
41
1
10
107.613943322425
20
7.97672516377685
30
0
41
1
10
107.805797885526
20
6.79266018285813
30
0
41
1
10
107.901725167077
20
6.17826526546213
30
0
41
1
10
108.093579730178
20
4.92747620661612
30
0
41
1
10
108.189507011728
20
4.2911595323157
30
0
41
1
10
108.38136157483
20
3.01838588526445
30
0
41
1
10
108.47728885638
20
2.38198231484071
30
0
41
1
10
108.621179778706
20
1.44137755013963
30
0
41
1
10
108.669143419482
20
1.13014730054593
30
0
41
1
10
108.741088880645
20
0.668225494316147
30
0
41
1
10
108.777061611226
20
0.438492282049083
30
0
41
1
10
108.813034341808
20
0.210846057228053
30
0
41
1
10
108.837016162195
20
0.059570876792435
30
0
41
1
10
108.849007072389
20
-0.0156615415131114
30
0
41
1
10
108.956925264134
20
-0.695541497827122
30
0
41
1
10
109.052852545684
20
-1.31587071652484
30
0
41
1
10
109.244707108786
20
-2.57353583911032
30
0
41
1
10
109.340634390336
20
-3.21084426794525
30
0
41
1
10
109.532488953437
20
-4.48334194528803
30
0
41
1
10
109.628416234988
20
-5.11847499518922
30
0
41
1
10
109.820270798089
20
-6.36460090366836
30
0
41
1
10
109.91619807964
20
-6.97551450522656
30
0
41
1
10
110.108052642741
20
-8.15034877515006
30
0
41
1
10
110.203979924292
20
-8.71418193707962
30
0
41
1
10
110.395834487393
20
-9.7737378328415
30
0
41
1
10
110.491761768944
20
-10.2693849480329
30
0
41
1
10
110.683616332045
20
-11.1757134864544
30
0
41
1
10
110.779543613596
20
-11.5863492845977
30
0
41
1
10
110.971398176697
20
-12.3119451421377
30
0
41
1
10
111.067325458247
20
-12.6268985238419
30
0
41
1
10
111.259180021349
20
-13.1573728547784
30
0
41
1
10
111.355107302899
20
-13.372923058882
30
0
41
1
10
111.546961866001
20
-13.7074264412632
30
0
41
1
10
111.642889147552
20
-13.8264325527034
30
0
41
1
10
111.786780069877
20
-13.9385997534392
30
0
41
1
10
111.834743710653
20
-13.9649679038071
30
0
41
1
10
111.906689171816
20
-13.9890087969047
30
0
41
1
10
111.942661902397
20
-13.9971537157744
30
0
41
1
10
111.978634632979
20
-13.9996947164631
30
0
41
1
10
112.002616453366
20
-14.0001676991038
30
0
41
1
10
112.01460736356
20
-13.9997967089408
30
0
41
1
10
112.122525555305
20
-13.9909029066291
30
0
41
1
10
112.218452836855
20
-13.9433336446482
30
0
41
1
10
112.410307399957
20
-13.7578756323975
30
0
41
1
10
112.506234681507
20
-13.6199262196001
30
0
41
1
10
112.698089244608
20
-13.2464795055782
30
0
41
1
10
112.794016526159
20
-13.0109328060531
30
0
41
1
10
112.98587108926
20
-12.4406517165843
30
0
41
1
10
113.081798370811
20
-12.1058945465893
30
0
41
1
10
113.273652933912
20
-11.342282302426
30
0
41
1
10
113.369580215463
20
-10.913441889534
30
0
41
1
10
113.561434778564
20
-9.97363859723765
30
0
41
1
10
113.657362060115
20
-9.46272847868696
30
0
41
1
10
113.849216623216
20
-8.37662627529491
30
0
41
1
10
113.945143904767
20
-7.80151384501804
30
0
41
1
10
114.136998467868
20
-6.60867231255486
30
0
41
1
10
114.232925749419
20
-5.99103059531038
30
0
41
1
10
114.42478031252
20
-4.73603636207406
30
0
41
1
10
114.520707594071
20
-4.09875937858735
30
0
41
1
10
114.712562157172
20
-2.82612469747451
30
0
41
1
10
114.808489438723
20
-2.19081755919765
30
0
41
1
10
114.904416720273
20
-1.56568017324707
30
0
0
SPLINE
5
F5
100
AcDbEntity
8
1
62
256
6
ByLayer
370
13
48
1
60
0
100
AcDbSpline
70
4
71
3
72
51
73
47
40
0
40
0
40
0
40
0
40
0.0624999999999989
40
0.0624999999999989
40
0.0937499999999985
40
0.0937499999999985
40
0.124999999999998
40
0.124999999999998
40
0.156249999999998
40
0.156249999999998
40
0.187499999999997
40
0.187499999999997
40
0.249999999999996
40
0.249999999999996
40
0.312499999999995
40
0.312499999999995
40
0.374999999999994
40
0.374999999999994
40
0.406249999999994
40
0.406249999999994
40
0.414062499999994
40
0.414062499999994
40
0.421874999999994
40
0.437499999999993
40
0.437499999999993
40
0.499999999999994
40
0.499999999999994
40
0.562499999999995
40
0.562499999999995
40
0.624999999999995
40
0.624999999999995
40
0.656249999999995
40
0.656249999999995
40
0.687499999999996
40
0.687499999999996
40
0.718749999999996
40
0.718749999999996
40
0.749999999999996
40
0.749999999999996
40
0.812499999999997
40
0.812499999999997
40
0.874999999999998
40
0.874999999999998
40
0.937499999999999
40
0.937499999999999
40
1
40
1
40
1
40
1
41
1
10
102.3
20
-12.4723313069383
30
0
41
1
10
102.411011802189
20
-12.1102048383499
30
0
41
1
10
102.522023604379
20
-11.6820007147659
30
0
41
1
10
102.688541307662
20
-10.949455089265
30
0
41
1
10
102.744047208757
20
-10.6903321183875
30
0
41
1
10
102.855059010946
20
-10.1448048301035
30
0
41
1
10
102.910564912041
20
-9.8584040000076
30
0
41
1
10
103.02157671423
20
-9.26157955629088
30
0
41
1
10
103.077082615325
20
-8.9511605722119
30
0
41
1
10
103.188094417514
20
-8.31008903278919
30
0
41
1
10
103.243600318609
20
-7.97944187216302
30
0
41
1
10
103.410118021893
20
-6.96340192555695
30
0
41
1
10
103.521129824082
20
-6.25390822386865
30
0
41
1
10
103.743153428461
20
-4.80581257939787
30
0
41
1
10
103.85416523065
20
-4.06737047661176
30
0
41
1
10
104.076188835028
20
-2.59499631179202
30
0
41
1
10
104.187200637218
20
-1.86116501556867
30
0
41
1
10
104.353718340501
20
-0.784563751528168
30
0
41
1
10
104.409224241596
20
-0.429665404437003
30
0
41
1
10
104.478606617964
20
0.0073002680691729
30
0
41
1
10
104.492483093238
20
0.0944005096727381
30
0
41
1
10
104.520236043785
20
0.269695904018789
30
0
41
1
10
104.561865469606
20
0.533610760992076
30
0
41
1
10
104.603494895427
20
0.800263450924746
30
0
41
1
10
104.742259648164
20
1.69432675434498
30
0
41
1
10
104.853271450353
20
2.42657530051454
30
0
41
1
10
105.075295054732
20
3.89813817526857
30
0
41
1
10
105.186306856921
20
4.63735699358713
30
0
41
1
10
105.408330461299
20
6.08969862687786
30
0
41
1
10
105.519342263489
20
6.8026651177137
30
0
41
1
10
105.685859966773
20
7.8259140753546
30
0
41
1
10
105.741365867867
20
8.15929434347558
30
0
41
1
10
105.852377670057
20
8.80644916738416
30
0
41
1
10
105.907883571151
20
9.12021824987829
30
0
41
1
10
106.01889537334
20
9.72429177080559
30
0
41
1
10
106.074401274435
20
10.0145914358628
30
0
41
1
10
106.185413076624
20
10.5683754165338
30
0
41
1
10
106.240918977719
20
10.8318560500946
30
0
41
1
10
106.407436681003
20
11.5780036213677
30
0
41
1
10
106.518448483192
20
12.0159819322061
30
0
41
1
10
106.740472087571
20
12.7602513353331
30
0
41
1
10
106.85148388976
20
13.066562306782
30
0
41
1
10
107.073507494138
20
13.5470086065777
30
0
41
1
10
107.184519296328
20
13.7212367009568
30
0
41
1
10
107.406542900706
20
13.9476699238743
30
0
41
1
10
107.517554702895
20
14
30
0
41
1
10
107.628566505085
20
14
30
0
0
SPLINE
5
F6
100
AcDbEntity
8
1
62
256
6
ByLayer
370
13
48
1
60
0
100
AcDbSpline
70
4
71
3
72
87
73
83
40
0
40
0
40
0
40
0
40
0.03125
40
0.03125
40
0.0624999999999999
40
0.0624999999999999
40
0.0937499999999999
40
0.0937499999999999
40
0.125
40
0.125
40
0.15625
40
0.15625
40
0.1875
40
0.1875
40
0.21875
40
0.21875
40
0.25
40
0.25
40
0.28125
40
0.28125
40
0.3125
40
0.3125
40
0.3203125
40
0.32421875
40
0.32421875
40
0.328125
40
0.328125
40
0.34375
40
0.34375
40
0.375
40
0.375
40
0.40625
40
0.40625
40
0.4375
40
0.4375
40
0.468750000000001
40
0.468750000000001
40
0.500000000000001
40
0.500000000000001
40
0.531250000000001
40
0.531250000000001
40
0.562500000000001
40
0.562500000000001
40
0.593750000000001
40
0.593750000000001
40
0.625000000000001
40
0.625000000000001
40
0.640625000000001
40
0.640625000000001
40
0.648437500000001
40
0.648437500000001
40
0.652343750000001
40
0.652343750000001
40
0.656250000000001
40
0.656250000000001
40
0.687500000000001
40
0.687500000000001
40
0.718750000000001
40
0.718750000000001
40
0.750000000000001
40
0.750000000000001
40
0.781250000000001
40
0.781250000000001
40
0.812500000000001
40
0.812500000000001
40
0.843750000000001
40
0.843750000000001
40
0.875000000000001
40
0.875000000000001
40
0.906250000000001
40
0.906250000000001
40
0.937500000000001
40
0.937500000000001
40
0.968750000000001
40
0.968750000000001
40
0.972656250000001
40
0.972656250000001
40
0.976562500000001
40
0.976562500000001
40
0.984375000000001
40
0.984375000000001
40
1
40
1
40
1
40
1
41
1
10
105.210340968385
20
14
30
0
41
1
10
105.311320924133
20
14
30
0
41
1
10
105.412300879882
20
13.9567333690747
30
0
41
1
10
105.61426079138
20
13.7705985301233
30
0
41
1
10
105.715240747129
20
13.6276517962956
30
0
41
1
10
105.917200658626
20
13.2335940942497
30
0
41
1
10
106.018180614375
20
12.9824194935546
30
0
41
1
10
106.220140525873
20
12.3702111188934
30
0
41
1
10
106.321120481622
20
12.0091504629259
30
0
41
1
10
106.52308039312
20
11.1837831922748
30
0
41
1
10
106.624060348868
20
10.7195011826186
30
0
41
1
10
106.826020260366
20
9.70269171981664
30
0
41
1
10
106.927000216115
20
9.15023938474982
30
0
41
1
10
107.128960127612
20
7.97895951698493
30
0
41
1
10
107.229940083361
20
7.36023923224411
30
0
41
1
10
107.431899994859
20
6.08234201652368
30
0
41
1
10
107.532879950608
20
5.42327607220128
30
0
41
1
10
107.734839862106
20
4.09126699442746
30
0
41
1
10
107.835819817854
20
3.41841236011308
30
0
41
1
10
108.037779729352
20
2.08297993490515
30
0
41
1
10
108.138759685101
20
1.42045355984175
30
0
41
1
10
108.264984629787
20
0.610960167999082
30
0
41
1
10
108.302852113193
20
0.369492801660726
30
0
41
1
10
108.340719596599
20
0.130379624316277
30
0
41
1
10
108.365964585536
20
-0.028477094343117
30
0
41
1
10
108.378587080004
20
-0.107786520828284
30
0
41
1
10
108.441699552347
20
-0.506483895250994
30
0
41
1
10
108.492189530222
20
-0.829740304309155
30
0
41
1
10
108.643659463845
20
-1.80930812178937
30
0
41
1
10
108.744639419594
20
-2.47557201252013
30
0
41
1
10
108.946599331092
20
-3.81405826956202
30
0
41
1
10
109.047579286841
20
-4.48622146656029
30
0
41
1
10
109.249539198338
20
-5.81174153233951
30
0
41
1
10
109.350519154087
20
-6.46500388390072
30
0
41
1
10
109.552479065585
20
-7.72604424786303
30
0
41
1
10
109.653459021334
20
-8.33370969789169
30
0
41
1
10
109.855418932831
20
-9.47815190485611
30
0
41
1
10
109.95639888858
20
-10.0148256365707
30
0
41
1
10
110.158358800078
20
-10.9965002498491
30
0
41
1
10
110.259338755827
20
-11.4414349836453
30
0
41
1
10
110.461298667324
20
-12.226104659271
30
0
41
1
10
110.562278623073
20
-12.5658256132595
30
0
41
1
10
110.764238534571
20
-13.1350432879757
30
0
41
1
10
110.86521849032
20
-13.3645756458737
30
0
41
1
10
111.067178401817
20
-13.7165428749241
30
0
41
1
10
111.168158357566
20
-13.8390460768595
30
0
41
1
10
111.319628291189
20
-13.9497101882135
30
0
41
1
10
111.370118269064
20
-13.9744603689504
30
0
41
1
10
111.445853235876
20
-13.9945904085774
30
0
41
1
10
111.471098224813
20
-13.9984696992984
30
0
41
1
10
111.508965708218
20
-14.0002080220568
30
0
41
1
10
111.521588202687
20
-14.0001114314537
30
0
41
1
10
111.546833191624
20
-13.9985601204792
30
0
41
1
10
111.559455686093
20
-13.997102415643
30
0
41
1
10
111.67305813631
20
-13.9777194556375
30
0
41
1
10
111.774038092059
20
-13.9157961247288
30
0
41
1
10
111.975998003557
20
-13.6902226535476
30
0
41
1
10
112.076977959306
20
-13.5264951865192
30
0
41
1
10
112.278937870803
20
-13.0899402109466
30
0
41
1
10
112.379917826552
20
-12.8170546433689
30
0
41
1
10
112.58187773805
20
-12.16204329246
30
0
41
1
10
112.682857693799
20
-11.7798999808129
30
0
41
1
10
112.884817605296
20
-10.9146782477068
30
0
41
1
10
112.985797561045
20
-10.4316350172401
30
0
41
1
10
113.187757472543
20
-9.3811323141334
30
0
41
1
10
113.288737428292
20
-8.81375619510388
30
0
41
1
10
113.490697339789
20
-7.61750643175779
30
0
41
1
10
113.591677295538
20
-6.9887431206391
30
0
41
1
10
113.793637207036
20
-5.69603715411009
30
0
41
1
10
113.894617162785
20
-5.03220286561915
30
0
41
1
10
114.096577074282
20
-3.69567851262238
30
0
41
1
10
114.197557030031
20
-3.0230703593669
30
0
41
1
10
114.399516941529
20
-1.6923874321638
30
0
41
1
10
114.500496897278
20
-1.03435630576331
30
0
41
1
10
114.614099347495
20
-0.31267447516754
30
0
41
1
10
114.626721841964
20
-0.232742521887246
30
0
41
1
10
114.651966830901
20
-0.0734184752412546
30
0
41
1
10
114.66458932537
20
0.0057885559194801
30
0
41
1
10
114.702456808775
20
0.244311380022054
30
0
41
1
10
114.727701797713
20
0.40442354977435
30
0
41
1
10
114.803436764524
20
0.887687067716882
30
0
41
1
10
114.853926742399
20
1.21377606099361
30
0
41
1
10
114.904416720273
20
1.54267850431475
30
0
0
SPLINE
5
F7
100
AcDbEntity
8
1
62
256
6
ByLayer
370
13
48
1
60
0
100
AcDbSpline
70
4
71
3
72
43
73
39
40
0
40
0
40
0
40
0
40
0.0624999999999986
40
0.0624999999999986
40
0.124999999999997
40
0.124999999999997
40
0.187499999999996
40
0.187499999999996
40
0.249999999999994
40
0.249999999999994
40
0.312499999999993
40
0.312499999999993
40
0.343749999999992
40
0.343749999999992
40
0.351562499999992
40
0.351562499999992
40
0.359374999999992
40
0.374999999999992
40
0.374999999999992
40
0.437499999999993
40
0.437499999999993
40
0.499999999999994
40
0.499999999999994
40
0.562499999999994
40
0.562499999999994
40
0.624999999999995
40
0.624999999999995
40
0.687499999999996
40
0.687499999999996
40
0.749999999999997
40
0.749999999999997
40
0.812499999999998
40
0.812499999999998
40
0.874999999999998
40
0.874999999999998
40
0.937499999999999
40
0.937499999999999
40
1
40
1
40
1
40
1
41
1
10
102.3
20
-10.4884952665632
30
0
41
1
10
102.400906453793
20
-9.99695569586197
30
0
41
1
10
102.501812907586
20
-9.45974873085979
30
0
41
1
10
102.703625815171
20
-8.31460156381198
30
0
41
1
10
102.804532268964
20
-7.70676427744604
30
0
41
1
10
103.00634517655
20
-6.44571814764734
30
0
41
1
10
103.107251630343
20
-5.79262140460744
30
0
41
1
10
103.309064537929
20
-4.46770819549675
30
0
41
1
10
103.409970991721
20
-3.79598563027895
30
0
41
1
10
103.611783899307
20
-2.45857235525287
30
0
41
1
10
103.7126903531
20
-1.79294025821955
30
0
41
1
10
103.864050033789
20
-0.814398524103098
30
0
41
1
10
103.914503260686
20
-0.491497236588941
30
0
41
1
10
103.977569794306
20
-0.0932539354959943
30
0
41
1
10
103.99018310103
20
-0.0140536478051558
30
0
41
1
10
104.015409714479
20
0.144754006924472
30
0
41
1
10
104.053249634651
20
0.383789777632615
30
0
41
1
10
104.091089554823
20
0.625168217718141
30
0
41
1
10
104.217222622064
20
1.43433936362672
30
0
41
1
10
104.318129075857
20
2.09652446950628
30
0
41
1
10
104.519941983443
20
3.43111427195419
30
0
41
1
10
104.620848437236
20
4.10346748119264
30
0
41
1
10
104.822661344822
20
5.43434339501948
30
0
41
1
10
104.923567798614
20
6.09277773466283
30
0
41
1
10
105.1253807062
20
7.3693338219187
30
0
41
1
10
105.226287159993
20
7.98734493021763
30
0
41
1
10
105.428100067579
20
9.15719625695729
30
0
41
1
10
105.529006521372
20
9.70892969646559
30
0
41
1
10
105.730819428957
20
10.7243615534025
30
0
41
1
10
105.83172588275
20
11.1879852836754
30
0
41
1
10
106.033538790336
20
12.0121550488933
30
0
41
1
10
106.134445244129
20
12.3726767250447
30
0
41
1
10
106.336258151715
20
12.9839628896209
30
0
41
1
10
106.437164605508
20
13.2347542638222
30
0
41
1
10
106.638977513093
20
13.6282119181641
30
0
41
1
10
106.739883966886
20
13.7709416390072
30
0
41
1
10
106.941696874472
20
13.9567965575364
30
0
41
1
10
107.042603328265
20
14
30
0
41
1
10
107.143509782058
20
14
30
0
0
SPLINE
5
F8
100
AcDbEntity
8
1
62
256
6
ByLayer
370
13
48
1
60
0
100
AcDbSpline
70
4
71
3
72
87
73
83
40
0
40
0
40
0
40
0
40
0.0312499999999999
40
0.0312499999999999
40
0.0624999999999998
40
0.0624999999999998
40
0.0937499999999998
40
0.0937499999999998
40
0.125
40
0.125
40
0.15625
40
0.15625
40
0.1875
40
0.1875
40
0.21875
40
0.21875
40
0.25
40
0.25
40
0.28125
40
0.28125
40
0.296875
40
0.296875
40
0.3046875
40
0.308593749999999
40
0.308593749999999
40
0.312499999999999
40
0.312499999999999
40
0.343749999999999
40
0.343749999999999
40
0.374999999999999
40
0.374999999999999
40
0.406249999999999
40
0.406249999999999
40
0.437499999999999
40
0.437499999999999
40
0.468749999999999
40
0.468749999999999
40
0.499999999999998
40
0.499999999999998
40
0.531249999999998
40
0.531249999999998
40
0.562499999999998
40
0.562499999999998
40
0.593749999999998
40
0.593749999999998
40
0.609374999999998
40
0.609374999999998
40
0.617187499999998
40
0.617187499999998
40
0.621093749999998
40
0.621093749999998
40
0.624999999999998
40
0.624999999999998
40
0.656249999999998
40
0.656249999999998
40
0.687499999999998
40
0.687499999999998
40
0.718749999999999
40
0.718749999999999
40
0.749999999999999
40
0.749999999999999
40
0.781249999999999
40
0.781249999999999
40
0.812499999999999
40
0.812499999999999
40
0.84375
40
0.84375
40
0.875
40
0.875
40
0.90625
40
0.90625
40
0.921875
40
0.921875
40
0.92578125
40
0.92578125
40
0.9296875
40
0.9296875
40
0.9375
40
0.9375
40
0.96875
40
0.96875
40
1
40
1
40
1
40
1
41
1
10
104.725284245357
20
14
30
0
41
1
10
104.831316875304
20
14
30
0
41
1
10
104.937349505251
20
13.9522775483044
30
0
41
1
10
105.149414765145
20
13.746366639008
30
0
41
1
10
105.255447395093
20
13.588078363722
30
0
41
1
10
105.467512654987
20
13.1516245132099
30
0
41
1
10
105.573545284934
20
12.8733813361191
30
0
41
1
10
105.785610544828
20
12.1961821928469
30
0
41
1
10
105.891643174775
20
11.7972010550968
30
0
41
1
10
106.103708434669
20
10.8879203618029
30
0
41
1
10
106.209741064616
20
10.3776659477327
30
0
41
1
10
106.42180632451
20
9.26521279958089
30
0
41
1
10
106.527838954457
20
8.6631230137981
30
0
41
1
10
106.739904214351
20
7.39398984706716
30
0
41
1
10
106.845936844298
20
6.72708860136083
30
0
41
1
10
107.058002104192
20
5.35903679735395
30
0
41
1
10
107.164034734139
20
4.65802093537911
30
0
41
1
10
107.376099994033
20
3.25184785240197
30
0
41
1
10
107.48213262398
20
2.54678580077606
30
0
41
1
10
107.641181568901
20
1.50555272289174
30
0
41
1
10
107.694197883874
20
1.16116039672681
30
0
41
1
10
107.773722356335
20
0.650594603767615
30
0
41
1
10
107.813484592565
20
0.396812619567498
30
0
41
1
10
107.853246828795
20
0.145611964362871
30
0
41
1
10
107.879754986282
20
-0.0212479521850639
30
0
41
1
10
107.893009065025
20
-0.104491757547891
30
0
41
1
10
108.012295773716
20
-0.858070661647162
30
0
41
1
10
108.118328403663
20
-1.54708552827933
30
0
41
1
10
108.330393663557
20
-2.94259507151546
30
0
41
1
10
108.436426293504
20
-3.64903685681654
30
0
41
1
10
108.648491553398
20
-5.05255901121026
30
0
41
1
10
108.754524183345
20
-5.74953518498933
30
0
41
1
10
108.966589443239
20
-7.10366847298695
30
0
41
1
10
109.072622073186
20
-7.7606865663233
30
0
41
1
10
109.28468733308
20
-9.00456299873304
30
0
41
1
10
109.390719963027
20
-9.5912823745181
30
0
41
1
10
109.602785222921
20
-10.6686561290624
30
0
41
1
10
109.708817852868
20
-11.1592118121527
30
0
41
1
10
109.920883112762
20
-12.0265047955713
30
0
41
1
10
110.026915742709
20
-12.403210491697
30
0
41
1
10
110.238981002603
20
-13.035239280814
30
0
41
1
10
110.34501363255
20
-13.2905993422914
30
0
41
1
10
110.557078892444
20
-13.6824616092511
30
0
41
1
10
110.663111522392
20
-13.8190480051341
30
0
41
1
10
110.822160467312
20
-13.9428074180287
30
0
41
1
10
110.875176782286
20
-13.9705956624833
30
0
41
1
10
110.954701254746
20
-13.9934686239444
30
0
41
1
10
110.981209412233
20
-13.9979603069435
30
0
41
1
10
111.020971648463
20
-14.0001897707402
30
0
41
1
10
111.034225727206
20
-14.0001858276488
30
0
41
1
10
111.060733884693
20
-13.9986834842059
30
0
41
1
10
111.073987963436
20
-13.9971809839571
30
0
41
1
10
111.193274672127
20
-13.9767515442106
30
0
41
1
10
111.299307302074
20
-13.9092878290892
30
0
41
1
10
111.511372561968
20
-13.661592456444
30
0
41
1
10
111.617405191915
20
-13.481262787813
30
0
41
1
10
111.829470451809
20
-12.9998441226952
30
0
41
1
10
111.935503081756
20
-12.6986852240774
30
0
41
1
10
112.14756834165
20
-11.9766170689855
30
0
41
1
10
112.253600971597
20
-11.5556951073438
30
0
41
1
10
112.465666231491
20
-10.605454354927
30
0
41
1
10
112.571698861438
20
-10.0761940133604
30
0
41
1
10
112.783764121332
20
-8.93032040383335
30
0
41
1
10
112.889796751279
20
-8.31382521231674
30
0
41
1
10
113.101862011173
20
-7.0214974991687
30
0
41
1
10
113.207894641121
20
-6.34580879355718
30
0
41
1
10
113.419959901015
20
-4.96600648796954
30
0
41
1
10
113.525992530962
20
-4.26202209469633
30
0
41
1
10
113.738057790856
20
-2.85518948752096
30
0
41
1
10
113.844090420803
20
-2.15242697959121
30
0
41
1
10
114.003139365723
20
-1.11780374123998
30
0
41
1
10
114.056155680697
20
-0.776138390136566
30
0
41
1
10
114.122426074414
20
-0.354633456394737
30
0
41
1
10
114.135680153157
20
-0.270610287095792
30
0
41
1
10
114.162188310644
20
-0.103154609292602
30
0
41
1
10
114.175442389387
20
-0.0199156611955118
30
0
41
1
10
114.215204625617
20
0.230383933931108
30
0
41
1
10
114.241712783104
20
0.398465728214319
30
0
41
1
10
114.374253570538
20
1.24425091277337
30
0
41
1
10
114.480286200485
20
1.93833503437702
30
0
41
1
10
114.692351460379
20
3.33934786723486
30
0
41
1
10
114.798384090326
20
4.04621376631172
30
0
41
1
10
114.904416720273
20
4.74562789181437
30
0
0
SPLINE
5
F9
100
AcDbEntity
8
1
62
256
6
ByLayer
370
13
48
1
60
0
100
AcDbSpline
70
4
71
3
72
43
73
39
40
0
40
0
40
0
40
0
40
0.0624999999999973
40
0.0624999999999973
40
0.124999999999995
40
0.124999999999995
40
0.187499999999992
40
0.187499999999992
40
0.249999999999989
40
0.249999999999989
40
0.265624999999989
40
0.273437499999989
40
0.273437499999989
40
0.281249999999989
40
0.281249999999989
40
0.312499999999989
40
0.312499999999989
40
0.37499999999999
40
0.37499999999999
40
0.437499999999991
40
0.437499999999991
40
0.499999999999992
40
0.499999999999992
40
0.562499999999993
40
0.562499999999993
40
0.624999999999994
40
0.624999999999994
40
0.687499999999995
40
0.687499999999995
40
0.749999999999996
40
0.749999999999996
40
0.812499999999997
40
0.812499999999997
40
0.874999999999998
40
0.874999999999998
40
0.937499999999999
40
0.937499999999999
40
1
40
1
40
1
40
1
41
1
10
102.3
20
-7.81692611751606
30
0
41
1
10
102.390801105397
20
-7.26756095905864
30
0
41
1
10
102.481602210793
20
-6.69569763001763
30
0
41
1
10
102.663204421586
20
-5.52613063586188
30
0
41
1
10
102.754005526982
20
-4.92848959116137
30
0
41
1
10
102.935607737775
20
-3.7264003089422
30
0
41
1
10
103.026408843172
20
-3.12199991307258
30
0
41
1
10
103.208011053965
20
-1.9234738732097
30
0
41
1
10
103.298812159361
20
-1.329375799178
30
0
41
1
10
103.412313541107
20
-0.601914944385669
30
0
41
1
10
103.44636395563
20
-0.384801150323114
30
0
41
1
10
103.480414370154
20
-0.169579938503262
30
0
41
1
10
103.503114646503
20
-0.0265409109097732
30
0
41
1
10
103.514464784678
20
0.044666338607442
30
0
41
1
10
103.571215475551
20
0.402450498835748
30
0
41
1
10
103.616616028249
20
0.692207831835788
30
0
41
1
10
103.752817686344
20
1.569865439495
30
0
41
1
10
103.84361879174
20
2.16625532873371
30
0
41
1
10
104.025221002533
20
3.36721734276861
30
0
41
1
10
104.116022107929
20
3.97175905329522
30
0
41
1
10
104.297624318722
20
5.17163704347169
30
0
41
1
10
104.388425424119
20
5.76692301661501
30
0
41
1
10
104.570027634912
20
6.92913961916975
30
0
41
1
10
104.660828740308
20
7.49600638028065
30
0
41
1
10
104.842430951101
20
8.58221582031763
30
0
41
1
10
104.933232056497
20
9.10149282604496
30
0
41
1
10
105.11483426729
20
10.0753282119905
30
0
41
1
10
105.205635372687
20
10.5298330707461
30
0
41
1
10
105.38723758348
20
11.3607458443791
30
0
41
1
10
105.478038688876
20
11.7371237591833
30
0
41
1
10
105.659640899669
20
12.4035127224321
30
0
41
1
10
105.750442005066
20
12.6935220772515
30
0
41
1
10
105.932044215858
20
13.1844989249813
30
0
41
1
10
106.022845321255
20
13.3854900788641
30
0
41
1
10
106.204447532048
20
13.7010026491213
30
0
41
1
10
106.295248637444
20
13.8155644227427
30
0
41
1
10
106.476850848237
20
13.9650398730426
30
0
41
1
10
106.567651953634
20
14
30
0
41
1
10
106.65845305903
20
14
30
0
0
SPLINE
5
FA
100
AcDbEntity
8
1
62
256
6
ByLayer
370
13
48
1
60
0
100
AcDbSpline
70
4
71
3
72
102
73
98
40
0
40
0
40
0
40
0
40
0.0312499999999999
40
0.0312499999999999
40
0.0624999999999998
40
0.0624999999999998
40
0.0937499999999997
40
0.0937499999999997
40
0.125
40
0.125
40
0.140624999999999
40
0.140624999999999
40
0.156249999999999
40
0.156249999999999
40
0.171874999999999
40
0.171874999999999
40
0.187499999999999
40
0.187499999999999
40
0.218749999999999
40
0.218749999999999
40
0.249999999999998
40
0.249999999999998
40
0.281249999999998
40
0.281249999999998
40
0.289062499999998
40
0.289062499999998
40
0.292968749999998
40
0.292968749999998
40
0.296874999999998
40
0.296874999999998
40
0.312499999999998
40
0.312499999999998
40
0.343749999999998
40
0.343749999999998
40
0.374999999999999
40
0.374999999999999
40
0.406249999999999
40
0.406249999999999
40
0.421874999999999
40
0.421874999999999
40
0.437499999999999
40
0.437499999999999
40
0.453124999999999
40
0.453124999999999
40
0.468749999999999
40
0.468749999999999
40
0.5
40
0.5
40
0.53125
40
0.53125
40
0.5625
40
0.5625
40
0.578125
40
0.578125
40
0.5859375
40
0.5859375
40
0.58984375
40
0.58984375
40
0.59375
40
0.59375
40
0.625000000000001
40
0.625000000000001
40
0.656250000000001
40
0.656250000000001
40
0.687500000000001
40
0.687500000000001
40
0.703125000000001
40
0.703125000000001
40
0.718750000000001
40
0.718750000000001
40
0.734375000000002
40
0.734375000000002
40
0.750000000000002
40
0.750000000000002
40
0.765625000000002
40
0.765625000000002
40
0.781250000000002
40
0.781250000000002
40
0.812500000000002
40
0.812500000000002
40
0.843750000000002
40
0.843750000000002
40
0.875000000000002
40
0.875000000000002
40
0.882812500000002
40
0.882812500000002
40
0.886718750000002
40
0.886718750000002
40
0.890625000000002
40
0.890625000000002
40
0.906250000000002
40
0.906250000000002
40
0.937500000000001
40
0.937500000000001
40
0.968750000000001
40
0.968750000000001
40
1
40
1
40
1
40
1
41
1
10
104.24022752233
20
14
30
0
41
1
10
104.351312826475
20
14
30
0
41
1
10
104.46239813062
20
13.9476002929558
30
0
41
1
10
104.684568738911
20
13.7208564016516
30
0
41
1
10
104.795654043056
20
13.5463868653926
30
0
41
1
10
105.017824651347
20
13.0652747096667
30
0
41
1
10
105.128909955492
20
12.7585390911004
30
0
41
1
10
105.351080563782
20
12.0132575402028
30
0
41
1
10
105.462165867928
20
11.5746918402968
30
0
41
1
10
105.628793824146
20
10.8275817047033
30
0
41
1
10
105.684336476218
20
10.5637668901419
30
0
41
1
10
105.795421780363
20
10.0092971411275
30
0
41
1
10
105.850964432436
20
9.71864590839937
30
0
41
1
10
105.962049736581
20
9.11386214985308
30
0
41
1
10
106.017592388654
20
8.79973441924989
30
0
41
1
10
106.128677692799
20
8.15186589670893
30
0
41
1
10
106.184220344872
20
7.8181305996674
30
0
41
1
10
106.350848301089
20
6.79383760345479
30
0
41
1
10
106.461933605235
20
6.08020390691402
30
0
41
1
10
106.684104213525
20
4.6266562240462
30
0
41
1
10
106.79518951767
20
3.88689885678951
30
0
41
1
10
107.017360125961
20
2.41443111418698
30
0
41
1
10
107.128445430106
20
1.68181619857728
30
0
41
1
10
107.267302060288
20
0.787410186879356
30
0
41
1
10
107.295073386324
20
0.609578876650545
30
0
41
1
10
107.336730375379
20
0.344665775845897
30
0
41
1
10
107.350616038397
20
0.256666805602606
30
0
41
1
10
107.378387364433
20
0.0813198434580897
30
0
41
1
10
107.392273027451
20
-0.0058039941340553
30
0
41
1
10
107.461701342542
20
-0.443225684406912
30
0
41
1
10
107.517243994615
20
-0.798480410416886
30
0
41
1
10
107.683871950832
20
-1.87610758570298
30
0
41
1
10
107.794957254978
20
-2.6105653043746
30
0
41
1
10
108.017127863268
20
-4.08397293043316
30
0
41
1
10
108.128213167414
20
-4.82282123860713
30
0
41
1
10
108.350383775704
20
-6.27141075385785
30
0
41
1
10
108.461469079849
20
-6.98099123999714
30
0
41
1
10
108.628097036067
20
-7.99687295534272
30
0
41
1
10
108.68363968814
20
-8.32741965299584
30
0
41
1
10
108.794724992285
20
-8.96819178345419
30
0
41
1
10
108.850267644358
20
-9.27841181359784
30
0
41
1
10
108.961352948503
20
-9.87474069805313
30
0
41
1
10
109.016895600575
20
-10.1608449256107
30
0
41
1
10
109.127980904721
20
-10.7056861812296
30
0
41
1
10
109.183523556793
20
-10.9644197354087
30
0
41
1
10
109.350151513011
20
-11.6956707258229
30
0
41
1
10
109.461236817156
20
-12.1228421048223
30
0
41
1
10
109.683407425447
20
-12.8447940207943
30
0
41
1
10
109.794492729592
20
-13.1396021297616
30
0
41
1
10
110.016663337883
20
-13.5973739741824
30
0
41
1
10
110.127748642028
20
-13.760435363699
30
0
41
1
10
110.294376598246
20
-13.914364888936
30
0
41
1
10
110.349919250318
20
-13.9506353550019
30
0
41
1
10
110.433233228427
20
-13.9840118946613
30
0
41
1
10
110.461004554464
20
-13.9916355135872
30
0
41
1
10
110.502661543518
20
-13.9980322503371
30
0
41
1
10
110.516547206536
20
-13.9993248526765
30
0
41
1
10
110.544318532572
20
-14.0002679738296
30
0
41
1
10
110.558204195591
20
-13.9999240280368
30
0
41
1
10
110.683175162754
20
-13.9893878762202
30
0
41
1
10
110.794260466899
20
-13.9267523590825
30
0
41
1
10
111.01643107519
20
-13.6782802707709
30
0
41
1
10
111.127516379335
20
-13.492319483726
30
0
41
1
10
111.349686987625
20
-12.9877857357473
30
0
41
1
10
111.460772291771
20
-12.6691247704165
30
0
41
1
10
111.627400247989
20
-12.0927447949171
30
0
41
1
10
111.682942900061
20
-11.8843134391027
30
0
41
1
10
111.794028204206
20
-11.4361967102164
30
0
41
1
10
111.849570856279
20
-11.1965124342913
30
0
41
1
10
111.960656160424
20
-10.6880159451906
30
0
41
1
10
112.016198812497
20
-10.4192063194582
30
0
41
1
10
112.127284116642
20
-9.85530128198292
30
0
41
1
10
112.182826768715
20
-9.56020979087538
30
0
41
1
10
112.29391207286
20
-8.94720085620031
30
0
41
1
10
112.349454724933
20
-8.62928836369258
30
0
41
1
10
112.460540029078
20
-7.97458055675165
30
0
41
1
10
112.516082681151
20
-7.63779081490722
30
0
41
1
10
112.682710637368
20
-6.60549770121517
30
0
41
1
10
112.793795941514
20
-5.88809626045628
30
0
41
1
10
113.015966549804
20
-4.43014215406845
30
0
41
1
10
113.127051853949
20
-3.6897417123551
30
0
41
1
10
113.34922246224
20
-2.21869535753291
30
0
41
1
10
113.460307766385
20
-1.48813871721552
30
0
41
1
10
113.599164396567
20
-0.597578101187196
30
0
41
1
10
113.626935722603
20
-0.420579154464121
30
0
41
1
10
113.668592711657
20
-0.157001041978646
30
0
41
1
10
113.682478374675
20
-0.0695437624412136
30
0
41
1
10
113.710249700712
20
0.105040216942086
30
0
41
1
10
113.72413536373
20
0.192668820207501
30
0
41
1
10
113.793563678821
20
0.63239732523823
30
0
41
1
10
113.849106330893
20
0.989273463904169
30
0
41
1
10
114.015734287111
20
2.07095764251679
30
0
41
1
10
114.126819591256
20
2.80703736740466
30
0
41
1
10
114.348990199547
20
4.28089480573834
30
0
41
1
10
114.460075503692
20
5.01856484897741
30
0
41
1
10
114.682246111983
20
6.46164144885364
30
0
41
1
10
114.793331416128
20
7.16688349626008
30
0
41
1
10
114.904416720273
20
7.83825857567234
30
0
0
SPLINE
5
FB
100
AcDbEntity
8
1
62
256
6
ByLayer
370
13
48
1
60
0
100
AcDbSpline
70
4
71
3
72
10
73
6
40
0
40
0
40
0
40
0
40
0.5
40
0.5
40
1
40
1
40
1
40
1
41
1
10
114.426418705903
20
14
30
0
41
1
10
114.506085041631
20
14
30
0
41
1
10
114.58575137736
20
13.9731052196195
30
0
41
1
10
114.745084048816
20
13.8589242161525
30
0
41
1
10
114.824750384545
20
13.7716137598354
30
0
41
1
10
114.904416720273
20
13.6515893592075
30
0
0
SPLINE
5
FC
100
AcDbEntity
8
1
62
256
6
ByLayer
370
13
48
1
60
0
100
AcDbSpline
70
4
71
3
72
42
73
38
40
0
40
0
40
0
40
0
40
0.0625000000000018
40
0.0625000000000018
40
0.125000000000004
40
0.125000000000004
40
0.156250000000004
40
0.156250000000004
40
0.171875000000004
40
0.171875000000004
40
0.187500000000004
40
0.187500000000004
40
0.250000000000004
40
0.250000000000004
40
0.312500000000004
40
0.312500000000004
40
0.375000000000003
40
0.375000000000003
40
0.437500000000003
40
0.437500000000003
40
0.500000000000003
40
0.500000000000003
40
0.562500000000002
40
0.562500000000002
40
0.625000000000002
40
0.625000000000002
40
0.687500000000002
40
0.687500000000002
40
0.750000000000001
40
0.750000000000001
40
0.812500000000001
40
0.812500000000001
40
0.875000000000001
40
0.875000000000001
40
0.9375
40
0.9375
40
1
40
1
40
1
40
1
41
1
10
102.3
20
-4.72235510700915
30
0
41
1
10
102.380695757
20
-4.18994109939212
30
0
41
1
10
102.461391514
20
-3.65326001906732
30
0
41
1
10
102.622783028
20
-2.58375966808657
30
0
41
1
10
102.703478785
20
-2.05095952819218
30
0
41
1
10
102.8245224205
20
-1.26269086597728
30
0
41
1
10
102.864870299001
20
-1.0017412353929
30
0
41
1
10
102.925392116751
20
-0.613879471457551
30
0
41
1
10
102.945566056001
20
-0.485184917569512
30
0
41
1
10
102.985913934501
20
-0.229110196654261
30
0
41
1
10
103.006087873751
20
-0.10189870591887
30
0
41
1
10
103.106957570001
20
0.532351327526612
30
0
41
1
10
103.187653327001
20
1.05119338886863
30
0
41
1
10
103.349044841001
20
2.10315282007963
30
0
41
1
10
103.429740598001
20
2.63626095913327
30
0
41
1
10
103.591132112001
20
3.70599399471098
30
0
41
1
10
103.671827869001
20
4.24259942320586
30
0
41
1
10
103.833219383001
20
5.30684635930749
30
0
41
1
10
103.913915140001
20
5.83445885042809
30
0
41
1
10
104.075306654001
20
6.86724933792112
30
0
41
1
10
104.156002411001
20
7.3723918532059
30
0
41
1
10
104.317393925001
20
8.34676379297193
30
0
41
1
10
104.398089682002
20
8.81595646288739
30
0
41
1
10
104.559481196002
20
9.7060475037699
30
0
41
1
10
104.640176953002
20
10.126914009754
30
0
41
1
10
104.801568467002
20
10.9101223702344
30
0
41
1
10
104.882264224002
20
11.2724427141621
30
0
41
1
10
105.043655738002
20
11.9312996440725
30
0
41
1
10
105.124351495002
20
12.227828284508
30
0
41
1
10
105.285743009002
20
12.7512655633618
30
0
41
1
10
105.366438766002
20
12.9781799871775
30
0
41
1
10
105.527830280003
20
13.3620055428896
30
0
41
1
10
105.608526037003
20
13.5189335711397
30
0
41
1
10
105.769917551003
20
13.7655033549525
30
0
41
1
10
105.850613308003
20
13.8551687993294
30
0
41
1
10
106.012004822003
20
13.9724042042206
30
0
41
1
10
106.092700579003
20
14
30
0
41
1
10
106.173396336003
20
14
30
0
0
SPLINE
5
FD
100
AcDbEntity
8
1
62
256
6
ByLayer
370
13
48
1
60
0
100
AcDbSpline
70
4
71
3
72
136
73
132
40
0
40
0
40
0
40
0
40
0.0312500000000003
40
0.0312500000000003
40
0.0468750000000005
40
0.0468750000000005
40
0.0625000000000007
40
0.0625000000000007
40
0.0781250000000009
40
0.0781250000000009
40
0.0937500000000011
40
0.0937500000000011
40
0.109375000000001
40
0.109375000000001
40
0.125000000000001
40
0.125000000000001
40
0.140625000000002
40
0.140625000000002
40
0.156250000000002
40
0.156250000000002
40
0.171875000000002
40
0.171875000000002
40
0.187500000000002
40
0.187500000000002
40
0.203125000000002
40
0.203125000000002
40
0.218750000000003
40
0.218750000000003
40
0.234375000000003
40
0.234375000000003
40
0.250000000000003
40
0.250000000000003
40
0.281250000000003
40
0.281250000000003
40
0.285156250000003
40
0.285156250000003
40
0.289062500000003
40
0.296875000000003
40
0.296875000000003
40
0.312500000000003
40
0.312500000000003
40
0.328125000000003
40
0.328125000000003
40
0.343750000000003
40
0.343750000000003
40
0.359375000000003
40
0.359375000000003
40
0.375000000000003
40
0.375000000000003
40
0.390625000000003
40
0.390625000000003
40
0.406250000000003
40
0.406250000000003
40
0.421875000000003
40
0.421875000000003
40
0.437500000000003
40
0.437500000000003
40
0.453125000000003
40
0.453125000000003
40
0.468750000000003
40
0.468750000000003
40
0.484375000000003
40
0.484375000000003
40
0.500000000000002
40
0.500000000000002
40
0.515625000000002
40
0.515625000000002
40
0.531250000000002
40
0.531250000000002
40
0.562500000000002
40
0.562500000000002
40
0.566406250000002
40
0.566406250000002
40
0.570312500000002
40
0.578125000000002
40
0.578125000000002
40
0.593750000000002
40
0.593750000000002
40
0.609375000000002
40
0.609375000000002
40
0.625000000000002
40
0.625000000000002
40
0.640625000000002
40
0.640625000000002
40
0.656250000000002
40
0.656250000000002
40
0.671875000000002
40
0.671875000000002
40
0.687500000000002
40
0.687500000000002
40
0.703125000000002
40
0.703125000000002
40
0.718750000000002
40
0.718750000000002
40
0.734375000000002
40
0.734375000000002
40
0.750000000000001
40
0.750000000000001
40
0.765625000000001
40
0.765625000000001
40
0.781250000000001
40
0.781250000000001
40
0.796875000000001
40
0.796875000000001
40
0.812500000000001
40
0.812500000000001
40
0.843750000000001
40
0.843750000000001
40
0.847656250000001
40
0.847656250000001
40
0.851562500000001
40
0.851562500000001
40
0.859375000000001
40
0.859375000000001
40
0.875000000000001
40
0.875000000000001
40
0.890625000000001
40
0.890625000000001
40
0.906250000000001
40
0.906250000000001
40
0.921875000000001
40
0.921875000000001
40
0.9375
40
0.9375
40
0.953125
40
0.953125
40
0.96875
40
0.96875
40
0.984375
40
0.984375
40
1
40
1
40
1
40
1
41
1
10
103.755170799303
20
14
30
0
41
1
10
103.871308777646
20
14
30
0
41
1
10
103.98744675599
20
13.942700949775
30
0
41
1
10
104.161653723505
20
13.7562205403902
30
0
41
1
10
104.219722712677
20
13.6773514066266
30
0
41
1
10
104.33586069102
20
13.4845212472125
30
0
41
1
10
104.393929680192
20
13.370555776172
30
0
41
1
10
104.510067658535
20
13.1065408585717
30
0
41
1
10
104.568136647707
20
12.9564879238496
30
0
41
1
10
104.68427462605
20
12.6201185369967
30
0
41
1
10
104.742343615222
20
12.4338000057088
30
0
41
1
10
104.858481593565
20
12.0256176434349
30
0
41
1
10
104.916550582737
20
11.8037534968713
30
0
41
1
10
105.032688561081
20
11.3261330571439
30
0
41
1
10
105.090757550252
20
11.0703784000439
30
0
41
1
10
105.206895528596
20
10.5275457640969
30
0
41
1
10
105.264964517767
20
10.24047134645
30
0
41
1
10
105.381102496111
20
9.63840540096334
30
0
41
1
10
105.439171485283
20
9.32341910572023
30
0
41
1
10
105.555309463626
20
8.66963989046698
30
0
41
1
10
105.613378452798
20
8.33085342242367
30
0
41
1
10
105.729516431141
20
7.63411141985901
30
0
41
1
10
105.787585420313
20
7.27616297238473
30
0
41
1
10
105.903723398656
20
6.54605618547586
30
0
41
1
10
105.961792387828
20
6.1739049402382
30
0
41
1
10
106.077930366172
20
5.42045817781056
30
0
41
1
10
106.135999355343
20
5.03916918161525
30
0
41
1
10
106.252137333687
20
4.27241257056582
30
0
41
1
10
106.310206322858
20
3.8869504452293
30
0
41
1
10
106.426344301202
20
3.11653145529939
30
0
41
1
10
106.484413290373
20
2.73157875721768
30
0
41
1
10
106.658620257889
20
1.58386299354172
30
0
41
1
10
106.774758236232
20
0.828546446700869
30
0
41
1
10
106.905413461869
20
0.0052921897298006
30
0
41
1
10
106.919930709162
20
-0.0857906404270068
30
0
41
1
10
106.948965203747
20
-0.269157023634392
30
0
41
1
10
106.992516945626
20
-0.545271276695331
30
0
41
1
10
107.036068687505
20
-0.824376485384818
30
0
41
1
10
107.123172171262
20
-1.38597988789968
30
0
41
1
10
107.181241160434
20
-1.76492405967571
30
0
41
1
10
107.297379138778
20
-2.52827748586313
30
0
41
1
10
107.355448127949
20
-2.91268426390985
30
0
41
1
10
107.471586106293
20
-3.68279699777494
30
0
41
1
10
107.529655095465
20
-4.06849903742349
30
0
41
1
10
107.645793073808
20
-4.83658717218384
30
0
41
1
10
107.70386206298
20
-5.21896799528056
30
0
41
1
10
107.820000041323
20
-5.97548767566332
30
0
41
1
10
107.878069030495
20
-6.34962016512219
30
0
41
1
10
107.994207008838
20
-7.08458204985482
30
0
41
1
10
108.05227599801
20
-7.44540441260369
30
0
41
1
10
108.168413976354
20
-8.14875265510682
30
0
41
1
10
108.226482965525
20
-8.49127140112486
30
0
41
1
10
108.342620943869
20
-9.15330155861088
30
0
41
1
10
108.40068993304
20
-9.47280636104372
30
0
41
1
10
108.516827911384
20
-10.0845889253692
30
0
41
1
10
108.574896900556
20
-10.3768612017123
30
0
41
1
10
108.691034878899
20
-10.9306338416197
30
0
41
1
10
108.749103868071
20
-11.1921303241768
30
0
41
1
10
108.865241846414
20
-11.681623564182
30
0
41
1
10
108.923310835586
20
-11.9096183371975
30
0
41
1
10
109.039448813929
20
-12.3302863230168
30
0
41
1
10
109.097517803101
20
-12.5229595148299
30
0
41
1
10
109.213655781445
20
-12.8720986031932
30
0
41
1
10
109.271724770616
20
-13.0285662893807
30
0
41
1
10
109.38786274896
20
-13.3053174098656
30
0
41
1
10
109.445931738131
20
-13.4256041146012
30
0
41
1
10
109.562069716475
20
-13.6308477641915
30
0
41
1
10
109.620138705647
20
-13.7158090202266
30
0
41
1
10
109.794345673162
20
-13.9200537882499
30
0
41
1
10
109.910483651505
20
-13.9884996582291
30
0
41
1
10
110.041138877142
20
-13.9999284223262
30
0
41
1
10
110.055656124434
20
-14.0002942772293
30
0
41
1
10
110.08469061902
20
-13.9992430333416
30
0
41
1
10
110.128242360899
20
-13.9949730288399
30
0
41
1
10
110.171794102778
20
-13.9824301462611
30
0
41
1
10
110.258897586536
20
-13.9458258755932
30
0
41
1
10
110.316966575707
20
-13.9060505507311
30
0
41
1
10
110.433104554051
20
-13.7934503446278
30
0
41
1
10
110.491173543222
20
-13.720620498288
30
0
41
1
10
110.607311521566
20
-13.5401197743333
30
0
41
1
10
110.665380510738
20
-13.4324443320999
30
0
41
1
10
110.781518489081
20
-13.1811286269014
30
0
41
1
10
110.839587478253
20
-13.0374846723234
30
0
41
1
10
110.955725456596
20
-12.7139015520213
30
0
41
1
10
111.013794445768
20
-12.5339600288537
30
0
41
1
10
111.129932424111
20
-12.1383372736305
30
0
41
1
10
111.188001413283
20
-11.9226553954176
30
0
41
1
10
111.304139391626
20
-11.4570397344214
30
0
41
1
10
111.362208380798
20
-11.2071072385414
30
0
41
1
10
111.478346359142
20
-10.6754015217655
30
0
41
1
10
111.536415348313
20
-10.3936315342787
30
0
41
1
10
111.652553326657
20
-9.80151741725336
30
0
41
1
10
111.710622315829
20
-9.49117825309656
30
0
41
1
10
111.826760294172
20
-8.84592373009215
30
0
41
1
10
111.884829283344
20
-8.5110146476992
30
0
41
1
10
112.000967261687
20
-7.82117915042338
30
0
41
1
10
112.059036250859
20
-7.46625975608782
30
0
41
1
10
112.175174229202
20
-6.7413216379465
30
0
41
1
10
112.233243218374
20
-6.37131005172654
30
0
41
1
10
112.349381196717
20
-5.62124985716906
30
0
41
1
10
112.407450185889
20
-5.24120790859433
30
0
41
1
10
112.523588164233
20
-4.47608438668667
30
0
41
1
10
112.581657153404
20
-4.09100851126067
30
0
41
1
10
112.697795131748
20
-3.32056249983478
30
0
41
1
10
112.755864120919
20
-2.9351967771841
30
0
41
1
10
112.930071088435
20
-1.78516906750298
30
0
41
1
10
113.046209066778
20
-1.02687764723061
30
0
41
1
10
113.176864292415
20
-0.199127970926014
30
0
41
1
10
113.191381539707
20
-0.10750152281102
30
0
41
1
10
113.220416034293
20
0.0750152546395668
30
0
41
1
10
113.234933281586
20
0.166476773491837
30
0
41
1
10
113.278485023465
20
0.442146225129108
30
0
41
1
10
113.307519518051
20
0.627320847914717
30
0
41
1
10
113.394623001808
20
1.18645442485763
30
0
41
1
10
113.45269199098
20
1.56404130454058
30
0
41
1
10
113.568829969324
20
2.32536111980514
30
0
41
1
10
113.626898958495
20
2.70909182985579
30
0
41
1
10
113.743036936839
20
3.47862389965965
30
0
41
1
10
113.80110592601
20
3.86442159614029
30
0
41
1
10
113.917243904354
20
4.63354295201245
30
0
41
1
10
113.975312893526
20
5.01686156500773
30
0
41
1
10
114.091450871869
20
5.77614180800563
30
0
41
1
10
114.149519861041
20
6.15209723688565
30
0
41
1
10
114.265657839384
20
6.89159969032085
30
0
41
1
10
114.323726828556
20
7.25513976176848
30
0
41
1
10
114.439864806899
20
7.96479065381683
30
0
41
1
10
114.497933796071
20
8.31089431373528
30
0
41
1
10
114.614071774415
20
8.98089605900952
30
0
41
1
10
114.672140763586
20
9.30478739716267
30
0
41
1
10
114.78827874193
20
9.92604377961311
30
0
41
1
10
114.846347731102
20
10.2234031005887
30
0
41
1
10
114.904416720273
20
10.50566141154
30
0
0
SPLINE
5
FE
100
AcDbEntity
8
1
62
256
6
ByLayer
370
13
48
1
60
0
100
AcDbSpline
70
4
71
3
72
14
73
10
40
0
40
0
40
0
40
0
40
0.25
40
0.25
40
0.5
40
0.5
40
0.75
40
0.75
40
1
40
1
40
1
40
1
41
1
10
113.941361982876
20
14
30
0
41
1
10
114.021616544325
20
14
30
0
41
1
10
114.101871105775
20
13.9727057615951
30
0
41
1
10
114.262380228675
20
13.8567846061688
30
0
41
1
10
114.342634790125
20
13.7681325504453
30
0
41
1
10
114.503143913024
20
13.5243688925409
30
0
41
1
10
114.583398474474
20
13.3692341929854
30
0
41
1
10
114.743907597373
20
12.9897817953858
30
0
41
1
10
114.824162158823
20
12.7654475106459
30
0
41
1
10
114.904416720273
20
12.5066682037753
30
0
0
SPLINE
5
FF
100
AcDbEntity
8
1
62
256
6
ByLayer
370
13
48
1
60
0
100
AcDbSpline
70
4
71
3
72
41
73
37
40
0
40
0
40
0
40
0
40
0.0624999999999999
40
0.0624999999999999
40
0.078125
40
0.078125
40
0.0937500000000002
40
0.125
40
0.125
40
0.1875
40
0.1875
40
0.25
40
0.25
40
0.3125
40
0.3125
40
0.375
40
0.375
40
0.4375
40
0.4375
40
0.5
40
0.5
40
0.5625
40
0.5625
40
0.625
40
0.625
40
0.6875
40
0.6875
40
0.75
40
0.75
40
0.8125
40
0.8125
40
0.875
40
0.875
40
0.9375
40
0.9375
40
1
40
1
40
1
40
1
41
1
10
102.3
20
-1.51970237414577
30
0
41
1
10
102.370590408604
20
-1.06004465616095
30
0
41
1
10
102.441180817207
20
-0.605967042038458
30
0
41
1
10
102.529418827962
20
-0.0489717526963034
30
0
41
1
10
102.547066430113
20
0.061649707566545
30
0
41
1
10
102.582361634415
20
0.284527859312107
30
0
41
1
10
102.635304440867
20
0.620419806514889
30
0
41
1
10
102.68824724732
20
0.960670885412668
30
0
41
1
10
102.794132860226
20
1.64589549686096
30
0
41
1
10
102.864723268829
20
2.1090464869869
30
0
41
1
10
103.005904086036
20
3.04124722367126
30
0
41
1
10
103.07649449464
20
3.51028896983078
30
0
41
1
10
103.217675311848
20
4.44637086885544
30
0
41
1
10
103.288265720451
20
4.91339846059105
30
0
41
1
10
103.429446537659
20
5.83673766808275
30
0
41
1
10
103.500036946262
20
6.29303289550668
30
0
41
1
10
103.64121776347
20
7.1858169028506
30
0
41
1
10
103.711808172073
20
7.62228702717948
30
0
41
1
10
103.852988989281
20
8.46648678296643
30
0
41
1
10
103.923579397884
20
8.87419769263033
30
0
41
1
10
104.064760215091
20
9.65267111484823
30
0
41
1
10
104.135350623695
20
10.0234172800189
30
0
41
1
10
104.276531440902
20
10.7210149983368
30
0
41
1
10
104.347121849506
20
11.0478547391958
30
0
41
1
10
104.488302666713
20
11.652385382593
30
0
41
1
10
104.558893075317
20
11.9300704116349
30
0
41
1
10
104.700073892524
20
12.4329992484138
30
0
41
1
10
104.770664301128
20
12.6582434895521
30
0
41
1
10
104.911845118336
20
13.0550422090839
30
0
41
1
10
104.982435526939
20
13.2266027619858
30
0
41
1
10
105.123616344146
20
13.5167282928297
30
0
41
1
10
105.19420675275
20
13.6353035434952
30
0
41
1
10
105.335387569957
20
13.8218439919269
30
0
41
1
10
105.405977978561
20
13.8898218414606
30
0
41
1
10
105.547158795768
20
13.9788932249365
30
0
41
1
10
105.617749204372
20
14
30
0
41
1
10
105.688339612976
20
14
30
0
0
SPLINE
5
100
100
AcDbEntity
8
1
62
256
6
ByLayer
370
13
48
1
60
0
100
AcDbSpline
70
4
71
3
72
142
73
138
40
0
40
0
40
0
40
0
40
0.0156249999999998
40
0.0156249999999998
40
0.0312499999999995
40
0.0312499999999995
40
0.0468749999999993
40
0.0468749999999993
40
0.062499999999999
40
0.062499999999999
40
0.0781249999999988
40
0.0781249999999988
40
0.0937499999999985
40
0.0937499999999985
40
0.109374999999998
40
0.109374999999998
40
0.124999999999998
40
0.124999999999998
40
0.140624999999998
40
0.140624999999998
40
0.156249999999998
40
0.156249999999998
40
0.171874999999997
40
0.171874999999997
40
0.187499999999997
40
0.187499999999997
40
0.203124999999997
40
0.203124999999997
40
0.218749999999997
40
0.218749999999997
40
0.234374999999996
40
0.234374999999996
40
0.249999999999996
40
0.249999999999996
40
0.265624999999996
40
0.265624999999996
40
0.269531249999996
40
0.269531249999996
40
0.273437499999996
40
0.273437499999996
40
0.281249999999996
40
0.281249999999996
40
0.296874999999996
40
0.296874999999996
40
0.312499999999996
40
0.312499999999996
40
0.328124999999996
40
0.328124999999996
40
0.343749999999996
40
0.343749999999996
40
0.359374999999996
40
0.359374999999996
40
0.374999999999996
40
0.374999999999996
40
0.390624999999996
40
0.390624999999996
40
0.406249999999996
40
0.406249999999996
40
0.421874999999996
40
0.421874999999996
40
0.437499999999997
40
0.437499999999997
40
0.453124999999997
40
0.453124999999997
40
0.468749999999997
40
0.468749999999997
40
0.484374999999997
40
0.484374999999997
40
0.499999999999997
40
0.499999999999997
40
0.515624999999997
40
0.515624999999997
40
0.531249999999997
40
0.531249999999997
40
0.539062499999997
40
0.539062499999997
40
0.542968749999997
40
0.542968749999997
40
0.546874999999997
40
0.546874999999997
40
0.562499999999997
40
0.562499999999997
40
0.578124999999997
40
0.578124999999997
40
0.593749999999997
40
0.593749999999997
40
0.609374999999998
40
0.609374999999998
40
0.624999999999998
40
0.624999999999998
40
0.640624999999998
40
0.640624999999998
40
0.656249999999998
40
0.656249999999998
40
0.671874999999998
40
0.671874999999998
40
0.687499999999998
40
0.687499999999998
40
0.703124999999998
40
0.703124999999998
40
0.718749999999998
40
0.718749999999998
40
0.734374999999998
40
0.734374999999998
40
0.749999999999998
40
0.749999999999998
40
0.765624999999999
40
0.765624999999999
40
0.781249999999999
40
0.781249999999999
40
0.796874999999999
40
0.796874999999999
40
0.812499999999999
40
0.812499999999999
40
0.828124999999999
40
0.828124999999999
40
0.843749999999999
40
0.843749999999999
40
0.859374999999999
40
0.859374999999999
40
0.874999999999999
40
0.874999999999999
40
0.890624999999999
40
0.890624999999999
40
0.906249999999999
40
0.906249999999999
40
0.921875
40
0.921875
40
0.9375
40
0.9375
40
0.953125
40
0.953125
40
0.96875
40
0.96875
40
0.984375
40
0.984375
40
1
40
1
40
1
40
1
41
1
10
103.270114076275
20
14
30
0
41
1
10
103.330709402546
20
14
30
0
41
1
10
103.391304728817
20
13.9844534061308
30
0
41
1
10
103.512495381359
20
13.9192949754214
30
0
41
1
10
103.57309070763
20
13.8696769796565
30
0
41
1
10
103.694281360171
20
13.7338733021708
30
0
41
1
10
103.754876686442
20
13.6476815556345
30
0
41
1
10
103.876067338984
20
13.4368944621225
30
0
41
1
10
103.936662665255
20
13.3122937383646
30
0
41
1
10
104.057853317796
20
13.0236933365664
30
0
41
1
10
104.118448644067
20
12.8596896103706
30
0
41
1
10
104.239639296609
20
12.4922722924492
30
0
41
1
10
104.300234622879
20
12.2888565731508
30
0
41
1
10
104.421425275421
20
11.8436836495001
30
0
41
1
10
104.482020601692
20
11.6019266733202
30
0
41
1
10
104.603211254234
20
11.0822488941388
30
0
41
1
10
104.663806580504
20
10.8043308569079
30
0
41
1
10
104.784997233046
20
10.2155734080096
30
0
41
1
10
104.845592559317
20
9.90473917002237
30
0
41
1
10
104.966783211858
20
9.25433665274662
30
0
41
1
10
105.027378538129
20
8.91477551364051
30
0
41
1
10
105.148569190671
20
8.21186469273403
30
0
41
1
10
105.209164516942
20
7.84852342723656
30
0
41
1
10
105.330355169483
20
7.10351977963475
30
0
41
1
10
105.390950495754
20
6.72186626310904
30
0
41
1
10
105.512141148296
20
5.94596493985489
30
0
41
1
10
105.572736474567
20
5.55172561952148
30
0
41
1
10
105.693927127108
20
4.7563754600092
30
0
41
1
10
105.754522453379
20
4.35527202269938
30
0
41
1
10
105.875713105921
20
3.55167143105533
30
0
41
1
10
105.936308432191
20
3.14918009964683
30
0
41
1
10
106.057499084733
20
2.34783647320316
30
0
41
1
10
106.118094411004
20
1.94898817593577
30
0
41
1
10
106.239285063546
20
1.1593702850424
30
0
41
1
10
106.299880389817
20
0.768602854192835
30
0
41
1
10
106.375624547655
20
0.287539216611833
30
0
41
1
10
106.390773379223
20
0.191694531356433
30
0
41
1
10
106.421071042358
20
0.000792823947819
30
0
41
1
10
106.436219873926
20
-0.0942591524747058
30
0
41
1
10
106.481666368629
20
-0.381375748401467
30
0
41
1
10
106.511964031765
20
-0.574330456651552
30
0
41
1
10
106.602857021171
20
-1.15717851035799
30
0
41
1
10
106.663452347441
20
-1.55107741762245
30
0
41
1
10
106.784642999983
20
-2.34555931904018
30
0
41
1
10
106.845238326254
20
-2.74613955351006
30
0
41
1
10
106.966428978796
20
-3.54933844944634
30
0
41
1
10
107.027024305066
20
-3.95195249570622
30
0
41
1
10
107.148214957608
20
-4.75402305992193
30
0
41
1
10
107.208810283879
20
-5.15347319150214
30
0
41
1
10
107.330000936421
20
-5.94363525983454
30
0
41
1
10
107.390596262691
20
-6.33433936851472
30
0
41
1
10
107.511786915233
20
-7.10125876751221
30
0
41
1
10
107.572382241504
20
-7.47746535917204
30
0
41
1
10
107.693572894046
20
-8.20971949759044
30
0
41
1
10
107.754168220316
20
-8.56575823326327
30
0
41
1
10
107.875358872858
20
-9.25235258047337
30
0
41
1
10
107.935954199129
20
-9.58290011138965
30
0
41
1
10
108.05714485167
20
-10.213790808701
30
0
41
1
10
108.117740177941
20
-10.5141274210304
30
0
41
1
10
108.238930830483
20
-11.0807003994839
30
0
41
1
10
108.299526156754
20
-11.346932356371
30
0
41
1
10
108.420716809295
20
-11.8423921395694
30
0
41
1
10
108.481312135566
20
-12.0716180434361
30
0
41
1
10
108.602502788108
20
-12.4912498485444
30
0
41
1
10
108.663098114378
20
-12.6816563373347
30
0
41
1
10
108.78428876692
20
-13.0229412614797
30
0
41
1
10
108.844884093191
20
-13.1738225196474
30
0
41
1
10
108.966074745733
20
-13.4364042681223
30
0
41
1
10
109.026670072003
20
-13.5481093175015
30
0
41
1
10
109.147860724545
20
-13.7336284254828
30
0
41
1
10
109.208456050816
20
-13.8074481595308
30
0
41
1
10
109.329646703357
20
-13.9192729022317
30
0
41
1
10
109.390242029628
20
-13.9572840682189
30
0
41
1
10
109.481135019035
20
-13.9894518829484
30
0
41
1
10
109.51143268217
20
-13.99603714786
30
0
41
1
10
109.556879176873
20
-13.9999909136992
30
0
41
1
10
109.572028008441
20
-14.0003252062727
30
0
41
1
10
109.602325671576
20
-13.9990508603709
30
0
41
1
10
109.617474503144
20
-13.9974349303599
30
0
41
1
10
109.693218660982
20
-13.9843410694673
30
0
41
1
10
109.753813987253
20
-13.9578033859368
30
0
41
1
10
109.875004639795
20
-13.8697701898561
30
0
41
1
10
109.935599966066
20
-13.8082684897536
30
0
41
1
10
110.056790618607
20
-13.6480055588275
30
0
41
1
10
110.117385944878
20
-13.5492384216073
30
0
41
1
10
110.23857659742
20
-13.3128693222451
30
0
41
1
10
110.299171923691
20
-13.1752623532666
30
0
41
1
10
110.420362576232
20
-12.8605308819422
30
0
41
1
10
110.480957902503
20
-12.6834029084025
30
0
41
1
10
110.602148555045
20
-12.2899689328612
30
0
41
1
10
110.662743881316
20
-12.0736615472273
30
0
41
1
10
110.783934533857
20
-11.6033053087398
30
0
41
1
10
110.844529860128
20
-11.3492575202873
30
0
41
1
10
110.96572051267
20
-10.8059600547619
30
0
41
1
10
111.026315838941
20
-10.5167139725224
30
0
41
1
10
111.147506491482
20
-9.90659264743942
30
0
41
1
10
111.208101817753
20
-9.58572329362283
30
0
41
1
10
111.329292470295
20
-8.9168178106315
30
0
41
1
10
111.389887796566
20
-8.56878933084175
30
0
41
1
10
111.511078449107
20
-7.85071221782286
30
0
41
1
10
111.571673775378
20
-7.48067224446083
30
0
41
1
10
111.69286442792
20
-6.72415527988264
30
0
41
1
10
111.75345975419
20
-6.33768711653172
30
0
41
1
10
111.874650406732
20
-5.55406778924436
30
0
41
1
10
111.935245733003
20
-5.15692482109762
30
0
41
1
10
112.056436385545
20
-4.35762240209783
30
0
41
1
10
112.117031711816
20
-3.95546987220629
30
0
41
1
10
112.238222364357
20
-3.15149827618393
30
0
41
1
10
112.298817690628
20
-2.74968444254833
30
0
41
1
10
112.42000834317
20
-1.95123992948825
30
0
41
1
10
112.48060366944
20
-1.55461262972253
30
0
41
1
10
112.601794321982
20
-0.770761022485914
30
0
41
1
10
112.662389648253
20
-0.383538301090511
30
0
41
1
10
112.783580300794
20
0.377988231652068
30
0
41
1
10
112.844175627065
20
0.765093801730984
30
0
41
1
10
112.965366279607
20
1.5488544911625
30
0
41
1
10
113.025961605878
20
1.94544574380322
30
0
41
1
10
113.147152258419
20
2.74384025330255
30
0
41
1
10
113.20774758469
20
3.14564013952239
30
0
41
1
10
113.328938237232
20
3.94960872440859
30
0
41
1
10
113.389533563503
20
4.35177219938302
30
0
41
1
10
113.510724216044
20
5.15112342317761
30
0
41
1
10
113.571319542315
20
5.54830425844241
30
0
41
1
10
113.692510194857
20
6.33202725557317
30
0
41
1
10
113.753105521127
20
6.71856122645446
30
0
41
1
10
113.874296173669
20
7.47523756494701
30
0
41
1
10
113.93489149994
20
7.84537110591648
30
0
41
1
10
114.056082152482
20
8.56366164460852
30
0
41
1
10
114.116677478752
20
8.91180997959151
30
0
41
1
10
114.237868131294
20
9.58097872667619
30
0
41
1
10
114.298463457565
20
9.90199148254072
30
0
41
1
10
114.419654110107
20
10.5124193072977
30
0
41
1
10
114.480249436377
20
10.8018284771025
30
0
41
1
10
114.601440088919
20
11.3454670911326
30
0
41
1
10
114.66203541519
20
11.599692928546
30
0
41
1
10
114.783226067732
20
12.0704149880699
30
0
41
1
10
114.843821394002
20
12.2869101334325
30
0
41
1
10
114.904416720273
20
12.4838170388447
30
0
0
SPLINE
5
101
100
AcDbEntity
8
1
62
256
6
ByLayer
370
13
48
1
60
0
100
AcDbSpline
70
4
71
3
72
22
73
18
40
0
40
0
40
0
40
0
40
0.125
40
0.125
40
0.25
40
0.25
40
0.375
40
0.375
40
0.5
40
0.5
40
0.625
40
0.625
40
0.75
40
0.75
40
0.875
40
0.875
40
1
40
1
40
1
40
1
41
1
10
113.456305259848
20
14
30
0
41
1
10
113.516643237366
20
14
30
0
41
1
10
113.576981214884
20
13.9845853215473
30
0
41
1
10
113.697657169919
20
13.9199914036098
30
0
41
1
10
113.757995147437
20
13.8708061353949
30
0
41
1
10
113.878671102472
20
13.7361967983076
30
0
41
1
10
113.93900907999
20
13.6507667889697
30
0
41
1
10
114.059685035025
20
13.4418474882368
30
0
41
1
10
114.120023012543
20
13.3183529204959
30
0
41
1
10
114.240698967578
20
13.0323083672618
30
0
41
1
10
114.301036945096
20
12.8697543913941
30
0
41
1
10
114.421712900131
20
12.5055606685316
30
0
41
1
10
114.482050877649
20
12.303918793506
30
0
41
1
10
114.602726832685
20
11.862578634916
30
0
41
1
10
114.663064810202
20
11.622880512453
30
0
41
1
10
114.783740765238
20
11.1075479127261
30
0
41
1
10
114.844078742755
20
10.8319160694521
30
0
41
1
10
114.904416720273
20
10.5399006800179
30
0
0
SPLINE
5
102
100
AcDbEntity
8
1
62
256
6
ByLayer
370
13
48
1
60
0
100
AcDbSpline
70
4
71
3
72
38
73
34
40
0
40
0
40
0
40
0
40
0.0625000000000001
40
0.0625000000000001
40
0.125
40
0.125
40
0.1875
40
0.1875
40
0.250000000000001
40
0.250000000000001
40
0.312500000000001
40
0.312500000000001
40
0.375000000000001
40
0.375000000000001
40
0.437500000000001
40
0.437500000000001
40
0.500000000000001
40
0.500000000000001
40
0.562500000000001
40
0.562500000000001
40
0.625000000000001
40
0.625000000000001
40
0.687500000000001
40
0.687500000000001
40
0.75
40
0.75
40
0.8125
40
0.8125
40
0.875
40
0.875
40
0.9375
40
0.9375
40
1
40
1
40
1
40
1
41
1
10
102.3
20
1.58867444135106
30
0
41
1
10
102.360485060207
20
1.98299641330414
30
0
41
1
10
102.420970120415
20
2.38128322624587
30
0
41
1
10
102.541940240829
20
3.18136095358193
30
0
41
1
10
102.602425301036
20
3.58314785596863
30
0
41
1
10
102.723395421451
20
4.38521025756373
30
0
41
1
10
102.783880481658
20
4.78547994264534
30
0
41
1
10
102.904850602073
20
5.57905453665953
30
0
41
1
10
102.96533566228
20
5.97235207872032
30
0
41
1
10
103.086305782694
20
6.7462900799955
30
0
41
1
10
103.146790842902
20
7.12692211332143
30
0
41
1
10
103.267760963316
20
7.86983690983055
30
0
41
1
10
103.328246023523
20
8.23211088830573
30
0
41
1
10
103.449216143938
20
8.93287857123252
30
0
41
1
10
103.509701204145
20
9.27136395144038
30
0
41
1
10
103.63067132456
20
9.91964451462073
30
0
41
1
10
103.691156384767
20
10.2294326489675
30
0
41
1
10
103.812126505181
20
10.8161635875059
30
0
41
1
10
103.872611565389
20
11.0931012971452
30
0
41
1
10
103.993581685803
20
11.6109156510324
30
0
41
1
10
104.05406674601
20
11.8517895864668
30
0
41
1
10
104.175036866425
20
12.2953185150871
30
0
41
1
10
104.235521926632
20
12.4979733091895
30
0
41
1
10
104.356492047047
20
12.8640077348873
30
0
41
1
10
104.416977107254
20
13.0273894944198
30
0
41
1
10
104.537947227669
20
13.314893367368
30
0
41
1
10
104.598432287876
20
13.4390195041691
30
0
41
1
10
104.71940240829
20
13.6490052329472
30
0
41
1
10
104.779887468498
20
13.7348701585164
30
0
41
1
10
104.900857588912
20
13.8701614140928
30
0
41
1
10
104.961342649119
20
13.9195937553922
30
0
41
1
10
105.082312769534
20
13.9845099969116
30
0
41
1
10
105.142797829741
20
14
30
0
41
1
10
105.203282889948
20
14
30
0
0
SPLINE
5
103
100
AcDbEntity
8
1
62
256
6
ByLayer
370
13
48
1
60
0
100
AcDbSpline
70
4
71
3
72
146
73
142
40
0
40
0
40
0
40
0
40
0.0156249999999995
40
0.0156249999999995
40
0.031249999999999
40
0.031249999999999
40
0.0468749999999985
40
0.0468749999999985
40
0.062499999999998
40
0.062499999999998
40
0.0781249999999975
40
0.0781249999999975
40
0.093749999999997
40
0.093749999999997
40
0.109374999999997
40
0.109374999999997
40
0.124999999999996
40
0.124999999999996
40
0.140624999999996
40
0.140624999999996
40
0.156249999999995
40
0.156249999999995
40
0.171874999999995
40
0.171874999999995
40
0.187499999999994
40
0.187499999999994
40
0.203124999999994
40
0.203124999999994
40
0.218749999999993
40
0.218749999999993
40
0.234374999999993
40
0.234374999999993
40
0.249999999999992
40
0.249999999999992
40
0.257812499999992
40
0.257812499999992
40
0.261718749999992
40
0.261718749999992
40
0.265624999999992
40
0.265624999999992
40
0.281249999999992
40
0.281249999999992
40
0.296874999999992
40
0.296874999999992
40
0.312499999999992
40
0.312499999999992
40
0.328124999999993
40
0.328124999999993
40
0.343749999999993
40
0.343749999999993
40
0.359374999999993
40
0.359374999999993
40
0.374999999999993
40
0.374999999999993
40
0.390624999999993
40
0.390624999999993
40
0.406249999999993
40
0.406249999999993
40
0.421874999999994
40
0.421874999999994
40
0.437499999999994
40
0.437499999999994
40
0.453124999999994
40
0.453124999999994
40
0.468749999999994
40
0.468749999999994
40
0.484374999999994
40
0.484374999999994
40
0.499999999999994
40
0.499999999999994
40
0.515624999999995
40
0.515624999999995
40
0.519531249999995
40
0.519531249999995
40
0.523437499999995
40
0.523437499999995
40
0.531249999999995
40
0.531249999999995
40
0.546874999999995
40
0.546874999999995
40
0.562499999999995
40
0.562499999999995
40
0.578124999999995
40
0.578124999999995
40
0.593749999999995
40
0.593749999999995
40
0.609374999999996
40
0.609374999999996
40
0.624999999999996
40
0.624999999999996
40
0.640624999999996
40
0.640624999999996
40
0.656249999999996
40
0.656249999999996
40
0.671874999999996
40
0.671874999999996
40
0.687499999999996
40
0.687499999999996
40
0.703124999999997
40
0.703124999999997
40
0.718749999999997
40
0.718749999999997
40
0.734374999999997
40
0.734374999999997
40
0.749999999999997
40
0.749999999999997
40
0.765624999999997
40
0.765624999999997
40
0.773437499999997
40
0.773437499999997
40
0.777343749999997
40
0.777343749999997
40
0.781249999999998
40
0.781249999999998
40
0.796874999999998
40
0.796874999999998
40
0.812499999999998
40
0.812499999999998
40
0.828124999999998
40
0.828124999999998
40
0.843749999999998
40
0.843749999999998
40
0.859374999999998
40
0.859374999999998
40
0.874999999999999
40
0.874999999999999
40
0.890624999999999
40
0.890624999999999
40
0.906249999999999
40
0.906249999999999
40
0.921874999999999
40
0.921874999999999
40
0.937499999999999
40
0.937499999999999
40
0.953124999999999
40
0.953124999999999
40
0.96875
40
0.96875
40
0.984375
40
0.984375
40
1
40
1
40
1
40
1
41
1
10
102.785057353248
20
14
30
0
41
1
10
102.848179016618
20
14
30
0
41
1
10
102.911300679988
20
13.983128467378
30
0
41
1
10
103.037544006728
20
13.9122925080788
30
0
41
1
10
103.100665670098
20
13.8583205212863
30
0
41
1
10
103.226908996838
20
13.7104952639757
30
0
41
1
10
103.290030660208
20
13.6166345985698
30
0
41
1
10
103.416273986947
20
13.3870462299325
30
0
41
1
10
103.479395650317
20
13.2513120956897
30
0
41
1
10
103.605638977057
20
12.9370042917001
30
0
41
1
10
103.668760640427
20
12.758426005421
30
0
41
1
10
103.795003967167
20
12.3586396809086
30
0
41
1
10
103.858125630537
20
12.1374296020978
30
0
41
1
10
103.984368957277
20
11.6538744242595
30
0
41
1
10
104.047490620647
20
11.3915303775532
30
0
41
1
10
104.173733947386
20
10.8285034749616
30
0
41
1
10
104.236855610756
20
10.5278249064975
30
0
41
1
10
104.363098937496
20
9.89214669742103
30
0
41
1
10
104.426220600866
20
9.55715428211784
30
0
41
1
10
104.552463927606
20
8.85791335872847
30
0
41
1
10
104.615585590976
20
8.4936743039024
30
0
41
1
10
104.741828917716
20
7.74179901438748
30
0
41
1
10
104.804950581086
20
7.35417345567356
30
0
41
1
10
104.931193907825
20
6.56187193428579
30
0
41
1
10
104.994315571195
20
6.1572067489175
30
0
41
1
10
105.120558897935
20
5.33733441627706
30
0
41
1
10
105.183680561305
20
4.9221371034846
30
0
41
1
10
105.309923888045
20
4.08755752647815
30
0
41
1
10
105.373045551415
20
3.66818334592816
30
0
41
1
10
105.499288878155
20
2.83118396289427
30
0
41
1
10
105.562410541525
20
2.41356461264775
30
0
41
1
10
105.688653868265
20
1.58537514949779
30
0
41
1
10
105.751775531634
20
1.17480851830643
30
0
41
1
10
105.846458026689
20
0.567640255631972
30
0
41
1
10
105.878018858374
20
0.366691426668893
30
0
41
1
10
105.925360105902
20
0.0677940395644043
30
0
41
1
10
105.941140521744
20
-0.0311560148509784
30
0
41
1
10
105.972701353429
20
-0.230213243678406
30
0
41
1
10
105.988481769272
20
-0.330165941476224
30
0
41
1
10
106.067383848484
20
-0.831902961450794
30
0
41
1
10
106.130505511854
20
-1.23964056135117
30
0
41
1
10
106.256748838594
20
-2.06352384368176
30
0
41
1
10
106.319870501964
20
-2.47966669310927
30
0
41
1
10
106.446113828704
20
-3.31527113333968
30
0
41
1
10
106.509235492074
20
-3.73472753730422
30
0
41
1
10
106.635478818813
20
-4.57118935189521
30
0
41
1
10
106.698600482183
20
-4.98818727188328
30
0
41
1
10
106.824843808923
20
-5.8134726556261
30
0
41
1
10
106.887965472293
20
-6.22175070794177
30
0
41
1
10
107.014208799033
20
-7.0231025386002
30
0
41
1
10
107.077330462403
20
-7.41616570663067
30
0
41
1
10
107.203573789143
20
-8.18066305760161
30
0
41
1
10
107.266695452513
20
-8.55208642276614
30
0
41
1
10
107.392938779253
20
-9.26727406462552
30
0
41
1
10
107.456060442622
20
-9.61102843464838
30
0
41
1
10
107.582303769362
20
-10.2655578643884
30
0
41
1
10
107.645425432732
20
-10.5763249860451
30
0
41
1
10
107.771668759472
20
-11.1605412260513
30
0
41
1
10
107.834790422842
20
-11.4339851830603
30
0
41
1
10
107.961033749582
20
-11.9403972574154
30
0
41
1
10
108.024155412952
20
-12.1733634100965
30
0
41
1
10
108.150398739691
20
-12.5969510119439
30
0
41
1
10
108.213520403061
20
-12.7875736714051
30
0
41
1
10
108.339763729801
20
-13.1259052085445
30
0
41
1
10
108.402885393171
20
-13.2736180487359
30
0
41
1
10
108.529128719911
20
-13.5267810750257
30
0
41
1
10
108.592250383281
20
-13.6322372676316
30
0
41
1
10
108.718493710021
20
-13.8026058296293
30
0
41
1
10
108.781615373391
20
-13.8675254084445
30
0
41
1
10
108.907858700131
20
-13.9594057000069
30
0
41
1
10
108.9709803635
20
-13.9863739996718
30
0
41
1
10
109.049882442713
20
-13.9983763252321
30
0
41
1
10
109.065662858555
20
-13.9996926366525
30
0
41
1
10
109.09722369024
20
-14.0002116633649
30
0
41
1
10
109.113004106083
20
-13.9994196421831
30
0
41
1
10
109.16034535361
20
-13.9938133096089
30
0
41
1
10
109.191906185295
20
-13.9857648647859
30
0
41
1
10
109.28658868035
20
-13.9480553341131
30
0
41
1
10
109.34971034372
20
-13.904809782051
30
0
41
1
10
109.47595367046
20
-13.7791488743322
30
0
41
1
10
109.53907533383
20
-13.6967260018835
30
0
41
1
10
109.66531866057
20
-13.4904769381313
30
0
41
1
10
109.728440323939
20
-13.3666439592315
30
0
41
1
10
109.854683650679
20
-13.0762983788302
30
0
41
1
10
109.917805314049
20
-12.9097805677692
30
0
41
1
10
110.044048640789
20
-12.5339295317698
30
0
41
1
10
110.107170304159
20
-12.3245934775381
30
0
41
1
10
110.233413630899
20
-11.8642342728937
30
0
41
1
10
110.296535294269
20
-11.6132112740801
30
0
41
1
10
110.422778621009
20
-11.0719128450423
30
0
41
1
10
110.485900284379
20
-10.7816408047326
30
0
41
1
10
110.612143611118
20
-10.1655327959446
30
0
41
1
10
110.675265274488
20
-9.83970328333268
30
0
41
1
10
110.801508601228
20
-9.15727387582314
30
0
41
1
10
110.864630264598
20
-8.80068290041811
30
0
41
1
10
110.990873591338
20
-8.06239578558166
30
0
41
1
10
111.053995254708
20
-7.68071009072708
30
0
41
1
10
111.180238581448
20
-6.89847604672593
30
0
41
1
10
111.243360244818
20
-6.49793855858968
30
0
41
1
10
111.369603571558
20
-5.68449674394117
30
0
41
1
10
111.432725234927
20
-5.2716026107052
30
0
41
1
10
111.558968561667
20
-4.43987669128617
30
0
41
1
10
111.622090225037
20
-4.02105354383738
30
0
41
1
10
111.748333551777
20
-3.18354645863599
30
0
41
1
10
111.811455215147
20
-2.76486902788116
30
0
41
1
10
111.937698541887
20
-1.93314879614403
30
0
41
1
10
112.000820205257
20
-1.520110138148
30
0
41
1
10
112.095502700312
20
-0.908343351627792
30
0
41
1
10
112.127063531997
20
-0.705713455238964
30
0
41
1
10
112.174404779524
20
-0.404094423867235
30
0
41
1
10
112.190185195367
20
-0.303941971350355
30
0
41
1
10
112.221746027051
20
-0.104471090099821
30
0
41
1
10
112.237526442894
20
-0.0054426705131334
30
0
41
1
10
112.316428522106
20
0.491676844371597
30
0
41
1
10
112.379550185476
20
0.896246862889512
30
0
41
1
10
112.505793512216
20
1.71508338690492
30
0
41
1
10
112.568915175586
20
2.12934769024037
30
0
41
1
10
112.695158502326
20
2.96269903217956
30
0
41
1
10
112.758280165696
20
3.38178155287878
30
0
41
1
10
112.884523492436
20
4.21917439186524
30
0
41
1
10
112.947645155806
20
4.63747784267576
30
0
41
1
10
113.073888482545
20
5.46716735444156
30
0
41
1
10
113.137010145915
20
5.87854448432142
30
0
41
1
10
113.263253472655
20
6.68792435387479
30
0
41
1
10
113.326375136025
20
7.08591672925422
30
0
41
1
10
113.452618462765
20
7.86205050120586
30
0
41
1
10
113.515740126135
20
8.24018102754246
30
0
41
1
10
113.641983452875
20
8.97041730945992
30
0
41
1
10
113.705105116245
20
9.32251278948991
30
0
41
1
10
113.831348442984
20
9.99512955917004
30
0
41
1
10
113.894470106354
20
10.3156422625721
30
0
41
1
10
114.020713433094
20
10.9204555333922
30
0
41
1
10
114.083835096464
20
11.2047500989822
30
0
41
1
10
114.210078423204
20
11.7336226612725
30
0
41
1
10
114.273200086574
20
11.9781977789901
30
0
41
1
10
114.399443413314
20
12.4253954437789
30
0
41
1
10
114.462565076684
20
12.6280183368113
30
0
41
1
10
114.588808403424
20
12.9903819495936
30
0
41
1
10
114.651930066793
20
13.1501259210584
30
0
41
1
10
114.778173393533
20
13.4270529091077
30
0
41
1
10
114.841295056903
20
13.5442414404787
30
0
41
1
10
114.904416720273
20
13.6408683891198
30
0
0
SPLINE
5
104
100
AcDbEntity
8
1
62
256
6
ByLayer
370
13
48
1
60
0
100
AcDbSpline
70
4
71
3
72
22
73
18
40
0
40
0
40
0
40
0
40
0.125
40
0.125
40
0.25
40
0.25
40
0.375
40
0.375
40
0.5
40
0.5
40
0.625
40
0.625
40
0.75
40
0.75
40
0.875
40
0.875
40
1
40
1
40
1
40
1
41
1
10
112.971248536821
20
14
30
0
41
1
10
113.051797211132
20
14
30
0
41
1
10
113.132345885442
20
13.9725049206843
30
0
41
1
10
113.293443234063
20
13.8557085142292
30
0
41
1
10
113.373991908373
20
13.7663815857165
30
0
41
1
10
113.535089256994
20
13.5207491768168
30
0
41
1
10
113.615637931305
20
13.3644202059813
30
0
41
1
10
113.776735279926
20
12.9820553963227
30
0
41
1
10
113.857283954237
20
12.7560027644546
30
0
41
1
10
114.018381302858
20
12.2345287423611
30
0
41
1
10
114.098929977168
20
11.939101526294
30
0
41
1
10
114.260027325789
20
11.2826378033792
30
0
41
1
10
114.3405760001
20
10.9216090419932
30
0
41
1
10
114.501673348721
20
10.1411021219059
30
0
41
1
10
114.582222023031
20
9.72164514405961
30
0
41
1
10
114.743319371652
20
8.83440469327738
30
0
41
1
10
114.823868045963
20
8.36665269681291
30
0
41
1
10
114.904416720273
20
7.88087800696556
30
0
0
SPLINE
5
105
100
AcDbEntity
8
1
62
256
6
ByLayer
370
13
48
1
60
0
100
AcDbSpline
70
4
71
3
72
22
73
18
40
0
40
0
40
0
40
0
40
0.125
40
0.125
40
0.25
40
0.25
40
0.375
40
0.375
40
0.5
40
0.5
40
0.625
40
0.625
40
0.75
40
0.75
40
0.875
40
0.875
40
1
40
1
40
1
40
1
41
1
10
102.3
20
4.7921730744149
30
0
41
1
10
102.400759423622
20
5.45647542488422
30
0
41
1
10
102.501518847244
20
6.11364460419824
30
0
41
1
10
102.703037694487
20
7.38751562785279
30
0
41
1
10
102.803797118109
20
8.00410752746939
30
0
41
1
10
103.005315965352
20
9.17110101880866
30
0
41
1
10
103.106075388974
20
9.72139676636894
30
0
41
1
10
103.307594236217
20
10.7340742277045
30
0
41
1
10
103.408353659839
20
11.1963821112739
30
0
41
1
10
103.609872507082
20
12.0181584938872
30
0
41
1
10
103.710631930704
20
12.3776031225367
30
0
41
1
10
103.912150777947
20
12.9870465523952
30
0
41
1
10
104.012910201569
20
13.2370722453609
30
0
41
1
10
104.214429048813
20
13.6293310263544
30
0
41
1
10
104.315188472434
20
13.7716271724794
30
0
41
1
10
104.516707319678
20
13.9569228168085
30
0
41
1
10
104.617466743299
20
14
30
0
41
1
10
104.718226166921
20
14
30
0
0
SPLINE
5
106
100
AcDbEntity
8
1
62
256
6
ByLayer
370
13
48
1
60
0
100
AcDbSpline
70
4
71
3
72
134
73
130
40
0
40
0
40
0
40
0
40
0.015625
40
0.015625
40
0.03125
40
0.03125
40
0.046875
40
0.046875
40
0.0625
40
0.0625
40
0.078125
40
0.078125
40
0.09375
40
0.09375
40
0.109375
40
0.109375
40
0.125
40
0.125
40
0.140625
40
0.140625
40
0.15625
40
0.15625
40
0.171875
40
0.171875
40
0.1875
40
0.1875
40
0.203125
40
0.203125
40
0.21875
40
0.21875
40
0.234375
40
0.234375
40
0.25
40
0.25
40
0.265625
40
0.265625
40
0.28125
40
0.28125
40
0.296875
40
0.296875
40
0.3125
40
0.3125
40
0.328125
40
0.328125
40
0.34375
40
0.34375
40
0.359375
40
0.359375
40
0.375
40
0.375
40
0.390625
40
0.390625
40
0.40625
40
0.40625
40
0.421875
40
0.421875
40
0.4375
40
0.4375
40
0.453125
40
0.453125
40
0.46875
40
0.46875
40
0.484375
40
0.484375
40
0.5
40
0.5
40
0.515625
40
0.515625
40
0.53125
40
0.53125
40
0.546875
40
0.546875
40
0.5625
40
0.5625
40
0.578125
40
0.578125
40
0.59375
40
0.59375
40
0.609375
40
0.609375
40
0.625
40
0.625
40
0.640625
40
0.640625
40
0.65625
40
0.65625
40
0.671875
40
0.671875
40
0.6875
40
0.6875
40
0.703125
40
0.703125
40
0.71875
40
0.71875
40
0.734375
40
0.734375
40
0.75
40
0.75
40
0.765625
40
0.765625
40
0.78125
40
0.78125
40
0.796875
40
0.796875
40
0.8125
40
0.8125
40
0.828125
40
0.828125
40
0.84375
40
0.84375
40
0.859375
40
0.859375
40
0.875
40
0.875
40
0.890625
40
0.890625
40
0.90625
40
0.90625
40
0.921875
40
0.921875
40
0.9375
40
0.9375
40
0.953125
40
0.953125
40
0.96875
40
0.96875
40
0.984375
40
0.984375
40
1
40
1
40
1
40
1
41
1
10
102.300000630221
20
14
30
0
41
1
10
102.36564863069
20
14
30
0
41
1
10
102.431296631159
20
13.9817491342688
30
0
41
1
10
102.562592632097
20
13.9049883184059
30
0
41
1
10
102.628240632566
20
13.8464691637429
30
0
41
1
10
102.759536633504
20
13.6860812000376
30
0
41
1
10
102.825184633973
20
13.5842034531675
30
0
41
1
10
102.956480634911
20
13.3349674882256
30
0
41
1
10
103.02212863538
20
13.1876016598617
30
0
41
1
10
103.153424636318
20
12.8464709745647
30
0
41
1
10
103.219072636787
20
12.6527009488232
30
0
41
1
10
103.350368637725
20
12.219251567497
30
0
41
1
10
103.416016638194
20
11.9795704466098
30
0
41
1
10
103.547312639132
20
11.4563043384519
30
0
41
1
10
103.612960639601
20
11.1727215809702
30
0
41
1
10
103.744256640539
20
10.5651683090564
30
0
41
1
10
103.809904641008
20
10.241204070705
30
0
41
1
10
103.941200641946
20
9.55778662261926
30
0
41
1
10
104.006848642415
20
9.19834318363314
30
0
41
1
10
104.138144643353
20
8.45000536580142
30
0
41
1
10
104.203792643822
20
8.06112317380757
30
0
41
1
10
104.335088644761
20
7.26075112153453
30
0
41
1
10
104.40073664523
20
6.84927445924851
30
0
41
1
10
104.532032646167
20
6.01097552951285
30
0
41
1
10
104.597680646637
20
5.5841660093329
30
0
41
1
10
104.728976647575
20
4.72248740942106
30
0
41
1
10
104.794624648044
20
4.28762936953214
30
0
41
1
10
104.925920648982
20
3.41680234425093
30
0
41
1
10
104.991568649451
20
2.98084182690104
30
0
41
1
10
105.122864650389
20
2.11412546074342
30
0
41
1
10
105.188512650858
20
1.68337511284858
30
0
41
1
10
105.319808651796
20
0.832551062641272
30
0
41
1
10
105.385456652265
20
0.412479937098908
30
0
41
1
10
105.516752653203
20
-0.412477957199968
30
0
41
1
10
105.582400653672
20
-0.832549037622897
30
0
41
1
10
105.71369665461
20
-1.68337305391154
30
0
41
1
10
105.779344655079
20
-2.11412338884909
30
0
41
1
10
105.910640656017
20
-2.98083973855677
30
0
41
1
10
105.976288656486
20
-3.41680025241874
30
0
41
1
10
106.107584657424
20
-4.28762728139452
30
0
41
1
10
106.173232657893
20
-4.7224853284705
30
0
41
1
10
106.304528658831
20
-5.58416395422606
30
0
41
1
10
106.3701766593
20
-6.01097349306625
30
0
41
1
10
106.501472660238
20
-6.84927247186007
30
0
41
1
10
106.567120660707
20
-7.26074916454587
30
0
41
1
10
106.698416661645
20
-8.06112128901015
30
0
41
1
10
106.764064662114
20
-8.45000352279499
30
0
41
1
10
106.895360663052
20
-9.19834143461776
30
0
41
1
10
106.961008663521
20
-9.55778492580109
30
0
41
1
10
107.09230466446
20
-10.2412024871191
30
0
41
1
10
107.157952664929
20
-10.5651667865008
30
0
41
1
10
107.289248665867
20
-11.1727201872698
30
0
41
1
10
107.354896666336
20
-11.4563030125702
30
0
41
1
10
107.486192667274
20
-11.9795692608138
30
0
41
1
10
107.551840667743
20
-12.2192504539612
30
0
41
1
10
107.683136668681
20
-12.6526999818015
30
0
41
1
10
107.74878466915
20
-12.8464700817909
30
0
41
1
10
107.880080670088
20
-13.1876009152079
30
0
41
1
10
107.945728670557
20
-13.3349668174392
30
0
41
1
10
108.077024671495
20
-13.5842029276209
30
0
41
1
10
108.142672671964
20
-13.6860807458604
30
0
41
1
10
108.273968672902
20
-13.8464688480575
30
0
41
1
10
108.339616673371
20
-13.9049880698419
30
0
41
1
10
108.470912674309
20
-13.9817490143806
30
0
41
1
10
108.536560674778
20
-13.9999999416665
30
0
41
1
10
108.667856675716
20
-14.0000000583332
30
0
41
1
10
108.733504676185
20
-13.9817492541567
30
0
41
1
10
108.864800677123
20
-13.9049885669696
30
0
41
1
10
108.930448677592
20
-13.8464694794279
30
0
41
1
10
109.06174467853
20
-13.6860816542145
30
0
41
1
10
109.127392678999
20
-13.5842039787137
30
0
41
1
10
109.258688679937
20
-13.3349681590117
30
0
41
1
10
109.324336680406
20
-13.1876024045152
30
0
41
1
10
109.455632681344
20
-12.8464718673382
30
0
41
1
10
109.521280681813
20
-12.6527019158445
30
0
41
1
10
109.652576682751
20
-12.2192526810324
30
0
41
1
10
109.71822468322
20
-11.9795716324055
30
0
41
1
10
109.849520684158
20
-11.4563056643332
30
0
41
1
10
109.915168684628
20
-11.1727229746703
30
0
41
1
10
110.046464685565
20
-10.5651698316117
30
0
41
1
10
110.112112686034
20
-10.2412056542906
30
0
41
1
10
110.243408686973
20
-9.55778831943718
30
0
41
1
10
110.309056687442
20
-9.1983449326483
30
0
41
1
10
110.44035268838
20
-8.45000720880762
30
0
41
1
10
110.506000688849
20
-8.06112505860483
30
0
41
1
10
110.637296689787
20
-7.26075307852301
30
0
41
1
10
110.702944690256
20
-6.84927644663679
30
0
41
1
10
110.834240691194
20
-6.01097756595937
30
0
41
1
10
110.899888691663
20
-5.58416806443967
30
0
41
1
10
111.031184692601
20
-4.72248949037157
30
0
41
1
10
111.09683269307
20
-4.28763145766973
30
0
41
1
10
111.228128694008
20
-3.41680443608311
30
0
41
1
10
111.293776694477
20
-2.98084391524535
30
0
41
1
10
111.425072695415
20
-2.11412753263778
30
0
41
1
10
111.490720695884
20
-1.68337717178571
30
0
41
1
10
111.622016696822
20
-0.832553087659733
30
0
41
1
10
111.687664697291
20
-0.412481941160394
30
0
41
1
10
111.818960698229
20
0.412476001463375
30
0
41
1
10
111.884608698698
20
0.832547012604635
30
0
41
1
10
112.015904699636
20
1.68337099497455
30
0
41
1
10
112.081552700105
20
2.11412131695485
30
0
41
1
10
112.212848701043
20
2.98083765021249
30
0
41
1
10
112.278496701512
20
3.41679816058655
30
0
41
1
10
112.40979270245
20
4.2876251932569
30
0
41
1
10
112.475440702919
20
4.72248324751988
30
0
41
1
10
112.606736703857
20
5.58416189911912
30
0
41
1
10
112.672384704326
20
6.01097145661953
30
0
41
1
10
112.803680705264
20
6.8492704844715
30
0
41
1
10
112.869328705733
20
7.26074720755707
30
0
41
1
10
113.000624706672
20
8.06111940421255
30
0
41
1
10
113.066272707141
20
8.45000167978836
30
0
41
1
10
113.197568708079
20
9.19833968560212
30
0
41
1
10
113.263216708548
20
9.55778322898263
30
0
41
1
10
113.394512709486
20
10.241200903533
30
0
41
1
10
113.460160709955
20
10.5651652639448
30
0
41
1
10
113.591456710893
20
11.172718793569
30
0
41
1
10
113.657104711362
20
11.4563016866882
30
0
41
1
10
113.7884007123
20
11.9795680750175
30
0
41
1
10
113.854048712769
20
12.2192493404251
30
0
41
1
10
113.985344713707
20
12.6526990147795
30
0
41
1
10
114.050992714176
20
12.8464691890167
30
0
41
1
10
114.182288715114
20
13.1876001705537
30
0
41
1
10
114.247936715583
20
13.3349661466524
30
0
41
1
10
114.379232716521
20
13.5842024020739
30
0
41
1
10
114.44488071699
20
13.6860802916828
30
0
41
1
10
114.576176717928
20
13.8464685323719
30
0
41
1
10
114.641824718397
20
13.9049878212776
30
0
41
1
10
114.773120719335
20
13.981748894492
30
0
41
1
10
114.838768719804
20
13.9999998833327
30
0
41
1
10
114.904416720273
20
13.9999999999994
30
0
0
SPLINE
5
107
100
AcDbEntity
8
1
62
256
6
ByLayer
370
13
48
1
60
0
100
AcDbSpline
70
4
71
3
72
22
73
18
40
0
40
0
40
0
40
0
40
0.125
40
0.125
40
0.25
40
0.25
40
0.375
40
0.375
40
0.5
40
0.5
40
0.625
40
0.625
40
0.75
40
0.75
40
0.875
40
0.875
40
1
40
1
40
1
40
1
41
1
10
112.486191813794
20
14
30
0
41
1
10
112.586951184897
20
14
30
0
41
1
10
112.687710556
20
13.9569228618742
30
0
41
1
10
112.889229298207
20
13.7716274171561
30
0
41
1
10
112.98998866931
20
13.6293314257758
30
0
41
1
10
113.191507411517
20
13.2370730726714
30
0
41
1
10
113.29226678262
20
12.9870476529865
30
0
41
1
10
113.493785524827
20
12.3776048808629
30
0
41
1
10
113.59454489593
20
12.0181606366658
30
0
41
1
10
113.796063638137
20
11.1963851084657
30
0
41
1
10
113.89682300924
20
10.7340776946837
30
0
41
1
10
114.098341751447
20
9.72140121689085
30
0
41
1
10
114.19910112255
20
9.17110598278097
30
0
41
1
10
114.400619864757
20
8.00411351230139
30
0
41
1
10
114.50137923586
20
7.38752211976106
30
0
41
1
10
114.702897978067
20
6.1136520557493
30
0
41
1
10
114.80365734917
20
5.45648332875373
30
0
41
1
10
114.904416720273
20
4.79218138444969
30
0
0
SPLINE
5
108
100
AcDbEntity
8
1
62
256
6
ByLayer
370
13
48
1
60
0
100
AcDbSpline
70
4
71
3
72
22
73
18
40
0
40
0
40
0
40
0
40
0.125
40
0.125
40
0.25
40
0.25
40
0.375
40
0.375
40
0.5
40
0.5
40
0.625
40
0.625
40
0.75
40
0.75
40
0.875
40
0.875
40
1
40
1
40
1
40
1
41
1
10
102.3
20
7.88087040546526
30
0
41
1
10
102.380548726829
20
8.3666455993862
30
0
41
1
10
102.461097453658
20
8.83439811029533
30
0
41
1
10
102.622194907316
20
9.7216395787882
30
0
41
1
10
102.702743634144
20
10.1410970597624
30
0
41
1
10
102.863841087802
20
10.9216049439886
30
0
41
1
10
102.944389814631
20
11.2826341662687
30
0
41
1
10
103.105487268289
20
11.9390987431058
30
0
41
1
10
103.186035995118
20
12.2345263521302
30
0
41
1
10
103.347133448776
20
12.7560010746195
30
0
41
1
10
103.427682175605
20
12.982054013912
30
0
41
1
10
103.588779629263
20
13.3644193446459
30
0
41
1
10
103.669328356091
20
13.5207485291691
30
0
41
1
10
103.830425809749
20
13.7663812724376
30
0
41
1
10
103.910974536578
20
13.8557083217019
30
0
41
1
10
104.072071990236
20
13.9725048847549
30
0
41
1
10
104.152620717065
20
14
30
0
41
1
10
104.233169443894
20
14
30
0
0
SPLINE
5
109
100
AcDbEntity
8
1
62
256
6
ByLayer
370
13
48
1
60
0
100
AcDbSpline
70
4
71
3
72
145
73
141
40
0
40
0
40
0
40
0
40
0.015625
40
0.015625
40
0.03125
40
0.03125
40
0.046875
40
0.046875
40
0.0625000000000001
40
0.0625000000000001
40
0.0781250000000001
40
0.0781250000000001
40
0.0937500000000001
40
0.0937500000000001
40
0.109375
40
0.109375
40
0.125
40
0.125
40
0.140625
40
0.140625
40
0.15625
40
0.15625
40
0.171875
40
0.171875
40
0.1875
40
0.1875
40
0.203125
40
0.203125
40
0.21875
40
0.21875
40
0.22265625
40
0.22265625
40
0.2265625
40
0.234375
40
0.234375
40
0.25
40
0.25
40
0.265625000000001
40
0.265625000000001
40
0.281250000000001
40
0.281250000000001
40
0.296875000000001
40
0.296875000000001
40
0.312500000000001
40
0.312500000000001
40
0.328125000000001
40
0.328125000000001
40
0.343750000000001
40
0.343750000000001
40
0.359375000000001
40
0.359375000000001
40
0.375000000000001
40
0.375000000000001
40
0.390625000000001
40
0.390625000000001
40
0.406250000000001
40
0.406250000000001
40
0.421875000000001
40
0.421875000000001
40
0.437500000000001
40
0.437500000000001
40
0.453125000000001
40
0.453125000000001
40
0.468750000000001
40
0.468750000000001
40
0.476562500000001
40
0.476562500000001
40
0.480468750000001
40
0.480468750000001
40
0.484375000000001
40
0.484375000000001
40
0.500000000000001
40
0.500000000000001
40
0.515625000000001
40
0.515625000000001
40
0.531250000000001
40
0.531250000000001
40
0.546875000000001
40
0.546875000000001
40
0.562500000000002
40
0.562500000000002
40
0.578125000000002
40
0.578125000000002
40
0.593750000000002
40
0.593750000000002
40
0.609375000000002
40
0.609375000000002
40
0.625000000000002
40
0.625000000000002
40
0.640625000000002
40
0.640625000000002
40
0.656250000000002
40
0.656250000000002
40
0.671875000000002
40
0.671875000000002
40
0.687500000000002
40
0.687500000000002
40
0.703125000000002
40
0.703125000000002
40
0.718750000000002
40
0.718750000000002
40
0.734375000000002
40
0.734375000000002
40
0.738281250000002
40
0.738281250000002
40
0.742187500000002
40
0.742187500000002
40
0.750000000000002
40
0.750000000000002
40
0.765625000000002
40
0.765625000000002
40
0.781250000000001
40
0.781250000000001
40
0.796875000000001
40
0.796875000000001
40
0.812500000000001
40
0.812500000000001
40
0.828125000000001
40
0.828125000000001
40
0.843750000000001
40
0.843750000000001
40
0.859375000000001
40
0.859375000000001
40
0.875000000000001
40
0.875000000000001
40
0.890625000000001
40
0.890625000000001
40
0.906250000000001
40
0.906250000000001
40
0.921875000000001
40
0.921875000000001
40
0.9375
40
0.9375
40
0.953125
40
0.953125
40
0.96875
40
0.96875
40
0.984375
40
0.984375
40
1
40
1
40
1
40
1
41
1
10
102.3
20
13.6408703186073
30
0
41
1
10
102.363121669935
20
13.5442436330808
30
0
41
1
10
102.42624333987
20
13.4270553669816
30
0
41
1
10
102.552486679739
20
13.150128906578
30
0
41
1
10
102.615608349674
20
12.9903851974719
30
0
41
1
10
102.741851689543
20
12.6280220986468
30
0
41
1
10
102.804973359478
20
12.4253994571944
30
0
41
1
10
102.931216699347
20
11.9782022768267
30
0
41
1
10
102.994338369282
20
11.7336273919302
30
0
41
1
10
103.120581709151
20
11.2047552690365
30
0
41
1
10
103.183703379086
20
10.9204609100033
30
0
41
1
10
103.309946718956
20
10.3156480196094
30
0
41
1
10
103.37306838889
20
9.99513549006201
30
0
41
1
10
103.49931172876
20
9.32251903054083
30
0
41
1
10
103.562433398694
20
8.97042368680644
30
0
41
1
10
103.688676738564
20
8.24018763700681
30
0
41
1
10
103.751798408499
20
7.86205720649087
30
0
41
1
10
103.878041748368
20
7.0859235848809
30
0
41
1
10
103.941163418303
20
6.68793126402792
30
0
41
1
10
104.067406758172
20
5.87855146343739
30
0
41
1
10
104.130528428107
20
5.46717434800507
30
0
41
1
10
104.256771767976
20
4.63748482803433
30
0
41
1
10
104.319893437911
20
4.21918135458605
30
0
41
1
10
104.446136777781
20
3.38178843759675
30
0
41
1
10
104.509258447715
20
2.96270586154844
30
0
41
1
10
104.635501787585
20
2.12935438146764
30
0
41
1
10
104.69862345752
20
1.71508999535487
30
0
41
1
10
104.824866797389
20
0.896253284059696
30
0
41
1
10
104.887988467324
20
0.491683161052208
30
0
41
1
10
104.966890554742
20
-0.0054364944440124
30
0
41
1
10
104.982670972226
20
-0.104464904470149
30
0
41
1
10
105.014231807193
20
-0.303935771954912
30
0
41
1
10
105.061573059644
20
-0.604392289057927
30
0
41
1
10
105.108914312095
20
-0.908337121452291
30
0
41
1
10
105.203596816997
20
-1.5201038926989
30
0
41
1
10
105.266718486932
20
-1.93314255267671
30
0
41
1
10
105.392961826801
20
-2.76486281522705
30
0
41
1
10
105.456083496736
20
-3.183540274823
30
0
41
1
10
105.582326836606
20
-4.02104744617071
30
0
41
1
10
105.64544850654
20
-4.43987065093262
30
0
41
1
10
105.77169184641
20
-5.27159671385996
30
0
41
1
10
105.834813516344
20
-5.68449093329573
30
0
41
1
10
105.961056856214
20
-6.4979329482548
30
0
41
1
10
106.024178526149
20
-6.89847055050188
30
0
41
1
10
106.150421866018
20
-7.68070484819989
30
0
41
1
10
106.213543535953
20
-8.06239068263554
30
0
41
1
10
106.339786875822
20
-8.8006780982804
30
0
41
1
10
106.402908545757
20
-9.15726923490297
30
0
41
1
10
106.529151885626
20
-9.83969898149536
30
0
41
1
10
106.592273555561
20
-10.165528671959
30
0
41
1
10
106.71851689543
20
-10.7816370472857
30
0
41
1
10
106.781638565365
20
-11.0719092762667
30
0
41
1
10
106.907881905235
20
-11.6132080872976
30
0
41
1
10
106.97100357517
20
-11.8642312794175
30
0
41
1
10
107.097246915039
20
-12.3245908692356
30
0
41
1
10
107.160368584974
20
-12.5339271153215
30
0
41
1
10
107.286611924843
20
-12.9097785280256
30
0
41
1
10
107.349733594778
20
-13.0762965239277
30
0
41
1
10
107.475976934647
20
-13.3666424623074
30
0
41
1
10
107.539098604582
20
-13.4904756143394
30
0
41
1
10
107.665341944451
20
-13.6967250090322
30
0
41
1
10
107.728463614386
20
-13.7791480392885
30
0
41
1
10
107.854706954256
20
-13.9048092448452
30
0
41
1
10
107.91782862419
20
-13.9480549369403
30
0
41
1
10
108.012511129092
20
-13.9857646633396
30
0
41
1
10
108.04407196406
20
-13.9938131710263
30
0
41
1
10
108.091413216511
20
-13.9994195942761
30
0
41
1
10
108.107193633994
20
-14.0002116449261
30
0
41
1
10
108.138754468962
20
-13.9996926766281
30
0
41
1
10
108.154534886446
20
-13.9983763945787
30
0
41
1
10
108.233436973864
20
-13.9863742165973
30
0
41
1
10
108.296558643799
20
-13.9594060373338
30
0
41
1
10
108.422801983668
20
-13.8675259884699
30
0
41
1
10
108.485923653603
20
-13.8026065319478
30
0
41
1
10
108.612166993472
20
-13.6322382131536
30
0
41
1
10
108.675288663407
20
-13.5267821414518
30
0
41
1
10
108.801532003276
20
-13.2736193519676
30
0
41
1
10
108.864653673211
20
-13.1259066276696
30
0
41
1
10
108.99089701308
20
-12.7875753135714
30
0
41
1
10
109.054018683015
20
-12.5969527612487
30
0
41
1
10
109.180262022885
20
-12.173365361335
30
0
41
1
10
109.24338369282
20
-11.9403993034396
30
0
41
1
10
109.369627032689
20
-11.4339874031462
30
0
41
1
10
109.432748702624
20
-11.1605435254051
30
0
41
1
10
109.558992042493
20
-10.576327425959
30
0
41
1
10
109.622113712428
20
-10.265560365589
30
0
41
1
10
109.748357052297
20
-9.61103103889135
30
0
41
1
10
109.811478722232
20
-9.26727671062213
30
0
41
1
10
109.937722062101
20
-8.55208913221438
30
0
41
1
10
110.000843732036
20
-8.18066578874937
30
0
41
1
10
110.127087071905
20
-7.4161684616387
30
0
41
1
10
110.19020874184
20
-7.02310529577386
30
0
41
1
10
110.31645208171
20
-6.22175345137032
30
0
41
1
10
110.379573751645
20
-5.81347538315117
30
0
41
1
10
110.505817091514
20
-4.98818995174935
30
0
41
1
10
110.568938761449
20
-4.57119200001415
30
0
41
1
10
110.695182101318
20
-3.73473010882415
30
0
41
1
10
110.758303771253
20
-3.31527366001612
30
0
41
1
10
110.884547111122
20
-2.47966912000717
30
0
41
1
10
110.947668781057
20
-2.0635262156521
30
0
41
1
10
111.073912120926
20
-1.23964281641335
30
0
41
1
10
111.137033790861
20
-0.831905154538163
30
0
41
1
10
111.21593587828
20
-0.330168054477355
30
0
41
1
10
111.231716295763
20
-0.230215340530776
30
0
41
1
10
111.263277130731
20
-0.031158079184479
30
0
41
1
10
111.279057548214
20
0.067791983296388
30
0
41
1
10
111.326398800665
20
0.366689384171878
30
0
41
1
10
111.357959635633
20
0.567638223455759
30
0
41
1
10
111.452642140535
20
1.17480652055497
30
0
41
1
10
111.515763810469
20
1.58537317932695
30
0
41
1
10
111.642007150339
20
2.41356270680493
30
0
41
1
10
111.705128820274
20
2.83118209380066
30
0
41
1
10
111.831372160143
20
3.66818155892636
30
0
41
1
10
111.894493830078
20
4.08755578481936
30
0
41
1
10
112.020737169947
20
4.92213546001258
30
0
41
1
10
112.083858839882
20
5.33733282564745
30
0
41
1
10
112.210102179751
20
6.1572052698761
30
0
41
1
10
112.273223849686
20
6.56187051398689
30
0
41
1
10
112.399467189556
20
7.35417215673252
30
0
41
1
10
112.46258885949
20
7.74179777805676
30
0
41
1
10
112.58883219936
20
8.49367319432946
30
0
41
1
10
112.651953869294
20
8.85791231329677
30
0
41
1
10
112.778197209164
20
9.55715336403688
30
0
41
1
10
112.841318879099
20
9.89214584254304
30
0
41
1
10
112.967562218968
20
10.527824174687
30
0
41
1
10
113.030683888903
20
10.8285028030097
30
0
41
1
10
113.156927228772
20
11.3915298198267
30
0
41
1
10
113.220048898707
20
11.6538739208952
30
0
41
1
10
113.346292238576
20
12.1374292002264
30
0
41
1
10
113.409413908511
20
12.3586393261652
30
0
41
1
10
113.535657248381
20
12.7584257364837
30
0
41
1
10
113.598778918315
20
12.9370040614405
30
0
41
1
10
113.725022258185
20
13.2513119336844
30
0
41
1
10
113.788143928119
20
13.3870460975053
30
0
41
1
10
113.914387267989
20
13.6166345160974
30
0
41
1
10
113.977508937924
20
13.710495201883
30
0
41
1
10
114.103752277793
20
13.858320491134
30
0
41
1
10
114.166873947728
20
13.9122924894911
30
0
41
1
10
114.293117287597
20
13.9831284638644
30
0
41
1
10
114.356238957532
20
14
30
0
41
1
10
114.419360627467
20
14
30
0
0
SPLINE
5
10A
100
AcDbEntity
8
1
62
256
6
ByLayer
370
13
48
1
60
0
100
AcDbSpline
70
4
71
3
72
8
73
4
40
0
40
0
40
0
40
0
40
1
40
1
40
1
40
1
41
1
10
114.904416720273
20
-13.8758863545762
30
0
41
1
10
116.602944480182
20
-9.24743156020199
30
0
41
1
10
118.301472240091
20
-4.62207607465214
30
0
41
1
10
120
20
-1.421E-13
30
0
0
SPLINE
5
10B
100
AcDbEntity
8
1
62
256
6
ByLayer
370
13
48
1
60
0
100
AcDbSpline
70
4
71
3
72
8
73
4
40
0
40
0
40
0
40
0
40
1
40
1
40
1
40
1
41
1
10
114.904416720273
20
13.5513480921221
30
0
41
1
10
116.602944480182
20
9.02826034967794
30
0
41
1
10
118.301472240091
20
4.51108570155105
30
0
41
1
10
120
20
-4.547E-13
30
0
0
SPLINE
5
10C
100
AcDbEntity
8
1
62
256
6
ByLayer
370
13
48
1
60
0
100
AcDbSpline
70
4
71
3
72
8
73
4
40
0
40
0
40
0
40
0
40
1
40
1
40
1
40
1
41
1
10
114.904416720273
20
3.88482173813901
30
0
41
1
10
116.602944480182
20
2.56703560300196
30
0
41
1
10
118.301472240091
20
1.27207831097653
30
0
41
1
10
120
20
-1.421E-13
30
0
0
SPLINE
5
10D
100
AcDbEntity
8
1
62
256
6
ByLayer
370
13
48
1
60
0
100
AcDbSpline
70
4
71
3
72
8
73
4
40
0
40
0
40
0
40
0
40
1
40
1
40
1
40
1
41
1
10
114.904416720273
20
-13.9891492181811
30
0
41
1
10
116.602944480182
20
-9.32703552655843
30
0
41
1
10
118.301472240091
20
-4.66392524527416
30
0
41
1
10
120
20
-1.421E-13
30
0
0
SPLINE
5
10E
100
AcDbEntity
8
1
62
256
6
ByLayer
370
13
48
1
60
0
100
AcDbSpline
70
4
71
3
72
8
73
4
40
0
40
0
40
0
40
0
40
1
40
1
40
1
40
1
41
1
10
114.904416720273
20
-3.28305233731601
30
0
41
1
10
116.602944480182
20
-2.21181786377642
30
0
41
1
10
118.301472240091
20
-1.11745277727422
30
0
41
1
10
120
20
1.137E-13
30
0
0
SPLINE
5
10F
100
AcDbEntity
8
1
62
256
6
ByLayer
370
13
48
1
60
0
100
AcDbSpline
70
4
71
3
72
8
73
4
40
0
40
0
40
0
40
0
40
1
40
1
40
1
40
1
41
1
10
114.904416720273
20
-13.3501393088706
30
0
41
1
10
116.602944480182
20
-8.89293205591943
30
0
41
1
10
118.301472240091
20
-4.44282787808385
30
0
41
1
10
120
20
-1.421E-13
30
0
0
SPLINE
5
110
100
AcDbEntity
8
1
62
256
6
ByLayer
370
13
48
1
60
0
100
AcDbSpline
70
4
71
3
72
8
73
4
40
0
40
0
40
0
40
0
40
1
40
1
40
1
40
1
41
1
10
114.904416720273
20
-12.4275368008879
30
0
41
1
10
116.602944480182
20
-8.2740751108343
30
0
41
1
10
118.301472240091
20
-4.13150911127039
30
0
41
1
10
120
20
-1.421E-13
30
0
0
SPLINE
5
111
100
AcDbEntity
8
1
62
256
6
ByLayer
370
13
48
1
60
0
100
AcDbSpline
70
4
71
3
72
8
73
4
40
0
40
0
40
0
40
0
40
1
40
1
40
1
40
1
41
1
10
114.904416720273
20
-0.896498734308011
30
0
41
1
10
116.602944480182
20
-0.621396407009541
30
0
41
1
10
118.301472240091
20
-0.322559513294436
30
0
41
1
10
120
20
2.84E-14
30
0
0
SPLINE
5
112
100
AcDbEntity
8
1
62
256
6
ByLayer
370
13
48
1
60
0
100
AcDbSpline
70
4
71
3
72
8
73
4
40
0
40
0
40
0
40
0
40
1
40
1
40
1
40
1
41
1
10
114.904416720273
20
3.98647767106837
30
0
41
1
10
116.602944480182
20
2.68044675705926
30
0
41
1
10
118.301472240091
20
1.35160351663396
30
0
41
1
10
120
20
5.68E-14
30
0
0
SPLINE
5
113
100
AcDbEntity
8
1
62
256
6
ByLayer
370
13
48
1
60
0
100
AcDbSpline
70
4
71
3
72
8
73
4
40
0
40
0
40
0
40
0
40
1
40
1
40
1
40
1
41
1
10
114.904416720273
20
-5.57201165888156
30
0
41
1
10
116.602944480182
20
-3.73648929498222
30
0
41
1
10
118.301472240091
20
-1.87912786815198
30
0
41
1
10
120
20
1.99E-13
30
0
0
SPLINE
5
114
100
AcDbEntity
8
1
62
256
6
ByLayer
370
13
48
1
60
0
100
AcDbSpline
70
4
71
3
72
8
73
4
40
0
40
0
40
0
40
0
40
1
40
1
40
1
40
1
41
1
10
114.904416720273
20
-7.6953335131864
30
0
41
1
10
116.602944480182
20
-5.15008726454494
30
0
41
1
10
118.301472240091
20
-2.58494270607358
30
0
41
1
10
120
20
2.558E-13
30
0
0
SPLINE
5
115
100
AcDbEntity
8
1
62
256
6
ByLayer
370
13
48
1
60
0
100
AcDbSpline
70
4
71
3
72
8
73
4
40
0
40
0
40
0
40
0
40
1
40
1
40
1
40
1
41
1
10
114.904416720273
20
6.23248565278786
30
0
41
1
10
116.602944480182
20
4.17628350616965
30
0
41
1
10
118.301472240091
20
2.09876122543713
30
0
41
1
10
120
20
5.68E-14
30
0
0
SPLINE
5
116
100
AcDbEntity
8
1
62
256
6
ByLayer
370
13
48
1
60
0
100
AcDbSpline
70
4
71
3
72
8
73
4
40
0
40
0
40
0
40
0
40
1
40
1
40
1
40
1
41
1
10
114.904416720273
20
13.1978110862255
30
0
41
1
10
116.602944480182
20
8.79060698434137
30
0
41
1
10
118.301472240091
20
4.39127954326401
30
0
41
1
10
120
20
7.39E-13
30
0
0
SPLINE
5
117
100
AcDbEntity
8
1
62
256
6
ByLayer
370
13
48
1
60
0
100
AcDbSpline
70
4
71
3
72
8
73
4
40
0
40
0
40
0
40
0
40
1
40
1
40
1
40
1
41
1
10
114.904416720273
20
12.1993068174398
30
0
41
1
10
116.602944480182
20
8.12120479693317
30
0
41
1
10
118.301472240091
20
4.05471644928352
30
0
41
1
10
120
20
6.821E-13
30
0
0
SPLINE
5
118
100
AcDbEntity
8
1
62
256
6
ByLayer
370
13
48
1
60
0
100
AcDbSpline
70
4
71
3
72
8
73
4
40
0
40
0
40
0
40
0
40
1
40
1
40
1
40
1
41
1
10
114.904416720273
20
8.29322246110257
30
0
41
1
10
116.602944480182
20
5.54797316714146
30
0
41
1
10
118.301472240091
20
2.78352970840075
30
0
41
1
10
120
20
0
30
0
0
SPLINE
5
119
100
AcDbEntity
8
1
62
256
6
ByLayer
370
13
48
1
60
0
100
AcDbSpline
70
4
71
3
72
8
73
4
40
0
40
0
40
0
40
0
40
1
40
1
40
1
40
1
41
1
10
114.904416720273
20
13.8212563346619
30
0
41
1
10
116.602944480182
20
9.21795859652292
30
0
41
1
10
118.301472240091
20
4.61081332395847
30
0
41
1
10
120
20
0
30
0
0
SPLINE
5
11A
100
AcDbEntity
8
1
62
256
6
ByLayer
370
13
48
1
60
0
100
AcDbSpline
70
4
71
3
72
8
73
4
40
0
40
0
40
0
40
0
40
1
40
1
40
1
40
1
41
1
10
114.904416720273
20
-12.9369994744976
30
0
41
1
10
116.602944480182
20
-8.6155773604012
30
0
41
1
10
118.301472240091
20
-4.30318825689056
30
0
41
1
10
120
20
-1.421E-13
30
0
0
SPLINE
5
11B
100
AcDbEntity
8
1
62
256
6
ByLayer
370
13
48
1
60
0
100
AcDbSpline
70
4
71
3
72
8
73
4
40
0
40
0
40
0
40
0
40
1
40
1
40
1
40
1
41
1
10
114.904416720273
20
-8.67491070183979
30
0
41
1
10
116.602944480182
20
-5.8019379801589
30
0
41
1
10
118.301472240091
20
-2.91026345822667
30
0
41
1
10
120
20
-8.53E-14
30
0
0
SPLINE
5
11C
100
AcDbEntity
8
1
62
256
6
ByLayer
370
13
48
1
60
0
100
AcDbSpline
70
4
71
3
72
8
73
4
40
0
40
0
40
0
40
0
40
1
40
1
40
1
40
1
41
1
10
114.904416720273
20
-11.1355047500384
30
0
41
1
10
116.602944480182
20
-7.40925729395178
30
0
41
1
10
118.301472240091
20
-3.69737425090756
30
0
41
1
10
120
20
-1.137E-13
30
0
0
SPLINE
5
11D
100
AcDbEntity
8
1
62
256
6
ByLayer
370
13
48
1
60
0
100
AcDbSpline
70
4
71
3
72
8
73
4
40
0
40
0
40
0
40
0
40
1
40
1
40
1
40
1
41
1
10
114.904416720273
20
9.2347044779851
30
0
41
1
10
116.602944480182
20
6.17434218653167
30
0
41
1
10
118.301472240091
20
3.09606732014404
30
0
41
1
10
120
20
0
30
0
0
SPLINE
5
11E
100
AcDbEntity
8
1
62
256
6
ByLayer
370
13
48
1
60
0
100
AcDbSpline
70
4
71
3
72
8
73
4
40
0
40
0
40
0
40
0
40
1
40
1
40
1
40
1
41
1
10
114.904416720273
20
-6.65846047518789
30
0
41
1
10
116.602944480182
20
-4.45989141112545
30
0
41
1
10
118.301472240091
20
-2.24037568115045
30
0
41
1
10
120
20
2.274E-13
30
0
0
SPLINE
5
11F
100
AcDbEntity
8
1
62
256
6
ByLayer
370
13
48
1
60
0
100
AcDbSpline
70
4
71
3
72
8
73
4
40
0
40
0
40
0
40
0
40
1
40
1
40
1
40
1
41
1
10
114.904416720273
20
10.0338452610705
30
0
41
1
10
116.602944480182
20
6.67264694471976
30
0
41
1
10
118.301472240091
20
3.32798850814038
30
0
41
1
10
120
20
-3.411E-13
30
0
0
SPLINE
5
120
100
AcDbEntity
8
1
62
256
6
ByLayer
370
13
48
1
60
0
100
AcDbSpline
70
4
71
3
72
8
73
4
40
0
40
0
40
0
40
0
40
1
40
1
40
1
40
1
41
1
10
114.904416720273
20
-11.8255445085098
30
0
41
1
10
116.602944480182
20
-7.87096797303153
30
0
41
1
10
118.301472240091
20
-3.92906868373822
30
0
41
1
10
120
20
-1.421E-13
30
0
0
SPLINE
5
121
100
AcDbEntity
8
1
62
256
6
ByLayer
370
13
48
1
60
0
100
AcDbSpline
70
4
71
3
72
8
73
4
40
0
40
0
40
0
40
0
40
1
40
1
40
1
40
1
41
1
10
114.904416720273
20
7.2899929937814
30
0
41
1
10
116.602944480182
20
4.88029653785901
30
0
41
1
10
118.301472240091
20
2.45026723807322
30
0
41
1
10
120
20
0
30
0
0
SPLINE
5
122
100
AcDbEntity
8
1
62
256
6
ByLayer
370
13
48
1
60
0
100
AcDbSpline
70
4
71
3
72
8
73
4
40
0
40
0
40
0
40
0
40
1
40
1
40
1
40
1
41
1
10
114.904416720273
20
-13.8895626832603
30
0
41
1
10
116.602944480182
20
-9.26268938308164
30
0
41
1
10
118.301472240091
20
-4.63277503554752
30
0
41
1
10
120
20
4.547E-13
30
0
0
SPLINE
5
123
100
AcDbEntity
8
1
62
256
6
ByLayer
370
13
48
1
60
0
100
AcDbSpline
70
4
71
3
72
8
73
4
40
0
40
0
40
0
40
0
40
1
40
1
40
1
40
1
41
1
10
114.904416720273
20
11.5617739497016
30
0
41
1
10
116.602944480182
20
7.69444003004492
30
0
41
1
10
118.301472240091
20
3.84046540476439
30
0
41
1
10
120
20
6.537E-13
30
0
0
SPLINE
5
124
100
AcDbEntity
8
1
62
256
6
ByLayer
370
13
48
1
60
0
100
AcDbSpline
70
4
71
3
72
8
73
4
40
0
40
0
40
0
40
0
40
1
40
1
40
1
40
1
41
1
10
114.904416720273
20
10.9048987582994
30
0
41
1
10
116.602944480182
20
7.28484507463807
30
0
41
1
10
118.301472240091
20
3.64983156654677
30
0
41
1
10
120
20
0
30
0
0
SPLINE
5
125
100
AcDbEntity
8
1
62
256
6
ByLayer
370
13
48
1
60
0
100
AcDbSpline
70
4
71
3
72
8
73
4
40
0
40
0
40
0
40
0
40
1
40
1
40
1
40
1
41
1
10
114.904416720273
20
13.9620444624347
30
0
41
1
10
116.602944480182
20
9.30977946689083
30
0
41
1
10
118.301472240091
20
4.65570421796244
30
0
41
1
10
120
20
0
30
0
0
SPLINE
5
126
100
AcDbEntity
8
1
62
256
6
ByLayer
370
13
48
1
60
0
100
AcDbSpline
70
4
71
3
72
8
73
4
40
0
40
0
40
0
40
0
40
1
40
1
40
1
40
1
41
1
10
114.904416720273
20
8.20764355765118
30
0
41
1
10
116.602944480182
20
5.45249814739853
30
0
41
1
10
118.301472240091
20
2.716581526422
30
0
41
1
10
120.000000000001
20
-9.948E-13
30
0
0
SPLINE
5
127
100
AcDbEntity
8
1
62
256
6
ByLayer
370
13
48
1
60
0
100
AcDbSpline
70
4
71
3
72
8
73
4
40
0
40
0
40
0
40
0
40
1
40
1
40
1
40
1
41
1
10
114.904416720273
20
-9.58989856817237
30
0
41
1
10
116.602944480182
20
-6.41059018282348
30
0
41
1
10
118.301472240091
20
-3.21391575164782
30
0
41
1
10
120
20
3.126E-13
30
0
0
SPLINE
5
128
100
AcDbEntity
8
1
62
256
6
ByLayer
370
13
48
1
60
0
100
AcDbSpline
70
4
71
3
72
8
73
4
40
0
40
0
40
0
40
0
40
1
40
1
40
1
40
1
41
1
10
114.904416720273
20
-7.60662354829893
30
0
41
1
10
116.602944480182
20
-5.05111911576779
30
0
41
1
10
118.301472240091
20
-2.51554510183942
30
0
41
1
10
120
20
-8.53E-14
30
0
0
SPLINE
5
129
100
AcDbEntity
8
1
62
256
6
ByLayer
370
13
48
1
60
0
100
AcDbSpline
70
4
71
3
72
8
73
4
40
0
40
0
40
0
40
0
40
1
40
1
40
1
40
1
41
1
10
114.904416720273
20
10.1074292102604
30
0
41
1
10
116.602944480182
20
6.75473994566181
30
0
41
1
10
118.301472240091
20
3.38555306461839
30
0
41
1
10
120
20
0
30
0
0
SPLINE
5
12A
100
AcDbEntity
8
1
62
256
6
ByLayer
370
13
48
1
60
0
100
AcDbSpline
70
4
71
3
72
8
73
4
40
0
40
0
40
0
40
0
40
1
40
1
40
1
40
1
41
1
10
114.904416720273
20
-12.4759560470106
30
0
41
1
10
116.602944480182
20
-8.32809342952103
30
0
41
1
10
118.301472240091
20
-4.16938737764164
30
0
41
1
10
120
20
-6.821E-13
30
0
0
SPLINE
5
12B
100
AcDbEntity
8
1
62
256
6
ByLayer
370
13
48
1
60
0
100
AcDbSpline
70
4
71
3
72
8
73
4
40
0
40
0
40
0
40
0
40
1
40
1
40
1
40
1
41
1
10
114.904416720273
20
9.15482568161056
30
0
41
1
10
116.602944480182
20
6.08522641905472
30
0
41
1
10
118.301472240091
20
3.033578318997
30
0
41
1
10
120.000000000001
20
-1.1084E-12
30
0
0
SPLINE
5
12C
100
AcDbEntity
8
1
62
256
6
ByLayer
370
13
48
1
60
0
100
AcDbSpline
70
4
71
3
72
8
73
4
40
0
40
0
40
0
40
0
40
1
40
1
40
1
40
1
41
1
10
114.904416720273
20
12.7894627734228
30
0
41
1
10
116.602944480182
20
8.53598112670176
30
0
41
1
10
118.301472240091
20
4.2727714808218
30
0
41
1
10
120
20
0
30
0
0
SPLINE
5
12D
100
AcDbEntity
8
1
62
256
6
ByLayer
370
13
48
1
60
0
100
AcDbSpline
70
4
71
3
72
8
73
4
40
0
40
0
40
0
40
0
40
1
40
1
40
1
40
1
41
1
10
114.904416720273
20
-8.59152149356242
30
0
41
1
10
116.602944480182
20
-5.70890586610395
30
0
41
1
10
118.301472240091
20
-2.84502826981463
30
0
41
1
10
120
20
-8.53E-14
30
0
0
SPLINE
5
12E
100
AcDbEntity
8
1
62
256
6
ByLayer
370
13
48
1
60
0
100
AcDbSpline
70
4
71
3
72
8
73
4
40
0
40
0
40
0
40
0
40
1
40
1
40
1
40
1
41
1
10
114.904416720273
20
-9.51245099349558
30
0
41
1
10
116.602944480182
20
-6.3241867770418
30
0
41
1
10
118.301472240091
20
-3.15332868971925
30
0
41
1
10
120
20
-1.137E-13
30
0
0
SPLINE
5
12F
100
AcDbEntity
8
1
62
256
6
ByLayer
370
13
48
1
60
0
100
AcDbSpline
70
4
71
3
72
8
73
4
40
0
40
0
40
0
40
0
40
1
40
1
40
1
40
1
41
1
10
114.904416720273
20
5.02986376035349
30
0
41
1
10
116.602944480182
20
3.3310508357433
30
0
41
1
10
118.301472240091
20
1.65440791166398
30
0
41
1
10
120
20
-1.705E-13
30
0
0
SPLINE
5
130
100
AcDbEntity
8
1
62
256
6
ByLayer
370
13
48
1
60
0
100
AcDbSpline
70
4
71
3
72
8
73
4
40
0
40
0
40
0
40
0
40
1
40
1
40
1
40
1
41
1
10
114.904416720273
20
-11.1993876744056
30
0
41
1
10
116.602944480182
20
-7.48052746941772
30
0
41
1
10
118.301472240091
20
-3.74734971767953
30
0
41
1
10
120
20
-1.137E-13
30
0
0
SPLINE
5
131
100
AcDbEntity
8
1
62
256
6
ByLayer
370
13
48
1
60
0
100
AcDbSpline
70
4
71
3
72
8
73
4
40
0
40
0
40
0
40
0
40
1
40
1
40
1
40
1
41
1
10
114.904416720273
20
10.8381575279179
30
0
41
1
10
116.602944480182
20
7.21038606626894
30
0
41
1
10
118.301472240091
20
3.59762005346596
30
0
41
1
10
120
20
5.969E-13
30
0
0
SPLINE
5
132
100
AcDbEntity
8
1
62
256
6
ByLayer
370
13
48
1
60
0
100
AcDbSpline
70
4
71
3
72
8
73
4
40
0
40
0
40
0
40
0
40
1
40
1
40
1
40
1
41
1
10
114.904416720273
20
-13.663880258288
30
0
41
1
10
116.602944480182
20
-9.1040741442211
30
0
41
1
10
118.301472240091
20
-4.54938828362896
30
0
41
1
10
120
20
-1.421E-13
30
0
0
SPLINE
5
133
100
AcDbEntity
8
1
62
256
6
ByLayer
370
13
48
1
60
0
100
AcDbSpline
70
4
71
3
72
8
73
4
40
0
40
0
40
0
40
0
40
1
40
1
40
1
40
1
41
1
10
114.904416720273
20
-4.34350059222913
30
0
41
1
10
116.602944480182
20
-2.87306106700205
30
0
41
1
10
118.301472240091
20
-1.42520883765056
30
0
41
1
10
120
20
-5.68E-14
30
0
0
SPLINE
5
134
100
AcDbEntity
8
1
62
256
6
ByLayer
370
13
48
1
60
0
100
AcDbSpline
70
4
71
3
72
8
73
4
40
0
40
0
40
0
40
0
40
1
40
1
40
1
40
1
41
1
10
114.904416720273
20
7.1993511636887
30
0
41
1
10
116.602944480182
20
4.77917312813327
30
0
41
1
10
118.301472240091
20
2.37935834007251
30
0
41
1
10
120
20
3.979E-13
30
0
0
SPLINE
5
135
100
AcDbEntity
8
1
62
256
6
ByLayer
370
13
48
1
60
0
100
AcDbSpline
70
4
71
3
72
8
73
4
40
0
40
0
40
0
40
0
40
1
40
1
40
1
40
1
41
1
10
114.904416720273
20
-11.8819054122013
30
0
41
1
10
116.602944480182
20
-7.93384630140039
30
0
41
1
10
118.301472240091
20
-3.97315969080464
30
0
41
1
10
120
20
-6.537E-13
30
0
0
SPLINE
5
136
100
AcDbEntity
8
1
62
256
6
ByLayer
370
13
48
1
60
0
100
AcDbSpline
70
4
71
3
72
8
73
4
40
0
40
0
40
0
40
0
40
1
40
1
40
1
40
1
41
1
10
114.904416720273
20
-6.56509024654321
30
0
41
1
10
116.602944480182
20
-4.35572409811178
30
0
41
1
10
118.301472240091
20
-2.16733236315389
30
0
41
1
10
120
20
-5.68E-14
30
0
0
SPLINE
5
137
100
AcDbEntity
8
1
62
256
6
ByLayer
370
13
48
1
60
0
100
AcDbSpline
70
4
71
3
72
8
73
4
40
0
40
0
40
0
40
0
40
1
40
1
40
1
40
1
41
1
10
114.904416720273
20
-13.686560969569
30
0
41
1
10
116.602944480182
20
-9.12937759250099
30
0
41
1
10
118.301472240091
20
-4.56713135259798
30
0
41
1
10
120
20
-1.421E-13
30
0
0
SPLINE
5
138
100
AcDbEntity
8
1
62
256
6
ByLayer
370
13
48
1
60
0
100
AcDbSpline
70
4
71
3
72
8
73
4
40
0
40
0
40
0
40
0
40
1
40
1
40
1
40
1
41
1
10
114.904416720273
20
-12.9771165560214
30
0
41
1
10
116.602944480182
20
-8.66033347430334
30
0
41
1
10
118.301472240091
20
-4.3345717587346
30
0
41
1
10
120
20
-1.421E-13
30
0
0
SPLINE
5
139
100
AcDbEntity
8
1
62
256
6
ByLayer
370
13
48
1
60
0
100
AcDbSpline
70
4
71
3
72
8
73
4
40
0
40
0
40
0
40
0
40
1
40
1
40
1
40
1
41
1
10
114.904416720273
20
12.2509264859146
30
0
41
1
10
116.602944480182
20
8.1787936262821
30
0
41
1
10
118.301472240091
20
4.09509839879792
30
0
41
1
10
120
20
0
30
0
0
SPLINE
5
13A
100
AcDbEntity
8
1
62
256
6
ByLayer
370
13
48
1
60
0
100
AcDbSpline
70
4
71
3
72
8
73
4
40
0
40
0
40
0
40
0
40
1
40
1
40
1
40
1
41
1
10
114.904416720273
20
13.2327747108739
30
0
41
1
10
116.602944480182
20
8.82961370935118
30
0
41
1
10
118.301472240091
20
4.4186315074881
30
0
41
1
10
120
20
-8.53E-14
30
0
0
SPLINE
5
13B
100
AcDbEntity
8
1
62
256
6
ByLayer
370
13
48
1
60
0
100
AcDbSpline
70
4
71
3
72
8
73
4
40
0
40
0
40
0
40
0
40
1
40
1
40
1
40
1
41
1
10
114.904416720273
20
11.6211755373306
30
0
41
1
10
116.602944480182
20
7.76071065893689
30
0
41
1
10
118.301472240091
20
3.8869351319747
30
0
41
1
10
120
20
0
30
0
0
SPLINE
5
13C
100
AcDbEntity
8
1
62
256
6
ByLayer
370
13
48
1
60
0
100
AcDbSpline
70
4
71
3
72
8
73
4
40
0
40
0
40
0
40
0
40
1
40
1
40
1
40
1
41
1
10
114.904416720273
20
1.62196490056678
30
0
41
1
10
116.602944480182
20
1.10492919621564
30
0
41
1
10
118.301472240091
20
0.564267108118401
30
0
41
1
10
120
20
-2.84E-14
30
0
0
SPLINE
5
13D
100
AcDbEntity
8
1
62
256
6
ByLayer
370
13
48
1
60
0
100
AcDbSpline
70
4
71
3
72
8
73
4
40
0
40
0
40
0
40
0
40
1
40
1
40
1
40
1
41
1
10
114.904416720273
20
6.13745577266991
30
0
41
1
10
116.602944480182
20
4.07026462400955
30
0
41
1
10
118.301472240091
20
2.02441956585841
30
0
41
1
10
120
20
-1.99E-13
30
0
0
SPLINE
5
13E
100
AcDbEntity
8
1
62
256
6
ByLayer
370
13
48
1
60
0
100
AcDbSpline
70
4
71
3
72
8
73
4
40
0
40
0
40
0
40
0
40
1
40
1
40
1
40
1
41
1
10
114.904416720273
20
-10.433484541052
30
0
41
1
10
116.602944480182
20
-6.97151213329101
30
0
41
1
10
118.301472240091
20
-3.49363873357186
30
0
41
1
10
120
20
3.411E-13
30
0
0
SPLINE
5
13F
100
AcDbEntity
8
1
62
256
6
ByLayer
370
13
48
1
60
0
100
AcDbSpline
70
4
71
3
72
8
73
4
40
0
40
0
40
0
40
0
40
1
40
1
40
1
40
1
41
1
10
114.904416720273
20
1.51670480930386
30
0
41
1
10
116.602944480182
20
0.987497108561769
30
0
41
1
10
118.301472240091
20
0.481922377575188
30
0
41
1
10
120
20
-5.68E-14
30
0
0
SPLINE
5
140
100
AcDbEntity
8
1
62
256
6
ByLayer
370
13
48
1
60
0
100
AcDbSpline
70
4
71
3
72
8
73
4
40
0
40
0
40
0
40
0
40
1
40
1
40
1
40
1
41
1
10
114.904416720273
20
13.8039881066962
30
0
41
1
10
116.602944480182
20
9.19869351670243
30
0
41
1
10
118.301472240091
20
4.59730442840555
30
0
41
1
10
120
20
7.674E-13
30
0
0
SPLINE
5
141
100
AcDbEntity
8
1
62
256
6
ByLayer
370
13
48
1
60
0
100
AcDbSpline
70
4
71
3
72
8
73
4
40
0
40
0
40
0
40
0
40
1
40
1
40
1
40
1
41
1
10
114.904416720273
20
-5.47467635747364
30
0
41
1
10
116.602944480182
20
-3.6278983987595
30
0
41
1
10
118.301472240091
20
-1.80298268273003
30
0
41
1
10
120
20
-5.68E-14
30
0
0
SPLINE
5
142
100
AcDbEntity
8
1
62
256
6
ByLayer
370
13
48
1
60
0
100
AcDbSpline
70
4
71
3
72
8
73
4
40
0
40
0
40
0
40
0
40
1
40
1
40
1
40
1
41
1
10
114.904416720273
20
-3.17998515578853
30
0
41
1
10
116.602944480182
20
-2.09683226809491
30
0
41
1
10
118.301472240091
20
-1.03682355504114
30
0
41
1
10
120
20
2.84E-14
30
0
0
SPLINE
5
143
100
AcDbEntity
8
1
62
256
6
ByLayer
370
13
48
1
60
0
100
AcDbSpline
70
4
71
3
72
8
73
4
40
0
40
0
40
0
40
0
40
1
40
1
40
1
40
1
41
1
10
114.904416720273
20
-0.790763518889435
30
0
41
1
10
116.602944480182
20
-0.503434253109162
30
0
41
1
10
118.301472240091
20
-0.239843094202485
30
0
41
1
10
120
20
0
30
0
0
SPLINE
5
144
100
AcDbEntity
8
1
62
256
6
ByLayer
370
13
48
1
60
0
100
AcDbSpline
70
4
71
3
72
8
73
4
40
0
40
0
40
0
40
0
40
1
40
1
40
1
40
1
41
1
10
114.904416720273
20
-10.3625552383454
30
0
41
1
10
116.602944480182
20
-6.8923807550762
30
0
41
1
10
118.301472240091
20
-3.43815090101458
30
0
41
1
10
120
20
-1.137E-13
30
0
0
SPLINE
5
145
100
AcDbEntity
8
1
62
256
6
ByLayer
370
13
48
1
60
0
100
AcDbSpline
70
4
71
3
72
8
73
4
40
0
40
0
40
0
40
0
40
1
40
1
40
1
40
1
41
1
10
114.904416720273
20
-13.3816555327946
30
0
41
1
10
116.602944480182
20
-8.92809273197389
30
0
41
1
10
118.301472240091
20
-4.46748294854427
30
0
41
1
10
120
20
-1.421E-13
30
0
0
SPLINE
5
146
100
AcDbEntity
8
1
62
256
6
ByLayer
370
13
48
1
60
0
100
AcDbSpline
70
4
71
3
72
8
73
4
40
0
40
0
40
0
40
0
40
1
40
1
40
1
40
1
41
1
10
114.904416720273
20
0.31126179226311
30
0
41
1
10
116.602944480182
20
0.183734350739286
30
0
41
1
10
118.301472240091
20
0.0799791758836648
30
0
41
1
10
120
20
0
30
0
0
SPLINE
5
147
100
AcDbEntity
8
1
62
256
6
ByLayer
370
13
48
1
60
0
100
AcDbSpline
70
4
71
3
72
8
73
4
40
0
40
0
40
0
40
0
40
1
40
1
40
1
40
1
41
1
10
114.904416720273
20
-13.9845790996323
30
0
41
1
10
116.602944480182
20
-9.32193693168193
30
0
41
1
10
118.301472240091
20
-4.66035005190375
30
0
41
1
10
120
20
-1.421E-13
30
0
0
SPLINE
5
148
100
AcDbEntity
8
1
62
256
6
ByLayer
370
13
48
1
60
0
100
AcDbSpline
70
4
71
3
72
8
73
4
40
0
40
0
40
0
40
0
40
1
40
1
40
1
40
1
41
1
10
114.904416720273
20
-4.44407625333159
30
0
41
1
10
116.602944480182
20
-2.98526702947746
30
0
41
1
10
118.301472240091
20
-1.50388894910867
30
0
41
1
10
120
20
1.421E-13
30
0
0
SPLINE
5
149
100
AcDbEntity
8
1
62
256
6
ByLayer
370
13
48
1
60
0
100
AcDbSpline
70
4
71
3
72
8
73
4
40
0
40
0
40
0
40
0
40
1
40
1
40
1
40
1
41
1
10
114.904416720273
20
13.5775616052001
30
0
41
1
10
116.602944480182
20
9.05750512353842
30
0
41
1
10
118.301472240091
20
4.5315924733498
30
0
41
1
10
120
20
0
30
0
0
SPLINE
5
14A
100
AcDbEntity
8
1
62
256
6
ByLayer
370
13
48
1
60
0
100
AcDbSpline
70
4
71
3
72
8
73
4
40
0
40
0
40
0
40
0
40
1
40
1
40
1
40
1
41
1
10
114.904416720273
20
0.417153656216954
30
0
41
1
10
116.602944480182
20
0.301871267594066
30
0
41
1
10
118.301472240091
20
0.162818140769332
30
0
41
1
10
120
20
0
30
0
0
SPLINE
5
14B
100
AcDbEntity
8
1
62
256
6
ByLayer
370
13
48
1
60
0
100
AcDbSpline
70
4
71
3
72
8
73
4
40
0
40
0
40
0
40
0
40
1
40
1
40
1
40
1
41
1
10
114.904416720273
20
-2.09758435116527
30
0
41
1
10
116.602944480182
20
-1.42190053813351
30
0
41
1
10
118.301472240091
20
-0.722696575402495
30
0
41
1
10
120
20
8.53E-14
30
0
0
SPLINE
5
14C
100
AcDbEntity
8
1
62
256
6
ByLayer
370
13
48
1
60
0
100
AcDbSpline
70
4
71
3
72
8
73
4
40
0
40
0
40
0
40
0
40
1
40
1
40
1
40
1
41
1
10
114.904416720273
20
5.12857414251519
30
0
41
1
10
116.602944480182
20
3.44117582339334
30
0
41
1
10
118.301472240091
20
1.73162881963984
30
0
41
1
10
120
20
5.68E-14
30
0
0
SPLINE
5
14D
100
AcDbEntity
8
1
62
256
6
ByLayer
370
13
48
1
60
0
100
AcDbSpline
70
4
71
3
72
8
73
4
40
0
40
0
40
0
40
0
40
1
40
1
40
1
40
1
41
1
10
114.904416720273
20
2.71085515266054
30
0
41
1
10
116.602944480182
20
1.78390742539341
30
0
41
1
10
118.301472240091
20
0.880277410944416
30
0
41
1
10
120
20
-8.53E-14
30
0
0
SPLINE
5
14E
100
AcDbEntity
8
1
62
256
6
ByLayer
370
13
48
1
60
0
100
AcDbSpline
70
4
71
3
72
8
73
4
40
0
40
0
40
0
40
0
40
1
40
1
40
1
40
1
41
1
10
114.904416720273
20
13.9538500907194
30
0
41
1
10
116.602944480182
20
9.30063751987177
30
0
41
1
10
118.301472240091
20
4.64929377956412
30
0
41
1
10
120
20
7.674E-13
30
0
0
SPLINE
5
14F
100
AcDbEntity
8
1
62
256
6
ByLayer
370
13
48
1
60
0
100
AcDbSpline
70
4
71
3
72
8
73
4
40
0
40
0
40
0
40
0
40
1
40
1
40
1
40
1
41
1
10
114.904416720273
20
2.81469975389004
30
0
41
1
10
116.602944480182
20
1.89976033951933
30
0
41
1
10
118.301472240091
20
0.961514806846594
30
0
41
1
10
120
20
8.53E-14
30
0
0
SPLINE
5
150
100
AcDbEntity
8
1
62
256
6
ByLayer
370
13
48
1
60
0
100
AcDbSpline
70
4
71
3
72
8
73
4
40
0
40
0
40
0
40
0
40
1
40
1
40
1
40
1
41
1
10
114.904416720273
20
12.7460093599783
30
0
41
1
10
116.602944480182
20
8.48750287634797
30
0
41
1
10
118.301472240091
20
4.23877797408636
30
0
41
1
10
120
20
-4.263E-13
30
0
0
SPLINE
5
151
100
AcDbEntity
8
1
62
256
6
ByLayer
370
13
48
1
60
0
100
AcDbSpline
70
4
71
3
72
8
73
4
40
0
40
0
40
0
40
0
40
1
40
1
40
1
40
1
41
1
10
114.904416720273
20
-1.99279303917641
30
0
41
1
10
116.602944480182
20
-1.30499143813961
30
0
41
1
10
118.301472240091
20
-0.640718569821786
30
0
41
1
10
120
20
-2.84E-14
30
0
0
LINE
5
7D
100
AcDbEntity
8
80
62
256
6
ByLayer
370
18
48
1
60
0
100
AcDbLine
10
0
20
0
30
0
11
-5
21
0
31
0
39
0
210
0
220
0
230
1
0
LINE
5
7E
100
AcDbEntity
8
4
62
256
6
ByLayer
370
18
48
0.05
60
0
100
AcDbLine
10
-5
20
0
30
0
11
125
21
0
31
0
39
0
210
0
220
0
230
1
0
LINE
5
80
100
AcDbEntity
8
81
62
256
6
ByLayer
370
18
48
1
60
0
100
AcDbLine
10
120
20
0
30
0
11
125
21
0
31
0
39
0
210
0
220
0
230
1
0
LINE
5
81
100
AcDbEntity
8
SK4
62
256
6
ByLayer
370
18
48
0.05
60
0
100
AcDbLine
10
-65
20
0
30
0
11
125
21
0
31
0
39
0
210
0
220
0
230
1
0
LINE
5
83
100
AcDbEntity
8
1
62
256
6
ByLayer
370
18
48
1
60
0
100
AcDbLine
10
10
20
-13.8
30
0
11
48.76235
21
-13.8
31
0
39
0
210
0
220
0
230
1
0
LINE
5
84
100
AcDbEntity
8
1
62
256
6
ByLayer
370
18
48
1
60
0
100
AcDbLine
10
48.76235
20
13.8
30
0
11
10
21
13.8
31
0
39
0
210
0
220
0
230
1
0
LINE
5
85
100
AcDbEntity
8
1
62
256
6
ByLayer
370
18
48
1
60
0
100
AcDbLine
10
120
20
0
30
0
11
114.904417
21
14
31
0
39
0
210
0
220
0
230
1
0
LINE
5
86
100
AcDbEntity
8
1
62
256
6
ByLayer
370
18
48
1
60
0
100
AcDbLine
10
114.904417
20
-14
30
0
11
120
21
0
31
0
39
0
210
0
220
0
230
1
0
LINE
5
87
100
AcDbEntity
8
1
62
256
6
ByLayer
370
18
48
1
60
0
100
AcDbLine
10
10
20
13.8
30
0
11
0
21
16
31
0
39
0
210
0
220
0
230
1
0
LINE
5
88
100
AcDbEntity
8
1
62
256
6
ByLayer
370
18
48
1
60
0
100
AcDbLine
10
0
20
-16
30
0
11
10
21
-13.8
31
0
39
0
210
0
220
0
230
1
0
LINE
5
89
100
AcDbEntity
8
1
62
256
6
ByLayer
370
18
48
1
60
0
100
AcDbLine
10
114.904417
20
14
30
0
11
102.3
21
14
31
0
39
0
210
0
220
0
230
1
0
LINE
5
8A
100
AcDbEntity
8
1
62
256
6
ByLayer
370
18
48
1
60
0
100
AcDbLine
10
102.3
20
-14
30
0
11
114.904417
21
-14
31
0
39
0
210
0
220
0
230
1
0
LINE
5
8B
100
AcDbEntity
8
1
62
256
6
ByLayer
370
18
48
1
60
0
100
AcDbLine
10
120
20
0
30
0
11
114.904417
21
14
31
0
39
0
210
0
220
0
230
1
0
LINE
5
8C
100
AcDbEntity
8
1
62
256
6
ByLayer
370
18
48
1
60
0
100
AcDbLine
10
114.904417
20
-14
30
0
11
120
21
0
31
0
39
0
210
0
220
0
230
1
0
LINE
5
8D
100
AcDbEntity
8
SK1
62
256
6
ByLayer
370
18
48
1
60
0
100
AcDbLine
10
-60
20
-15
30
0
11
-59
21
-16
31
0
39
0
210
0
220
0
230
1
0
LINE
5
8F
100
AcDbEntity
8
SK1
62
256
6
ByLayer
370
18
48
1
60
0
100
AcDbLine
10
-59
20
16
30
0
11
-60
21
15
31
0
39
0
210
0
220
0
230
1
0
LINE
5
90
100
AcDbEntity
8
SK1
62
256
6
ByLayer
370
18
48
1
60
0
100
AcDbLine
10
-59
20
-16
30
0
11
0
21
-16
31
0
39
0
210
0
220
0
230
1
0
LINE
5
91
100
AcDbEntity
8
SK1
62
256
6
ByLayer
370
18
48
1
60
0
100
AcDbLine
10
0
20
16
30
0
11
-59
21
16
31
0
39
0
210
0
220
0
230
1
0
LINE
5
92
100
AcDbEntity
8
1
62
256
6
ByLayer
370
18
48
1
60
0
100
AcDbLine
10
0
20
16
30
0
11
0
21
-16
31
0
39
0
210
0
220
0
230
1
0
LINE
5
93
100
AcDbEntity
8
1
62
256
6
ByLayer
370
18
48
1
60
0
100
AcDbLine
10
114.904417
20
14
30
0
11
114.904417
21
13.555431
31
0
39
0
210
0
220
0
230
1
0
LINE
5
94
100
AcDbEntity
8
1
62
256
6
ByLayer
370
18
48
1
60
0
100
AcDbLine
10
114.904417
20
-14
30
0
11
114.904417
21
-1.998355
31
0
39
0
210
0
220
0
230
1
0
LINE
5
95
100
AcDbEntity
8
1
62
256
6
ByLayer
370
18
48
1
60
0
100
AcDbLine
10
10
20
-13.8
30
0
11
10
21
-7.031413
31
0
39
0
210
0
220
0
230
1
0
LINE
5
96
100
AcDbEntity
8
1
62
256
6
ByLayer
370
18
48
1
60
0
100
AcDbLine
10
10
20
13.8
30
0
11
10
21
8.666618
31
0
39
0
210
0
220
0
230
1
0
LINE
5
97
100
AcDbEntity
8
SK1
62
256
6
ByLayer
370
13
48
1
60
0
100
AcDbLine
10
-15.198909
20
-8.334638
30
0
11
-15.198909
21
8.334638
31
0
39
0
210
0
220
0
230
1
0
LINE
5
98
100
AcDbEntity
8
SK1
62
256
6
ByLayer
370
13
48
1
60
0
100
AcDbLine
10
-55.486983
20
5.39045
30
0
11
-55.486983
21
-5.39045
31
0
39
0
210
0
220
0
230
1
0
LINE
5
99
100
AcDbEntity
8
SK1
62
256
6
ByLayer
370
18
48
1
60
0
100
AcDbLine
10
-60
20
-15
30
0
11
-60
21
15
31
0
39
0
210
0
220
0
230
1
0
LINE
5
9A
100
AcDbEntity
8
SK1
62
256
6
ByLayer
370
13
48
1
60
0
100
AcDbLine
10
-14.051873
20
7.587342
30
0
11
-14.051873
21
-7.587342
31
0
39
0
210
0
220
0
230
1
0
LINE
5
9B
100
AcDbEntity
8
SK1
62
256
6
ByLayer
370
18
48
1
60
0
100
AcDbLine
10
-59
20
-16
30
0
11
-59
21
16
31
0
39
0
210
0
220
0
230
1
0
LINE
5
9C
100
AcDbEntity
8
SK1
62
256
6
ByLayer
370
18
48
1
60
0
100
AcDbLine
10
0
20
16
30
0
11
0
21
-16
31
0
39
0
210
0
220
0
230
1
0
LINE
5
9D
100
AcDbEntity
8
SK1
62
256
6
ByLayer
370
13
48
1
60
0
100
AcDbLine
10
-56.60131
20
-3.674042
30
0
11
-56.60131
21
3.674042
31
0
39
0
210
0
220
0
230
1
0
LINE
5
9E
100
AcDbEntity
8
1
62
256
6
ByLayer
370
18
48
1
60
0
100
AcDbLine
10
114.904417
20
14
30
0
11
114.904417
21
-14
31
0
39
0
210
0
220
0
230
1
0
LINE
5
9F
100
AcDbEntity
8
1
62
256
6
ByLayer
370
18
48
1
60
0
100
AcDbLine
10
114.904417
20
14
30
0
11
114.904417
21
-14
31
0
39
0
210
0
220
0
230
1
0
LINE
5
A0
100
AcDbEntity
8
1
62
256
6
ByLayer
370
18
48
1
60
0
100
AcDbLine
10
114.904417
20
14
30
0
11
114.904417
21
-14
31
0
39
0
210
0
220
0
230
1
0
LINE
5
A1
100
AcDbEntity
8
1
62
256
6
ByLayer
370
18
48
1
60
0
100
AcDbLine
10
102.3
20
14
30
0
11
102.3
21
-14
31
0
39
0
210
0
220
0
230
1
0
LINE
5
A2
100
AcDbEntity
8
1
62
256
6
ByLayer
370
18
48
1
60
0
100
AcDbLine
10
102.3
20
14
30
0
11
102.3
21
-14
31
0
39
0
210
0
220
0
230
1
0
LINE
5
A3
100
AcDbEntity
8
1
62
256
6
ByLayer
370
18
48
1
60
0
100
AcDbLine
10
114.904417
20
14
30
0
11
114.904417
21
-14
31
0
39
0
210
0
220
0
230
1
0
LINE
5
A4
100
AcDbEntity
8
1
62
256
6
ByLayer
370
18
48
1
60
0
100
AcDbLine
10
102.3
20
14
30
0
11
102.3
21
-14
31
0
39
0
210
0
220
0
230
1
0
LINE
5
A5
100
AcDbEntity
8
1
62
256
6
ByLayer
370
18
48
1
60
0
100
AcDbLine
10
114.904417
20
14
30
0
11
114.904417
21
-14
31
0
39
0
210
0
220
0
230
1
0
LINE
5
A6
100
AcDbEntity
8
SK2
62
256
6
ByLayer
370
13
48
1
60
0
100
AcDbLine
10
-66.5
20
-16
30
0
11
-66.5
21
45.024569
31
0
39
0
210
0
220
0
230
1
0
LINE
5
A8
100
AcDbEntity
8
SK2
62
256
6
ByLayer
370
13
48
1
60
0
100
AcDbLine
10
-61.5875
20
16
30
0
11
-68.5
21
16
31
0
39
0
210
0
220
0
230
1
0
LINE
5
A9
100
AcDbEntity
8
SK2
62
256
6
ByLayer
370
13
48
1
60
0
100
AcDbLine
10
-61.5875
20
-16
30
0
11
-68.5
21
-16
31
0
39
0
210
0
220
0
230
1
0
LINE
5
AA
100
AcDbEntity
8
1
62
256
6
ByLayer
370
18
48
1
60
1
100
AcDbLine
10
-66.5
20
16
30
0
11
-66.039216
21
12.500002
31
0
39
0
210
0
220
0
230
1
0
LINE
5
AB
100
AcDbEntity
8
1
62
256
6
ByLayer
370
18
48
1
60
1
100
AcDbLine
10
-66.039216
20
12.500002
30
0
11
-66.960784
21
12.499998
31
0
39
0
210
0
220
0
230
1
0
LINE
5
AC
100
AcDbEntity
8
1
62
256
6
ByLayer
370
18
48
1
60
1
100
AcDbLine
10
-66.960784
20
12.499998
30
0
11
-66.5
21
16
31
0
39
0
210
0
220
0
230
1
0
LINE
5
AD
100
AcDbEntity
8
1
62
256
6
ByLayer
370
18
48
1
60
1
100
AcDbLine
10
-66.5
20
-16
30
0
11
-66.960784
21
-12.500002
31
0
39
0
210
0
220
0
230
1
0
LINE
5
AE
100
AcDbEntity
8
1
62
256
6
ByLayer
370
18
48
1
60
1
100
AcDbLine
10
-66.960784
20
-12.500002
30
0
11
-66.039216
21
-12.499998
31
0
39
0
210
0
220
0
230
1
0
LINE
5
AF
100
AcDbEntity
8
1
62
256
6
ByLayer
370
18
48
1
60
1
100
AcDbLine
10
-66.039216
20
-12.499998
30
0
11
-66.5
21
-16
31
0
39
0
210
0
220
0
230
1
0
LINE
5
B0
100
AcDbEntity
8
2
62
256
6
ByLayer
370
13
48
1
60
0
100
AcDbLine
10
127.5
20
-14
30
0
11
127.5
21
43.024569
31
0
39
0
210
0
220
0
230
1
0
LINE
5
B2
100
AcDbEntity
8
2
62
256
6
ByLayer
370
13
48
1
60
0
100
AcDbLine
10
116.491917
20
14
30
0
11
129.5
21
14
31
0
39
0
210
0
220
0
230
1
0
LINE
5
B3
100
AcDbEntity
8
2
62
256
6
ByLayer
370
13
48
1
60
0
100
AcDbLine
10
116.491917
20
-14
30
0
11
129.5
21
-14
31
0
39
0
210
0
220
0
230
1
0
LINE
5
B4
100
AcDbEntity
8
1
62
256
6
ByLayer
370
18
48
1
60
1
100
AcDbLine
10
127.5
20
14
30
0
11
127.960784
21
10.500002
31
0
39
0
210
0
220
0
230
1
0
LINE
5
B5
100
AcDbEntity
8
1
62
256
6
ByLayer
370
18
48
1
60
1
100
AcDbLine
10
127.960784
20
10.500002
30
0
11
127.039216
21
10.499998
31
0
39
0
210
0
220
0
230
1
0
LINE
5
B6
100
AcDbEntity
8
1
62
256
6
ByLayer
370
18
48
1
60
1
100
AcDbLine
10
127.039216
20
10.499998
30
0
11
127.5
21
14
31
0
39
0
210
0
220
0
230
1
0
LINE
5
B7
100
AcDbEntity
8
1
62
256
6
ByLayer
370
18
48
1
60
1
100
AcDbLine
10
127.5
20
-14
30
0
11
127.039216
21
-10.500002
31
0
39
0
210
0
220
0
230
1
0
LINE
5
B8
100
AcDbEntity
8
1
62
256
6
ByLayer
370
18
48
1
60
1
100
AcDbLine
10
127.039216
20
-10.500002
30
0
11
127.960784
21
-10.499998
31
0
39
0
210
0
220
0
230
1
0
LINE
5
B9
100
AcDbEntity
8
1
62
256
6
ByLayer
370
18
48
1
60
1
100
AcDbLine
10
127.960784
20
-10.499998
30
0
11
127.5
21
-14
31
0
39
0
210
0
220
0
230
1
0
LINE
5
BA
100
AcDbEntity
8
SK2
62
256
6
ByLayer
370
13
48
1
60
0
100
AcDbLine
10
120.542957
20
-1.491762
30
0
11
127.182423
21
-19.733545
31
0
39
0
210
0
220
0
230
1
0
LINE
5
BB
100
AcDbEntity
8
SK2
62
256
6
ByLayer
370
13
48
1
60
0
100
AcDbLine
10
120.542957
20
1.491762
30
0
11
127.182423
21
19.733545
31
0
39
0
210
0
220
0
230
1
0
LINE
5
BC
100
AcDbEntity
8
1
62
256
6
ByLayer
370
18
48
1
60
1
100
AcDbLine
10
126.498383
20
-17.85416
30
0
11
129.551575
21
-16.082064
31
0
39
0
210
0
220
0
230
1
0
LINE
5
BD
100
AcDbEntity
8
1
62
256
6
ByLayer
370
18
48
1
60
1
100
AcDbLine
10
129.551575
20
-16.082064
30
0
11
129.906196
21
-16.93267
31
0
39
0
210
0
220
0
230
1
0
LINE
5
BE
100
AcDbEntity
8
1
62
256
6
ByLayer
370
18
48
1
60
1
100
AcDbLine
10
129.906196
20
-16.93267
30
0
11
126.498383
21
-17.85416
31
0
39
0
210
0
220
0
230
1
0
LINE
5
BF
100
AcDbEntity
8
1
62
256
6
ByLayer
370
18
48
1
60
1
100
AcDbLine
10
126.498383
20
17.85416
30
0
11
129.906193
21
16.932671
31
0
39
0
210
0
220
0
230
1
0
LINE
5
C0
100
AcDbEntity
8
1
62
256
6
ByLayer
370
18
48
1
60
1
100
AcDbLine
10
129.906193
20
16.932671
30
0
11
129.551579
21
16.082063
31
0
39
0
210
0
220
0
230
1
0
LINE
5
C1
100
AcDbEntity
8
1
62
256
6
ByLayer
370
18
48
1
60
1
100
AcDbLine
10
129.551579
20
16.082063
30
0
11
126.498383
21
17.85416
31
0
39
0
210
0
220
0
230
1
0
LINE
5
156
100
AcDbEntity
8
1
62
256
6
ByLayer
370
18
48
1
60
1
100
AcDbLine
10
-66.5
20
16
30
0
11
-66.039216
21
12.500002
31
0
39
0
210
0
220
0
230
1
0
LINE
5
157
100
AcDbEntity
8
1
62
256
6
ByLayer
370
18
48
1
60
1
100
AcDbLine
10
-66.039216
20
12.500002
30
0
11
-66.960784
21
12.499998
31
0
39
0
210
0
220
0
230
1
0
LINE
5
158
100
AcDbEntity
8
1
62
256
6
ByLayer
370
18
48
1
60
1
100
AcDbLine
10
-66.960784
20
12.499998
30
0
11
-66.5
21
16
31
0
39
0
210
0
220
0
230
1
0
LINE
5
15A
100
AcDbEntity
8
1
62
256
6
ByLayer
370
18
48
1
60
1
100
AcDbLine
10
-66.5
20
-16
30
0
11
-66.960784
21
-12.500002
31
0
39
0
210
0
220
0
230
1
0
LINE
5
15B
100
AcDbEntity
8
1
62
256
6
ByLayer
370
18
48
1
60
1
100
AcDbLine
10
-66.960784
20
-12.500002
30
0
11
-66.039216
21
-12.499998
31
0
39
0
210
0
220
0
230
1
0
LINE
5
15C
100
AcDbEntity
8
1
62
256
6
ByLayer
370
18
48
1
60
1
100
AcDbLine
10
-66.039216
20
-12.499998
30
0
11
-66.5
21
-16
31
0
39
0
210
0
220
0
230
1
0
LINE
5
160
100
AcDbEntity
8
1
62
256
6
ByLayer
370
18
48
1
60
1
100
AcDbLine
10
127.5
20
14
30
0
11
127.960784
21
10.500002
31
0
39
0
210
0
220
0
230
1
0
LINE
5
161
100
AcDbEntity
8
1
62
256
6
ByLayer
370
18
48
1
60
1
100
AcDbLine
10
127.960784
20
10.500002
30
0
11
127.039216
21
10.499998
31
0
39
0
210
0
220
0
230
1
0
LINE
5
162
100
AcDbEntity
8
1
62
256
6
ByLayer
370
18
48
1
60
1
100
AcDbLine
10
127.039216
20
10.499998
30
0
11
127.5
21
14
31
0
39
0
210
0
220
0
230
1
0
LINE
5
164
100
AcDbEntity
8
1
62
256
6
ByLayer
370
18
48
1
60
1
100
AcDbLine
10
127.5
20
-14
30
0
11
127.039216
21
-10.500002
31
0
39
0
210
0
220
0
230
1
0
LINE
5
165
100
AcDbEntity
8
1
62
256
6
ByLayer
370
18
48
1
60
1
100
AcDbLine
10
127.039216
20
-10.500002
30
0
11
127.960784
21
-10.499998
31
0
39
0
210
0
220
0
230
1
0
LINE
5
166
100
AcDbEntity
8
1
62
256
6
ByLayer
370
18
48
1
60
1
100
AcDbLine
10
127.960784
20
-10.499998
30
0
11
127.5
21
-14
31
0
39
0
210
0
220
0
230
1
0
LINE
5
169
100
AcDbEntity
8
1
62
256
6
ByLayer
370
18
48
1
60
1
100
AcDbLine
10
126.498383
20
-17.85416
30
0
11
129.551575
21
-16.082064
31
0
39
0
210
0
220
0
230
1
0
LINE
5
16A
100
AcDbEntity
8
1
62
256
6
ByLayer
370
18
48
1
60
1
100
AcDbLine
10
129.551575
20
-16.082064
30
0
11
129.906196
21
-16.93267
31
0
39
0
210
0
220
0
230
1
0
LINE
5
16B
100
AcDbEntity
8
1
62
256
6
ByLayer
370
18
48
1
60
1
100
AcDbLine
10
129.906196
20
-16.93267
30
0
11
126.498383
21
-17.85416
31
0
39
0
210
0
220
0
230
1
0
LINE
5
16D
100
AcDbEntity
8
1
62
256
6
ByLayer
370
18
48
1
60
1
100
AcDbLine
10
126.498383
20
17.85416
30
0
11
129.906193
21
16.932671
31
0
39
0
210
0
220
0
230
1
0
LINE
5
16E
100
AcDbEntity
8
1
62
256
6
ByLayer
370
18
48
1
60
1
100
AcDbLine
10
129.906193
20
16.932671
30
0
11
129.551579
21
16.082063
31
0
39
0
210
0
220
0
230
1
0
LINE
5
16F
100
AcDbEntity
8
1
62
256
6
ByLayer
370
18
48
1
60
1
100
AcDbLine
10
129.551579
20
16.082063
30
0
11
126.498383
21
17.85416
31
0
39
0
210
0
220
0
230
1
0
MTEXT
5
152
100
AcDbEntity
8
SK2
62
256
6
ByLayer
370
18
48
1
60
0
100
AcDbMText
10
-67.841114
20
27.658438
30
0
210
0
220
0
230
1
1
%%c
40
3
41
0
44
1.084337
50
90
71
7
72
5
7
iso_b_vert
0
MTEXT
5
155
100
AcDbEntity
8
SK2
62
256
6
ByLayer
370
18
48
1
60
0
100
AcDbMText
10
-67.841114
20
33.635
30
0
210
0
220
0
230
1
1
\W0.7513;32.000
40
3
41
0
44
1.084337
50
90
71
7
72
5
7
iso_b_vert
0
MTEXT
5
15E
100
AcDbEntity
8
2
62
256
6
ByLayer
370
18
48
1
60
0
100
AcDbMText
10
126.158886
20
25.658438
30
0
210
0
220
0
230
1
1
%%c
40
3
41
0
44
1.084337
50
90
71
7
72
5
7
iso_b_vert
0
MTEXT
5
15F
100
AcDbEntity
8
2
62
256
6
ByLayer
370
18
48
1
60
0
100
AcDbMText
10
126.158886
20
31.635
30
0
210
0
220
0
230
1
1
\W0.7513;28.000
40
3
41
0
44
1.084337
50
90
71
7
72
5
7
iso_b_vert
0
MTEXT
5
168
100
AcDbEntity
8
SK2
62
256
6
ByLayer
370
18
48
1
60
0
100
AcDbMText
10
139.909114
20
3.734657
30
0
210
0
220
0
230
1
1
\W0.7071;140%%d
40
3
41
0
44
1.084337
50
270
71
7
72
5
7
iso_b_vert
0
MTEXT
5
171
100
AcDbEntity
8
SK6
62
256
6
ByLayer
370
18
48
1
60
0
100
AcDbMText
10
5.71286
20
-67.114886
30
0
210
0
220
0
230
1
1
\W0.7680;H85328.0
40
3
41
0
44
1.084337
50
0
71
7
72
5
7
iso_b_vert
0
HATCH
5
159
100
AcDbEntity
8
SK2
62
256
6
ByLayer
370
13
48
1
60
0
100
AcDbHatch
10
0
20
0
30
0
210
0
220
0
230
1
2
ANSI31
70
0
71
0
91
1
92
5
93
3
72
1
10
-66.5
20
16
11
-66.0392162584472
21
12.5000016925532
72
1
10
-66.0392162584472
20
12.5000016925532
11
-66.9607837415528
21
12.4999983074468
72
1
10
-66.9607837415528
20
12.4999983074468
11
-66.5
21
16
97
0
75
0
76
1
52
0
41
0.0062
77
0
78
1
53
45
43
0
44
0
45
-0.0139193969876572
46
0.0139193969876572
79
0
47
0
98
1
10
0
20
0
0
HATCH
5
15D
100
AcDbEntity
8
SK2
62
256
6
ByLayer
370
13
48
1
60
0
100
AcDbHatch
10
0
20
0
30
0
210
0
220
0
230
1
2
ANSI31
70
0
71
0
91
1
92
5
93
3
72
1
10
-66.5
20
-16
11
-66.9607837415528
21
-12.5000016925532
72
1
10
-66.9607837415528
20
-12.5000016925532
11
-66.0392162584472
21
-12.4999983074468
72
1
10
-66.0392162584472
20
-12.4999983074468
11
-66.5
21
-16
97
0
75
0
76
1
52
0
41
0.0062
77
0
78
1
53
45
43
0
44
0
45
-0.0139193969876572
46
0.0139193969876572
79
0
47
0
98
1
10
0
20
0
0
HATCH
5
163
100
AcDbEntity
8
2
62
256
6
ByLayer
370
13
48
1
60
0
100
AcDbHatch
10
0
20
0
30
0
210
0
220
0
230
1
2
ANSI31
70
0
71
0
91
1
92
5
93
3
72
1
10
127.5
20
14
11
127.960783741553
21
10.5000016925532
72
1
10
127.960783741553
20
10.5000016925532
11
127.039216258447
21
10.4999983074468
72
1
10
127.039216258447
20
10.4999983074468
11
127.5
21
14
97
0
75
0
76
1
52
0
41
0.0062
77
0
78
1
53
45
43
0
44
0
45
-0.0139193969876572
46
0.0139193969876572
79
0
47
0
98
1
10
0
20
0
0
HATCH
5
167
100
AcDbEntity
8
2
62
256
6
ByLayer
370
13
48
1
60
0
100
AcDbHatch
10
0
20
0
30
0
210
0
220
0
230
1
2
ANSI31
70
0
71
0
91
1
92
5
93
3
72
1
10
127.5
20
-14
11
127.039216258447
21
-10.5000016925532
72
1
10
127.039216258447
20
-10.5000016925532
11
127.960783741553
21
-10.4999983074468
72
1
10
127.960783741553
20
-10.4999983074468
11
127.5
21
-14
97
0
75
0
76
1
52
0
41
0.0062
77
0
78
1
53
45
43
0
44
0
45
-0.0139193969876572
46
0.0139193969876572
79
0
47
0
98
1
10
0
20
0
0
HATCH
5
16C
100
AcDbEntity
8
SK2
62
256
6
ByLayer
370
13
48
1
60
0
100
AcDbHatch
10
0
20
0
30
0
210
0
220
0
230
1
2
ANSI31
70
0
71
0
91
1
92
5
93
3
72
1
10
126.498382723188
20
-17.8541597949323
11
129.551575425693
21
-16.0820638240608
72
1
10
129.551575425693
20
-16.0820638240608
11
129.906195833975
21
-16.9326700737197
72
1
10
129.906195833975
20
-16.9326700737197
11
126.498382723188
21
-17.8541597949323
97
0
75
0
76
1
52
0
41
0.0062
77
0
78
1
53
45
43
0
44
0
45
-0.0139193969876572
46
0.0139193969876572
79
0
47
0
98
1
10
0
20
0
0
HATCH
5
170
100
AcDbEntity
8
SK2
62
256
6
ByLayer
370
13
48
1
60
0
100
AcDbHatch
10
0
20
0
30
0
210
0
220
0
230
1
2
ANSI31
70
0
71
0
91
1
92
5
93
3
72
1
10
126.498382723188
20
17.8541597949323
11
129.906192709519
21
16.9326713763017
72
1
10
129.906192709519
20
16.9326713763017
11
129.551578550149
21
16.0820625214788
72
1
10
129.551578550149
20
16.0820625214788
11
126.498382723188
21
17.8541597949323
97
0
75
0
76
1
52
0
41
0.0062
77
0
78
1
53
45
43
0
44
0
45
-0.0139193969876572
46
0.0139193969876572
79
0
47
0
98
1
10
0
20
0
0
DIMENSION
5
174
100
AcDbEntity
8
SK2
62
256
6
ByLayer
370
18
48
1
60
0
100
AcDbDimension
2
_U0
10
120
20
-45.952229
30
0
11
30
21
-45.952229
31
0
70
32
71
1
72
1
41
1
210
0
220
0
230
1
3
Standard
100
AcDbAlignedDimension
13
-60
23
-16
33
0
14
120
24
0
34
0
50
0
100
AcDbRotatedDimension
1001
ACAD
1000
DSTYLE
1002
{
1070
   371
1070
    13
1070
   372
1070
    13
1070
     3
1000

1070
   170
1070
     0
1070
   144
1040
1.0
1070
   277
1070
     2
1070
   284
1070
     8
1070
   278
1070
    46
1070
   146
1040
1.166667
1070
   345
1005
16
1070
   347
1005
16
1070
   346
1005
16
1070
   344
1005
0
1070
   343
1005
0
1070
   172
1070
     1
1070
    76
1070
     0
1070
    75
1070
     0
1070
   282
1070
     0
1070
   281
1070
     0
1070
    71
1070
     0
1070
    74
1070
     0
1070
   279
1070
     0
1070
   173
1070
     1
1070
   340
1005
153
1070
   271
1070
     2
1070
   272
1070
     3
1070
    77
1070
     1
1070
    73
1070
     1
1070
   171
1070
     3
1070
   274
1070
     4
1070
   177
1070
     2
1070
   176
1070
     2
1070
   178
1070
     2
1070
    78
1070
     8
1070
    48
1040
-0.1
1070
    41
1040
3.5
1070
   147
1040
1.5
1070
    42
1040
1.5875
1070
    44
1040
2.0
1070
   140
1040
3.0
1002
}
1001
ACAD_DSTYLE_DIM_LINETYPE
1070
   380
1005
16
1001
ACAD_DSTYLE_DIM_EXT1_LINETYPE
1070
   381
1005
16
1001
ACAD_DSTYLE_DIM_EXT2_LINETYPE
1070
   382
1005
16
0
DIMENSION
5
18D
100
AcDbEntity
8
SK2
62
256
6
ByLayer
370
18
48
1
60
0
100
AcDbDimension
2
_U1
10
3
20
-35.952229
30
0
11
61.5
21
-35.952229
31
0
70
32
71
1
72
1
41
1
210
0
220
0
230
1
3
Standard
100
AcDbAlignedDimension
13
120
23
0
33
0
14
3
24
-14
34
0
50
0
100
AcDbRotatedDimension
1001
ACAD
1000
DSTYLE
1002
{
1070
   371
1070
    13
1070
   372
1070
    13
1070
     3
1000

1070
   170
1070
     0
1070
   144
1040
1.0
1070
   277
1070
     2
1070
   284
1070
     8
1070
   278
1070
    46
1070
   146
1040
1.166667
1070
   345
1005
16
1070
   347
1005
16
1070
   346
1005
16
1070
   344
1005
0
1070
   343
1005
0
1070
   172
1070
     1
1070
    76
1070
     0
1070
    75
1070
     0
1070
   282
1070
     0
1070
   281
1070
     0
1070
    71
1070
     0
1070
    74
1070
     0
1070
   279
1070
     0
1070
   173
1070
     1
1070
   340
1005
153
1070
   271
1070
     2
1070
   272
1070
     3
1070
    77
1070
     1
1070
    73
1070
     1
1070
   171
1070
     3
1070
   274
1070
     4
1070
   177
1070
     2
1070
   176
1070
     2
1070
   178
1070
     2
1070
    78
1070
     8
1070
    48
1040
-0.1
1070
    41
1040
3.5
1070
   147
1040
1.5
1070
    42
1040
1.5875
1070
    44
1040
2.0
1070
   140
1040
3.0
1002
}
1001
ACAD_DSTYLE_DIM_LINETYPE
1070
   380
1005
16
1001
ACAD_DSTYLE_DIM_EXT1_LINETYPE
1070
   381
1005
16
1001
ACAD_DSTYLE_DIM_EXT2_LINETYPE
1070
   382
1005
16
0
DIMENSION
5
1A5
100
AcDbEntity
8
SK2
62
256
6
ByLayer
370
18
48
1
60
0
100
AcDbDimension
2
_U2
10
0
20
-35.952229
30
0
11
-30
21
-35.952229
31
0
70
32
71
1
72
1
41
1
210
0
220
0
230
1
3
Standard
100
AcDbAlignedDimension
13
-60
23
-16
33
0
14
0
24
-16
34
0
50
0
100
AcDbRotatedDimension
1001
ACAD
1000
DSTYLE
1002
{
1070
   371
1070
    13
1070
   372
1070
    13
1070
     3
1000

1070
   170
1070
     0
1070
   144
1040
1.0
1070
   277
1070
     2
1070
   284
1070
     8
1070
   278
1070
    46
1070
   146
1040
1.166667
1070
   345
1005
16
1070
   347
1005
16
1070
   346
1005
16
1070
   344
1005
0
1070
   343
1005
0
1070
   172
1070
     1
1070
    76
1070
     0
1070
    75
1070
     0
1070
   282
1070
     0
1070
   281
1070
     0
1070
    71
1070
     0
1070
    74
1070
     0
1070
   279
1070
     0
1070
   173
1070
     1
1070
   340
1005
153
1070
   271
1070
     2
1070
   272
1070
     3
1070
    77
1070
     1
1070
    73
1070
     1
1070
   171
1070
     3
1070
   274
1070
     4
1070
   177
1070
     2
1070
   176
1070
     2
1070
   178
1070
     2
1070
    78
1070
     8
1070
    48
1040
-0.1
1070
    41
1040
3.5
1070
   147
1040
1.5
1070
    42
1040
1.5875
1070
    44
1040
2.0
1070
   140
1040
3.0
1002
}
1001
ACAD_DSTYLE_DIM_LINETYPE
1070
   380
1005
16
1001
ACAD_DSTYLE_DIM_EXT1_LINETYPE
1070
   381
1005
16
1001
ACAD_DSTYLE_DIM_EXT2_LINETYPE
1070
   382
1005
16
0
DIMENSION
5
1BD
100
AcDbEntity
8
SK2
62
256
6
ByLayer
370
18
48
1
60
0
100
AcDbDimension
2
_U3
10
23
20
32.952229
30
0
11
71.5
21
32.952229
31
0
70
32
71
1
72
1
41
1
210
0
220
0
230
1
3
Standard
100
AcDbAlignedDimension
13
120
23
0
33
0
14
23
24
14
34
0
50
0
100
AcDbRotatedDimension
1001
ACAD
1000
DSTYLE
1002
{
1070
   371
1070
    13
1070
   372
1070
    13
1070
     3
1000

1070
   170
1070
     0
1070
   144
1040
1.0
1070
   277
1070
     2
1070
   284
1070
     8
1070
   278
1070
    46
1070
   146
1040
1.166667
1070
   345
1005
16
1070
   347
1005
16
1070
   346
1005
16
1070
   344
1005
0
1070
   343
1005
0
1070
   172
1070
     1
1070
    76
1070
     0
1070
    75
1070
     0
1070
   282
1070
     0
1070
   281
1070
     0
1070
    71
1070
     0
1070
    74
1070
     0
1070
   279
1070
     0
1070
   173
1070
     1
1070
   340
1005
153
1070
   271
1070
     2
1070
   272
1070
     3
1070
    77
1070
     1
1070
    73
1070
     1
1070
   171
1070
     3
1070
   274
1070
     4
1070
   177
1070
     2
1070
   176
1070
     2
1070
   178
1070
     2
1070
    78
1070
     8
1070
    48
1040
-0.1
1070
    41
1040
3.5
1070
   147
1040
1.5
1070
    42
1040
1.5875
1070
    44
1040
2.0
1070
   140
1040
3.0
1002
}
1001
ACAD_DSTYLE_DIM_LINETYPE
1070
   380
1005
16
1001
ACAD_DSTYLE_DIM_EXT1_LINETYPE
1070
   381
1005
16
1001
ACAD_DSTYLE_DIM_EXT2_LINETYPE
1070
   382
1005
16
0
ENDSEC
0
SECTION
2
OBJECTS
0
DICTIONARY
5
245
330
0
100
AcDbDictionary
280
0
281
1
3
ACAD_GROUP
350
246
3
ACAD_MLINESTYLE
350
247
0
DICTIONARY
5
246
330
0
100
AcDbDictionary
280
0
281
1
0
DICTIONARY
5
247
330
0
100
AcDbDictionary
280
0
281
1
3
Standard
350
18
0
MLINESTYLE
5
18
330
247
100
AcDbMlineStyle
2
Standard
70
0
3

62
256
51
90
52
90
71
2
49
-0.5
62
256
6
ByLayer
49
0.5
62
256
6
ByLayer
0
RASTERVARIABLES
5
233
330

100
AcDbRasterVariables
90
0
70
1
71
1
72
1
0
ENDSEC
0
EOF
