0
SECTION
2
HEADER
9
$ACADVER
1
AC1015
9
$DWGCODEPAGE
3
ANSI_1252
9
$HANDSEED
5
24a
9
$ANGBASE
50
0
9
$ANGDIR
70
0
9
$ATTMODE
70
1
9
$AUNITS
70
0
9
$AUPREC
70
0
9
$CECOLOR
62
256
9
$CELTSCALE
40
1
9
$CELTYPE
6
ByLayer
9
$CELWEIGHT
370
18
9
$CLAYER
8
0
9
$CMLJUST
70
0
9
$CMLSCALE
40
1
9
$CMLSTYLE
2
Standard
9
$DIMSTYLE
2
Standard
9
$TEXTSIZE
40
0.2
9
$TEXTSTYLE
7
Standard
9
$LUNITS
70
2
9
$LUPREC
70
4
9
$EXTNAMES
290
1
9
$INSUNITS
70
4
9
$LTSCALE
40
1
9
$LWDISPLAY
290
1
9
$PDMODE
70
0
9
$PDSIZE
40
0
9
$PLINEGEN
70
0
0
ENDSEC
0
SECTION
2
CLASSES
0
CLASS
1
RASTERVARIABLES
2
AcDbRasterVariables
3
ISM
90
0
280
0
281
0
0
ENDSEC
0
SECTION
2
TABLES
0
TABLE
2
VPORT
5
240
100
AcDbSymbolTable
0
VPORT
5
1
100
AcDbSymbolTableRecord
100
AcDbViewportTableRecord
2
*Active
70
0
10
0
20
0
11
1
21
1
12
-1
22
1
13
0
23
0
14
0.5
24
0.5
15
10
25
10
16
0
26
0
36
1
17
0
27
0
37
0
0
ENDTAB
0
TABLE
2
LTYPE
5
241
100
AcDbSymbolTable
0
LTYPE
5
14
100
AcDbSymbolTableRecord
100
AcDbLinetypeTableRecord
70
0
2
ByBlock
3

72
65
73
0
40
0
0
LTYPE
5
15
100
AcDbSymbolTableRecord
100
AcDbLinetypeTableRecord
70
0
2
ByLayer
3

72
65
73
0
40
0
0
LTYPE
5
16
100
AcDbSymbolTableRecord
100
AcDbLinetypeTableRecord
70
0
2
Continuous
3
Solid line
72
65
73
0
40
0
0
LTYPE
5
6E
100
AcDbSymbolTableRecord
100
AcDbLinetypeTableRecord
70
0
2
CENTER
3
____ _ ____ _ ____ _ ____
72
65
73
4
40
47.5
49
22
74
0
49
-8.5
74
0
49
8.5
74
0
49
-8.5
74
0
0
LTYPE
5
6F
100
AcDbSymbolTableRecord
100
AcDbLinetypeTableRecord
70
0
2
DASHED
3
__ __ __ __ __ __ __ __ __
72
65
73
2
40
25.72
49
12.86
74
0
49
-12.86
74
0
0
ENDTAB
0
TABLE
2
LAYER
5
242
100
AcDbSymbolTable
0
LAYER
5
10
100
AcDbSymbolTableRecord
100
AcDbLayerTableRecord
2
0
70
0
62
7
6
Continuous
290
1
370
-3
390
0
0
LAYER
5
71
100
AcDbSymbolTableRecord
100
AcDbLayerTableRecord
2
80
70
0
62
-6
6
Continuous
290
1
370
-3
390
0
0
LAYER
5
73
100
AcDbSymbolTableRecord
100
AcDbLayerTableRecord
2
81
70
0
62
-3
6
Continuous
290
1
370
-3
390
0
0
LAYER
5
75
100
AcDbSymbolTableRecord
100
AcDbLayerTableRecord
2
1
70
0
62
4
6
Continuous
290
1
370
-3
390
0
0
LAYER
5
7F
100
AcDbSymbolTableRecord
100
AcDbLayerTableRecord
2
4
70
0
62
-2
6
CENTER
290
1
370
-3
390
0
0
LAYER
5
B1
100
AcDbSymbolTableRecord
100
AcDbLayerTableRecord
2
2
70
0
62
7
6
Continuous
290
1
370
-3
390
0
0
LAYER
5
16F
100
AcDbSymbolTableRecord
100
AcDbLayerTableRecord
2
Defpoints
70
0
62
7
6
Continuous
290
0
370
-3
390
0
0
LAYER
5
22c
100
AcDbSymbolTableRecord
100
AcDbLayerTableRecord
2
SK4
70
0
62
2
6
CENTER
290
1
370
-3
390
0
0
LAYER
5
22d
100
AcDbSymbolTableRecord
100
AcDbLayerTableRecord
2
SK1
70
0
62
4
6
Continuous
290
1
370
-3
390
0
0
LAYER
5
22e
100
AcDbSymbolTableRecord
100
AcDbLayerTableRecord
2
SK2
70
0
62
7
6
Continuous
290
1
370
-3
390
0
0
LAYER
5
22f
100
AcDbSymbolTableRecord
100
AcDbLayerTableRecord
2
SK6
70
0
62
5
6
Continuous
290
1
370
-3
390
0
0
ENDTAB
0
TABLE
2
STYLE
5
243
100
AcDbSymbolTable
0
STYLE
5
11
100
AcDbSymbolTableRecord
100
AcDbTextStyleTableRecord
2
Standard
3
txt
70
0
71
0
40
0
41
1
42
0
50
0
0
STYLE
5
14B
100
AcDbSymbolTableRecord
100
AcDbTextStyleTableRecord
2
iso_b_vert
3
simplex.shx
70
0
71
0
40
0
41
1
42
0
50
0
0
STYLE
5
14C
100
AcDbSymbolTableRecord
100
AcDbTextStyleTableRecord
2
DWGDirectTextStyle
3
simplex
70
0
71
0
40
0
41
1
42
0
50
0
0
ENDTAB
0
TABLE
2
DIMSTYLE
5
244
100
AcDbSymbolTable
100
AcDbDimStyleTable
0
DIMSTYLE
105
27
100
AcDbSymbolTableRecord
100
AcDbDimStyleTableRecord
2
Standard
70
0
3
<>
41
0.18
42
0.0625
44
0.18
140
0.18
147
0.09
73
0
74
0
77
1
271
2
275
0
278
52
280
0
340
11
0
ENDTAB
0
TABLE
2
VIEW
5
245
100
AcDbSymbolTable
0
ENDTAB
0
TABLE
2
UCS
5
246
100
AcDbSymbolTable
0
ENDTAB
0
TABLE
2
APPID
5
247
100
AcDbSymbolTable
0
APPID
5
12
100
AcDbSymbolTableRecord
100
AcDbRegAppTableRecord
2
ACAD
70
0
0
APPID
5
16B
100
AcDbSymbolTableRecord
100
AcDbRegAppTableRecord
2
ACAD_DSTYLE_DIMBREAK
70
0
0
APPID
5
1EB
100
AcDbSymbolTableRecord
100
AcDbRegAppTableRecord
2
ACAD_DSTYLE_DIM_LINETYPE
70
0
0
APPID
5
1EC
100
AcDbSymbolTableRecord
100
AcDbRegAppTableRecord
2
ACAD_DSTYLE_DIM_EXT1_LINETYPE
70
0
0
APPID
5
1ED
100
AcDbSymbolTableRecord
100
AcDbRegAppTableRecord
2
ACAD_DSTYLE_DIM_EXT2_LINETYPE
70
0
0
APPID
5
228
100
AcDbSymbolTableRecord
100
AcDbRegAppTableRecord
2
ACAD_MLEADERVER
70
0
0
ENDTAB
0
TABLE
2
BLOCK_RECORD
5
248
100
AcDbSymbolTable
0
BLOCK_RECORD
5
1F
100
AcDbSymbolTableRecord
100
AcDbBlockTableRecord
2
*Model_Space
340
0
70
0
0
BLOCK_RECORD
5
1B
100
AcDbSymbolTableRecord
100
AcDbBlockTableRecord
2
*Paper_Space
340
0
70
0
0
BLOCK_RECORD
5
23
100
AcDbSymbolTableRecord
100
AcDbBlockTableRecord
2
*Paper_Space0
340
0
70
0
0
BLOCK_RECORD
5
170
100
AcDbSymbolTableRecord
100
AcDbBlockTableRecord
2
*D1
340
0
70
0
0
BLOCK_RECORD
5
17C
100
AcDbSymbolTableRecord
100
AcDbBlockTableRecord
2
_U0
340
0
70
0
0
BLOCK_RECORD
5
188
100
AcDbSymbolTableRecord
100
AcDbBlockTableRecord
2
*D3
340
0
70
0
0
BLOCK_RECORD
5
194
100
AcDbSymbolTableRecord
100
AcDbBlockTableRecord
2
_U1
340
0
70
0
0
BLOCK_RECORD
5
1A0
100
AcDbSymbolTableRecord
100
AcDbBlockTableRecord
2
*D5
340
0
70
0
0
BLOCK_RECORD
5
1AC
100
AcDbSymbolTableRecord
100
AcDbBlockTableRecord
2
_U2
340
0
70
0
0
BLOCK_RECORD
5
1B8
100
AcDbSymbolTableRecord
100
AcDbBlockTableRecord
2
*D7
340
0
70
0
0
BLOCK_RECORD
5
1C4
100
AcDbSymbolTableRecord
100
AcDbBlockTableRecord
2
_U3
340
0
70
0
0
ENDTAB
0
ENDSEC
0
SECTION
2
BLOCKS
0
BLOCK
5
20
100
AcDbEntity
8
0
100
AcDbBlockBegin
2
*Model_Space
70
0
10
0
20
0
30
0
3
*Model_Space
0
ENDBLK
5
21
100
AcDbEntity
8
0
100
AcDbBlockEnd
0
BLOCK
5
1C
100
AcDbEntity
8
0
100
AcDbBlockBegin
2
*Paper_Space
70
0
10
0
20
0
30
0
3
*Paper_Space
0
ENDBLK
5
1D
100
AcDbEntity
8
0
100
AcDbBlockEnd
0
BLOCK
5
24
100
AcDbEntity
8
0
100
AcDbBlockBegin
2
*Paper_Space0
70
0
10
0
20
0
30
0
3
*Paper_Space0
0
ENDBLK
5
25
100
AcDbEntity
8
0
100
AcDbBlockEnd
0
BLOCK
5
171
100
AcDbEntity
8
0
100
AcDbBlockBegin
2
*D1
70
1
10
0
20
0
30
0
3
*D1
0
LINE
5
173
100
AcDbEntity
8
0
62
256
6
ByLayer
370
-2
48
1
60
0
100
AcDbLine
10
-60
20
-17.5875
30
0
11
-60
21
-47.952229
31
0
39
0
210
0
220
0
230
1
0
LINE
5
174
100
AcDbEntity
8
0
62
256
6
ByLayer
370
-2
48
1
60
0
100
AcDbLine
10
115
20
-1.5875
30
0
11
115
21
-47.952229
31
0
39
0
210
0
220
0
230
1
0
LINE
5
175
100
AcDbEntity
8
0
62
256
6
ByLayer
370
-2
48
1
60
0
100
AcDbLine
10
-56.5
20
-45.952229
30
0
11
111.5
21
-45.952229
31
0
39
0
210
0
220
0
230
1
0
SOLID
5
176
100
AcDbEntity
8
0
62
256
6
ByLayer
370
-1
48
1
60
0
100
AcDbTrace
10
-56.5
20
-45.368896
30
0
11
-56.5
21
-46.535563
31
0
12
-60
22
-45.952229
32
0
13
-60
23
-45.952229
33
0
39
0
210
0
220
0
230
1
0
SOLID
5
177
100
AcDbEntity
8
0
62
256
6
ByLayer
370
-1
48
1
60
0
100
AcDbTrace
10
111.5
20
-46.535563
30
0
11
111.5
21
-45.368896
31
0
12
115
22
-45.952229
32
0
13
115
23
-45.952229
33
0
39
0
210
0
220
0
230
1
0
MTEXT
5
178
100
AcDbEntity
8
0
62
256
6
ByLayer
370
18
48
1
60
0
100
AcDbMText
10
27.5
20
-39.952229
30
0
210
0
220
0
230
1
1
\A1;175
40
3
41
0
44
1
50
0
71
5
72
5
7
iso_b_vert
0
POINT
5
179
100
AcDbEntity
8
Defpoints
62
0
6
ByLayer
370
-1
48
1
60
0
100
AcDbPoint
10
-60
20
-16
30
0
39
0
210
0
220
0
230
1
50
360
0
POINT
5
17A
100
AcDbEntity
8
Defpoints
62
0
6
ByLayer
370
-1
48
1
60
0
100
AcDbPoint
10
115
20
0
30
0
39
0
210
0
220
0
230
1
50
360
0
POINT
5
17B
100
AcDbEntity
8
Defpoints
62
0
6
ByLayer
370
-1
48
1
60
0
100
AcDbPoint
10
115
20
-45.952229
30
0
39
0
210
0
220
0
230
1
50
360
0
ENDBLK
5
172
100
AcDbEntity
8
0
100
AcDbBlockEnd
0
BLOCK
5
183
100
AcDbEntity
8
0
100
AcDbBlockBegin
2
_U0
70
0
10
0
20
0
30
0
3
_U0
0
MTEXT
5
17D
100
AcDbEntity
8
SK2
62
256
6
ByLayer
370
18
48
1
60
0
100
AcDbMText
10
22.271658
20
-45.067115
30
0
210
0
220
0
230
1
1
\W0.7022;175.00
40
3
41
0
44
1.084337
50
0
71
7
72
5
7
iso_b_vert
0
LINE
5
17E
100
AcDbEntity
8
SK2
62
256
6
ByLayer
370
13
48
1
60
0
100
AcDbLine
10
-60
20
-17.5875
30
0
11
-60
21
-47.952229
31
0
39
0
210
0
220
0
230
1
0
LINE
5
17F
100
AcDbEntity
8
SK2
62
256
6
ByLayer
370
13
48
1
60
0
100
AcDbLine
10
115
20
-1.5875
30
0
11
115
21
-47.952229
31
0
39
0
210
0
220
0
230
1
0
LINE
5
180
100
AcDbEntity
8
SK2
62
256
6
ByLayer
370
13
48
1
60
0
100
AcDbLine
10
-60
20
-45.952229
30
0
11
115
21
-45.952229
31
0
39
0
210
0
220
0
230
1
0
SOLID
5
181
100
AcDbEntity
8
SK2
62
256
6
ByLayer
370
18
48
1
60
0
100
AcDbTrace
10
-60
20
-45.952229
30
0
11
-56.500002
21
-45.491446
31
0
12
-56.499998
22
-46.413013
32
0
13
-56.499998
23
-46.413013
33
0
39
0
210
0
220
0
230
1
0
SOLID
5
182
100
AcDbEntity
8
SK2
62
256
6
ByLayer
370
18
48
1
60
0
100
AcDbTrace
10
115
20
-45.952229
30
0
11
111.500002
21
-46.413013
31
0
12
111.499998
22
-45.491446
32
0
13
111.499998
23
-45.491446
33
0
39
0
210
0
220
0
230
1
0
ENDBLK
5
184
100
AcDbEntity
8
0
100
AcDbBlockEnd
0
BLOCK
5
189
100
AcDbEntity
8
0
100
AcDbBlockBegin
2
*D3
70
1
10
0
20
0
30
0
3
*D3
0
LINE
5
18B
100
AcDbEntity
8
0
62
256
6
ByLayer
370
-2
48
1
60
0
100
AcDbLine
10
115
20
-1.5875
30
0
11
115
21
-37.952229
31
0
39
0
210
0
220
0
230
1
0
LINE
5
18C
100
AcDbEntity
8
0
62
256
6
ByLayer
370
-2
48
1
60
0
100
AcDbLine
10
3
20
-14.5875
30
0
11
3
21
-37.952229
31
0
39
0
210
0
220
0
230
1
0
LINE
5
18D
100
AcDbEntity
8
0
62
256
6
ByLayer
370
-2
48
1
60
0
100
AcDbLine
10
111.5
20
-35.952229
30
0
11
6.5
21
-35.952229
31
0
39
0
210
0
220
0
230
1
0
SOLID
5
18E
100
AcDbEntity
8
0
62
256
6
ByLayer
370
-1
48
1
60
0
100
AcDbTrace
10
111.5
20
-36.535563
30
0
11
111.5
21
-35.368896
31
0
12
115
22
-35.952229
32
0
13
115
23
-35.952229
33
0
39
0
210
0
220
0
230
1
0
SOLID
5
18F
100
AcDbEntity
8
0
62
256
6
ByLayer
370
-1
48
1
60
0
100
AcDbTrace
10
6.5
20
-35.368896
30
0
11
6.5
21
-36.535563
31
0
12
3
22
-35.952229
32
0
13
3
23
-35.952229
33
0
39
0
210
0
220
0
230
1
0
MTEXT
5
190
100
AcDbEntity
8
0
62
256
6
ByLayer
370
18
48
1
60
0
100
AcDbMText
10
59
20
-29.952229
30
0
210
0
220
0
230
1
1
\A1;112
40
3
41
0
44
1
50
0
71
5
72
5
7
iso_b_vert
0
POINT
5
191
100
AcDbEntity
8
Defpoints
62
0
6
ByLayer
370
-1
48
1
60
0
100
AcDbPoint
10
115
20
0
30
0
39
0
210
0
220
0
230
1
50
360
0
POINT
5
192
100
AcDbEntity
8
Defpoints
62
0
6
ByLayer
370
-1
48
1
60
0
100
AcDbPoint
10
3
20
-13
30
0
39
0
210
0
220
0
230
1
50
360
0
POINT
5
193
100
AcDbEntity
8
Defpoints
62
0
6
ByLayer
370
-1
48
1
60
0
100
AcDbPoint
10
3
20
-35.952229
30
0
39
0
210
0
220
0
230
1
50
360
0
ENDBLK
5
18A
100
AcDbEntity
8
0
100
AcDbBlockEnd
0
BLOCK
5
19B
100
AcDbEntity
8
0
100
AcDbBlockBegin
2
_U1
70
0
10
0
20
0
30
0
3
_U1
0
MTEXT
5
195
100
AcDbEntity
8
SK2
62
256
6
ByLayer
370
18
48
1
60
0
100
AcDbMText
10
54.146601
20
-35.067115
30
0
210
0
220
0
230
1
1
\W0.6532;112.00
40
3
41
0
44
1.084337
50
0
71
7
72
5
7
iso_b_vert
0
LINE
5
196
100
AcDbEntity
8
SK2
62
256
6
ByLayer
370
13
48
1
60
0
100
AcDbLine
10
115
20
-1.5875
30
0
11
115
21
-37.952229
31
0
39
0
210
0
220
0
230
1
0
LINE
5
197
100
AcDbEntity
8
SK2
62
256
6
ByLayer
370
13
48
1
60
0
100
AcDbLine
10
3
20
-14.5875
30
0
11
3
21
-37.952229
31
0
39
0
210
0
220
0
230
1
0
LINE
5
198
100
AcDbEntity
8
SK2
62
256
6
ByLayer
370
13
48
1
60
0
100
AcDbLine
10
115
20
-35.952229
30
0
11
3
21
-35.952229
31
0
39
0
210
0
220
0
230
1
0
SOLID
5
199
100
AcDbEntity
8
SK2
62
256
6
ByLayer
370
18
48
1
60
0
100
AcDbTrace
10
115
20
-35.952229
30
0
11
111.500002
21
-36.413013
31
0
12
111.499998
22
-35.491446
32
0
13
111.499998
23
-35.491446
33
0
39
0
210
0
220
0
230
1
0
SOLID
5
19A
100
AcDbEntity
8
SK2
62
256
6
ByLayer
370
18
48
1
60
0
100
AcDbTrace
10
3
20
-35.952229
30
0
11
6.499998
21
-35.491446
31
0
12
6.500002
22
-36.413013
32
0
13
6.500002
23
-36.413013
33
0
39
0
210
0
220
0
230
1
0
ENDBLK
5
19C
100
AcDbEntity
8
0
100
AcDbBlockEnd
0
BLOCK
5
1A1
100
AcDbEntity
8
0
100
AcDbBlockBegin
2
*D5
70
1
10
0
20
0
30
0
3
*D5
0
LINE
5
1A3
100
AcDbEntity
8
0
62
256
6
ByLayer
370
-2
48
1
60
0
100
AcDbLine
10
-60
20
-17.5875
30
0
11
-60
21
-37.952229
31
0
39
0
210
0
220
0
230
1
0
LINE
5
1A4
100
AcDbEntity
8
0
62
256
6
ByLayer
370
-2
48
1
60
0
100
AcDbLine
10
0
20
-17.5875
30
0
11
0
21
-37.952229
31
0
39
0
210
0
220
0
230
1
0
LINE
5
1A5
100
AcDbEntity
8
0
62
256
6
ByLayer
370
-2
48
1
60
0
100
AcDbLine
10
-56.5
20
-35.952229
30
0
11
-3.5
21
-35.952229
31
0
39
0
210
0
220
0
230
1
0
SOLID
5
1A6
100
AcDbEntity
8
0
62
256
6
ByLayer
370
-1
48
1
60
0
100
AcDbTrace
10
-56.5
20
-35.368896
30
0
11
-56.5
21
-36.535563
31
0
12
-60
22
-35.952229
32
0
13
-60
23
-35.952229
33
0
39
0
210
0
220
0
230
1
0
SOLID
5
1A7
100
AcDbEntity
8
0
62
256
6
ByLayer
370
-1
48
1
60
0
100
AcDbTrace
10
-3.5
20
-36.535563
30
0
11
-3.5
21
-35.368896
31
0
12
0
22
-35.952229
32
0
13
0
23
-35.952229
33
0
39
0
210
0
220
0
230
1
0
MTEXT
5
1A8
100
AcDbEntity
8
0
62
256
6
ByLayer
370
18
48
1
60
0
100
AcDbMText
10
-30
20
-29.952229
30
0
210
0
220
0
230
1
1
\A1;60
40
3
41
0
44
1
50
0
71
5
72
5
7
iso_b_vert
0
POINT
5
1A9
100
AcDbEntity
8
Defpoints
62
0
6
ByLayer
370
-1
48
1
60
0
100
AcDbPoint
10
-60
20
-16
30
0
39
0
210
0
220
0
230
1
50
360
0
POINT
5
1AA
100
AcDbEntity
8
Defpoints
62
0
6
ByLayer
370
-1
48
1
60
0
100
AcDbPoint
10
0
20
-16
30
0
39
0
210
0
220
0
230
1
50
360
0
POINT
5
1AB
100
AcDbEntity
8
Defpoints
62
0
6
ByLayer
370
-1
48
1
60
0
100
AcDbPoint
10
0
20
-35.952229
30
0
39
0
210
0
220
0
230
1
50
360
0
ENDBLK
5
1A2
100
AcDbEntity
8
0
100
AcDbBlockEnd
0
BLOCK
5
1B3
100
AcDbEntity
8
0
100
AcDbBlockBegin
2
_U2
70
0
10
0
20
0
30
0
3
_U2
0
MTEXT
5
1AD
100
AcDbEntity
8
SK2
62
256
6
ByLayer
370
18
48
1
60
0
100
AcDbMText
10
-34.48237
20
-35.067115
30
0
210
0
220
0
230
1
1
\W0.7468;60.00
40
3
41
0
44
1.084337
50
0
71
7
72
5
7
iso_b_vert
0
LINE
5
1AE
100
AcDbEntity
8
SK2
62
256
6
ByLayer
370
13
48
1
60
0
100
AcDbLine
10
-60
20
-17.5875
30
0
11
-60
21
-37.952229
31
0
39
0
210
0
220
0
230
1
0
LINE
5
1AF
100
AcDbEntity
8
SK2
62
256
6
ByLayer
370
13
48
1
60
0
100
AcDbLine
10
0
20
-17.5875
30
0
11
0
21
-37.952229
31
0
39
0
210
0
220
0
230
1
0
LINE
5
1B0
100
AcDbEntity
8
SK2
62
256
6
ByLayer
370
13
48
1
60
0
100
AcDbLine
10
-60
20
-35.952229
30
0
11
0
21
-35.952229
31
0
39
0
210
0
220
0
230
1
0
SOLID
5
1B1
100
AcDbEntity
8
SK2
62
256
6
ByLayer
370
18
48
1
60
0
100
AcDbTrace
10
-60
20
-35.952229
30
0
11
-56.500002
21
-35.491446
31
0
12
-56.499998
22
-36.413013
32
0
13
-56.499998
23
-36.413013
33
0
39
0
210
0
220
0
230
1
0
SOLID
5
1B2
100
AcDbEntity
8
SK2
62
256
6
ByLayer
370
18
48
1
60
0
100
AcDbTrace
10
0
20
-35.952229
30
0
11
-3.499998
21
-36.413013
31
0
12
-3.500002
22
-35.491446
32
0
13
-3.500002
23
-35.491446
33
0
39
0
210
0
220
0
230
1
0
ENDBLK
5
1B4
100
AcDbEntity
8
0
100
AcDbBlockEnd
0
BLOCK
5
1B9
100
AcDbEntity
8
0
100
AcDbBlockBegin
2
*D7
70
1
10
0
20
0
30
0
3
*D7
0
LINE
5
1BB
100
AcDbEntity
8
0
62
256
6
ByLayer
370
-2
48
1
60
0
100
AcDbLine
10
115
20
1.5875
30
0
11
115
21
34.952229
31
0
39
0
210
0
220
0
230
1
0
LINE
5
1BC
100
AcDbEntity
8
0
62
256
6
ByLayer
370
-2
48
1
60
0
100
AcDbLine
10
23
20
14.5875
30
0
11
23
21
34.952229
31
0
39
0
210
0
220
0
230
1
0
LINE
5
1BD
100
AcDbEntity
8
0
62
256
6
ByLayer
370
-2
48
1
60
0
100
AcDbLine
10
111.5
20
32.952229
30
0
11
26.5
21
32.952229
31
0
39
0
210
0
220
0
230
1
0
SOLID
5
1BE
100
AcDbEntity
8
0
62
256
6
ByLayer
370
-1
48
1
60
0
100
AcDbTrace
10
111.5
20
32.368896
30
0
11
111.5
21
33.535563
31
0
12
115
22
32.952229
32
0
13
115
23
32.952229
33
0
39
0
210
0
220
0
230
1
0
SOLID
5
1BF
100
AcDbEntity
8
0
62
256
6
ByLayer
370
-1
48
1
60
0
100
AcDbTrace
10
26.5
20
33.535563
30
0
11
26.5
21
32.368896
31
0
12
23
22
32.952229
32
0
13
23
23
32.952229
33
0
39
0
210
0
220
0
230
1
0
MTEXT
5
1C0
100
AcDbEntity
8
0
62
256
6
ByLayer
370
18
48
1
60
0
100
AcDbMText
10
69
20
38.952229
30
0
210
0
220
0
230
1
1
\A1;92
40
3
41
0
44
1
50
0
71
5
72
5
7
iso_b_vert
0
POINT
5
1C1
100
AcDbEntity
8
Defpoints
62
0
6
ByLayer
370
-1
48
1
60
0
100
AcDbPoint
10
115
20
0
30
0
39
0
210
0
220
0
230
1
50
360
0
POINT
5
1C2
100
AcDbEntity
8
Defpoints
62
0
6
ByLayer
370
-1
48
1
60
0
100
AcDbPoint
10
23
20
13
30
0
39
0
210
0
220
0
230
1
50
360
0
POINT
5
1C3
100
AcDbEntity
8
Defpoints
62
0
6
ByLayer
370
-1
48
1
60
0
100
AcDbPoint
10
23
20
32.952229
30
0
39
0
210
0
220
0
230
1
50
360
0
ENDBLK
5
1BA
100
AcDbEntity
8
0
100
AcDbBlockEnd
0
BLOCK
5
1CB
100
AcDbEntity
8
0
100
AcDbBlockBegin
2
_U3
70
0
10
0
20
0
30
0
3
_U3
0
MTEXT
5
1C5
100
AcDbEntity
8
SK2
62
256
6
ByLayer
370
18
48
1
60
0
100
AcDbMText
10
64.51763
20
33.837344
30
0
210
0
220
0
230
1
1
\W0.7468;92.00
40
3
41
0
44
1.084337
50
0
71
7
72
5
7
iso_b_vert
0
LINE
5
1C6
100
AcDbEntity
8
SK2
62
256
6
ByLayer
370
13
48
1
60
0
100
AcDbLine
10
115
20
1.5875
30
0
11
115
21
34.952229
31
0
39
0
210
0
220
0
230
1
0
LINE
5
1C7
100
AcDbEntity
8
SK2
62
256
6
ByLayer
370
13
48
1
60
0
100
AcDbLine
10
23
20
14.5875
30
0
11
23
21
34.952229
31
0
39
0
210
0
220
0
230
1
0
LINE
5
1C8
100
AcDbEntity
8
SK2
62
256
6
ByLayer
370
13
48
1
60
0
100
AcDbLine
10
115
20
32.952229
30
0
11
23
21
32.952229
31
0
39
0
210
0
220
0
230
1
0
SOLID
5
1C9
100
AcDbEntity
8
SK2
62
256
6
ByLayer
370
18
48
1
60
0
100
AcDbTrace
10
115
20
32.952229
30
0
11
111.500002
21
32.491446
31
0
12
111.499998
22
33.413013
32
0
13
111.499998
23
33.413013
33
0
39
0
210
0
220
0
230
1
0
SOLID
5
1CA
100
AcDbEntity
8
SK2
62
256
6
ByLayer
370
18
48
1
60
0
100
AcDbTrace
10
23
20
32.952229
30
0
11
26.499998
21
33.413013
31
0
12
26.500002
22
32.491446
32
0
13
26.500002
23
32.491446
33
0
39
0
210
0
220
0
230
1
0
ENDBLK
5
1CC
100
AcDbEntity
8
0
100
AcDbBlockEnd
0
ENDSEC
0
SECTION
2
ENTITIES
0
ARC
5
C2
100
AcDbEntity
8
SK2
62
256
6
ByLayer
370
13
48
1
60
0
100
AcDbCircle
39
0
10
115
20
0
30
0
40
18.9999999999999
210
0
220
0
230
1
100
AcDbArc
50
290
51
70
0
ELLIPSE
5
C3
100
AcDbEntity
8
SK1
62
256
6
ByLayer
370
18
48
1
60
0
100
AcDbEllipse
10
375.907546
20
0
30
0
11
458.180052524353
21
-5.19163675692399E-13
31
0
210
0
220
0
230
1
40
0.034921
41
2.59367031451701
42
2.79796683129766
0
ELLIPSE
5
C4
100
AcDbEntity
8
SK1
62
256
6
ByLayer
370
18
48
1
60
0
100
AcDbEllipse
10
-29.157899
20
0
30
0
11
17.1578993603954
21
-1.94416104542868E-14
31
0
210
0
220
0
230
1
40
0.932515
41
-0.494065251162693
42
0.494065251162695
0
ELLIPSE
5
C5
100
AcDbEntity
8
SK1
62
256
6
ByLayer
370
18
48
1
60
0
100
AcDbEllipse
10
375.907546
20
0
30
0
11
458.180052528051
21
-5.19163675696589E-13
31
0
210
0
220
0
230
1
40
0.034921
41
-2.79796683129846
42
-2.59367031451889
0
ELLIPSE
5
C6
100
AcDbEntity
8
SK1
62
256
6
ByLayer
370
18
48
1
60
0
100
AcDbEllipse
10
-42.079759
20
0
30
0
11
-2.93905524917505E-15
21
-16.0000000000073
31
0
210
0
220
0
230
1
40
0.932515
41
-1.80249142112189
42
-1.3391012324679
0
POINT
5
70
100
AcDbEntity
8
80
62
256
6
ByLayer
370
18
48
1
60
0
100
AcDbPoint
10
0
20
0
30
0
39
0
210
0
220
0
230
1
50
360
0
POINT
5
72
100
AcDbEntity
8
81
62
256
6
ByLayer
370
18
48
1
60
0
100
AcDbPoint
10
115
20
0
30
0
39
0
210
0
220
0
230
1
50
360
0
POINT
5
74
100
AcDbEntity
8
1
62
256
6
ByLayer
370
18
48
1
60
1
100
AcDbPoint
10
-60
20
-16
30
0
39
0
210
0
220
0
230
1
50
360
0
POINT
5
76
100
AcDbEntity
8
1
62
256
6
ByLayer
370
18
48
1
60
1
100
AcDbPoint
10
115
20
0
30
0
39
0
210
0
220
0
230
1
50
360
0
POINT
5
77
100
AcDbEntity
8
1
62
256
6
ByLayer
370
18
48
1
60
1
100
AcDbPoint
10
115
20
0
30
0
39
0
210
0
220
0
230
1
50
360
0
POINT
5
78
100
AcDbEntity
8
1
62
256
6
ByLayer
370
18
48
1
60
1
100
AcDbPoint
10
3
20
-13
30
0
39
0
210
0
220
0
230
1
50
360
0
POINT
5
79
100
AcDbEntity
8
1
62
256
6
ByLayer
370
18
48
1
60
1
100
AcDbPoint
10
-60
20
-16
30
0
39
0
210
0
220
0
230
1
50
360
0
POINT
5
7A
100
AcDbEntity
8
1
62
256
6
ByLayer
370
18
48
1
60
1
100
AcDbPoint
10
0
20
-16
30
0
39
0
210
0
220
0
230
1
50
360
0
POINT
5
7B
100
AcDbEntity
8
1
62
256
6
ByLayer
370
18
48
1
60
1
100
AcDbPoint
10
115
20
0
30
0
39
0
210
0
220
0
230
1
50
360
0
POINT
5
7C
100
AcDbEntity
8
1
62
256
6
ByLayer
370
18
48
1
60
1
100
AcDbPoint
10
23
20
13
30
0
39
0
210
0
220
0
230
1
50
360
0
SPLINE
5
C7
100
AcDbEntity
8
1
62
256
6
ByLayer
370
18
48
1
60
0
100
AcDbSpline
70
4
71
3
72
12
73
8
40
0
40
0
40
0
40
0
40
0.552181016784832
40
0.552181016784832
40
0.828271525177233
40
0.828271525177233
40
1
40
1
40
1
40
1
41
1
10
98.6
20
-12.9622140083206
30
0
41
1
10
99.0867646883416
20
-12.9754053789983
30
0
41
1
10
99.5732620520993
20
-12.9850073062634
30
0
41
1
10
100.302540198009
20
-12.9939831109616
30
0
41
1
10
100.545549006137
20
-12.9960686564603
30
0
41
1
10
100.939720290619
20
-12.9979714388844
30
0
41
1
10
101.090884111106
20
-12.9983486508139
30
0
41
1
10
101.242053700268
20
-12.9983753056583
30
0
0
SPLINE
5
C8
100
AcDbEntity
8
1
62
256
6
ByLayer
370
18
48
1
60
0
100
AcDbSpline
70
4
71
3
72
132
73
128
40
0
40
0
40
0
40
0
40
0.0312500000000005
40
0.0312500000000005
40
0.062500000000001
40
0.062500000000001
40
0.0781250000000013
40
0.0781250000000013
40
0.0859375000000012
40
0.0859375000000012
40
0.093750000000001
40
0.093750000000001
40
0.109375
40
0.109375
40
0.125
40
0.125
40
0.140624999999999
40
0.140624999999999
40
0.156249999999998
40
0.156249999999998
40
0.164062499999998
40
0.164062499999998
40
0.171874999999998
40
0.171874999999998
40
0.187499999999997
40
0.187499999999997
40
0.203124999999996
40
0.203124999999996
40
0.218749999999996
40
0.218749999999996
40
0.234374999999995
40
0.234374999999995
40
0.242187499999995
40
0.242187499999995
40
0.249999999999994
40
0.249999999999994
40
0.281249999999992
40
0.281249999999992
40
0.296874999999991
40
0.296874999999991
40
0.31249999999999
40
0.31249999999999
40
0.320312499999989
40
0.320312499999989
40
0.328124999999989
40
0.328124999999989
40
0.343749999999989
40
0.343749999999989
40
0.374999999999988
40
0.374999999999988
40
0.390624999999988
40
0.390624999999988
40
0.398437499999989
40
0.398437499999989
40
0.406249999999989
40
0.406249999999989
40
0.421874999999989
40
0.421874999999989
40
0.43749999999999
40
0.43749999999999
40
0.468749999999991
40
0.468749999999991
40
0.476562499999991
40
0.476562499999991
40
0.484374999999992
40
0.484374999999992
40
0.499999999999992
40
0.499999999999992
40
0.515624999999993
40
0.515624999999993
40
0.531249999999994
40
0.531249999999994
40
0.546874999999994
40
0.546874999999994
40
0.554687499999994
40
0.554687499999994
40
0.562499999999995
40
0.562499999999995
40
0.593749999999995
40
0.593749999999995
40
0.609374999999994
40
0.609374999999994
40
0.624999999999994
40
0.624999999999994
40
0.632812499999994
40
0.632812499999994
40
0.640624999999994
40
0.640624999999994
40
0.656249999999996
40
0.656249999999996
40
0.687499999999998
40
0.687499999999998
40
0.703125
40
0.703125
40
0.7109375
40
0.7109375
40
0.71875
40
0.71875
40
0.734375000000001
40
0.734375000000001
40
0.750000000000001
40
0.750000000000001
40
0.781250000000001
40
0.781250000000001
40
0.789062500000001
40
0.789062500000001
40
0.796875000000001
40
0.796875000000001
40
0.812500000000001
40
0.812500000000001
40
0.828125000000001
40
0.828125000000001
40
0.843750000000001
40
0.843750000000001
40
0.859375000000001
40
0.859375000000001
40
0.875000000000001
40
0.875000000000001
40
0.906250000000001
40
0.906250000000001
40
0.9375
40
0.9375
40
0.953125
40
0.953125
40
0.96875
40
0.96875
40
1
40
1
40
1
40
1
41
1
10
19.938149153363
20
8.35794625583526
30
0
41
1
10
20.757595390647
20
8.13441464723101
30
0
41
1
10
21.5772315302894
20
7.90552615334735
30
0
41
1
10
23.2164214621552
20
7.43626291629187
30
0
41
1
10
24.0359801575115
20
7.19589820825672
30
0
41
1
10
25.2649418002658
20
6.82596238027676
30
0
41
1
10
25.6745110642107
20
6.70103018047681
30
0
41
1
10
26.28881239473
20
6.51135455510129
30
0
41
1
10
26.4935882093605
20
6.44779145163645
30
0
41
1
10
26.9032555838271
20
6.32023004839854
30
0
41
1
10
27.1081366530854
20
6.25620677059928
30
0
41
1
10
27.7228997394774
20
6.06336087251213
30
0
41
1
10
28.13295713101
20
5.93373103788045
30
0
41
1
10
28.9529403441122
20
5.67236432493371
30
0
41
1
10
29.3628774812077
20
5.54063277227223
30
0
41
1
10
30.1825952037985
20
5.27495515022363
30
0
41
1
10
30.5923744620478
20
5.14100573655435
30
0
41
1
10
31.4117205266842
20
4.87073955041021
30
0
41
1
10
31.8212698499488
20
4.73437706159029
30
0
41
1
10
32.4354558216065
20
4.5280979824704
30
0
41
1
10
32.6401758590044
20
4.45908634367404
30
0
41
1
10
33.0497085782655
20
4.32084880582951
30
0
41
1
10
33.2545119455816
20
4.2515987831392
30
0
41
1
10
33.8690108193379
20
4.04340051907806
30
0
41
1
10
34.2787900076456
20
3.9039910085657
30
0
41
1
10
35.098511402812
20
3.62379183200557
30
0
41
1
10
35.50845699055
20
3.48301113536408
30
0
41
1
10
36.3284711780064
20
3.19996024684232
30
0
41
1
10
36.7385206157785
20
3.057692081639
30
0
41
1
10
37.5582024736146
20
2.7716754624054
30
0
41
1
10
37.9678815377911
20
2.6278707931433
30
0
41
1
10
38.5821807790707
20
2.41102812380717
30
0
41
1
10
38.7869220683692
20
2.33858923746249
30
0
41
1
10
39.1964711053311
20
2.19371708249113
30
0
41
1
10
39.4012720335561
20
2.1212651809459
30
0
41
1
10
40.4253718691675
20
1.75882789777134
30
0
41
1
10
41.2449222534692
20
1.46821814497159
30
0
41
1
10
42.4743477049056
20
1.03047949054999
30
0
41
1
10
42.8841730317933
20
0.884262505127168
30
0
41
1
10
43.7038047854201
20
0.591068959418834
30
0
41
1
10
44.1136251121321
20
0.444059160974774
30
0
41
1
10
44.7282607949086
20
0.222970843743354
30
0
41
1
10
44.9330983558513
20
0.14921635943216
30
0
41
1
10
45.3428109898261
20
0.0019261351809803
30
0
41
1
10
45.5476831448273
20
-0.0716178947561161
30
0
41
1
10
46.1623251906219
20
-0.292009502528998
30
0
41
1
10
46.5721157757481
20
-0.438630405722932
30
0
41
1
10
47.8014701798829
20
-0.877871657755776
30
0
41
1
10
48.6210380101182
20
-1.16981239991827
30
0
41
1
10
49.8500775237372
20
-1.60725033417134
30
0
41
1
10
50.2596992656355
20
-1.75300047804296
30
0
41
1
10
50.8740319445459
20
-1.97156351909581
30
0
41
1
10
51.0787996508318
20
-2.0443885626442
30
0
41
1
10
51.488432631615
20
-2.18965562211744
30
0
41
1
10
51.6933003945507
20
-2.26209085223192
30
0
41
1
10
52.3080350039559
20
-2.47886488689744
30
0
41
1
10
52.7180845858236
20
-2.62270489415423
30
0
41
1
10
53.5380260668845
20
-2.90905682956421
30
0
41
1
10
53.9479513467183
20
-3.05156754274358
30
0
41
1
10
55.1775242884961
20
-3.47729030680068
30
0
41
1
10
55.9969565017456
20
-3.75873284262221
30
0
41
1
10
57.0206501503486
20
-4.10816143800952
30
0
41
1
10
57.2253645236611
20
-4.1779131456114
30
0
41
1
10
57.6348580144595
20
-4.31684827656349
30
0
41
1
10
57.8396445175982
20
-4.38601251711864
30
0
41
1
10
58.4541056085174
20
-4.59264592427877
30
0
41
1
10
58.8638752262937
20
-4.72927342476959
30
0
41
1
10
59.6835930529514
20
-5.00048961011674
30
0
41
1
10
60.0935457509383
20
-5.13506647184724
30
0
41
1
10
60.913594795681
20
-5.40227144575806
30
0
41
1
10
61.3236407498278
20
-5.53488702686957
30
0
41
1
10
62.1433478643945
20
-5.79815091794302
30
0
41
1
10
62.5530617449917
20
-5.92881871778786
30
0
41
1
10
63.1673875611771
20
-6.12344273644578
30
0
41
1
10
63.3721242470052
20
-6.18808162246765
30
0
41
1
10
63.7816295231937
20
-6.31661991279904
30
0
41
1
10
63.9864088352176
20
-6.38049361237668
30
0
41
1
10
65.010427546997
20
-6.69792404899763
30
0
41
1
10
65.8299664557556
20
-6.94584137065488
30
0
41
1
10
67.0594240599502
20
-7.30954308947349
30
0
41
1
10
67.4692705369511
20
-7.42940648181417
30
0
41
1
10
68.2889644516636
20
-7.66650097169844
30
0
41
1
10
68.6988522703096
20
-7.78374323574107
30
0
41
1
10
69.3135108440662
20
-7.95765360038911
30
0
41
1
10
69.5183441776676
20
-8.01529243743664
30
0
41
1
10
69.9280100604951
20
-8.12967643611131
30
0
41
1
10
70.1328553185178
20
-8.1863944776828
30
0
41
1
10
70.7474374750911
20
-8.3551163949403
30
0
41
1
10
71.1572042897191
20
-8.46572488240008
30
0
41
1
10
72.3865117462646
20
-8.79225072370249
30
0
41
1
10
73.2060857073421
20
-9.00282517610361
30
0
41
1
10
74.4351972212764
20
-9.30860577296298
30
0
41
1
10
74.8448585417486
20
-9.40885106984041
30
0
41
1
10
75.4592482197905
20
-9.55674095396179
30
0
41
1
10
75.6640240614908
20
-9.60563063468979
30
0
41
1
10
76.0736344684001
20
-9.70240759638361
30
0
41
1
10
76.2784825779449
20
-9.75027039816871
30
0
41
1
10
76.8931845242344
20
-9.89223752169642
30
0
41
1
10
77.3032192795396
20
-9.9847744932905
30
0
41
1
10
78.1231162459342
20
-10.1657019676391
30
0
41
1
10
78.5330282589811
20
-10.2540941363877
30
0
41
1
10
79.7625915314105
20
-10.5131815448644
30
0
41
1
10
80.5820643968922
20
-10.6778137240314
30
0
41
1
10
81.6058441504458
20
-10.8737604477122
30
0
41
1
10
81.8105664302147
20
-10.9124640224489
30
0
41
1
10
82.2200367324715
20
-10.988759509177
30
0
41
1
10
82.424798545759
20
-11.0263318354322
30
0
41
1
10
83.0392158312897
20
-11.1372587800942
30
0
41
1
10
83.4489728688237
20
-11.2088687046316
30
0
41
1
10
84.2686827275325
20
-11.3475701479034
30
0
41
1
10
84.6786405593918
20
-11.4146543053019
30
0
41
1
10
85.4987196168289
20
-11.5443487533489
30
0
41
1
10
85.908728071935
20
-11.6069418974299
30
0
41
1
10
86.7282639339729
20
-11.7276193566092
30
0
41
1
10
87.1378470010395
20
-11.785712142557
30
0
41
1
10
87.9565901426159
20
-11.8974242547417
30
0
41
1
10
88.365725958999
20
-11.9510579010202
30
0
41
1
10
89.5934655657345
20
-12.1042524516129
30
0
41
1
10
90.4121076994733
20
-12.1964624898592
30
0
41
1
10
92.0491947212371
20
-12.3617272640626
30
0
41
1
10
92.8676580535205
20
-12.4347650045257
30
0
41
1
10
94.0949160001984
20
-12.5299517589022
30
0
41
1
10
94.5038894153931
20
-12.559293274866
30
0
41
1
10
95.3223197752088
20
-12.6128075207657
30
0
41
1
10
95.7317220580966
20
-12.6370209604879
30
0
41
1
10
96.9603360280776
20
-12.7021622526378
30
0
41
1
10
97.7799800072657
20
-12.7355950729673
30
0
41
1
10
98.5999999999997
20
-12.7590542222797
30
0
0
SPLINE
5
C9
100
AcDbEntity
8
1
62
256
6
ByLayer
370
18
48
1
60
0
100
AcDbSpline
70
4
71
3
72
96
73
92
40
0
40
0
40
0
40
0
40
0.0045444664704471
40
0.0045444664704471
40
0.026184804155871
40
0.026184804155871
40
0.0478251418412948
40
0.0478251418412948
40
0.0694654795267186
40
0.0694654795267186
40
0.0802856483694312
40
0.0802856483694312
40
0.0911058172121437
40
0.0911058172121437
40
0.134386492582996
40
0.134386492582996
40
0.156026830268423
40
0.156026830268423
40
0.177667167953849
40
0.177667167953849
40
0.199307505639275
40
0.199307505639275
40
0.220947843324701
40
0.220947843324701
40
0.264228518695554
40
0.264228518695554
40
0.285868856380979
40
0.285868856380979
40
0.296689025223692
40
0.296689025223692
40
0.307509194066404
40
0.307509194066404
40
0.350789869437254
40
0.350789869437254
40
0.372430207122678
40
0.372430207122678
40
0.383250375965391
40
0.383250375965391
40
0.394070544808103
40
0.394070544808103
40
0.415710882493528
40
0.415710882493528
40
0.437351220178953
40
0.437351220178953
40
0.480631895549802
40
0.480631895549802
40
0.502272233235228
40
0.502272233235228
40
0.523912570920653
40
0.523912570920653
40
0.545552908606078
40
0.545552908606078
40
0.567193246291503
40
0.567193246291503
40
0.588833583976928
40
0.588833583976928
40
0.59965375281964
40
0.59965375281964
40
0.610473921662352
40
0.610473921662352
40
0.653754597033201
40
0.653754597033201
40
0.675394934718625
40
0.675394934718625
40
0.686215103561338
40
0.686215103561338
40
0.69703527240405
40
0.69703527240405
40
0.718675610089475
40
0.718675610089475
40
0.740315947774901
40
0.740315947774901
40
0.78359662314575
40
0.78359662314575
40
0.794416791988462
40
0.794416791988462
40
0.805236960831174
40
0.805236960831174
40
0.826877298516599
40
0.826877298516599
40
0.870157973887448
40
0.870157973887448
40
0.891798311572873
40
0.891798311572873
40
0.902618480415585
40
0.902618480415585
40
0.913438649258298
40
0.913438649258298
40
0.956719324629149
40
0.956719324629149
40
1
40
1
40
1
40
1
41
1
10
75.1520436788675
20
-9.4804521522388
30
0
41
1
10
75.059772331771
20
-9.50268636966641
30
0
41
1
10
74.9674940417302
20
-9.52481977625135
30
0
41
1
10
74.4357558303119
20
-9.65177218494247
30
0
41
1
10
73.9960836553073
20
-9.75443270006264
30
0
41
1
10
73.1169381600416
20
-9.95516164731424
30
0
41
1
10
72.6774350417443
20
-10.0532367646988
30
0
41
1
10
71.7986009106295
20
-10.2448687106138
30
0
41
1
10
71.3592711917096
20
-10.3384277952211
30
0
41
1
10
70.7004350056952
20
-10.4754069810984
30
0
41
1
10
70.4808500833209
20
-10.5205077051569
30
0
41
1
10
70.0417321176915
20
-10.6095815556316
30
0
41
1
10
69.822197066537
20
-10.6535508079146
30
0
41
1
10
68.7243897595859
20
-10.8701669491717
30
0
41
1
10
67.8456891929416
20
-11.033104674221
30
0
41
1
10
66.5271358152193
20
-11.2623885519795
30
0
41
1
10
66.0874717200097
20
-11.3363005192532
30
0
41
1
10
65.2083134916485
20
-11.4790559136948
30
0
41
1
10
64.7688790708653
20
-11.5478924566342
30
0
41
1
10
63.8903312055114
20
-11.6804862545994
30
0
41
1
10
63.4512385486037
20
-11.7442580919252
30
0
41
1
10
62.5728327655738
20
-11.8661032065126
30
0
41
1
10
62.133571291248
20
-11.9242422475488
30
0
41
1
10
60.8156585885721
20
-12.0904144927612
30
0
41
1
10
59.9368692165139
20
-12.190210872946
30
0
41
1
10
58.6186188158862
20
-12.3235592233447
30
0
41
1
10
58.1791933542654
20
-12.3652877427875
30
0
41
1
10
57.5200547585532
20
-12.423738181216
30
0
41
1
10
57.3003813687617
20
-12.4425195870809
30
0
41
1
10
56.8610154797742
20
-12.4786165270458
30
0
41
1
10
56.6413298668749
20
-12.4959373662923
30
0
41
1
10
55.5428984420479
20
-12.5789281369338
30
0
41
1
10
54.6641444102551
20
-12.6337807899432
30
0
41
1
10
53.3461689262055
20
-12.6989406770067
30
0
41
1
10
52.9068714955604
20
-12.7178039439325
30
0
41
1
10
52.2479952472172
20
-12.7417988171521
30
0
41
1
10
52.0283812141648
20
-12.7490800486989
30
0
41
1
10
51.5891796012509
20
-12.7622021071727
30
0
41
1
10
51.3695946628401
20
-12.7680427483663
30
0
41
1
10
50.7107528402048
20
-12.783371218752
30
0
41
1
10
50.2713592329965
20
-12.7906605267841
30
0
41
1
10
49.392249475863
20
-12.7994246157592
30
0
41
1
10
48.9526188657956
20
-12.8008984253356
30
0
41
1
10
47.6340885632293
20
-12.7966332191121
30
0
41
1
10
46.7553299751756
20
-12.7822301129442
30
0
41
1
10
45.4378042005377
20
-12.7431283419824
30
0
41
1
10
44.9987754120599
20
-12.7271523641799
30
0
41
1
10
44.1204195504206
20
-12.6894790120243
30
0
41
1
10
43.6811234721654
20
-12.667781987631
30
0
41
1
10
42.8023284652632
20
-12.6186931687374
30
0
41
1
10
42.3628286122613
20
-12.5913016770141
30
0
41
1
10
41.4836516097896
20
-12.5308176581798
30
0
41
1
10
41.0439586479915
20
-12.4977230014715
30
0
41
1
10
40.1649921925109
20
-12.42583281252
30
0
41
1
10
39.7256527223982
20
-12.3870306074768
30
0
41
1
10
39.0668703494168
20
-12.3245020411296
30
0
41
1
10
38.8473107203024
20
-12.3029396911272
30
0
41
1
10
38.4081589266807
20
-12.2584543853999
30
0
41
1
10
38.1885653584728
20
-12.2355334024504
30
0
41
1
10
37.0905191925622
20
-12.1175460213017
30
0
41
1
10
36.2118351784758
20
-12.0123501055044
30
0
41
1
10
34.8936082548449
20
-11.8382847463138
30
0
41
1
10
34.4541669197242
20
-11.7775458893794
30
0
41
1
10
33.7949852471995
20
-11.6823064463289
30
0
41
1
10
33.5752544879418
20
-11.6498714224512
30
0
41
1
10
33.1357893917029
20
-11.5836131196156
30
0
41
1
10
32.9160876319489
20
-11.5497861742469
30
0
41
1
10
32.2570815846575
20
-11.4463525902382
30
0
41
1
10
31.8177544541336
20
-11.3748810568027
30
0
41
1
10
30.9390585088257
20
-11.2270324333158
30
0
41
1
10
30.499704848776
20
-11.1506366780567
30
0
41
1
10
29.1816651211594
20
-10.9140177954064
30
0
41
1
10
28.3029971520522
20
-10.7463845752289
30
0
41
1
10
27.2048757922265
20
-10.5241142502111
30
0
41
1
10
26.9852656056843
20
-10.4790168720183
30
0
41
1
10
26.5460501678996
20
-10.3875664616683
30
0
41
1
10
26.3264393498143
20
-10.3412219155063
30
0
41
1
10
25.6674515823127
20
-10.2005734337827
30
0
41
1
10
25.2278737691391
20
-10.1045937305233
30
0
41
1
10
23.9092261341009
20
-9.81014961394152
30
0
41
1
10
23.0304534613428
20
-9.60526184153392
30
0
41
1
10
21.7129737080482
20
-9.28472455687643
30
0
41
1
10
21.2739297360398
20
-9.17566944118707
30
0
41
1
10
20.6155603717622
20
-9.00870610948866
30
0
41
1
10
20.3961389803765
20
-8.95248292912811
30
0
41
1
10
19.9572766016273
20
-8.83907687439387
30
0
41
1
10
19.737825497501
20
-8.78191487444391
30
0
41
1
10
18.6404539304377
20
-8.4938556258335
30
0
41
1
10
17.7622206676758
20
-8.25615362546361
30
0
41
1
10
16.0052834608576
20
-7.76591144305576
30
0
41
1
10
15.1265763243355
20
-7.51338130302699
30
0
41
1
10
14.2477836409638
20
-7.25296058801175
30
0
0
SPLINE
5
CA
100
AcDbEntity
8
1
62
256
6
ByLayer
370
18
48
1
60
0
100
AcDbSpline
70
4
71
3
72
21
73
17
40
0
40
0
40
0
40
0
40
0.249999999999997
40
0.249999999999997
40
0.312499999999999
40
0.312499999999999
40
0.375000000000002
40
0.5
40
0.5
40
0.749999999999997
40
0.749999999999997
40
0.812499999999996
40
0.812499999999996
40
0.874999999999995
40
0.874999999999995
40
1
40
1
40
1
40
1
41
1
10
110.268386954547
20
-1.85555123243921
30
0
41
1
10
109.294807459343
20
-1.50551193740338
30
0
41
1
10
108.321961690709
20
-1.1537413605474
30
0
41
1
10
107.107043059064
20
-0.711254667108193
30
0
41
1
10
106.864106340014
20
-0.622646154282535
30
0
41
1
10
106.378189296613
20
-0.445587047336431
30
0
41
1
10
105.649270977344
20
-0.180172601500857
30
0
41
1
10
104.920255800095
20
0.0848069909887386
30
0
41
1
10
103.462154853665
20
0.61434928311229
30
0
41
1
10
102.489988163456
20
0.966807711905744
30
0
41
1
10
101.274915766024
20
1.40738222202367
30
0
41
1
10
101.031916810112
20
1.49552116806845
30
0
41
1
10
100.545855549851
20
1.67158698781398
30
0
41
1
10
100.302774599282
20
1.75946252400595
30
0
41
1
10
99.5733252703845
20
2.02246440402465
30
0
41
1
10
99.0867761805017
20
2.19703701303896
30
0
41
1
10
98.6000000000004
20
2.37090977415951
30
0
0
SPLINE
5
CB
100
AcDbEntity
8
1
62
256
6
ByLayer
370
18
48
1
60
0
100
AcDbSpline
70
4
71
3
72
95
73
91
40
0
40
0
40
0
40
0
40
0.0312500000000002
40
0.0312500000000002
40
0.0625000000000004
40
0.0625000000000004
40
0.0937500000000005
40
0.0937500000000005
40
0.125000000000001
40
0.125000000000001
40
0.140625
40
0.140625
40
0.1484375
40
0.1484375
40
0.15625
40
0.187499999999998
40
0.187499999999998
40
0.218749999999996
40
0.218749999999996
40
0.249999999999994
40
0.249999999999994
40
0.281249999999992
40
0.281249999999992
40
0.296874999999992
40
0.296874999999992
40
0.304687499999992
40
0.304687499999992
40
0.312499999999992
40
0.312499999999992
40
0.343749999999993
40
0.343749999999993
40
0.374999999999993
40
0.374999999999993
40
0.406249999999994
40
0.406249999999994
40
0.437499999999994
40
0.437499999999994
40
0.445312499999994
40
0.445312499999994
40
0.453124999999994
40
0.468749999999995
40
0.468749999999995
40
0.499999999999995
40
0.499999999999995
40
0.531249999999995
40
0.531249999999995
40
0.535156249999995
40
0.535156249999995
40
0.539062499999995
40
0.539062499999995
40
0.546874999999995
40
0.562499999999995
40
0.562499999999995
40
0.593749999999994
40
0.593749999999994
40
0.624999999999992
40
0.624999999999992
40
0.632812499999992
40
0.632812499999992
40
0.640624999999991
40
0.65624999999999
40
0.65624999999999
40
0.687499999999988
40
0.687499999999988
40
0.718749999999985
40
0.718749999999985
40
0.726562499999984
40
0.726562499999984
40
0.734374999999984
40
0.734374999999984
40
0.749999999999984
40
0.749999999999984
40
0.781249999999986
40
0.781249999999986
40
0.812499999999987
40
0.812499999999987
40
0.843749999999989
40
0.843749999999989
40
0.851562499999989
40
0.851562499999989
40
0.85937499999999
40
0.874999999999991
40
0.874999999999991
40
0.906249999999993
40
0.937499999999996
40
0.968749999999998
40
0.968749999999998
40
0.984374999999999
40
0.984374999999999
40
1
40
1
40
1
40
1
41
1
10
110.268386954539
20
12.5872318662724
30
0
41
1
10
110.34958088744
20
12.3859179802328
30
0
41
1
10
110.430902060657
20
12.1815797212779
30
0
41
1
10
110.593937485679
20
11.7673297079912
30
0
41
1
10
110.675651596871
20
11.5574168872674
30
0
41
1
10
110.839570128339
20
11.1323602644125
30
0
41
1
10
110.921774612415
20
10.9172158590643
30
0
41
1
10
111.086731581222
20
10.4819336246604
30
0
41
1
10
111.169484353205
20
10.2617955547146
30
0
41
1
10
111.294034277824
20
9.92795206625323
30
0
41
1
10
111.33562067142
20
9.81606413710128
30
0
41
1
10
111.398102169355
20
9.64732938429736
30
0
41
1
10
111.418960716689
20
9.59089481393812
30
0
41
1
10
111.460637155755
20
9.47792525537201
30
0
41
1
10
111.564674452254
20
9.19538937064183
30
0
41
1
10
111.667952982337
20
8.91230237532784
30
0
41
1
10
111.832158729801
20
8.45865251358362
30
0
41
1
10
111.913742450188
20
8.23147244935683
30
0
41
1
10
112.075688825135
20
7.77635279160185
30
0
41
1
10
112.156053334212
20
7.54841387299206
30
0
41
1
10
112.315222463386
20
7.09166676795772
30
0
41
1
10
112.394030039777
20
6.86285953505626
30
0
41
1
10
112.510637142238
20
6.51884447578755
30
0
41
1
10
112.549236691486
20
6.40403796525635
30
0
41
1
10
112.606653256655
20
6.23159794271041
30
0
41
1
10
112.625722200349
20
6.17404683478424
30
0
41
1
10
112.663627442094
20
6.0590314214131
30
0
41
1
10
112.682457217874
20
6.00158730141843
30
0
41
1
10
112.775953104776
20
5.71467169529421
30
0
41
1
10
112.848683075149
20
5.48611813121497
30
0
41
1
10
112.988679195426
20
5.03059599483635
30
0
41
1
10
113.055954580919
20
4.80362888727211
30
0
41
1
10
113.182997165727
20
4.35080976618195
30
0
41
1
10
113.242775126523
20
4.12495873572473
30
0
41
1
10
113.351743069619
20
3.67376164449797
30
0
41
1
10
113.400937985878
20
3.44841376578324
30
0
41
1
10
113.453070750587
20
3.16657624742746
30
0
41
1
10
113.463034476026
20
3.11014969687696
30
0
41
1
10
113.481898838727
20
2.99750613728335
30
0
41
1
10
113.508558052967
20
2.82913078770096
30
0
41
1
10
113.530018229827
20
2.66254793294846
30
0
41
1
10
113.565307033002
20
2.33186385255667
30
0
41
1
10
113.578582477231
20
2.11470516240672
30
0
41
1
10
113.582142640988
20
1.68775064820284
30
0
41
1
10
113.572406396203
20
1.47795834010128
30
0
41
1
10
113.54859599971
20
1.24669861576723
30
0
41
1
10
113.545773614536
20
1.22106931350345
30
0
41
1
10
113.539778551085
20
1.16994552717048
30
0
41
1
10
113.536602857793
20
1.14442902951114
30
0
41
1
10
113.526584082502
20
1.06829269092191
30
0
41
1
10
113.504579940605
20
0.917636589584475
30
0
41
1
10
113.477016355263
20
0.771770765682163
30
0
41
1
10
113.415400505365
20
0.486272202660814
30
0
41
1
10
113.365707178972
20
0.304239033154403
30
0
41
1
10
113.253563415003
20
-0.0438726427242102
30
0
41
1
10
113.191122459059
20
-0.209955850926178
30
0
41
1
10
113.107169693477
20
-0.407736816510862
30
0
41
1
10
113.090063302912
20
-0.446839602358637
30
0
41
1
10
113.055380327261
20
-0.52386812178375
30
0
41
1
10
113.002706035233
20
-0.637527061562963
30
0
41
1
10
112.948283666514
20
-0.745644980840865
30
0
41
1
10
112.837530290412
20
-0.954713539839304
30
0
41
1
10
112.761175037748
20
-1.08455611273158
30
0
41
1
10
112.604904717563
20
-1.32579993099139
30
0
41
1
10
112.5249791178
20
-1.43719774590426
30
0
41
1
10
112.423327291359
20
-1.56493384511046
30
0
41
1
10
112.402908392809
20
-1.58990415582176
30
0
41
1
10
112.361901104572
20
-1.63868609932805
30
0
41
1
10
112.341305301134
20
-1.66250440100575
30
0
41
1
10
112.279546056513
20
-1.73191352613853
30
0
41
1
10
112.238322985595
20
-1.77556771191559
30
0
41
1
10
112.114567523558
20
-1.8988496719152
30
0
41
1
10
112.031955026955
20
-1.97081266684913
30
0
41
1
10
111.866662390476
20
-2.09479916269675
30
0
41
1
10
111.783979681455
20
-2.14682063358026
30
0
41
1
10
111.61852101471
20
-2.23094394063301
30
0
41
1
10
111.5357438836
20
-2.26304581832918
30
0
41
1
10
111.432127473396
20
-2.29045242751209
30
0
41
1
10
111.411392009485
20
-2.29529574570756
30
0
41
1
10
111.370094268556
20
-2.30366502809974
30
0
41
1
10
111.308335851341
20
-2.31426320793506
30
0
41
1
10
111.247121874102
20
-2.31905888759366
30
0
41
1
10
111.125366393248
20
-2.32104371820651
30
0
41
1
10
110.9648185486
20
-2.30343269575641
30
0
41
1
10
110.728531757681
20
-2.21732018272914
30
0
41
1
10
110.573476551413
20
-2.12002767178825
30
0
41
1
10
110.457901920004
20
-2.03176807726371
30
0
41
1
10
110.419624639767
20
-1.99989214672866
30
0
41
1
10
110.343624840217
20
-1.93133918849489
30
0
41
1
10
110.305885709429
20
-1.89464951092936
30
0
41
1
10
110.268386954539
20
-1.85555123243657
30
0
0
SPLINE
5
CC
100
AcDbEntity
8
1
62
256
6
ByLayer
370
18
48
1
60
0
100
AcDbSpline
70
4
71
3
72
20
73
16
40
0
40
0
40
0
40
0
40
0.0305380938048407
40
0.0305380938048407
40
0.35369206253656
40
0.35369206253656
40
0.51526904690242
40
0.51526904690242
40
0.596057539085351
40
0.596057539085351
40
0.67684603126828
40
0.67684603126828
40
0.83842301563414
40
0.83842301563414
40
1
40
1
40
1
40
1
41
1
10
101.242052833676
20
12.9983753055054
30
0
41
1
10
101.333921205296
20
12.9983915049292
30
0
41
1
10
101.425791707406
20
12.9982782365062
30
0
41
1
10
102.48985424535
20
12.995471818451
30
0
41
1
10
103.462158671979
20
12.9785018486521
30
0
41
1
10
104.920273484951
20
12.9315270176768
30
0
41
1
10
105.406254339994
20
12.9122727564782
30
0
41
1
10
106.135073952003
20
12.877924061988
30
0
41
1
10
106.377978752576
20
12.865558454613
30
0
41
1
10
106.863784614206
20
12.8390088907531
30
0
41
1
10
107.106707137081
20
12.8248332349598
30
0
41
1
10
107.835727984322
20
12.7797043306519
30
0
41
1
10
108.322003081258
20
12.7461219652344
30
0
41
1
10
109.294922570636
20
12.6719443255106
30
0
41
1
10
109.781576516319
20
12.6313532132567
30
0
41
1
10
110.268386954547
20
12.5872318662719
30
0
0
SPLINE
5
CD
100
AcDbEntity
8
1
62
256
6
ByLayer
370
18
48
1
60
0
100
AcDbSpline
70
4
71
3
72
42
73
38
40
0
40
0
40
0
40
0
40
0.0043494299455911
40
0.0043494299455911
40
0.0305507607364959
40
0.0305507607364959
40
0.0567520915274003
40
0.0567520915274003
40
0.109154753109209
40
0.109154753109209
40
0.161557414691018
40
0.161557414691018
40
0.266362737854632
40
0.266362737854632
40
0.292564068645538
40
0.292564068645538
40
0.318765399436444
40
0.318765399436444
40
0.371168061018255
40
0.371168061018255
40
0.423570722600067
40
0.423570722600067
40
0.475973384181879
40
0.475973384181879
40
0.52837604576369
40
0.52837604576369
40
0.580778707345502
40
0.580778707345502
40
0.685584030509126
40
0.685584030509126
40
0.79038935367275
40
0.79038935367275
40
0.842792015254561
40
0.842792015254561
40
0.895194676836373
40
0.895194676836373
40
1
40
1
40
1
40
1
41
1
10
75.1524613671988
20
9.48286039441149
30
0
41
1
10
75.1864585916669
20
9.49106643046031
30
0
41
1
10
75.2204553609771
20
9.49926106866897
30
0
41
1
10
75.4592482197905
20
9.55674095396179
30
0
41
1
10
75.6640240614908
20
9.60563063468979
30
0
41
1
10
76.0736344684001
20
9.70240759638361
30
0
41
1
10
76.278482577945
20
9.75027039816868
30
0
41
1
10
76.8931845242345
20
9.89223752169642
30
0
41
1
10
77.3032192795396
20
9.9847744932905
30
0
41
1
10
78.1231162459343
20
10.1657019676391
30
0
41
1
10
78.5330282589811
20
10.2540941363877
30
0
41
1
10
79.7625915314105
20
10.5131815448644
30
0
41
1
10
80.5820643968922
20
10.6778137240314
30
0
41
1
10
81.6058441504459
20
10.8737604477122
30
0
41
1
10
81.8105664302147
20
10.9124640224489
30
0
41
1
10
82.2200367324716
20
10.988759509177
30
0
41
1
10
82.424798545759
20
11.0263318354322
30
0
41
1
10
83.0392158312898
20
11.1372587800942
30
0
41
1
10
83.4489728688237
20
11.2088687046315
30
0
41
1
10
84.2686827275326
20
11.3475701479034
30
0
41
1
10
84.6786405593919
20
11.4146543053019
30
0
41
1
10
85.498719616829
20
11.5443487533489
30
0
41
1
10
85.9087280719351
20
11.6069418974299
30
0
41
1
10
86.7282639339729
20
11.7276193566092
30
0
41
1
10
87.1378470010395
20
11.785712142557
30
0
41
1
10
87.9565901426161
20
11.8974242547417
30
0
41
1
10
88.3657259589991
20
11.9510579010202
30
0
41
1
10
89.5934655657345
20
12.1042524516129
30
0
41
1
10
90.4121076994733
20
12.1964624898592
30
0
41
1
10
92.0491947212372
20
12.3617272640626
30
0
41
1
10
92.8676580535206
20
12.4347650045257
30
0
41
1
10
94.0949160001986
20
12.5299517589022
30
0
41
1
10
94.5038894153931
20
12.559293274866
30
0
41
1
10
95.3223197752088
20
12.6128075207657
30
0
41
1
10
95.7317220580967
20
12.6370209604879
30
0
41
1
10
96.9603360280776
20
12.7021622526378
30
0
41
1
10
97.7799800072661
20
12.7355950729673
30
0
41
1
10
98.6
20
12.7590542222797
30
0
0
SPLINE
5
CE
100
AcDbEntity
8
1
62
256
6
ByLayer
370
18
48
1
60
0
100
AcDbSpline
70
4
71
3
72
80
73
76
40
0
40
0
40
0
40
0
40
0.0529759222275721
40
0.0529759222275721
40
0.0662199027844652
40
0.0662199027844652
40
0.0794638833413582
40
0.0794638833413582
40
0.105951844455144
40
0.105951844455144
40
0.158927766682715
40
0.158927766682715
40
0.185415727796501
40
0.185415727796501
40
0.198659708353394
40
0.198659708353394
40
0.211903688910287
40
0.211903688910287
40
0.264879611137864
40
0.264879611137864
40
0.31785553336544
40
0.31785553336544
40
0.331099513922334
40
0.331099513922334
40
0.344343494479228
40
0.344343494479228
40
0.370831455593015
40
0.370831455593015
40
0.42380737782059
40
0.42380737782059
40
0.450295338934377
40
0.450295338934377
40
0.46353931949127
40
0.46353931949127
40
0.476783300048162
40
0.476783300048162
40
0.503271261161949
40
0.503271261161949
40
0.529759222275736
40
0.529759222275736
40
0.556247183389523
40
0.556247183389523
40
0.569491163946417
40
0.569491163946417
40
0.582735144503311
40
0.582735144503311
40
0.635711066730888
40
0.635711066730888
40
0.662199027844676
40
0.662199027844676
40
0.688686988958464
40
0.688686988958464
40
0.715174950072253
40
0.715174950072253
40
0.741662911186041
40
0.741662911186041
40
0.794638833413618
40
0.794638833413618
40
0.821126794527406
40
0.821126794527406
40
0.834370775084301
40
0.834370775084301
40
0.847614755641195
40
0.847614755641195
40
0.900590677868773
40
0.900590677868773
40
0.927078638982561
40
0.927078638982561
40
0.940322619539456
40
0.940322619539456
40
0.953566600096351
40
0.953566600096351
40
0.98005456121014
40
0.98005456121014
40
1
40
1
40
1
40
1
41
1
10
98.6000000000001
20
2.26065751091019
30
0
41
1
10
97.7207141517934
20
2.57037223837136
30
0
41
1
10
96.8417192869198
20
2.87754071720568
30
0
41
1
10
95.7435183238183
20
3.25879961184168
30
0
41
1
10
95.5239052913607
20
3.33491595121393
30
0
41
1
10
95.0847373083276
20
3.48688614274076
30
0
41
1
10
94.8651884378068
20
3.56275621493097
30
0
41
1
10
94.2065448547278
20
3.78974414568421
30
0
41
1
10
93.7673748857587
20
3.9400302748405
30
0
41
1
10
92.4495334947895
20
4.38750172003896
30
0
41
1
10
91.5705949505218
20
4.68147796177232
30
0
41
1
10
90.2517964318057
20
5.11640370116112
30
0
41
1
10
89.8122037292949
20
5.26035483939415
30
0
41
1
10
89.1531491441006
20
5.47470297235228
30
0
41
1
10
88.933508709706
20
5.54590198926275
30
0
41
1
10
88.4942964341723
20
5.68774496944184
30
0
41
1
10
88.2747195078806
20
5.75837579062684
30
0
41
1
10
87.1767328164398
20
6.10945909968464
30
0
41
1
10
86.2981265676351
20
6.38399078384674
30
0
41
1
10
84.5407125637861
20
6.92107658653296
30
0
41
1
10
83.661904907407
20
7.18363187115648
30
0
41
1
10
82.5634446483738
20
7.50466175005002
30
0
41
1
10
82.3437422445384
20
7.56851876158041
30
0
41
1
10
81.9043353831864
20
7.69530066885758
30
0
41
1
10
81.6846349865669
20
7.75819781135243
30
0
41
1
10
81.0255283548649
20
7.94538345267804
30
0
41
1
10
80.5861255573052
20
8.06818699449758
30
0
41
1
10
79.2679662734212
20
8.43077645629512
30
0
41
1
10
78.3892491234719
20
8.66473335022638
30
0
41
1
10
77.0714678515975
20
9.00442147846977
30
0
41
1
10
76.6322756501433
20
9.11581005989186
30
0
41
1
10
75.9735169409
20
9.27996174613057
30
0
41
1
10
75.7539186806209
20
9.33415724386094
30
0
41
1
10
75.3146236813325
20
9.44136451215536
30
0
41
1
10
75.0949355431047
20
9.49439313919714
30
0
41
1
10
74.435755830312
20
9.65177218494247
30
0
41
1
10
73.9960836553073
20
9.75443270006267
30
0
41
1
10
73.1169381600415
20
9.95516164731427
30
0
41
1
10
72.6774350417444
20
10.0532367646989
30
0
41
1
10
71.7986009106295
20
10.2448687106137
30
0
41
1
10
71.3592711917095
20
10.3384277952211
30
0
41
1
10
70.7004350056951
20
10.4754069810984
30
0
41
1
10
70.4808500833209
20
10.5205077051569
30
0
41
1
10
70.0417321176915
20
10.6095815556316
30
0
41
1
10
69.8221970665371
20
10.6535508079146
30
0
41
1
10
68.724389759586
20
10.8701669491716
30
0
41
1
10
67.8456891929417
20
11.033104674221
30
0
41
1
10
66.5271358152193
20
11.2623885519795
30
0
41
1
10
66.0874717200097
20
11.3363005192532
30
0
41
1
10
65.2083134916486
20
11.4790559136949
30
0
41
1
10
64.7688790708654
20
11.5478924566342
30
0
41
1
10
63.8903312055114
20
11.6804862545994
30
0
41
1
10
63.4512385486037
20
11.7442580919252
30
0
41
1
10
62.5728327655739
20
11.8661032065126
30
0
41
1
10
62.133571291248
20
11.9242422475488
30
0
41
1
10
60.8156585885721
20
12.0904144927612
30
0
41
1
10
59.9368692165139
20
12.1902108729459
30
0
41
1
10
58.6186188158862
20
12.3235592233447
30
0
41
1
10
58.1791933542654
20
12.3652877427874
30
0
41
1
10
57.5200547585532
20
12.423738181216
30
0
41
1
10
57.3003813687618
20
12.4425195870809
30
0
41
1
10
56.8610154797742
20
12.4786165270458
30
0
41
1
10
56.6413298668749
20
12.4959373662923
30
0
41
1
10
55.5428984420479
20
12.5789281369338
30
0
41
1
10
54.6641444102552
20
12.6337807899432
30
0
41
1
10
53.3461689262054
20
12.6989406770067
30
0
41
1
10
52.9068714955604
20
12.7178039439324
30
0
41
1
10
52.2479952472171
20
12.7417988171521
30
0
41
1
10
52.0283812141648
20
12.7490800486989
30
0
41
1
10
51.5891796012509
20
12.7622021071727
30
0
41
1
10
51.36959466284
20
12.7680427483663
30
0
41
1
10
50.7107528402048
20
12.7833712187519
30
0
41
1
10
50.2713592329965
20
12.7906605267841
30
0
41
1
10
49.5008194633098
20
12.7983422514443
30
0
41
1
10
49.1697916317299
20
12.799992935575
30
0
41
1
10
48.8388046462396
20
12.8000000417301
30
0
0
SPLINE
5
CF
100
AcDbEntity
8
1
62
256
6
ByLayer
370
18
48
1
60
0
100
AcDbSpline
70
4
71
3
72
100
73
96
40
0
40
0
40
0
40
0
40
0.0624999999999941
40
0.0624999999999941
40
0.0937499999999912
40
0.0937499999999912
40
0.124999999999988
40
0.124999999999988
40
0.156249999999985
40
0.156249999999985
40
0.171874999999983
40
0.171874999999983
40
0.179687499999983
40
0.179687499999983
40
0.187499999999982
40
0.187499999999982
40
0.218749999999984
40
0.218749999999984
40
0.249999999999986
40
0.249999999999986
40
0.281249999999989
40
0.281249999999989
40
0.29687499999999
40
0.29687499999999
40
0.304687499999991
40
0.304687499999991
40
0.312499999999992
40
0.312499999999992
40
0.343749999999994
40
0.343749999999994
40
0.374999999999996
40
0.374999999999996
40
0.382812499999997
40
0.386718749999997
40
0.386718749999997
40
0.390624999999997
40
0.390624999999997
40
0.406249999999997
40
0.406249999999997
40
0.437499999999995
40
0.437499999999995
40
0.468749999999994
40
0.468749999999994
40
0.476562499999994
40
0.480468749999994
40
0.480468749999994
40
0.484374999999994
40
0.484374999999994
40
0.499999999999993
40
0.499999999999993
40
0.531249999999992
40
0.531249999999992
40
0.546874999999992
40
0.546874999999992
40
0.554687499999991
40
0.558593749999992
40
0.558593749999992
40
0.562499999999992
40
0.562499999999992
40
0.593749999999993
40
0.593749999999993
40
0.624999999999994
40
0.624999999999994
40
0.632812499999994
40
0.632812499999994
40
0.636718749999994
40
0.636718749999994
40
0.640624999999993
40
0.656249999999992
40
0.656249999999992
40
0.687499999999988
40
0.687499999999988
40
0.718749999999985
40
0.718749999999985
40
0.734374999999983
40
0.734374999999983
40
0.742187499999983
40
0.742187499999983
40
0.749999999999983
40
0.749999999999983
40
0.781249999999985
40
0.781249999999985
40
0.812499999999987
40
0.812499999999987
40
0.843749999999989
40
0.843749999999989
40
0.874999999999991
40
0.874999999999991
40
0.906249999999994
40
0.906249999999994
40
0.937499999999996
40
0.937499999999996
40
0.968749999999998
40
0.968749999999998
40
1
40
1
40
1
40
1
41
1
10
10
20
8.78027364038891
30
0
41
1
10
9.54931016239163
20
8.75766142610496
30
0
41
1
10
9.11073277602407
20
8.71267179937155
30
0
41
1
10
8.47065680795509
20
8.60783875855216
30
0
41
1
10
8.26026880789232
20
8.56665001528796
30
0
41
1
10
7.84545126009306
20
8.47085883907505
30
0
41
1
10
7.64102114918489
20
8.41625899569243
30
0
41
1
10
7.23820515446027
20
8.29245411950023
30
0
41
1
10
7.03981836518807
20
8.22325319427694
30
0
41
1
10
6.74690374803777
20
8.10732853845462
30
0
41
1
10
6.65004392769572
20
8.06666319723874
30
0
41
1
10
6.50594691656721
20
8.00244750082209
30
0
41
1
10
6.45811343169862
20
7.98050571245668
30
0
41
1
10
6.36284921779173
20
7.93551505410491
30
0
41
1
10
6.315370811615
20
7.91244210959658
30
0
41
1
10
6.07960253744983
20
7.7945216808649
30
0
41
1
10
5.89677307637845
20
7.69234447804911
30
0
41
1
10
5.54283651640282
20
7.47126632766597
30
0
41
1
10
5.37172715819258
20
7.35237003623257
30
0
41
1
10
5.04163874667458
20
7.09639613415004
30
0
41
1
10
4.88265562969275
20
6.95932648442223
30
0
41
1
10
4.65384681235327
20
6.73854013816481
30
0
41
1
10
4.57919127312726
20
6.66240895619191
30
0
41
1
10
4.46973503134646
20
6.54415285818118
30
0
41
1
10
4.43374276466324
20
6.50413208385049
30
0
41
1
10
4.3629734475409
20
6.42311752298156
30
0
41
1
10
4.32816195759096
20
6.38208673831218
30
0
41
1
10
4.15698236166969
20
6.17428080465825
30
0
41
1
10
4.02922359601359
20
5.99957145597222
30
0
41
1
10
3.79275196356667
20
5.6320129820044
30
0
41
1
10
3.68403084306044
20
5.43917270047894
30
0
41
1
10
3.56091010332668
20
5.18560640830776
30
0
41
1
10
3.52493573641959
20
5.10859467021541
30
0
41
1
10
3.49043999116304
20
5.03012623199211
30
0
41
1
10
3.46777593164359
20
4.97748482355664
30
0
41
1
10
3.45659988344761
20
4.95097362701111
30
0
41
1
10
3.40172609202236
20
4.81797750171086
30
0
41
1
10
3.36102843832162
20
4.71015594128733
30
0
41
1
10
3.24848090566081
20
4.38239758600636
30
0
41
1
10
3.18614479016881
20
4.15817922327565
30
0
41
1
10
3.08728680427851
20
3.69793703653917
30
0
41
1
10
3.0507575439016
20
3.46191668811014
30
0
41
1
10
3.022177057813
20
3.15901043523863
30
0
41
1
10
3.01488859280363
20
3.06754567053051
30
0
41
1
10
3.00957032724011
20
2.97517141081229
30
0
41
1
10
3.00646797203004
20
2.91338393718434
30
0
41
1
10
3.0051396432645
20
2.88240139278704
30
0
41
1
10
2.99963667112087
20
2.72767867800781
30
0
41
1
10
2.99884542395787
20
2.6039598184542
30
0
41
1
10
3.00703148220364
20
2.23297705961917
30
0
41
1
10
3.0265347983846
20
1.98588562840683
30
0
41
1
10
3.07643333639555
20
1.61560394594144
30
0
41
1
10
3.09651551313331
20
1.49223630908392
30
0
41
1
10
3.13183459913534
20
1.30727850868081
30
0
41
1
10
3.15079385111525
20
1.21482305326239
30
0
41
1
10
3.17171353370998
20
1.12240384807876
30
0
41
1
10
3.18609731440435
20
1.06079924033227
30
0
41
1
10
3.19350774715568
20
1.03000376075684
30
0
41
1
10
3.26190992950524
20
0.753920629352933
30
0
41
1
10
3.33524121454698
20
0.514283531134197
30
0
41
1
10
3.50506099540036
20
0.0456083662329831
30
0
41
1
10
3.60156139485284
20
-0.183424270557481
30
0
41
1
10
3.73602505693378
20
-0.463428635030908
30
0
41
1
10
3.76361135444213
20
-0.519114438644579
30
0
41
1
10
3.80602356213359
20
-0.602174929330573
30
0
41
1
10
3.82034067356594
20
-0.62979758718626
30
0
41
1
10
3.8492327689396
20
-0.684727250834101
30
0
41
1
10
3.92215217183778
20
-0.821350129546175
30
0
41
1
10
3.99845793680734
20
-0.954534150502155
30
0
41
1
10
4.18772389395264
20
-1.2679976966912
30
0
41
1
10
4.32206310601663
20
-1.46875179102679
30
0
41
1
10
4.60555022910856
20
-1.85558060436435
30
0
41
1
10
4.75470541377589
20
-2.04164787107692
30
0
41
1
10
4.98870319043652
20
-2.31072940298841
30
0
41
1
10
5.0684155470675
20
-2.39875071376304
30
0
41
1
10
5.19046279341291
20
-2.52838005058106
30
0
41
1
10
5.23159833271896
20
-2.57122981933148
30
0
41
1
10
5.31448050135299
20
-2.65594047025539
30
0
41
1
10
5.3561941799162
20
-2.69776960016432
30
0
41
1
10
5.56607983757871
20
-2.90438601686287
30
0
41
1
10
5.73819582489313
20
-3.06160636682222
30
0
41
1
10
6.089813643398
20
-3.36213763315314
30
0
41
1
10
6.26931812307024
20
-3.50544256985762
30
0
41
1
10
6.63483770398176
20
-3.77994940546066
30
0
41
1
10
6.82085400613806
20
-3.91114820982995
30
0
41
1
10
7.19861092141798
20
-4.1629707108994
30
0
41
1
10
7.39035162913262
20
-4.28359324723343
30
0
41
1
10
7.77884161168342
20
-4.51557334216082
30
0
41
1
10
7.97559004549487
20
-4.62693114760998
30
0
41
1
10
8.37346214212533
20
-4.84148589981416
30
0
41
1
10
8.57388358132982
20
-4.94430939523349
30
0
41
1
10
8.9772662129119
20
-5.14214629745888
30
0
41
1
10
9.18022953847088
20
-5.23716196054454
30
0
41
1
10
9.58843205460437
20
-5.42015202816373
30
0
41
1
10
9.79367014791546
20
-5.50812672340905
30
0
41
1
10
10
20
-5.59278484916459
30
0
0
SPLINE
5
D0
100
AcDbEntity
8
1
62
256
6
ByLayer
370
18
48
1
60
0
100
AcDbSpline
70
4
71
3
72
14
73
10
40
0
40
0
40
0
40
0
40
0.25
40
0.25
40
0.5
40
0.5
40
0.75
40
0.75
40
1
40
1
40
1
40
1
41
1
10
14.2477836409638
20
-7.25296058801172
30
0
41
1
10
13.8824744225162
20
-7.14137033038131
30
0
41
1
10
13.5204750520065
20
-7.02264364053911
30
0
41
1
10
12.8018978716874
20
-6.77247066101981
30
0
41
1
10
12.445313215109
20
-6.64104202578699
30
0
41
1
10
11.7372011504196
20
-6.36553647554069
30
0
41
1
10
11.3856754707051
20
-6.22146313212698
30
0
41
1
10
10.6882608596858
20
-5.91886674259609
30
0
41
1
10
10.3423794037823
20
-5.76033658348803
30
0
41
1
10
10
20
-5.59278484916459
30
0
0
SPLINE
5
D1
100
AcDbEntity
8
1
62
256
6
ByLayer
370
18
48
1
60
0
100
AcDbSpline
70
4
71
4
72
16
73
11
40
0
40
0
40
0
40
0
40
0
40
0.295807542633479
40
0.295807542633479
40
0.295807542633479
40
0.70419245736652
40
0.70419245736652
40
0.70419245736652
40
1
40
1
40
1
40
1
40
1
41
0.997137491136723
10
19.938149153363
20
8.35794625583507
30
0
41
0.994807991089817
10
19.7787087330505
20
7.83358143484042
30
0
41
0.993721834513946
10
19.4756844780179
20
6.9194815305162
30
0
41
1
10
19.0399049000133
20
5.65986800049697
30
0
41
1
10
17.9332910640016
20
2.52216667517877
30
0
41
0.988033871712585
10
17.0929663971634
20
0.185512329068494
30
0
41
1
10
16.2526417303252
20
-2.08851433081745
30
0
41
1
10
15.1460278943135
20
-5.02256550310187
30
0
41
0.993721834513946
10
14.7102483163089
20
-6.15398094366701
30
0
41
0.994807991089817
10
14.4072240612763
20
-6.90251005901928
30
0
41
0.997137491136723
10
14.2477836409639
20
-7.25296058801163
30
0
0
SPLINE
5
D2
100
AcDbEntity
8
1
62
256
6
ByLayer
370
18
48
1
60
0
100
AcDbSpline
70
4
71
3
72
26
73
22
40
0
40
0
40
0
40
0
40
0.124999999999988
40
0.124999999999988
40
0.249999999999976
40
0.249999999999976
40
0.374999999999963
40
0.374999999999963
40
0.406249999999963
40
0.406249999999963
40
0.437499999999963
40
0.437499999999963
40
0.499999999999968
40
0.499999999999968
40
0.624999999999976
40
0.624999999999976
40
0.749999999999984
40
0.749999999999984
40
0.874999999999992
40
0.874999999999992
40
1
40
1
40
1
40
1
41
1
10
10
20
8.78027364038891
30
0
41
1
10
10.4057626136512
20
8.88153101352304
30
0
41
1
10
10.8150421950755
20
8.96372747755723
30
0
41
1
10
11.6401237242224
20
9.09517114313286
30
0
41
1
10
12.0559297691441
20
9.1443874992917
30
0
41
1
10
12.8937895422394
20
9.21270011423411
30
0
41
1
10
13.3158464346994
20
9.23177667128232
30
0
41
1
10
13.8472263428886
20
9.23761135444605
30
0
41
1
10
13.9536929335333
20
9.23787474315137
30
0
41
1
10
14.1670053089572
20
9.23660451052655
30
0
41
1
10
14.2738995620195
20
9.23506974516198
30
0
41
1
10
14.5948436747727
20
9.22778709121903
30
0
41
1
10
14.8077054394696
20
9.21939961378015
30
0
41
1
10
15.4431881324273
20
9.18419715256886
30
0
41
1
10
15.8627062685932
20
9.1473551171286
30
0
41
1
10
16.6944863540986
20
9.04930981282686
30
0
41
1
10
17.1067452298416
20
8.98808756145147
30
0
41
1
10
17.925058928372
20
8.84343255337618
30
0
41
1
10
18.331115006125
20
8.75999549270145
30
0
41
1
10
19.1381557686741
20
8.57325959074336
30
0
41
1
10
19.5391476526594
20
8.46998002856103
30
0
41
1
10
19.938149153363
20
8.35794625583529
30
0
0
SPLINE
5
D3
100
AcDbEntity
8
SK1
62
256
6
ByLayer
370
18
48
1
60
0
100
AcDbSpline
70
4
71
3
72
37
73
33
40
0
40
0
40
0
40
0
40
0.124999999999999
40
0.124999999999999
40
0.249999999999997
40
0.249999999999997
40
0.374999999999996
40
0.374999999999996
40
0.437499999999996
40
0.437499999999996
40
0.499999999999995
40
0.499999999999995
40
0.624999999999995
40
0.624999999999995
40
0.656249999999996
40
0.656249999999996
40
0.687499999999996
40
0.687499999999996
40
0.749999999999997
40
0.749999999999997
40
0.812499999999999
40
0.812499999999999
40
0.843749999999999
40
0.843749999999999
40
0.874999999999999
40
0.874999999999999
40
0.9375
40
0.9375
40
0.953125
40
0.953125
40
0.96875
40
1
40
1
40
1
40
1
41
1
10
-56.6013095599541
20
-3.67404242557649
30
0
41
1
10
-56.5818983671532
20
-3.76227101295461
30
0
41
1
10
-56.5608730792548
20
-3.84980231602845
30
0
41
1
10
-56.5149011456991
20
-4.02327304907473
30
0
41
1
10
-56.4899592553202
20
-4.1092138747162
30
0
41
1
10
-56.4351919062966
20
-4.27922783366643
30
0
41
1
10
-56.4053764863432
20
-4.36330392303796
30
0
41
1
10
-56.3559085219568
20
-4.48770487574166
30
0
41
1
10
-56.3386238532612
20
-4.52888499906533
30
0
41
1
10
-56.3022004610974
20
-4.6105950760475
30
0
41
1
10
-56.2830277903437
20
-4.65119311461675
30
0
41
1
10
-56.2224911706718
20
-4.77130399167868
30
0
41
1
10
-56.1782467144578
20
-4.84907413383172
30
0
41
1
10
-56.115968443464
20
-4.94231131697211
30
0
41
1
10
-56.10315836213
20
-4.96075692759766
30
0
41
1
10
-56.0767470461803
20
-4.99720157474036
30
0
41
1
10
-56.0631669720757
20
-5.01516889117784
30
0
41
1
10
-56.0213776959376
20
-5.06798704911631
30
0
41
1
10
-55.992061754375
20
-5.10185542724588
30
0
41
1
10
-55.9298321318183
20
-5.16631273888052
30
0
41
1
10
-55.8969272538349
20
-5.19690945406094
30
0
41
1
10
-55.8440712942131
20
-5.23964848292457
30
0
41
1
10
-55.8258658181591
20
-5.25336554431573
30
0
41
1
10
-55.7880772055068
20
-5.27956269503571
30
0
41
1
10
-55.7687283546429
20
-5.29187752331967
30
0
41
1
10
-55.7092375195426
20
-5.32619065397267
30
0
41
1
10
-55.6676447686972
20
-5.34560920419477
30
0
41
1
10
-55.6125612417126
20
-5.36437634382568
30
0
41
1
10
-55.6013755519815
20
-5.36785346658095
30
0
41
1
10
-55.5789098857052
20
-5.37414928699397
30
0
41
1
10
-55.5449888078968
20
-5.38263478003245
30
0
41
1
10
-55.5103812675636
20
-5.38816693911767
30
0
41
1
10
-55.4869828320874
20
-5.39045045482675
30
0
0
SPLINE
5
D4
100
AcDbEntity
8
SK1
62
256
6
ByLayer
370
18
48
1
60
0
100
AcDbSpline
70
4
71
3
72
38
73
34
40
0
40
0
40
0
40
0
40
0.0624999999999988
40
0.0624999999999988
40
0.0937499999999982
40
0.0937499999999982
40
0.109374999999998
40
0.109374999999998
40
0.124999999999999
40
0.124999999999999
40
0.187499999999997
40
0.187499999999997
40
0.218749999999997
40
0.218749999999997
40
0.249999999999996
40
0.249999999999996
40
0.312499999999996
40
0.312499999999996
40
0.374999999999996
40
0.374999999999996
40
0.437499999999996
40
0.437499999999996
40
0.468749999999996
40
0.468749999999996
40
0.499999999999996
40
0.499999999999996
40
0.624999999999997
40
0.624999999999997
40
0.749999999999998
40
0.749999999999998
40
0.874999999999999
40
0.874999999999999
40
1
40
1
40
1
40
1
41
1
10
-55.4869828320874
20
5.39045045482675
30
0
41
1
10
-55.5340112854939
20
5.38586082265942
30
0
41
1
10
-55.5792475407432
20
5.37567921640115
30
0
41
1
10
-55.6448597758275
20
5.35339526064908
30
0
41
1
10
-55.6663543340588
20
5.34479075805541
30
0
41
1
10
-55.6980700363939
20
5.33023526841174
30
0
41
1
10
-55.7085426555182
20
5.32511155488996
30
0
41
1
10
-55.7290868425515
20
5.31446061507978
30
0
41
1
10
-55.7391894091154
20
5.30891956332113
30
0
41
1
10
-55.7889172059676
20
5.28021446580462
30
0
41
1
10
-55.8262117488448
20
5.25408170222258
30
0
41
1
10
-55.87927436858
20
5.21118741343659
30
0
41
1
10
-55.8964771995976
20
5.19626735233749
30
0
41
1
10
-55.9300114215657
20
5.16530406746776
30
0
41
1
10
-55.9462917892921
20
5.14930296213541
30
0
41
1
10
-55.9934356942821
20
5.10035000843709
30
0
41
1
10
-56.0228020768564
20
5.06628595710666
30
0
41
1
10
-56.078326436026
20
4.99590453061043
30
0
41
1
10
-56.1044778219573
20
4.95958275029739
30
0
41
1
10
-56.1541566098393
20
4.88506830814691
30
0
41
1
10
-56.1776808746374
20
4.84687355258669
30
0
41
1
10
-56.2113079014024
20
4.78837896752557
30
0
41
1
10
-56.2222393682362
20
4.76867706562567
30
0
41
1
10
-56.2434756231488
20
4.72911675343036
30
0
41
1
10
-56.2537968848612
20
4.7092302403565
30
0
41
1
10
-56.3040524668077
20
4.60930752204828
30
0
41
1
10
-56.339989360063
20
4.52781806830399
30
0
41
1
10
-56.4056776145828
20
4.36246555081721
30
0
41
1
10
-56.4354058590262
20
4.27859519764016
30
0
41
1
10
-56.4900491389977
20
4.10890313734902
30
0
41
1
10
-56.5149546873468
20
4.02307844746088
30
0
41
1
10
-56.56088189532
20
3.84976160662609
30
0
41
1
10
-56.5818990222464
20
3.76226803539686
30
0
41
1
10
-56.6013095599541
20
3.67404242557649
30
0
0
SPLINE
5
D5
100
AcDbEntity
8
SK1
62
256
6
ByLayer
370
18
48
1
60
0
100
AcDbSpline
70
4
71
3
72
33
73
29
40
0
40
0
40
0
40
0
40
0.125000000000006
40
0.125000000000006
40
0.250000000000012
40
0.250000000000012
40
0.375000000000017
40
0.375000000000017
40
0.40625000000002
40
0.40625000000002
40
0.437500000000023
40
0.437500000000023
40
0.500000000000019
40
0.500000000000019
40
0.625000000000009
40
0.625000000000009
40
0.656250000000005
40
0.656250000000005
40
0.687500000000001
40
0.687500000000001
40
0.749999999999993
40
0.812499999999985
40
0.812499999999985
40
0.843749999999988
40
0.843749999999988
40
0.87499999999999
40
0.87499999999999
40
1
40
1
40
1
40
1
41
1
10
-14.051872681288
20
7.58734230610622
30
0
41
1
10
-14.0806477010082
20
7.63716049470688
30
0
41
1
10
-14.1111960666033
20
7.68574713585582
30
0
41
1
10
-14.1763795738798
20
7.78016829172287
30
0
41
1
10
-14.2110110664831
20
7.82600493913273
30
0
41
1
10
-14.2851110385999
20
7.91451556477941
30
0
41
1
10
-14.3245721279275
20
7.95719387593883
30
0
41
1
10
-14.3776213268518
20
8.00817431396229
30
0
41
1
10
-14.3884185818754
20
8.01825128676794
30
0
41
1
10
-14.4104115542246
20
8.03815365023897
30
0
41
1
10
-14.4216108037395
20
8.04798083475526
30
0
41
1
10
-14.455622663142
20
8.07687937861485
30
0
41
1
10
-14.4789160665747
20
8.09543103467254
30
0
41
1
10
-14.5508106006942
20
8.14878338695524
30
0
41
1
10
-14.6014062936362
20
8.18130323174049
30
0
41
1
10
-14.6687381239779
20
8.21735588111801
30
0
41
1
10
-14.6824104044294
20
8.22433484183665
30
0
41
1
10
-14.710192970406
20
8.23780190427706
30
0
41
1
10
-14.7242927464647
20
8.24428275713819
30
0
41
1
10
-14.7668701147152
20
8.26277278740699
30
0
41
1
10
-14.8246359059293
20
8.28501525135295
30
0
41
1
10
-14.8845078995177
20
8.30218349007504
30
0
41
1
10
-14.9302595196826
20
8.31302504752674
30
0
41
1
10
-14.9456514993249
20
8.31629937780269
30
0
41
1
10
-14.976730334019
20
8.3221411784192
30
0
41
1
10
-14.9924519952567
20
8.32471328587587
30
0
41
1
10
-15.0714171524834
20
8.33566995587665
30
0
41
1
10
-15.1349687406039
20
8.33829643503807
30
0
41
1
10
-15.198909252112
20
8.33463752287949
30
0
0
SPLINE
5
D6
100
AcDbEntity
8
SK1
62
256
6
ByLayer
370
18
48
1
60
0
100
AcDbSpline
70
4
71
3
72
28
73
24
40
0
40
0
40
0
40
0
40
0.124999999999995
40
0.124999999999995
40
0.187499999999992
40
0.187499999999992
40
0.24999999999999
40
0.24999999999999
40
0.374999999999983
40
0.374999999999983
40
0.437499999999979
40
0.437499999999979
40
0.499999999999976
40
0.499999999999976
40
0.624999999999981
40
0.624999999999981
40
0.687499999999984
40
0.687499999999984
40
0.749999999999987
40
0.749999999999987
40
0.874999999999994
40
0.874999999999994
40
1
40
1
40
1
40
1
41
1
10
-15.198909252112
20
-8.33463752287949
30
0
41
1
10
-15.1350143484387
20
-8.33829382518937
30
0
41
1
10
-15.0719017967204
20
-8.33565332559238
30
0
41
1
10
-14.978337274282
20
-8.32279548271791
30
0
41
1
10
-14.9473338896935
20
-8.31702027865589
30
0
41
1
10
-14.8856931933269
20
-8.30251274872501
30
0
41
1
10
-14.8554833479755
20
-8.29387762923409
30
0
41
1
10
-14.7669559756536
20
-8.26429996307647
30
0
41
1
10
-14.7105270717761
20
-8.23965842490713
30
0
41
1
10
-14.6292411643099
20
-8.19624288886422
30
0
41
1
10
-14.6029581616285
20
-8.18081975592636
30
0
41
1
10
-14.5521237698499
20
-8.14844888077508
30
0
41
1
10
-14.5275204196119
20
-8.13147265143903
30
0
41
1
10
-14.4558957807576
20
-8.07840113768455
30
0
41
1
10
-14.411048006958
20
-8.04017416621042
30
0
41
1
10
-14.347408645875
20
-7.9791980354984
30
0
41
1
10
-14.3267704985616
20
-7.9582267315275
30
0
41
1
10
-14.2867812208927
20
-7.91531082173958
30
0
41
1
10
-14.267487937703
20
-7.89343345035931
30
0
41
1
10
-14.2115013365259
20
-7.82665213506647
30
0
41
1
10
-14.1766922853205
20
-7.78060380498701
30
0
41
1
10
-14.1112733091055
20
-7.68587638410847
30
0
41
1
10
-14.080667629502
20
-7.63719499690606
30
0
41
1
10
-14.051872681288
20
-7.58734230610622
30
0
0
SPLINE
5
D7
100
AcDbEntity
8
1
62
256
6
ByLayer
370
13
48
1
60
0
100
AcDbSpline
70
4
71
3
72
79
73
75
40
0
40
0
40
0
40
0
40
0.0312499999999995
40
0.0312499999999995
40
0.0624999999999991
40
0.0624999999999991
40
0.0937499999999986
40
0.0937499999999986
40
0.124999999999998
40
0.124999999999998
40
0.140624999999998
40
0.140624999999998
40
0.148437499999998
40
0.148437499999998
40
0.156249999999997
40
0.156249999999997
40
0.187499999999997
40
0.187499999999997
40
0.218749999999996
40
0.218749999999996
40
0.249999999999996
40
0.249999999999996
40
0.281249999999995
40
0.281249999999995
40
0.312499999999995
40
0.312499999999995
40
0.343749999999994
40
0.343749999999994
40
0.374999999999994
40
0.374999999999994
40
0.406249999999994
40
0.406249999999994
40
0.437499999999993
40
0.437499999999993
40
0.468749999999993
40
0.468749999999993
40
0.499999999999992
40
0.499999999999992
40
0.531249999999992
40
0.531249999999992
40
0.562499999999991
40
0.562499999999991
40
0.570312499999991
40
0.570312499999991
40
0.574218749999991
40
0.574218749999991
40
0.578124999999991
40
0.593749999999991
40
0.593749999999991
40
0.624999999999992
40
0.624999999999992
40
0.656249999999993
40
0.656249999999993
40
0.687499999999994
40
0.687499999999994
40
0.718749999999994
40
0.718749999999994
40
0.749999999999995
40
0.749999999999995
40
0.781249999999996
40
0.781249999999996
40
0.812499999999996
40
0.812499999999996
40
0.843749999999997
40
0.843749999999997
40
0.874999999999997
40
0.874999999999997
40
0.906249999999998
40
0.906249999999998
40
0.937499999999999
40
0.937499999999999
40
0.968749999999999
40
0.968749999999999
40
1
40
1
40
1
40
1
41
1
10
98.6
20
-11.2925828777766
30
0
41
1
10
98.6710382849486
20
-11.5478318225448
30
0
41
1
10
98.7420765698971
20
-11.7743258770547
30
0
41
1
10
98.8841531397941
20
-12.1683533045176
30
0
41
1
10
98.9551914247427
20
-12.3358956442727
30
0
41
1
10
99.0972679946398
20
-12.6130744006696
30
0
41
1
10
99.1683062795882
20
-12.7227259353804
30
0
41
1
10
99.3103828494853
20
-12.8873109971048
30
0
41
1
10
99.3814211344338
20
-12.9422627464551
30
0
41
1
10
99.4879785618566
20
-12.9872585503989
30
0
41
1
10
99.5234977043309
20
-12.9960294035568
30
0
41
1
10
99.5767764180423
20
-13.0003717909931
30
0
41
1
10
99.5945359892795
20
-13.0003624062496
30
0
41
1
10
99.6300551317538
20
-12.9974290409773
30
0
41
1
10
99.6478147029909
20
-12.9944935220299
30
0
41
1
10
99.7366125591765
20
-12.9722474879965
30
0
41
1
10
99.807650844125
20
-12.9301862950475
30
0
41
1
10
99.9497274140221
20
-12.7924476370207
30
0
41
1
10
100.02076569897
20
-12.6967516452166
30
0
41
1
10
100.162842268868
20
-12.4480969745086
30
0
41
1
10
100.233880553816
20
-12.2951221169054
30
0
41
1
10
100.375957123713
20
-11.9302725799709
30
0
41
1
10
100.446995408662
20
-11.7183871401668
30
0
41
1
10
100.589071978559
20
-11.2365046469198
30
0
41
1
10
100.660110263507
20
-10.9665049236426
30
0
41
1
10
100.802186833404
20
-10.3718184786057
30
0
41
1
10
100.873225118353
20
-10.0471386413459
30
0
41
1
10
101.01530168825
20
-9.34909392517196
30
0
41
1
10
101.086339973199
20
-8.97574515112254
30
0
41
1
10
101.228416543096
20
-8.18859381160101
30
0
41
1
10
101.299454828044
20
-7.77481435280512
30
0
41
1
10
101.441531397941
20
-6.91666368958002
30
0
41
1
10
101.51256968289
20
-6.47231899780601
30
0
41
1
10
101.654646252787
20
-5.56377148607621
30
0
41
1
10
101.725684537735
20
-5.09959454274957
30
0
41
1
10
101.867761107632
20
-4.16218620181789
30
0
41
1
10
101.938799392581
20
-3.6889765560768
30
0
41
1
10
102.080875962478
20
-2.74364945144711
30
0
41
1
10
102.151914247426
20
-2.27154739619525
30
0
41
1
10
102.293990817323
20
-1.33736046625589
30
0
41
1
10
102.365029102272
20
-0.875283925762631
30
0
41
1
10
102.453826958458
20
-0.308540133794111
30
0
41
1
10
102.471586529695
20
-0.195729856718003
30
0
41
1
10
102.498225886551
20
-0.0273955611630754
30
0
41
1
10
102.507105672169
20
0.0284952256913016
30
0
41
1
10
102.524865243406
20
0.140721931030157
30
0
41
1
10
102.569264171499
20
0.422021453012434
30
0
41
1
10
102.613663099592
20
0.706846020055337
30
0
41
1
10
102.720220527015
20
1.39593807152406
30
0
41
1
10
102.791258811963
20
1.86273343117398
30
0
41
1
10
102.93333538186
20
2.80317983118363
30
0
41
1
10
103.004373666809
20
3.27681988675948
30
0
41
1
10
103.146450236706
20
4.22153199031163
30
0
41
1
10
103.217488521654
20
4.69258608399025
30
0
41
1
10
103.359565091551
20
5.62166765229424
30
0
41
1
10
103.4306033765
20
6.07967148562864
30
0
41
1
10
103.572679946397
20
6.97178945093751
30
0
41
1
10
103.643718231346
20
7.40587700842644
30
0
41
1
10
103.785794801243
20
8.2396601766585
30
0
41
1
10
103.856833086191
20
8.63933008175044
30
0
41
1
10
103.998909656088
20
9.39493622670349
30
0
41
1
10
104.069947941037
20
9.75085162632377
30
0
41
1
10
104.212024510934
20
10.4114810195279
30
0
41
1
10
104.283062795882
20
10.716182209472
30
0
41
1
10
104.425139365779
20
11.269305175623
30
0
41
1
10
104.496177650728
20
11.5177237236242
30
0
41
1
10
104.638254220625
20
11.9558377940306
30
0
41
1
10
104.709292505573
20
12.1455392802378
30
0
41
1
10
104.85136907547
20
12.4663657033312
30
0
41
1
10
104.922407360419
20
12.5975037898815
30
0
41
1
10
105.064483930316
20
12.8036442169153
30
0
41
1
10
105.135522215265
20
12.8786639744506
30
0
41
1
10
105.277598785162
20
12.976832533484
30
0
41
1
10
105.34863707011
20
13
30
0
41
1
10
105.419675355059
20
13
30
0
0
SPLINE
5
D8
100
AcDbEntity
8
1
62
256
6
ByLayer
370
13
48
1
60
0
100
AcDbSpline
70
4
71
3
72
78
73
74
40
0
40
0
40
0
40
0
40
0.0312500000000002
40
0.0312500000000002
40
0.0625000000000003
40
0.0625000000000003
40
0.0937500000000005
40
0.0937500000000005
40
0.125000000000001
40
0.125000000000001
40
0.156250000000001
40
0.156250000000001
40
0.187500000000001
40
0.187500000000001
40
0.218750000000001
40
0.218750000000001
40
0.250000000000001
40
0.250000000000001
40
0.281250000000001
40
0.281250000000001
40
0.312500000000001
40
0.312500000000001
40
0.343750000000002
40
0.343750000000002
40
0.375000000000002
40
0.375000000000002
40
0.406250000000002
40
0.406250000000002
40
0.437500000000002
40
0.437500000000002
40
0.453125000000002
40
0.453125000000002
40
0.460937500000002
40
0.460937500000002
40
0.468750000000002
40
0.468750000000002
40
0.500000000000001
40
0.500000000000001
40
0.531250000000001
40
0.531250000000001
40
0.562500000000001
40
0.562500000000001
40
0.593750000000001
40
0.593750000000001
40
0.625
40
0.625
40
0.65625
40
0.65625
40
0.6875
40
0.6875
40
0.71875
40
0.71875
40
0.75
40
0.75
40
0.78125
40
0.78125
40
0.812499999999999
40
0.812499999999999
40
0.843749999999999
40
0.843749999999999
40
0.874999999999999
40
0.874999999999999
40
0.906249999999999
40
0.906249999999999
40
0.914062499999999
40
0.914062499999999
40
0.921874999999999
40
0.921874999999999
40
0.937499999999999
40
0.937499999999999
40
0.96875
40
0.96875
40
1
40
1
40
1
40
1
41
1
10
103.933583984609
20
13
30
0
41
1
10
103.999571515546
20
13
30
0
41
1
10
104.065559046483
20
12.9800148837256
30
0
41
1
10
104.197534108357
20
12.8956377343894
30
0
41
1
10
104.263521639293
20
12.8312327920694
30
0
41
1
10
104.395496701167
20
12.6544684747637
30
0
41
1
10
104.461484232104
20
12.5420967953372
30
0
41
1
10
104.593459293977
20
12.2671490943484
30
0
41
1
10
104.659446824914
20
12.1045631553372
30
0
41
1
10
104.791421886788
20
11.7285751173845
30
0
41
1
10
104.857409417724
20
11.5151672903338
30
0
41
1
10
104.989384479598
20
11.0388032929796
30
0
41
1
10
105.055372010535
20
10.7758469939484
30
0
41
1
10
105.187347072408
20
10.203626257168
30
0
41
1
10
105.253334603345
20
9.89436790518923
30
0
41
1
10
105.385309665219
20
9.23466775661495
30
0
41
1
10
105.451297196155
20
8.88423783121519
30
0
41
1
10
105.583272258029
20
8.14893162779089
30
0
41
1
10
105.649259788965
20
7.76407154852842
30
0
41
1
10
105.781234850839
20
6.96782689436779
30
0
41
1
10
105.847222381776
20
6.55646065873174
30
0
41
1
10
105.979197443649
20
5.71578322724565
30
0
41
1
10
106.045184974586
20
5.28649008733737
30
0
41
1
10
106.17716003646
20
4.41864071142939
30
0
41
1
10
106.243147567397
20
3.98010010880847
30
0
41
1
10
106.37512262927
20
3.10202680265721
30
0
41
1
10
106.441110160207
20
2.66250584343828
30
0
41
1
10
106.57308522208
20
1.78991631435264
30
0
41
1
10
106.639072753017
20
1.35685496812351
30
0
41
1
10
106.738054049422
20
0.716851080667283
30
0
41
1
10
106.771047814891
20
0.505105134050638
30
0
41
1
10
106.820538463093
20
0.190374088744733
30
0
41
1
10
106.837035345827
20
0.0860532076686695
30
0
41
1
10
106.870029111296
20
-0.122006267028638
30
0
41
1
10
106.88652599403
20
-0.226550711287246
30
0
41
1
10
106.969010407701
20
-0.75165349508535
30
0
41
1
10
107.034997938638
20
-1.17940287913771
30
0
41
1
10
107.166973000511
20
-2.04449861581094
30
0
41
1
10
107.232960531448
20
-2.48183986634749
30
0
41
1
10
107.364935593322
20
-3.35918100473995
30
0
41
1
10
107.430923124258
20
-3.79917125056275
30
0
41
1
10
107.562898186132
20
-4.67389308887201
30
0
41
1
10
107.628885717069
20
-5.10861074781081
30
0
41
1
10
107.760860778942
20
-5.96424654956124
30
0
41
1
10
107.826848309879
20
-6.38514754582718
30
0
41
1
10
107.958823371753
20
-7.20445683802518
30
0
41
1
10
108.024810902689
20
-7.60284663229578
30
0
41
1
10
108.156785964563
20
-8.3688306557242
30
0
41
1
10
108.2227734955
20
-8.73640737788162
30
0
41
1
10
108.354748557373
20
-9.43340228180725
30
0
41
1
10
108.42073608831
20
-9.76280631717819
30
0
41
1
10
108.552711150183
20
-10.3775165447887
30
0
41
1
10
108.61869868112
20
-10.6628138050818
30
0
41
1
10
108.750673742994
20
-11.185147531344
30
0
41
1
10
108.816661273931
20
-11.4221812137966
30
0
41
1
10
108.948636335804
20
-11.8457795522231
30
0
41
1
10
109.014623866741
20
-12.0323474333551
30
0
41
1
10
109.146598928614
20
-12.3547524805024
30
0
41
1
10
109.212586459551
20
-12.4905978007609
30
0
41
1
10
109.344561521425
20
-12.7130669277662
30
0
41
1
10
109.410549052361
20
-12.7997021463072
30
0
41
1
10
109.542524114235
20
-12.926730792208
30
0
41
1
10
109.608511645172
20
-12.9671370504567
30
0
41
1
10
109.690996058843
20
-12.9912934183224
30
0
41
1
10
109.707492941577
20
-12.9948092615074
30
0
41
1
10
109.740486707045
20
-12.9992812137896
30
0
41
1
10
109.756983589779
20
-13.0002382088058
30
0
41
1
10
109.806474237982
20
-12.9993743483178
30
0
41
1
10
109.839468003451
20
-12.993790562922
30
0
41
1
10
109.938449299856
20
-12.961154158397
30
0
41
1
10
110.004436830792
20
-12.9181863738922
30
0
41
1
10
110.136411892666
20
-12.7858293449526
30
0
41
1
10
110.202399423603
20
-12.6964273036454
30
0
41
1
10
110.268386954539
20
-12.5823606858079
30
0
0
SPLINE
5
D9
100
AcDbEntity
8
1
62
256
6
ByLayer
370
13
48
1
60
0
100
AcDbSpline
70
4
71
3
72
78
73
74
40
0
40
0
40
0
40
0
40
0.0312500000000012
40
0.0312500000000012
40
0.0625000000000024
40
0.0625000000000024
40
0.078125000000003
40
0.078125000000003
40
0.0859375000000031
40
0.0859375000000031
40
0.0937500000000032
40
0.0937500000000032
40
0.125000000000003
40
0.125000000000003
40
0.156250000000003
40
0.156250000000003
40
0.187500000000003
40
0.187500000000003
40
0.218750000000003
40
0.218750000000003
40
0.250000000000003
40
0.250000000000003
40
0.281250000000003
40
0.281250000000003
40
0.312500000000003
40
0.312500000000003
40
0.343750000000002
40
0.343750000000002
40
0.375000000000002
40
0.375000000000002
40
0.406250000000002
40
0.406250000000002
40
0.437500000000002
40
0.437500000000002
40
0.468750000000002
40
0.468750000000002
40
0.500000000000002
40
0.500000000000002
40
0.531250000000002
40
0.531250000000002
40
0.539062500000001
40
0.539062500000001
40
0.546875000000001
40
0.546875000000001
40
0.562500000000001
40
0.562500000000001
40
0.593750000000001
40
0.593750000000001
40
0.625000000000001
40
0.625000000000001
40
0.656250000000001
40
0.656250000000001
40
0.687500000000001
40
0.687500000000001
40
0.71875
40
0.71875
40
0.75
40
0.75
40
0.78125
40
0.78125
40
0.8125
40
0.8125
40
0.84375
40
0.84375
40
0.875
40
0.875
40
0.90625
40
0.90625
40
0.9375
40
0.9375
40
0.96875
40
0.96875
40
1
40
1
40
1
40
1
41
1
10
98.6
20
-12.5823586687979
30
0
41
1
10
98.6659875430913
20
-12.6964255977427
30
0
41
1
10
98.7319750861827
20
-12.7858279345044
30
0
41
1
10
98.8639501723653
20
-12.9181855170427
30
0
41
1
10
98.9299377154567
20
-12.9611535596997
30
0
41
1
10
99.0289190300938
20
-12.9937903212364
30
0
41
1
10
99.0619128016394
20
-12.9993742206227
30
0
41
1
10
99.111403458958
20
-13.0002382444867
30
0
41
1
10
99.1279003447307
20
-12.9992813036012
30
0
41
1
10
99.1608941162764
20
-12.9948094608148
30
0
41
1
10
99.1773910020493
20
-12.9912936726864
30
0
41
1
10
99.2598754309134
20
-12.9671375814108
30
0
41
1
10
99.3258629740048
20
-12.9267315486699
30
0
41
1
10
99.4578380601874
20
-12.7997033552765
30
0
41
1
10
99.5238256032788
20
-12.7130683637206
30
0
41
1
10
99.6558006894616
20
-12.4905996839957
30
0
41
1
10
99.721788232553
20
-12.3547545840104
30
0
41
1
10
99.8537633187356
20
-12.0323499619032
30
0
41
1
10
99.9197508618269
20
-11.8457822855106
30
0
41
1
10
100.05172594801
20
-11.4221843323564
30
0
41
1
10
100.117713491101
20
-11.1851508304079
30
0
41
1
10
100.249688577283
20
-10.6628174332237
30
0
41
1
10
100.315676120375
20
-10.3775203214793
30
0
41
1
10
100.447651206557
20
-9.76281035311493
30
0
41
1
10
100.513638749649
20
-9.43340642842492
30
0
41
1
10
100.645613835832
20
-8.73641170453601
30
0
41
1
10
100.711601378923
20
-8.36883505172952
30
0
41
1
10
100.843576465106
20
-7.60285112498337
30
0
41
1
10
100.909564008197
20
-7.20446135805162
30
0
41
1
10
101.04153909438
20
-6.38515208055765
30
0
41
1
10
101.107526637471
20
-5.96425107167477
30
0
41
1
10
101.239501723654
20
-5.1086152091128
30
0
41
1
10
101.305489266745
20
-4.6738975020036
30
0
41
1
10
101.437464352928
20
-3.79917553787539
30
0
41
1
10
101.503451896019
20
-3.35918521442977
30
0
41
1
10
101.635426982202
20
-2.4818438983497
30
0
41
1
10
101.701414525293
20
-2.04450254777146
30
0
41
1
10
101.833389611476
20
-1.17940659579798
30
0
41
1
10
101.899377154567
20
-0.7516570965048
30
0
41
1
10
101.981861583431
20
-0.226554163390148
30
0
41
1
10
101.998358469204
20
-0.122009689003221
30
0
41
1
10
102.03135224075
20
0.0860498463827639
30
0
41
1
10
102.047849126523
20
0.190370717318814
30
0
41
1
10
102.097339783841
20
0.505101789798005
30
0
41
1
10
102.130333555387
20
0.716847756931656
30
0
41
1
10
102.229314870024
20
1.35685171321475
30
0
41
1
10
102.295302413115
20
1.78991311506954
30
0
41
1
10
102.427277499298
20
2.66250277438485
30
0
41
1
10
102.493265042389
20
3.10202380821198
30
0
41
1
10
102.625240128572
20
3.98009728073376
30
0
41
1
10
102.691227671663
20
4.41863797511567
30
0
41
1
10
102.823202757846
20
5.28648754848649
30
0
41
1
10
102.889190300937
20
5.71578079408886
30
0
41
1
10
103.02116538712
20
6.55645844643232
30
0
41
1
10
103.087152930211
20
6.96782479721776
30
0
41
1
10
103.219128016394
20
7.76406968574375
30
0
41
1
10
103.285115559485
20
8.14892988420382
30
0
41
1
10
103.417090645668
20
8.88423632424954
30
0
41
1
10
103.483078188759
20
9.23466636705336
30
0
41
1
10
103.615053274942
20
9.89436674296854
30
0
41
1
10
103.681040818033
20
10.2036252048666
30
0
41
1
10
103.813015904216
20
10.7758461490467
30
0
41
1
10
103.879003447307
20
11.0388025455459
30
0
41
1
10
104.01097853349
20
11.5151667216097
30
0
41
1
10
104.076966076581
20
11.7285746298963
30
0
41
1
10
104.208941162764
20
12.1045628117641
30
0
41
1
10
104.274928705855
20
12.267148813456
30
0
41
1
10
104.406903792038
20
12.5420966204339
30
0
41
1
10
104.472891335129
20
12.6544683431762
30
0
41
1
10
104.604866421312
20
12.8312327283024
30
0
41
1
10
104.670853964403
20
12.8956376951378
30
0
41
1
10
104.802829050586
20
12.9800148763516
30
0
41
1
10
104.868816593677
20
13
30
0
41
1
10
104.934804136769
20
13
30
0
0
SPLINE
5
DA
100
AcDbEntity
8
1
62
256
6
ByLayer
370
13
48
1
60
0
100
AcDbSpline
70
4
71
3
72
80
73
76
40
0
40
0
40
0
40
0
40
0.0312499999999998
40
0.0312499999999998
40
0.0624999999999996
40
0.0624999999999996
40
0.0937499999999993
40
0.0937499999999993
40
0.124999999999999
40
0.124999999999999
40
0.156249999999999
40
0.156249999999999
40
0.187499999999999
40
0.187499999999999
40
0.218749999999998
40
0.218749999999998
40
0.249999999999998
40
0.249999999999998
40
0.281249999999998
40
0.281249999999998
40
0.312499999999998
40
0.312499999999998
40
0.343749999999998
40
0.343749999999998
40
0.374999999999998
40
0.374999999999998
40
0.406249999999997
40
0.406249999999997
40
0.421874999999998
40
0.421874999999998
40
0.425781249999998
40
0.425781249999998
40
0.429687499999998
40
0.429687499999998
40
0.437499999999998
40
0.437499999999998
40
0.468749999999998
40
0.468749999999998
40
0.499999999999998
40
0.499999999999998
40
0.531249999999998
40
0.531249999999998
40
0.562499999999998
40
0.562499999999998
40
0.593749999999998
40
0.593749999999998
40
0.624999999999998
40
0.624999999999998
40
0.656249999999998
40
0.656249999999998
40
0.687499999999999
40
0.687499999999999
40
0.718749999999999
40
0.718749999999999
40
0.749999999999999
40
0.749999999999999
40
0.781249999999999
40
0.781249999999999
40
0.812499999999999
40
0.812499999999999
40
0.843749999999999
40
0.843749999999999
40
0.851562499999999
40
0.851562499999999
40
0.859374999999999
40
0.859374999999999
40
0.875
40
0.875
40
0.90625
40
0.90625
40
0.9375
40
0.9375
40
0.96875
40
0.96875
40
1
40
1
40
1
40
1
41
1
10
103.44871276632
20
13
30
0
41
1
10
103.519751039113
20
13
30
0
41
1
10
103.590789311907
20
12.9768325414268
30
0
41
1
10
103.732865857495
20
12.8786640168974
30
0
41
1
10
103.803904130289
20
12.8036442859394
30
0
41
1
10
103.945980675877
20
12.5975039324797
30
0
41
1
10
104.017018948671
20
12.4663658929402
30
0
41
1
10
104.159095494259
20
12.1455395846661
30
0
41
1
10
104.230133767053
20
11.9558381662755
30
0
41
1
10
104.372210312641
20
11.5177242509089
30
0
41
1
10
104.443248585435
20
11.2693057901302
30
0
41
1
10
104.585325131023
20
10.7161830145454
30
0
41
1
10
104.656363403817
20
10.4114819279339
30
0
41
1
10
104.798439949405
20
9.75085275251044
30
0
41
1
10
104.869478222199
20
9.39493746731787
30
0
41
1
10
105.011554767787
20
8.63933155608623
30
0
41
1
10
105.082593040581
20
8.23966177026222
30
0
41
1
10
105.224669586169
20
7.40587883864694
30
0
41
1
10
105.295707858962
20
6.97179139848097
30
0
41
1
10
105.43778440455
20
6.07967365937492
30
0
41
1
10
105.508822677344
20
5.6216699348995
30
0
41
1
10
105.650899222932
20
4.69258857032881
30
0
41
1
10
105.721937495726
20
4.22153457151214
30
0
41
1
10
105.864014041314
20
3.27682263965138
30
0
41
1
10
105.935052314108
20
2.80318266090205
30
0
41
1
10
106.077128859696
20
1.8627363941907
30
0
41
1
10
106.14816713249
20
1.39594109101779
30
0
41
1
10
106.254724541681
20
0.706849108520373
30
0
41
1
10
106.290243678078
20
0.478989475265052
30
0
41
1
10
106.334642598574
20
0.196985176609161
30
0
41
1
10
106.343522382673
20
0.140725066407214
30
0
41
1
10
106.361281950872
20
0.0284983693232448
30
0
41
1
10
106.370161734971
20
-0.0273924080903214
30
0
41
1
10
106.396801087269
20
-0.195726658267944
30
0
41
1
10
106.414560655467
20
-0.308536905335984
30
0
41
1
10
106.50335849646
20
-0.875280548767478
30
0
41
1
10
106.574396769254
20
-1.33735697521007
30
0
41
1
10
106.716473314842
20
-2.27154369451688
30
0
41
1
10
106.787511587636
20
-2.7436456532119
30
0
41
1
10
106.929588133223
20
-3.6889725905813
30
0
41
1
10
107.000626406017
20
-4.16218216565116
30
0
41
1
10
107.142702951605
20
-5.09959039905161
30
0
41
1
10
107.213741224399
20
-5.56376730555269
30
0
41
1
10
107.355817769987
20
-6.47231478395096
30
0
41
1
10
107.426856042781
20
-6.91665947924884
30
0
41
1
10
107.568932588369
20
-7.77481019390507
30
0
41
1
10
107.639970861163
20
-8.18858970062641
30
0
41
1
10
107.782047406751
20
-8.97574118125385
30
0
41
1
10
107.853085679545
20
-9.34909004848501
30
0
41
1
10
107.995162225133
20
-10.0471349936476
30
0
41
1
10
108.066200497927
20
-10.3718149666978
30
0
41
1
10
108.208277043515
20
-10.9665017200367
30
0
41
1
10
108.279315316309
20
-11.2365016157946
30
0
41
1
10
108.421391861896
20
-11.7183844822706
30
0
41
1
10
108.49243013469
20
-11.9302701227849
30
0
41
1
10
108.634506680279
20
-12.2951200794639
30
0
41
1
10
108.705544953072
20
-12.4480951560638
30
0
41
1
10
108.84762149866
20
-12.6967502728184
30
0
41
1
10
108.918659771454
20
-12.7924464916419
30
0
41
1
10
109.060736317042
20
-12.9301856022028
30
0
41
1
10
109.131774589836
20
-12.9722470206468
30
0
41
1
10
109.220572430828
20
-12.9944933305575
30
0
41
1
10
109.238331999027
20
-12.997428904385
30
0
41
1
10
109.273851135424
20
-13.0003623787191
30
0
41
1
10
109.291610703622
20
-13.0003718171982
30
0
41
1
10
109.344889408218
20
-12.9960295963244
30
0
41
1
10
109.380408544615
20
-12.9872588596644
30
0
41
1
10
109.486965953806
20
-12.9422634213057
30
0
41
1
10
109.5580042266
20
-12.8873119372505
30
0
41
1
10
109.700080772188
20
-12.7227274451782
30
0
41
1
10
109.771119044982
20
-12.6130762148321
30
0
41
1
10
109.91319559057
20
-12.3358980983528
30
0
41
1
10
109.984233863364
20
-12.1683560941394
30
0
41
1
10
110.126310408951
20
-11.7743293572689
30
0
41
1
10
110.197348681745
20
-11.5478356577774
30
0
41
1
10
110.268386954539
20
-11.2925870703632
30
0
0
SPLINE
5
DB
100
AcDbEntity
8
1
62
256
6
ByLayer
370
13
48
1
60
0
100
AcDbSpline
70
4
71
3
72
76
73
72
40
0
40
0
40
0
40
0
40
0.0078124999999999
40
0.0078124999999999
40
0.0156249999999997
40
0.0312499999999998
40
0.0312499999999998
40
0.0624999999999999
40
0.0624999999999999
40
0.09375
40
0.09375
40
0.125
40
0.125
40
0.15625
40
0.15625
40
0.1875
40
0.1875
40
0.218750000000001
40
0.218750000000001
40
0.250000000000001
40
0.250000000000001
40
0.281250000000001
40
0.281250000000001
40
0.312500000000001
40
0.312500000000001
40
0.343750000000001
40
0.343750000000001
40
0.375000000000001
40
0.375000000000001
40
0.406250000000001
40
0.406250000000001
40
0.437500000000001
40
0.437500000000001
40
0.468750000000002
40
0.468750000000002
40
0.500000000000002
40
0.500000000000002
40
0.507812500000002
40
0.507812500000002
40
0.515625000000002
40
0.531250000000002
40
0.531250000000002
40
0.562500000000002
40
0.562500000000002
40
0.593750000000002
40
0.593750000000002
40
0.625000000000001
40
0.625000000000001
40
0.656250000000001
40
0.656250000000001
40
0.687500000000001
40
0.687500000000001
40
0.718750000000001
40
0.718750000000001
40
0.750000000000001
40
0.750000000000001
40
0.781250000000001
40
0.781250000000001
40
0.812500000000001
40
0.812500000000001
40
0.843750000000001
40
0.843750000000001
40
0.875
40
0.875
40
0.90625
40
0.90625
40
0.9375
40
0.9375
40
0.96875
40
0.96875
40
1
40
1
40
1
40
1
41
1
10
98.6000000000001
20
-12.9996203462363
30
0
41
1
10
98.6152342003087
20
-13.0003564322861
30
0
41
1
10
98.6304684006171
20
-13.0000274250957
30
0
41
1
10
98.6609368012342
20
-12.9972130080492
30
0
41
1
10
98.7066394021598
20
-12.9897436474033
30
0
41
1
10
98.7523420030854
20
-12.9722722801539
30
0
41
1
10
98.8437472049367
20
-12.923349364918
30
0
41
1
10
98.9046840061708
20
-12.8720695459137
30
0
41
1
10
99.0265576086392
20
-12.7292424313588
30
0
41
1
10
99.0874944098733
20
-12.6376866684668
30
0
41
1
10
99.2093680123415
20
-12.4122322955196
30
0
41
1
10
99.2703048135756
20
-12.2783263871938
30
0
41
1
10
99.3921784160441
20
-11.9672171680927
30
0
41
1
10
99.4531152172781
20
-11.7900087846081
30
0
41
1
10
99.5749888197464
20
-11.3926505429272
30
0
41
1
10
99.6359256209806
20
-11.1724987659949
30
0
41
1
10
99.757799223449
20
-10.691028414685
30
0
41
1
10
99.8187360246832
20
-10.4297116670887
30
0
41
1
10
99.9406096271514
20
-9.86910806455435
30
0
41
1
10
100.001546428386
20
-9.56982686953967
30
0
41
1
10
100.123420030854
20
-8.93780056918158
30
0
41
1
10
100.184356832088
20
-8.60506447268423
30
0
41
1
10
100.306230434556
20
-7.91172160199372
30
0
41
1
10
100.36716723579
20
-7.55112619271429
30
0
41
1
10
100.489040838259
20
-6.8084350611102
30
0
41
1
10
100.549977639493
20
-6.4263517425729
30
0
41
1
10
100.671851241961
20
-5.64747041972078
30
0
41
1
10
100.732788043195
20
-5.25068447081503
30
0
41
1
10
100.854661645664
20
-4.44922653206089
30
0
41
1
10
100.915598446898
20
-4.04456504359811
30
0
41
1
10
101.037472049366
20
-3.23388490318786
30
0
41
1
10
101.0984088506
20
-2.82787435787398
30
0
41
1
10
101.220282453069
20
-2.02044321026347
30
0
41
1
10
101.281219254303
20
-1.61902792293196
30
0
41
1
10
101.403092856771
20
-0.82595017289853
30
0
41
1
10
101.464029658005
20
-0.434290255859082
30
0
41
1
10
101.540200659548
20
0.0465258819156702
30
0
41
1
10
101.555434859856
20
0.142606328258495
30
0
41
1
10
101.585903260474
20
0.336049098202722
30
0
41
1
10
101.631605861399
20
0.627459942317785
30
0
41
1
10
101.677308462325
20
0.922331678632872
30
0
41
1
10
101.768713664176
20
1.51586367141923
30
0
41
1
10
101.82965046541
20
1.91662978173193
30
0
41
1
10
101.951524067878
20
2.72323969729254
30
0
41
1
10
102.012460869113
20
3.12907843227629
30
0
41
1
10
102.134334471581
20
3.93995286543176
30
0
41
1
10
102.195271272815
20
4.34498068811132
30
0
41
1
10
102.317144875283
20
5.14774935062815
30
0
41
1
10
102.378081676517
20
5.54547986828555
30
0
41
1
10
102.499955278986
20
6.32684156876459
30
0
41
1
10
102.56089208022
20
6.7104607867594
30
0
41
1
10
102.682765682688
20
7.45679700144183
30
0
41
1
10
102.743702483922
20
7.81950157074701
30
0
41
1
10
102.865576086391
20
8.51758585996899
30
0
41
1
10
102.926512887625
20
8.85295407087875
30
0
41
1
10
103.048386490093
20
9.49068779543381
30
0
41
1
10
103.109323291327
20
9.79304405215524
30
0
41
1
10
103.231196893795
20
10.3601373219335
30
0
41
1
10
103.29213369503
20
10.6248683596226
30
0
41
1
10
103.414007297498
20
11.1133880467061
30
0
41
1
10
103.474944098732
20
11.3371745347111
30
0
41
1
10
103.5968177012
20
11.7418989736982
30
0
41
1
10
103.657754502435
20
11.922838537961
30
0
41
1
10
103.779628104903
20
12.2413875051064
30
0
41
1
10
103.840564906137
20
12.3790017422697
30
0
41
1
10
103.962438508605
20
12.6117436545775
30
0
41
1
10
104.023375309839
20
12.7068784775454
30
0
41
1
10
104.145248912308
20
12.8566468705168
30
0
41
1
10
104.206185713542
20
12.9112888482867
30
0
41
1
10
104.32805931601
20
12.9829610813831
30
0
41
1
10
104.388996117245
20
13
30
0
41
1
10
104.449932918479
20
13
30
0
0
SPLINE
5
DC
100
AcDbEntity
8
1
62
256
6
ByLayer
370
13
48
1
60
0
100
AcDbSpline
70
4
71
3
72
81
73
77
40
0
40
0
40
0
40
0
40
0.0312499999999992
40
0.0312499999999992
40
0.0624999999999984
40
0.0624999999999984
40
0.0937499999999976
40
0.0937499999999976
40
0.124999999999997
40
0.124999999999997
40
0.156249999999996
40
0.156249999999996
40
0.187499999999995
40
0.187499999999995
40
0.218749999999994
40
0.218749999999994
40
0.249999999999993
40
0.249999999999993
40
0.281249999999993
40
0.281249999999993
40
0.312499999999992
40
0.312499999999992
40
0.343749999999991
40
0.343749999999991
40
0.37499999999999
40
0.37499999999999
40
0.39062499999999
40
0.39062499999999
40
0.398437499999989
40
0.398437499999989
40
0.402343749999989
40
0.402343749999989
40
0.406249999999989
40
0.406249999999989
40
0.437499999999989
40
0.437499999999989
40
0.468749999999989
40
0.468749999999989
40
0.49999999999999
40
0.49999999999999
40
0.53124999999999
40
0.53124999999999
40
0.56249999999999
40
0.56249999999999
40
0.59374999999999
40
0.59374999999999
40
0.624999999999991
40
0.624999999999991
40
0.656249999999991
40
0.656249999999991
40
0.687499999999991
40
0.687499999999991
40
0.718749999999991
40
0.718749999999991
40
0.749999999999992
40
0.749999999999992
40
0.781249999999992
40
0.781249999999992
40
0.796874999999992
40
0.796874999999992
40
0.800781249999992
40
0.800781249999992
40
0.804687499999992
40
0.812499999999992
40
0.812499999999992
40
0.843749999999993
40
0.843749999999993
40
0.874999999999995
40
0.874999999999995
40
0.906249999999996
40
0.906249999999996
40
0.937499999999997
40
0.937499999999997
40
0.968749999999999
40
0.968749999999999
40
1
40
1
40
1
40
1
41
1
10
102.96384154803
20
13
30
0
41
1
10
103.039930562681
20
13
30
0
41
1
10
103.116019577332
20
12.97341362829
30
0
41
1
10
103.268197606634
20
12.8603573981976
30
0
41
1
10
103.344286621285
20
12.7738612486901
30
0
41
1
10
103.496464650588
20
12.5359442784085
30
0
41
1
10
103.572553665239
20
12.3844995220792
30
0
41
1
10
103.724731694541
20
12.0141334388781
30
0
41
1
10
103.800820709192
20
11.7951954437952
30
0
41
1
10
103.952998738494
20
11.2904087475873
30
0
41
1
10
104.029087753146
20
11.0045551372218
30
0
41
1
10
104.181265782448
20
10.3699608234192
30
0
41
1
10
104.257354797099
20
10.0212295442781
30
0
41
1
10
104.409532826401
20
9.26830096971838
30
0
41
1
10
104.485621841052
20
8.86412695237189
30
0
41
1
10
104.637799870355
20
8.01063575392863
30
0
41
1
10
104.713888885006
20
7.56135199321028
30
0
41
1
10
104.866066914308
20
6.62999816696276
30
0
41
1
10
104.942155928959
20
6.14796570261169
30
0
41
1
10
105.094333958262
20
5.16441541967015
30
0
41
1
10
105.170422972913
20
4.66293293107881
30
0
41
1
10
105.322601002215
20
3.65360901040287
30
0
41
1
10
105.398690016866
20
3.14579547103813
30
0
41
1
10
105.550868046169
20
2.13579475736219
30
0
41
1
10
105.62695706082
20
1.63362525575778
30
0
41
1
10
105.741090582796
20
0.892205035194252
30
0
41
1
10
105.779135090122
20
0.647021385150254
30
0
41
1
10
105.83620185111
20
0.282977387076755
30
0
41
1
10
105.855224104773
20
0.162250204697614
30
0
41
1
10
105.883757485267
20
-0.0178196944217746
30
0
41
1
10
105.893268612099
20
-0.0777508832391902
30
0
41
1
10
105.912290865761
20
-0.19815455174512
30
0
41
1
10
105.921801992593
20
-0.258522604218768
30
0
41
1
10
106.007402134075
20
-0.803263725791936
30
0
41
1
10
106.083491148726
20
-1.29772869248308
30
0
41
1
10
106.235669178029
20
-2.29823701357387
30
0
41
1
10
106.31175819268
20
-2.80426865786686
30
0
41
1
10
106.463936221982
20
-3.8169053411367
30
0
41
1
10
106.540025236633
20
-4.32348802299208
30
0
41
1
10
106.692203265936
20
-5.32465296080446
30
0
41
1
10
106.768292280587
20
-5.81920354311686
30
0
41
1
10
106.920470309889
20
-6.7829798342984
30
0
41
1
10
106.99655932454
20
-7.25216846217705
30
0
41
1
10
107.148737353842
20
-8.15219477010822
30
0
41
1
10
107.224826368494
20
-8.58299588308543
30
0
41
1
10
107.377004397796
20
-9.39464862703869
30
0
41
1
10
107.453093412447
20
-9.77547067743612
30
0
41
1
10
107.605271441749
20
-10.4780113405554
30
0
41
1
10
107.6813604564
20
-10.7997125136141
30
0
41
1
10
107.833538485703
20
-11.3780252724763
30
0
41
1
10
107.909627500354
20
-11.6346338992896
30
0
41
1
10
108.061805529656
20
-12.0802551689219
30
0
41
1
10
108.137894544307
20
-12.2692783756016
30
0
41
1
10
108.29007257361
20
-12.5805813657401
30
0
41
1
10
108.366161588261
20
-12.7028816377461
30
0
41
1
10
108.518339617563
20
-12.8844685822043
30
0
41
1
10
108.594428632214
20
-12.9437808095447
30
0
41
1
10
108.708562154191
20
-12.9899117474948
30
0
41
1
10
108.746606661516
20
-12.9981635861689
30
0
41
1
10
108.794162295674
20
-13.0001161164516
30
0
41
1
10
108.803673422505
20
-13.0000905697453
30
0
41
1
10
108.822695676168
20
-12.9992060567535
30
0
41
1
10
108.851229056662
20
-12.9966242342148
30
0
41
1
10
108.879762437156
20
-12.9902137261904
30
0
41
1
10
108.97487370547
20
-12.9600652322795
30
0
41
1
10
109.050962720121
20
-12.9077866202096
30
0
41
1
10
109.203140749423
20
-12.7408618509889
30
0
41
1
10
109.279229764075
20
-12.6261898670244
30
0
41
1
10
109.431407793377
20
-12.3304458126093
30
0
41
1
10
109.507496808028
20
-12.149352399548
30
0
41
1
10
109.65967483733
20
-11.7195260636315
30
0
41
1
10
109.735763851981
20
-11.4707811885686
30
0
41
1
10
109.887941881284
20
-10.907723835104
30
0
41
1
10
109.964030895935
20
-10.5934126195984
30
0
41
1
10
110.116208925237
20
-9.90477921582314
30
0
41
1
10
110.192297939888
20
-9.53047282640148
30
0
41
1
10
110.268386954539
20
-9.1305547279664
30
0
0
SPLINE
5
DD
100
AcDbEntity
8
1
62
256
6
ByLayer
370
13
48
1
60
0
100
AcDbSpline
70
4
71
3
72
72
73
68
40
0
40
0
40
0
40
0
40
0.0312500000000002
40
0.0312500000000002
40
0.0625000000000003
40
0.0625000000000003
40
0.0937500000000005
40
0.0937500000000005
40
0.125000000000001
40
0.125000000000001
40
0.156250000000001
40
0.156250000000001
40
0.187500000000001
40
0.187500000000001
40
0.218750000000001
40
0.218750000000001
40
0.250000000000001
40
0.250000000000001
40
0.281250000000001
40
0.281250000000001
40
0.312500000000002
40
0.312500000000002
40
0.343750000000002
40
0.343750000000002
40
0.375000000000002
40
0.375000000000002
40
0.406250000000002
40
0.406250000000002
40
0.437500000000002
40
0.437500000000002
40
0.453125000000002
40
0.453125000000002
40
0.460937500000002
40
0.460937500000002
40
0.468750000000003
40
0.468750000000003
40
0.500000000000002
40
0.500000000000002
40
0.531250000000002
40
0.531250000000002
40
0.562500000000002
40
0.562500000000002
40
0.593750000000002
40
0.593750000000002
40
0.625000000000002
40
0.625000000000002
40
0.656250000000002
40
0.656250000000002
40
0.687500000000001
40
0.687500000000001
40
0.718750000000001
40
0.718750000000001
40
0.750000000000001
40
0.750000000000001
40
0.781250000000001
40
0.781250000000001
40
0.812500000000001
40
0.812500000000001
40
0.843750000000001
40
0.843750000000001
40
0.875
40
0.875
40
0.90625
40
0.90625
40
0.9375
40
0.9375
40
1
40
1
40
1
40
1
41
1
10
98.6
20
-12.6349112805467
30
0
41
1
10
98.6558860593771
20
-12.5449097710813
30
0
41
1
10
98.711772118754
20
-12.4373557486785
30
0
41
1
10
98.8235442375079
20
-12.1860613203025
30
0
41
1
10
98.8794302968848
20
-12.0423169144617
30
0
41
1
10
98.9912024156387
20
-11.7184255536044
30
0
41
1
10
99.0470884750158
20
-11.5382762342516
30
0
41
1
10
99.1588605937697
20
-11.1423317933675
30
0
41
1
10
99.2147466531467
20
-10.9265363761709
30
0
41
1
10
99.3265187719006
20
-10.461070826456
30
0
41
1
10
99.3824048312775
20
-10.2114026888676
30
0
41
1
10
99.4941769500315
20
-9.68095225920905
30
0
41
1
10
99.5500630094085
20
-9.40017420148268
30
0
41
1
10
99.6618351281624
20
-8.81116004481603
30
0
41
1
10
99.7177211875393
20
-8.50293008238069
30
0
41
1
10
99.8294933062932
20
-7.86340663498834
30
0
41
1
10
99.8853793656702
20
-7.53212060914234
30
0
41
1
10
99.9971514844242
20
-6.85141156337451
30
0
41
1
10
100.053037543801
20
-6.50199659572763
30
0
41
1
10
100.164809662555
20
-5.79025259369675
30
0
41
1
10
100.220695721932
20
-5.42793144440174
30
0
41
1
10
100.332467840686
20
-4.69565240197659
30
0
41
1
10
100.388353900063
20
-4.32570155227134
30
0
41
1
10
100.500126018817
20
-3.58326839363525
30
0
41
1
10
100.556012078194
20
-3.21079178653272
30
0
41
1
10
100.667784196948
20
-2.46804742074687
30
0
41
1
10
100.723670256325
20
-2.09778374208867
30
0
41
1
10
100.835442375079
20
-1.36369295449637
30
0
41
1
10
100.891328434456
20
-0.999868243062821
30
0
41
1
10
100.975157523521
20
-0.461672049365006
30
0
41
1
10
101.00310055321
20
-0.283525154015933
30
0
41
1
10
101.045015097742
20
-0.0184754855094411
30
0
41
1
10
101.058986612586
20
0.0694197415686233
30
0
41
1
10
101.086929642275
20
0.246396149229213
30
0
41
1
10
101.100901157119
20
0.335241333244625
30
0
41
1
10
101.17075873134
20
0.781132091098698
30
0
41
1
10
101.226644790717
20
1.14319756854371
30
0
41
1
10
101.338416909471
20
1.87455088560142
30
0
41
1
10
101.394302968848
20
2.24383665745768
30
0
41
1
10
101.506075087602
20
2.98552308597095
30
0
41
1
10
101.561961146979
20
3.35792000395901
30
0
41
1
10
101.673733265733
20
4.10118489254589
30
0
41
1
10
101.72961932511
20
4.47204747347149
30
0
41
1
10
101.841391443864
20
5.20720070106421
30
0
41
1
10
101.897277503241
20
5.57148454158136
30
0
41
1
10
102.009049621995
20
6.28822222508174
30
0
41
1
10
102.064935681372
20
6.64066830313473
30
0
41
1
10
102.176707800126
20
7.32847788843401
30
0
41
1
10
102.232593859503
20
7.66383331709284
30
0
41
1
10
102.344365978257
20
8.312454846706
30
0
41
1
10
102.400252037634
20
8.62571330725814
30
0
41
1
10
102.512024156387
20
9.22561873684239
30
0
41
1
10
102.567910215764
20
9.51225924927954
30
0
41
1
10
102.679682334519
20
10.0551055153654
30
0
41
1
10
102.735568393895
20
10.3113066147294
30
0
41
1
10
102.847340512649
20
10.7903185873039
30
0
41
1
10
102.903226572026
20
11.0131270000195
30
0
41
1
10
103.01499869078
20
11.4233739295631
30
0
41
1
10
103.070884750157
20
11.6108122893822
30
0
41
1
10
103.182656868911
20
11.9493546535861
30
0
41
1
10
103.238542928288
20
12.1004606340153
30
0
41
1
10
103.350315047042
20
12.36636078932
30
0
41
1
10
103.406201106419
20
12.4811586760474
30
0
41
1
10
103.517973225173
20
12.6753651545327
30
0
41
1
10
103.57385928455
20
12.7547786570063
30
0
41
1
10
103.741517462681
20
12.9424716440794
30
0
41
1
10
103.853289581435
20
13
30
0
41
1
10
103.965061700189
20
13
30
0
0
SPLINE
5
DE
100
AcDbEntity
8
1
62
256
6
ByLayer
370
13
48
1
60
0
100
AcDbSpline
70
4
71
3
72
79
73
75
40
0
40
0
40
0
40
0
40
0.0312500000000003
40
0.0312500000000003
40
0.0625000000000006
40
0.0625000000000006
40
0.0937500000000008
40
0.0937500000000008
40
0.125000000000001
40
0.125000000000001
40
0.156250000000001
40
0.156250000000001
40
0.187500000000002
40
0.187500000000002
40
0.218750000000002
40
0.218750000000002
40
0.250000000000002
40
0.250000000000002
40
0.281250000000003
40
0.281250000000003
40
0.312500000000003
40
0.312500000000003
40
0.343750000000003
40
0.343750000000003
40
0.359375000000003
40
0.359375000000003
40
0.367187500000003
40
0.367187500000003
40
0.375000000000003
40
0.375000000000003
40
0.406250000000003
40
0.406250000000003
40
0.437500000000004
40
0.437500000000004
40
0.468750000000004
40
0.468750000000004
40
0.500000000000004
40
0.500000000000004
40
0.531250000000004
40
0.531250000000004
40
0.562500000000005
40
0.562500000000005
40
0.593750000000005
40
0.593750000000005
40
0.625000000000005
40
0.625000000000005
40
0.656250000000006
40
0.656250000000006
40
0.687500000000006
40
0.687500000000006
40
0.718750000000006
40
0.718750000000006
40
0.734375000000006
40
0.734375000000006
40
0.742187500000006
40
0.746093750000006
40
0.746093750000006
40
0.750000000000006
40
0.750000000000006
40
0.781250000000005
40
0.781250000000005
40
0.812500000000004
40
0.812500000000004
40
0.843750000000004
40
0.843750000000004
40
0.875000000000003
40
0.875000000000003
40
0.906250000000002
40
0.906250000000002
40
0.937500000000002
40
0.937500000000002
40
0.968750000000001
40
0.968750000000001
40
1
40
1
40
1
40
1
41
1
10
102.47897032974
20
13
30
0
41
1
10
102.560110086248
20
13
30
0
41
1
10
102.641249842756
20
12.9697576644993
30
0
41
1
10
102.803529355773
20
12.8407077858912
30
0
41
1
10
102.884669112281
20
12.7418640474881
30
0
41
1
10
103.046948625298
20
12.4697527565857
30
0
41
1
10
103.128088381806
20
12.2964531757289
30
0
41
1
10
103.290367894823
20
11.8729119894079
30
0
41
1
10
103.371507651331
20
11.6226502282249
30
0
41
1
10
103.533787164348
20
11.0468197874336
30
0
41
1
10
103.614926920856
20
10.7212494108978
30
0
41
1
10
103.777206433873
20
10.0009410998472
30
0
41
1
10
103.858346190381
20
9.60622279080562
30
0
41
1
10
104.020625703398
20
8.75799966317445
30
0
41
1
10
104.101765459906
20
8.30453330325636
30
0
41
1
10
104.264044972923
20
7.35255042610063
30
0
41
1
10
104.345184729431
20
6.854083740319
30
0
41
1
10
104.507464242448
20
5.82783459006978
30
0
41
1
10
104.588603998956
20
5.30010330376021
30
0
41
1
10
104.750883511973
20
4.23150235192225
30
0
41
1
10
104.832023268481
20
3.69067590901804
30
0
41
1
10
104.994302781498
20
2.6110550495269
30
0
41
1
10
105.075442538006
20
2.07228993498862
30
0
41
1
10
105.197152172769
20
1.27545845590433
30
0
41
1
10
105.237722051023
20
1.01171479431431
30
0
41
1
10
105.298576868404
20
0.619929880001649
30
0
41
1
10
105.318861807531
20
0.489971951818063
30
0
41
1
10
105.359431685785
20
0.231484970982365
30
0
41
1
10
105.379716624913
20
0.103138345818792
30
0
41
1
10
105.481141320548
20
-0.536586540516822
30
0
41
1
10
105.562281077056
20
-1.06091451404188
30
0
41
1
10
105.724560590073
20
-2.12430600306814
30
0
41
1
10
105.805700346581
20
-2.66335532975688
30
0
41
1
10
105.967979859598
20
-3.74308347012544
30
0
41
1
10
106.049119616106
20
-4.28373248275673
30
0
41
1
10
106.211399129123
20
-5.35146501023149
30
0
41
1
10
106.292538885631
20
-5.87850492949673
30
0
41
1
10
106.454818398648
20
-6.9028475995031
30
0
41
1
10
106.535958155156
20
-7.40009905782924
30
0
41
1
10
106.698237668173
20
-8.34916758103944
30
0
41
1
10
106.779377424681
20
-8.80093503049108
30
0
41
1
10
106.941656937698
20
-9.64536497812304
30
0
41
1
10
107.022796694206
20
-10.0379895319398
30
0
41
1
10
107.185076207223
20
-10.7538410179513
30
0
41
1
10
107.266215963731
20
-11.0770490052978
30
0
41
1
10
107.428495476748
20
-11.6480303884422
30
0
41
1
10
107.509635233256
20
-11.8958061487865
30
0
41
1
10
107.671914746273
20
-12.3143941511163
30
0
41
1
10
107.753054502781
20
-12.4852270488565
30
0
41
1
10
107.915334015798
20
-12.752546889801
30
0
41
1
10
107.996473772306
20
-12.8490661154109
30
0
41
1
10
108.118183407069
20
-12.9425418681291
30
0
41
1
10
108.158753285323
20
-12.9651726803752
30
0
41
1
10
108.219608102704
20
-12.9870485588433
30
0
41
1
10
108.250035511395
20
-12.9949704072263
30
0
41
1
10
108.280462920085
20
-12.9985152590027
30
0
41
1
10
108.300747859212
20
-12.9999228688684
30
0
41
1
10
108.310890328776
20
-13.0001496868632
30
0
41
1
10
108.402172554848
20
-12.9979497834523
30
0
41
1
10
108.483312311356
20
-12.9656078211549
30
0
41
1
10
108.645591824373
20
-12.8321275690186
30
0
41
1
10
108.726731580881
20
-12.7309531055861
30
0
41
1
10
108.889011093898
20
-12.4540414516509
30
0
41
1
10
108.970150850406
20
-12.2782724951011
30
0
41
1
10
109.132430363423
20
-11.8497771210162
30
0
41
1
10
109.213570119931
20
-11.5970310549236
30
0
41
1
10
109.375849632948
20
-11.0163597105218
30
0
41
1
10
109.456989389456
20
-10.6884334060523
30
0
41
1
10
109.619268902473
20
-9.96368568145624
30
0
41
1
10
109.700408658981
20
-9.56688456479372
30
0
41
1
10
109.862688171998
20
-8.71489370121895
30
0
41
1
10
109.943827928506
20
-8.25974291926551
30
0
41
1
10
110.106107441523
20
-7.30487677057141
30
0
41
1
10
110.187247198031
20
-6.80521144052631
30
0
41
1
10
110.268386954539
20
-6.2911504349733
30
0
0
SPLINE
5
DF
100
AcDbEntity
8
1
62
256
6
ByLayer
370
13
48
1
60
0
100
AcDbSpline
70
4
71
3
72
44
73
40
40
0
40
0
40
0
40
0
40
0.0625000000000016
40
0.0625000000000016
40
0.125000000000003
40
0.125000000000003
40
0.187500000000005
40
0.187500000000005
40
0.250000000000007
40
0.250000000000007
40
0.312500000000008
40
0.312500000000008
40
0.37500000000001
40
0.37500000000001
40
0.39062500000001
40
0.39062500000001
40
0.39843750000001
40
0.39843750000001
40
0.40625000000001
40
0.40625000000001
40
0.43750000000001
40
0.43750000000001
40
0.500000000000009
40
0.500000000000009
40
0.562500000000007
40
0.562500000000007
40
0.625000000000006
40
0.625000000000006
40
0.687500000000005
40
0.687500000000005
40
0.750000000000004
40
0.750000000000004
40
0.812500000000003
40
0.812500000000003
40
0.875000000000002
40
0.875000000000002
40
0.937500000000001
40
0.937500000000001
40
1
40
1
40
1
40
1
41
1
10
98.6
20
-11.4038109536208
30
0
41
1
10
98.7016706350396
20
-11.0506490475261
30
0
41
1
10
98.8033412700792
20
-10.6379638963801
30
0
41
1
10
99.0066825401583
20
-9.70602239760061
30
0
41
1
10
99.1083531751977
20
-9.18683742659104
30
0
41
1
10
99.3116944452769
20
-8.06453634873503
30
0
41
1
10
99.4133650803165
20
-7.46155670680713
30
0
41
1
10
99.6167063503955
20
-6.20127875174427
30
0
41
1
10
99.7183769854351
20
-5.54413978094749
30
0
41
1
10
99.9217182555142
20
-4.2075116048739
30
0
41
1
10
100.023388890554
20
-3.52815780530213
30
0
41
1
10
100.226730160633
20
-2.17682960958297
30
0
41
1
10
100.328400795672
20
-1.50493677889182
30
0
41
1
10
100.455489089472
20
-0.684772266927837
30
0
41
1
10
100.480906748232
20
-0.521708153611911
30
0
41
1
10
100.519033236372
20
-0.278795651759396
30
0
41
1
10
100.531742065752
20
-0.198105209303634
30
0
41
1
10
100.557159724511
20
-0.0373208693742697
30
0
41
1
10
100.569868553891
20
0.0426267529683457
30
0
41
1
10
100.633412700791
20
0.44465332118881
30
0
41
1
10
100.684248018311
20
0.771058407146597
30
0
41
1
10
100.83675397087
20
1.76093409362389
30
0
41
1
10
100.93842460591
20
2.43526187780731
30
0
41
1
10
101.141765875989
20
3.78793514102489
30
0
41
1
10
101.243436511028
20
4.46619139470806
30
0
41
1
10
101.446777781108
20
5.79658750555177
30
0
41
1
10
101.548448416147
20
6.44858672840257
30
0
41
1
10
101.751789686226
20
7.69456774659795
30
0
41
1
10
101.853460321266
20
8.28839036450714
30
0
41
1
10
102.056801591345
20
9.38899731816451
30
0
41
1
10
102.158472226384
20
9.89565152665725
30
0
41
1
10
102.361813496463
20
10.8003090933981
30
0
41
1
10
102.463484131503
20
11.1982512603318
30
0
41
1
10
102.666825401582
20
11.8742851094439
30
0
41
1
10
102.768496036622
20
12.1523967867436
30
0
41
1
10
102.971837306701
20
12.588616794776
30
0
41
1
10
103.07350794174
20
12.7468078079646
30
0
41
1
10
103.276849211819
20
12.9524443626241
30
0
41
1
10
103.378519846859
20
13
30
0
41
1
10
103.480190481899
20
13
30
0
0
SPLINE
5
E0
100
AcDbEntity
8
1
62
256
6
ByLayer
370
13
48
1
60
0
100
AcDbSpline
70
4
71
3
72
80
73
76
40
0
40
0
40
0
40
0
40
0.0312499999999998
40
0.0312499999999998
40
0.0624999999999995
40
0.0624999999999995
40
0.0937499999999993
40
0.0937499999999993
40
0.124999999999999
40
0.124999999999999
40
0.156249999999999
40
0.156249999999999
40
0.187499999999999
40
0.187499999999999
40
0.218749999999998
40
0.218749999999998
40
0.249999999999998
40
0.249999999999998
40
0.281249999999998
40
0.281249999999998
40
0.312499999999997
40
0.312499999999997
40
0.343749999999997
40
0.343749999999997
40
0.351562499999997
40
0.351562499999997
40
0.355468749999997
40
0.355468749999997
40
0.359374999999997
40
0.374999999999997
40
0.374999999999997
40
0.406249999999998
40
0.406249999999998
40
0.437499999999998
40
0.437499999999998
40
0.468749999999999
40
0.468749999999999
40
0.5
40
0.5
40
0.53125
40
0.53125
40
0.562500000000001
40
0.562500000000001
40
0.593750000000002
40
0.593750000000002
40
0.625000000000002
40
0.625000000000002
40
0.656250000000003
40
0.656250000000003
40
0.687500000000004
40
0.687500000000004
40
0.703125000000004
40
0.703125000000004
40
0.707031250000004
40
0.707031250000004
40
0.710937500000004
40
0.718750000000003
40
0.718750000000003
40
0.750000000000003
40
0.750000000000003
40
0.781250000000003
40
0.781250000000003
40
0.812500000000002
40
0.812500000000002
40
0.843750000000002
40
0.843750000000002
40
0.875000000000001
40
0.875000000000001
40
0.906250000000001
40
0.906250000000001
40
0.937500000000001
40
0.937500000000001
40
0.96875
40
0.96875
40
1
40
1
40
1
40
1
41
1
10
101.99409911145
20
13
30
0
41
1
10
102.080289609815
20
13
30
0
41
1
10
102.16648010818
20
12.9658641213742
30
0
41
1
10
102.338861104912
20
12.8197053370697
30
0
41
1
10
102.425051603277
20
12.7076335990926
30
0
41
1
10
102.597432600008
20
12.3988967091977
30
0
41
1
10
102.683623098374
20
12.2021897330015
30
0
41
1
10
102.856004095105
20
11.7218786287503
30
0
41
1
10
102.94219459347
20
11.4382513844143
30
0
41
1
10
103.114575590201
20
10.7872180031811
30
0
41
1
10
103.200766088567
20
10.4198166655775
30
0
41
1
10
103.373147085298
20
9.6100810673376
30
0
41
1
10
103.459337583663
20
9.16778195628126
30
0
41
1
10
103.631718580394
20
8.2222264248615
30
0
41
1
10
103.71790907876
20
7.71902914789288
30
0
41
1
10
103.890290075491
20
6.6693350899819
30
0
41
1
10
103.976480573856
20
6.1229081233889
30
0
41
1
10
104.148861570587
20
5.00610393153752
30
0
41
1
10
104.235052068953
20
4.4357918493273
30
0
41
1
10
104.407433065684
20
3.29017504013658
30
0
41
1
10
104.49362356405
20
2.7149188163057
30
0
41
1
10
104.666004560781
20
1.57623373820726
30
0
41
1
10
104.752195059146
20
1.0128313038478
30
0
41
1
10
104.859933182103
20
0.324435354539219
30
0
41
1
10
104.881480806694
20
0.187540207309183
30
0
41
1
10
104.913802243582
20
-0.0164952503044162
30
0
41
1
10
104.924576055877
20
-0.0843690386082017
30
0
41
1
10
104.946123680469
20
-0.220818272073387
30
0
41
1
10
104.999992741947
20
-0.563001720696292
30
0
41
1
10
105.053861803425
20
-0.910238612517276
30
0
41
1
10
105.183147550974
20
-1.75099372828615
30
0
41
1
10
105.269338049339
20
-2.32144851458486
30
0
41
1
10
105.44171904607
20
-3.46726219895788
30
0
41
1
10
105.527909544436
20
-4.04258481208615
30
0
41
1
10
105.700290541167
20
-5.18024193922986
30
0
41
1
10
105.786481039532
20
-5.74251959332543
30
0
41
1
10
105.958862036263
20
-6.83473921320103
30
0
41
1
10
106.045052534629
20
-7.36461221697681
30
0
41
1
10
106.21743353136
20
-8.37314660876376
30
0
41
1
10
106.303624029725
20
-8.85174094112907
30
0
41
1
10
106.476005026457
20
-9.74141214192099
30
0
41
1
10
106.562195524822
20
-10.1524390311104
30
0
41
1
10
106.734576521553
20
-10.8950523493826
30
0
41
1
10
106.820767019919
20
-11.2266166265782
30
0
41
1
10
106.99314801665
20
-11.8038815976993
30
0
41
1
10
107.079338515015
20
-12.0495904686632
30
0
41
1
10
107.251719511746
20
-12.4544320938559
30
0
41
1
10
107.337910010112
20
-12.6135975235071
30
0
41
1
10
107.510291006843
20
-12.8497081783739
30
0
41
1
10
107.596481505208
20
-12.9266997124191
30
0
41
1
10
107.725767252756
20
-12.9866679787234
30
0
41
1
10
107.768862501939
20
-12.997429602662
30
0
41
1
10
107.822731563418
20
-13.0001313882468
30
0
41
1
10
107.833505375713
20
-13.0001370923658
30
0
41
1
10
107.855053000305
20
-12.9990795273217
30
0
41
1
10
107.887374437192
20
-12.9958819883969
30
0
41
1
10
107.919695874079
20
-12.9877585805157
30
0
41
1
10
108.027433997036
20
-12.9493414208086
30
0
41
1
10
108.113624495401
20
-12.882212445469
30
0
41
1
10
108.286005492132
20
-12.666681708361
30
0
41
1
10
108.372195990498
20
-12.5182327617657
30
0
41
1
10
108.544576987229
20
-12.1351206581523
30
0
41
1
10
108.630767485595
20
-11.9004224493129
30
0
41
1
10
108.803148482326
20
-11.3447865249347
30
0
41
1
10
108.889338980691
20
-11.0238370688333
30
0
41
1
10
109.061719977422
20
-10.3013326040801
30
0
41
1
10
109.147910475788
20
-9.89979586464597
30
0
41
1
10
109.320291472519
20
-9.0273315029753
30
0
41
1
10
109.406481970884
20
-8.55645079033104
30
0
41
1
10
109.578862967615
20
-7.56110203999572
30
0
41
1
10
109.665053465981
20
-7.03669969899244
30
0
41
1
10
109.837434462712
20
-5.95296563600766
30
0
41
1
10
109.923624961077
20
-5.39370348519555
30
0
41
1
10
110.096005957808
20
-4.25967292493439
30
0
41
1
10
110.182196456174
20
-3.68496351364658
30
0
41
1
10
110.268386954539
20
-3.11160433097714
30
0
0
SPLINE
5
E1
100
AcDbEntity
8
1
62
256
6
ByLayer
370
13
48
1
60
0
100
AcDbSpline
70
4
71
3
72
42
73
38
40
0
40
0
40
0
40
0
40
0.0625000000000009
40
0.0625000000000009
40
0.125000000000002
40
0.125000000000002
40
0.187500000000003
40
0.187500000000003
40
0.250000000000004
40
0.250000000000004
40
0.312500000000005
40
0.312500000000005
40
0.328125000000005
40
0.328125000000005
40
0.343750000000005
40
0.343750000000005
40
0.375000000000005
40
0.375000000000005
40
0.437500000000004
40
0.437500000000004
40
0.500000000000004
40
0.500000000000004
40
0.562500000000003
40
0.562500000000003
40
0.625000000000003
40
0.625000000000003
40
0.687500000000002
40
0.687500000000002
40
0.750000000000002
40
0.750000000000002
40
0.812500000000001
40
0.812500000000001
40
0.875000000000001
40
0.875000000000001
40
0.937500000000001
40
0.937500000000001
40
1
40
1
40
1
40
1
41
1
10
98.6
20
-9.29453172952461
30
0
41
1
10
98.6915691513252
20
-8.82182712484541
30
0
41
1
10
98.7831383026504
20
-8.31101126463383
30
0
41
1
10
98.9662766053008
20
-7.23268000941329
30
0
41
1
10
99.057845756626
20
-6.66525604338923
30
0
41
1
10
99.2409840592763
20
-5.49651702678528
30
0
41
1
10
99.3325532106014
20
-4.89529406394064
30
0
41
1
10
99.5156915132517
20
-3.68207123859639
30
0
41
1
10
99.607260664577
20
-3.07014361174848
30
0
41
1
10
99.7903989672274
20
-1.85639363059488
30
0
41
1
10
99.8819681185526
20
-1.25461271128969
30
0
41
1
10
99.996429557709
20
-0.519273057089634
30
0
41
1
10
100.01932184554
20
-0.373038445205253
30
0
41
1
10
100.065106421203
20
-0.0824537348763101
30
0
41
1
10
100.087998709034
20
0.0613545045653439
30
0
41
1
10
100.156675572528
20
0.496956112637548
30
0
41
1
10
100.202460148191
20
0.791155710330685
30
0
41
1
10
100.339813875178
20
1.68243529852526
30
0
41
1
10
100.431383026504
20
2.28832772884195
30
0
41
1
10
100.614521329154
20
3.50566012739847
30
0
41
1
10
100.706090480479
20
4.11705095046193
30
0
41
1
10
100.889228783129
20
5.3238329104511
30
0
41
1
10
100.980797934455
20
5.91914567510946
30
0
41
1
10
101.163936237105
20
7.07050957324196
30
0
41
1
10
101.25550538843
20
7.62646666758016
30
0
41
1
10
101.438643691081
20
8.67679214605158
30
0
41
1
10
101.530212842406
20
9.17107276985263
30
0
41
1
10
101.713351145056
20
10.0794702526162
30
0
41
1
10
101.804920296381
20
10.4935280165224
30
0
41
1
10
101.988058599032
20
11.2289419558673
30
0
41
1
10
102.079627750357
20
11.5502812328342
30
0
41
1
10
102.262766053007
20
12.0949378187314
30
0
41
1
10
102.354335204332
20
12.3182800123515
30
0
41
1
10
102.537473506983
20
12.6687045725316
30
0
41
1
10
102.629042658308
20
12.7958411430041
30
0
41
1
10
102.812180960958
20
12.9614559276626
30
0
41
1
10
102.903750112283
20
13
30
0
41
1
10
102.995319263609
20
13
30
0
0
SPLINE
5
E2
100
AcDbEntity
8
1
62
256
6
ByLayer
370
13
48
1
60
0
100
AcDbSpline
70
4
71
3
72
86
73
82
40
0
40
0
40
0
40
0
40
0.0312499999999996
40
0.0312499999999996
40
0.0624999999999991
40
0.0624999999999991
40
0.0937499999999987
40
0.0937499999999987
40
0.124999999999998
40
0.124999999999998
40
0.156249999999998
40
0.156249999999998
40
0.187499999999997
40
0.187499999999997
40
0.218749999999997
40
0.218749999999997
40
0.249999999999996
40
0.249999999999996
40
0.281249999999996
40
0.281249999999996
40
0.312499999999996
40
0.312499999999996
40
0.328124999999995
40
0.328124999999995
40
0.332031249999995
40
0.332031249999995
40
0.335937499999995
40
0.335937499999995
40
0.343749999999995
40
0.343749999999995
40
0.374999999999995
40
0.374999999999995
40
0.406249999999994
40
0.406249999999994
40
0.437499999999993
40
0.437499999999993
40
0.468749999999993
40
0.468749999999993
40
0.499999999999992
40
0.499999999999992
40
0.531249999999991
40
0.531249999999991
40
0.56249999999999
40
0.56249999999999
40
0.59374999999999
40
0.59374999999999
40
0.624999999999989
40
0.624999999999989
40
0.656249999999988
40
0.656249999999988
40
0.664062499999988
40
0.664062499999988
40
0.667968749999988
40
0.667968749999988
40
0.671874999999988
40
0.687499999999989
40
0.687499999999989
40
0.71874999999999
40
0.71874999999999
40
0.749999999999991
40
0.749999999999991
40
0.781249999999992
40
0.781249999999992
40
0.812499999999993
40
0.812499999999993
40
0.843749999999994
40
0.843749999999994
40
0.874999999999995
40
0.874999999999995
40
0.906249999999996
40
0.906249999999996
40
0.937499999999998
40
0.937499999999998
40
0.968749999999999
40
0.968749999999999
40
0.984374999999999
40
0.984374999999999
40
0.9921875
40
0.99609375
40
0.99609375
40
1
40
1
40
1
40
1
41
1
10
101.50922789316
20
13
30
0
41
1
10
101.600469133382
20
13
30
0
41
1
10
101.691710373605
20
12.9617324193296
30
0
41
1
10
101.87419285405
20
12.7973404664991
30
0
41
1
10
101.965434094273
20
12.6711513911183
30
0
41
1
10
102.147916574718
20
12.3233477322218
30
0
41
1
10
102.239157814941
20
12.1016797571772
30
0
41
1
10
102.421640295387
20
11.561059405315
30
0
41
1
10
102.512881535609
20
11.2420821912244
30
0
41
1
10
102.695364016055
20
10.5119334446306
30
0
41
1
10
102.786605256277
20
10.100777885475
30
0
41
1
10
102.969087736723
20
9.19848323095536
30
0
41
1
10
103.060328976946
20
8.70740152210209
30
0
41
1
10
103.242811457391
20
7.66347438345875
30
0
41
1
10
103.334052697614
20
7.11071477172732
30
0
41
1
10
103.516535178059
20
5.96545031464569
30
0
41
1
10
103.607776418282
20
5.37303797435666
30
0
41
1
10
103.790258898727
20
4.17152172508492
30
0
41
1
10
103.88150013895
20
3.56249547718124
30
0
41
1
10
104.063982619395
20
2.3492088494173
30
0
41
1
10
104.155223859618
20
1.74499776158339
30
0
41
1
10
104.292085719952
20
0.855691188514413
30
0
41
1
10
104.337706340063
20
0.56205851704388
30
0
41
1
10
104.394732115203
20
0.199653706130732
30
0
41
1
10
104.40613727023
20
0.127403833241743
30
0
41
1
10
104.428947580286
20
-0.0166082847782434
30
0
41
1
10
104.440352735314
20
-0.0884550279791654
30
0
41
1
10
104.474568200397
20
-0.305176078611225
30
0
41
1
10
104.497378510453
20
-0.450608126836329
30
0
41
1
10
104.611430060731
20
-1.18199342503399
30
0
41
1
10
104.702671300954
20
-1.7807964980631
30
0
41
1
10
104.8851537814
20
-2.98932393523182
30
0
41
1
10
104.976395021622
20
-3.59900897212833
30
0
41
1
10
105.158877502068
20
-4.80884928742748
30
0
41
1
10
105.25011874229
20
-5.40893486720088
30
0
41
1
10
105.432601222736
20
-6.57680472548543
30
0
41
1
10
105.523842462959
20
-7.14449910323529
30
0
41
1
10
105.706324943404
20
-8.22493900120071
30
0
41
1
10
105.797566183627
20
-8.73759407940511
30
0
41
1
10
105.980048664072
20
-9.68822028732873
30
0
41
1
10
106.071289904295
20
-10.1261231324281
30
0
41
1
10
106.25377238474
20
-10.9128896462001
30
0
41
1
10
106.345013624963
20
-11.2617237306044
30
0
41
1
10
106.527496105408
20
-11.8628994323382
30
0
41
1
10
106.618737345631
20
-12.1152539420228
30
0
41
1
10
106.801219826077
20
-12.5231706639882
30
0
41
1
10
106.892461066299
20
-12.6787790735544
30
0
41
1
10
107.074943546745
20
-12.8991250890693
30
0
41
1
10
107.166184786967
20
-12.9639256965415
30
0
41
1
10
107.280236337246
20
-12.9946556827063
30
0
41
1
10
107.303046647302
20
-12.9982964192228
30
0
41
1
10
107.337262112385
20
-13.0001423343339
30
0
41
1
10
107.348667267413
20
-13.0001581674209
30
0
41
1
10
107.371477577468
20
-12.9989918670445
30
0
41
1
10
107.428503352608
20
-12.9930670903133
30
0
41
1
10
107.485529127747
20
-12.971777983626
30
0
41
1
10
107.622390988081
20
-12.8890199609245
30
0
41
1
10
107.713632228304
20
-12.7914901499173
30
0
41
1
10
107.896114708749
20
-12.5028474286191
30
0
41
1
10
107.987355948972
20
-12.311675689453
30
0
41
1
10
108.169838429417
20
-11.8319241371857
30
0
41
1
10
108.26107966964
20
-11.5433088059957
30
0
41
1
10
108.443562150085
20
-10.8715006098784
30
0
41
1
10
108.534803390308
20
-10.4883101835352
30
0
41
1
10
108.717285870753
20
-9.63738440328206
30
0
41
1
10
108.808527110976
20
-9.16969421787616
30
0
41
1
10
108.991009591421
20
-8.1662953262317
30
0
41
1
10
109.082250831644
20
-7.63066559538453
30
0
41
1
10
109.26473331209
20
-6.51249781692295
30
0
41
1
10
109.355974552312
20
-5.93005269161514
30
0
41
1
10
109.538457032758
20
-4.74128551425545
30
0
41
1
10
109.62969827298
20
-4.1350477306795
30
0
41
1
10
109.812180753426
20
-2.92090430116269
30
0
41
1
10
109.903421993649
20
-2.31305765849893
30
0
41
1
10
110.040283853983
20
-1.41442326644503
30
0
41
1
10
110.085904474094
20
-1.11703862108092
30
0
41
1
10
110.154335404261
20
-0.675696018056215
30
0
41
1
10
110.188550869344
20
-0.456205013547219
30
0
41
1
10
110.222766334428
20
-0.238734151549721
30
0
41
1
10
110.245576644484
20
-0.0942280940634532
30
0
41
1
10
110.256981799511
20
-0.0223612142474678
30
0
41
1
10
110.268386954539
20
0.049631821540828
30
0
0
SPLINE
5
E3
100
AcDbEntity
8
1
62
256
6
ByLayer
370
13
48
1
60
0
100
AcDbSpline
70
4
71
3
72
43
73
39
40
0
40
0
40
0
40
0
40
0.0625
40
0.0625
40
0.125
40
0.125
40
0.1875
40
0.1875
40
0.25
40
0.25
40
0.2578125
40
0.2578125
40
0.265625
40
0.281250000000001
40
0.281250000000001
40
0.312500000000001
40
0.312500000000001
40
0.375000000000001
40
0.375000000000001
40
0.437500000000001
40
0.437500000000001
40
0.500000000000001
40
0.500000000000001
40
0.562500000000001
40
0.562500000000001
40
0.625000000000001
40
0.625000000000001
40
0.687500000000001
40
0.687500000000001
40
0.75
40
0.75
40
0.8125
40
0.8125
40
0.875
40
0.875
40
0.9375
40
0.9375
40
1
40
1
40
1
40
1
41
1
10
98.6
20
-6.48984005981467
30
0
41
1
10
98.6814676676108
20
-5.97756385667847
30
0
41
1
10
98.7629353352216
20
-5.44977147458377
30
0
41
1
10
98.9258706704433
20
-4.37944843353367
30
0
41
1
10
99.0073383380541
20
-3.83696295141832
30
0
41
1
10
99.1702736732757
20
-2.75275477733231
30
0
41
1
10
99.2517413408865
20
-2.2110633792355
30
0
41
1
10
99.4146766761081
20
-1.14187784911974
30
0
41
1
10
99.4961443437189
20
-0.614399012930704
30
0
41
1
10
99.587795469781
20
-0.0349702774659306
30
0
41
1
10
99.5979789282324
20
0.0291142228007573
30
0
41
1
10
99.6183458451351
20
0.157852775134188
30
0
41
1
10
99.648896220489
20
0.351538269234538
30
0
41
1
10
99.6794465958432
20
0.546876060577688
30
0
41
1
10
99.7405473465513
20
0.939523085554441
30
0
41
1
10
99.7812811803567
20
1.20392202210229
30
0
41
1
10
99.903482681773
20
2.00296046232413
30
0
41
1
10
99.9849503493836
20
2.5435205599774
30
0
41
1
10
100.147885684605
20
3.62732803253726
30
0
41
1
10
100.229353352216
20
4.17054614799466
30
0
41
1
10
100.392288687438
20
5.24440711433587
30
0
41
1
10
100.473756355048
20
5.77500630030906
30
0
41
1
10
100.63669169027
20
6.80728348087516
30
0
41
1
10
100.718159357881
20
7.30890938527239
30
0
41
1
10
100.881094693102
20
8.26727457272659
30
0
41
1
10
100.962562360713
20
8.72396282944703
30
0
41
1
10
101.125497695935
20
9.57845383602978
30
0
41
1
10
101.206965363546
20
9.97621695859411
30
0
41
1
10
101.369900698767
20
10.7022244837398
30
0
41
1
10
101.451368366378
20
11.0304484293532
30
0
41
1
10
101.6143037016
20
11.6110375272052
30
0
41
1
10
101.69577136921
20
11.8634040679178
30
0
41
1
10
101.858706704432
20
12.2905223494282
30
0
41
1
10
101.940174372043
20
12.4652944606162
30
0
41
1
10
102.103109707264
20
12.7397096827896
30
0
41
1
10
102.184577374875
20
12.8393854053197
30
0
41
1
10
102.347512710097
20
12.9695121001154
30
0
41
1
10
102.428980377708
20
13
30
0
41
1
10
102.510448045318
20
13
30
0
0
SPLINE
5
E4
100
AcDbEntity
8
1
62
256
6
ByLayer
370
13
48
1
60
0
100
AcDbSpline
70
4
71
3
72
87
73
83
40
0
40
0
40
0
40
0
40
0.0312500000000014
40
0.0312500000000014
40
0.0625000000000028
40
0.0625000000000028
40
0.0937500000000042
40
0.0937500000000042
40
0.125000000000006
40
0.125000000000006
40
0.156250000000007
40
0.156250000000007
40
0.187500000000008
40
0.187500000000008
40
0.21875000000001
40
0.21875000000001
40
0.250000000000011
40
0.250000000000011
40
0.281250000000012
40
0.281250000000012
40
0.312500000000014
40
0.312500000000014
40
0.316406250000014
40
0.316406250000014
40
0.320312500000014
40
0.328125000000014
40
0.328125000000014
40
0.343750000000014
40
0.343750000000014
40
0.375000000000014
40
0.375000000000014
40
0.406250000000015
40
0.406250000000015
40
0.437500000000015
40
0.437500000000015
40
0.468750000000016
40
0.468750000000016
40
0.500000000000016
40
0.500000000000016
40
0.531250000000017
40
0.531250000000017
40
0.562500000000017
40
0.562500000000017
40
0.593750000000018
40
0.593750000000018
40
0.625000000000018
40
0.625000000000018
40
0.628906250000018
40
0.628906250000018
40
0.632812500000018
40
0.632812500000018
40
0.640625000000017
40
0.640625000000017
40
0.656250000000017
40
0.656250000000017
40
0.687500000000015
40
0.687500000000015
40
0.718750000000013
40
0.718750000000013
40
0.750000000000012
40
0.750000000000012
40
0.781250000000011
40
0.781250000000011
40
0.812500000000009
40
0.812500000000009
40
0.843750000000008
40
0.843750000000008
40
0.875000000000006
40
0.875000000000006
40
0.906250000000004
40
0.906250000000004
40
0.937500000000003
40
0.937500000000003
40
0.945312500000003
40
0.945312500000003
40
0.949218750000002
40
0.949218750000002
40
0.953125000000002
40
0.953125000000002
40
0.968750000000001
40
0.968750000000001
40
1
40
1
40
1
40
1
41
1
10
101.024356674869
20
13
30
0
41
1
10
101.120648656949
20
13
30
0
41
1
10
101.216940639029
20
12.9573619258489
30
0
41
1
10
101.409524603189
20
12.7736038547842
30
0
41
1
10
101.505816585269
20
12.6323995041953
30
0
41
1
10
101.698400549429
20
12.243081824826
30
0
41
1
10
101.794692531509
20
11.9949017825894
30
0
41
1
10
101.987276495668
20
11.3905035107535
30
0
41
1
10
102.083568477748
20
11.0342609290096
30
0
41
1
10
102.276152441908
20
10.2213648502301
30
0
41
1
10
102.372444423988
20
9.76474483062105
30
0
41
1
10
102.565028388148
20
8.76738546380281
30
0
41
1
10
102.661320370228
20
8.22673380277789
30
0
41
1
10
102.853904334387
20
7.08441437603489
30
0
41
1
10
102.950196316467
20
6.48286510172861
30
0
41
1
10
103.142780280627
20
5.2454662923362
30
0
41
1
10
103.239072262707
20
4.60973313033313
30
0
41
1
10
103.431656226867
20
3.33064267457488
30
0
41
1
10
103.527948208947
20
2.68737188834353
30
0
41
1
10
103.720532173106
20
1.4167029319488
30
0
41
1
10
103.816824155186
20
0.789348633612292
30
0
41
1
10
103.925152635026
20
0.102812822436135
30
0
41
1
10
103.937189132786
20
0.0269549432483132
30
0
41
1
10
103.961262128306
20
-0.124998698018857
30
0
41
1
10
103.997371621586
20
-0.353744711259992
30
0
41
1
10
104.033481114866
20
-0.584805262356781
30
0
41
1
10
104.105700101426
20
-1.04962806306787
30
0
41
1
10
104.153846092466
20
-1.36312314136055
30
0
41
1
10
104.298284065586
20
-2.31096872899857
30
0
41
1
10
104.394576047666
20
-2.95282351171315
30
0
41
1
10
104.587160011826
20
-4.23400788793214
30
0
41
1
10
104.683451993906
20
-4.87325886840466
30
0
41
1
10
104.876035958065
20
-6.12303323143573
30
0
41
1
10
104.972327940145
20
-6.73344429964755
30
0
41
1
10
105.164911904305
20
-7.8985631116004
30
0
41
1
10
105.261203886385
20
-8.4531501438218
30
0
41
1
10
105.453787850545
20
-9.48247864959114
30
0
41
1
10
105.550079832625
20
-9.95712404721189
30
0
41
1
10
105.742663796784
20
-10.8086411803784
30
0
41
1
10
105.838955778864
20
-11.1854678307613
30
0
41
1
10
106.031539743024
20
-11.8318393418463
30
0
41
1
10
106.127831725104
20
-12.1013979297978
30
0
41
1
10
106.320415689264
20
-12.5326252486109
30
0
41
1
10
106.416707671344
20
-12.6943542167686
30
0
41
1
10
106.609291635503
20
-12.9170410360366
30
0
41
1
10
106.705583617583
20
-12.9780817610945
30
0
41
1
10
106.813912097423
20
-12.997157079864
30
0
41
1
10
106.825948595183
20
-12.9985902570564
30
0
41
1
10
106.850021590703
20
-13.0001122167451
30
0
41
1
10
106.862058088463
20
-13.0002040504368
30
0
41
1
10
106.898167581743
20
-12.9984810289716
30
0
41
1
10
106.922240577263
20
-12.9946511616227
30
0
41
1
10
106.994459563823
20
-12.9747825093449
30
0
41
1
10
107.042605554863
20
-12.9503569902621
30
0
41
1
10
107.187043527983
20
-12.8410938853905
30
0
41
1
10
107.283335510063
20
-12.7200828600979
30
0
41
1
10
107.475919474222
20
-12.372295945306
30
0
41
1
10
107.572211456302
20
-12.1454478558368
30
0
41
1
10
107.764795420462
20
-11.5832716516961
30
0
41
1
10
107.861087402542
20
-11.2479091893385
30
0
41
1
10
108.053671366702
20
-10.4745654686313
30
0
41
1
10
108.149963348782
20
-10.0366059437178
30
0
41
1
10
108.342547312942
20
-9.07275249942953
30
0
41
1
10
108.438839295021
20
-8.54693694092251
30
0
41
1
10
108.631423259181
20
-7.42935884052878
30
0
41
1
10
108.727715241261
20
-6.83771125294768
30
0
41
1
10
108.920299205421
20
-5.61476452088729
30
0
41
1
10
109.016591187501
20
-4.9835847080964
30
0
41
1
10
109.209175151661
20
-3.70853309082926
30
0
41
1
10
109.30546713374
20
-3.06475519657485
30
0
41
1
10
109.4980510979
20
-1.78882607850181
30
0
41
1
10
109.59434307998
20
-1.15672730134128
30
0
41
1
10
109.71470805758
20
-0.386017854559327
30
0
41
1
10
109.7387810531
20
-0.232833113286603
30
0
41
1
10
109.77489054638
20
-0.0046766641730471
30
0
41
1
10
109.78692704414
20
0.0710833002134734
30
0
41
1
10
109.81100003966
20
0.223499699422149
30
0
41
1
10
109.82303653742
20
0.299973517235713
30
0
41
1
10
109.88321902622
20
0.683594381865987
30
0
41
1
10
109.93136501726
20
0.994510818363324
30
0
41
1
10
110.07580299038
20
1.93604915546518
30
0
41
1
10
110.17209497246
20
2.57561449048103
30
0
41
1
10
110.268386954539
20
3.21630718096398
30
0
0
SPLINE
5
E5
100
AcDbEntity
8
1
62
256
6
ByLayer
370
13
48
1
60
0
100
AcDbSpline
70
4
71
3
72
42
73
38
40
0
40
0
40
0
40
0
40
0.0625000000000017
40
0.0625000000000017
40
0.125000000000003
40
0.125000000000003
40
0.140625000000003
40
0.140625000000003
40
0.156250000000004
40
0.156250000000004
40
0.187500000000003
40
0.187500000000003
40
0.250000000000003
40
0.250000000000003
40
0.312500000000003
40
0.312500000000003
40
0.375000000000003
40
0.375000000000003
40
0.437500000000003
40
0.437500000000003
40
0.500000000000003
40
0.500000000000003
40
0.562500000000002
40
0.562500000000002
40
0.625000000000002
40
0.625000000000002
40
0.687500000000002
40
0.687500000000002
40
0.750000000000001
40
0.750000000000001
40
0.812500000000001
40
0.812500000000001
40
0.875000000000001
40
0.875000000000001
40
0.9375
40
0.9375
40
1
40
1
40
1
40
1
41
1
10
98.6
20
-3.32104203274713
30
0
41
1
10
98.6713661838965
20
-2.8461483078938
30
0
41
1
10
98.7427323677929
20
-2.37146238738927
30
0
41
1
10
98.8854647355857
20
-1.43162623138818
30
0
41
1
10
98.9568309194822
20
-0.96648501930423
30
0
41
1
10
99.0460386493527
20
-0.395744747858203
30
0
41
1
10
99.0638801953269
20
-0.282126839804221
30
0
41
1
10
99.0995632872751
20
-0.0560522982025873
30
0
41
1
10
99.1174048332491
20
0.0561024544837494
30
0
41
1
10
99.1709294711715
20
0.39521478367115
30
0
41
1
10
99.2066125631197
20
0.623615619345031
30
0
41
1
10
99.3136618389644
20
1.31454301150831
30
0
41
1
10
99.3850280228608
20
1.7828456850095
30
0
41
1
10
99.5277603906536
20
2.7268578880545
30
0
41
1
10
99.59912657455
20
3.20255657973749
30
0
41
1
10
99.7418589423428
20
4.1518758902584
30
0
41
1
10
99.8132251262393
20
4.62547848083119
30
0
41
1
10
99.9559574940322
20
5.56003887880846
30
0
41
1
10
100.027323677929
20
6.02097271278041
30
0
41
1
10
100.170056045721
20
6.91918355705045
30
0
41
1
10
100.241422229618
20
7.35643342777465
30
0
41
1
10
100.384154597411
20
8.19659790868047
30
0
41
1
10
100.455520781307
20
8.59948610880386
30
0
41
1
10
100.5982531491
20
9.36140157363283
30
0
41
1
10
100.669619332997
20
9.72040729538014
30
0
41
1
10
100.812351700789
20
10.3869200243639
30
0
41
1
10
100.883717884686
20
10.6944136725394
30
0
41
1
10
101.026450252479
20
11.2526875451808
30
0
41
1
10
101.097816436375
20
11.5034642369539
30
0
41
1
10
101.240548804168
20
11.945770462907
30
0
41
1
10
101.311914988064
20
12.1373059396466
30
0
41
1
10
101.454647355857
20
12.461237607647
30
0
41
1
10
101.526013539754
20
12.5936471709137
30
0
41
1
10
101.668745907546
20
12.8017774987479
30
0
41
1
10
101.740112091443
20
12.8775160589196
30
0
41
1
10
101.882844459236
20
12.976617759948
30
0
41
1
10
101.954210643132
20
13
30
0
41
1
10
102.025576827029
20
13
30
0
0
SPLINE
5
E6
100
AcDbEntity
8
1
62
256
6
ByLayer
370
13
48
1
60
0
100
AcDbSpline
70
4
71
3
72
87
73
83
40
0
40
0
40
0
40
0
40
0.031250000000001
40
0.031250000000001
40
0.062500000000002
40
0.062500000000002
40
0.093750000000003
40
0.093750000000003
40
0.125000000000004
40
0.125000000000004
40
0.156250000000005
40
0.156250000000005
40
0.187500000000006
40
0.187500000000006
40
0.218750000000007
40
0.218750000000007
40
0.250000000000008
40
0.250000000000008
40
0.281250000000009
40
0.281250000000009
40
0.296875000000009
40
0.296875000000009
40
0.300781250000009
40
0.300781250000009
40
0.304687500000009
40
0.312500000000009
40
0.312500000000009
40
0.34375000000001
40
0.34375000000001
40
0.37500000000001
40
0.37500000000001
40
0.40625000000001
40
0.40625000000001
40
0.43750000000001
40
0.43750000000001
40
0.46875000000001
40
0.46875000000001
40
0.500000000000011
40
0.500000000000011
40
0.531250000000011
40
0.531250000000011
40
0.562500000000011
40
0.562500000000011
40
0.593750000000011
40
0.593750000000011
40
0.597656250000011
40
0.597656250000011
40
0.601562500000011
40
0.601562500000011
40
0.609375000000011
40
0.609375000000011
40
0.62500000000001
40
0.62500000000001
40
0.65625000000001
40
0.65625000000001
40
0.687500000000009
40
0.687500000000009
40
0.718750000000008
40
0.718750000000008
40
0.750000000000007
40
0.750000000000007
40
0.781250000000006
40
0.781250000000006
40
0.812500000000006
40
0.812500000000006
40
0.843750000000005
40
0.843750000000005
40
0.875000000000004
40
0.875000000000004
40
0.890625000000003
40
0.890625000000003
40
0.898437500000003
40
0.898437500000003
40
0.902343750000003
40
0.902343750000003
40
0.906250000000003
40
0.906250000000003
40
0.937500000000002
40
0.937500000000002
40
0.968750000000001
40
0.968750000000001
40
1
40
1
40
1
40
1
41
1
10
100.539485456579
20
13
30
0
41
1
10
100.640828180517
20
13
30
0
41
1
10
100.742170904454
20
12.9527519534753
30
0
41
1
10
100.944856352328
20
12.7484864565068
30
0
41
1
10
101.046199076265
20
12.5913606350805
30
0
41
1
10
101.248884524139
20
12.158079531803
30
0
41
1
10
101.350227248076
20
11.881842588625
30
0
41
1
10
101.55291269595
20
11.2102836509847
30
0
41
1
10
101.654255419888
20
10.8149412500704
30
0
41
1
10
101.856940867761
20
9.91597821494884
30
0
41
1
10
101.958283591699
20
9.41241677088698
30
0
41
1
10
102.160969039573
20
8.31814891934511
30
0
41
1
10
102.26231176351
20
7.72756973104967
30
0
41
1
10
102.464997211384
20
6.48785377467485
30
0
41
1
10
102.566339935321
20
5.83887355486064
30
0
41
1
10
102.769025383195
20
4.51397210726907
30
0
41
1
10
102.870368107132
20
3.83819012512277
30
0
41
1
10
103.073053555006
20
2.48971776622412
30
0
41
1
10
103.174396278944
20
1.81711669702727
30
0
41
1
10
103.326410364849
20
0.829219871726224
30
0
41
1
10
103.377081726818
20
0.503373582460455
30
0
41
1
10
103.440420929279
20
0.101921252066148
30
0
41
1
10
103.453088769771
20
0.022110120813835
30
0
41
1
10
103.478424450755
20
-0.137858251673663
30
0
41
1
10
103.516427972231
20
-0.378712254637719
30
0
41
1
10
103.554431493708
20
-0.62211623623341
30
0
41
1
10
103.681109898629
20
-1.43837796254601
30
0
41
1
10
103.782452622566
20
-2.10737478130281
30
0
41
1
10
103.98513807044
20
-3.45381498345648
30
0
41
1
10
104.086480794377
20
-4.13118021456222
30
0
41
1
10
104.289166242252
20
-5.46517878468762
30
0
41
1
10
104.390508966189
20
-6.12168053645388
30
0
41
1
10
104.593194414063
20
-7.38234988569212
30
0
41
1
10
104.694537138
20
-7.98636079748189
30
0
41
1
10
104.897222585874
20
-9.1124798809893
30
0
41
1
10
104.998565309811
20
-9.63445172439486
30
0
41
1
10
105.201250757685
20
-10.5735370149895
30
0
41
1
10
105.302593481622
20
-10.9905764954225
30
0
41
1
10
105.505278929497
20
-11.7067559617442
30
0
41
1
10
105.606621653434
20
-12.0059018713565
30
0
41
1
10
105.809307101308
20
-12.4842261101362
30
0
41
1
10
105.910649825245
20
-12.6634769096666
30
0
41
1
10
106.113335273119
20
-12.9096621896107
30
0
41
1
10
106.214677997056
20
-12.9767027549176
30
0
41
1
10
106.328688561485
20
-12.9971328746779
30
0
41
1
10
106.341356401977
20
-12.9986422770494
30
0
41
1
10
106.366692082962
20
-13.0001727455975
30
0
41
1
10
106.379359923454
20
-13.0001978748219
30
0
41
1
10
106.41736344493
20
-12.9980555308073
30
0
41
1
10
106.442699125915
20
-12.9936524866202
30
0
41
1
10
106.518706168867
20
-12.9711291017858
30
0
41
1
10
106.569377530836
20
-12.9436848441542
30
0
41
1
10
106.721391616741
20
-12.8212437848361
30
0
41
1
10
106.822734340679
20
-12.6859017804237
30
0
41
1
10
107.025419788553
20
-12.2973164452928
30
0
41
1
10
107.12676251249
20
-12.0439835622459
30
0
41
1
10
107.329447960364
20
-11.4174326574008
30
0
41
1
10
107.430790684301
20
-11.0441804512857
30
0
41
1
10
107.633476132175
20
-10.1865044494508
30
0
41
1
10
107.734818856112
20
-9.70212464333801
30
0
41
1
10
107.937504303987
20
-8.64152332874505
30
0
41
1
10
108.038847027924
20
-8.06541847670181
30
0
41
1
10
108.241532475798
20
-6.84885058227795
30
0
41
1
10
108.342875199735
20
-6.20854220379317
30
0
41
1
10
108.545560647609
20
-4.89497813834305
30
0
41
1
10
108.646903371546
20
-4.22186815106369
30
0
41
1
10
108.84958881942
20
-2.8733517927044
30
0
41
1
10
108.950931543357
20
-2.19804559868911
30
0
41
1
10
109.102945629263
20
-1.2029240170186
30
0
41
1
10
109.153616991232
20
-0.874144779339474
30
0
41
1
10
109.229624034184
20
-0.38734059959026
30
0
41
1
10
109.254959715168
20
-0.22612992205552
30
0
41
1
10
109.292963236645
20
0.0138845411811133
30
0
41
1
10
109.305631077137
20
0.0936656239619538
30
0
41
1
10
109.330966758122
20
0.254206432987956
30
0
41
1
10
109.343634598614
20
0.334769129370017
30
0
41
1
10
109.457645163043
20
1.06230281771988
30
0
41
1
10
109.55898788698
20
1.72684147955357
30
0
41
1
10
109.761673334854
20
3.06933468469552
30
0
41
1
10
109.863016058791
20
3.74722234989065
30
0
41
1
10
110.065701506665
20
5.08810526827642
30
0
41
1
10
110.167044230602
20
5.75097763261584
30
0
41
1
10
110.268386954539
20
6.39067442316664
30
0
0
SPLINE
5
E7
100
AcDbEntity
8
1
62
256
6
ByLayer
370
13
48
1
60
0
100
AcDbSpline
70
4
71
3
72
41
73
37
40
0
40
0
40
0
40
0
40
0.0156249999999995
40
0.0156249999999995
40
0.0312499999999991
40
0.0624999999999989
40
0.0624999999999989
40
0.124999999999999
40
0.124999999999999
40
0.187499999999999
40
0.187499999999999
40
0.249999999999999
40
0.249999999999999
40
0.312499999999999
40
0.312499999999999
40
0.375
40
0.375
40
0.4375
40
0.4375
40
0.5
40
0.5
40
0.5625
40
0.5625
40
0.625
40
0.625
40
0.6875
40
0.6875
40
0.75
40
0.75
40
0.8125
40
0.8125
40
0.875
40
0.875
40
0.9375
40
0.9375
40
1
40
1
40
1
40
1
41
1
10
98.6
20
-0.149141714932114
30
0
41
1
10
98.6153161750456
20
-0.0521630119924339
30
0
41
1
10
98.6306323500911
20
0.0441513691427531
30
0
41
1
10
98.6612647001822
20
0.238061239802306
30
0
41
1
10
98.7072132253188
20
0.530217526094901
30
0
41
1
10
98.7531617504552
20
0.825970237768416
30
0
41
1
10
98.8450588007282
20
1.42144594051473
30
0
41
1
10
98.9063235009103
20
1.82375106760827
30
0
41
1
10
99.0288529012744
20
2.63391164553315
30
0
41
1
10
99.0901176014565
20
3.04176210770439
30
0
41
1
10
99.2126470018206
20
3.85709040793165
30
0
41
1
10
99.2739117020026
20
4.26456035139782
30
0
41
1
10
99.3964411023668
20
5.07257167479082
30
0
41
1
10
99.4577058025488
20
5.47310259434778
30
0
41
1
10
99.5802352029129
20
6.2603240513626
30
0
41
1
10
99.6414999030949
20
6.64700236847838
30
0
41
1
10
99.764029303459
20
7.3995947298049
30
0
41
1
10
99.8252940036411
20
7.76549599967476
30
0
41
1
10
99.9478234040052
20
8.46997825811306
30
0
41
1
10
100.009088104187
20
8.80854734667111
30
0
41
1
10
100.131617504551
20
9.45255291003588
30
0
41
1
10
100.192882204733
20
9.75797975228988
30
0
41
1
10
100.315411605097
20
10.3309604242807
30
0
41
1
10
100.37667630528
20
10.5985079759504
30
0
41
1
10
100.499205705644
20
11.0923040923629
30
0
41
1
10
100.560470405826
20
11.318550307926
30
0
41
1
10
100.68299980619
20
11.7277632968235
30
0
41
1
10
100.744264506372
20
11.9107316280703
30
0
41
1
10
100.866793906736
20
12.2328651309155
30
0
41
1
10
100.928058606918
20
12.3720352054465
30
0
41
1
10
101.050588007282
20
12.6074056597691
30
0
41
1
10
101.111852707464
20
12.7036133513271
30
0
41
1
10
101.234382107828
20
12.8550625570633
30
0
41
1
10
101.29564680801
20
12.9103126989361
30
0
41
1
10
101.418176208375
20
12.9827769706495
30
0
41
1
10
101.479440908556
20
13
30
0
41
1
10
101.540705608738
20
13
30
0
0
SPLINE
5
E8
100
AcDbEntity
8
1
62
256
6
ByLayer
370
13
48
1
60
0
100
AcDbSpline
70
4
71
3
72
118
73
114
40
0
40
0
40
0
40
0
40
0.0312499999999984
40
0.0312499999999984
40
0.0624999999999967
40
0.0624999999999967
40
0.0781249999999959
40
0.0781249999999959
40
0.0937499999999951
40
0.0937499999999951
40
0.109374999999994
40
0.109374999999994
40
0.124999999999994
40
0.124999999999994
40
0.140624999999993
40
0.140624999999993
40
0.156249999999992
40
0.156249999999992
40
0.171874999999991
40
0.171874999999991
40
0.18749999999999
40
0.18749999999999
40
0.203124999999989
40
0.203124999999989
40
0.218749999999989
40
0.218749999999989
40
0.249999999999987
40
0.249999999999987
40
0.281249999999986
40
0.281249999999986
40
0.285156249999985
40
0.285156249999985
40
0.289062499999985
40
0.289062499999985
40
0.296874999999985
40
0.296874999999985
40
0.312499999999985
40
0.312499999999985
40
0.343749999999985
40
0.343749999999985
40
0.374999999999985
40
0.374999999999985
40
0.390624999999985
40
0.390624999999985
40
0.406249999999985
40
0.406249999999985
40
0.421874999999985
40
0.421874999999985
40
0.437499999999985
40
0.437499999999985
40
0.453124999999985
40
0.453124999999985
40
0.468749999999985
40
0.468749999999985
40
0.484374999999985
40
0.484374999999985
40
0.499999999999985
40
0.499999999999985
40
0.531249999999985
40
0.531249999999985
40
0.562499999999985
40
0.562499999999985
40
0.570312499999985
40
0.570312499999985
40
0.574218749999985
40
0.574218749999985
40
0.578124999999985
40
0.578124999999985
40
0.593749999999986
40
0.593749999999986
40
0.624999999999988
40
0.624999999999988
40
0.656249999999989
40
0.656249999999989
40
0.67187499999999
40
0.67187499999999
40
0.687499999999991
40
0.687499999999991
40
0.703124999999992
40
0.703124999999992
40
0.718749999999992
40
0.718749999999992
40
0.734374999999993
40
0.734374999999993
40
0.749999999999994
40
0.749999999999994
40
0.765624999999995
40
0.765624999999995
40
0.781249999999995
40
0.781249999999995
40
0.812499999999997
40
0.812499999999997
40
0.843749999999999
40
0.843749999999999
40
0.851562499999999
40
0.851562499999999
40
0.855468749999999
40
0.855468749999999
40
0.859374999999999
40
0.859374999999999
40
0.875
40
0.875
40
0.90625
40
0.90625
40
0.9375
40
0.9375
40
0.953125
40
0.953125
40
0.96875
40
0.96875
40
0.984375
40
0.984375
40
1
40
1
40
1
40
1
41
1
10
100.054614238289
20
13
30
0
41
1
10
100.161007704084
20
13
30
0
41
1
10
100.267401169878
20
12.9479017578231
30
0
41
1
10
100.480188101466
20
12.7219795083293
30
0
41
1
10
100.586581567261
20
12.5480181207746
30
0
41
1
10
100.746171765952
20
12.1882490889296
30
0
41
1
10
100.799368498849
20
12.0519292083393
30
0
41
1
10
100.905761964644
20
11.7463042006995
30
0
41
1
10
100.958958697541
20
11.576997167765
30
0
41
1
10
101.065352163335
20
11.2059965852783
30
0
41
1
10
101.118548896232
20
11.0043026536902
30
0
41
1
10
101.224942362026
20
10.5699589052826
30
0
41
1
10
101.278139094924
20
10.3373104031405
30
0
41
1
10
101.384532560718
20
9.84330657180169
30
0
41
1
10
101.437729293615
20
9.58195424545229
30
0
41
1
10
101.544122759409
20
9.03354526520084
30
0
41
1
10
101.597319492306
20
8.74649309917396
30
0
41
1
10
101.703712958101
20
8.15032704060465
30
0
41
1
10
101.756909690998
20
7.84121874478637
30
0
41
1
10
101.863303156792
20
7.20507024296904
30
0
41
1
10
101.916499889689
20
6.87803624664625
30
0
41
1
10
102.022893355484
20
6.21047425837335
30
0
41
1
10
102.076090088381
20
5.86995254716547
30
0
41
1
10
102.182483554175
20
5.17997166056341
30
0
41
1
10
102.235680287072
20
4.83051832689873
30
0
41
1
10
102.395270485763
20
3.7754892016435
30
0
41
1
10
102.501663951558
20
3.0634406891227
30
0
41
1
10
102.714450883146
20
1.65457427609931
30
0
41
1
10
102.82084434894
20
0.957840202559538
30
0
41
1
10
102.940536997959
20
0.196971935768318
30
0
41
1
10
102.953836181183
20
0.112744492327153
30
0
41
1
10
102.980434547632
20
-0.0550431671816227
30
0
41
1
10
102.993733730856
20
-0.138993522104045
30
0
41
1
10
103.033631280529
20
-0.3921817430857
30
0
41
1
10
103.060229646978
20
-0.562247702819974
30
0
41
1
10
103.140024746323
20
-1.07575129603782
30
0
41
1
10
103.19322147922
20
-1.42251090185454
30
0
41
1
10
103.352811677912
20
-2.47133609112106
30
0
41
1
10
103.459205143706
20
-3.18215327068091
30
0
41
1
10
103.671992075295
20
-4.59610413252881
30
0
41
1
10
103.778385541089
20
-5.29909830596114
30
0
41
1
10
103.93797573978
20
-6.32086579694646
30
0
41
1
10
103.991172472677
20
-6.6559764601609
30
0
41
1
10
104.097565938472
20
-7.31072602751016
30
0
41
1
10
104.150762671369
20
-7.63035861582958
30
0
41
1
10
104.257156137163
20
-8.2498267386805
30
0
41
1
10
104.31035287006
20
-8.54965626891212
30
0
41
1
10
104.416746335854
20
-9.12558155570602
30
0
41
1
10
104.469943068752
20
-9.40167215077074
30
0
41
1
10
104.576336534546
20
-9.92674094632824
30
0
41
1
10
104.629533267443
20
-10.1757152792558
30
0
41
1
10
104.735926733237
20
-10.6438681155162
30
0
41
1
10
104.789123466134
20
-10.8630443496701
30
0
41
1
10
104.895516931929
20
-11.2697058148345
30
0
41
1
10
104.948713664826
20
-11.4571904926169
30
0
41
1
10
105.05510713062
20
-11.7994045407039
30
0
41
1
10
105.108303863517
20
-11.9541349984044
30
0
41
1
10
105.267894062209
20
-12.368830532706
30
0
41
1
10
105.374287528003
20
-12.578969257272
30
0
41
1
10
105.587074459592
20
-12.8735009842345
30
0
41
1
10
105.693467925386
20
-12.9580255320856
30
0
41
1
10
105.826459757628
20
-12.9951193580308
30
0
41
1
10
105.853058124077
20
-12.9991260666736
30
0
41
1
10
105.89295567375
20
-13.0002447071961
30
0
41
1
10
105.906254856974
20
-12.9998077885571
30
0
41
1
10
105.932853223423
20
-12.9972860522277
30
0
41
1
10
105.946152406647
20
-12.9951996506302
30
0
41
1
10
106.012648322769
20
-12.980545616463
30
0
41
1
10
106.065845055666
20
-12.9552986937566
30
0
41
1
10
106.225435254357
20
-12.8356551346583
30
0
41
1
10
106.331828720152
20
-12.6970707017964
30
0
41
1
10
106.54461565174
20
-12.2899155575948
30
0
41
1
10
106.651009117534
20
-12.0212307136446
30
0
41
1
10
106.810599316226
20
-11.5191675404274
30
0
41
1
10
106.863796049123
20
-11.335401073396
30
0
41
1
10
106.970189514917
20
-10.9360118970455
30
0
41
1
10
107.023386247814
20
-10.7203895454974
30
0
41
1
10
107.129779713608
20
-10.2590862352227
30
0
41
1
10
107.182976446506
20
-10.0134073511322
30
0
41
1
10
107.2893699123
20
-9.49458457522042
30
0
41
1
10
107.342566645197
20
-9.22144437982192
30
0
41
1
10
107.448960110991
20
-8.6510014159544
30
0
41
1
10
107.502156843889
20
-8.35370368123989
30
0
41
1
10
107.608550309683
20
-7.73882467211624
30
0
41
1
10
107.66174704258
20
-7.42124933149211
30
0
41
1
10
107.768140508374
20
-6.77010439930012
30
0
41
1
10
107.821337241271
20
-6.43654111555446
30
0
41
1
10
107.927730707066
20
-5.75793411152324
30
0
41
1
10
107.980927439963
20
-5.41289653607825
30
0
41
1
10
108.140517638654
20
-4.36738737040767
30
0
41
1
10
108.246911104448
20
-3.65668212255378
30
0
41
1
10
108.459698036037
20
-2.24194596815232
30
0
41
1
10
108.566091501831
20
-1.53802099123615
30
0
41
1
10
108.699083334074
20
-0.679705266215421
30
0
41
1
10
108.725681700523
20
-0.509102211224786
30
0
41
1
10
108.765579250195
20
-0.255051445956752
30
0
41
1
10
108.778878433419
20
-0.170676563345694
30
0
41
1
10
108.805476799868
20
-0.0025849754347576
30
0
41
1
10
108.818775983092
20
0.0811176670622729
30
0
41
1
10
108.885271899214
20
0.502363064504664
30
0
41
1
10
108.938468632111
20
0.844546007099666
30
0
41
1
10
109.098058830802
20
1.88237324809066
30
0
41
1
10
109.204452296597
20
2.58952676370572
30
0
41
1
10
109.417239228185
20
4.00546121063425
30
0
41
1
10
109.523632693979
20
4.71412342993557
30
0
41
1
10
109.683222892671
20
5.75208004929345
30
0
41
1
10
109.736419625568
20
6.09385771347004
30
0
41
1
10
109.842813091362
20
6.76445167120229
30
0
41
1
10
109.896009824259
20
7.09326170979656
30
0
41
1
10
110.002403290054
20
7.73345922873642
30
0
41
1
10
110.055600022951
20
8.04484046367349
30
0
41
1
10
110.161993488745
20
8.6460046870202
30
0
41
1
10
110.215190221642
20
8.9357819816654
30
0
41
1
10
110.268386954539
20
9.21290566373131
30
0
0
SPLINE
5
E9
100
AcDbEntity
8
1
62
256
6
ByLayer
370
13
48
1
60
0
100
AcDbSpline
70
4
71
3
72
22
73
18
40
0
40
0
40
0
40
0
40
0.125
40
0.125
40
0.25
40
0.25
40
0.375
40
0.375
40
0.5
40
0.5
40
0.625
40
0.625
40
0.75
40
0.75
40
0.875
40
0.875
40
1
40
1
40
1
40
1
41
1
10
98.6
20
3.00691393837474
30
0
41
1
10
98.7023264329354
20
3.68739400076689
30
0
41
1
10
98.8046528658707
20
4.37055018033612
30
0
41
1
10
99.0093057317415
20
5.7118619136086
30
0
41
1
10
99.1116321646768
20
6.36987410530347
30
0
41
1
10
99.3162850305475
20
7.62835852731047
30
0
41
1
10
99.4186114634828
20
8.22866627208782
30
0
41
1
10
99.6232643293536
20
9.34196482541608
30
0
41
1
10
99.7255907622889
20
9.85481956231561
30
0
41
1
10
99.9302436281596
20
10.7709030578865
30
0
41
1
10
100.032570061095
20
11.1740664911362
30
0
41
1
10
100.237222926966
20
11.8590912206536
30
0
41
1
10
100.339549359901
20
12.1409716242329
30
0
41
1
10
100.544202225772
20
12.5831001709499
30
0
41
1
10
100.646528658707
20
12.7434330556521
30
0
41
1
10
100.851181524578
20
12.9518261654708
30
0
41
1
10
100.953507957513
20
13
30
0
41
1
10
101.055834390448
20
13
30
0
0
SPLINE
5
EA
100
AcDbEntity
8
1
62
256
6
ByLayer
370
13
48
1
60
0
100
AcDbSpline
70
4
71
3
72
142
73
138
40
0
40
0
40
0
40
0
40
0.0312499999999999
40
0.0312499999999999
40
0.0468749999999998
40
0.0468749999999998
40
0.0624999999999998
40
0.0624999999999998
40
0.0781249999999998
40
0.0781249999999998
40
0.0937499999999997
40
0.0937499999999997
40
0.109375
40
0.109375
40
0.125
40
0.125
40
0.140625
40
0.140625
40
0.15625
40
0.15625
40
0.171875
40
0.171875
40
0.1875
40
0.1875
40
0.203124999999999
40
0.203124999999999
40
0.218749999999999
40
0.218749999999999
40
0.234374999999999
40
0.234374999999999
40
0.249999999999999
40
0.249999999999999
40
0.265624999999999
40
0.265624999999999
40
0.269531249999999
40
0.269531249999999
40
0.273437499999999
40
0.273437499999999
40
0.281249999999999
40
0.281249999999999
40
0.296874999999999
40
0.296874999999999
40
0.312499999999998
40
0.312499999999998
40
0.328124999999998
40
0.328124999999998
40
0.343749999999997
40
0.343749999999997
40
0.359374999999997
40
0.359374999999997
40
0.374999999999997
40
0.374999999999997
40
0.390624999999996
40
0.390624999999996
40
0.406249999999996
40
0.406249999999996
40
0.421874999999995
40
0.421874999999995
40
0.437499999999995
40
0.437499999999995
40
0.453124999999995
40
0.453124999999995
40
0.468749999999994
40
0.468749999999994
40
0.484374999999994
40
0.484374999999994
40
0.499999999999993
40
0.499999999999993
40
0.515624999999993
40
0.515624999999993
40
0.531249999999993
40
0.531249999999993
40
0.539062499999993
40
0.539062499999993
40
0.542968749999993
40
0.542968749999993
40
0.546874999999993
40
0.546874999999993
40
0.562499999999992
40
0.562499999999992
40
0.578124999999992
40
0.578124999999992
40
0.593749999999992
40
0.593749999999992
40
0.609374999999992
40
0.609374999999992
40
0.624999999999992
40
0.624999999999992
40
0.640624999999992
40
0.640624999999992
40
0.656249999999992
40
0.656249999999992
40
0.671874999999992
40
0.671874999999992
40
0.687499999999992
40
0.687499999999992
40
0.703124999999992
40
0.703124999999992
40
0.718749999999992
40
0.718749999999992
40
0.734374999999992
40
0.734374999999992
40
0.749999999999992
40
0.749999999999992
40
0.765624999999992
40
0.765624999999992
40
0.781249999999992
40
0.781249999999992
40
0.812499999999992
40
0.812499999999992
40
0.816406249999992
40
0.816406249999992
40
0.820312499999992
40
0.820312499999992
40
0.828124999999992
40
0.828124999999992
40
0.843749999999993
40
0.843749999999993
40
0.859374999999993
40
0.859374999999993
40
0.874999999999994
40
0.874999999999994
40
0.890624999999995
40
0.890624999999995
40
0.906249999999996
40
0.906249999999996
40
0.921874999999996
40
0.921874999999996
40
0.937499999999997
40
0.937499999999997
40
0.953124999999998
40
0.953124999999998
40
0.968749999999998
40
0.968749999999998
40
0.984374999999999
40
0.984374999999999
40
1
40
1
40
1
40
1
41
1
10
99.5697430199995
20
13
30
0
41
1
10
99.681187227651
20
13
30
0
41
1
10
99.7926314353024
20
12.9428105356129
30
0
41
1
10
99.9597977467795
20
12.756258536696
30
0
41
1
10
100.015519850605
20
12.6773301593363
30
0
41
1
10
100.126964058257
20
12.4843132379627
30
0
41
1
10
100.182686162083
20
12.370219846828
30
0
41
1
10
100.294130369734
20
12.1059476131001
30
0
41
1
10
100.34985247356
20
11.9557650955284
30
0
41
1
10
100.461296681211
20
11.6192764096105
30
0
41
1
10
100.517018785037
20
11.4329682655531
30
0
41
1
10
100.628462992688
20
11.0251639477398
30
0
41
1
10
100.684185096514
20
10.8036678894442
30
0
41
1
10
100.795629304166
20
10.3274264419264
30
0
41
1
10
100.851351407991
20
10.0726834308327
30
0
41
1
10
100.962795615643
20
9.53285287163646
30
0
41
1
10
101.018517719468
20
9.24776986271331
30
0
41
1
10
101.12996192712
20
8.65102576299523
30
0
41
1
10
101.185684030946
20
8.33937099494995
30
0
41
1
10
101.297128238597
20
7.69394683762576
30
0
41
1
10
101.352850342423
20
7.36018495344376
30
0
41
1
10
101.464294550074
20
6.67549708701475
30
0
41
1
10
101.5200166539
20
6.32457906367443
30
0
41
1
10
101.631460861551
20
5.6107816299403
30
0
41
1
10
101.687182965377
20
5.24790989399281
30
0
41
1
10
101.798627173029
20
4.51542259486598
30
0
41
1
10
101.854349276854
20
4.14581378435932
30
0
41
1
10
101.965793484506
20
3.40486598731144
30
0
41
1
10
102.021515588332
20
3.03353237532321
30
0
41
1
10
102.132959795983
20
2.29376122156901
30
0
41
1
10
102.188681899809
20
1.92532743740372
30
0
41
1
10
102.30012610746
20
1.19545707267699
30
0
41
1
10
102.355848211286
20
0.834022604715415
30
0
41
1
10
102.425500841068
20
0.38878279764333
30
0
41
1
10
102.439431367024
20
0.300060936014802
30
0
41
1
10
102.467292418937
20
0.123317531984696
30
0
41
1
10
102.481222944894
20
0.0355016577528318
30
0
41
1
10
102.523014522763
20
-0.228323580669184
30
0
41
1
10
102.550875574676
20
-0.405664469547958
30
0
41
1
10
102.634458730415
20
-0.94148503649933
30
0
41
1
10
102.69018083424
20
-1.30378237251193
30
0
41
1
10
102.801625041892
20
-2.0349972691705
30
0
41
1
10
102.857347145717
20
-2.40391255760963
30
0
41
1
10
102.968791353369
20
-3.14420853732977
30
0
41
1
10
103.024513457195
20
-3.51558530568565
30
0
41
1
10
103.135957664846
20
-4.25613570048989
30
0
41
1
10
103.191679768672
20
-4.62530380096379
30
0
41
1
10
103.303123976323
20
-5.35639671043734
30
0
41
1
10
103.358846080149
20
-5.71831465123455
30
0
41
1
10
103.4702902878
20
-6.42968263897768
30
0
41
1
10
103.526012391626
20
-6.77912495222907
30
0
41
1
10
103.637456599278
20
-7.46035372266996
30
0
41
1
10
103.693178703103
20
-7.79213223225744
30
0
41
1
10
103.804622910755
20
-8.43311997717763
30
0
41
1
10
103.860345014581
20
-8.7423217935864
30
0
41
1
10
103.971789222232
20
-9.33375071571149
30
0
41
1
10
104.027511326058
20
-9.61597165219246
30
0
41
1
10
104.138955533709
20
-10.1497479210748
30
0
41
1
10
104.194677637535
20
-10.401298916638
30
0
41
1
10
104.306121845186
20
-10.8709186371164
30
0
41
1
10
104.361843949012
20
-11.0889852090977
30
0
41
1
10
104.473288156664
20
-11.4897921090579
30
0
41
1
10
104.529010260489
20
-11.672532541428
30
0
41
1
10
104.640454468141
20
-12.0018466256164
30
0
41
1
10
104.696176571967
20
-12.1484224426701
30
0
41
1
10
104.807620779618
20
-12.4055351471781
30
0
41
1
10
104.863342883444
20
-12.5160758512036
30
0
41
1
10
104.974787091095
20
-12.7021230764917
30
0
41
1
10
105.030509194921
20
-12.7776345303035
30
0
41
1
10
105.141953402572
20
-12.895371494647
30
0
41
1
10
105.197675506398
20
-12.9376024867824
30
0
41
1
10
105.281258662137
20
-12.9777345039382
30
0
41
1
10
105.30911971405
20
-12.9872468094461
30
0
41
1
10
105.350911291919
20
-12.9959665758971
30
0
41
1
10
105.364841817875
20
-12.9979485705089
30
0
41
1
10
105.392702869788
20
-13.0001068868599
30
0
41
1
10
105.406633395745
20
-13.0002874821747
30
0
41
1
10
105.476286025527
20
-12.9967311935964
30
0
41
1
10
105.532008129352
20
-12.9794992089071
30
0
41
1
10
105.643452337004
20
-12.9135908919731
30
0
41
1
10
105.69917444083
20
-12.8649090160936
30
0
41
1
10
105.810618648481
20
-12.7338704876522
30
0
41
1
10
105.866340752307
20
-12.6515084189276
30
0
41
1
10
105.977784959958
20
-12.4514957772004
30
0
41
1
10
106.033507063784
20
-12.3338404481922
30
0
41
1
10
106.144951271436
20
-12.0623989957914
30
0
41
1
10
106.200673375261
20
-11.9086093443076
30
0
41
1
10
106.312117582913
20
-11.5649548719358
30
0
41
1
10
106.367839686738
20
-11.3750882688098
30
0
41
1
10
106.47928389439
20
-10.9603150173019
30
0
41
1
10
106.535005998216
20
-10.7354087059734
30
0
41
1
10
106.646450205867
20
-10.2525936121033
30
0
41
1
10
106.702172309693
20
-9.99468743188228
30
0
41
1
10
106.813616517344
20
-9.44886885009723
30
0
41
1
10
106.86933862117
20
-9.16096118627522
30
0
41
1
10
106.980782828822
20
-8.55898367748995
30
0
41
1
10
107.036504932647
20
-8.24492030276099
30
0
41
1
10
107.147949140299
20
-7.59515326230425
30
0
41
1
10
107.203671244124
20
-7.25945718053941
30
0
41
1
10
107.315115451776
20
-6.57141106902657
30
0
41
1
10
107.370837555601
20
-6.21906900209282
30
0
41
1
10
107.482281763253
20
-5.50294558660227
30
0
41
1
10
107.538003867079
20
-5.13917184687162
30
0
41
1
10
107.64944807473
20
-4.40539169396772
30
0
41
1
10
107.705170178556
20
-4.03539191339269
30
0
41
1
10
107.816614386207
20
-3.29414232310342
30
0
41
1
10
107.872336490033
20
-2.92289773416454
30
0
41
1
10
108.03950280151
20
-1.81415798781359
30
0
41
1
10
108.150947009162
20
-1.08197720397496
30
0
41
1
10
108.27632174277
20
-0.282915123688269
30
0
41
1
10
108.290252268726
20
-0.194466273798014
30
0
41
1
10
108.318113320639
20
-0.0182873263931072
30
0
41
1
10
108.332043846595
20
0.069350702940767
30
0
41
1
10
108.373835424465
20
0.334033858202474
30
0
41
1
10
108.401696476377
20
0.511910239871696
30
0
41
1
10
108.485279632116
20
1.04921572632577
30
0
41
1
10
108.541001735942
20
1.41234077208685
30
0
41
1
10
108.652445943593
20
2.14482384586421
30
0
41
1
10
108.708168047419
20
2.51417944074737
30
0
41
1
10
108.81961225507
20
3.25491272712532
30
0
41
1
10
108.875334358896
20
3.62628633081022
30
0
41
1
10
108.986778566548
20
4.36634296730247
30
0
41
1
10
109.042500670373
20
4.73502032529098
30
0
41
1
10
109.153944878025
20
5.46461692692523
30
0
41
1
10
109.209666981851
20
5.825529191589
30
0
41
1
10
109.321111189502
20
6.53436431968254
30
0
41
1
10
109.376833293328
20
6.88227939668604
30
0
41
1
10
109.488277500979
20
7.55994873855039
30
0
41
1
10
109.543999604805
20
7.88969507455539
30
0
41
1
10
109.655443812456
20
8.52615385704797
30
0
41
1
10
109.711165916282
20
8.83285897801653
30
0
41
1
10
109.822610123934
20
9.41889234321428
30
0
41
1
10
109.878332227759
20
9.69821457756578
30
0
41
1
10
109.989776435411
20
10.2258719968241
30
0
41
1
10
110.045498539237
20
10.4742030507506
30
0
41
1
10
110.156942746888
20
10.9371548716008
30
0
41
1
10
110.212664850714
20
11.151773711504
30
0
41
1
10
110.268386954539
20
11.3486651978408
30
0
0
SPLINE
5
EB
100
AcDbEntity
8
1
62
256
6
ByLayer
370
13
48
1
60
0
100
AcDbSpline
70
4
71
3
72
10
73
6
40
0
40
0
40
0
40
0
40
0.5
40
0.5
40
1
40
1
40
1
40
1
41
1
10
109.75203860409
20
13
30
0
41
1
10
109.838096662498
20
13
30
0
41
1
10
109.924154720906
20
12.9659692553693
30
0
41
1
10
110.096270837723
20
12.8202734137489
30
0
41
1
10
110.182328896131
20
12.7085598548284
30
0
41
1
10
110.268386954539
20
12.5546871717897
30
0
0
SPLINE
5
EC
100
AcDbEntity
8
1
62
256
6
ByLayer
370
13
48
1
60
0
100
AcDbSpline
70
4
71
3
72
22
73
18
40
0
40
0
40
0
40
0
40
0.125
40
0.125
40
0.25
40
0.25
40
0.375
40
0.375
40
0.5
40
0.5
40
0.625
40
0.625
40
0.75
40
0.75
40
0.875
40
0.875
40
1
40
1
40
1
40
1
41
1
10
98.6000000000001
20
6.19125162387669
30
0
41
1
10
98.6821234655067
20
6.7133896258371
30
0
41
1
10
98.7642469310133
20
7.22131738258469
30
0
41
1
10
98.9284938620264
20
8.19243530760437
30
0
41
1
10
99.0106173275331
20
8.65557201468056
30
0
41
1
10
99.1748642585463
20
9.52262304702413
30
0
41
1
10
99.2569877240529
20
9.92649533717253
30
0
41
1
10
99.4212346550661
20
10.6639472626397
30
0
41
1
10
99.5033581205727
20
10.9975047093251
30
0
41
1
10
99.6676050515858
20
11.5876631425224
30
0
41
1
10
99.7497285170924
20
11.8442648579912
30
0
41
1
10
99.9139754481057
20
12.2785824812311
30
0
41
1
10
99.9960989136123
20
12.4563191816213
30
0
41
1
10
100.160345844625
20
12.7353728540065
30
0
41
1
10
100.242469310132
20
12.8367236255868
30
0
41
1
10
100.406716241145
20
12.969017984962
30
0
41
1
10
100.488839706652
20
13
30
0
41
1
10
100.570963172159
20
13
30
0
0
SPLINE
5
ED
100
AcDbEntity
8
1
62
256
6
ByLayer
370
13
48
1
60
0
100
AcDbSpline
70
4
71
3
72
145
73
141
40
0
40
0
40
0
40
0
40
0.0156249999999997
40
0.0156249999999997
40
0.0312499999999994
40
0.0312499999999994
40
0.0468749999999992
40
0.0468749999999992
40
0.0624999999999989
40
0.0624999999999989
40
0.0781249999999986
40
0.0781249999999986
40
0.0937499999999983
40
0.0937499999999983
40
0.109374999999998
40
0.109374999999998
40
0.124999999999998
40
0.124999999999998
40
0.140624999999998
40
0.140624999999998
40
0.156249999999997
40
0.156249999999997
40
0.171874999999997
40
0.171874999999997
40
0.187499999999997
40
0.187499999999997
40
0.203124999999997
40
0.203124999999997
40
0.218749999999996
40
0.218749999999996
40
0.234374999999996
40
0.234374999999996
40
0.249999999999996
40
0.249999999999996
40
0.257812499999996
40
0.257812499999996
40
0.261718749999996
40
0.261718749999996
40
0.265624999999995
40
0.265624999999995
40
0.281249999999996
40
0.281249999999996
40
0.296874999999996
40
0.296874999999996
40
0.312499999999996
40
0.312499999999996
40
0.328124999999996
40
0.328124999999996
40
0.343749999999996
40
0.343749999999996
40
0.359374999999996
40
0.359374999999996
40
0.374999999999996
40
0.374999999999996
40
0.390624999999996
40
0.390624999999996
40
0.406249999999996
40
0.406249999999996
40
0.421874999999996
40
0.421874999999996
40
0.437499999999996
40
0.437499999999996
40
0.453124999999996
40
0.453124999999996
40
0.468749999999996
40
0.468749999999996
40
0.484374999999996
40
0.484374999999996
40
0.499999999999996
40
0.499999999999996
40
0.515624999999996
40
0.515624999999996
40
0.519531249999996
40
0.519531249999996
40
0.523437499999996
40
0.523437499999996
40
0.531249999999996
40
0.531249999999996
40
0.546874999999996
40
0.546874999999996
40
0.562499999999996
40
0.562499999999996
40
0.578124999999996
40
0.578124999999996
40
0.593749999999996
40
0.593749999999996
40
0.609374999999996
40
0.609374999999996
40
0.624999999999996
40
0.624999999999996
40
0.640624999999996
40
0.640624999999996
40
0.656249999999996
40
0.656249999999996
40
0.671874999999997
40
0.671874999999997
40
0.687499999999997
40
0.687499999999997
40
0.703124999999997
40
0.703124999999997
40
0.718749999999997
40
0.718749999999997
40
0.734374999999997
40
0.734374999999997
40
0.749999999999997
40
0.749999999999997
40
0.765624999999997
40
0.765624999999997
40
0.781249999999997
40
0.781249999999997
40
0.785156249999997
40
0.785156249999997
40
0.789062499999997
40
0.796874999999997
40
0.796874999999997
40
0.812499999999998
40
0.812499999999998
40
0.828124999999998
40
0.828124999999998
40
0.843749999999998
40
0.843749999999998
40
0.859374999999998
40
0.859374999999998
40
0.874999999999999
40
0.874999999999999
40
0.890624999999999
40
0.890624999999999
40
0.906249999999999
40
0.906249999999999
40
0.921874999999999
40
0.921874999999999
40
0.937499999999999
40
0.937499999999999
40
0.953125
40
0.953125
40
0.96875
40
0.96875
40
0.984375
40
0.984375
40
1
40
1
40
1
40
1
41
1
10
99.0848718017094
20
13
30
0
41
1
10
99.1431192764638
20
13
30
0
41
1
10
99.2013667512181
20
12.9844336165781
30
0
41
1
10
99.3178617007267
20
12.9190865252253
30
0
41
1
10
99.3761091754811
20
12.869298908963
30
0
41
1
10
99.4926041249897
20
12.7329418814203
30
0
41
1
10
99.550851599744
20
12.6463657090286
30
0
41
1
10
99.6673465492527
20
12.4345986273525
30
0
41
1
10
99.725594024007
20
12.3094018287918
30
0
41
1
10
99.8420889735157
20
12.0194877705311
30
0
41
1
10
99.9003364482699
20
11.8547662659628
30
0
41
1
10
100.016831397779
20
11.4859793104988
30
0
41
1
10
100.075078872533
20
11.2819119526204
30
0
41
1
10
100.191573822042
20
10.8357868843727
30
0
41
1
10
100.249821296796
20
10.5937300789855
30
0
41
1
10
100.366316246305
20
10.0741733899832
30
0
41
1
10
100.424563721059
20
9.79667735979999
30
0
41
1
10
100.541058670567
20
9.20991196045674
30
0
41
1
10
100.599306145322
20
8.90064913227297
30
0
41
1
10
100.71580109483
20
8.2549850144994
30
0
41
1
10
100.774048569585
20
7.91859231727651
30
0
41
1
10
100.890543519093
20
7.22403866617009
30
0
41
1
10
100.948790993848
20
6.86588744875644
30
0
41
1
10
101.065285943356
20
6.13364362191152
30
0
41
1
10
101.123533418111
20
5.75956087527621
30
0
41
1
10
101.240028367619
20
5.00143952864337
30
0
41
1
10
101.298275842374
20
4.61740996433826
30
0
41
1
10
101.414770791882
20
3.84525213118837
30
0
41
1
10
101.473018266637
20
3.45713132700561
30
0
41
1
10
101.589513216145
20
2.68226961122184
30
0
41
1
10
101.6477606909
20
2.29553414377585
30
0
41
1
10
101.764255640408
20
1.52834805410504
30
0
41
1
10
101.822503115163
20
1.14790071601018
30
0
41
1
10
101.909874327294
20
0.585093430521141
30
0
41
1
10
101.938998064671
20
0.398795823381533
30
0
41
1
10
101.982683670737
20
0.121646112884605
30
0
41
1
10
101.997245539425
20
0.0298854057067217
30
0
41
1
10
102.026369276803
20
-0.154024738004978
30
0
41
1
10
102.040931145491
20
-0.246376689706437
30
0
41
1
10
102.113740488934
20
-0.709987410599979
30
0
41
1
10
102.171987963689
20
-1.08682912179429
30
0
41
1
10
102.288482913197
20
-1.84851810703026
30
0
41
1
10
102.346730387951
20
-2.23336291177449
30
0
41
1
10
102.46322533746
20
-3.00641847793133
30
0
41
1
10
102.521472812214
20
-3.39462463150065
30
0
41
1
10
102.637967761723
20
-4.16913100383834
30
0
41
1
10
102.696215236477
20
-4.55542450470625
30
0
41
1
10
102.812710185986
20
-5.32037166720892
30
0
41
1
10
102.870957660741
20
-5.69901682849891
30
0
41
1
10
102.987452610249
20
-6.44270126065646
30
0
41
1
10
103.045700085003
20
-6.80773088483116
30
0
41
1
10
103.162195034512
20
-7.51826102459543
30
0
41
1
10
103.220442509266
20
-7.86375163380069
30
0
41
1
10
103.336937458775
20
-8.52962031473393
30
0
41
1
10
103.395184933529
20
-8.84998923324036
30
0
41
1
10
103.511679883038
20
-9.4606607904586
30
0
41
1
10
103.569927357792
20
-9.7509560000729
30
0
41
1
10
103.686422307301
20
-10.2974084846328
30
0
41
1
10
103.744669782055
20
-10.553560812052
30
0
41
1
10
103.861164731564
20
-11.0287262934917
30
0
41
1
10
103.919412206318
20
-11.2477373952391
30
0
41
1
10
104.035907155827
20
-11.6467958444122
30
0
41
1
10
104.094154630581
20
-11.8268440493721
30
0
41
1
10
104.21064958009
20
-12.147346378659
30
0
41
1
10
104.268897054844
20
-12.2878039154773
30
0
41
1
10
104.385392004353
20
-12.5296230868038
30
0
41
1
10
104.443639479107
20
-12.6309900639876
30
0
41
1
10
104.560134428616
20
-12.7961208365767
30
0
41
1
10
104.61838190337
20
-12.8598911464221
30
0
41
1
10
104.734876852879
20
-12.9521349677236
30
0
41
1
10
104.793124327633
20
-12.9806154091337
30
0
41
1
10
104.865933671076
20
-12.9959776388263
30
0
41
1
10
104.880495539764
20
-12.9980393659973
30
0
41
1
10
104.909619277142
20
-13.0001910936477
30
0
41
1
10
104.92418114583
20
-13.0002868038708
30
0
41
1
10
104.967866751896
20
-12.9976447476367
30
0
41
1
10
104.996990489273
20
-12.9919491683076
30
0
41
1
10
105.084361701405
20
-12.9624707184868
30
0
41
1
10
105.142609176159
20
-12.9262782802211
30
0
41
1
10
105.259104125668
20
-12.8180303511657
30
0
41
1
10
105.317351600422
20
-12.7459679623036
30
0
41
1
10
105.433846549931
20
-12.5638384769195
30
0
41
1
10
105.492094024685
20
-12.4537650618453
30
0
41
1
10
105.608588974194
20
-12.1943276235901
30
0
41
1
10
105.666836448948
20
-12.0449586287766
30
0
41
1
10
105.783331398456
20
-11.706672274678
30
0
41
1
10
105.841578873211
20
-11.5177520314163
30
0
41
1
10
105.958073822719
20
-11.1012542040324
30
0
41
1
10
106.016321297474
20
-10.8736763987538
30
0
41
1
10
106.132816246983
20
-10.3819518430961
30
0
41
1
10
106.191063721737
20
-10.117807812665
30
0
41
1
10
106.307558671245
20
-9.5561998357482
30
0
41
1
10
106.365806146
20
-9.25874144550585
30
0
41
1
10
106.482301095508
20
-8.63478946506302
30
0
41
1
10
106.540548570263
20
-8.30830376844833
30
0
41
1
10
106.657043519771
20
-7.63141352092146
30
0
41
1
10
106.715290994526
20
-7.28101838190423
30
0
41
1
10
106.831785944034
20
-6.56199419378746
30
0
41
1
10
106.890033418789
20
-6.19337507891842
30
0
41
1
10
107.006528368297
20
-5.4438623114234
30
0
41
1
10
107.064775843052
20
-5.06297811728041
30
0
41
1
10
107.18127079256
20
-4.29487428234515
30
0
41
1
10
107.239518267315
20
-3.90766278537501
30
0
41
1
10
107.356013216823
20
-3.13255605655579
30
0
41
1
10
107.414260691578
20
-2.74466708472744
30
0
41
1
10
107.530755641086
20
-1.97335174332528
30
0
41
1
10
107.58900311584
20
-1.58992949270092
30
0
41
1
10
107.705498065349
20
-0.832032157972776
30
0
41
1
10
107.763745540104
20
-0.457559083686192
30
0
41
1
10
107.836554883546
20
0.0026082621847934
30
0
41
1
10
107.851116752235
20
0.0942622596704155
30
0
41
1
10
107.880240489612
20
0.278876643261327
30
0
41
1
10
107.923926095678
20
0.556952609199016
30
0
41
1
10
107.967611701744
20
0.83825063675684
30
0
41
1
10
108.054982913875
20
1.40443157115084
30
0
41
1
10
108.113230388629
20
1.78668800207993
30
0
41
1
10
108.229725338138
20
2.55644640909236
30
0
41
1
10
108.287972812892
20
2.94394461724653
30
0
41
1
10
108.404467762401
20
3.71914295782832
30
0
41
1
10
108.462715237155
20
4.10683716815782
30
0
41
1
10
108.579210186664
20
4.87684836201919
30
0
41
1
10
108.637457661418
20
5.2591574766293
30
0
41
1
10
108.753952610927
20
6.01249177739069
30
0
41
1
10
108.812200085681
20
6.38350766736747
30
0
41
1
10
108.92869503519
20
7.10828107934185
30
0
41
1
10
108.986942509944
20
7.46202867888528
30
0
41
1
10
109.103437459453
20
8.14651498136411
30
0
41
1
10
109.161684934207
20
8.47724411782576
30
0
41
1
10
109.278179883716
20
9.11046315709478
30
0
41
1
10
109.33642735847
20
9.41294485778735
30
0
41
1
10
109.452922307979
20
9.98522928838852
30
0
41
1
10
109.511169782733
20
10.2550260393607
30
0
41
1
10
109.627664732242
20
10.7585072782491
30
0
41
1
10
109.685912206996
20
10.9921885684466
30
0
41
1
10
109.802407156505
20
11.4211515232284
30
0
41
1
10
109.860654631259
20
11.6164329415402
30
0
41
1
10
109.977149580768
20
11.96750665721
30
0
41
1
10
110.035397055522
20
12.1233014394196
30
0
41
1
10
110.151892005031
20
12.395475467867
30
0
41
1
10
110.210139479785
20
12.5118593948778
30
0
41
1
10
110.268386954539
20
12.6090989768614
30
0
0
SPLINE
5
EE
100
AcDbEntity
8
1
62
256
6
ByLayer
370
13
48
1
60
0
100
AcDbSpline
70
4
71
3
72
14
73
10
40
0
40
0
40
0
40
0
40
0.25
40
0.25
40
0.5
40
0.5
40
0.75
40
0.75
40
1
40
1
40
1
40
1
41
1
10
109.2671673858
20
13
30
0
41
1
10
109.350602349861
20
13
30
0
41
1
10
109.434037313923
20
12.9680178068804
30
0
41
1
10
109.600907242046
20
12.8313319295309
30
0
41
1
10
109.684342206108
20
12.7265866751957
30
0
41
1
10
109.851212134231
20
12.4381336879161
30
0
41
1
10
109.934647098293
20
12.2543896919458
30
0
41
1
10
110.101517026416
20
11.8054931990077
30
0
41
1
10
110.184951990478
20
11.5403190982716
30
0
41
1
10
110.268386954539
20
11.2355674250645
30
0
0
SPLINE
5
EF
100
AcDbEntity
8
1
62
256
6
ByLayer
370
13
48
1
60
0
100
AcDbSpline
70
4
71
3
72
22
73
18
40
0
40
0
40
0
40
0
40
0.125
40
0.125
40
0.25
40
0.25
40
0.375
40
0.375
40
0.5
40
0.5
40
0.625
40
0.625
40
0.75
40
0.75
40
0.875
40
0.875
40
1
40
1
40
1
40
1
41
1
10
98.6000000000001
20
9.04746439373216
30
0
41
1
10
98.661920498078
20
9.37575508174001
30
0
41
1
10
98.7238409961558
20
9.68734662324113
30
0
41
1
10
98.8476819923114
20
10.2721581681797
30
0
41
1
10
98.9096024903893
20
10.5453712572396
30
0
41
1
10
99.033443486545
20
11.0497882446637
30
0
41
1
10
99.0953639846229
20
11.2809893932642
30
0
41
1
10
99.2192049807786
20
11.6992482267123
30
0
41
1
10
99.2811254788564
20
11.8863073440593
30
0
41
1
10
99.4049664750121
20
12.2156704305349
30
0
41
1
10
99.46688697309
20
12.3579794368049
30
0
41
1
10
99.5907279692457
20
12.5986534082717
30
0
41
1
10
99.6526484673235
20
12.6970260199011
30
0
41
1
10
99.7764894634793
20
12.8518666750104
30
0
41
1
10
99.8384099615571
20
12.9083437991357
30
0
41
1
10
99.9622509577129
20
12.9824057679617
30
0
41
1
10
100.024171455791
20
13
30
0
41
1
10
100.086091953869
20
13
30
0
0
SPLINE
5
F0
100
AcDbEntity
8
1
62
256
6
ByLayer
370
13
48
1
60
0
100
AcDbSpline
70
4
71
3
72
134
73
130
40
0
40
0
40
0
40
0
40
0.0156249999999999
40
0.0156249999999999
40
0.0312499999999999
40
0.0312499999999999
40
0.0468749999999998
40
0.0468749999999998
40
0.0624999999999998
40
0.0624999999999998
40
0.0781249999999997
40
0.0781249999999997
40
0.0937499999999997
40
0.0937499999999997
40
0.109375
40
0.109375
40
0.125
40
0.125
40
0.140625
40
0.140625
40
0.156249999999999
40
0.156249999999999
40
0.171874999999999
40
0.171874999999999
40
0.187499999999999
40
0.187499999999999
40
0.203124999999999
40
0.203124999999999
40
0.218749999999999
40
0.218749999999999
40
0.234374999999999
40
0.234374999999999
40
0.249999999999999
40
0.249999999999999
40
0.265624999999999
40
0.265624999999999
40
0.281249999999999
40
0.281249999999999
40
0.296874999999999
40
0.296874999999999
40
0.312499999999999
40
0.312499999999999
40
0.328124999999999
40
0.328124999999999
40
0.343749999999999
40
0.343749999999999
40
0.359374999999999
40
0.359374999999999
40
0.374999999999999
40
0.374999999999999
40
0.390624999999999
40
0.390624999999999
40
0.406249999999999
40
0.406249999999999
40
0.421874999999999
40
0.421874999999999
40
0.437499999999999
40
0.437499999999999
40
0.453124999999999
40
0.453124999999999
40
0.468749999999999
40
0.468749999999999
40
0.484374999999999
40
0.484374999999999
40
0.499999999999999
40
0.499999999999999
40
0.515624999999999
40
0.515624999999999
40
0.531249999999998
40
0.531249999999998
40
0.546874999999998
40
0.546874999999998
40
0.562499999999998
40
0.562499999999998
40
0.578124999999999
40
0.578124999999999
40
0.593749999999999
40
0.593749999999999
40
0.609374999999999
40
0.609374999999999
40
0.624999999999999
40
0.624999999999999
40
0.640624999999999
40
0.640624999999999
40
0.656249999999999
40
0.656249999999999
40
0.671874999999999
40
0.671874999999999
40
0.687499999999999
40
0.687499999999999
40
0.703124999999999
40
0.703124999999999
40
0.718749999999999
40
0.718749999999999
40
0.734374999999999
40
0.734374999999999
40
0.749999999999999
40
0.749999999999999
40
0.765624999999999
40
0.765624999999999
40
0.781249999999999
40
0.781249999999999
40
0.796874999999999
40
0.796874999999999
40
0.812499999999999
40
0.812499999999999
40
0.828124999999999
40
0.828124999999999
40
0.84375
40
0.84375
40
0.859375
40
0.859375
40
0.875
40
0.875
40
0.890625
40
0.890625
40
0.90625
40
0.90625
40
0.921875
40
0.921875
40
0.9375
40
0.9375
40
0.953125
40
0.953125
40
0.96875
40
0.96875
40
0.984375
40
0.984375
40
1
40
1
40
1
40
1
41
1
10
98.6000005834194
20
13
30
0
41
1
10
98.6607734291023
20
13
30
0
41
1
10
98.7215462747853
20
12.9830527675353
30
0
41
1
10
98.8430919661511
20
12.9117748670912
30
0
41
1
10
98.903864811834
20
12.857435652047
30
0
41
1
10
99.0254105031999
20
12.7085039714635
30
0
41
1
10
99.0861833488827
20
12.6139032065126
30
0
41
1
10
99.2077290402486
20
12.3824698104952
30
0
41
1
10
99.2685018859315
20
12.2456301127287
30
0
41
1
10
99.3900475772973
20
11.928865904953
30
0
41
1
10
99.4508204229803
20
11.7489365953358
30
0
41
1
10
99.5723661143461
20
11.3464478841043
30
0
41
1
10
99.633138960029
20
11.1238868432806
30
0
41
1
10
99.7546846513948
20
10.6379968857054
30
0
41
1
10
99.8154574970779
20
10.3746700394723
30
0
41
1
10
99.9370031884436
20
9.81051342983807
30
0
41
1
10
99.9977760341264
20
9.50968949422611
30
0
41
1
10
100.119321725492
20
8.87508757814646
30
0
41
1
10
100.180094571175
20
8.54131867051649
30
0
41
1
10
100.301640262541
20
7.84643355395843
30
0
41
1
10
100.362413108224
20
7.48532866139277
30
0
41
1
10
100.48395879959
20
6.74212604142491
30
0
41
1
10
100.544731645273
20
6.36004056930219
30
0
41
1
10
100.666277336639
20
5.58162013454765
30
0
41
1
10
100.727050182322
20
5.18529700866625
30
0
41
1
10
100.848595873687
20
4.38516688017668
30
0
41
1
10
100.90936871937
20
3.98137012885127
30
0
41
1
10
101.030914410736
20
3.17274503394728
30
0
41
1
10
101.091687256419
20
2.76792455355096
30
0
41
1
10
101.213232947785
20
1.96311649926173
30
0
41
1
10
101.274005793468
20
1.5631340333594
30
0
41
1
10
101.395551484834
20
0.773083129595449
30
0
41
1
10
101.456324330516
20
0.383017084448994
30
0
41
1
10
101.577870021882
20
-0.383015245971393
30
0
41
1
10
101.638642867565
20
-0.773081249221264
30
0
41
1
10
101.760188558931
20
-1.56313212148928
30
0
41
1
10
101.820961404614
20
-1.9631145753599
30
0
41
1
10
101.94250709598
20
-2.76792261437413
30
0
41
1
10
102.003279941663
20
-3.17274309153169
30
0
41
1
10
102.124825633029
20
-3.98136818986635
30
0
41
1
10
102.185598478711
20
-4.38516494786546
30
0
41
1
10
102.307144170077
20
-5.18529510035276
30
0
41
1
10
102.36791701576
20
-5.58161824356151
30
0
41
1
10
102.489462707126
20
-6.36003872387008
30
0
41
1
10
102.550235552809
20
-6.74212422422116
30
0
41
1
10
102.671781244175
20
-7.48532691122372
30
0
41
1
10
102.732554089858
20
-7.84643184259537
30
0
41
1
10
102.854099781224
20
-8.54131704643078
30
0
41
1
10
102.914872626907
20
-8.87508600252957
30
0
41
1
10
103.036418318272
20
-9.50968802375348
30
0
41
1
10
103.097191163955
20
-9.8105120160364
30
0
41
1
10
103.218736855321
20
-10.3746687453219
30
0
41
1
10
103.279509701004
20
-10.6379956545295
30
0
41
1
10
103.40105539237
20
-11.1238857421843
30
0
41
1
10
103.461828238053
20
-11.3464468501068
30
0
41
1
10
103.583373929419
20
-11.7489356973871
30
0
41
1
10
103.644146775102
20
-11.9288650759487
30
0
41
1
10
103.765692466467
20
-12.2456294212645
30
0
41
1
10
103.82646531215
20
-12.3824691876221
30
0
41
1
10
103.948011003516
20
-12.6139027185051
30
0
41
1
10
104.008783849199
20
-12.7085035497275
30
0
41
1
10
104.130329540565
20
-12.8574353589106
30
0
41
1
10
104.191102386248
20
-12.9117746362818
30
0
41
1
10
104.312648077614
20
-12.9830526562105
30
0
41
1
10
104.373420923296
20
-12.9999999458332
30
0
41
1
10
104.494966614662
20
-13.0000000541666
30
0
41
1
10
104.555739460345
20
-12.9830528788598
30
0
41
1
10
104.677285151711
20
-12.9117750979003
30
0
41
1
10
104.738057997394
20
-12.857435945183
30
0
41
1
10
104.85960368876
20
-12.7085043931992
30
0
41
1
10
104.920376534443
20
-12.6139036945199
30
0
41
1
10
105.041922225809
20
-12.382470433368
30
0
41
1
10
105.102695071491
20
-12.2456308041927
30
0
41
1
10
105.224240762857
20
-11.9288667339569
30
0
41
1
10
105.28501360854
20
-11.7489374932841
30
0
41
1
10
105.406559299906
20
-11.3464489181015
30
0
41
1
10
105.467332145589
20
-11.1238879443766
30
0
41
1
10
105.588877836955
20
-10.6379981168808
30
0
41
1
10
105.649650682638
20
-10.3746713336224
30
0
41
1
10
105.771196374004
20
-9.81051484363945
30
0
41
1
10
105.831969219686
20
-9.50969096469845
30
0
41
1
10
105.953514911052
20
-8.8750891537631
30
0
41
1
10
106.014287756735
20
-8.54132029460197
30
0
41
1
10
106.135833448101
20
-7.84643526532136
30
0
41
1
10
106.196606293784
20
-7.48533041156162
30
0
41
1
10
106.31815198515
20
-6.74212785862852
30
0
41
1
10
106.378924830833
20
-6.36004241473418
30
0
41
1
10
106.500470522199
20
-5.5816220255337
30
0
41
1
10
106.561243367882
20
-5.18529891697969
30
0
41
1
10
106.682789059247
20
-4.38516881248788
30
0
41
1
10
106.74356190493
20
-3.98137206783616
30
0
41
1
10
106.865107596296
20
-3.1727469763629
30
0
41
1
10
106.925880441979
20
-2.76792649272781
30
0
41
1
10
107.047426133345
20
-1.96311842316362
30
0
41
1
10
107.108198979028
20
-1.56313594522959
30
0
41
1
10
107.229744670394
20
-0.773085009969748
30
0
41
1
10
107.290517516077
20
-0.383018945363205
30
0
41
1
10
107.412063207442
20
0.383013429930287
30
0
41
1
10
107.472836053125
20
0.773079368847164
30
0
41
1
10
107.594381744491
20
1.56313020961923
30
0
41
1
10
107.655154590174
20
1.96311265145809
30
0
41
1
10
107.77670028154
20
2.76792067519733
30
0
41
1
10
107.837473127223
20
3.17274114911609
30
0
41
1
10
107.959018818589
20
3.98136625088142
30
0
41
1
10
108.019791664271
20
4.38516301555418
30
0
41
1
10
108.141337355637
20
5.18529319203921
30
0
41
1
10
108.20211020132
20
5.58161635257528
30
0
41
1
10
108.323655892686
20
6.36003687843785
30
0
41
1
10
108.384428738369
20
6.74212240701729
30
0
41
1
10
108.505974429735
20
7.4853251610545
30
0
41
1
10
108.566747275418
20
7.84643013123207
30
0
41
1
10
108.688292966784
20
8.54131542234481
30
0
41
1
10
108.749065812466
20
8.87508442691245
30
0
41
1
10
108.870611503832
20
9.50968655328063
30
0
41
1
10
108.931384349515
20
9.81051060223447
30
0
41
1
10
109.052930040881
20
10.3746674511712
30
0
41
1
10
109.113702886564
20
10.6379944233534
30
0
41
1
10
109.23524857793
20
11.1238846410876
30
0
41
1
10
109.296021423613
20
11.346445816109
30
0
41
1
10
109.417567114979
20
11.7489347994381
30
0
41
1
10
109.478339960662
20
11.9288642469441
30
0
41
1
10
109.599885652027
20
12.2456287297999
30
0
41
1
10
109.66065849771
20
12.3824685647487
30
0
41
1
10
109.782204189076
20
12.6139022304972
30
0
41
1
10
109.842977034759
20
12.7085031279912
30
0
41
1
10
109.964522726125
20
12.8574350657739
30
0
41
1
10
110.025295571808
20
12.9117744054721
30
0
41
1
10
110.146841263173
20
12.9830525448854
30
0
41
1
10
110.207614108857
20
12.9999998916661
30
0
41
1
10
110.268386954539
20
12.9999999999995
30
0
0
SPLINE
5
F1
100
AcDbEntity
8
1
62
256
6
ByLayer
370
13
48
1
60
0
100
AcDbSpline
70
4
71
3
72
22
73
18
40
0
40
0
40
0
40
0
40
0.125
40
0.125
40
0.25
40
0.25
40
0.375
40
0.375
40
0.5
40
0.5
40
0.625
40
0.625
40
0.75
40
0.75
40
0.875
40
0.875
40
1
40
1
40
1
40
1
41
1
10
108.78229616751
20
13
30
0
41
1
10
108.844216616969
20
13
30
0
41
1
10
108.906137066429
20
12.9824057956286
30
0
41
1
10
109.029977965348
20
12.908343945923
30
0
41
1
10
109.091898414808
20
12.8518669132883
30
0
41
1
10
109.215739313727
20
12.6970265110827
30
0
41
1
10
109.277659763186
20
12.5986540609005
30
0
41
1
10
109.401500662105
20
12.3579804849108
30
0
41
1
10
109.463421111565
20
12.2156717126956
30
0
41
1
10
109.587262010484
20
11.8863091651798
30
0
41
1
10
109.649182459944
20
11.6992503527475
30
0
41
1
10
109.773023358863
20
11.2809921933076
30
0
41
1
10
109.834943808322
20
11.0497914137903
30
0
41
1
10
109.958784707241
20
10.5453752170893
30
0
41
1
10
110.020705156701
20
10.2721625496384
30
0
41
1
10
110.14454605562
20
9.687351884517
30
0
41
1
10
110.20646650508
20
9.37576080117549
30
0
41
1
10
110.268386954539
20
9.04747058008664
30
0
0
SPLINE
5
F2
100
AcDbEntity
8
1
62
256
6
ByLayer
370
13
48
1
60
0
100
AcDbSpline
70
4
71
3
72
14
73
10
40
0
40
0
40
0
40
0
40
0.25
40
0.25
40
0.5
40
0.5
40
0.75
40
0.75
40
1
40
1
40
1
40
1
41
1
10
98.6
20
11.2355631631072
30
0
41
1
10
98.6834350612983
20
11.5403155585389
30
0
41
1
10
98.7668701225965
20
11.8054902999019
30
0
41
1
10
98.9337402451929
20
12.2543878826827
30
0
41
1
10
99.017175306491
20
12.4381323279269
30
0
41
1
10
99.1840454290875
20
12.7265860181749
30
0
41
1
10
99.2674804903857
20
12.8313315263914
30
0
41
1
10
99.434350612982
20
12.9680177321312
30
0
41
1
10
99.5177856742803
20
13
30
0
41
1
10
99.6012207355784
20
13
30
0
0
SPLINE
5
F3
100
AcDbEntity
8
1
62
256
6
ByLayer
370
13
48
1
60
0
100
AcDbSpline
70
4
71
3
72
146
73
142
40
0
40
0
40
0
40
0
40
0.015625
40
0.015625
40
0.03125
40
0.03125
40
0.046875
40
0.046875
40
0.0625
40
0.0625
40
0.078125
40
0.078125
40
0.0937500000000001
40
0.0937500000000001
40
0.109375
40
0.109375
40
0.125
40
0.125
40
0.140625
40
0.140625
40
0.15625
40
0.15625
40
0.171875
40
0.171875
40
0.1875
40
0.1875
40
0.203125
40
0.203125
40
0.2109375
40
0.2109375
40
0.21484375
40
0.21484375
40
0.21875
40
0.21875
40
0.234375
40
0.234375
40
0.25
40
0.25
40
0.265625
40
0.265625
40
0.28125
40
0.28125
40
0.296875
40
0.296875
40
0.3125
40
0.3125
40
0.328125
40
0.328125
40
0.34375
40
0.34375
40
0.359375
40
0.359375
40
0.375
40
0.375
40
0.390625
40
0.390625
40
0.40625
40
0.40625
40
0.421875
40
0.421875
40
0.4375
40
0.4375
40
0.453125
40
0.453125
40
0.46875
40
0.46875
40
0.4765625
40
0.4765625
40
0.48046875
40
0.48046875
40
0.484375
40
0.484375
40
0.5
40
0.5
40
0.515625
40
0.515625
40
0.53125
40
0.53125
40
0.546875
40
0.546875
40
0.5625
40
0.5625
40
0.578125
40
0.578125
40
0.59375
40
0.59375
40
0.609375
40
0.609375
40
0.625
40
0.625
40
0.640625
40
0.640625
40
0.65625
40
0.65625
40
0.671875
40
0.671875
40
0.6875
40
0.6875
40
0.703125
40
0.703125
40
0.71875
40
0.71875
40
0.734375
40
0.734375
40
0.73828125
40
0.73828125
40
0.7421875
40
0.7421875
40
0.75
40
0.75
40
0.765625
40
0.765625
40
0.78125
40
0.78125
40
0.796875
40
0.796875
40
0.8125
40
0.8125
40
0.828125
40
0.828125
40
0.84375
40
0.84375
40
0.859375
40
0.859375
40
0.875
40
0.875
40
0.890625
40
0.890625
40
0.90625
40
0.90625
40
0.921875
40
0.921875
40
0.9375
40
0.9375
40
0.953125
40
0.953125
40
0.96875
40
0.96875
40
0.984375
40
0.984375
40
1
40
1
40
1
40
1
41
1
10
98.6000000000001
20
12.6091009248044
30
0
41
1
10
98.6582474808317
20
12.5118615878142
30
0
41
1
10
98.7164949616633
20
12.3954779071415
30
0
41
1
10
98.8329899233265
20
12.1233043672559
30
0
41
1
10
98.8912374041581
20
11.9675098272555
30
0
41
1
10
99.0077323658213
20
11.6164365845738
30
0
41
1
10
99.0659798466529
20
11.4211553970233
30
0
41
1
10
99.1824748083162
20
10.9921928850141
30
0
41
1
10
99.2407222891476
20
10.7585118068094
30
0
41
1
10
99.3572172508109
20
10.2550309663787
30
0
41
1
10
99.4154647316426
20
9.98523440185483
30
0
41
1
10
99.5319596933058
20
9.41295031292285
30
0
41
1
10
99.5902071741374
20
9.11046876743853
30
0
41
1
10
99.7067021358006
20
8.47725000318633
30
0
41
1
10
99.7649496166322
20
8.1465209865265
30
0
41
1
10
99.8814445782955
20
7.46203488590507
30
0
41
1
10
99.9396920591271
20
7.10828736841711
30
0
41
1
10
100.05618702079
20
6.38351408239396
30
0
41
1
10
100.114434501622
20
6.01249823631906
30
0
41
1
10
100.230929463285
20
5.25916398663071
30
0
41
1
10
100.289176944117
20
4.87685487920277
30
0
41
1
10
100.40567190578
20
4.10684366598485
30
0
41
1
10
100.463919386611
20
3.71914942913057
30
0
41
1
10
100.580414348275
20
2.94395100598811
30
0
41
1
10
100.638661829106
20
2.55645274181276
30
0
41
1
10
100.75515679077
20
1.78669419821918
30
0
41
1
10
100.813404271601
20
1.40443768674379
30
0
41
1
10
100.900775492848
20
0.838256617102985
30
0
41
1
10
100.929899233264
20
0.65072455124556
30
0
41
1
10
100.973584843888
20
0.371574741633992
30
0
41
1
10
100.988146714096
20
0.278882476485592
30
0
41
1
10
101.017270454512
20
0.0942680413434402
30
0
41
1
10
101.03183232472
20
0.0026140167559845
30
0
41
1
10
101.104641675759
20
-0.457553294873719
30
0
41
1
10
101.162889156591
20
-0.832026351807627
30
0
41
1
10
101.279384118254
20
-1.58992367474357
30
0
41
1
10
101.337631599086
20
-1.97334593093768
30
0
41
1
10
101.454126560749
20
-2.74466130862268
30
0
41
1
10
101.51237404158
20
-3.13255031117288
30
0
41
1
10
101.628869003244
20
-3.90765712791583
30
0
41
1
10
101.687116484075
20
-4.29486868209472
30
0
41
1
10
101.803611445738
20
-5.06297265813186
30
0
41
1
10
101.86185892657
20
-5.44385693617164
30
0
41
1
10
101.978353888233
20
-6.1933698970534
30
0
41
1
10
102.036601369065
20
-6.56198912141178
30
0
41
1
10
102.153096330728
20
-7.28101355166314
30
0
41
1
10
102.21134381156
20
-7.63140882332033
30
0
41
1
10
102.327838773223
20
-8.30829935558484
30
0
41
1
10
102.386086254055
20
-8.63478520428765
30
0
41
1
10
102.502581215718
20
-9.25873750362913
30
0
41
1
10
102.560828696549
20
-9.55619606066924
30
0
41
1
10
102.677323658213
20
-10.1178043804709
30
0
41
1
10
102.735571139044
20
-10.3819485869748
30
0
41
1
10
102.852066100707
20
-10.8736734983484
30
0
41
1
10
102.910313581539
20
-11.1012514832564
30
0
41
1
10
103.026808543202
20
-11.5177496678914
30
0
41
1
10
103.085056024034
20
-11.7066700887633
30
0
41
1
10
103.201550985697
20
-12.0449567910243
30
0
41
1
10
103.259798466529
20
-12.1943259563819
30
0
41
1
10
103.376293428192
20
-12.4537637244417
30
0
41
1
10
103.434540909024
20
-12.5638372987723
30
0
41
1
10
103.551035870687
20
-12.7459670881697
30
0
41
1
10
103.609283351518
20
-12.8180296217883
30
0
41
1
10
103.725778313181
20
-12.9262778237153
30
0
41
1
10
103.784025794013
20
-12.9624703900988
30
0
41
1
10
103.87139701526
20
-12.9919490187842
30
0
41
1
10
103.900520755676
20
-12.9976446555239
30
0
41
1
10
103.9442063663
20
-13.0002867945186
30
0
41
1
10
103.958768236508
20
-13.0001911111883
30
0
41
1
10
103.987891976924
20
-12.9980394380318
30
0
41
1
10
104.002453847132
20
-12.9959777382521
30
0
41
1
10
104.075263198171
20
-12.9806156461474
30
0
41
1
10
104.133510679003
20
-12.9521353168478
30
0
41
1
10
104.250005640666
20
-12.8598917212308
30
0
41
1
10
104.308253121498
20
-12.7961215249556
30
0
41
1
10
104.424748083161
20
-12.6309909779061
30
0
41
1
10
104.482995563992
20
-12.5296241126859
30
0
41
1
10
104.599490525656
20
-12.2878051603253
30
0
41
1
10
104.657738006487
20
-12.1473477305016
30
0
41
1
10
104.774232968151
20
-11.826845606791
30
0
41
1
10
104.832480448982
20
-11.6467975004043
30
0
41
1
10
104.948975410645
20
-11.2477392366701
30
0
41
1
10
105.007222891477
20
-11.0287282217799
30
0
41
1
10
105.12371785314
20
-10.5535628994734
30
0
41
1
10
105.181965333972
20
-10.2974106443229
30
0
41
1
10
105.298460295635
20
-9.75095828750867
30
0
41
1
10
105.356707776467
20
-9.46066313336644
30
0
41
1
10
105.47320273813
20
-8.84999166894036
30
0
41
1
10
105.531450218961
20
-8.52962278775226
30
0
41
1
10
105.647945180625
20
-7.86375416289576
30
0
41
1
10
105.706192661456
20
-7.51826357245054
30
0
41
1
10
105.822687623119
20
-6.80773345219299
30
0
41
1
10
105.880935103951
20
-6.4427038287696
30
0
41
1
10
105.997430065614
20
-5.6990193815075
30
0
41
1
10
106.055677546446
20
-5.32037420436842
30
0
41
1
10
106.172172508109
20
-4.55542699565325
30
0
41
1
10
106.230419988941
20
-4.16913346442965
30
0
41
1
10
106.346914950604
20
-3.39462701942423
30
0
41
1
10
106.405162431436
20
-3.00642082355054
30
0
41
1
10
106.521657393099
20
-2.23336516361638
30
0
41
1
10
106.57990487393
20
-1.84852030740586
30
0
41
1
10
106.696399835593
20
-1.08683121286748
30
0
41
1
10
106.754647316425
20
-0.709989443842147
30
0
41
1
10
106.827456667465
20
-0.246378648322036
30
0
41
1
10
106.842018537673
20
-0.15402668157779
30
0
41
1
10
106.871142278088
20
0.0298834924162463
30
0
41
1
10
106.885704148296
20
0.121644200016362
30
0
41
1
10
106.92938975892
20
0.398793923635452
30
0
41
1
10
106.958513499336
20
0.585091540580351
30
0
41
1
10
107.045884720583
20
1.14789885869206
30
0
41
1
10
107.104132201415
20
1.52834622282438
30
0
41
1
10
107.220627163078
20
2.29553237303986
30
0
41
1
10
107.27887464391
20
2.68226787499472
30
0
41
1
10
107.395369605573
20
3.45712966771515
30
0
41
1
10
107.453617086404
20
3.84525051432601
30
0
41
1
10
107.570112048068
20
4.61740843922232
30
0
41
1
10
107.628359528899
20
5.00143805284432
30
0
41
1
10
107.744854490562
20
5.75955950350976
30
0
41
1
10
107.803101971394
20
6.1336423048576
30
0
41
1
10
107.919596933057
20
6.86588624464019
30
0
41
1
10
107.977844413889
20
7.22403752027426
30
0
41
1
10
108.094339375552
20
7.91859128917224
30
0
41
1
10
108.152586856384
20
8.25498404596047
30
0
41
1
10
108.269081818047
20
8.90064828193661
30
0
41
1
10
108.327329298878
20
9.20991116875157
30
0
41
1
10
108.443824260542
20
9.79667668221268
30
0
41
1
10
108.502071741373
20
10.0741727678771
30
0
41
1
10
108.618566703037
20
10.5937295627181
30
0
41
1
10
108.676814183868
20
10.8357864184587
30
0
41
1
10
108.793309145531
20
11.2819115806933
30
0
41
1
10
108.851556626363
20
11.4859789822029
30
0
41
1
10
108.968051588026
20
11.8547660170946
30
0
41
1
10
109.026299068858
20
12.0194875574589
30
0
41
1
10
109.142794030521
20
12.3094016788838
30
0
41
1
10
109.201041511353
20
12.4345985048139
30
0
41
1
10
109.317536473016
20
12.6463656327136
30
0
41
1
10
109.375783953848
20
12.7329418239622
30
0
41
1
10
109.492278915511
20
12.8692988810598
30
0
41
1
10
109.550526396342
20
12.9190865080233
30
0
41
1
10
109.667021358005
20
12.984433613326
30
0
41
1
10
109.725268838837
20
13
30
0
41
1
10
109.783516319669
20
13
30
0
0
SPLINE
5
F4
100
AcDbEntity
8
1
62
256
6
ByLayer
370
13
48
1
60
0
100
AcDbSpline
70
4
71
3
72
22
73
18
40
0
40
0
40
0
40
0
40
0.125
40
0.125
40
0.25
40
0.25
40
0.375
40
0.375
40
0.5
40
0.5
40
0.625
40
0.625
40
0.75
40
0.75
40
0.875
40
0.875
40
1
40
1
40
1
40
1
41
1
10
108.29742494922
20
13
30
0
41
1
10
108.379548366108
20
13
30
0
41
1
10
108.461671782996
20
12.9690180217423
30
0
41
1
10
108.625918616773
20
12.836723823767
30
0
41
1
10
108.708042033661
20
12.7353731769193
30
0
41
1
10
108.872288867438
20
12.456319849931
30
0
41
1
10
108.954412284326
20
12.2785833702945
30
0
41
1
10
109.118659118103
20
11.8442662830278
30
0
41
1
10
109.200782534991
20
11.5876648828098
30
0
41
1
10
109.365029368768
20
10.9975071616243
30
0
41
1
10
109.447152785656
20
10.6639501116488
30
0
41
1
10
109.611399619433
20
9.92649903689448
30
0
41
1
10
109.693523036321
20
9.52262720061708
30
0
41
1
10
109.857769870098
20
8.65557710060665
30
0
41
1
10
109.939893286986
20
8.19244087181059
30
0
41
1
10
110.104140120763
20
7.22132389160888
30
0
41
1
10
110.186263537651
20
6.71339660121643
30
0
41
1
10
110.268386954539
20
6.19125904259354
30
0
0
SPLINE
5
F5
100
AcDbEntity
8
1
62
256
6
ByLayer
370
13
48
1
60
0
100
AcDbSpline
70
4
71
3
72
10
73
6
40
0
40
0
40
0
40
0
40
0.5
40
0.5
40
1
40
1
40
1
40
1
41
1
10
98.6
20
12.5546850854677
30
0
41
1
10
98.6860582528815
20
12.7085584958614
30
0
41
1
10
98.7721165057629
20
12.8202725802792
30
0
41
1
10
98.9442330115257
20
12.965969101112
30
0
41
1
10
99.0302912644071
20
13
30
0
41
1
10
99.1163495172884
20
13
30
0
0
SPLINE
5
F6
100
AcDbEntity
8
1
62
256
6
ByLayer
370
13
48
1
60
0
100
AcDbSpline
70
4
71
3
72
141
73
137
40
0
40
0
40
0
40
0
40
0.0156250000000002
40
0.0156250000000002
40
0.0312500000000003
40
0.0312500000000003
40
0.0468750000000004
40
0.0468750000000004
40
0.0625000000000005
40
0.0625000000000005
40
0.0781250000000006
40
0.0781250000000006
40
0.0937500000000007
40
0.0937500000000007
40
0.109375000000001
40
0.109375000000001
40
0.125000000000001
40
0.125000000000001
40
0.140625000000001
40
0.140625000000001
40
0.156250000000001
40
0.156250000000001
40
0.171875000000001
40
0.171875000000001
40
0.179687500000001
40
0.179687500000001
40
0.183593750000001
40
0.183593750000001
40
0.187500000000001
40
0.187500000000001
40
0.218750000000001
40
0.218750000000001
40
0.234375000000001
40
0.234375000000001
40
0.250000000000001
40
0.250000000000001
40
0.265625000000002
40
0.265625000000002
40
0.281250000000001
40
0.281250000000001
40
0.296875000000001
40
0.296875000000001
40
0.312500000000001
40
0.312500000000001
40
0.328125000000001
40
0.328125000000001
40
0.343750000000001
40
0.343750000000001
40
0.359375000000001
40
0.359375000000001
40
0.375000000000001
40
0.375000000000001
40
0.390625000000001
40
0.390625000000001
40
0.406250000000001
40
0.406250000000001
40
0.421875000000001
40
0.421875000000001
40
0.437500000000001
40
0.437500000000001
40
0.453125000000001
40
0.453125000000001
40
0.457031250000001
40
0.457031250000001
40
0.460937500000001
40
0.468750000000001
40
0.468750000000001
40
0.484375000000001
40
0.484375000000001
40
0.500000000000001
40
0.500000000000001
40
0.515625000000001
40
0.515625000000001
40
0.531250000000001
40
0.531250000000001
40
0.546875000000001
40
0.546875000000001
40
0.562500000000001
40
0.562500000000001
40
0.578125000000001
40
0.578125000000001
40
0.593750000000001
40
0.593750000000001
40
0.609375000000001
40
0.609375000000001
40
0.625000000000001
40
0.625000000000001
40
0.640625000000001
40
0.640625000000001
40
0.656250000000001
40
0.656250000000001
40
0.671875
40
0.671875
40
0.6875
40
0.6875
40
0.703125
40
0.703125
40
0.71875
40
0.71875
40
0.7265625
40
0.7265625
40
0.73046875
40
0.73046875
40
0.734375
40
0.734375
40
0.75
40
0.75
40
0.765625
40
0.765625
40
0.78125
40
0.78125
40
0.796875
40
0.796875
40
0.8125
40
0.8125
40
0.828125
40
0.828125
40
0.84375
40
0.84375
40
0.859375
40
0.859375
40
0.875
40
0.875
40
0.890625
40
0.890625
40
0.90625
40
0.90625
40
0.921875
40
0.921875
40
0.9375
40
0.9375
40
0.953125
40
0.953125
40
0.96875
40
0.96875
40
1
40
1
40
1
40
1
41
1
10
98.6000000000001
20
11.348669320809
30
0
41
1
10
98.6557221099032
20
11.1517780598944
30
0
41
1
10
98.7114442198061
20
10.9371594372051
30
0
41
1
10
98.8228884396121
20
10.4742080280264
30
0
41
1
10
98.8786105495152
20
10.225877168543
30
0
41
1
10
98.9900547693211
20
9.69822010986675
30
0
41
1
10
99.0457768792242
20
9.41889804164242
30
0
41
1
10
99.1572210990302
20
8.83286497607381
30
0
41
1
10
99.2129432089332
20
8.52615998859966
30
0
41
1
10
99.3243874287392
20
7.88970143767318
30
0
41
1
10
99.3801095386423
20
7.55995519973754
30
0
41
1
10
99.4915537584483
20
6.88228601746789
30
0
41
1
10
99.5472758683513
20
6.53437100199258
30
0
41
1
10
99.6587200881572
20
5.8255359609586
30
0
41
1
10
99.7144421980603
20
5.46462372183353
30
0
41
1
10
99.8258864178664
20
4.73502713733834
30
0
41
1
10
99.8816085277693
20
4.36634977096074
30
0
41
1
10
99.9930527475753
20
3.62629308704663
30
0
41
1
10
100.048774857478
20
3.25491944434114
30
0
41
1
10
100.160219077284
20
2.51418605346242
30
0
41
1
10
100.215941187187
20
2.14483039311122
30
0
41
1
10
100.327385406994
20
1.41234716664078
30
0
41
1
10
100.383107516897
20
1.04922203366556
30
0
41
1
10
100.466690681751
20
0.511916403725792
30
0
41
1
10
100.494551736703
20
0.334039972117551
30
0
41
1
10
100.53634331913
20
0.0693567392301304
30
0
41
1
10
100.550273846606
20
-0.0182813093219636
30
0
41
1
10
100.578134901557
20
-0.194460243184324
30
0
41
1
10
100.592065429033
20
-0.282909086903942
30
0
41
1
10
100.717440176315
20
-1.08197111725335
30
0
41
1
10
100.828884396121
20
-1.81415189687681
30
0
41
1
10
100.99605072583
20
-2.92289171034989
30
0
41
1
10
101.051772835733
20
-3.29413633383444
30
0
41
1
10
101.163217055539
20
-4.03538601862749
30
0
41
1
10
101.218939165442
20
-4.4053858591661
30
0
41
1
10
101.330383385248
20
-5.13916615747928
30
0
41
1
10
101.386105495151
20
-5.50293998265843
30
0
41
1
10
101.497549714957
20
-6.21906359345581
30
0
41
1
10
101.55327182486
20
-6.57140577024731
30
0
41
1
10
101.664716044666
20
-7.25945212363513
30
0
41
1
10
101.720438154569
20
-7.59514833741289
30
0
41
1
10
101.831882374375
20
-8.24491566070014
30
0
41
1
10
101.887604484278
20
-8.5589791862389
30
0
41
1
10
101.999048704084
20
-9.16095701117331
30
0
41
1
10
102.054770813987
20
-9.44886484032423
30
0
41
1
10
102.166215033793
20
-9.99468376238019
30
0
41
1
10
102.221937143696
20
-10.2525901175314
30
0
41
1
10
102.333381363502
20
-10.7354055656572
30
0
41
1
10
102.389103473405
20
-10.9603120562996
30
0
41
1
10
102.500547693211
20
-11.3750856656715
30
0
41
1
10
102.556269803114
20
-11.5649524473372
30
0
41
1
10
102.66771402292
20
-11.9086072712575
30
0
41
1
10
102.723436132823
20
-12.0623970957422
30
0
41
1
10
102.834880352629
20
-12.3338388845087
30
0
41
1
10
102.890602462532
20
-12.4514943768772
30
0
41
1
10
103.002046682338
20
-12.6515073324288
30
0
41
1
10
103.057768792241
20
-12.7338695516163
30
0
41
1
10
103.169213012047
20
-12.8649083657593
30
0
41
1
10
103.22493512195
20
-12.9135903768791
30
0
41
1
10
103.336379341756
20
-12.9794989476702
30
0
41
1
10
103.392101451659
20
-12.9967310509798
30
0
41
1
10
103.461754089038
20
-13.0002874771024
30
0
41
1
10
103.475684616514
20
-13.0001069086845
30
0
41
1
10
103.503545671465
20
-12.9979486468428
30
0
41
1
10
103.545337253892
20
-12.9920031207099
30
0
41
1
10
103.58712883632
20
-12.9777347457161
30
0
41
1
10
103.670712001174
20
-12.9376028961257
30
0
41
1
10
103.726434111077
20
-12.8953720170853
30
0
41
1
10
103.837878330883
20
-12.7776352791113
30
0
41
1
10
103.893600440786
20
-12.7021239385701
30
0
41
1
10
104.005044660592
20
-12.5160769370681
30
0
41
1
10
104.060766770495
20
-12.4055363435527
30
0
41
1
10
104.172210990301
20
-12.1484238541801
30
0
41
1
10
104.227933100204
20
-12.0018481417449
30
0
41
1
10
104.33937732001
20
-11.6725342577712
30
0
41
1
10
104.395099429913
20
-11.4897939209899
30
0
41
1
10
104.506543649719
20
-11.0889872002539
30
0
41
1
10
104.562265759623
20
-10.8709207119011
30
0
41
1
10
104.673709979429
20
-10.4013011442217
30
0
41
1
10
104.729432089332
20
-10.1497502178232
30
0
41
1
10
104.840876309138
20
-9.61597407092827
30
0
41
1
10
104.896598419041
20
-9.33375318726647
30
0
41
1
10
105.008042638847
20
-8.74232435331959
30
0
41
1
10
105.06376474875
20
-8.43312257226881
30
0
41
1
10
105.175208968556
20
-7.79213488032536
30
0
41
1
10
105.230931078459
20
-7.46035638835815
30
0
41
1
10
105.342375298265
20
-6.77912763597121
30
0
41
1
10
105.398097408168
20
-6.42968532315737
30
0
41
1
10
105.509541627974
20
-5.71831732040286
30
0
41
1
10
105.565263737877
20
-5.35639936416231
30
0
41
1
10
105.676707957683
20
-4.62530640981726
30
0
41
1
10
105.732430067586
20
-4.2561382799216
30
0
41
1
10
105.843874287392
20
-3.51558781460716
30
0
41
1
10
105.899596397295
20
-3.1442110051693
30
0
41
1
10
106.011040617101
20
-2.40391493415598
30
0
41
1
10
106.066762727004
20
-2.03499959551147
30
0
41
1
10
106.17820694681
20
-1.30378459188364
30
0
41
1
10
106.233929056713
20
-0.941487199111805
30
0
41
1
10
106.317512221567
20
-0.40566654393831
30
0
41
1
10
106.345373276519
20
-0.228325625136847
30
0
41
1
10
106.387164858946
20
0.0354996587292078
30
0
41
1
10
106.401095386422
20
0.123315532510674
30
0
41
1
10
106.428956441374
20
0.300058945279915
30
0
41
1
10
106.442886968849
20
0.388780811530694
30
0
41
1
10
106.512539606228
20
0.834020642985621
30
0
41
1
10
106.568261716131
20
1.19545513453636
30
0
41
1
10
106.679705935937
20
1.92532555461469
30
0
41
1
10
106.73542804584
20
2.29375937054405
30
0
41
1
10
106.846872265646
20
3.03353059563457
30
0
41
1
10
106.902594375549
20
3.40486424719572
30
0
41
1
10
107.014038595355
20
4.14581213041913
30
0
41
1
10
107.069760705258
20
4.51542098752782
30
0
41
1
10
107.181204925064
20
5.24790838569433
30
0
41
1
10
107.236927034967
20
5.61078017407749
30
0
41
1
10
107.348371254773
20
6.32457771694718
30
0
41
1
10
107.404093364676
20
6.675495796984
30
0
41
1
10
107.515537584482
20
7.36018377920234
30
0
41
1
10
107.571259694385
20
7.69394572247271
30
0
41
1
10
107.682703914191
20
8.33936999832349
30
0
41
1
10
107.738426024094
20
8.65102482580198
30
0
41
1
10
107.8498702439
20
9.24776904265474
30
0
41
1
10
107.905592353803
20
9.53285210927444
30
0
41
1
10
108.017036573609
20
10.0726827801665
30
0
41
1
10
108.072758683512
20
10.3274258452554
30
0
41
1
10
108.184202903319
20
10.8036673953567
30
0
41
1
10
108.239925013221
20
11.0251635022377
30
0
41
1
10
108.351369233027
20
11.4329679104721
30
0
41
1
10
108.40709134293
20
11.6192760963636
30
0
41
1
10
108.518535562737
20
11.9557648582924
30
0
41
1
10
108.57425767264
20
12.105947410041
30
0
41
1
10
108.685701892445
20
12.3702197040155
30
0
41
1
10
108.741424002348
20
12.4843131212213
30
0
41
1
10
108.852868222154
20
12.6773300866166
30
0
41
1
10
108.908590332058
20
12.7562584819289
30
0
41
1
10
109.075756661767
20
12.9428105230702
30
0
41
1
10
109.187200881573
20
13
30
0
41
1
10
109.298645101379
20
13
30
0
0
SPLINE
5
F7
100
AcDbEntity
8
1
62
256
6
ByLayer
370
13
48
1
60
0
100
AcDbSpline
70
4
71
3
72
22
73
18
40
0
40
0
40
0
40
0
40
0.125
40
0.125
40
0.25
40
0.25
40
0.375
40
0.375
40
0.5
40
0.5
40
0.625
40
0.625
40
0.75
40
0.75
40
0.875
40
0.875
40
1
40
1
40
1
40
1
41
1
10
107.81255373093
20
13
30
0
41
1
10
107.914880115247
20
13
30
0
41
1
10
108.017206499564
20
12.9518262114517
30
0
41
1
10
108.221859268198
20
12.7434333067121
30
0
41
1
10
108.324185652515
20
12.5831005813718
30
0
41
1
10
108.528838421149
20
12.1409724742198
30
0
41
1
10
108.631164805466
20
11.8590923509972
30
0
41
1
10
108.8358175741
20
11.1740682900692
30
0
41
1
10
108.938143958417
20
10.7709052449833
30
0
41
1
10
109.142796727052
20
9.85482259831406
30
0
41
1
10
109.245123111369
20
9.34196832183935
30
0
41
1
10
109.449775880003
20
8.2286707100732
30
0
41
1
10
109.55210226432
20
7.62836344598611
30
0
41
1
10
109.756755032954
20
6.36987994959543
30
0
41
1
10
109.859081417271
20
5.71186820243068
30
0
41
1
10
110.063734185905
20
4.37055727473756
30
0
41
1
10
110.166060570222
20
3.68740145601785
30
0
41
1
10
110.268386954539
20
3.00692169795792
30
0
0
SPLINE
5
F8
100
AcDbEntity
8
1
62
256
6
ByLayer
370
13
48
1
60
0
100
AcDbSpline
70
4
71
3
72
8
73
4
40
0
40
0
40
0
40
0
40
1
40
1
40
1
40
1
41
1
10
98.6
20
12.9984766897412
30
0
41
1
10
98.6104927663328
20
12.9994953901204
30
0
41
1
10
98.6209855326657
20
13
30
0
41
1
10
98.6314782989984
20
13
30
0
0
SPLINE
5
F9
100
AcDbEntity
8
1
62
256
6
ByLayer
370
13
48
1
60
0
100
AcDbSpline
70
4
71
3
72
117
73
113
40
0
40
0
40
0
40
0
40
0.0156250000000002
40
0.0156250000000002
40
0.0312500000000005
40
0.0312500000000005
40
0.0468750000000007
40
0.0468750000000007
40
0.0625000000000009
40
0.0625000000000009
40
0.0937500000000014
40
0.0937500000000014
40
0.125000000000002
40
0.125000000000002
40
0.140625000000002
40
0.140625000000002
40
0.144531250000002
40
0.144531250000002
40
0.148437500000002
40
0.156250000000003
40
0.156250000000003
40
0.187500000000003
40
0.187500000000003
40
0.218750000000003
40
0.218750000000003
40
0.234375000000003
40
0.234375000000003
40
0.250000000000003
40
0.250000000000003
40
0.265625000000003
40
0.265625000000003
40
0.281250000000003
40
0.281250000000003
40
0.296875000000003
40
0.296875000000003
40
0.312500000000003
40
0.312500000000003
40
0.328125000000003
40
0.328125000000003
40
0.343750000000003
40
0.343750000000003
40
0.375000000000003
40
0.375000000000003
40
0.406250000000003
40
0.406250000000003
40
0.421875000000003
40
0.421875000000003
40
0.425781250000003
40
0.425781250000003
40
0.429687500000003
40
0.429687500000003
40
0.437500000000003
40
0.437500000000003
40
0.468750000000003
40
0.468750000000003
40
0.500000000000003
40
0.500000000000003
40
0.515625000000002
40
0.515625000000002
40
0.531250000000002
40
0.531250000000002
40
0.546875000000002
40
0.546875000000002
40
0.562500000000002
40
0.562500000000002
40
0.578125000000002
40
0.578125000000002
40
0.593750000000002
40
0.593750000000002
40
0.609375000000002
40
0.609375000000002
40
0.625000000000002
40
0.625000000000002
40
0.656250000000001
40
0.656250000000001
40
0.687500000000001
40
0.687500000000001
40
0.703125000000001
40
0.703125000000001
40
0.710937500000001
40
0.710937500000001
40
0.714843750000001
40
0.714843750000001
40
0.718750000000001
40
0.718750000000001
40
0.75
40
0.75
40
0.78125
40
0.78125
40
0.796875
40
0.796875
40
0.8125
40
0.8125
40
0.828125
40
0.828125
40
0.84375
40
0.84375
40
0.859375
40
0.859375
40
0.875
40
0.875
40
0.890625
40
0.890625
40
0.90625
40
0.90625
40
0.921875
40
0.921875
40
0.9375
40
0.9375
40
0.96875
40
0.96875
40
1
40
1
40
1
40
1
41
1
10
98.6000000000001
20
9.21291174227238
30
0
41
1
10
98.6531967389745
20
8.93578821323649
30
0
41
1
10
98.706393477949
20
8.64601105622049
30
0
41
1
10
98.8127869558977
20
8.04484707461538
30
0
41
1
10
98.8659836948722
20
7.7334659437881
30
0
41
1
10
98.972377172821
20
7.09326859827047
30
0
41
1
10
99.0255739117954
20
6.76445862899021
30
0
41
1
10
99.1319673897443
20
6.09386477527164
30
0
41
1
10
99.1851641287186
20
5.75208714580003
30
0
41
1
10
99.3447543456419
20
4.71413058094649
30
0
41
1
10
99.4511478235909
20
4.00546833142025
30
0
41
1
10
99.6639347794885
20
2.58953371593085
30
0
41
1
10
99.7703282574372
20
1.88238006230262
30
0
41
1
10
99.9299184743605
20
0.844552559298251
30
0
41
1
10
99.9831152133351
20
0.502369520239426
30
0
41
1
10
100.049611137053
20
0.0811239935542858
30
0
41
1
10
100.062910321797
20
-0.0025786740885962
30
0
41
1
10
100.089508691284
20
-0.170670248277673
30
0
41
1
10
100.129406245515
20
-0.423794349793866
30
0
41
1
10
100.169303799745
20
-0.679698918736563
30
0
41
1
10
100.302295647181
20
-1.53801461119093
30
0
41
1
10
100.40868912513
20
-2.24193960266064
30
0
41
1
10
100.621476081028
20
-3.65667588154108
30
0
41
1
10
100.727869558977
20
-4.36738123949382
30
0
41
1
10
100.8874597759
20
-5.41289064347939
30
0
41
1
10
100.940656514875
20
-5.75792831044268
30
0
41
1
10
101.047049992823
20
-6.43653552042761
30
0
41
1
10
101.100246731798
20
-6.77009891860749
30
0
41
1
10
101.206640209747
20
-7.42124410032582
30
0
41
1
10
101.259836948721
20
-7.73881957603797
30
0
41
1
10
101.36623042667
20
-8.35369887279691
30
0
41
1
10
101.419427165644
20
-8.65099676005184
30
0
41
1
10
101.525820643593
20
-9.22144004248744
30
0
41
1
10
101.579017382568
20
-9.49458040390471
30
0
41
1
10
101.685410860516
20
-10.0134035208347
30
0
41
1
10
101.738607599491
20
-10.2590825799149
30
0
41
1
10
101.84500107744
20
-10.7203862443935
30
0
41
1
10
101.898197816414
20
-10.9360087751462
30
0
41
1
10
102.004591294363
20
-11.3353983094235
30
0
41
1
10
102.057788033337
20
-11.5191649551686
30
0
41
1
10
102.217378250261
20
-12.021228657234
30
0
41
1
10
102.323771728209
20
-12.2899138436473
30
0
41
1
10
102.536558684107
20
-12.6970696248963
30
0
41
1
10
102.642952162056
20
-12.835654352291
30
0
41
1
10
102.802542378979
20
-12.9552983058469
30
0
41
1
10
102.855739117954
20
-12.9805453522526
30
0
41
1
10
102.922235041672
20
-12.9951995308567
30
0
41
1
10
102.935534226415
20
-12.9972859608339
30
0
41
1
10
102.962132595903
20
-12.999807752903
30
0
41
1
10
102.975431780646
20
-13.0002446987066
30
0
41
1
10
103.015329334877
20
-12.9991261396249
30
0
41
1
10
103.041927704364
20
-12.9951194858251
30
0
41
1
10
103.1749195518
20
-12.9580259362396
30
0
41
1
10
103.281313029749
20
-12.8735016165529
30
0
41
1
10
103.494099985647
20
-12.5789703409901
30
0
41
1
10
103.600493463595
20
-12.3688318395309
30
0
41
1
10
103.760083680519
20
-11.9541366190159
30
0
41
1
10
103.813280419493
20
-11.799406262416
30
0
41
1
10
103.919673897442
20
-11.457192406749
30
0
41
1
10
103.972870636417
20
-11.26970782028
30
0
41
1
10
104.079264114365
20
-10.863046525416
30
0
41
1
10
104.13246085334
20
-10.6438703702438
30
0
41
1
10
104.238854331289
20
-10.1757176775111
30
0
41
1
10
104.292051070263
20
-9.92674340912521
30
0
41
1
10
104.398444548212
20
-9.40167472669179
30
0
41
1
10
104.451641287186
20
-9.12558418020689
30
0
41
1
10
104.558034765135
20
-8.5496589737796
30
0
41
1
10
104.611231504109
20
-8.24982947533431
30
0
41
1
10
104.717624982058
20
-7.63036139916403
30
0
41
1
10
104.770821721033
20
-7.31072882574057
30
0
41
1
10
104.877215198982
20
-6.65597927190754
30
0
41
1
10
104.930411937956
20
-6.3208686073169
30
0
41
1
10
105.090002154879
20
-5.2991010896682
30
0
41
1
10
105.196395632828
20
-4.59610686825079
30
0
41
1
10
105.409182588726
20
-3.18215586551955
30
0
41
1
10
105.515576066675
20
-2.47133859323103
30
0
41
1
10
105.675166283598
20
-1.42251324538657
30
0
41
1
10
105.728363022572
20
-1.07575358347046
30
0
41
1
10
105.808158131034
20
-0.562249902924407
30
0
41
1
10
105.834756500521
20
-0.392183913549758
30
0
41
1
10
105.874654054752
20
-0.138995647508381
30
0
41
1
10
105.887953239496
20
-0.0550452701367021
30
0
41
1
10
105.914551608983
20
0.112742397414536
30
0
41
1
10
105.927850793726
20
0.196969845116655
30
0
41
1
10
106.047543456419
20
0.957838152431606
30
0
41
1
10
106.153936934368
20
1.65457227766186
30
0
41
1
10
106.366723890265
20
3.06343882472936
30
0
41
1
10
106.473117368214
20
3.77548741962852
30
0
41
1
10
106.632707585138
20
4.83051668681162
30
0
41
1
10
106.685904324112
20
5.1799700707991
30
0
41
1
10
106.792297802061
20
5.86995106277092
30
0
41
1
10
106.845494541035
20
6.21047282902344
30
0
41
1
10
106.951888018984
20
6.87803493051325
30
0
41
1
10
107.005084757959
20
7.20506898500503
30
0
41
1
10
107.111478235907
20
7.84121760448579
30
0
41
1
10
107.164674974882
20
8.15032595979457
30
0
41
1
10
107.271068452831
20
8.74649213677333
30
0
41
1
10
107.324265191805
20
9.03354436171495
30
0
41
1
10
107.430658669754
20
9.58195345735649
30
0
41
1
10
107.483855408728
20
9.84330584017732
30
0
41
1
10
107.590248886677
20
10.3373097803048
30
0
41
1
10
107.643445625651
20
10.5699583347608
30
0
41
1
10
107.7498391036
20
11.0043021821884
30
0
41
1
10
107.803035842575
20
11.2059961604805
30
0
41
1
10
107.909429320524
20
11.5769968296556
30
0
41
1
10
107.962626059498
20
11.7463039025738
30
0
41
1
10
108.069019537447
20
12.0519289827382
30
0
41
1
10
108.122216276421
20
12.18824889587
30
0
41
1
10
108.281806493345
20
12.5480180136864
30
0
41
1
10
108.388199971293
20
12.7219794428618
30
0
41
1
10
108.600986927191
20
12.9479017458614
30
0
41
1
10
108.70738040514
20
13
30
0
41
1
10
108.813773883089
20
13
30
0
0
SPLINE
5
FA
100
AcDbEntity
8
1
62
256
6
ByLayer
370
13
48
1
60
0
100
AcDbSpline
70
4
71
3
72
42
73
38
40
0
40
0
40
0
40
0
40
0.0625
40
0.0625
40
0.125
40
0.125
40
0.1875
40
0.1875
40
0.25
40
0.25
40
0.3125
40
0.3125
40
0.375
40
0.375
40
0.4375
40
0.4375
40
0.5
40
0.5
40
0.5625
40
0.5625
40
0.625
40
0.625
40
0.687500000000001
40
0.687500000000001
40
0.750000000000001
40
0.750000000000001
40
0.812500000000001
40
0.812500000000001
40
0.875000000000001
40
0.875000000000001
40
0.937500000000001
40
0.937500000000001
40
0.968750000000001
40
0.968750000000001
40
0.984375
40
0.984375
40
1
40
1
40
1
40
1
41
1
10
107.32768251264
20
13
30
0
41
1
10
107.388947188513
20
13
30
0
41
1
10
107.450211864385
20
12.9827769843356
30
0
41
1
10
107.572741216131
20
12.910312771509
30
0
41
1
10
107.634005892004
20
12.8550626748547
30
0
41
1
10
107.75653524375
20
12.7036135940956
30
0
41
1
10
107.817799919623
20
12.6074059823128
30
0
41
1
10
107.940329271369
20
12.3720357234336
30
0
41
1
10
108.001593947242
20
12.232865764583
30
0
41
1
10
108.124123298987
20
11.9107325282295
30
0
41
1
10
108.18538797486
20
11.7277643477989
30
0
41
1
10
108.307917326606
20
11.3185516925163
30
0
41
1
10
108.369182002479
20
11.0923056597476
30
0
41
1
10
108.491711354225
20
10.5985099353537
30
0
41
1
10
108.552976030098
20
10.330962592894
30
0
41
1
10
108.675505381844
20
9.75798235807278
30
0
41
1
10
108.736770057717
20
9.45255574375554
30
0
41
1
10
108.859299409462
20
8.80855064576915
30
0
41
1
10
108.920564085335
20
8.46998179462452
30
0
41
1
10
109.043093437081
20
7.76550001048795
30
0
41
1
10
109.104358112954
20
7.39959897747721
30
0
41
1
10
109.2268874647
20
6.64700707940887
30
0
41
1
10
109.288152140573
20
6.26032898866629
30
0
41
1
10
109.410681492319
20
5.47310796494168
30
0
41
1
10
109.471946168191
20
5.0725772522828
30
0
41
1
10
109.594475519937
20
4.26456631585606
30
0
41
1
10
109.65574019581
20
3.85709655244801
30
0
41
1
10
109.778269547556
20
3.04176858019633
30
0
41
1
10
109.839534223429
20
2.63391826594142
30
0
41
1
10
109.962063575175
20
1.82375794862722
30
0
41
1
10
110.023328251048
20
1.42145293423439
30
0
41
1
10
110.115225264857
20
0.825977373420073
30
0
41
1
10
110.145857602794
20
0.628808941777947
30
0
41
1
10
110.191806109698
20
0.335454212187017
30
0
41
1
10
110.207122278667
20
0.238068493809919
30
0
41
1
10
110.237754616603
20
0.0441586570311472
30
0
41
1
10
110.253070785571
20
-0.052155684132515
30
0
41
1
10
110.268386954539
20
-0.149134326763175
30
0
0
SPLINE
5
FB
100
AcDbEntity
8
1
62
256
6
ByLayer
370
13
48
1
60
0
100
AcDbSpline
70
4
71
3
72
88
73
84
40
0
40
0
40
0
40
0
40
0.0312500000000004
40
0.0312500000000004
40
0.0625000000000008
40
0.0625000000000008
40
0.0937500000000012
40
0.0937500000000012
40
0.0976562500000012
40
0.0976562500000012
40
0.101562500000001
40
0.101562500000001
40
0.109375000000001
40
0.109375000000001
40
0.125000000000001
40
0.125000000000001
40
0.156250000000001
40
0.156250000000001
40
0.187500000000001
40
0.187500000000001
40
0.218750000000001
40
0.218750000000001
40
0.250000000000001
40
0.250000000000001
40
0.281250000000001
40
0.281250000000001
40
0.312500000000001
40
0.312500000000001
40
0.343750000000001
40
0.343750000000001
40
0.375000000000001
40
0.375000000000001
40
0.390625000000001
40
0.390625000000001
40
0.398437500000001
40
0.398437500000001
40
0.402343750000001
40
0.402343750000001
40
0.406250000000001
40
0.406250000000001
40
0.4375
40
0.4375
40
0.46875
40
0.46875
40
0.5
40
0.5
40
0.53125
40
0.53125
40
0.562499999999999
40
0.562499999999999
40
0.593749999999999
40
0.593749999999999
40
0.624999999999999
40
0.624999999999999
40
0.656249999999998
40
0.656249999999998
40
0.687499999999998
40
0.687499999999998
40
0.695312499999998
40
0.695312499999998
40
0.699218749999998
40
0.699218749999998
40
0.703124999999998
40
0.703124999999998
40
0.718749999999999
40
0.718749999999999
40
0.749999999999999
40
0.749999999999999
40
0.781249999999999
40
0.781249999999999
40
0.812499999999999
40
0.812499999999999
40
0.843749999999999
40
0.843749999999999
40
0.874999999999999
40
0.874999999999999
40
0.90625
40
0.90625
40
0.9375
40
0.9375
40
0.96875
40
0.96875
40
1
40
1
40
1
40
1
41
1
10
98.6
20
6.39068178849917
30
0
41
1
10
98.7013427360916
20
5.75098509932593
30
0
41
1
10
98.8026854721833
20
5.08811277002468
30
0
41
1
10
99.0053709443666
20
3.74722980432645
30
0
41
1
10
99.1067136804583
20
3.06934205703368
30
0
41
1
10
99.3093991526416
20
1.72684859832478
30
0
41
1
10
99.4107418887332
20
1.0623097652759
30
0
41
1
10
99.5247524668364
20
0.334775852282519
30
0
41
1
10
99.5374203088479
20
0.254213130495316
30
0
41
1
10
99.5627559928708
20
0.0936722698310462
30
0
41
1
10
99.5754238348821
20
0.0138911550539262
30
0
41
1
10
99.6134273609165
20
-0.226123287321144
30
0
41
1
10
99.6387630449395
20
-0.387333953121299
30
0
41
1
10
99.7147700970083
20
-0.874138104607908
30
0
41
1
10
99.765441465054
20
-1.20291733271253
30
0
41
1
10
99.9174555691916
20
-2.19803891646845
30
0
41
1
10
100.018798305283
20
-2.87334515327589
30
0
41
1
10
100.221483777467
20
-4.22186168998064
30
0
41
1
10
100.322826513558
20
-4.89497181293558
30
0
41
1
10
100.525511985741
20
-6.20853624086942
30
0
41
1
10
100.626854721833
20
-6.84884484617075
30
0
41
1
10
100.829540194016
20
-8.06541326959993
30
0
41
1
10
100.930882930108
20
-8.641518423696
30
0
41
1
10
101.133568402291
20
-9.7021203897304
30
0
41
1
10
101.234911138383
20
-10.1865005449917
30
0
41
1
10
101.437596610566
20
-11.0441772580141
30
0
41
1
10
101.538939346658
20
-11.4174298259189
30
0
41
1
10
101.741624818841
20
-12.0439814341177
30
0
41
1
10
101.842967554933
20
-12.297314658563
30
0
41
1
10
102.045653027116
20
-12.6859006310301
30
0
41
1
10
102.146995763208
20
-12.8212429313378
30
0
41
1
10
102.299009867345
20
-12.9436843898017
30
0
41
1
10
102.349681235391
20
-12.9711287731218
30
0
41
1
10
102.42568828746
20
-12.9936523348931
30
0
41
1
10
102.451023971483
20
-12.9980554361316
30
0
41
1
10
102.489027497517
20
-13.0001978628048
30
0
41
1
10
102.501695339529
20
-13.000172760505
30
0
41
1
10
102.527031023552
20
-12.9986423463931
30
0
41
1
10
102.539698865563
20
-12.9971329713667
30
0
41
1
10
102.653709443666
20
-12.9767030987338
30
0
41
1
10
102.755052179758
20
-12.9096627605671
30
0
41
1
10
102.957737651941
20
-12.6634779331291
30
0
41
1
10
103.059080388033
20
-12.4842273588682
30
0
41
1
10
103.261765860216
20
-12.0059035483889
30
0
41
1
10
103.363108596308
20
-11.7067578416589
30
0
41
1
10
103.565794068491
20
-10.9905787384759
30
0
41
1
10
103.667136804583
20
-10.5735394181466
30
0
41
1
10
103.869822276766
20
-9.63445438956308
30
0
41
1
10
103.971165012858
20
-9.11248264797169
30
0
41
1
10
104.173850485041
20
-7.98636370307872
30
0
41
1
10
104.275193221133
20
-7.38235282809666
30
0
41
1
10
104.477878693316
20
-6.12168349080031
30
0
41
1
10
104.579221429407
20
-5.46518171426766
30
0
41
1
10
104.781906901591
20
-4.13118304474858
30
0
41
1
10
104.883249637682
20
-3.45381773915636
30
0
41
1
10
105.085935109866
20
-2.10737735463124
30
0
41
1
10
105.187277845957
20
-1.43838042811447
30
0
41
1
10
105.313956266072
20
-0.622118556799165
30
0
41
1
10
105.339291950095
20
-0.459849206216006
30
0
41
1
10
105.377295476129
20
-0.21814531049236
30
0
41
1
10
105.389963318141
20
-0.137860482784049
30
0
41
1
10
105.415299002164
20
0.022107919991754
30
0
41
1
10
105.427966844175
20
0.101919052190112
30
0
41
1
10
105.491306054232
20
0.503371404151522
30
0
41
1
10
105.541977422278
20
0.829217714353064
30
0
41
1
10
105.693991526416
20
1.81711461365396
30
0
41
1
10
105.795334262507
20
2.48971574726173
30
0
41
1
10
105.998019734691
20
3.8381882625788
30
0
41
1
10
106.099362470782
20
4.51397033673501
30
0
41
1
10
106.302047942966
20
5.83887198844323
30
0
41
1
10
106.403390679057
20
6.48785232031241
30
0
41
1
10
106.606076151241
20
7.72756850906941
30
0
41
1
10
106.707418887332
20
8.31814781759493
30
0
41
1
10
106.910104359516
20
9.41241590401694
30
0
41
1
10
107.011447095607
20
9.91597746262187
30
0
41
1
10
107.214132567791
20
10.8149407085885
30
0
41
1
10
107.315475303882
20
11.2102832057315
30
0
41
1
10
107.518160776066
20
11.8818423089856
30
0
41
1
10
107.619503512157
20
12.1580793215338
30
0
41
1
10
107.82218898434
20
12.5913605335555
30
0
41
1
10
107.923531720432
20
12.7484863943935
30
0
41
1
10
108.126217192615
20
12.9527519420927
30
0
41
1
10
108.227559928707
20
13
30
0
41
1
10
108.328902664799
20
13
30
0
0
SPLINE
5
FC
100
AcDbEntity
8
1
62
256
6
ByLayer
370
13
48
1
60
0
100
AcDbSpline
70
4
71
3
72
42
73
38
40
0
40
0
40
0
40
0
40
0.0625000000000005
40
0.0625000000000005
40
0.125000000000001
40
0.125000000000001
40
0.187500000000001
40
0.187500000000001
40
0.250000000000002
40
0.250000000000002
40
0.312500000000002
40
0.312500000000002
40
0.375000000000003
40
0.375000000000003
40
0.437500000000004
40
0.437500000000004
40
0.500000000000004
40
0.500000000000004
40
0.562500000000004
40
0.562500000000004
40
0.625000000000005
40
0.625000000000005
40
0.687500000000005
40
0.687500000000005
40
0.750000000000006
40
0.750000000000006
40
0.812500000000007
40
0.812500000000007
40
0.843750000000007
40
0.843750000000007
40
0.859375000000006
40
0.859375000000006
40
0.875000000000006
40
0.875000000000006
40
0.937500000000003
40
0.937500000000003
40
1
40
1
40
1
40
1
41
1
10
106.84281129435
20
13
30
0
41
1
10
106.914177453937
20
13
30
0
41
1
10
106.985543613524
20
12.9766177759074
30
0
41
1
10
107.128275932699
20
12.8775161442298
30
0
41
1
10
107.199642092286
20
12.8017776374821
30
0
41
1
10
107.342374411461
20
12.5936474575465
30
0
41
1
10
107.413740571048
20
12.4612379887827
30
0
41
1
10
107.556472890222
20
12.1373065515651
30
0
41
1
10
107.62783904981
20
11.9457712111215
30
0
41
1
10
107.770571368984
20
11.5034652966681
30
0
41
1
10
107.841937528572
20
11.2526887800968
30
0
41
1
10
107.984669847746
20
10.6944152900574
30
0
41
1
10
108.056036007333
20
10.3869218492591
30
0
41
1
10
108.198768326508
20
9.72040955704588
30
0
41
1
10
108.270134486095
20
9.36140406464992
30
0
41
1
10
108.41286680527
20
8.59948906786991
30
0
41
1
10
108.484232964857
20
8.19660110639143
30
0
41
1
10
108.626965284032
20
7.35643709841682
30
0
41
1
10
108.698331443619
20
6.91918746192627
30
0
41
1
10
108.841063762794
20
6.02097706864788
30
0
41
1
10
108.912429922381
20
5.56004345139195
30
0
41
1
10
109.055162241555
20
4.62548345829919
30
0
41
1
10
109.126528401143
20
4.15188105587052
30
0
41
1
10
109.269260720317
20
3.20256208508201
30
0
41
1
10
109.340626879905
20
2.72686354498228
30
0
41
1
10
109.483359199079
20
1.78285160404732
30
0
41
1
10
109.554725358667
20
1.31454904108421
30
0
41
1
10
109.661774598047
20
0.623621783108689
30
0
41
1
10
109.697457677841
20
0.395220986919412
30
0
41
1
10
109.750982297532
20
0.0561087091942056
30
0
41
1
10
109.768823837428
20
-0.0560460053951886
30
0
41
1
10
109.804506917222
20
-0.282120426500001
30
0
41
1
10
109.822348457119
20
-0.395738274823515
30
0
41
1
10
109.911556156603
20
-0.966478250789947
30
0
41
1
10
109.98292231619
20
-1.43161923658164
30
0
41
1
10
110.125654635365
20
-2.37145497625107
30
0
41
1
10
110.197020794952
20
-2.84614070676835
30
0
41
1
10
110.268386954539
20
-3.32103426822428
30
0
0
SPLINE
5
FD
100
AcDbEntity
8
1
62
256
6
ByLayer
370
13
48
1
60
0
100
AcDbSpline
70
4
71
3
72
87
73
83
40
0
40
0
40
0
40
0
40
0.0312500000000008
40
0.0312500000000008
40
0.0468750000000012
40
0.0468750000000012
40
0.0507812500000012
40
0.0507812500000012
40
0.0546875000000013
40
0.0546875000000013
40
0.0625000000000015
40
0.0625000000000015
40
0.0937500000000015
40
0.0937500000000015
40
0.125000000000001
40
0.125000000000001
40
0.156250000000001
40
0.156250000000001
40
0.187500000000001
40
0.187500000000001
40
0.218750000000001
40
0.218750000000001
40
0.250000000000002
40
0.250000000000002
40
0.281250000000002
40
0.281250000000002
40
0.312500000000002
40
0.312500000000002
40
0.343750000000002
40
0.343750000000002
40
0.359375000000001
40
0.359375000000001
40
0.367187500000001
40
0.367187500000001
40
0.371093750000001
40
0.371093750000001
40
0.375000000000001
40
0.375000000000001
40
0.406250000000001
40
0.406250000000001
40
0.437500000000001
40
0.437500000000001
40
0.468750000000001
40
0.468750000000001
40
0.500000000000001
40
0.500000000000001
40
0.531250000000001
40
0.531250000000001
40
0.562500000000001
40
0.562500000000001
40
0.593750000000002
40
0.593750000000002
40
0.625000000000002
40
0.625000000000002
40
0.656250000000002
40
0.656250000000002
40
0.671875000000002
40
0.671875000000002
40
0.679687500000002
40
0.683593750000002
40
0.683593750000002
40
0.687500000000002
40
0.687500000000002
40
0.718750000000001
40
0.718750000000001
40
0.750000000000001
40
0.750000000000001
40
0.781250000000001
40
0.781250000000001
40
0.812500000000001
40
0.812500000000001
40
0.843750000000001
40
0.843750000000001
40
0.875000000000001
40
0.875000000000001
40
0.90625
40
0.90625
40
0.9375
40
0.9375
40
0.96875
40
0.96875
40
1
40
1
40
1
40
1
41
1
10
98.6000000000001
20
3.21631494469472
30
0
41
1
10
98.6962919942346
20
2.57562216586282
30
0
41
1
10
98.792583988469
20
1.93605669444287
30
0
41
1
10
98.9370219798208
20
0.994518101627023
30
0
41
1
10
98.985167976938
20
0.683601571403273
30
0
41
1
10
99.0453504733345
20
0.299980581261025
30
0
41
1
10
99.0573869726138
20
0.223506737927209
30
0
41
1
10
99.0814599711724
20
0.0710902868977143
30
0
41
1
10
99.0934964704517
20
-0.0046697016264545
30
0
41
1
10
99.1296059682896
20
-0.232826130076916
30
0
41
1
10
99.1536789668482
20
-0.386010859643221
30
0
41
1
10
99.2740439596412
20
-1.15672025887204
30
0
41
1
10
99.3703359538757
20
-1.7888190333542
30
0
41
1
10
99.5629199423447
20
-3.06474822988
30
0
41
1
10
99.6592119365791
20
-3.7085262053929
30
0
41
1
10
99.8517959250481
20
-4.9835780741605
30
0
41
1
10
99.9480879192826
20
-5.61475805726232
30
0
41
1
10
100.140671907751
20
-6.83770521277123
30
0
41
1
10
100.236963901986
20
-7.42935305345625
30
0
41
1
10
100.429547890455
20
-8.54693172471849
30
0
41
1
10
100.525839884689
20
-9.07274760084789
30
0
41
1
10
100.718423873158
20
-10.036601717531
30
0
41
1
10
100.814715867393
20
-10.4745615970111
30
0
41
1
10
101.007299855862
20
-11.2479060325875
30
0
41
1
10
101.103591850096
20
-11.5832688550526
30
0
41
1
10
101.296175838565
20
-12.1454457561438
30
0
41
1
10
101.392467832799
20
-12.3722941823347
30
0
41
1
10
101.585051821268
20
-12.7200817256789
30
0
41
1
10
101.681343815503
20
-12.8410930427771
30
0
41
1
10
101.825781806855
20
-12.9503565426798
30
0
41
1
10
101.873927803972
20
-12.9747821864033
30
0
41
1
10
101.946146799648
20
-12.994651014615
30
0
41
1
10
101.970219798206
20
-12.998480938775
30
0
41
1
10
102.006329296044
20
-13.0002040426837
30
0
41
1
10
102.018365795324
20
-13.0001122359149
30
0
41
1
10
102.042438793882
20
-12.9985903306746
30
0
41
1
10
102.054475293161
20
-12.9971571808267
30
0
41
1
10
102.162803786675
20
-12.9780821091317
30
0
41
1
10
102.25909578091
20
-12.9170416107984
30
0
41
1
10
102.451679769379
20
-12.6943552442127
30
0
41
1
10
102.547971763613
20
-12.532626501937
30
0
41
1
10
102.740555752082
20
-12.1013996158077
30
0
41
1
10
102.836847746316
20
-11.8318412345397
30
0
41
1
10
103.029431734785
20
-11.185470099106
30
0
41
1
10
103.12572372902
20
-10.8086436175633
30
0
41
1
10
103.318307717489
20
-9.95712676924626
30
0
41
1
10
103.414599711723
20
-9.48248148754493
30
0
41
1
10
103.607183700192
20
-8.45315315263665
30
0
41
1
10
103.703475694427
20
-7.8985661753411
30
0
41
1
10
103.896059682895
20
-6.73344741278345
30
0
41
1
10
103.99235167713
20
-6.1230363391027
30
0
41
1
10
104.184935665599
20
-4.87326191315324
30
0
41
1
10
104.281227659834
20
-4.23401087534015
30
0
41
1
10
104.473811648302
20
-2.95282634618974
30
0
41
1
10
104.570103642537
20
-2.31097146799633
30
0
41
1
10
104.714541633889
20
-1.36312572007856
30
0
41
1
10
104.762687631006
20
-1.04963058551849
30
0
41
1
10
104.834906626682
20
-0.584807697518585
30
0
41
1
10
104.871016124519
20
-0.353747102054143
30
0
41
1
10
104.907125622357
20
-0.125001043603618
30
0
41
1
10
104.931198620916
20
0.0269526279644197
30
0
41
1
10
104.943235120195
20
0.102810507227502
30
0
41
1
10
105.051563613709
20
0.789346357170928
30
0
41
1
10
105.147855607944
20
1.41670070406968
30
0
41
1
10
105.340439596412
20
2.68736978564695
30
0
41
1
10
105.436731590647
20
3.33064064852024
30
0
41
1
10
105.629315579116
20
4.60973128147472
30
0
41
1
10
105.72560757335
20
5.24546454401712
30
0
41
1
10
105.918191561819
20
6.48286357001283
30
0
41
1
10
106.014483556054
20
7.08441296032584
30
0
41
1
10
106.207067544523
20
8.22673262305557
30
0
41
1
10
106.303359538757
20
8.767384403975
30
0
41
1
10
106.495943527226
20
9.76474400205575
30
0
41
1
10
106.592235521461
20
10.2213641329492
30
0
41
1
10
106.78481950993
20
11.0342604149852
30
0
41
1
10
106.881111504164
20
11.3905030886501
30
0
41
1
10
107.073695492633
20
11.9949015180748
30
0
41
1
10
107.169987486867
20
12.2430816259746
30
0
41
1
10
107.362571475336
20
12.6323994081942
30
0
41
1
10
107.458863469571
20
12.7736037960044
30
0
41
1
10
107.65144745804
20
12.9573619150435
30
0
41
1
10
107.747739452274
20
13
30
0
41
1
10
107.844031446509
20
13
30
0
0
SPLINE
5
FE
100
AcDbEntity
8
1
62
256
6
ByLayer
370
13
48
1
60
0
100
AcDbSpline
70
4
71
3
72
43
73
39
40
0
40
0
40
0
40
0
40
0.0624999999999997
40
0.0624999999999997
40
0.124999999999999
40
0.124999999999999
40
0.187499999999999
40
0.187499999999999
40
0.249999999999999
40
0.249999999999999
40
0.312499999999998
40
0.312499999999998
40
0.374999999999998
40
0.374999999999998
40
0.437499999999998
40
0.437499999999998
40
0.499999999999997
40
0.499999999999997
40
0.562499999999997
40
0.562499999999997
40
0.624999999999997
40
0.624999999999997
40
0.687499999999997
40
0.687499999999997
40
0.718749999999997
40
0.718749999999997
40
0.734374999999997
40
0.742187499999997
40
0.742187499999997
40
0.749999999999997
40
0.749999999999997
40
0.812499999999998
40
0.812499999999998
40
0.874999999999998
40
0.874999999999998
40
0.937499999999999
40
0.937499999999999
40
1
40
1
40
1
40
1
41
1
10
106.35794007606
20
13
30
0
41
1
10
106.439407719361
20
13
30
0
41
1
10
106.520875362663
20
12.969512118357
30
0
41
1
10
106.683810649266
20
12.8393855035635
30
0
41
1
10
106.765278292568
20
12.7397098428488
30
0
41
1
10
106.928213579171
20
12.4652947918535
30
0
41
1
10
107.009681222473
20
12.2905227900717
30
0
41
1
10
107.172616509076
20
11.8634047743047
30
0
41
1
10
107.254084152378
20
11.6110383899452
30
0
41
1
10
107.417019438981
20
11.0304496455168
30
0
41
1
10
107.498487082283
20
10.7022258969508
30
0
41
1
10
107.661422368886
20
9.97621879488372
30
0
41
1
10
107.742890012188
20
9.57845589828835
30
0
41
1
10
107.905825298791
20
8.72396535667653
30
0
41
1
10
107.987292942093
20
8.2672773388706
30
0
41
1
10
108.150228228696
20
7.30891262442663
30
0
41
1
10
108.231695871998
20
6.80728695403596
30
0
41
1
10
108.394631158601
20
5.77501021965682
30
0
41
1
10
108.476098801903
20
5.24441124579633
30
0
41
1
10
108.639034088506
20
4.1705506681277
30
0
41
1
10
108.720501731808
20
3.6273327291978
30
0
41
1
10
108.883437018411
20
2.54352556523702
30
0
41
1
10
108.964904661713
20
2.00296559965915
30
0
41
1
10
109.087106126665
20
1.2039273214634
30
0
41
1
10
109.127839948316
20
0.939528432949942
30
0
41
1
10
109.188940680792
20
0.546881471055343
30
0
41
1
10
109.21949104703
20
0.351543709014209
30
0
41
1
10
109.250041413269
20
0.157858240883627
30
0
41
1
10
109.270408324094
20
0.0291197051276413
30
0
41
1
10
109.280591779507
20
-0.0349647750307724
30
0
41
1
10
109.372242878221
20
-0.614393238439192
30
0
41
1
10
109.453710521523
20
-1.14187184172019
30
0
41
1
10
109.616645808126
20
-2.21105694429821
30
0
41
1
10
109.698113451428
20
-2.75274814784896
30
0
41
1
10
109.861048738031
20
-3.83695599319185
30
0
41
1
10
109.942516381333
20
-4.37944134122228
30
0
41
1
10
110.105451667936
20
-5.44976419507699
30
0
41
1
10
110.186919311238
20
-5.97755652417919
30
0
41
1
10
110.268386954539
20
-6.48983272262441
30
0
0
SPLINE
5
FF
100
AcDbEntity
8
1
62
256
6
ByLayer
370
13
48
1
60
0
100
AcDbSpline
70
4
71
3
72
86
73
82
40
0
40
0
40
0
40
0
40
0.00390625
40
0.00390625
40
0.0078125000000001
40
0.0156250000000002
40
0.0156250000000002
40
0.0312500000000003
40
0.0312500000000003
40
0.0625000000000005
40
0.0625000000000005
40
0.0937500000000007
40
0.0937500000000007
40
0.125000000000001
40
0.125000000000001
40
0.156250000000001
40
0.156250000000001
40
0.187500000000001
40
0.187500000000001
40
0.218750000000001
40
0.218750000000001
40
0.250000000000002
40
0.250000000000002
40
0.281250000000002
40
0.281250000000002
40
0.312500000000002
40
0.312500000000002
40
0.328125000000002
40
0.328125000000002
40
0.332031250000002
40
0.332031250000002
40
0.335937500000002
40
0.335937500000002
40
0.343750000000002
40
0.343750000000002
40
0.375000000000002
40
0.375000000000002
40
0.406250000000002
40
0.406250000000002
40
0.437500000000002
40
0.437500000000002
40
0.468750000000003
40
0.468750000000003
40
0.500000000000003
40
0.500000000000003
40
0.531250000000003
40
0.531250000000003
40
0.562500000000003
40
0.562500000000003
40
0.593750000000003
40
0.593750000000003
40
0.625000000000003
40
0.625000000000003
40
0.656250000000003
40
0.656250000000003
40
0.664062500000003
40
0.664062500000003
40
0.667968750000003
40
0.667968750000003
40
0.671875000000003
40
0.687500000000003
40
0.687500000000003
40
0.718750000000003
40
0.718750000000003
40
0.750000000000003
40
0.750000000000003
40
0.781250000000002
40
0.781250000000002
40
0.812500000000002
40
0.812500000000002
40
0.843750000000002
40
0.843750000000002
40
0.875000000000001
40
0.875000000000001
40
0.906250000000001
40
0.906250000000001
40
0.937500000000001
40
0.937500000000001
40
0.96875
40
0.96875
40
1
40
1
40
1
40
1
41
1
10
98.6
20
0.049639187005738
30
0
41
1
10
98.6114051565471
20
-0.0223538750217642
30
0
41
1
10
98.6228103130944
20
-0.0942207373733481
30
0
41
1
10
98.6456206261886
20
-0.238726781865154
30
0
41
1
10
98.6798360958302
20
-0.456197625858039
30
0
41
1
10
98.7140515654717
20
-0.675688616953948
30
0
41
1
10
98.7824825047546
20
-1.11703119960319
30
0
41
1
10
98.8281031309433
20
-1.41441583999449
30
0
41
1
10
98.9649650095092
20
-2.31305024528945
30
0
41
1
10
99.0562062618865
20
-2.92089693456566
30
0
41
1
10
99.2386887666411
20
-4.13504054064421
30
0
41
1
10
99.3299300190183
20
-4.74127845425079
30
0
41
1
10
99.5124125237729
20
-5.93004597430763
30
0
41
1
10
99.6036537761502
20
-6.51249131229764
30
0
41
1
10
99.7861362809047
20
-7.63065958777941
30
0
41
1
10
99.8773775332819
20
-8.16628960289438
30
0
41
1
10
100.059860038037
20
-9.16968911423814
30
0
41
1
10
100.151101290414
20
-9.63737963493276
30
0
41
1
10
100.333583795168
20
-10.4883061102036
30
0
41
1
10
100.424825047546
20
-10.8714968961053
30
0
41
1
10
100.6073075523
20
-11.543305807719
30
0
41
1
10
100.698548804677
20
-11.8319214947037
30
0
41
1
10
100.881031309432
20
-12.3116737304546
30
0
41
1
10
100.972272561809
20
-12.5028457972316
30
0
41
1
10
101.154755066564
20
-12.7914891281747
30
0
41
1
10
101.245996318941
20
-12.8890192212102
30
0
41
1
10
101.382858197507
20
-12.9717776258652
30
0
41
1
10
101.428478823696
20
-12.9888090317488
30
0
41
1
10
101.485504606432
20
-12.9978064847349
30
0
41
1
10
101.496909762979
20
-12.9989917996825
30
0
41
1
10
101.519720076073
20
-13.0001581550778
30
0
41
1
10
101.53112523262
20
-13.0001423489321
30
0
41
1
10
101.565340702262
20
-12.9982965154331
30
0
41
1
10
101.588151015356
20
-12.9946558337852
30
0
41
1
10
101.702202580828
20
-12.963926123821
30
0
41
1
10
101.793443833205
20
-12.899125743394
30
0
41
1
10
101.975926337959
20
-12.6787801804123
30
0
41
1
10
102.067167590337
20
-12.5231719962712
30
0
41
1
10
102.249650095091
20
-12.1152557071201
30
0
41
1
10
102.340891347468
20
-11.8629014047295
30
0
41
1
10
102.523373852223
20
-11.261726082788
30
0
41
1
10
102.6146151046
20
-10.9128921707784
30
0
41
1
10
102.797097609355
20
-10.1261259530545
30
0
41
1
10
102.888338861732
20
-9.68822323153114
30
0
41
1
10
103.070821366487
20
-8.73759721374378
30
0
41
1
10
103.162062618864
20
-8.22494220207633
30
0
41
1
10
103.344545123618
20
-7.14450237917461
30
0
41
1
10
103.435786375996
20
-6.57680800998929
30
0
41
1
10
103.61826888075
20
-5.40893811689253
30
0
41
1
10
103.709510133127
20
-4.80885249382362
30
0
41
1
10
103.891992637882
20
-3.59901205124999
30
0
41
1
10
103.983233890259
20
-2.98932693046783
30
0
41
1
10
104.165716395014
20
-1.78079929854755
30
0
41
1
10
104.256957647391
20
-1.18199611472957
30
0
41
1
10
104.371009212863
20
-0.450610669616822
30
0
41
1
10
104.393819525957
20
-0.305178591583854
30
0
41
1
10
104.428034995599
20
-0.0884574957463258
30
0
41
1
10
104.439440152146
20
-0.0166107348565845
30
0
41
1
10
104.46225046524
20
0.127401391306989
30
0
41
1
10
104.519276247976
20
0.488647928627614
30
0
41
1
10
104.576302030712
20
0.855688794542289
30
0
41
1
10
104.713163909278
20
1.74499544146664
30
0
41
1
10
104.804405161655
20
2.34920659207808
30
0
41
1
10
104.98688766641
20
3.56249337061254
30
0
41
1
10
105.078128918787
20
4.1715197065142
30
0
41
1
10
105.260611423541
20
5.37303615152939
30
0
41
1
10
105.351852675919
20
5.96544859953727
30
0
41
1
10
105.534335180673
20
7.11071328297598
30
0
41
1
10
105.62557643305
20
7.66347301328889
30
0
41
1
10
105.808058937805
20
8.70740038909744
30
0
41
1
10
105.899300190182
20
9.19848221646294
30
0
41
1
10
106.081782694937
20
10.1007770969992
30
0
41
1
10
106.173023947314
20
10.5119327635965
30
0
41
1
10
106.355506452069
20
11.24208170507
30
0
41
1
10
106.446747704446
20
11.5610590065648
30
0
41
1
10
106.629230209201
20
12.1016795077657
30
0
41
1
10
106.720471461578
20
12.3233475447468
30
0
41
1
10
106.902953966332
20
12.6711513006002
30
0
41
1
10
106.99419521871
20
12.7973404110314
30
0
41
1
10
107.176677723464
20
12.9617324090996
30
0
41
1
10
107.267918975841
20
13
30
0
41
1
10
107.359160228219
20
13
30
0
0
SPLINE
5
100
100
AcDbEntity
8
1
62
256
6
ByLayer
370
13
48
1
60
0
100
AcDbSpline
70
4
71
3
72
42
73
38
40
0
40
0
40
0
40
0
40
0.0625000000000002
40
0.0625000000000002
40
0.125
40
0.125
40
0.187500000000001
40
0.187500000000001
40
0.250000000000001
40
0.250000000000001
40
0.312500000000001
40
0.312500000000001
40
0.375000000000001
40
0.375000000000001
40
0.437500000000002
40
0.437500000000002
40
0.500000000000002
40
0.500000000000002
40
0.562500000000002
40
0.562500000000002
40
0.625000000000002
40
0.625000000000002
40
0.656250000000002
40
0.656250000000002
40
0.671875000000002
40
0.671875000000002
40
0.687500000000002
40
0.687500000000002
40
0.750000000000001
40
0.750000000000001
40
0.812500000000001
40
0.812500000000001
40
0.875000000000001
40
0.875000000000001
40
0.9375
40
0.9375
40
1
40
1
40
1
40
1
41
1
10
105.87306885777
20
13
30
0
41
1
10
105.964637984786
20
13
30
0
41
1
10
106.056207111802
20
12.9614559481971
30
0
41
1
10
106.239345365834
20
12.7958412543683
30
0
41
1
10
106.33091449285
20
12.6687047542771
30
0
41
1
10
106.514052746882
20
12.3182803887755
30
0
41
1
10
106.605621873898
20
12.0949383195131
30
0
41
1
10
106.78876012793
20
11.5502820333769
30
0
41
1
10
106.880329254946
20
11.2289429318164
30
0
41
1
10
107.063467508978
20
10.4935293833636
30
0
41
1
10
107.155036635994
20
10.0794718348735
30
0
41
1
10
107.338174890026
20
9.17107480492032
30
0
41
1
10
107.429744017042
20
8.67679441838584
30
0
41
1
10
107.612882271074
20
7.62646941424086
30
0
41
1
10
107.70445139809
20
7.07051255681768
30
0
41
1
10
107.887589652122
20
5.91914911031046
30
0
41
1
10
107.979158779138
20
5.32383656024842
30
0
41
1
10
108.162297033171
20
4.11705498949766
30
0
41
1
10
108.253866160187
20
3.50566434102413
30
0
41
1
10
108.437004414219
20
2.28833224077695
30
0
41
1
10
108.528573541235
20
1.68243993419151
30
0
41
1
10
108.665927231759
20
0.79116049081847
30
0
41
1
10
108.711711795267
20
0.49696093465937
30
0
41
1
10
108.780388640529
20
0.0613593789049105
30
0
41
1
10
108.803280922283
20
-0.0824488192576496
30
0
41
1
10
108.849065485791
20
-0.373033409454905
30
0
41
1
10
108.871957767545
20
-0.51926796196318
30
0
41
1
10
108.986419176315
20
-1.2546073237024
30
0
41
1
10
109.077988303331
20
-1.85638802307778
30
0
41
1
10
109.261126557363
20
-3.07013761942238
30
0
41
1
10
109.352695684379
20
-3.6820650815497
30
0
41
1
10
109.535833938411
20
-4.89528765994777
30
0
41
1
10
109.627403065427
20
-5.49651054075645
30
0
41
1
10
109.810541319459
20
-6.66524949813223
30
0
41
1
10
109.902110446475
20
-7.23267348712585
30
0
41
1
10
110.085248700507
20
-8.31100490486506
30
0
41
1
10
110.176817827523
20
-8.82182090469632
30
0
41
1
10
110.268386954539
20
-9.29452570598721
30
0
0
SPLINE
5
101
100
AcDbEntity
8
1
62
256
6
ByLayer
370
13
48
1
60
0
100
AcDbSpline
70
4
71
3
72
81
73
77
40
0
40
0
40
0
40
0
40
0.0312499999999992
40
0.0312499999999992
40
0.0624999999999984
40
0.0624999999999984
40
0.0937499999999976
40
0.0937499999999976
40
0.124999999999997
40
0.124999999999997
40
0.156249999999996
40
0.156249999999996
40
0.187499999999995
40
0.187499999999995
40
0.218749999999995
40
0.218749999999995
40
0.249999999999994
40
0.249999999999994
40
0.281249999999993
40
0.281249999999993
40
0.289062499999993
40
0.292968749999993
40
0.292968749999993
40
0.296874999999993
40
0.296874999999993
40
0.312499999999993
40
0.312499999999993
40
0.343749999999994
40
0.343749999999994
40
0.374999999999994
40
0.374999999999994
40
0.406249999999995
40
0.406249999999995
40
0.437499999999996
40
0.437499999999996
40
0.468749999999996
40
0.468749999999996
40
0.499999999999997
40
0.499999999999997
40
0.531249999999998
40
0.531249999999998
40
0.562499999999998
40
0.562499999999998
40
0.593749999999999
40
0.593749999999999
40
0.625
40
0.625
40
0.640625
40
0.640625
40
0.64453125
40
0.64453125
40
0.6484375
40
0.6484375
40
0.65625
40
0.65625
40
0.6875
40
0.6875
40
0.71875
40
0.71875
40
0.75
40
0.75
40
0.78125
40
0.78125
40
0.8125
40
0.8125
40
0.84375
40
0.84375
40
0.875
40
0.875
40
0.90625
40
0.90625
40
0.9375
40
0.9375
40
0.96875
40
0.96875
40
1
40
1
40
1
40
1
41
1
10
98.6
20
-3.11159656889566
30
0
41
1
10
98.6861905105201
20
-3.68495582105606
30
0
41
1
10
98.7723810210402
20
-4.25966534069761
30
0
41
1
10
98.9447620420804
20
-5.39369619679704
30
0
41
1
10
99.0309525526005
20
-5.95295853512371
30
0
41
1
10
99.2033335736406
20
-7.03669304535484
30
0
41
1
10
99.2895240841608
20
-7.56109564605751
30
0
41
1
10
99.461905105201
20
-8.55644497260602
30
0
41
1
10
99.5480956157211
20
-9.02732600167002
30
0
41
1
10
99.7204766367612
20
-9.89979103102664
30
0
41
1
10
99.8066671472813
20
-10.3013281215955
30
0
41
1
10
99.9790481683215
20
-11.0238332984302
30
0
41
1
10
100.065238678842
20
-11.3447831153483
30
0
41
1
10
100.237619699882
20
-11.9004197471524
30
0
41
1
10
100.323810210402
20
-12.1351183025078
30
0
41
1
10
100.496191231442
20
-12.5182310654267
30
0
41
1
10
100.582381741962
20
-12.6666803247726
30
0
41
1
10
100.754762763002
20
-12.8822116406788
30
0
41
1
10
100.840953273522
20
-12.9493408820781
30
0
41
1
10
100.948691411673
20
-12.9877583413838
30
0
41
1
10
100.981012853118
20
-12.995881836695
30
0
41
1
10
101.013334294562
20
-12.9990794593373
30
0
41
1
10
101.034881922192
20
-13.0001370793664
30
0
41
1
10
101.045655736008
20
-13.0001314021986
30
0
41
1
10
101.099524805083
20
-12.9974297525928
30
0
41
1
10
101.142620060343
20
-12.9866682391891
30
0
41
1
10
101.271905826123
20
-12.926700307771
30
0
41
1
10
101.358096336643
20
-12.8497090014415
30
0
41
1
10
101.530477357683
20
-12.6135987981032
30
0
41
1
10
101.616667868203
20
-12.4544335922094
30
0
41
1
10
101.789048889243
20
-12.0495923957495
30
0
41
1
10
101.875239399764
20
-11.803883729683
30
0
41
1
10
102.047620420804
20
-11.2266191347238
30
0
41
1
10
102.133810931324
20
-10.8950550287106
30
0
41
1
10
102.306191952364
20
-10.152442006834
30
0
41
1
10
102.392382462884
20
-9.74141524279582
30
0
41
1
10
102.564763483924
20
-8.85174423877857
30
0
41
1
10
102.650953994444
20
-8.37314997801514
30
0
41
1
10
102.823335015485
20
-7.3646156744455
30
0
41
1
10
102.909525526005
20
-6.83474268731015
30
0
41
1
10
103.081906547045
20
-5.74252305032414
30
0
41
1
10
103.168097057565
20
-5.18024536253827
30
0
41
1
10
103.340478078605
20
-4.04258812693075
30
0
41
1
10
103.426668589125
20
-3.46726543910341
30
0
41
1
10
103.599049610165
20
-2.32145157615508
30
0
41
1
10
103.685240120685
20
-1.75099668604688
30
0
41
1
10
103.814525886466
20
-0.910241401910298
30
0
41
1
10
103.857621141726
20
-0.632451830218741
30
0
41
1
10
103.911490210801
20
-0.289258070971613
30
0
41
1
10
103.922264024616
20
-0.220820913687675
30
0
41
1
10
103.943811652246
20
-0.0843716500732512
30
0
41
1
10
103.954585466061
20
-0.016497843942858
30
0
41
1
10
103.986906907506
20
0.187537625863911
30
0
41
1
10
104.008454535136
20
0.324432782000514
30
0
41
1
10
104.116192673286
20
1.01282877977556
30
0
41
1
10
104.202383183806
20
1.57623126560009
30
0
41
1
10
104.374764204846
20
2.71491647159758
30
0
41
1
10
104.460954715366
20
3.29017277187552
30
0
41
1
10
104.633335736406
20
4.43578975561169
30
0
41
1
10
104.719526246926
20
5.00610193591217
30
0
41
1
10
104.891907267967
20
6.12290633921717
30
0
41
1
10
104.978097778487
20
6.6693334191408
30
0
41
1
10
105.150478799527
20
7.71902771015257
30
0
41
1
10
105.236669310047
20
8.22222510683955
30
0
41
1
10
105.409050331087
20
9.16778087414562
30
0
41
1
10
105.495240841607
20
9.61008010131309
30
0
41
1
10
105.667621862647
20
10.4198159187701
30
0
41
1
10
105.753812373168
20
10.7872173594349
30
0
41
1
10
105.926193394208
20
11.4382509264569
30
0
41
1
10
106.012383904728
20
11.7218782534999
30
0
41
1
10
106.184764925768
20
12.2021894986514
30
0
41
1
10
106.270955436288
20
12.3988965330469
30
0
41
1
10
106.443336457328
20
12.7076335140152
30
0
41
1
10
106.529526967848
20
12.8197052848919
30
0
41
1
10
106.701907988888
20
12.9658641117181
30
0
41
1
10
106.788098499409
20
13
30
0
41
1
10
106.874289009929
20
13
30
0
0
SPLINE
5
102
100
AcDbEntity
8
1
62
256
6
ByLayer
370
13
48
1
60
0
100
AcDbSpline
70
4
71
3
72
43
73
39
40
0
40
0
40
0
40
0
40
0.0625
40
0.0625
40
0.125
40
0.125
40
0.1875
40
0.1875
40
0.25
40
0.25
40
0.3125
40
0.3125
40
0.375
40
0.375
40
0.4375
40
0.4375
40
0.5
40
0.5
40
0.5625
40
0.5625
40
0.59375
40
0.59375
40
0.6015625
40
0.6015625
40
0.609375
40
0.625
40
0.625
40
0.6875
40
0.6875
40
0.75
40
0.75
40
0.8125
40
0.8125
40
0.875
40
0.875
40
0.9375
40
0.9375
40
1
40
1
40
1
40
1
41
1
10
105.38819763948
20
13
30
0
41
1
10
105.48986825021
20
13
30
0
41
1
10
105.59153886094
20
12.9524443854644
30
0
41
1
10
105.794880082401
20
12.7468079326255
30
0
41
1
10
105.896550693132
20
12.588616998546
30
0
41
1
10
106.099891914593
20
12.1523972087668
30
0
41
1
10
106.201562525323
20
11.8742856706871
30
0
41
1
10
106.404903746784
20
11.1982521538272
30
0
41
1
10
106.506574357514
20
10.8003101798944
30
0
41
1
10
106.709915578975
20
9.89565303577118
30
0
41
1
10
106.811586189705
20
9.38899905674526
30
0
41
1
10
107.014927411166
20
8.28839257320263
30
0
41
1
10
107.116598021897
20
7.69457019572417
30
0
41
1
10
107.319939243357
20
6.44858964166082
30
0
41
1
10
107.421609854088
20
5.79659064231575
30
0
41
1
10
107.624951075549
20
4.4661949379107
30
0
41
1
10
107.726621686279
20
3.7879388670581
30
0
41
1
10
107.92996290774
20
2.43526591385549
30
0
41
1
10
108.03163351847
20
1.76093825686385
30
0
41
1
10
108.184139434566
20
0.771062715785973
30
0
41
1
10
108.234974739931
20
0.444657670807658
30
0
41
1
10
108.298518871638
20
0.0426311445937131
30
0
41
1
10
108.311227697979
20
-0.0373164594042521
30
0
41
1
10
108.336645350661
20
-0.198100738930634
30
0
41
1
10
108.374771829686
20
-0.440171536511997
30
0
41
1
10
108.412898308709
20
-0.684767618284155
30
0
41
1
10
108.539986572122
20
-1.50493184160746
30
0
41
1
10
108.641657182853
20
-2.17682445844312
30
0
41
1
10
108.844998404314
20
-3.52815229419306
30
0
41
1
10
108.946669015044
20
-4.20750594790709
30
0
41
1
10
109.150010236505
20
-5.54413393289963
30
0
41
1
10
109.251680847235
20
-6.20127285875748
30
0
41
1
10
109.455022068696
20
-7.46155084797613
30
0
41
1
10
109.556692679427
20
-8.06453056919386
30
0
41
1
10
109.760033900887
20
-9.1868319359011
30
0
41
1
10
109.861704511618
20
-9.70601711647743
30
0
41
1
10
110.065045733079
20
-10.6379591504023
30
0
41
1
10
110.166716343809
20
-11.0506446269296
30
0
41
1
10
110.268386954539
20
-11.4038069005013
30
0
0
SPLINE
5
103
100
AcDbEntity
8
1
62
256
6
ByLayer
370
13
48
1
60
0
100
AcDbSpline
70
4
71
3
72
79
73
75
40
0
40
0
40
0
40
0
40
0.0312500000000005
40
0.0312500000000005
40
0.0625000000000011
40
0.0625000000000011
40
0.0937500000000016
40
0.0937500000000016
40
0.125000000000002
40
0.125000000000002
40
0.156250000000003
40
0.156250000000003
40
0.187500000000003
40
0.187500000000003
40
0.218750000000004
40
0.218750000000004
40
0.250000000000004
40
0.250000000000004
40
0.253906250000004
40
0.253906250000004
40
0.257812500000004
40
0.265625000000005
40
0.265625000000005
40
0.281250000000004
40
0.281250000000004
40
0.312500000000004
40
0.312500000000004
40
0.343750000000003
40
0.343750000000003
40
0.375000000000003
40
0.375000000000003
40
0.406250000000003
40
0.406250000000003
40
0.437500000000002
40
0.437500000000002
40
0.468750000000002
40
0.468750000000002
40
0.500000000000001
40
0.500000000000001
40
0.531250000000001
40
0.531250000000001
40
0.5625
40
0.5625
40
0.59375
40
0.59375
40
0.624999999999999
40
0.624999999999999
40
0.632812499999999
40
0.632812499999999
40
0.640624999999999
40
0.640624999999999
40
0.656249999999999
40
0.656249999999999
40
0.687499999999999
40
0.687499999999999
40
0.718749999999999
40
0.718749999999999
40
0.749999999999999
40
0.749999999999999
40
0.781249999999999
40
0.781249999999999
40
0.812499999999999
40
0.812499999999999
40
0.84375
40
0.84375
40
0.875
40
0.875
40
0.90625
40
0.90625
40
0.9375
40
0.9375
40
0.96875
40
0.96875
40
1
40
1
40
1
40
1
41
1
10
98.6
20
-6.29114304246471
30
0
41
1
10
98.681139768663
20
-6.80520426263266
30
0
41
1
10
98.7622795373258
20
-7.30486984186072
30
0
41
1
10
98.9245590746516
20
-8.25973654553258
30
0
41
1
10
99.0056988433146
20
-8.71488763321477
30
0
41
1
10
99.1679783806404
20
-9.56687914641029
30
0
41
1
10
99.2491181493033
20
-9.96368060686598
30
0
41
1
10
99.4113976866291
20
-10.6884290354204
30
0
41
1
10
99.492537455292
20
-11.0163556999491
30
0
41
1
10
99.6548169926178
20
-11.5970277588885
30
0
41
1
10
99.7359567612807
20
-11.8497741793729
30
0
41
1
10
99.8982362986064
20
-12.2782702375344
30
0
41
1
10
99.9793760672694
20
-12.4540395237197
30
0
41
1
10
100.141655604595
20
-12.7309517980116
30
0
41
1
10
100.222795373258
20
-12.8321265521569
30
0
41
1
10
100.385074910584
20
-12.9656073383835
30
0
41
1
10
100.466214679247
20
-12.9979495440825
30
0
41
1
10
100.557496918993
20
-13.0001496930561
30
0
41
1
10
100.567639390075
20
-12.9999229020403
30
0
41
1
10
100.587924332241
20
-12.9985153466495
30
0
41
1
10
100.61835174549
20
-12.9949705768876
30
0
41
1
10
100.648779158738
20
-12.9870488113501
30
0
41
1
10
100.709633985235
20
-12.9651730994613
30
0
41
1
10
100.750203869567
20
-12.9425423994578
30
0
41
1
10
100.871913522561
20
-12.8490669850916
30
0
41
1
10
100.953053291224
20
-12.7525479872723
30
0
41
1
10
101.11533282855
20
-12.4852285942845
30
0
41
1
10
101.196472597213
20
-12.314395916661
30
0
41
1
10
101.358752134539
20
-11.895808333568
30
0
41
1
10
101.439891903202
20
-11.6480327722802
30
0
41
1
10
101.602171440527
20
-11.0770517533685
30
0
41
1
10
101.68331120919
20
-10.7538439311345
30
0
41
1
10
101.845590746516
20
-10.0379927310409
30
0
41
1
10
101.926730515179
20
-9.64536829798345
30
0
41
1
10
102.089010052505
20
-8.8009385412989
30
0
41
1
10
102.170149821168
20
-8.3491711620205
30
0
41
1
10
102.332429358493
20
-7.40010272744206
30
0
41
1
10
102.413569127156
20
-6.90285128759402
30
0
41
1
10
102.575848664482
20
-5.87850860673831
30
0
41
1
10
102.656988433145
20
-5.351468658192
30
0
41
1
10
102.819267970471
20
-4.28373603228275
30
0
41
1
10
102.900407739134
20
-3.74308695055629
30
0
41
1
10
103.06268727646
20
-2.66335864245093
30
0
41
1
10
103.143827045123
20
-2.12430921717512
30
0
41
1
10
103.306106582448
20
-1.06091751239603
30
0
41
1
10
103.387246351111
20
-0.53658942174539
30
0
41
1
10
103.48867106194
20
0.103135616264495
30
0
41
1
10
103.508956004106
20
0.231482231857456
30
0
41
1
10
103.549525888437
20
0.489969231307413
30
0
41
1
10
103.569810830603
20
0.619927169537021
30
0
41
1
10
103.6306656571
20
1.01171211621991
30
0
41
1
10
103.671235541431
20
1.2754558023704
30
0
41
1
10
103.792945194426
20
2.07228736405068
30
0
41
1
10
103.874084963089
20
2.61105254561878
30
0
41
1
10
104.036364500414
20
3.69067356117623
30
0
41
1
10
104.117504269077
20
4.2315000931182
30
0
41
1
10
104.279783806403
20
5.30010124055977
30
0
41
1
10
104.360923575066
20
5.82783263341855
30
0
41
1
10
104.523203112392
20
6.85408200744951
30
0
41
1
10
104.604342881055
20
7.35254881042991
30
0
41
1
10
104.766622418381
20
8.30453192422007
30
0
41
1
10
104.847762187044
20
8.7579984035298
30
0
41
1
10
105.010041724369
20
9.60622176333251
30
0
41
1
10
105.091181493032
20
10.0009401851111
30
0
41
1
10
105.253461030358
20
10.7212487071231
30
0
41
1
10
105.334600799021
20
11.0468191818528
30
0
41
1
10
105.496880336347
20
11.6226497987069
30
0
41
1
10
105.57802010501
20
11.8729116377477
30
0
41
1
10
105.740299642335
20
12.2964529563787
30
0
41
1
10
105.821439410998
20
12.469752591696
30
0
41
1
10
105.983718948324
20
12.7418639678075
30
0
41
1
10
106.064858716987
20
12.8407077369807
30
0
41
1
10
106.227138254313
20
12.9697576554156
30
0
41
1
10
106.308278022976
20
13
30
0
41
1
10
106.389417791639
20
13
30
0
0
SPLINE
5
104
100
AcDbEntity
8
1
62
256
6
ByLayer
370
13
48
1
60
0
100
AcDbSpline
70
4
71
3
72
72
73
68
40
0
40
0
40
0
40
0
40
0.0625
40
0.0625
40
0.09375
40
0.09375
40
0.125
40
0.125
40
0.15625
40
0.15625
40
0.1875
40
0.1875
40
0.21875
40
0.21875
40
0.25
40
0.25
40
0.28125
40
0.28125
40
0.3125
40
0.3125
40
0.34375
40
0.34375
40
0.375
40
0.375
40
0.40625
40
0.40625
40
0.4375
40
0.4375
40
0.46875
40
0.46875
40
0.5
40
0.5
40
0.53125
40
0.53125
40
0.5390625
40
0.5390625
40
0.546875
40
0.546875
40
0.5625
40
0.5625
40
0.59375
40
0.59375
40
0.625
40
0.625
40
0.65625
40
0.65625
40
0.6875
40
0.6875
40
0.71875
40
0.71875
40
0.75
40
0.75
40
0.78125
40
0.78125
40
0.8125
40
0.8125
40
0.84375
40
0.84375
40
0.875
40
0.875
40
0.90625
40
0.90625
40
0.9375
40
0.9375
40
0.96875
40
0.96875
40
1
40
1
40
1
40
1
41
1
10
104.90332642119
20
13
30
0
41
1
10
105.015098515635
20
13
30
0
41
1
10
105.126870610079
20
12.9424716692403
30
0
41
1
10
105.294528751746
20
12.7547787668889
30
0
41
1
10
105.350414798969
20
12.6753653004378
30
0
41
1
10
105.462186893414
20
12.4811589102811
30
0
41
1
10
105.518072940636
20
12.3663610758646
30
0
41
1
10
105.629845035081
20
12.100461041433
30
0
41
1
10
105.685731082303
20
11.9493551295688
30
0
41
1
10
105.797503176748
20
11.610812917835
30
0
41
1
10
105.85338922397
20
11.4233746419207
30
0
41
1
10
105.965161318415
20
11.0131278936927
30
0
41
1
10
106.021047365638
20
10.7903195783845
30
0
41
1
10
106.132819460082
20
10.3113078114189
30
0
41
1
10
106.188705507305
20
10.0551068202503
30
0
41
1
10
106.300477601749
20
9.51226077790071
30
0
41
1
10
106.356363648972
20
9.22562038099588
30
0
41
1
10
106.468135743417
20
8.62571518586108
30
0
41
1
10
106.524021790639
20
8.31245684421609
30
0
41
1
10
106.635793885084
20
7.66383555161221
30
0
41
1
10
106.691679932306
20
7.3284802410455
30
0
41
1
10
106.803452026751
20
6.64067088701299
30
0
41
1
10
106.859338073973
20
6.28822492212578
30
0
41
1
10
106.971110168418
20
5.57148745629385
30
0
41
1
10
107.026996215641
20
5.2072037202727
30
0
41
1
10
107.138768310085
20
4.47205068986753
30
0
41
1
10
107.194654357308
20
4.10118820162955
30
0
41
1
10
107.306426451753
20
3.35792348423792
30
0
41
1
10
107.362312498975
20
2.98552664475639
30
0
41
1
10
107.47408459342
20
2.2438403575411
30
0
41
1
10
107.529970640642
20
1.87455464847778
30
0
41
1
10
107.641742735087
20
1.14320144058902
30
0
41
1
10
107.697628782309
20
0.781136009523436
30
0
41
1
10
107.767486341337
20
0.335245299418148
30
0
41
1
10
107.781457853143
20
0.246400124442914
30
0
41
1
10
107.809400876754
20
0.0694237338507833
30
0
41
1
10
107.82337238856
20
-0.0184714805612316
30
0
41
1
10
107.865286923976
20
-0.283521058415118
30
0
41
1
10
107.893229947588
20
-0.461667894106654
30
0
41
1
10
107.977059018421
20
-0.99986391202583
30
0
41
1
10
108.032945065644
20
-1.36368851052146
30
0
41
1
10
108.144717160089
20
-2.09777908565874
30
0
41
1
10
108.200603207311
20
-2.4680426648093
30
0
41
1
10
108.312375301756
20
-3.21078685017338
30
0
41
1
10
108.368261348978
20
-3.58326337637351
30
0
41
1
10
108.480033443423
20
-4.32569639688509
30
0
41
1
10
108.535919490645
20
-4.69564718938133
30
0
41
1
10
108.64769158509
20
-5.42792614569146
30
0
41
1
10
108.703577632312
20
-5.79024726609347
30
0
41
1
10
108.815349726757
20
-6.50199124240149
30
0
41
1
10
108.87123577398
20
-6.85140621322975
30
0
41
1
10
108.983007868424
20
-7.53211529995051
30
0
41
1
10
109.038893915647
20
-7.86340136357569
30
0
41
1
10
109.150666010091
20
-8.50292492212142
30
0
41
1
10
109.206552057314
20
-8.81115495793372
30
0
41
1
10
109.318324151759
20
-9.40016929627015
30
0
41
1
10
109.374210198981
20
-9.68094746228667
30
0
41
1
10
109.485982293426
20
-10.2113981410747
30
0
41
1
10
109.541868340648
20
-10.4610664194947
30
0
41
1
10
109.653640435093
20
-10.9265322795265
30
0
41
1
10
109.709526482315
20
-11.1423278661966
30
0
41
1
10
109.82129857676
20
-11.5382726695592
30
0
41
1
10
109.877184623983
20
-11.7184221819026
30
0
41
1
10
109.988956718427
20
-12.0423139463236
30
0
41
1
10
110.04484276565
20
-12.1860585627226
30
0
41
1
10
110.156614860095
20
-12.4373534234665
30
0
41
1
10
110.212500907317
20
-12.5449076676655
30
0
41
1
10
110.268386954539
20
-12.6349094014128
30
0
0
SPLINE
5
105
100
AcDbEntity
8
1
62
256
6
ByLayer
370
13
48
1
60
0
100
AcDbSpline
70
4
71
3
72
81
73
77
40
0
40
0
40
0
40
0
40
0.0312500000000004
40
0.0312500000000004
40
0.0625000000000008
40
0.0625000000000008
40
0.0937500000000012
40
0.0937500000000012
40
0.125000000000002
40
0.125000000000002
40
0.156250000000002
40
0.156250000000002
40
0.187500000000003
40
0.187500000000003
40
0.195312500000002
40
0.199218750000002
40
0.199218750000002
40
0.203125000000002
40
0.203125000000002
40
0.218750000000003
40
0.218750000000003
40
0.250000000000003
40
0.250000000000003
40
0.281250000000004
40
0.281250000000004
40
0.312500000000004
40
0.312500000000004
40
0.343750000000005
40
0.343750000000005
40
0.375000000000005
40
0.375000000000005
40
0.406250000000005
40
0.406250000000005
40
0.437500000000006
40
0.437500000000006
40
0.468750000000006
40
0.468750000000006
40
0.500000000000007
40
0.500000000000007
40
0.531250000000007
40
0.531250000000007
40
0.562500000000007
40
0.562500000000007
40
0.593750000000008
40
0.593750000000008
40
0.597656250000008
40
0.597656250000008
40
0.601562500000008
40
0.601562500000008
40
0.609375000000008
40
0.609375000000008
40
0.625000000000007
40
0.625000000000007
40
0.656250000000007
40
0.656250000000007
40
0.687500000000006
40
0.687500000000006
40
0.718750000000005
40
0.718750000000005
40
0.750000000000005
40
0.750000000000005
40
0.781250000000004
40
0.781250000000004
40
0.812500000000004
40
0.812500000000004
40
0.843750000000003
40
0.843750000000003
40
0.875000000000002
40
0.875000000000002
40
0.906250000000002
40
0.906250000000002
40
0.937500000000001
40
0.937500000000001
40
0.968750000000001
40
0.968750000000001
40
1
40
1
40
1
40
1
41
1
10
98.6
20
-9.13054859514864
30
0
41
1
10
98.6760890268058
20
-9.53046701808796
30
0
41
1
10
98.7521780536115
20
-9.90477374988615
30
0
41
1
10
98.9043561072229
20
-10.5934078552242
30
0
41
1
10
98.9804451340286
20
-10.9077194298335
30
0
41
1
10
99.13262318764
20
-11.4707774989107
30
0
41
1
10
99.2087122144458
20
-11.7195227304127
30
0
41
1
10
99.3608902680572
20
-12.1493497592482
30
0
41
1
10
99.4369792948629
20
-12.3304435087453
30
0
41
1
10
99.5891573484744
20
-12.6261882025073
30
0
41
1
10
99.66524637528
20
-12.7408604893685
30
0
41
1
10
99.8174244288915
20
-12.9077858219774
30
0
41
1
10
99.8935134556971
20
-12.9600646945506
30
0
41
1
10
99.9886247392043
20
-12.9902134849756
30
0
41
1
10
100.017158124256
20
-12.9966240797867
30
0
41
1
10
100.045691509309
20
-12.9992059858333
30
0
41
1
10
100.06471376601
20
-13.0000905537673
30
0
41
1
10
100.074224894361
20
-13.000116127451
30
0
41
1
10
100.121780536114
20
-12.9981637330475
30
0
41
1
10
100.159825049517
20
-12.9899120046335
30
0
41
1
10
100.273958589726
20
-12.9437814006166
30
0
41
1
10
100.350047616531
20
-12.8844694001621
30
0
41
1
10
100.502225670143
20
-12.7028829082868
30
0
41
1
10
100.578314696949
20
-12.5805828619474
30
0
41
1
10
100.73049275056
20
-12.2692803106231
30
0
41
1
10
100.806581777366
20
-12.0802573170469
30
0
41
1
10
100.958759830977
20
-11.6346364493185
30
0
41
1
10
101.034848857783
20
-11.3780280112548
30
0
41
1
10
101.187026911394
20
-10.7997155948061
30
0
41
1
10
101.2631159382
20
-10.4780145753649
30
0
41
1
10
101.415293991811
20
-9.77547417611669
30
0
41
1
10
101.491383018617
20
-9.39465223594237
30
0
41
1
10
101.643561072229
20
-8.58299966449187
30
0
41
1
10
101.719650099034
20
-8.15219861378768
30
0
41
1
10
101.871828152646
20
-7.25217238215811
30
0
41
1
10
101.947917179451
20
-6.78298376832623
30
0
41
1
10
102.100095233063
20
-5.8192074607947
30
0
41
1
10
102.176184259869
20
-5.32465684812237
30
0
41
1
10
102.32836231348
20
-4.32349181219584
30
0
41
1
10
102.404451340286
20
-3.81690906263134
30
0
41
1
10
102.556629393897
20
-2.80427221557466
30
0
41
1
10
102.632718420703
20
-2.29824047524673
30
0
41
1
10
102.784896474314
20
-1.29773194336175
30
0
41
1
10
102.86098550112
20
-0.803266861944223
30
0
41
1
10
102.946585656276
20
-0.258525605891634
30
0
41
1
10
102.956096784627
20
-0.198157538399983
30
0
41
1
10
102.975119041329
20
-0.0777538397227318
30
0
41
1
10
102.984630169679
20
-0.017822632460252
30
0
41
1
10
103.013163554732
20
0.162247278799072
30
0
41
1
10
103.032185811433
20
0.282974469957821
30
0
41
1
10
103.089252581537
20
0.647018496450954
30
0
41
1
10
103.12729709494
20
0.892202168219143
30
0
41
1
10
103.241430635149
20
1.63362246234917
30
0
41
1
10
103.317519661954
20
2.13579202425319
30
0
41
1
10
103.469697715566
20
3.14579287996082
30
0
41
1
10
103.545786742371
20
3.65360650106243
30
0
41
1
10
103.697964795983
20
4.66293060349318
30
0
41
1
10
103.774053822789
20
5.16441319209508
30
0
41
1
10
103.9262318764
20
6.14796368811537
30
0
41
1
10
104.002320903206
20
6.629996265514
30
0
41
1
10
104.154498956817
20
7.56135032403938
30
0
41
1
10
104.230587983623
20
8.01063420395707
30
0
41
1
10
104.382766037234
20
8.86412563924688
30
0
41
1
10
104.45885506404
20
9.26829977420576
30
0
41
1
10
104.611033117652
20
10.0212285748603
30
0
41
1
10
104.687122144457
20
10.3699599624534
30
0
41
1
10
104.839300198069
20
11.0045544776223
30
0
41
1
10
104.915389224874
20
11.2904081808828
30
0
41
1
10
105.067567278486
20
11.7951950428753
30
0
41
1
10
105.143656305292
20
12.0141331108431
30
0
41
1
10
105.295834358903
20
12.3844993176488
30
0
41
1
10
105.371923385709
20
12.5359441247064
30
0
41
1
10
105.52410143932
20
12.773861174361
30
0
41
1
10
105.600190466126
20
12.860357352531
30
0
41
1
10
105.752368519737
20
12.9734136197774
30
0
41
1
10
105.828457546543
20
13
30
0
41
1
10
105.904546573349
20
13
30
0
0
SPLINE
5
106
100
AcDbEntity
8
1
62
256
6
ByLayer
370
13
48
1
60
0
100
AcDbSpline
70
4
71
3
72
78
73
74
40
0
40
0
40
0
40
0
40
0.0312499999999994
40
0.0312499999999994
40
0.0624999999999989
40
0.0624999999999989
40
0.0937499999999983
40
0.0937499999999983
40
0.124999999999998
40
0.124999999999998
40
0.156249999999997
40
0.156249999999997
40
0.187499999999997
40
0.187499999999997
40
0.218749999999996
40
0.218749999999996
40
0.249999999999996
40
0.249999999999996
40
0.281249999999995
40
0.281249999999995
40
0.312499999999994
40
0.312499999999994
40
0.343749999999994
40
0.343749999999994
40
0.374999999999993
40
0.374999999999993
40
0.406249999999993
40
0.406249999999993
40
0.437499999999992
40
0.437499999999992
40
0.468749999999992
40
0.468749999999992
40
0.484374999999992
40
0.484374999999992
40
0.492187499999991
40
0.492187499999991
40
0.499999999999991
40
0.499999999999991
40
0.531249999999992
40
0.531249999999992
40
0.562499999999992
40
0.562499999999992
40
0.593749999999993
40
0.593749999999993
40
0.624999999999993
40
0.624999999999993
40
0.656249999999994
40
0.656249999999994
40
0.687499999999995
40
0.687499999999995
40
0.718749999999995
40
0.718749999999995
40
0.749999999999996
40
0.749999999999996
40
0.781249999999996
40
0.781249999999996
40
0.812499999999997
40
0.812499999999997
40
0.843749999999997
40
0.843749999999997
40
0.874999999999998
40
0.874999999999998
40
0.906249999999998
40
0.906249999999998
40
0.937499999999999
40
0.937499999999999
40
0.96875
40
0.96875
40
0.984375
40
0.984375
40
0.9921875
40
0.9921875
40
1
40
1
40
1
40
1
41
1
10
104.418455202899
20
13
30
0
41
1
10
104.479391991979
20
13
30
0
41
1
10
104.540328781059
20
12.9829610881893
30
0
41
1
10
104.662202359218
20
12.9112888843681
30
0
41
1
10
104.723139148298
20
12.8566469290759
30
0
41
1
10
104.845012726457
20
12.7068785982248
30
0
41
1
10
104.905949515536
20
12.6117438149076
30
0
41
1
10
105.027823093695
20
12.3790019997478
30
0
41
1
10
105.088759882775
20
12.2413878200879
30
0
41
1
10
105.210633460934
20
11.9228389854399
30
0
41
1
10
105.271570250014
20
11.7418994961737
30
0
41
1
10
105.393443828173
20
11.337175223142
30
0
41
1
10
105.454380617252
20
11.1133888260939
30
0
41
1
10
105.576254195412
20
10.6248693341737
30
0
41
1
10
105.637190984491
20
10.3601384006841
30
0
41
1
10
105.75906456265
20
9.79304534878787
30
0
41
1
10
105.82000135173
20
9.49068920573794
30
0
41
1
10
105.941874929889
20
8.85295571346018
30
0
41
1
10
106.002811718969
20
8.51758762114247
30
0
41
1
10
106.124685297128
20
7.81950356908601
30
0
41
1
10
106.185622086207
20
7.45679911833997
30
0
41
1
10
106.307495664367
20
6.71046313583003
30
0
41
1
10
106.368432453446
20
6.32684403143583
30
0
41
1
10
106.490306031605
20
5.54548254872628
30
0
41
1
10
106.551242820685
20
5.14775213522827
30
0
41
1
10
106.673116398844
20
4.34498366789427
30
0
41
1
10
106.734053187924
20
3.93995593623291
30
0
41
1
10
106.855926766083
20
3.12908166927849
30
0
41
1
10
106.916863555162
20
2.72324300947682
30
0
41
1
10
107.038737133322
20
1.91663322684121
30
0
41
1
10
107.099673922401
20
1.51586717427438
30
0
41
1
10
107.19107910602
20
0.922335254621117
30
0
41
1
10
107.22154750056
20
0.725754119215821
30
0
41
1
10
107.26725009237
20
0.433189974017182
30
0
41
1
10
107.28248428964
20
0.336052735589931
30
0
41
1
10
107.31295268418
20
0.142609983334779
30
0
41
1
10
107.32818688145
20
0.0465295343481102
30
0
41
1
10
107.404357867799
20
-0.434286451926596
30
0
41
1
10
107.465294656879
20
-0.825946251005547
30
0
41
1
10
107.587168235038
20
-1.61902377719707
30
0
41
1
10
107.648105024117
20
-2.02043895865867
30
0
41
1
10
107.769978602277
20
-2.82786991268478
30
0
41
1
10
107.830915391356
20
-3.23388037029963
30
0
41
1
10
107.952788969515
20
-4.04456035959799
30
0
41
1
10
108.013725758595
20
-4.44922178466609
30
0
41
1
10
108.135599336754
20
-5.25067962659048
30
0
41
1
10
108.196536125834
20
-5.64746554207977
30
0
41
1
10
108.318409703993
20
-6.42634683271322
30
0
41
1
10
108.379346493072
20
-6.80843015246441
30
0
41
1
10
108.501220071232
20
-7.55112132421269
30
0
41
1
10
108.562156860311
20
-7.91171677243321
30
0
41
1
10
108.68403043847
20
-8.60505975985484
30
0
41
1
10
108.74496722755
20
-8.93779593414564
30
0
41
1
10
108.866840805709
20
-9.56982242788172
30
0
41
1
10
108.927777594789
20
-9.86910373847593
30
0
41
1
10
109.049651172948
20
-10.4297076067352
30
0
41
1
10
109.110587962027
20
-10.6910245044641
30
0
41
1
10
109.232461540187
20
-11.1724951854834
30
0
41
1
10
109.293398329266
20
-11.3926471419742
30
0
41
1
10
109.415271907425
20
-11.7900057656734
30
0
41
1
10
109.476208696505
20
-11.9672143515969
30
0
41
1
10
109.598082274664
20
-12.2783239911132
30
0
41
1
10
109.659019063744
20
-12.412230117395
30
0
41
1
10
109.780892641903
20
-12.6376849342358
30
0
41
1
10
109.841829430982
20
-12.7292409230484
30
0
41
1
10
109.963703009141
20
-12.8720684902487
30
0
41
1
10
110.024639798221
20
-12.9233485359656
30
0
41
1
10
110.11604498184
20
-12.972271787109
30
0
41
1
10
110.14651337638
20
-12.9839194765584
30
0
41
1
10
110.19221596819
20
-12.994722819607
30
0
41
1
10
110.20745016546
20
-12.9972128465344
30
0
41
1
10
110.23791856
20
-13.0000273727248
30
0
41
1
10
110.25315275727
20
-13.000356433691
30
0
41
1
10
110.268386954539
20
-12.9996204026135
30
0
0
SPLINE
5
107
100
AcDbEntity
8
1
62
256
6
ByLayer
370
13
48
1
60
0
100
AcDbSpline
70
4
71
3
72
8
73
4
40
0
40
0
40
0
40
0
40
1
40
1
40
1
40
1
41
1
10
110.268386954539
20
-0.0507360032759721
30
0
41
1
10
111.845591303026
20
-0.0543275025618755
30
0
41
1
10
113.422795651513
20
-0.0374152356500588
30
0
41
1
10
115.000000000001
20
2.84E-14
30
0
0
SPLINE
5
108
100
AcDbEntity
8
1
62
256
6
ByLayer
370
13
48
1
60
0
100
AcDbSpline
70
4
71
3
72
8
73
4
40
0
40
0
40
0
40
0
40
1
40
1
40
1
40
1
41
1
10
110.268386954539
20
-10.246812809796
30
0
41
1
10
111.845591303026
20
-6.81859062638318
30
0
41
1
10
113.422795651513
20
-3.40294816905356
30
0
41
1
10
115
20
-8.53E-14
30
0
0
SPLINE
5
109
100
AcDbEntity
8
1
62
256
6
ByLayer
370
13
48
1
60
0
100
AcDbSpline
70
4
71
3
72
8
73
4
40
0
40
0
40
0
40
0
40
1
40
1
40
1
40
1
41
1
10
110.268386954539
20
-11.5484397178403
30
0
41
1
10
111.845591303026
20
-7.68954487418537
30
0
41
1
10
113.422795651513
20
-3.8400219120596
30
0
41
1
10
115
20
-8.53E-14
30
0
0
SPLINE
5
10A
100
AcDbEntity
8
1
62
256
6
ByLayer
370
13
48
1
60
0
100
AcDbSpline
70
4
71
3
72
8
73
4
40
0
40
0
40
0
40
0
40
1
40
1
40
1
40
1
41
1
10
110.268386954539
20
-11.1172684807974
30
0
41
1
10
111.845591303026
20
-7.42214019023814
30
0
41
1
10
113.422795651513
20
-3.71634250785891
30
0
41
1
10
115
20
-6.253E-13
30
0
0
SPLINE
5
10B
100
AcDbEntity
8
1
62
256
6
ByLayer
370
13
48
1
60
0
100
AcDbSpline
70
4
71
3
72
8
73
4
40
0
40
0
40
0
40
0
40
1
40
1
40
1
40
1
41
1
10
110.268386954539
20
-10.4441707110042
30
0
41
1
10
111.845591303026
20
-6.97498922748747
30
0
41
1
10
113.422795651513
20
-3.49355997403927
30
0
41
1
10
115
20
-8.53E-14
30
0
0
SPLINE
5
10C
100
AcDbEntity
8
1
62
256
6
ByLayer
370
13
48
1
60
0
100
AcDbSpline
70
4
71
3
72
8
73
4
40
0
40
0
40
0
40
0
40
1
40
1
40
1
40
1
41
1
10
110.268386954539
20
-4.46327754577376
30
0
41
1
10
111.845591303026
20
-2.95626101823112
30
0
41
1
10
113.422795651513
20
-1.4684852540968
30
0
41
1
10
115
20
8.53E-14
30
0
0
SPLINE
5
10D
100
AcDbEntity
8
1
62
256
6
ByLayer
370
13
48
1
60
0
100
AcDbSpline
70
4
71
3
72
8
73
4
40
0
40
0
40
0
40
0
40
1
40
1
40
1
40
1
41
1
10
110.268386954539
20
-0.931768728596381
30
0
41
1
10
111.845591303026
20
-0.600728229747119
30
0
41
1
10
113.422795651513
20
-0.290135253099606
30
0
41
1
10
115
20
0
30
0
0
SPLINE
5
10E
100
AcDbEntity
8
1
62
256
6
ByLayer
370
13
48
1
60
0
100
AcDbSpline
70
4
71
3
72
8
73
4
40
0
40
0
40
0
40
0
40
1
40
1
40
1
40
1
41
1
10
110.268386954539
20
9.61296761872998
30
0
41
1
10
111.845591303026
20
6.39484198594877
30
0
41
1
10
113.422795651513
20
3.19048362849739
30
0
41
1
10
115
20
5.4E-13
30
0
0
SPLINE
5
10F
100
AcDbEntity
8
1
62
256
6
ByLayer
370
13
48
1
60
0
100
AcDbSpline
70
4
71
3
72
8
73
4
40
0
40
0
40
0
40
0
40
1
40
1
40
1
40
1
41
1
10
110.268386954539
20
12.247879735828
30
0
41
1
10
111.845591303026
20
8.17212612118783
30
0
41
1
10
113.422795651513
20
4.08945381576566
30
0
41
1
10
115
20
0
30
0
0
SPLINE
5
110
100
AcDbEntity
8
1
62
256
6
ByLayer
370
13
48
1
60
0
100
AcDbSpline
70
4
71
3
72
8
73
4
40
0
40
0
40
0
40
0
40
1
40
1
40
1
40
1
41
1
10
110.268386954539
20
-11.6944727835848
30
0
41
1
10
111.845591303026
20
-7.80527050289135
30
0
41
1
10
113.422795651513
20
-3.90706923873717
30
0
41
1
10
115
20
-8.53E-14
30
0
0
SPLINE
5
111
100
AcDbEntity
8
1
62
256
6
ByLayer
370
13
48
1
60
0
100
AcDbSpline
70
4
71
3
72
8
73
4
40
0
40
0
40
0
40
0
40
1
40
1
40
1
40
1
41
1
10
110.268386954539
20
-9.46041108403961
30
0
41
1
10
111.845591303026
20
-6.29287787641846
30
0
41
1
10
113.422795651513
20
-3.13937226740862
30
0
41
1
10
115
20
-5.68E-14
30
0
0
SPLINE
5
112
100
AcDbEntity
8
1
62
256
6
ByLayer
370
13
48
1
60
0
100
AcDbSpline
70
4
71
3
72
8
73
4
40
0
40
0
40
0
40
0
40
1
40
1
40
1
40
1
41
1
10
110.268386954539
20
10.3834322381843
30
0
41
1
10
111.845591303026
20
6.9099512007474
30
0
41
1
10
113.422795651513
20
3.44876842313116
30
0
41
1
10
115
20
-4.263E-13
30
0
0
SPLINE
5
113
100
AcDbEntity
8
1
62
256
6
ByLayer
370
13
48
1
60
0
100
AcDbSpline
70
4
71
3
72
8
73
4
40
0
40
0
40
0
40
0
40
1
40
1
40
1
40
1
41
1
10
110.268386954539
20
-12.1708048674491
30
0
41
1
10
111.845591303026
20
-8.12107542435399
30
0
41
1
10
113.422795651513
20
-4.0640950280773
30
0
41
1
10
115
20
5.116E-13
30
0
0
SPLINE
5
114
100
AcDbEntity
8
1
62
256
6
ByLayer
370
13
48
1
60
0
100
AcDbSpline
70
4
71
3
72
8
73
4
40
0
40
0
40
0
40
0
40
1
40
1
40
1
40
1
41
1
10
110.268386954539
20
-12.8053232437818
30
0
41
1
10
111.845591303026
20
-8.54041724595379
30
0
41
1
10
113.422795651513
20
-4.27192837031649
30
0
41
1
10
115
20
-8.53E-14
30
0
0
SPLINE
5
115
100
AcDbEntity
8
1
62
256
6
ByLayer
370
13
48
1
60
0
100
AcDbSpline
70
4
71
3
72
8
73
4
40
0
40
0
40
0
40
0
40
1
40
1
40
1
40
1
41
1
10
110.268386954539
20
-6.64218137005719
30
0
41
1
10
111.845591303026
20
-4.41049559820624
30
0
41
1
10
113.422795651513
20
-2.19641042296098
30
0
41
1
10
115
20
-5.68E-14
30
0
0
SPLINE
5
116
100
AcDbEntity
8
1
62
256
6
ByLayer
370
13
48
1
60
0
100
AcDbSpline
70
4
71
3
72
8
73
4
40
0
40
0
40
0
40
0
40
1
40
1
40
1
40
1
41
1
10
110.268386954539
20
11.0643331920261
30
0
41
1
10
111.845591303026
20
7.3654577191987
30
0
41
1
10
113.422795651513
20
3.67730541041905
30
0
41
1
10
115
20
5.969E-13
30
0
0
SPLINE
5
117
100
AcDbEntity
8
1
62
256
6
ByLayer
370
13
48
1
60
0
100
AcDbSpline
70
4
71
3
72
8
73
4
40
0
40
0
40
0
40
0
40
1
40
1
40
1
40
1
41
1
10
110.268386954539
20
-3.31127541314063
30
0
41
1
10
111.845591303026
20
-2.18768956659289
30
0
41
1
10
113.422795651513
20
-1.08391881399032
30
0
41
1
10
115
20
-2.84E-14
30
0
0
SPLINE
5
118
100
AcDbEntity
8
1
62
256
6
ByLayer
370
13
48
1
60
0
100
AcDbSpline
70
4
71
3
72
8
73
4
40
0
40
0
40
0
40
0
40
1
40
1
40
1
40
1
41
1
10
110.268386954539
20
-12.927795843691
30
0
41
1
10
111.845591303026
20
-8.61637256035638
30
0
41
1
10
113.422795651513
20
-4.30705904900373
30
0
41
1
10
115
20
-8.53E-14
30
0
0
SPLINE
5
119
100
AcDbEntity
8
1
62
256
6
ByLayer
370
13
48
1
60
0
100
AcDbSpline
70
4
71
3
72
8
73
4
40
0
40
0
40
0
40
0
40
1
40
1
40
1
40
1
41
1
10
110.268386954539
20
-12.9580364142247
30
0
41
1
10
111.845591303026
20
-8.64033705784601
30
0
41
1
10
113.422795651513
20
-4.32094322928268
30
0
41
1
10
115
20
-8.53E-14
30
0
0
SPLINE
5
11A
100
AcDbEntity
8
1
62
256
6
ByLayer
370
13
48
1
60
0
100
AcDbSpline
70
4
71
3
72
8
73
4
40
0
40
0
40
0
40
0
40
1
40
1
40
1
40
1
41
1
10
110.268386954539
20
11.7907763775201
30
0
41
1
10
111.845591303026
20
7.86915306219717
30
0
41
1
10
113.422795651513
20
3.93885024191525
30
0
41
1
10
115
20
8.53E-14
30
0
0
SPLINE
5
11B
100
AcDbEntity
8
1
62
256
6
ByLayer
370
13
48
1
60
0
100
AcDbSpline
70
4
71
3
72
8
73
4
40
0
40
0
40
0
40
0
40
1
40
1
40
1
40
1
41
1
10
110.268386954539
20
4.97612589406913
30
0
41
1
10
111.845591303026
20
3.33635936028108
30
0
41
1
10
113.422795651513
20
1.67763209056088
30
0
41
1
10
115
20
2.84E-14
30
0
0
SPLINE
5
11C
100
AcDbEntity
8
1
62
256
6
ByLayer
370
13
48
1
60
0
100
AcDbSpline
70
4
71
3
72
8
73
4
40
0
40
0
40
0
40
0
40
1
40
1
40
1
40
1
41
1
10
110.268386954539
20
12.8421177970886
30
0
41
1
10
111.845591303026
20
8.56459766544077
30
0
41
1
10
113.422795651513
20
4.28384380271098
30
0
41
1
10
115
20
-2.84E-14
30
0
0
SPLINE
5
11D
100
AcDbEntity
8
1
62
256
6
ByLayer
370
13
48
1
60
0
100
AcDbSpline
70
4
71
3
72
8
73
4
40
0
40
0
40
0
40
0
40
1
40
1
40
1
40
1
41
1
10
110.268386954539
20
-5.57678108868475
30
0
41
1
10
111.845591303026
20
-3.69933285016501
30
0
41
1
10
113.422795651513
20
-1.84038508077174
30
0
41
1
10
115
20
-2.84E-14
30
0
0
SPLINE
5
11E
100
AcDbEntity
8
1
62
256
6
ByLayer
370
13
48
1
60
0
100
AcDbSpline
70
4
71
3
72
8
73
4
40
0
40
0
40
0
40
0
40
1
40
1
40
1
40
1
41
1
10
110.268386954539
20
-12.5421560671145
30
0
41
1
10
111.845591303026
20
-8.36683093758316
30
0
41
1
10
113.422795651513
20
-4.18606542920338
30
0
41
1
10
115
20
-8.53E-14
30
0
0
SPLINE
5
11F
100
AcDbEntity
8
1
62
256
6
ByLayer
370
13
48
1
60
0
100
AcDbSpline
70
4
71
3
72
8
73
4
40
0
40
0
40
0
40
0
40
1
40
1
40
1
40
1
41
1
10
110.268386954539
20
8.75958507795653
30
0
41
1
10
111.845591303026
20
5.82457321733952
30
0
41
1
10
113.422795651513
20
2.90467889611057
30
0
41
1
10
115
20
-3.695E-13
30
0
0
SPLINE
5
120
100
AcDbEntity
8
1
62
256
6
ByLayer
370
13
48
1
60
0
100
AcDbSpline
70
4
71
3
72
8
73
4
40
0
40
0
40
0
40
0
40
1
40
1
40
1
40
1
41
1
10
110.268386954539
20
7.10927451198236
30
0
41
1
10
111.845591303026
20
4.75668239868784
30
0
41
1
10
113.422795651513
20
2.38689763675893
30
0
41
1
10
115
20
-2.84E-14
30
0
0
SPLINE
5
121
100
AcDbEntity
8
1
62
256
6
ByLayer
370
13
48
1
60
0
100
AcDbSpline
70
4
71
3
72
8
73
4
40
0
40
0
40
0
40
0
40
1
40
1
40
1
40
1
41
1
10
110.268386954539
20
12.5993373904844
30
0
41
1
10
111.845591303026
20
8.40460942741933
30
0
41
1
10
113.422795651513
20
4.20478326583012
30
0
41
1
10
115
20
0
30
0
0
SPLINE
5
122
100
AcDbEntity
8
1
62
256
6
ByLayer
370
13
48
1
60
0
100
AcDbSpline
70
4
71
3
72
8
73
4
40
0
40
0
40
0
40
0
40
1
40
1
40
1
40
1
41
1
10
110.268386954539
20
-7.65028863910774
30
0
41
1
10
111.845591303026
20
-5.08361503418243
30
0
41
1
10
113.422795651513
20
-2.53349033707238
30
0
41
1
10
115
20
-5.68E-14
30
0
0
SPLINE
5
123
100
AcDbEntity
8
1
62
256
6
ByLayer
370
13
48
1
60
0
100
AcDbSpline
70
4
71
3
72
8
73
4
40
0
40
0
40
0
40
0
40
1
40
1
40
1
40
1
41
1
10
110.268386954539
20
9.8293648171761
30
0
41
1
10
111.845591303026
20
6.56632850314745
30
0
41
1
10
113.422795651513
20
3.28983683718548
30
0
41
1
10
115
20
-5.68E-14
30
0
0
SPLINE
5
124
100
AcDbEntity
8
1
62
256
6
ByLayer
370
13
48
1
60
0
100
AcDbSpline
70
4
71
3
72
8
73
4
40
0
40
0
40
0
40
0
40
1
40
1
40
1
40
1
41
1
10
110.268386954539
20
1.47981700766104
30
0
41
1
10
111.845591303026
20
1.0069150546208
30
0
41
1
10
113.422795651513
20
0.513637121004479
30
0
41
1
10
115
20
5.68E-14
30
0
0
SPLINE
5
125
100
AcDbEntity
8
1
62
256
6
ByLayer
370
13
48
1
60
0
100
AcDbSpline
70
4
71
3
72
8
73
4
40
0
40
0
40
0
40
0
40
1
40
1
40
1
40
1
41
1
10
110.268386954539
20
-12.0524375453894
30
0
41
1
10
111.845591303026
20
-8.02727384117324
30
0
41
1
10
113.422795651513
20
-4.00974971614698
30
0
41
1
10
115
20
-8.53E-14
30
0
0
SPLINE
5
126
100
AcDbEntity
8
1
62
256
6
ByLayer
370
13
48
1
60
0
100
AcDbSpline
70
4
71
3
72
8
73
4
40
0
40
0
40
0
40
0
40
1
40
1
40
1
40
1
41
1
10
110.268386954539
20
12.7874382594011
30
0
41
1
10
111.845591303026
20
8.52126621962094
30
0
41
1
10
113.422795651513
20
4.25873909914839
30
0
41
1
10
115
20
7.105E-13
30
0
0
SPLINE
5
127
100
AcDbEntity
8
1
62
256
6
ByLayer
370
13
48
1
60
0
100
AcDbSpline
70
4
71
3
72
8
73
4
40
0
40
0
40
0
40
0
40
1
40
1
40
1
40
1
41
1
10
110.268386954539
20
-2.45156760341456
30
0
41
1
10
111.845591303026
20
-1.65451417037775
30
0
41
1
10
113.422795651513
20
-0.837315746440765
30
0
41
1
10
115
20
1.137E-13
30
0
0
SPLINE
5
128
100
AcDbEntity
8
1
62
256
6
ByLayer
370
13
48
1
60
0
100
AcDbSpline
70
4
71
3
72
8
73
4
40
0
40
0
40
0
40
0
40
1
40
1
40
1
40
1
41
1
10
110.268386954539
20
6.83416181404786
30
0
41
1
10
111.845591303026
20
4.53866609004447
30
0
41
1
10
113.422795651513
20
2.26058671643722
30
0
41
1
10
115
20
-2.842E-13
30
0
0
SPLINE
5
129
100
AcDbEntity
8
1
62
256
6
ByLayer
370
13
48
1
60
0
100
AcDbSpline
70
4
71
3
72
8
73
4
40
0
40
0
40
0
40
0
40
1
40
1
40
1
40
1
41
1
10
110.268386954539
20
6.06887414058815
30
0
41
1
10
111.845591303026
20
4.06404837237443
30
0
41
1
10
113.422795651513
20
2.04106761273974
30
0
41
1
10
115
20
5.68E-14
30
0
0
SPLINE
5
12A
100
AcDbEntity
8
1
62
256
6
ByLayer
370
13
48
1
60
0
100
AcDbSpline
70
4
71
3
72
8
73
4
40
0
40
0
40
0
40
0
40
1
40
1
40
1
40
1
41
1
10
110.268386954539
20
-12.9989783308301
30
0
41
1
10
111.845591303026
20
-8.66572850173068
30
0
41
1
10
113.422795651513
20
-4.33268722196487
30
0
41
1
10
115
20
-8.53E-14
30
0
0
SPLINE
5
12B
100
AcDbEntity
8
1
62
256
6
ByLayer
370
13
48
1
60
0
100
AcDbSpline
70
4
71
3
72
8
73
4
40
0
40
0
40
0
40
0
40
1
40
1
40
1
40
1
41
1
10
110.268386954539
20
11.2319701209253
30
0
41
1
10
111.845591303026
20
7.49830358456671
30
0
41
1
10
113.422795651513
20
3.754271595288
30
0
41
1
10
115
20
-5.68E-14
30
0
0
SPLINE
5
12C
100
AcDbEntity
8
1
62
256
6
ByLayer
370
13
48
1
60
0
100
AcDbSpline
70
4
71
3
72
8
73
4
40
0
40
0
40
0
40
0
40
1
40
1
40
1
40
1
41
1
10
110.268386954539
20
8.0883528974924
30
0
41
1
10
111.845591303026
20
5.40828703298439
30
0
41
1
10
113.422795651513
20
2.71213916008921
30
0
41
1
10
115
20
5.68E-14
30
0
0
SPLINE
5
12D
100
AcDbEntity
8
1
62
256
6
ByLayer
370
13
48
1
60
0
100
AcDbSpline
70
4
71
3
72
8
73
4
40
0
40
0
40
0
40
0
40
1
40
1
40
1
40
1
41
1
10
110.268386954539
20
-2.13071143727004
30
0
41
1
10
111.845591303026
20
-1.40024790977469
30
0
41
1
10
113.422795651513
20
-0.690002889052522
30
0
41
1
10
115
20
-2.84E-14
30
0
0
SPLINE
5
12E
100
AcDbEntity
8
1
62
256
6
ByLayer
370
13
48
1
60
0
100
AcDbSpline
70
4
71
3
72
8
73
4
40
0
40
0
40
0
40
0
40
1
40
1
40
1
40
1
41
1
10
110.268386954539
20
3.84045541669244
30
0
41
1
10
111.845591303026
20
2.57989214005263
30
0
41
1
10
113.422795651513
20
1.29972593130043
30
0
41
1
10
115
20
2.84E-14
30
0
0
SPLINE
5
12F
100
AcDbEntity
8
1
62
256
6
ByLayer
370
13
48
1
60
0
100
AcDbSpline
70
4
71
3
72
8
73
4
40
0
40
0
40
0
40
0
40
1
40
1
40
1
40
1
41
1
10
110.268386954539
20
-8.59240733349483
30
0
41
1
10
111.845591303026
20
-5.71288507753198
30
0
41
1
10
113.422795651513
20
-2.84871729580473
30
0
41
1
10
115
20
-5.68E-14
30
0
0
SPLINE
5
130
100
AcDbEntity
8
1
62
256
6
ByLayer
370
13
48
1
60
0
100
AcDbSpline
70
4
71
3
72
8
73
4
40
0
40
0
40
0
40
0
40
1
40
1
40
1
40
1
41
1
10
110.268386954539
20
7.83064557963473
30
0
41
1
10
111.845591303026
20
5.20406382347252
30
0
41
1
10
113.422795651513
20
2.59381947242477
30
0
41
1
10
115
20
4.263E-13
30
0
0
SPLINE
5
131
100
AcDbEntity
8
1
62
256
6
ByLayer
370
13
48
1
60
0
100
AcDbSpline
70
4
71
3
72
8
73
4
40
0
40
0
40
0
40
0
40
1
40
1
40
1
40
1
41
1
10
110.268386954539
20
-5.86944794266435
30
0
41
1
10
111.845591303026
20
-3.93126015721362
30
0
41
1
10
113.422795651513
20
-1.97475554040972
30
0
41
1
10
115
20
2.558E-13
30
0
0
SPLINE
5
132
100
AcDbEntity
8
1
62
256
6
ByLayer
370
13
48
1
60
0
100
AcDbSpline
70
4
71
3
72
8
73
4
40
0
40
0
40
0
40
0
40
1
40
1
40
1
40
1
41
1
10
110.268386954539
20
10.5762810231846
30
0
41
1
10
111.845591303026
20
7.06277649942609
30
0
41
1
10
113.422795651513
20
3.53730998336891
30
0
41
1
10
115
20
-1.705E-13
30
0
0
SPLINE
5
133
100
AcDbEntity
8
1
62
256
6
ByLayer
370
13
48
1
60
0
100
AcDbSpline
70
4
71
3
72
8
73
4
40
0
40
0
40
0
40
0
40
1
40
1
40
1
40
1
41
1
10
110.268386954539
20
-12.745102946748
30
0
41
1
10
111.845591303026
20
-8.49269495991152
30
0
41
1
10
113.422795651513
20
-4.24427976958859
30
0
41
1
10
115
20
-8.53E-14
30
0
0
SPLINE
5
134
100
AcDbEntity
8
1
62
256
6
ByLayer
370
13
48
1
60
0
100
AcDbSpline
70
4
71
3
72
8
73
4
40
0
40
0
40
0
40
0
40
1
40
1
40
1
40
1
41
1
10
110.268386954539
20
-3.62541772322632
30
0
41
1
10
111.845591303026
20
-2.43663535262061
30
0
41
1
10
113.422795651513
20
-1.22814917702598
30
0
41
1
10
115
20
1.421E-13
30
0
0
SPLINE
5
135
100
AcDbEntity
8
1
62
256
6
ByLayer
370
13
48
1
60
0
100
AcDbSpline
70
4
71
3
72
8
73
4
40
0
40
0
40
0
40
0
40
1
40
1
40
1
40
1
41
1
10
110.268386954539
20
2.35184234240455
30
0
41
1
10
111.845591303026
20
1.54772955938785
30
0
41
1
10
113.422795651513
20
0.763773411608753
30
0
41
1
10
115.000000000001
20
-3.126E-13
30
0
0
SPLINE
5
136
100
AcDbEntity
8
1
62
256
6
ByLayer
370
13
48
1
60
0
100
AcDbSpline
70
4
71
3
72
8
73
4
40
0
40
0
40
0
40
0
40
1
40
1
40
1
40
1
41
1
10
110.268386954539
20
4.67345116227057
30
0
41
1
10
111.845591303026
20
3.09650119218577
30
0
41
1
10
113.422795651513
20
1.5386667711895
30
0
41
1
10
115
20
-1.99E-13
30
0
0
SPLINE
5
137
100
AcDbEntity
8
1
62
256
6
ByLayer
370
13
48
1
60
0
100
AcDbSpline
70
4
71
3
72
8
73
4
40
0
40
0
40
0
40
0
40
1
40
1
40
1
40
1
41
1
10
110.268386954539
20
12.9741268211913
30
0
41
1
10
111.845591303026
20
8.6507108355832
30
0
41
1
10
113.422795651513
20
4.32595347930973
30
0
41
1
10
115
20
-2.84E-14
30
0
0
SPLINE
5
138
100
AcDbEntity
8
1
62
256
6
ByLayer
370
13
48
1
60
0
100
AcDbSpline
70
4
71
3
72
8
73
4
40
0
40
0
40
0
40
0
40
1
40
1
40
1
40
1
41
1
10
110.268386954539
20
8.99766412724409
30
0
41
1
10
111.845591303026
20
6.01324177346464
30
0
41
1
10
113.422795651513
20
3.01398676903176
30
0
41
1
10
115
20
-1.421E-13
30
0
0
SPLINE
5
139
100
AcDbEntity
8
1
62
256
6
ByLayer
370
13
48
1
60
0
100
AcDbSpline
70
4
71
3
72
8
73
4
40
0
40
0
40
0
40
0
40
1
40
1
40
1
40
1
41
1
10
110.268386954539
20
-8.83429540736623
30
0
41
1
10
111.845591303026
20
-5.90457214020191
30
0
41
1
10
113.422795651513
20
-2.95977398440863
30
0
41
1
10
115
20
-5.68E-14
30
0
0
SPLINE
5
13A
100
AcDbEntity
8
1
62
256
6
ByLayer
370
13
48
1
60
0
100
AcDbSpline
70
4
71
3
72
8
73
4
40
0
40
0
40
0
40
0
40
1
40
1
40
1
40
1
41
1
10
110.268386954539
20
-6.9202718633714
30
0
41
1
10
111.845591303026
20
-4.63087169598828
30
0
41
1
10
113.422795651513
20
-2.32408852145235
30
0
41
1
10
115
20
2.842E-13
30
0
0
SPLINE
5
13B
100
AcDbEntity
8
1
62
256
6
ByLayer
370
13
48
1
60
0
100
AcDbSpline
70
4
71
3
72
8
73
4
40
0
40
0
40
0
40
0
40
1
40
1
40
1
40
1
41
1
10
110.268386954539
20
5.77872908347379
30
0
41
1
10
111.845591303026
20
3.83411949305278
30
0
41
1
10
113.422795651513
20
1.90785497127985
30
0
41
1
10
115.000000000001
20
-7.958E-13
30
0
0
SPLINE
5
13C
100
AcDbEntity
8
1
62
256
6
ByLayer
370
13
48
1
60
0
100
AcDbSpline
70
4
71
3
72
8
73
4
40
0
40
0
40
0
40
0
40
1
40
1
40
1
40
1
41
1
10
110.268386954539
20
-12.4524754817032
30
0
41
1
10
111.845591303026
20
-8.29576249786706
30
0
41
1
10
113.422795651513
20
-4.14489089468273
30
0
41
1
10
115
20
-6.821E-13
30
0
0
SPLINE
5
13D
100
AcDbEntity
8
1
62
256
6
ByLayer
370
13
48
1
60
0
100
AcDbSpline
70
4
71
3
72
8
73
4
40
0
40
0
40
0
40
0
40
1
40
1
40
1
40
1
41
1
10
110.268386954539
20
11.649797279184
30
0
41
1
10
111.845591303026
20
7.75743250968944
30
0
41
1
10
113.422795651513
20
3.87412331440254
30
0
41
1
10
115
20
-4.832E-13
30
0
0
SPLINE
5
13E
100
AcDbEntity
8
1
62
256
6
ByLayer
370
13
48
1
60
0
100
AcDbSpline
70
4
71
3
72
8
73
4
40
0
40
0
40
0
40
0
40
1
40
1
40
1
40
1
41
1
10
110.268386954539
20
-4.76799632383128
30
0
41
1
10
111.845591303026
20
-3.19773901493983
30
0
41
1
10
113.422795651513
20
-1.60838904474198
30
0
41
1
10
115
20
1.99E-13
30
0
0
SPLINE
5
13F
100
AcDbEntity
8
1
62
256
6
ByLayer
370
13
48
1
60
0
100
AcDbSpline
70
4
71
3
72
8
73
4
40
0
40
0
40
0
40
0
40
1
40
1
40
1
40
1
41
1
10
110.268386954539
20
1.15553678712112
30
0
41
1
10
111.845591303026
20
0.749935361647943
30
0
41
1
10
113.422795651513
20
0.364752197095044
30
0
41
1
10
115.000000000001
20
-1.421E-13
30
0
0
SPLINE
5
140
100
AcDbEntity
8
1
62
256
6
ByLayer
370
13
48
1
60
0
100
AcDbSpline
70
4
71
3
72
8
73
4
40
0
40
0
40
0
40
0
40
1
40
1
40
1
40
1
41
1
10
110.268386954539
20
2.67165858409422
30
0
41
1
10
111.845591303026
20
1.80117171956749
30
0
41
1
10
113.422795651513
20
0.910608814427093
30
0
41
1
10
115
20
2.84E-14
30
0
0
SPLINE
5
141
100
AcDbEntity
8
1
62
256
6
ByLayer
370
13
48
1
60
0
100
AcDbSpline
70
4
71
3
72
8
73
4
40
0
40
0
40
0
40
0
40
1
40
1
40
1
40
1
41
1
10
110.268386954539
20
0.275211074259829
30
0
41
1
10
111.845591303026
20
0.203973110935493
30
0
41
1
10
113.422795651513
20
0.11223498278315
30
0
41
1
10
115
20
0
30
0
0
SPLINE
5
142
100
AcDbEntity
8
1
62
256
6
ByLayer
370
13
48
1
60
0
100
AcDbSpline
70
4
71
3
72
8
73
4
40
0
40
0
40
0
40
0
40
1
40
1
40
1
40
1
41
1
10
110.268386954539
20
12.9494951568193
30
0
41
1
10
111.845591303026
20
8.63119118206484
30
0
41
1
10
113.422795651513
20
4.31464448405308
30
0
41
1
10
115
20
-5.4E-13
30
0
0
SPLINE
5
143
100
AcDbEntity
8
1
62
256
6
ByLayer
370
13
48
1
60
0
100
AcDbSpline
70
4
71
3
72
8
73
4
40
0
40
0
40
0
40
0
40
1
40
1
40
1
40
1
41
1
10
110.268386954539
20
-10.9448292988563
30
0
41
1
10
111.845591303026
20
-7.28548872269567
30
0
41
1
10
113.422795651513
20
-3.63717149200215
30
0
41
1
10
115
20
-8.53E-14
30
0
0
SPLINE
5
144
100
AcDbEntity
8
1
62
256
6
ByLayer
370
13
48
1
60
0
100
AcDbSpline
70
4
71
3
72
8
73
4
40
0
40
0
40
0
40
0
40
1
40
1
40
1
40
1
41
1
10
110.268386954539
20
3.52786177106853
30
0
41
1
10
111.845591303026
20
2.33217361147894
30
0
41
1
10
113.422795651513
20
1.15620659772591
30
0
41
1
10
115
20
-1.421E-13
30
0
0
SPLINE
5
145
100
AcDbEntity
8
1
62
256
6
ByLayer
370
13
48
1
60
0
100
AcDbSpline
70
4
71
3
72
8
73
4
40
0
40
0
40
0
40
0
40
1
40
1
40
1
40
1
41
1
10
110.268386954539
20
-1.25657116357854
30
0
41
1
10
111.845591303026
20
-0.858121757725911
30
0
41
1
10
113.422795651513
20
-0.439259938340427
30
0
41
1
10
115.000000000001
20
1.705E-13
30
0
0
SPLINE
5
146
100
AcDbEntity
8
1
62
256
6
ByLayer
370
13
48
1
60
0
100
AcDbSpline
70
4
71
3
72
8
73
4
40
0
40
0
40
0
40
0
40
1
40
1
40
1
40
1
41
1
10
110.268386954539
20
-7.91140406549201
30
0
41
1
10
111.845591303026
20
-5.29053903957185
30
0
41
1
10
113.422795651513
20
-2.65337477012238
30
0
41
1
10
115
20
-5.68E-14
30
0
0
SPLINE
5
147
100
AcDbEntity
8
1
62
256
6
ByLayer
370
13
48
1
60
0
100
AcDbSpline
70
4
71
3
72
8
73
4
40
0
40
0
40
0
40
0
40
1
40
1
40
1
40
1
41
1
10
110.268386954539
20
-9.68098536788236
30
0
41
1
10
111.845591303026
20
-6.46767457430286
30
0
41
1
10
113.422795651513
20
-3.2406432774369
30
0
41
1
10
115
20
-5.68E-14
30
0
0
SPLINE
5
148
100
AcDbEntity
8
1
62
256
6
ByLayer
370
13
48
1
60
0
100
AcDbSpline
70
4
71
3
72
8
73
4
40
0
40
0
40
0
40
0
40
1
40
1
40
1
40
1
41
1
10
110.268386954539
20
12.1347745018802
30
0
41
1
10
111.845591303026
20
8.08249454191642
30
0
41
1
10
113.422795651513
20
4.03752445626938
30
0
41
1
10
115
20
6.821E-13
30
0
0
SPLINE
5
149
100
AcDbEntity
8
1
62
256
6
ByLayer
370
13
48
1
60
0
100
AcDbSpline
70
4
71
3
72
8
73
4
40
0
40
0
40
0
40
0
40
1
40
1
40
1
40
1
41
1
10
110.268386954539
20
12.5150816250525
30
0
41
1
10
111.845591303026
20
8.33783995040338
30
0
41
1
10
113.422795651513
20
4.16609939789407
30
0
41
1
10
115.000000000001
20
-1.7053E-12
30
0
0
LINE
5
7D
100
AcDbEntity
8
80
62
256
6
ByLayer
370
18
48
1
60
0
100
AcDbLine
10
0
20
0
30
0
11
-5
21
0
31
0
39
0
210
0
220
0
230
1
0
LINE
5
7E
100
AcDbEntity
8
4
62
256
6
ByLayer
370
18
48
0.05
60
0
100
AcDbLine
10
-5
20
0
30
0
11
120
21
0
31
0
39
0
210
0
220
0
230
1
0
LINE
5
80
100
AcDbEntity
8
81
62
256
6
ByLayer
370
18
48
1
60
0
100
AcDbLine
10
115
20
0
30
0
11
120
21
0
31
0
39
0
210
0
220
0
230
1
0
LINE
5
81
100
AcDbEntity
8
SK4
62
256
6
ByLayer
370
18
48
0.05
60
0
100
AcDbLine
10
-65
20
0
30
0
11
120
21
0
31
0
39
0
210
0
220
0
230
1
0
LINE
5
83
100
AcDbEntity
8
1
62
256
6
ByLayer
370
18
48
1
60
0
100
AcDbLine
10
10
20
-12.8
30
0
11
48.837437
21
-12.8
31
0
39
0
210
0
220
0
230
1
0
LINE
5
84
100
AcDbEntity
8
1
62
256
6
ByLayer
370
18
48
1
60
0
100
AcDbLine
10
48.837437
20
12.8
30
0
11
10
21
12.8
31
0
39
0
210
0
220
0
230
1
0
LINE
5
85
100
AcDbEntity
8
1
62
256
6
ByLayer
370
18
48
1
60
0
100
AcDbLine
10
115
20
0
30
0
11
110.268387
21
13
31
0
39
0
210
0
220
0
230
1
0
LINE
5
86
100
AcDbEntity
8
1
62
256
6
ByLayer
370
18
48
1
60
0
100
AcDbLine
10
110.268387
20
-13
30
0
11
115
21
0
31
0
39
0
210
0
220
0
230
1
0
LINE
5
87
100
AcDbEntity
8
1
62
256
6
ByLayer
370
18
48
1
60
0
100
AcDbLine
10
10
20
12.8
30
0
11
0
21
16
31
0
39
0
210
0
220
0
230
1
0
LINE
5
88
100
AcDbEntity
8
1
62
256
6
ByLayer
370
18
48
1
60
0
100
AcDbLine
10
0
20
-16
30
0
11
10
21
-12.8
31
0
39
0
210
0
220
0
230
1
0
LINE
5
89
100
AcDbEntity
8
1
62
256
6
ByLayer
370
18
48
1
60
0
100
AcDbLine
10
110.268387
20
13
30
0
11
98.6
21
13
31
0
39
0
210
0
220
0
230
1
0
LINE
5
8A
100
AcDbEntity
8
1
62
256
6
ByLayer
370
18
48
1
60
0
100
AcDbLine
10
98.6
20
-13
30
0
11
110.268387
21
-13
31
0
39
0
210
0
220
0
230
1
0
LINE
5
8B
100
AcDbEntity
8
1
62
256
6
ByLayer
370
18
48
1
60
0
100
AcDbLine
10
115
20
0
30
0
11
110.268387
21
13
31
0
39
0
210
0
220
0
230
1
0
LINE
5
8C
100
AcDbEntity
8
1
62
256
6
ByLayer
370
18
48
1
60
0
100
AcDbLine
10
110.268387
20
-13
30
0
11
115
21
0
31
0
39
0
210
0
220
0
230
1
0
LINE
5
8D
100
AcDbEntity
8
SK1
62
256
6
ByLayer
370
18
48
1
60
0
100
AcDbLine
10
-60
20
-15
30
0
11
-59
21
-16
31
0
39
0
210
0
220
0
230
1
0
LINE
5
8F
100
AcDbEntity
8
SK1
62
256
6
ByLayer
370
18
48
1
60
0
100
AcDbLine
10
-59
20
16
30
0
11
-60
21
15
31
0
39
0
210
0
220
0
230
1
0
LINE
5
90
100
AcDbEntity
8
SK1
62
256
6
ByLayer
370
18
48
1
60
0
100
AcDbLine
10
-59
20
-16
30
0
11
0
21
-16
31
0
39
0
210
0
220
0
230
1
0
LINE
5
91
100
AcDbEntity
8
SK1
62
256
6
ByLayer
370
18
48
1
60
0
100
AcDbLine
10
0
20
16
30
0
11
-59
21
16
31
0
39
0
210
0
220
0
230
1
0
LINE
5
92
100
AcDbEntity
8
1
62
256
6
ByLayer
370
18
48
1
60
0
100
AcDbLine
10
0
20
16
30
0
11
0
21
-16
31
0
39
0
210
0
220
0
230
1
0
LINE
5
93
100
AcDbEntity
8
1
62
256
6
ByLayer
370
18
48
1
60
0
100
AcDbLine
10
110.268387
20
13
30
0
11
110.268387
21
12.587232
31
0
39
0
210
0
220
0
230
1
0
LINE
5
94
100
AcDbEntity
8
1
62
256
6
ByLayer
370
18
48
1
60
0
100
AcDbLine
10
110.268387
20
-13
30
0
11
110.268387
21
-1.855551
31
0
39
0
210
0
220
0
230
1
0
LINE
5
95
100
AcDbEntity
8
1
62
256
6
ByLayer
370
18
48
1
60
0
100
AcDbLine
10
10
20
-12.8
30
0
11
10
21
-5.592785
31
0
39
0
210
0
220
0
230
1
0
LINE
5
96
100
AcDbEntity
8
1
62
256
6
ByLayer
370
18
48
1
60
0
100
AcDbLine
10
10
20
12.8
30
0
11
10
21
8.780274
31
0
39
0
210
0
220
0
230
1
0
LINE
5
97
100
AcDbEntity
8
SK1
62
256
6
ByLayer
370
13
48
1
60
0
100
AcDbLine
10
-15.198909
20
-8.334638
30
0
11
-15.198909
21
8.334638
31
0
39
0
210
0
220
0
230
1
0
LINE
5
98
100
AcDbEntity
8
SK1
62
256
6
ByLayer
370
13
48
1
60
0
100
AcDbLine
10
-55.486983
20
5.39045
30
0
11
-55.486983
21
-5.39045
31
0
39
0
210
0
220
0
230
1
0
LINE
5
99
100
AcDbEntity
8
SK1
62
256
6
ByLayer
370
18
48
1
60
0
100
AcDbLine
10
-60
20
-15
30
0
11
-60
21
15
31
0
39
0
210
0
220
0
230
1
0
LINE
5
9A
100
AcDbEntity
8
SK1
62
256
6
ByLayer
370
13
48
1
60
0
100
AcDbLine
10
-14.051873
20
7.587342
30
0
11
-14.051873
21
-7.587342
31
0
39
0
210
0
220
0
230
1
0
LINE
5
9B
100
AcDbEntity
8
SK1
62
256
6
ByLayer
370
18
48
1
60
0
100
AcDbLine
10
-59
20
-16
30
0
11
-59
21
16
31
0
39
0
210
0
220
0
230
1
0
LINE
5
9C
100
AcDbEntity
8
SK1
62
256
6
ByLayer
370
18
48
1
60
0
100
AcDbLine
10
0
20
16
30
0
11
0
21
-16
31
0
39
0
210
0
220
0
230
1
0
LINE
5
9D
100
AcDbEntity
8
SK1
62
256
6
ByLayer
370
13
48
1
60
0
100
AcDbLine
10
-56.60131
20
-3.674042
30
0
11
-56.60131
21
3.674042
31
0
39
0
210
0
220
0
230
1
0
LINE
5
9E
100
AcDbEntity
8
1
62
256
6
ByLayer
370
18
48
1
60
0
100
AcDbLine
10
110.268387
20
13
30
0
11
110.268387
21
-13
31
0
39
0
210
0
220
0
230
1
0
LINE
5
9F
100
AcDbEntity
8
1
62
256
6
ByLayer
370
18
48
1
60
0
100
AcDbLine
10
110.268387
20
13
30
0
11
110.268387
21
-13
31
0
39
0
210
0
220
0
230
1
0
LINE
5
A0
100
AcDbEntity
8
1
62
256
6
ByLayer
370
18
48
1
60
0
100
AcDbLine
10
110.268387
20
13
30
0
11
110.268387
21
-13
31
0
39
0
210
0
220
0
230
1
0
LINE
5
A1
100
AcDbEntity
8
1
62
256
6
ByLayer
370
18
48
1
60
0
100
AcDbLine
10
98.6
20
13
30
0
11
98.6
21
-13
31
0
39
0
210
0
220
0
230
1
0
LINE
5
A2
100
AcDbEntity
8
1
62
256
6
ByLayer
370
18
48
1
60
0
100
AcDbLine
10
98.6
20
13
30
0
11
98.6
21
-13
31
0
39
0
210
0
220
0
230
1
0
LINE
5
A3
100
AcDbEntity
8
1
62
256
6
ByLayer
370
18
48
1
60
0
100
AcDbLine
10
110.268387
20
13
30
0
11
110.268387
21
-13
31
0
39
0
210
0
220
0
230
1
0
LINE
5
A4
100
AcDbEntity
8
1
62
256
6
ByLayer
370
18
48
1
60
0
100
AcDbLine
10
98.6
20
13
30
0
11
98.6
21
-13
31
0
39
0
210
0
220
0
230
1
0
LINE
5
A5
100
AcDbEntity
8
1
62
256
6
ByLayer
370
18
48
1
60
0
100
AcDbLine
10
110.268387
20
13
30
0
11
110.268387
21
-13
31
0
39
0
210
0
220
0
230
1
0
LINE
5
A6
100
AcDbEntity
8
SK2
62
256
6
ByLayer
370
13
48
1
60
0
100
AcDbLine
10
-66.5
20
-16
30
0
11
-66.5
21
45.024569
31
0
39
0
210
0
220
0
230
1
0
LINE
5
A8
100
AcDbEntity
8
SK2
62
256
6
ByLayer
370
13
48
1
60
0
100
AcDbLine
10
-61.5875
20
16
30
0
11
-68.5
21
16
31
0
39
0
210
0
220
0
230
1
0
LINE
5
A9
100
AcDbEntity
8
SK2
62
256
6
ByLayer
370
13
48
1
60
0
100
AcDbLine
10
-61.5875
20
-16
30
0
11
-68.5
21
-16
31
0
39
0
210
0
220
0
230
1
0
LINE
5
AA
100
AcDbEntity
8
1
62
256
6
ByLayer
370
18
48
1
60
1
100
AcDbLine
10
-66.5
20
16
30
0
11
-66.039216
21
12.500002
31
0
39
0
210
0
220
0
230
1
0
LINE
5
AB
100
AcDbEntity
8
1
62
256
6
ByLayer
370
18
48
1
60
1
100
AcDbLine
10
-66.039216
20
12.500002
30
0
11
-66.960784
21
12.499998
31
0
39
0
210
0
220
0
230
1
0
LINE
5
AC
100
AcDbEntity
8
1
62
256
6
ByLayer
370
18
48
1
60
1
100
AcDbLine
10
-66.960784
20
12.499998
30
0
11
-66.5
21
16
31
0
39
0
210
0
220
0
230
1
0
LINE
5
AD
100
AcDbEntity
8
1
62
256
6
ByLayer
370
18
48
1
60
1
100
AcDbLine
10
-66.5
20
-16
30
0
11
-66.960784
21
-12.500002
31
0
39
0
210
0
220
0
230
1
0
LINE
5
AE
100
AcDbEntity
8
1
62
256
6
ByLayer
370
18
48
1
60
1
100
AcDbLine
10
-66.960784
20
-12.500002
30
0
11
-66.039216
21
-12.499998
31
0
39
0
210
0
220
0
230
1
0
LINE
5
AF
100
AcDbEntity
8
1
62
256
6
ByLayer
370
18
48
1
60
1
100
AcDbLine
10
-66.039216
20
-12.499998
30
0
11
-66.5
21
-16
31
0
39
0
210
0
220
0
230
1
0
LINE
5
B0
100
AcDbEntity
8
2
62
256
6
ByLayer
370
13
48
1
60
0
100
AcDbLine
10
122.5
20
-13
30
0
11
122.5
21
42.024569
31
0
39
0
210
0
220
0
230
1
0
LINE
5
B2
100
AcDbEntity
8
2
62
256
6
ByLayer
370
13
48
1
60
0
100
AcDbLine
10
111.855887
20
13
30
0
11
124.5
21
13
31
0
39
0
210
0
220
0
230
1
0
LINE
5
B3
100
AcDbEntity
8
2
62
256
6
ByLayer
370
13
48
1
60
0
100
AcDbLine
10
111.855887
20
-13
30
0
11
124.5
21
-13
31
0
39
0
210
0
220
0
230
1
0
LINE
5
B4
100
AcDbEntity
8
1
62
256
6
ByLayer
370
18
48
1
60
1
100
AcDbLine
10
122.5
20
13
30
0
11
122.960784
21
9.500002
31
0
39
0
210
0
220
0
230
1
0
LINE
5
B5
100
AcDbEntity
8
1
62
256
6
ByLayer
370
18
48
1
60
1
100
AcDbLine
10
122.960784
20
9.500002
30
0
11
122.039216
21
9.499998
31
0
39
0
210
0
220
0
230
1
0
LINE
5
B6
100
AcDbEntity
8
1
62
256
6
ByLayer
370
18
48
1
60
1
100
AcDbLine
10
122.039216
20
9.499998
30
0
11
122.5
21
13
31
0
39
0
210
0
220
0
230
1
0
LINE
5
B7
100
AcDbEntity
8
1
62
256
6
ByLayer
370
18
48
1
60
1
100
AcDbLine
10
122.5
20
-13
30
0
11
122.039216
21
-9.500002
31
0
39
0
210
0
220
0
230
1
0
LINE
5
B8
100
AcDbEntity
8
1
62
256
6
ByLayer
370
18
48
1
60
1
100
AcDbLine
10
122.039216
20
-9.500002
30
0
11
122.960784
21
-9.499998
31
0
39
0
210
0
220
0
230
1
0
LINE
5
B9
100
AcDbEntity
8
1
62
256
6
ByLayer
370
18
48
1
60
1
100
AcDbLine
10
122.960784
20
-9.499998
30
0
11
122.5
21
-13
31
0
39
0
210
0
220
0
230
1
0
LINE
5
BA
100
AcDbEntity
8
SK2
62
256
6
ByLayer
370
13
48
1
60
0
100
AcDbLine
10
115.542957
20
-1.491762
30
0
11
122.182423
21
-19.733545
31
0
39
0
210
0
220
0
230
1
0
LINE
5
BB
100
AcDbEntity
8
SK2
62
256
6
ByLayer
370
13
48
1
60
0
100
AcDbLine
10
115.542957
20
1.491762
30
0
11
122.182423
21
19.733545
31
0
39
0
210
0
220
0
230
1
0
LINE
5
BC
100
AcDbEntity
8
1
62
256
6
ByLayer
370
18
48
1
60
1
100
AcDbLine
10
121.498383
20
-17.85416
30
0
11
124.551575
21
-16.082064
31
0
39
0
210
0
220
0
230
1
0
LINE
5
BD
100
AcDbEntity
8
1
62
256
6
ByLayer
370
18
48
1
60
1
100
AcDbLine
10
124.551575
20
-16.082064
30
0
11
124.906196
21
-16.93267
31
0
39
0
210
0
220
0
230
1
0
LINE
5
BE
100
AcDbEntity
8
1
62
256
6
ByLayer
370
18
48
1
60
1
100
AcDbLine
10
124.906196
20
-16.93267
30
0
11
121.498383
21
-17.85416
31
0
39
0
210
0
220
0
230
1
0
LINE
5
BF
100
AcDbEntity
8
1
62
256
6
ByLayer
370
18
48
1
60
1
100
AcDbLine
10
121.498383
20
17.85416
30
0
11
124.906193
21
16.932671
31
0
39
0
210
0
220
0
230
1
0
LINE
5
C0
100
AcDbEntity
8
1
62
256
6
ByLayer
370
18
48
1
60
1
100
AcDbLine
10
124.906193
20
16.932671
30
0
11
124.551579
21
16.082063
31
0
39
0
210
0
220
0
230
1
0
LINE
5
C1
100
AcDbEntity
8
1
62
256
6
ByLayer
370
18
48
1
60
1
100
AcDbLine
10
124.551579
20
16.082063
30
0
11
121.498383
21
17.85416
31
0
39
0
210
0
220
0
230
1
0
LINE
5
14E
100
AcDbEntity
8
1
62
256
6
ByLayer
370
18
48
1
60
1
100
AcDbLine
10
-66.5
20
16
30
0
11
-66.039216
21
12.500002
31
0
39
0
210
0
220
0
230
1
0
LINE
5
14F
100
AcDbEntity
8
1
62
256
6
ByLayer
370
18
48
1
60
1
100
AcDbLine
10
-66.039216
20
12.500002
30
0
11
-66.960784
21
12.499998
31
0
39
0
210
0
220
0
230
1
0
LINE
5
150
100
AcDbEntity
8
1
62
256
6
ByLayer
370
18
48
1
60
1
100
AcDbLine
10
-66.960784
20
12.499998
30
0
11
-66.5
21
16
31
0
39
0
210
0
220
0
230
1
0
LINE
5
152
100
AcDbEntity
8
1
62
256
6
ByLayer
370
18
48
1
60
1
100
AcDbLine
10
-66.5
20
-16
30
0
11
-66.960784
21
-12.500002
31
0
39
0
210
0
220
0
230
1
0
LINE
5
153
100
AcDbEntity
8
1
62
256
6
ByLayer
370
18
48
1
60
1
100
AcDbLine
10
-66.960784
20
-12.500002
30
0
11
-66.039216
21
-12.499998
31
0
39
0
210
0
220
0
230
1
0
LINE
5
154
100
AcDbEntity
8
1
62
256
6
ByLayer
370
18
48
1
60
1
100
AcDbLine
10
-66.039216
20
-12.499998
30
0
11
-66.5
21
-16
31
0
39
0
210
0
220
0
230
1
0
LINE
5
158
100
AcDbEntity
8
1
62
256
6
ByLayer
370
18
48
1
60
1
100
AcDbLine
10
122.5
20
13
30
0
11
122.960784
21
9.500002
31
0
39
0
210
0
220
0
230
1
0
LINE
5
159
100
AcDbEntity
8
1
62
256
6
ByLayer
370
18
48
1
60
1
100
AcDbLine
10
122.960784
20
9.500002
30
0
11
122.039216
21
9.499998
31
0
39
0
210
0
220
0
230
1
0
LINE
5
15A
100
AcDbEntity
8
1
62
256
6
ByLayer
370
18
48
1
60
1
100
AcDbLine
10
122.039216
20
9.499998
30
0
11
122.5
21
13
31
0
39
0
210
0
220
0
230
1
0
LINE
5
15C
100
AcDbEntity
8
1
62
256
6
ByLayer
370
18
48
1
60
1
100
AcDbLine
10
122.5
20
-13
30
0
11
122.039216
21
-9.500002
31
0
39
0
210
0
220
0
230
1
0
LINE
5
15D
100
AcDbEntity
8
1
62
256
6
ByLayer
370
18
48
1
60
1
100
AcDbLine
10
122.039216
20
-9.500002
30
0
11
122.960784
21
-9.499998
31
0
39
0
210
0
220
0
230
1
0
LINE
5
15E
100
AcDbEntity
8
1
62
256
6
ByLayer
370
18
48
1
60
1
100
AcDbLine
10
122.960784
20
-9.499998
30
0
11
122.5
21
-13
31
0
39
0
210
0
220
0
230
1
0
LINE
5
161
100
AcDbEntity
8
1
62
256
6
ByLayer
370
18
48
1
60
1
100
AcDbLine
10
121.498383
20
-17.85416
30
0
11
124.551575
21
-16.082064
31
0
39
0
210
0
220
0
230
1
0
LINE
5
162
100
AcDbEntity
8
1
62
256
6
ByLayer
370
18
48
1
60
1
100
AcDbLine
10
124.551575
20
-16.082064
30
0
11
124.906196
21
-16.93267
31
0
39
0
210
0
220
0
230
1
0
LINE
5
163
100
AcDbEntity
8
1
62
256
6
ByLayer
370
18
48
1
60
1
100
AcDbLine
10
124.906196
20
-16.93267
30
0
11
121.498383
21
-17.85416
31
0
39
0
210
0
220
0
230
1
0
LINE
5
165
100
AcDbEntity
8
1
62
256
6
ByLayer
370
18
48
1
60
1
100
AcDbLine
10
121.498383
20
17.85416
30
0
11
124.906193
21
16.932671
31
0
39
0
210
0
220
0
230
1
0
LINE
5
166
100
AcDbEntity
8
1
62
256
6
ByLayer
370
18
48
1
60
1
100
AcDbLine
10
124.906193
20
16.932671
30
0
11
124.551579
21
16.082063
31
0
39
0
210
0
220
0
230
1
0
LINE
5
167
100
AcDbEntity
8
1
62
256
6
ByLayer
370
18
48
1
60
1
100
AcDbLine
10
124.551579
20
16.082063
30
0
11
121.498383
21
17.85416
31
0
39
0
210
0
220
0
230
1
0
MTEXT
5
14A
100
AcDbEntity
8
SK2
62
256
6
ByLayer
370
18
48
1
60
0
100
AcDbMText
10
-67.841114
20
27.658438
30
0
210
0
220
0
230
1
1
%%c
40
3
41
0
44
1.084337
50
90
71
7
72
5
7
iso_b_vert
0
MTEXT
5
14D
100
AcDbEntity
8
SK2
62
256
6
ByLayer
370
18
48
1
60
0
100
AcDbMText
10
-67.841114
20
33.635
30
0
210
0
220
0
230
1
1
\W0.7513;32.000
40
3
41
0
44
1.084337
50
90
71
7
72
5
7
iso_b_vert
0
MTEXT
5
156
100
AcDbEntity
8
2
62
256
6
ByLayer
370
18
48
1
60
0
100
AcDbMText
10
121.158886
20
24.658438
30
0
210
0
220
0
230
1
1
%%c
40
3
41
0
44
1.084337
50
90
71
7
72
5
7
iso_b_vert
0
MTEXT
5
157
100
AcDbEntity
8
2
62
256
6
ByLayer
370
18
48
1
60
0
100
AcDbMText
10
121.158886
20
30.635
30
0
210
0
220
0
230
1
1
\W0.7513;26.000
40
3
41
0
44
1.084337
50
90
71
7
72
5
7
iso_b_vert
0
MTEXT
5
160
100
AcDbEntity
8
SK2
62
256
6
ByLayer
370
18
48
1
60
0
100
AcDbMText
10
134.909114
20
3.734657
30
0
210
0
220
0
230
1
1
\W0.7071;140%%d
40
3
41
0
44
1.084337
50
270
71
7
72
5
7
iso_b_vert
0
MTEXT
5
169
100
AcDbEntity
8
SK6
62
256
6
ByLayer
370
18
48
1
60
0
100
AcDbMText
10
3.21286
20
-67.114886
30
0
210
0
220
0
230
1
1
\W0.7680;H85326.0
40
3
41
0
44
1.084337
50
0
71
7
72
5
7
iso_b_vert
0
HATCH
5
151
100
AcDbEntity
8
SK2
62
256
6
ByLayer
370
13
48
1
60
0
100
AcDbHatch
10
0
20
0
30
0
210
0
220
0
230
1
2
ANSI31
70
0
71
0
91
1
92
5
93
3
72
1
10
-66.5
20
16
11
-66.0392162584472
21
12.5000016925532
72
1
10
-66.0392162584472
20
12.5000016925532
11
-66.9607837415528
21
12.4999983074468
72
1
10
-66.9607837415528
20
12.4999983074468
11
-66.5
21
16
97
0
75
0
76
1
52
0
41
0.0062
77
0
78
1
53
45
43
0
44
0
45
-0.0139193969876572
46
0.0139193969876572
79
0
47
0
98
1
10
0
20
0
0
HATCH
5
155
100
AcDbEntity
8
SK2
62
256
6
ByLayer
370
13
48
1
60
0
100
AcDbHatch
10
0
20
0
30
0
210
0
220
0
230
1
2
ANSI31
70
0
71
0
91
1
92
5
93
3
72
1
10
-66.5
20
-16
11
-66.9607837415528
21
-12.5000016925532
72
1
10
-66.9607837415528
20
-12.5000016925532
11
-66.0392162584472
21
-12.4999983074468
72
1
10
-66.0392162584472
20
-12.4999983074468
11
-66.5
21
-16
97
0
75
0
76
1
52
0
41
0.0062
77
0
78
1
53
45
43
0
44
0
45
-0.0139193969876572
46
0.0139193969876572
79
0
47
0
98
1
10
0
20
0
0
HATCH
5
15B
100
AcDbEntity
8
2
62
256
6
ByLayer
370
13
48
1
60
0
100
AcDbHatch
10
0
20
0
30
0
210
0
220
0
230
1
2
ANSI31
70
0
71
0
91
1
92
5
93
3
72
1
10
122.5
20
13
11
122.960783741553
21
9.50000169255318
72
1
10
122.960783741553
20
9.50000169255318
11
122.039216258447
21
9.49999830744682
72
1
10
122.039216258447
20
9.49999830744682
11
122.5
21
13
97
0
75
0
76
1
52
0
41
0.0062
77
0
78
1
53
45
43
0
44
0
45
-0.0139193969876572
46
0.0139193969876572
79
0
47
0
98
1
10
0
20
0
0
HATCH
5
15F
100
AcDbEntity
8
2
62
256
6
ByLayer
370
13
48
1
60
0
100
AcDbHatch
10
0
20
0
30
0
210
0
220
0
230
1
2
ANSI31
70
0
71
0
91
1
92
5
93
3
72
1
10
122.5
20
-13
11
122.039216258447
21
-9.50000169255318
72
1
10
122.039216258447
20
-9.50000169255318
11
122.960783741553
21
-9.49999830744682
72
1
10
122.960783741553
20
-9.49999830744682
11
122.5
21
-13
97
0
75
0
76
1
52
0
41
0.0062
77
0
78
1
53
45
43
0
44
0
45
-0.0139193969876572
46
0.0139193969876572
79
0
47
0
98
1
10
0
20
0
0
HATCH
5
164
100
AcDbEntity
8
SK2
62
256
6
ByLayer
370
13
48
1
60
0
100
AcDbHatch
10
0
20
0
30
0
210
0
220
0
230
1
2
ANSI31
70
0
71
0
91
1
92
5
93
3
72
1
10
121.498382723188
20
-17.8541597949322
11
124.551575425693
21
-16.0820638240607
72
1
10
124.551575425693
20
-16.0820638240607
11
124.906195833975
21
-16.9326700737196
72
1
10
124.906195833975
20
-16.9326700737196
11
121.498382723188
21
-17.8541597949322
97
0
75
0
76
1
52
0
41
0.0062
77
0
78
1
53
45
43
0
44
0
45
-0.0139193969876572
46
0.0139193969876572
79
0
47
0
98
1
10
0
20
0
0
HATCH
5
168
100
AcDbEntity
8
SK2
62
256
6
ByLayer
370
13
48
1
60
0
100
AcDbHatch
10
0
20
0
30
0
210
0
220
0
230
1
2
ANSI31
70
0
71
0
91
1
92
5
93
3
72
1
10
121.498382723188
20
17.8541597949322
11
124.906192709519
21
16.9326713763016
72
1
10
124.906192709519
20
16.9326713763016
11
124.551578550149
21
16.0820625214787
72
1
10
124.551578550149
20
16.0820625214787
11
121.498382723188
21
17.8541597949322
97
0
75
0
76
1
52
0
41
0.0062
77
0
78
1
53
45
43
0
44
0
45
-0.0139193969876572
46
0.0139193969876572
79
0
47
0
98
1
10
0
20
0
0
DIMENSION
5
16C
100
AcDbEntity
8
SK2
62
256
6
ByLayer
370
18
48
1
60
0
100
AcDbDimension
2
_U0
10
115
20
-45.952229
30
0
11
27.5
21
-45.952229
31
0
70
32
71
1
72
1
41
1
210
0
220
0
230
1
3
Standard
100
AcDbAlignedDimension
13
-60
23
-16
33
0
14
115
24
0
34
0
50
0
100
AcDbRotatedDimension
1001
ACAD
1000
DSTYLE
1002
{
1070
   371
1070
    13
1070
   372
1070
    13
1070
     3
1000

1070
   170
1070
     0
1070
   144
1040
1.0
1070
   277
1070
     2
1070
   284
1070
     8
1070
   278
1070
    46
1070
   146
1040
1.166667
1070
   345
1005
16
1070
   347
1005
16
1070
   346
1005
16
1070
   344
1005
0
1070
   343
1005
0
1070
   172
1070
     1
1070
    76
1070
     0
1070
    75
1070
     0
1070
   282
1070
     0
1070
   281
1070
     0
1070
    71
1070
     0
1070
    74
1070
     0
1070
   279
1070
     0
1070
   173
1070
     1
1070
   340
1005
14B
1070
   271
1070
     2
1070
   272
1070
     3
1070
    77
1070
     1
1070
    73
1070
     1
1070
   171
1070
     3
1070
   274
1070
     4
1070
   177
1070
     2
1070
   176
1070
     2
1070
   178
1070
     2
1070
    78
1070
     8
1070
    48
1040
-0.1
1070
    41
1040
3.5
1070
   147
1040
1.5
1070
    42
1040
1.5875
1070
    44
1040
2.0
1070
   140
1040
3.0
1002
}
1001
ACAD_DSTYLE_DIM_LINETYPE
1070
   380
1005
16
1001
ACAD_DSTYLE_DIM_EXT1_LINETYPE
1070
   381
1005
16
1001
ACAD_DSTYLE_DIM_EXT2_LINETYPE
1070
   382
1005
16
0
DIMENSION
5
185
100
AcDbEntity
8
SK2
62
256
6
ByLayer
370
18
48
1
60
0
100
AcDbDimension
2
_U1
10
3
20
-35.952229
30
0
11
59
21
-35.952229
31
0
70
32
71
1
72
1
41
1
210
0
220
0
230
1
3
Standard
100
AcDbAlignedDimension
13
115
23
0
33
0
14
3
24
-13
34
0
50
0
100
AcDbRotatedDimension
1001
ACAD
1000
DSTYLE
1002
{
1070
   371
1070
    13
1070
   372
1070
    13
1070
     3
1000

1070
   170
1070
     0
1070
   144
1040
1.0
1070
   277
1070
     2
1070
   284
1070
     8
1070
   278
1070
    46
1070
   146
1040
1.166667
1070
   345
1005
16
1070
   347
1005
16
1070
   346
1005
16
1070
   344
1005
0
1070
   343
1005
0
1070
   172
1070
     1
1070
    76
1070
     0
1070
    75
1070
     0
1070
   282
1070
     0
1070
   281
1070
     0
1070
    71
1070
     0
1070
    74
1070
     0
1070
   279
1070
     0
1070
   173
1070
     1
1070
   340
1005
14B
1070
   271
1070
     2
1070
   272
1070
     3
1070
    77
1070
     1
1070
    73
1070
     1
1070
   171
1070
     3
1070
   274
1070
     4
1070
   177
1070
     2
1070
   176
1070
     2
1070
   178
1070
     2
1070
    78
1070
     8
1070
    48
1040
-0.1
1070
    41
1040
3.5
1070
   147
1040
1.5
1070
    42
1040
1.5875
1070
    44
1040
2.0
1070
   140
1040
3.0
1002
}
1001
ACAD_DSTYLE_DIM_LINETYPE
1070
   380
1005
16
1001
ACAD_DSTYLE_DIM_EXT1_LINETYPE
1070
   381
1005
16
1001
ACAD_DSTYLE_DIM_EXT2_LINETYPE
1070
   382
1005
16
0
DIMENSION
5
19D
100
AcDbEntity
8
SK2
62
256
6
ByLayer
370
18
48
1
60
0
100
AcDbDimension
2
_U2
10
0
20
-35.952229
30
0
11
-30
21
-35.952229
31
0
70
32
71
1
72
1
41
1
210
0
220
0
230
1
3
Standard
100
AcDbAlignedDimension
13
-60
23
-16
33
0
14
0
24
-16
34
0
50
0
100
AcDbRotatedDimension
1001
ACAD
1000
DSTYLE
1002
{
1070
   371
1070
    13
1070
   372
1070
    13
1070
     3
1000

1070
   170
1070
     0
1070
   144
1040
1.0
1070
   277
1070
     2
1070
   284
1070
     8
1070
   278
1070
    46
1070
   146
1040
1.166667
1070
   345
1005
16
1070
   347
1005
16
1070
   346
1005
16
1070
   344
1005
0
1070
   343
1005
0
1070
   172
1070
     1
1070
    76
1070
     0
1070
    75
1070
     0
1070
   282
1070
     0
1070
   281
1070
     0
1070
    71
1070
     0
1070
    74
1070
     0
1070
   279
1070
     0
1070
   173
1070
     1
1070
   340
1005
14B
1070
   271
1070
     2
1070
   272
1070
     3
1070
    77
1070
     1
1070
    73
1070
     1
1070
   171
1070
     3
1070
   274
1070
     4
1070
   177
1070
     2
1070
   176
1070
     2
1070
   178
1070
     2
1070
    78
1070
     8
1070
    48
1040
-0.1
1070
    41
1040
3.5
1070
   147
1040
1.5
1070
    42
1040
1.5875
1070
    44
1040
2.0
1070
   140
1040
3.0
1002
}
1001
ACAD_DSTYLE_DIM_LINETYPE
1070
   380
1005
16
1001
ACAD_DSTYLE_DIM_EXT1_LINETYPE
1070
   381
1005
16
1001
ACAD_DSTYLE_DIM_EXT2_LINETYPE
1070
   382
1005
16
0
DIMENSION
5
1B5
100
AcDbEntity
8
SK2
62
256
6
ByLayer
370
18
48
1
60
0
100
AcDbDimension
2
_U3
10
23
20
32.952229
30
0
11
69
21
32.952229
31
0
70
32
71
1
72
1
41
1
210
0
220
0
230
1
3
Standard
100
AcDbAlignedDimension
13
115
23
0
33
0
14
23
24
13
34
0
50
0
100
AcDbRotatedDimension
1001
ACAD
1000
DSTYLE
1002
{
1070
   371
1070
    13
1070
   372
1070
    13
1070
     3
1000

1070
   170
1070
     0
1070
   144
1040
1.0
1070
   277
1070
     2
1070
   284
1070
     8
1070
   278
1070
    46
1070
   146
1040
1.166667
1070
   345
1005
16
1070
   347
1005
16
1070
   346
1005
16
1070
   344
1005
0
1070
   343
1005
0
1070
   172
1070
     1
1070
    76
1070
     0
1070
    75
1070
     0
1070
   282
1070
     0
1070
   281
1070
     0
1070
    71
1070
     0
1070
    74
1070
     0
1070
   279
1070
     0
1070
   173
1070
     1
1070
   340
1005
14B
1070
   271
1070
     2
1070
   272
1070
     3
1070
    77
1070
     1
1070
    73
1070
     1
1070
   171
1070
     3
1070
   274
1070
     4
1070
   177
1070
     2
1070
   176
1070
     2
1070
   178
1070
     2
1070
    78
1070
     8
1070
    48
1040
-0.1
1070
    41
1040
3.5
1070
   147
1040
1.5
1070
    42
1040
1.5875
1070
    44
1040
2.0
1070
   140
1040
3.0
1002
}
1001
ACAD_DSTYLE_DIM_LINETYPE
1070
   380
1005
16
1001
ACAD_DSTYLE_DIM_EXT1_LINETYPE
1070
   381
1005
16
1001
ACAD_DSTYLE_DIM_EXT2_LINETYPE
1070
   382
1005
16
0
ENDSEC
0
SECTION
2
OBJECTS
0
DICTIONARY
5
23d
330
0
100
AcDbDictionary
280
0
281
1
3
ACAD_GROUP
350
23e
3
ACAD_MLINESTYLE
350
23f
0
DICTIONARY
5
23e
330
0
100
AcDbDictionary
280
0
281
1
0
DICTIONARY
5
23f
330
0
100
AcDbDictionary
280
0
281
1
3
Standard
350
18
0
MLINESTYLE
5
18
330
23f
100
AcDbMlineStyle
2
Standard
70
0
3

62
256
51
90
52
90
71
2
49
-0.5
62
256
6
ByLayer
49
0.5
62
256
6
ByLayer
0
RASTERVARIABLES
5
22b
330

100
AcDbRasterVariables
90
0
70
1
71
1
72
1
0
ENDSEC
0
EOF
