0
SECTION
2
HEADER
9
$ACADVER
1
AC1015
9
$DWGCODEPAGE
3
ANSI_1252
9
$HANDSEED
5
226
9
$ANGBASE
50
0
9
$ANGDIR
70
0
9
$ATTMODE
70
1
9
$AUNITS
70
0
9
$AUPREC
70
0
9
$CECOLOR
62
256
9
$CELTSCALE
40
1
9
$CELTYPE
6
ByLayer
9
$CELWEIGHT
370
18
9
$CLAYER
8
0
9
$CMLJUST
70
0
9
$CMLSCALE
40
1
9
$CMLSTYLE
2
Standard
9
$DIMSTYLE
2
Standard
9
$TEXTSIZE
40
0.2
9
$TEXTSTYLE
7
Standard
9
$LUNITS
70
2
9
$LUPREC
70
4
9
$EXTNAMES
290
1
9
$INSUNITS
70
4
9
$LTSCALE
40
1
9
$LWDISPLAY
290
1
9
$PDMODE
70
0
9
$PDSIZE
40
0
9
$PLINEGEN
70
0
0
ENDSEC
0
SECTION
2
CLASSES
0
CLASS
1
RASTERVARIABLES
2
AcDbRasterVariables
3
ISM
90
0
280
0
281
0
0
ENDSEC
0
SECTION
2
TABLES
0
TABLE
2
VPORT
5
21c
100
AcDbSymbolTable
0
VPORT
5
1
100
AcDbSymbolTableRecord
100
AcDbViewportTableRecord
2
*Active
70
0
10
0
20
0
11
1
21
1
12
-1
22
1
13
0
23
0
14
0.5
24
0.5
15
10
25
10
16
0
26
0
36
1
17
0
27
0
37
0
0
ENDTAB
0
TABLE
2
LTYPE
5
21d
100
AcDbSymbolTable
0
LTYPE
5
14
100
AcDbSymbolTableRecord
100
AcDbLinetypeTableRecord
70
0
2
ByBlock
3

72
65
73
0
40
0
0
LTYPE
5
15
100
AcDbSymbolTableRecord
100
AcDbLinetypeTableRecord
70
0
2
ByLayer
3

72
65
73
0
40
0
0
LTYPE
5
16
100
AcDbSymbolTableRecord
100
AcDbLinetypeTableRecord
70
0
2
Continuous
3
Solid line
72
65
73
0
40
0
0
LTYPE
5
6E
100
AcDbSymbolTableRecord
100
AcDbLinetypeTableRecord
70
0
2
CENTER
3
____ _ ____ _ ____ _ ____
72
65
73
4
40
47.5
49
22
74
0
49
-8.5
74
0
49
8.5
74
0
49
-8.5
74
0
0
LTYPE
5
6F
100
AcDbSymbolTableRecord
100
AcDbLinetypeTableRecord
70
0
2
DASHED
3
__ __ __ __ __ __ __ __ __
72
65
73
2
40
25.72
49
12.86
74
0
49
-12.86
74
0
0
ENDTAB
0
TABLE
2
LAYER
5
21e
100
AcDbSymbolTable
0
LAYER
5
10
100
AcDbSymbolTableRecord
100
AcDbLayerTableRecord
2
0
70
0
62
7
6
Continuous
290
1
370
-3
390
0
0
LAYER
5
71
100
AcDbSymbolTableRecord
100
AcDbLayerTableRecord
2
81
70
0
62
-3
6
Continuous
290
1
370
-3
390
0
0
LAYER
5
73
100
AcDbSymbolTableRecord
100
AcDbLayerTableRecord
2
80
70
0
62
-6
6
Continuous
290
1
370
-3
390
0
0
LAYER
5
75
100
AcDbSymbolTableRecord
100
AcDbLayerTableRecord
2
1
70
0
62
4
6
Continuous
290
1
370
-3
390
0
0
LAYER
5
82
100
AcDbSymbolTableRecord
100
AcDbLayerTableRecord
2
4
70
0
62
-2
6
CENTER
290
1
370
-3
390
0
0
LAYER
5
B0
100
AcDbSymbolTableRecord
100
AcDbLayerTableRecord
2
2
70
0
62
7
6
Continuous
290
1
370
-3
390
0
0
LAYER
5
14B
100
AcDbSymbolTableRecord
100
AcDbLayerTableRecord
2
Defpoints
70
0
62
7
6
Continuous
290
0
370
-3
390
0
0
LAYER
5
208
100
AcDbSymbolTableRecord
100
AcDbLayerTableRecord
2
SK4
70
0
62
2
6
CENTER
290
1
370
-3
390
0
0
LAYER
5
209
100
AcDbSymbolTableRecord
100
AcDbLayerTableRecord
2
SK1
70
0
62
4
6
Continuous
290
1
370
-3
390
0
0
LAYER
5
20a
100
AcDbSymbolTableRecord
100
AcDbLayerTableRecord
2
SK2
70
0
62
7
6
Continuous
290
1
370
-3
390
0
0
LAYER
5
20b
100
AcDbSymbolTableRecord
100
AcDbLayerTableRecord
2
SK6
70
0
62
5
6
Continuous
290
1
370
-3
390
0
0
ENDTAB
0
TABLE
2
STYLE
5
21f
100
AcDbSymbolTable
0
STYLE
5
11
100
AcDbSymbolTableRecord
100
AcDbTextStyleTableRecord
2
Standard
3
txt
70
0
71
0
40
0
41
1
42
0
50
0
0
STYLE
5
127
100
AcDbSymbolTableRecord
100
AcDbTextStyleTableRecord
2
iso_b_vert
3
simplex.shx
70
0
71
0
40
0
41
1
42
0
50
0
0
STYLE
5
128
100
AcDbSymbolTableRecord
100
AcDbTextStyleTableRecord
2
DWGDirectTextStyle
3
simplex
70
0
71
0
40
0
41
1
42
0
50
0
0
ENDTAB
0
TABLE
2
DIMSTYLE
5
220
100
AcDbSymbolTable
100
AcDbDimStyleTable
0
DIMSTYLE
105
27
100
AcDbSymbolTableRecord
100
AcDbDimStyleTableRecord
2
Standard
70
0
3
<>
41
0.18
42
0.0625
44
0.18
140
0.18
147
0.09
73
0
74
0
77
1
271
2
275
0
278
52
280
0
340
11
0
ENDTAB
0
TABLE
2
VIEW
5
221
100
AcDbSymbolTable
0
ENDTAB
0
TABLE
2
UCS
5
222
100
AcDbSymbolTable
0
ENDTAB
0
TABLE
2
APPID
5
223
100
AcDbSymbolTable
0
APPID
5
12
100
AcDbSymbolTableRecord
100
AcDbRegAppTableRecord
2
ACAD
70
0
0
APPID
5
147
100
AcDbSymbolTableRecord
100
AcDbRegAppTableRecord
2
ACAD_DSTYLE_DIMBREAK
70
0
0
APPID
5
1C7
100
AcDbSymbolTableRecord
100
AcDbRegAppTableRecord
2
ACAD_DSTYLE_DIM_LINETYPE
70
0
0
APPID
5
1C8
100
AcDbSymbolTableRecord
100
AcDbRegAppTableRecord
2
ACAD_DSTYLE_DIM_EXT1_LINETYPE
70
0
0
APPID
5
1C9
100
AcDbSymbolTableRecord
100
AcDbRegAppTableRecord
2
ACAD_DSTYLE_DIM_EXT2_LINETYPE
70
0
0
APPID
5
204
100
AcDbSymbolTableRecord
100
AcDbRegAppTableRecord
2
ACAD_MLEADERVER
70
0
0
ENDTAB
0
TABLE
2
BLOCK_RECORD
5
224
100
AcDbSymbolTable
0
BLOCK_RECORD
5
1F
100
AcDbSymbolTableRecord
100
AcDbBlockTableRecord
2
*Model_Space
340
0
70
0
0
BLOCK_RECORD
5
1B
100
AcDbSymbolTableRecord
100
AcDbBlockTableRecord
2
*Paper_Space
340
0
70
0
0
BLOCK_RECORD
5
23
100
AcDbSymbolTableRecord
100
AcDbBlockTableRecord
2
*Paper_Space0
340
0
70
0
0
BLOCK_RECORD
5
14C
100
AcDbSymbolTableRecord
100
AcDbBlockTableRecord
2
*D1
340
0
70
0
0
BLOCK_RECORD
5
158
100
AcDbSymbolTableRecord
100
AcDbBlockTableRecord
2
_U0
340
0
70
0
0
BLOCK_RECORD
5
164
100
AcDbSymbolTableRecord
100
AcDbBlockTableRecord
2
*D3
340
0
70
0
0
BLOCK_RECORD
5
170
100
AcDbSymbolTableRecord
100
AcDbBlockTableRecord
2
_U1
340
0
70
0
0
BLOCK_RECORD
5
17C
100
AcDbSymbolTableRecord
100
AcDbBlockTableRecord
2
*D5
340
0
70
0
0
BLOCK_RECORD
5
188
100
AcDbSymbolTableRecord
100
AcDbBlockTableRecord
2
_U2
340
0
70
0
0
BLOCK_RECORD
5
194
100
AcDbSymbolTableRecord
100
AcDbBlockTableRecord
2
*D7
340
0
70
0
0
BLOCK_RECORD
5
1A0
100
AcDbSymbolTableRecord
100
AcDbBlockTableRecord
2
_U3
340
0
70
0
0
ENDTAB
0
ENDSEC
0
SECTION
2
BLOCKS
0
BLOCK
5
20
100
AcDbEntity
8
0
100
AcDbBlockBegin
2
*Model_Space
70
0
10
0
20
0
30
0
3
*Model_Space
0
ENDBLK
5
21
100
AcDbEntity
8
0
100
AcDbBlockEnd
0
BLOCK
5
1C
100
AcDbEntity
8
0
100
AcDbBlockBegin
2
*Paper_Space
70
0
10
0
20
0
30
0
3
*Paper_Space
0
ENDBLK
5
1D
100
AcDbEntity
8
0
100
AcDbBlockEnd
0
BLOCK
5
24
100
AcDbEntity
8
0
100
AcDbBlockBegin
2
*Paper_Space0
70
0
10
0
20
0
30
0
3
*Paper_Space0
0
ENDBLK
5
25
100
AcDbEntity
8
0
100
AcDbBlockEnd
0
BLOCK
5
14D
100
AcDbEntity
8
0
100
AcDbBlockBegin
2
*D1
70
1
10
0
20
0
30
0
3
*D1
0
LINE
5
14F
100
AcDbEntity
8
0
62
256
6
ByLayer
370
-2
48
1
60
0
100
AcDbLine
10
-48
20
-11.1125
30
0
11
-48
21
-47.952229
31
0
39
0
210
0
220
0
230
1
0
LINE
5
150
100
AcDbEntity
8
0
62
256
6
ByLayer
370
-2
48
1
60
0
100
AcDbLine
10
93.5
20
-1.5875
30
0
11
93.5
21
-47.952229
31
0
39
0
210
0
220
0
230
1
0
LINE
5
151
100
AcDbEntity
8
0
62
256
6
ByLayer
370
-2
48
1
60
0
100
AcDbLine
10
-44.5
20
-45.952229
30
0
11
90
21
-45.952229
31
0
39
0
210
0
220
0
230
1
0
SOLID
5
152
100
AcDbEntity
8
0
62
256
6
ByLayer
370
-1
48
1
60
0
100
AcDbTrace
10
-44.5
20
-45.368896
30
0
11
-44.5
21
-46.535563
31
0
12
-48
22
-45.952229
32
0
13
-48
23
-45.952229
33
0
39
0
210
0
220
0
230
1
0
SOLID
5
153
100
AcDbEntity
8
0
62
256
6
ByLayer
370
-1
48
1
60
0
100
AcDbTrace
10
90
20
-46.535563
30
0
11
90
21
-45.368896
31
0
12
93.5
22
-45.952229
32
0
13
93.5
23
-45.952229
33
0
39
0
210
0
220
0
230
1
0
MTEXT
5
154
100
AcDbEntity
8
0
62
256
6
ByLayer
370
18
48
1
60
0
100
AcDbMText
10
22.75
20
-39.952229
30
0
210
0
220
0
230
1
1
\A1;141.5
40
3
41
0
44
1
50
0
71
5
72
5
7
iso_b_vert
0
POINT
5
155
100
AcDbEntity
8
Defpoints
62
0
6
ByLayer
370
-1
48
1
60
0
100
AcDbPoint
10
-48
20
-9.525
30
0
39
0
210
0
220
0
230
1
50
360
0
POINT
5
156
100
AcDbEntity
8
Defpoints
62
0
6
ByLayer
370
-1
48
1
60
0
100
AcDbPoint
10
93.5
20
0
30
0
39
0
210
0
220
0
230
1
50
360
0
POINT
5
157
100
AcDbEntity
8
Defpoints
62
0
6
ByLayer
370
-1
48
1
60
0
100
AcDbPoint
10
93.5
20
-45.952229
30
0
39
0
210
0
220
0
230
1
50
360
0
ENDBLK
5
14E
100
AcDbEntity
8
0
100
AcDbBlockEnd
0
BLOCK
5
15F
100
AcDbEntity
8
0
100
AcDbBlockBegin
2
_U0
70
0
10
0
20
0
30
0
3
_U0
0
MTEXT
5
159
100
AcDbEntity
8
SK2
62
256
6
ByLayer
370
18
48
1
60
0
100
AcDbMText
10
17.738658
20
-45.067115
30
0
210
0
220
0
230
1
1
\W0.6746;141.50
40
3
41
0
44
1.084337
50
0
71
7
72
5
7
iso_b_vert
0
LINE
5
15A
100
AcDbEntity
8
SK2
62
256
6
ByLayer
370
13
48
1
60
0
100
AcDbLine
10
-48
20
-11.1125
30
0
11
-48
21
-47.952229
31
0
39
0
210
0
220
0
230
1
0
LINE
5
15B
100
AcDbEntity
8
SK2
62
256
6
ByLayer
370
13
48
1
60
0
100
AcDbLine
10
93.5
20
-1.5875
30
0
11
93.5
21
-47.952229
31
0
39
0
210
0
220
0
230
1
0
LINE
5
15C
100
AcDbEntity
8
SK2
62
256
6
ByLayer
370
13
48
1
60
0
100
AcDbLine
10
-48
20
-45.952229
30
0
11
93.5
21
-45.952229
31
0
39
0
210
0
220
0
230
1
0
SOLID
5
15D
100
AcDbEntity
8
SK2
62
256
6
ByLayer
370
18
48
1
60
0
100
AcDbTrace
10
-48
20
-45.952229
30
0
11
-44.500002
21
-45.491446
31
0
12
-44.499998
22
-46.413013
32
0
13
-44.499998
23
-46.413013
33
0
39
0
210
0
220
0
230
1
0
SOLID
5
15E
100
AcDbEntity
8
SK2
62
256
6
ByLayer
370
18
48
1
60
0
100
AcDbTrace
10
93.5
20
-45.952229
30
0
11
90.000002
21
-46.413013
31
0
12
89.999998
22
-45.491446
32
0
13
89.999998
23
-45.491446
33
0
39
0
210
0
220
0
230
1
0
ENDBLK
5
160
100
AcDbEntity
8
0
100
AcDbBlockEnd
0
BLOCK
5
165
100
AcDbEntity
8
0
100
AcDbBlockBegin
2
*D3
70
1
10
0
20
0
30
0
3
*D3
0
LINE
5
167
100
AcDbEntity
8
0
62
256
6
ByLayer
370
-2
48
1
60
0
100
AcDbLine
10
93.5
20
-1.5875
30
0
11
93.5
21
-37.952229
31
0
39
0
210
0
220
0
230
1
0
LINE
5
168
100
AcDbEntity
8
0
62
256
6
ByLayer
370
-2
48
1
60
0
100
AcDbLine
10
3
20
-10.7155
30
0
11
3
21
-37.952229
31
0
39
0
210
0
220
0
230
1
0
LINE
5
169
100
AcDbEntity
8
0
62
256
6
ByLayer
370
-2
48
1
60
0
100
AcDbLine
10
90
20
-35.952229
30
0
11
6.5
21
-35.952229
31
0
39
0
210
0
220
0
230
1
0
SOLID
5
16A
100
AcDbEntity
8
0
62
256
6
ByLayer
370
-1
48
1
60
0
100
AcDbTrace
10
90
20
-36.535563
30
0
11
90
21
-35.368896
31
0
12
93.5
22
-35.952229
32
0
13
93.5
23
-35.952229
33
0
39
0
210
0
220
0
230
1
0
SOLID
5
16B
100
AcDbEntity
8
0
62
256
6
ByLayer
370
-1
48
1
60
0
100
AcDbTrace
10
6.5
20
-35.368896
30
0
11
6.5
21
-36.535563
31
0
12
3
22
-35.952229
32
0
13
3
23
-35.952229
33
0
39
0
210
0
220
0
230
1
0
MTEXT
5
16C
100
AcDbEntity
8
0
62
256
6
ByLayer
370
18
48
1
60
0
100
AcDbMText
10
48.25
20
-29.952229
30
0
210
0
220
0
230
1
1
\A1;90.5
40
3
41
0
44
1
50
0
71
5
72
5
7
iso_b_vert
0
POINT
5
16D
100
AcDbEntity
8
Defpoints
62
0
6
ByLayer
370
-1
48
1
60
0
100
AcDbPoint
10
93.5
20
0
30
0
39
0
210
0
220
0
230
1
50
360
0
POINT
5
16E
100
AcDbEntity
8
Defpoints
62
0
6
ByLayer
370
-1
48
1
60
0
100
AcDbPoint
10
3
20
-9.128
30
0
39
0
210
0
220
0
230
1
50
360
0
POINT
5
16F
100
AcDbEntity
8
Defpoints
62
0
6
ByLayer
370
-1
48
1
60
0
100
AcDbPoint
10
3
20
-35.952229
30
0
39
0
210
0
220
0
230
1
50
360
0
ENDBLK
5
166
100
AcDbEntity
8
0
100
AcDbBlockEnd
0
BLOCK
5
177
100
AcDbEntity
8
0
100
AcDbBlockBegin
2
_U1
70
0
10
0
20
0
30
0
3
_U1
0
MTEXT
5
171
100
AcDbEntity
8
SK2
62
256
6
ByLayer
370
18
48
1
60
0
100
AcDbMText
10
43.76763
20
-35.067115
30
0
210
0
220
0
230
1
1
\W0.7468;90.50
40
3
41
0
44
1.084337
50
0
71
7
72
5
7
iso_b_vert
0
LINE
5
172
100
AcDbEntity
8
SK2
62
256
6
ByLayer
370
13
48
1
60
0
100
AcDbLine
10
93.5
20
-1.5875
30
0
11
93.5
21
-37.952229
31
0
39
0
210
0
220
0
230
1
0
LINE
5
173
100
AcDbEntity
8
SK2
62
256
6
ByLayer
370
13
48
1
60
0
100
AcDbLine
10
3
20
-10.7155
30
0
11
3
21
-37.952229
31
0
39
0
210
0
220
0
230
1
0
LINE
5
174
100
AcDbEntity
8
SK2
62
256
6
ByLayer
370
13
48
1
60
0
100
AcDbLine
10
93.5
20
-35.952229
30
0
11
3
21
-35.952229
31
0
39
0
210
0
220
0
230
1
0
SOLID
5
175
100
AcDbEntity
8
SK2
62
256
6
ByLayer
370
18
48
1
60
0
100
AcDbTrace
10
93.5
20
-35.952229
30
0
11
90.000002
21
-36.413013
31
0
12
89.999998
22
-35.491446
32
0
13
89.999998
23
-35.491446
33
0
39
0
210
0
220
0
230
1
0
SOLID
5
176
100
AcDbEntity
8
SK2
62
256
6
ByLayer
370
18
48
1
60
0
100
AcDbTrace
10
3
20
-35.952229
30
0
11
6.499998
21
-35.491446
31
0
12
6.500002
22
-36.413013
32
0
13
6.500002
23
-36.413013
33
0
39
0
210
0
220
0
230
1
0
ENDBLK
5
178
100
AcDbEntity
8
0
100
AcDbBlockEnd
0
BLOCK
5
17D
100
AcDbEntity
8
0
100
AcDbBlockBegin
2
*D5
70
1
10
0
20
0
30
0
3
*D5
0
LINE
5
17F
100
AcDbEntity
8
0
62
256
6
ByLayer
370
-2
48
1
60
0
100
AcDbLine
10
-48
20
-11.1125
30
0
11
-48
21
-37.952229
31
0
39
0
210
0
220
0
230
1
0
LINE
5
180
100
AcDbEntity
8
0
62
256
6
ByLayer
370
-2
48
1
60
0
100
AcDbLine
10
0
20
-11.1125
30
0
11
0
21
-37.952229
31
0
39
0
210
0
220
0
230
1
0
LINE
5
181
100
AcDbEntity
8
0
62
256
6
ByLayer
370
-2
48
1
60
0
100
AcDbLine
10
-44.5
20
-35.952229
30
0
11
-3.5
21
-35.952229
31
0
39
0
210
0
220
0
230
1
0
SOLID
5
182
100
AcDbEntity
8
0
62
256
6
ByLayer
370
-1
48
1
60
0
100
AcDbTrace
10
-44.5
20
-35.368896
30
0
11
-44.5
21
-36.535563
31
0
12
-48
22
-35.952229
32
0
13
-48
23
-35.952229
33
0
39
0
210
0
220
0
230
1
0
SOLID
5
183
100
AcDbEntity
8
0
62
256
6
ByLayer
370
-1
48
1
60
0
100
AcDbTrace
10
-3.5
20
-36.535563
30
0
11
-3.5
21
-35.368896
31
0
12
0
22
-35.952229
32
0
13
0
23
-35.952229
33
0
39
0
210
0
220
0
230
1
0
MTEXT
5
184
100
AcDbEntity
8
0
62
256
6
ByLayer
370
18
48
1
60
0
100
AcDbMText
10
-24
20
-29.952229
30
0
210
0
220
0
230
1
1
\A1;48
40
3
41
0
44
1
50
0
71
5
72
5
7
iso_b_vert
0
POINT
5
185
100
AcDbEntity
8
Defpoints
62
0
6
ByLayer
370
-1
48
1
60
0
100
AcDbPoint
10
-48
20
-9.525
30
0
39
0
210
0
220
0
230
1
50
360
0
POINT
5
186
100
AcDbEntity
8
Defpoints
62
0
6
ByLayer
370
-1
48
1
60
0
100
AcDbPoint
10
0
20
-9.525
30
0
39
0
210
0
220
0
230
1
50
360
0
POINT
5
187
100
AcDbEntity
8
Defpoints
62
0
6
ByLayer
370
-1
48
1
60
0
100
AcDbPoint
10
0
20
-35.952229
30
0
39
0
210
0
220
0
230
1
50
360
0
ENDBLK
5
17E
100
AcDbEntity
8
0
100
AcDbBlockEnd
0
BLOCK
5
18F
100
AcDbEntity
8
0
100
AcDbBlockBegin
2
_U2
70
0
10
0
20
0
30
0
3
_U2
0
MTEXT
5
189
100
AcDbEntity
8
SK2
62
256
6
ByLayer
370
18
48
1
60
0
100
AcDbMText
10
-28.640313
20
-35.067115
30
0
210
0
220
0
230
1
1
\W0.7694;48.00
40
3
41
0
44
1.084337
50
0
71
7
72
5
7
iso_b_vert
0
LINE
5
18A
100
AcDbEntity
8
SK2
62
256
6
ByLayer
370
13
48
1
60
0
100
AcDbLine
10
-48
20
-11.1125
30
0
11
-48
21
-37.952229
31
0
39
0
210
0
220
0
230
1
0
LINE
5
18B
100
AcDbEntity
8
SK2
62
256
6
ByLayer
370
13
48
1
60
0
100
AcDbLine
10
0
20
-11.1125
30
0
11
0
21
-37.952229
31
0
39
0
210
0
220
0
230
1
0
LINE
5
18C
100
AcDbEntity
8
SK2
62
256
6
ByLayer
370
13
48
1
60
0
100
AcDbLine
10
-48
20
-35.952229
30
0
11
0
21
-35.952229
31
0
39
0
210
0
220
0
230
1
0
SOLID
5
18D
100
AcDbEntity
8
SK2
62
256
6
ByLayer
370
18
48
1
60
0
100
AcDbTrace
10
-48
20
-35.952229
30
0
11
-44.500002
21
-35.491446
31
0
12
-44.499998
22
-36.413013
32
0
13
-44.499998
23
-36.413013
33
0
39
0
210
0
220
0
230
1
0
SOLID
5
18E
100
AcDbEntity
8
SK2
62
256
6
ByLayer
370
18
48
1
60
0
100
AcDbTrace
10
0
20
-35.952229
30
0
11
-3.499998
21
-36.413013
31
0
12
-3.500002
22
-35.491446
32
0
13
-3.500002
23
-35.491446
33
0
39
0
210
0
220
0
230
1
0
ENDBLK
5
190
100
AcDbEntity
8
0
100
AcDbBlockEnd
0
BLOCK
5
195
100
AcDbEntity
8
0
100
AcDbBlockBegin
2
*D7
70
1
10
0
20
0
30
0
3
*D7
0
LINE
5
197
100
AcDbEntity
8
0
62
256
6
ByLayer
370
-2
48
1
60
0
100
AcDbLine
10
93.5
20
1.5875
30
0
11
93.5
21
34.952229
31
0
39
0
210
0
220
0
230
1
0
LINE
5
198
100
AcDbEntity
8
0
62
256
6
ByLayer
370
-2
48
1
60
0
100
AcDbLine
10
27
20
10.7155
30
0
11
27
21
34.952229
31
0
39
0
210
0
220
0
230
1
0
LINE
5
199
100
AcDbEntity
8
0
62
256
6
ByLayer
370
-2
48
1
60
0
100
AcDbLine
10
90
20
32.952229
30
0
11
30.5
21
32.952229
31
0
39
0
210
0
220
0
230
1
0
SOLID
5
19A
100
AcDbEntity
8
0
62
256
6
ByLayer
370
-1
48
1
60
0
100
AcDbTrace
10
90
20
32.368896
30
0
11
90
21
33.535563
31
0
12
93.5
22
32.952229
32
0
13
93.5
23
32.952229
33
0
39
0
210
0
220
0
230
1
0
SOLID
5
19B
100
AcDbEntity
8
0
62
256
6
ByLayer
370
-1
48
1
60
0
100
AcDbTrace
10
30.5
20
33.535563
30
0
11
30.5
21
32.368896
31
0
12
27
22
32.952229
32
0
13
27
23
32.952229
33
0
39
0
210
0
220
0
230
1
0
MTEXT
5
19C
100
AcDbEntity
8
0
62
256
6
ByLayer
370
18
48
1
60
0
100
AcDbMText
10
60.25
20
38.952229
30
0
210
0
220
0
230
1
1
\A1;66.5
40
3
41
0
44
1
50
0
71
5
72
5
7
iso_b_vert
0
POINT
5
19D
100
AcDbEntity
8
Defpoints
62
0
6
ByLayer
370
-1
48
1
60
0
100
AcDbPoint
10
93.5
20
0
30
0
39
0
210
0
220
0
230
1
50
360
0
POINT
5
19E
100
AcDbEntity
8
Defpoints
62
0
6
ByLayer
370
-1
48
1
60
0
100
AcDbPoint
10
27
20
9.128
30
0
39
0
210
0
220
0
230
1
50
360
0
POINT
5
19F
100
AcDbEntity
8
Defpoints
62
0
6
ByLayer
370
-1
48
1
60
0
100
AcDbPoint
10
27
20
32.952229
30
0
39
0
210
0
220
0
230
1
50
360
0
ENDBLK
5
196
100
AcDbEntity
8
0
100
AcDbBlockEnd
0
BLOCK
5
1A7
100
AcDbEntity
8
0
100
AcDbBlockBegin
2
_U3
70
0
10
0
20
0
30
0
3
_U3
0
MTEXT
5
1A1
100
AcDbEntity
8
SK2
62
256
6
ByLayer
370
18
48
1
60
0
100
AcDbMText
10
55.76763
20
33.837344
30
0
210
0
220
0
230
1
1
\W0.7468;66.50
40
3
41
0
44
1.084337
50
0
71
7
72
5
7
iso_b_vert
0
LINE
5
1A2
100
AcDbEntity
8
SK2
62
256
6
ByLayer
370
13
48
1
60
0
100
AcDbLine
10
93.5
20
1.5875
30
0
11
93.5
21
34.952229
31
0
39
0
210
0
220
0
230
1
0
LINE
5
1A3
100
AcDbEntity
8
SK2
62
256
6
ByLayer
370
13
48
1
60
0
100
AcDbLine
10
27
20
10.7155
30
0
11
27
21
34.952229
31
0
39
0
210
0
220
0
230
1
0
LINE
5
1A4
100
AcDbEntity
8
SK2
62
256
6
ByLayer
370
13
48
1
60
0
100
AcDbLine
10
93.5
20
32.952229
30
0
11
27
21
32.952229
31
0
39
0
210
0
220
0
230
1
0
SOLID
5
1A5
100
AcDbEntity
8
SK2
62
256
6
ByLayer
370
18
48
1
60
0
100
AcDbTrace
10
93.5
20
32.952229
30
0
11
90.000002
21
32.491446
31
0
12
89.999998
22
33.413013
32
0
13
89.999998
23
33.413013
33
0
39
0
210
0
220
0
230
1
0
SOLID
5
1A6
100
AcDbEntity
8
SK2
62
256
6
ByLayer
370
18
48
1
60
0
100
AcDbTrace
10
27
20
32.952229
30
0
11
30.499998
21
33.413013
31
0
12
30.500002
22
32.491446
32
0
13
30.500002
23
32.491446
33
0
39
0
210
0
220
0
230
1
0
ENDBLK
5
1A8
100
AcDbEntity
8
0
100
AcDbBlockEnd
0
ENDSEC
0
SECTION
2
ENTITIES
0
ARC
5
C1
100
AcDbEntity
8
SK2
62
256
6
ByLayer
370
13
48
1
60
0
100
AcDbCircle
39
0
10
93.5
20
0
30
0
40
19
210
0
220
0
230
1
100
AcDbArc
50
290
51
70
0
ELLIPSE
5
C2
100
AcDbEntity
8
SK1
62
256
6
ByLayer
370
18
48
1
60
0
100
AcDbEllipse
10
-32.117794
20
0
30
0
11
-1.74965632802376E-15
21
-9.52500000000022
31
0
210
0
220
0
230
1
40
0.932515
41
-1.99646903598621
42
-1.14512361760358
0
ELLIPSE
5
C3
100
AcDbEntity
8
SK1
62
256
6
ByLayer
370
18
48
1
60
0
100
AcDbEllipse
10
-15.214312
20
0
30
0
11
10.2143119629885
21
-1.15738337235711E-14
31
0
210
0
220
0
230
1
40
0.932515
41
-0.425672709191254
42
0.425672709191253
0
POINT
5
70
100
AcDbEntity
8
81
62
256
6
ByLayer
370
18
48
1
60
0
100
AcDbPoint
10
93.5
20
0
30
0
39
0
210
0
220
0
230
1
50
360
0
POINT
5
72
100
AcDbEntity
8
80
62
256
6
ByLayer
370
18
48
1
60
0
100
AcDbPoint
10
0
20
0
30
0
39
0
210
0
220
0
230
1
50
360
0
POINT
5
74
100
AcDbEntity
8
1
62
256
6
ByLayer
370
18
48
1
60
1
100
AcDbPoint
10
-48
20
-9.525
30
0
39
0
210
0
220
0
230
1
50
360
0
POINT
5
76
100
AcDbEntity
8
1
62
256
6
ByLayer
370
18
48
1
60
1
100
AcDbPoint
10
93.5
20
0
30
0
39
0
210
0
220
0
230
1
50
360
0
POINT
5
77
100
AcDbEntity
8
1
62
256
6
ByLayer
370
18
48
1
60
1
100
AcDbPoint
10
93.5
20
0
30
0
39
0
210
0
220
0
230
1
50
360
0
POINT
5
78
100
AcDbEntity
8
1
62
256
6
ByLayer
370
18
48
1
60
1
100
AcDbPoint
10
3
20
-9.128
30
0
39
0
210
0
220
0
230
1
50
360
0
POINT
5
79
100
AcDbEntity
8
1
62
256
6
ByLayer
370
18
48
1
60
1
100
AcDbPoint
10
-48
20
-9.525
30
0
39
0
210
0
220
0
230
1
50
360
0
POINT
5
7A
100
AcDbEntity
8
1
62
256
6
ByLayer
370
18
48
1
60
1
100
AcDbPoint
10
0
20
-9.525
30
0
39
0
210
0
220
0
230
1
50
360
0
POINT
5
7B
100
AcDbEntity
8
1
62
256
6
ByLayer
370
18
48
1
60
1
100
AcDbPoint
10
93.5
20
0
30
0
39
0
210
0
220
0
230
1
50
360
0
POINT
5
7C
100
AcDbEntity
8
1
62
256
6
ByLayer
370
18
48
1
60
1
100
AcDbPoint
10
27
20
9.128
30
0
39
0
210
0
220
0
230
1
50
360
0
SPLINE
5
C4
100
AcDbEntity
8
1
62
256
6
ByLayer
370
18
48
1
60
0
100
AcDbSpline
70
4
71
3
72
16
73
12
40
0
40
0
40
0
40
0
40
0.184842869634123
40
0.184842869634123
40
0.369685739268245
40
0.369685739268245
40
0.554528608902368
40
0.554528608902368
40
0.739371478536491
40
0.739371478536491
40
1
40
1
40
1
40
1
41
1
10
80.6
20
-9.05008428892501
30
0
41
1
10
80.7998300488603
20
-9.05949422256523
30
0
41
1
10
80.9995805932562
20
-9.06805028973722
30
0
41
1
10
81.3989078910449
20
-9.08344846007896
30
0
41
1
10
81.5984723291948
20
-9.09029270167284
30
0
41
1
10
81.9975200066217
20
-9.10223237458825
30
0
41
1
10
82.1970246583841
20
-9.10732332144462
30
0
41
1
10
82.596081412417
20
-9.11574841021695
30
0
41
1
10
82.7956183743757
20
-9.1190862784193
30
0
41
1
10
83.2764847999891
20
-9.1250438848038
30
0
41
1
10
83.5578115897921
20
-9.12681489264043
30
0
41
1
10
83.8391111871287
20
-9.12686933440159
30
0
0
SPLINE
5
C5
100
AcDbEntity
8
1
62
256
6
ByLayer
370
18
48
1
60
0
100
AcDbSpline
70
4
71
3
72
128
73
124
40
0
40
0
40
0
40
0
40
0.0312500000000018
40
0.0312500000000018
40
0.0625000000000036
40
0.0625000000000036
40
0.0703125000000042
40
0.0703125000000042
40
0.0781250000000048
40
0.0781250000000048
40
0.0937500000000054
40
0.0937500000000054
40
0.125000000000007
40
0.125000000000007
40
0.140625000000007
40
0.140625000000007
40
0.148437500000008
40
0.148437500000008
40
0.156250000000008
40
0.156250000000008
40
0.171875000000008
40
0.171875000000008
40
0.187500000000009
40
0.187500000000009
40
0.20312500000001
40
0.20312500000001
40
0.21093750000001
40
0.21093750000001
40
0.218750000000011
40
0.218750000000011
40
0.226562500000011
40
0.226562500000011
40
0.234375000000012
40
0.234375000000012
40
0.250000000000013
40
0.250000000000013
40
0.265625000000014
40
0.265625000000014
40
0.281250000000016
40
0.281250000000016
40
0.296875000000017
40
0.296875000000017
40
0.312500000000018
40
0.312500000000018
40
0.343750000000021
40
0.343750000000021
40
0.359375000000022
40
0.359375000000022
40
0.367187500000023
40
0.367187500000023
40
0.375000000000024
40
0.375000000000024
40
0.406250000000028
40
0.406250000000028
40
0.42187500000003
40
0.42187500000003
40
0.42968750000003
40
0.42968750000003
40
0.437500000000031
40
0.437500000000031
40
0.445312500000031
40
0.445312500000031
40
0.453125000000032
40
0.453125000000032
40
0.468750000000033
40
0.468750000000033
40
0.500000000000036
40
0.500000000000036
40
0.515625000000037
40
0.515625000000037
40
0.531250000000038
40
0.531250000000038
40
0.546875000000039
40
0.546875000000039
40
0.56250000000004
40
0.56250000000004
40
0.578125000000042
40
0.578125000000042
40
0.585937500000042
40
0.585937500000042
40
0.593750000000042
40
0.593750000000042
40
0.625000000000042
40
0.625000000000042
40
0.640625000000041
40
0.640625000000041
40
0.648437500000041
40
0.648437500000041
40
0.65625000000004
40
0.65625000000004
40
0.687500000000037
40
0.687500000000037
40
0.718750000000033
40
0.718750000000033
40
0.734375000000031
40
0.734375000000031
40
0.75000000000003
40
0.75000000000003
40
0.781250000000026
40
0.781250000000026
40
0.796875000000025
40
0.796875000000025
40
0.804687500000024
40
0.804687500000024
40
0.812500000000024
40
0.812500000000024
40
0.843750000000019
40
0.843750000000019
40
0.859375000000017
40
0.859375000000017
40
0.867187500000016
40
0.867187500000016
40
0.875000000000015
40
0.875000000000015
40
0.906250000000011
40
0.906250000000011
40
0.937500000000007
40
0.937500000000007
40
0.953125000000005
40
0.953125000000005
40
0.968750000000004
40
0.968750000000004
40
1
40
1
40
1
40
1
41
1
10
16.7479682766108
20
7.83726567925871
30
0
41
1
10
17.4131784136231
20
7.73649304643209
30
0
41
1
10
18.0782721568555
20
7.62817481455204
30
0
41
1
10
19.4077431501028
20
7.39617857626541
30
0
41
1
10
20.0721243374287
20
7.27250429981575
30
0
41
1
10
20.9018655481206
20
7.10777136610861
30
0
41
1
10
21.0677718815201
20
7.07430747185316
30
0
41
1
10
21.3995275043849
20
7.00638399351163
30
0
41
1
10
21.5653815333243
20
6.97193195889196
30
0
41
1
10
22.0630239395699
20
6.86737179936972
30
0
41
1
10
22.3949027208633
20
6.79608294049427
30
0
41
1
10
23.3906876268575
20
6.57717932560851
30
0
41
1
10
24.0547715800843
20
6.42459477029021
30
0
41
1
10
25.0509121474366
20
6.18508727407996
30
0
41
1
10
25.382959326446
20
6.10347092218552
30
0
41
1
10
25.880987883131
20
5.97824682815059
30
0
41
1
10
26.0469937341305
20
5.93604494118165
30
0
41
1
10
26.3790887565486
20
5.85091184334067
30
0
41
1
10
26.5451888230876
20
5.80800476026178
30
0
41
1
10
27.0436715324103
20
5.67832689664817
30
0
41
1
10
27.3762104205334
20
5.59054396007997
30
0
41
1
10
28.0416288715456
20
5.41213154505365
30
0
41
1
10
28.3745901760829
20
5.32149456801841
30
0
41
1
10
29.0402612544693
20
5.13743268700821
30
0
41
1
10
29.3730051559028
20
5.04399565774722
30
0
41
1
10
29.87193723668
20
4.90160988391403
30
0
41
1
10
30.0382171844153
20
4.85377577508169
30
0
41
1
10
30.3707072905424
20
4.75733913210357
30
0
41
1
10
30.5369115577043
20
4.70872197434858
30
0
41
1
10
30.8693140662282
20
4.61087034956742
30
0
41
1
10
31.0355195647729
20
4.56165361593716
30
0
41
1
10
31.3680112414543
20
4.4628199346968
30
0
41
1
10
31.5342880386893
20
4.41318025752429
30
0
41
1
10
32.0331837272934
20
4.26353063574098
30
0
41
1
10
32.3658633808919
20
4.16277927040684
30
0
41
1
10
33.0313346390131
20
3.95918536622753
30
0
41
1
10
33.364128323883
20
3.85634822818108
30
0
41
1
10
34.0297721328789
20
3.64843147186292
30
0
41
1
10
34.3626275121481
20
3.54334980906424
30
0
41
1
10
35.0278980790188
20
3.33089185365878
30
0
41
1
10
35.3603065315482
20
3.22333304334828
30
0
41
1
10
36.0252947237148
20
3.0072282947265
30
0
41
1
10
36.3578902151693
20
2.8987294494801
30
0
41
1
10
37.3557807913917
20
2.57137917064873
30
0
41
1
10
38.0212135247558
20
2.35077122453089
30
0
41
1
10
39.019287812978
20
2.01536234944919
30
0
41
1
10
39.3519619248935
20
1.90279437609647
30
0
41
1
10
39.8509162027205
20
1.73269134385623
30
0
41
1
10
40.0172215589138
20
1.67580304201667
30
0
41
1
10
40.3498146727109
20
1.56195322636779
30
0
41
1
10
40.5161251542535
20
1.50501705449116
30
0
41
1
10
41.3477485393741
20
1.22028617410868
30
0
41
1
10
42.013180061922
20
0.992074868443467
30
0
41
1
10
43.0111636323998
20
0.648090260877296
30
0
41
1
10
43.3437988194633
20
0.533153931041312
30
0
41
1
10
43.842666655437
20
0.360202296597635
30
0
41
1
10
44.0089416506702
20
0.302460164369137
30
0
41
1
10
44.3414550396215
20
0.186768719789939
30
0
41
1
10
44.5076897616437
20
0.12880871271139
30
0
41
1
10
44.8401999852654
20
0.0129048654689825
30
0
41
1
10
45.006484491366
20
-0.0450128664407146
30
0
41
1
10
45.3391645958999
20
-0.160627567702846
30
0
41
1
10
45.5055640389847
20
-0.218353549808796
30
0
41
1
10
46.0047810470509
20
-0.391321285804565
30
0
41
1
10
46.3375780818619
20
-0.506348786649738
30
0
41
1
10
47.3358527490745
20
-0.850797978814256
30
0
41
1
10
48.0012215899562
20
-1.07956794760068
30
0
41
1
10
48.9986791986272
20
-1.42247840481488
30
0
41
1
10
49.3310115183658
20
-1.53689335892153
30
0
41
1
10
49.9960325100075
20
-1.76405486295391
30
0
41
1
10
50.328707497006
20
-1.87684244236587
30
0
41
1
10
50.994258025317
20
-2.10120266797571
30
0
41
1
10
51.3271943019687
20
-2.21277332522555
30
0
41
1
10
51.9928988240034
20
-2.43468376569254
30
0
41
1
10
52.325671758177
20
-2.54502868742745
30
0
41
1
10
52.9909968718003
20
-2.76466271763562
30
0
41
1
10
53.3235413505182
20
-2.87397274269932
30
0
41
1
10
53.8221690790341
20
-3.03719296974057
30
0
41
1
10
53.9883556250588
20
-3.09145123722988
30
0
41
1
10
54.3207828690584
20
-3.19940207644507
30
0
41
1
10
54.4870311365107
20
-3.25307463982855
30
0
41
1
10
55.3184150735787
20
-3.5200147428283
30
0
41
1
10
55.9839166258807
20
-3.72919045334959
30
0
41
1
10
56.9824077414356
20
-4.0373526623288
30
0
41
1
10
57.3153022146942
20
-4.13914272043186
30
0
41
1
10
57.8143389746813
20
-4.29042769495274
30
0
41
1
10
57.9806462486706
20
-4.34062682301706
30
0
41
1
10
58.313176006842
20
-4.44058249300767
30
0
41
1
10
58.4793987429859
20
-4.49033787412162
30
0
41
1
10
59.310524803691
20
-4.73744471785994
30
0
41
1
10
59.975792074262
20
-4.9290067241902
30
0
41
1
10
61.3065327710996
20
-5.30136137215837
30
0
41
1
10
61.9720190445485
20
-5.48212338357621
30
0
41
1
10
62.9700521313713
20
-5.74585415704416
30
0
41
1
10
63.3025943592341
20
-5.83259206784467
30
0
41
1
10
63.9677954516233
20
-6.00217866909213
30
0
41
1
10
64.3004607974333
20
-6.08512858365836
30
0
41
1
10
65.2984716320437
20
-6.32888650092579
30
0
41
1
10
65.9638685106696
20
-6.4845419712164
30
0
41
1
10
66.9617082439061
20
-6.70837780226324
30
0
41
1
10
67.2942642973693
20
-6.78140364583734
30
0
41
1
10
67.7930293179006
20
-6.8884954848271
30
0
41
1
10
67.9592833448618
20
-6.92376536941998
30
0
41
1
10
68.29189209923
20
-6.99327128516214
30
0
41
1
10
68.4582563740764
20
-7.02750556657179
30
0
41
1
10
69.2902163340641
20
-7.19615717363413
30
0
41
1
10
69.9557739943462
20
-7.32302533318989
30
0
41
1
10
70.9537574982123
20
-7.50189956234991
30
0
41
1
10
71.2863596629976
20
-7.55961475552411
30
0
41
1
10
71.7851276815831
20
-7.64336363350762
30
0
41
1
10
71.9513603459998
20
-7.67081002134154
30
0
41
1
10
72.2837751383924
20
-7.72476021900721
30
0
41
1
10
72.4499607134609
20
-7.75125856978491
30
0
41
1
10
73.2810116393074
20
-7.88105593613562
30
0
41
1
10
73.9465272890544
20
-7.97599317032413
30
0
41
1
10
75.2781215967049
20
-8.14906086923048
30
0
41
1
10
75.943611476976
20
-8.22707976888472
30
0
41
1
10
76.9410058462901
20
-8.33152322048701
30
0
41
1
10
77.2733057241587
20
-8.36424204812752
30
0
41
1
10
77.9382499377131
20
-8.42495145046794
30
0
41
1
10
78.2708395266749
20
-8.45299819318163
30
0
41
1
10
79.2687903449769
20
-8.53040689645897
30
0
41
1
10
79.9343692799591
20
-8.57303317106559
30
0
41
1
10
80.5999999999996
20
-8.60674174745446
30
0
0
SPLINE
5
C6
100
AcDbEntity
8
1
62
256
6
ByLayer
370
18
48
1
60
0
100
AcDbSpline
70
4
71
3
72
98
73
94
40
0
40
0
40
0
40
0
40
0.0150159844179663
40
0.0150159844179663
40
0.0250668417198239
40
0.0250668417198239
40
0.0351176990216814
40
0.0351176990216814
40
0.0552194136253973
40
0.0552194136253973
40
0.075321128229113
40
0.075321128229113
40
0.115524557436545
40
0.115524557436545
40
0.125575414738402
40
0.125575414738402
40
0.13562627204026
40
0.13562627204026
40
0.155727986643975
40
0.155727986643975
40
0.195931415851406
40
0.195931415851406
40
0.216033130455122
40
0.216033130455122
40
0.236134845058837
40
0.236134845058837
40
0.256236559662553
40
0.256236559662553
40
0.276338274266269
40
0.276338274266269
40
0.296439988869985
40
0.296439988869985
40
0.316541703473701
40
0.316541703473701
40
0.356745132681132
40
0.356745132681132
40
0.376846847284848
40
0.376846847284848
40
0.396948561888563
40
0.396948561888563
40
0.437151991095996
40
0.437151991095996
40
0.457253705699712
40
0.457253705699712
40
0.46730456300157
40
0.46730456300157
40
0.477355420303427
40
0.477355420303427
40
0.517558849510858
40
0.517558849510858
40
0.537660564114574
40
0.537660564114574
40
0.557762278718289
40
0.557762278718289
40
0.567813136020147
40
0.567813136020147
40
0.577863993322005
40
0.577863993322005
40
0.59796570792572
40
0.59796570792572
40
0.63816913713315
40
0.63816913713315
40
0.658270851736865
40
0.658270851736865
40
0.67837256634058
40
0.67837256634058
40
0.698474280944295
40
0.698474280944295
40
0.718575995548009
40
0.718575995548009
40
0.728626852849867
40
0.728626852849867
40
0.738677710151724
40
0.738677710151724
40
0.758779424755437
40
0.758779424755437
40
0.798982853962866
40
0.798982853962866
40
0.819084568566579
40
0.819084568566579
40
0.829135425868436
40
0.829135425868436
40
0.839186283170292
40
0.839186283170292
40
0.879389712377719
40
0.879389712377719
40
0.899491426981433
40
0.899491426981433
40
0.919593141585147
40
0.919593141585147
40
0.959796570792573
40
0.959796570792573
40
1
40
1
40
1
40
1
41
1
10
65.5021804725818
20
-6.38022389437793
30
0
41
1
10
65.2384271735959
20
-6.4423246810602
30
0
41
1
10
64.9746792611858
20
-6.50340859324098
30
0
41
1
10
64.5344169559077
20
-6.60370062456508
30
0
41
1
10
64.3578942284135
20
-6.6434623240747
30
0
41
1
10
64.0048619621414
20
-6.72207953893337
30
0
41
1
10
63.8283521044398
20
-6.76093391540408
30
0
41
1
10
63.2987318052421
20
-6.87593014187783
30
0
41
1
10
62.9454915098576
20
-6.95040804882609
30
0
41
1
10
62.2391511597585
20
-7.09493884629043
30
0
41
1
10
61.8859979002411
20
-7.16501864062585
30
0
41
1
10
60.8266327729121
20
-7.36880497072923
30
0
41
1
10
60.1205362309648
20
-7.49610863267714
30
0
41
1
10
59.2382289852576
20
-7.6445873818044
30
0
41
1
10
59.0617758796356
20
-7.67373823403761
30
0
41
1
10
58.7088031892815
20
-7.73083624971616
30
0
41
1
10
58.5322789926262
20
-7.75877797477315
30
0
41
1
10
58.0026003016592
20
-7.84080066672337
30
0
41
1
10
57.6492843052823
20
-7.89309260387699
30
0
41
1
10
56.5894449189842
20
-8.04280818893164
30
0
41
1
10
55.8831261758001
20
-8.13307611716675
30
0
41
1
10
54.8242459550005
20
-8.25431116450491
30
0
41
1
10
54.4714280605985
20
-8.29238595426085
30
0
41
1
10
53.7655621709406
20
-8.36339068529608
30
0
41
1
10
53.4125151789039
20
-8.39633236553698
30
0
41
1
10
52.7062418457189
20
-8.45717556812303
30
0
41
1
10
52.3530133012535
20
-8.48507517523512
30
0
41
1
10
51.6464040873493
20
-8.53585602713912
30
0
41
1
10
51.2931014345023
20
-8.55873157916196
30
0
41
1
10
50.5868465771541
20
-8.59943494153507
30
0
41
1
10
50.2338725074424
20
-8.61727303172617
30
0
41
1
10
49.5280695773118
20
-8.6478096332211
30
0
41
1
10
49.1751387674985
20
-8.66047245070052
30
0
41
1
10
48.1160833997887
20
-8.69067207099448
30
0
41
1
10
47.4097928054474
20
-8.70047742160267
30
0
41
1
10
46.3501851303418
20
-8.6997345772705
30
0
41
1
10
45.9969000023382
20
-8.69690463614177
30
0
41
1
10
45.29071592117
20
-8.68603046336048
30
0
41
1
10
44.9377803904623
20
-8.67797860173039
30
0
41
1
10
43.8787115820381
20
-8.64615483432337
30
0
41
1
10
43.1725278692636
20
-8.61472592738869
30
0
41
1
10
42.1132505176561
20
-8.55231363457901
30
0
41
1
10
41.7601599126269
20
-8.52895828462738
30
0
41
1
10
41.2305552252693
20
-8.49005212531776
30
0
41
1
10
41.0540265435349
20
-8.47643676691629
30
0
41
1
10
40.700972756335
20
-8.44791029471327
30
0
41
1
10
40.5244448905484
20
-8.43300029575067
30
0
41
1
10
39.6415967436391
20
-8.35535842463923
30
0
41
1
10
38.9352485403006
20
-8.28352304490508
30
0
41
1
10
37.8759315974683
20
-8.16123949762971
30
0
41
1
10
37.5228532863461
20
-8.11805251742658
30
0
41
1
10
36.8167976301198
20
-8.02675957110975
30
0
41
1
10
36.4638330069095
20
-7.97863780280017
30
0
41
1
10
35.9344315977236
20
-7.90275950847933
30
0
41
1
10
35.7579637207435
20
-7.87686001306855
30
0
41
1
10
35.4049409670075
20
-7.82395457340513
30
0
41
1
10
35.2283904750977
20
-7.79694403444284
30
0
41
1
10
34.6986318277745
20
-7.71423548269232
30
0
41
1
10
34.3452804454335
20
-7.65685218505425
30
0
41
1
10
33.2855548302905
20
-7.47807820145368
30
0
41
1
10
32.5792994150621
20
-7.35005468949583
30
0
41
1
10
31.5204897196669
20
-7.1442926030129
30
0
41
1
10
31.1676751961473
20
-7.07336012352366
30
0
41
1
10
30.4617475249795
20
-6.92771020759116
30
0
41
1
10
30.108667030216
20
-6.85294658657619
30
0
41
1
10
29.4023180201171
20
-6.69949552180816
30
0
41
1
10
29.0490148908369
20
-6.62080458030835
30
0
41
1
10
28.3423904855614
20
-6.45947809587983
30
0
41
1
10
27.9891820936199
20
-6.37686638063997
30
0
41
1
10
27.4595583503077
20
-6.24994804800826
30
0
41
1
10
27.2830480276112
20
-6.20714262784878
30
0
41
1
10
26.9300915038846
20
-6.12052396254165
30
0
41
1
10
26.7536468311684
20
-6.07670709793396
30
0
41
1
10
26.2243081631041
20
-5.9439483851944
30
0
41
1
10
25.8713508604289
20
-5.85382277647918
30
0
41
1
10
24.8122461548894
20
-5.57872365302927
30
0
41
1
10
24.1059062377246
20
-5.38895917247299
30
0
41
1
10
23.0462070815692
20
-5.09427114243908
30
0
41
1
10
22.6929520915237
20
-4.99434718456891
30
0
41
1
10
22.1635383608989
20
-4.84204040777129
30
0
41
1
10
21.9871203637485
20
-4.79087124463138
30
0
41
1
10
21.6343117658045
20
-4.68792676117573
30
0
41
1
10
21.457914222846
20
-4.63616888294425
30
0
41
1
10
20.5759607313308
20
-4.37595990888565
30
0
41
1
10
19.8705305028567
20
-4.16320429528457
30
0
41
1
10
18.8127810181666
20
-3.83674473781414
30
0
41
1
10
18.4602672586861
20
-3.72669274626426
30
0
41
1
10
17.7554125738973
20
-3.50401955460629
30
0
41
1
10
17.4031171565933
20
-3.39127390965433
30
0
41
1
10
16.3459032869591
20
-3.05072675277037
30
0
41
1
10
15.6406002682425
20
-2.82079518411106
30
0
41
1
10
14.2293211034564
20
-2.35435497089367
30
0
41
1
10
13.5233343734591
20
-2.11787654093663
30
0
41
1
10
12.8171581984049
20
-1.87759683648784
30
0
0
SPLINE
5
C7
100
AcDbEntity
8
1
62
256
6
ByLayer
370
18
48
1
60
0
100
AcDbSpline
70
4
71
3
72
20
73
16
40
0
40
0
40
0
40
0
40
0.249999999999975
40
0.249999999999975
40
0.312499999999975
40
0.312499999999975
40
0.374999999999974
40
0.374999999999974
40
0.499999999999981
40
0.499999999999981
40
0.749999999999994
40
0.749999999999994
40
0.874999999999997
40
0.874999999999997
40
1
40
1
40
1
40
1
41
1
10
90.1776797016202
20
-1.30294867574238
30
0
41
1
10
89.378313905525
20
-1.01537474077907
30
0
41
1
10
88.5795348688375
20
-0.726842524451428
30
0
41
1
10
87.5821315374652
20
-0.36404240875396
30
0
41
1
10
87.3827075078102
20
-0.291367175632928
30
0
41
1
10
86.9839548382482
20
-0.14583638240353
30
0
41
1
10
86.7846203643278
20
-0.0729970547147616
30
0
41
1
10
86.1865380753582
20
0.145176713483153
30
0
41
1
10
85.7877287330846
20
0.290215390084342
30
0
41
1
10
84.5911567721162
20
0.724435988313019
30
0
41
1
10
83.7932261644412
20
1.01265798101781
30
0
41
1
10
82.5964125110612
20
1.44421372388427
30
0
41
1
10
82.1975507200265
20
1.58810618235987
30
0
41
1
10
81.399184729254
20
1.87378910437329
30
0
41
1
10
80.999716505101
20
2.01567917781361
30
0
41
1
10
80.6000000000005
20
2.15672022568791
30
0
0
SPLINE
5
C8
100
AcDbEntity
8
1
62
256
6
ByLayer
370
18
48
1
60
0
100
AcDbSpline
70
4
71
3
72
84
73
80
40
0
40
0
40
0
40
0
40
0.0312499999999984
40
0.0312499999999984
40
0.0624999999999968
40
0.0624999999999968
40
0.124999999999995
40
0.124999999999995
40
0.140624999999996
40
0.140624999999996
40
0.148437499999995
40
0.148437499999995
40
0.156249999999994
40
0.187499999999996
40
0.187499999999996
40
0.25
40
0.25
40
0.281250000000002
40
0.281250000000002
40
0.296875000000003
40
0.296875000000003
40
0.312500000000004
40
0.312500000000004
40
0.343750000000004
40
0.343750000000004
40
0.375000000000005
40
0.375000000000005
40
0.406250000000005
40
0.406250000000005
40
0.437500000000006
40
0.437500000000006
40
0.445312500000005
40
0.445312500000005
40
0.453125000000005
40
0.468750000000005
40
0.468750000000005
40
0.500000000000005
40
0.500000000000005
40
0.531250000000005
40
0.531250000000005
40
0.539062500000004
40
0.539062500000004
40
0.546875000000004
40
0.562500000000004
40
0.562500000000004
40
0.593750000000004
40
0.593750000000004
40
0.625000000000004
40
0.625000000000004
40
0.632812500000004
40
0.632812500000004
40
0.640625000000004
40
0.656250000000004
40
0.656250000000004
40
0.687500000000004
40
0.687500000000004
40
0.718750000000005
40
0.718750000000005
40
0.726562500000004
40
0.726562500000004
40
0.734375000000004
40
0.734375000000004
40
0.750000000000003
40
0.750000000000003
40
0.781250000000002
40
0.781250000000002
40
0.8125
40
0.843749999999999
40
0.843749999999999
40
0.851562499999999
40
0.851562499999999
40
0.859374999999998
40
0.874999999999998
40
0.874999999999998
40
0.906249999999998
40
0.937499999999999
40
0.968749999999999
40
0.968749999999999
40
1
40
1
40
1
40
1
41
1
10
90.1776797016182
20
8.83817257034852
30
0
41
1
10
90.2346952944699
20
8.69678815543224
30
0
41
1
10
90.2917994419536
20
8.55327986764109
30
0
41
1
10
90.4062824383336
20
8.2623486973373
30
0
41
1
10
90.4636611893699
20
8.11492506717795
30
0
41
1
10
90.6363119754329
20
7.66714212262602
30
0
41
1
10
90.7521150073208
20
7.36129797165779
30
0
41
1
10
90.897861260433
20
6.97058046263911
30
0
41
1
10
90.9270588354067
20
6.89201401804189
30
0
41
1
10
90.9709255331161
20
6.77353682354922
30
0
41
1
10
90.985569425258
20
6.73391279518611
30
0
41
1
10
91.0148292255149
20
6.65459396129549
30
0
41
1
10
91.087871947208
20
6.45621823275491
30
0
41
1
10
91.1603878440507
20
6.25745551328325
30
0
41
1
10
91.3333421059638
20
5.77967644162555
30
0
41
1
10
91.4472578918754
20
5.46018138400214
30
0
41
1
10
91.6149312700886
20
4.97912307072366
30
0
41
1
10
91.6702768118987
20
4.81846291006315
30
0
41
1
10
91.752168802216
20
4.57690380794543
30
0
41
1
10
91.7792769286488
20
4.49628874073335
30
0
41
1
10
91.8330412298652
20
4.33484163243216
30
0
41
1
10
91.8597048771205
20
4.25398447678279
30
0
41
1
10
91.9384989707924
20
4.01221743630128
30
0
41
1
10
91.9895757836994
20
3.85172783521213
30
0
41
1
10
92.0878896821567
20
3.53186258512599
30
0
41
1
10
92.1351331957291
20
3.37248802346892
30
0
41
1
10
92.2243440642584
20
3.05452127068585
30
0
41
1
10
92.2663190069078
20
2.8959297411694
30
0
41
1
10
92.3428293281188
20
2.57909793990686
30
0
41
1
10
92.3773681731583
20
2.42085638430933
30
0
41
1
10
92.4139648390411
20
2.22294315604563
30
0
41
1
10
92.4209600040205
20
2.18331247437283
30
0
41
1
10
92.4341966770401
20
2.10423944289329
30
0
41
1
10
92.4529023814791
20
1.98604237567747
30
0
41
1
10
92.4679586394915
20
1.86909820538966
30
0
41
1
10
92.4927138118019
20
1.63694403462858
30
0
41
1
10
92.5020215437253
20
1.48447865828874
30
0
41
1
10
92.5044938342079
20
1.18469346854377
30
0
41
1
10
92.4976435916789
20
1.03737612030585
30
0
41
1
10
92.4790465082383
20
0.856926154480874
30
0
41
1
10
92.474822612131
20
0.820965891406274
30
0
41
1
10
92.4654387378456
20
0.749708339921938
30
0
41
1
10
92.4499828884319
20
0.643954140421215
30
0
41
1
10
92.4306252733291
20
0.541555202375406
30
0
41
1
10
92.387354996979
20
0.34112451650293
30
0
41
1
10
92.3524595679035
20
0.213318905585851
30
0
41
1
10
92.2737084290993
20
-0.0311070381837624
30
0
41
1
10
92.2298594182989
20
-0.147730681825863
30
0
41
1
10
92.1709007922681
20
-0.286619974722925
30
0
41
1
10
92.1588859093789
20
-0.314082415274697
30
0
41
1
10
92.1345357921119
20
-0.368159306502747
30
0
41
1
10
92.0975541227504
20
-0.447953528603477
30
0
41
1
10
92.0593441988815
20
-0.523861465927666
30
0
41
1
10
91.98158271521
20
-0.670649424398988
30
0
41
1
10
91.9279705421268
20
-0.76181812033829
30
0
41
1
10
91.8182415511102
20
-0.93121389035511
30
0
41
1
10
91.7621173574225
20
-1.00943858425333
30
0
41
1
10
91.6907333526922
20
-1.09913845266192
30
0
41
1
10
91.6763942067431
20
-1.116673428664
30
0
41
1
10
91.6475965327824
20
-1.15092990385011
30
0
41
1
10
91.6331373706028
20
-1.16765073828139
30
0
41
1
10
91.5897806225248
20
-1.21637636224293
30
0
41
1
10
91.560840159238
20
-1.2470227545399
30
0
41
1
10
91.473956141919
20
-1.33357179636343
30
0
41
1
10
91.4159542761524
20
-1.38409539895625
30
0
41
1
10
91.2998975471209
20
-1.47114484059722
30
0
41
1
10
91.1837842206162
20
-1.54419370576693
30
0
41
1
10
91.0675279593033
20
-1.58926648775858
30
0
41
1
10
90.9947618139204
20
-1.60850146344717
30
0
41
1
10
90.9802055754687
20
-1.61189890026728
30
0
41
1
10
90.951214520944
20
-1.61776929103283
30
0
41
1
10
90.9078594970544
20
-1.62520210473119
30
0
41
1
10
90.8648850522864
20
-1.62856172715297
30
0
41
1
10
90.7794061802159
20
-1.62994062758452
30
0
41
1
10
90.6666874978996
20
-1.61755632930601
30
0
41
1
10
90.5007775869063
20
-1.55705912959991
30
0
41
1
10
90.3918941530534
20
-1.48870984547449
30
0
41
1
10
90.2836766633563
20
-1.40603636061874
30
0
41
1
10
90.2303361473438
20
-1.35786682939272
30
0
41
1
10
90.1776797016183
20
-1.30294867574168
30
0
0
SPLINE
5
C9
100
AcDbEntity
8
1
62
256
6
ByLayer
370
18
48
1
60
0
100
AcDbSpline
70
4
71
3
72
16
73
12
40
0
40
0
40
0
40
0
40
0.244570327478167
40
0.244570327478167
40
0.338999036543393
40
0.338999036543393
40
0.433427745608619
40
0.433427745608619
40
0.622285163739083
40
0.622285163739083
40
1
40
1
40
1
40
1
41
1
10
83.8391111271918
20
9.12686933438994
30
0
41
1
10
84.3558243614344
20
9.12696933774845
30
0
41
1
10
84.872445844947
20
9.12127743551511
30
0
41
1
10
85.5882605106098
20
9.10534251745142
30
0
41
1
10
85.7876213801139
20
9.10003457489023
30
0
41
1
10
86.1862682241057
20
9.08766243051903
30
0
41
1
10
86.3855487150469
20
9.08059496902573
30
0
41
1
10
86.9835074493162
20
9.0568068580516
30
0
41
1
10
87.382406832339
20
9.03754432256679
30
0
41
1
10
88.5796331558227
20
8.96960499934656
30
0
41
1
10
89.3784967340703
20
8.91082482252577
30
0
41
1
10
90.1776797016195
20
8.83817257034841
30
0
0
SPLINE
5
CA
100
AcDbEntity
8
1
62
256
6
ByLayer
370
18
48
1
60
0
100
AcDbSpline
70
4
71
3
72
32
73
28
40
0
40
0
40
0
40
0
40
0.0746248818410584
40
0.0746248818410584
40
0.140723104566697
40
0.140723104566697
40
0.173772215929517
40
0.173772215929517
40
0.206821327292337
40
0.206821327292337
40
0.339017772743616
40
0.339017772743616
40
0.405115995469255
40
0.405115995469255
40
0.438165106832075
40
0.438165106832075
40
0.471214218194895
40
0.471214218194895
40
0.603410663646172
40
0.603410663646172
40
0.735607109097448
40
0.735607109097448
40
0.801705331823085
40
0.801705331823085
40
0.867803554548721
40
0.867803554548721
40
1
40
1
40
1
40
1
41
1
10
65.5024120084956
20
6.37483154528871
30
0
41
1
10
65.8780001140822
20
6.46324262678678
30
0
41
1
10
66.2535747050096
20
6.54952898727677
30
0
41
1
10
66.9617082439092
20
6.70837780226393
30
0
41
1
10
67.2942642973724
20
6.78140364583803
30
0
41
1
10
67.7930293179037
20
6.88849548482776
30
0
41
1
10
67.9592833448649
20
6.92376536942064
30
0
41
1
10
68.2918920992331
20
6.99327128516276
30
0
41
1
10
68.4582563740795
20
7.02750556657242
30
0
41
1
10
69.2902163340673
20
7.19615717363476
30
0
41
1
10
69.9557739943495
20
7.32302533319049
30
0
41
1
10
70.9537574982156
20
7.50189956235047
30
0
41
1
10
71.286359663001
20
7.55961475552468
30
0
41
1
10
71.7851276815864
20
7.64336363350816
30
0
41
1
10
71.9513603460031
20
7.67081002134208
30
0
41
1
10
72.2837751383958
20
7.72476021900772
30
0
41
1
10
72.4499607134643
20
7.75125856978545
30
0
41
1
10
73.2810116393108
20
7.88105593613611
30
0
41
1
10
73.9465272890579
20
7.97599317032461
30
0
41
1
10
75.2781215967085
20
8.14906086923088
30
0
41
1
10
75.9436114769796
20
8.22707976888515
30
0
41
1
10
76.9410058462939
20
8.33152322048741
30
0
41
1
10
77.2733057241624
20
8.36424204812786
30
0
41
1
10
77.9382499377169
20
8.42495145046829
30
0
41
1
10
78.2708395266787
20
8.45299819318194
30
0
41
1
10
79.2687903449807
20
8.53040689645923
30
0
41
1
10
79.9343692799594
20
8.57303317106559
30
0
41
1
10
80.6
20
8.60674174745446
30
0
0
SPLINE
5
CB
100
AcDbEntity
8
1
62
256
6
ByLayer
370
18
48
1
60
0
100
AcDbSpline
70
4
71
3
72
66
73
62
40
0
40
0
40
0
40
0
40
0.0625938908388563
40
0.0625938908388563
40
0.078242363548572
40
0.078242363548572
40
0.0938908362582877
40
0.0938908362582877
40
0.125187781677719
40
0.125187781677719
40
0.156484727097151
40
0.156484727097151
40
0.187781672516582
40
0.187781672516582
40
0.219078617936013
40
0.219078617936013
40
0.234727090645729
40
0.234727090645729
40
0.250375563355444
40
0.250375563355444
40
0.312969454194303
40
0.312969454194303
40
0.344266399613733
40
0.344266399613733
40
0.375563345033163
40
0.375563345033163
40
0.438157235872022
40
0.438157235872022
40
0.469454181291452
40
0.469454181291452
40
0.485102654001167
40
0.485102654001167
40
0.500751126710882
40
0.500751126710882
40
0.532048072130313
40
0.532048072130313
40
0.563345017549743
40
0.563345017549743
40
0.625938908388605
40
0.625938908388605
40
0.641587381098321
40
0.641587381098321
40
0.657235853808037
40
0.657235853808037
40
0.688532799227469
40
0.688532799227469
40
0.751126690066333
40
0.751126690066333
40
0.782423635485765
40
0.782423635485765
40
0.813720580905198
40
0.813720580905198
40
0.84501752632463
40
0.84501752632463
40
0.876314471744063
40
0.876314471744063
40
0.907611417163495
40
0.907611417163495
40
0.938908362582928
40
0.938908362582928
40
1
40
1
40
1
40
1
41
1
10
80.6
20
1.90990553413206
30
0
41
1
10
79.8933563247606
20
2.14863750658009
30
0
41
1
10
79.1869682216819
20
2.3846785543065
30
0
41
1
10
78.3045025262926
20
2.67690240850698
30
0
41
1
10
78.1280370928804
20
2.73520991601041
30
0
41
1
10
77.7751470625215
20
2.85150798782703
30
0
41
1
10
77.5987196020669
20
2.90949047852237
30
0
41
1
10
77.06936290969
20
3.08259263850428
30
0
41
1
10
76.716347027114
20
3.19683523133688
30
0
41
1
10
76.0101428899843
20
3.42315555253916
30
0
41
1
10
75.6569529354692
20
3.53522859651699
30
0
41
1
10
74.9504279298162
20
3.75728510165988
30
0
41
1
10
74.597061820788
20
3.86727793018292
30
0
41
1
10
73.8907071525714
20
4.08513616016143
30
0
41
1
10
73.5376783558303
20
4.19305698301929
30
0
41
1
10
73.0082928889437
20
4.35324092959306
30
0
41
1
10
72.8318473247838
20
4.40632715393869
30
0
41
1
10
72.478907363516
20
4.5116820077709
30
0
41
1
10
72.3024190943798
20
4.56396632671186
30
0
41
1
10
71.4199029668624
20
4.82347345911643
30
0
41
1
10
70.7136534826111
20
5.02497410678413
30
0
41
1
10
69.6541287916921
20
5.31857824732899
30
0
41
1
10
69.3008939450886
20
5.41502349057095
30
0
41
1
10
68.5945854650763
20
5.60502478991495
30
0
41
1
10
68.2416272524309
20
5.69859322081379
30
0
41
1
10
67.182533499968
20
5.9732368225005
30
0
41
1
10
66.4763457289201
20
6.14866027166863
30
0
41
1
10
65.4170851807
20
6.40083262796119
30
0
41
1
10
65.0640026518477
20
6.48306066840883
30
0
41
1
10
64.5344169559077
20
6.60370062456511
30
0
41
1
10
64.3578942284135
20
6.64346232407473
30
0
41
1
10
64.0048619621413
20
6.72207953893337
30
0
41
1
10
63.8283521044398
20
6.76093391540411
30
0
41
1
10
63.298731805242
20
6.87593014187786
30
0
41
1
10
62.9454915098576
20
6.95040804882612
30
0
41
1
10
62.2391511597585
20
7.09493884629046
30
0
41
1
10
61.8859979002411
20
7.16501864062585
30
0
41
1
10
60.826632772912
20
7.36880497072923
30
0
41
1
10
60.1205362309647
20
7.49610863267716
30
0
41
1
10
59.2382289852575
20
7.64458738180443
30
0
41
1
10
59.0617758796356
20
7.67373823403764
30
0
41
1
10
58.7088031892815
20
7.73083624971616
30
0
41
1
10
58.5322789926261
20
7.75877797477315
30
0
41
1
10
58.0026003016591
20
7.84080066672337
30
0
41
1
10
57.6492843052823
20
7.89309260387699
30
0
41
1
10
56.5894449189841
20
8.04280818893164
30
0
41
1
10
55.8831261758
20
8.13307611716678
30
0
41
1
10
54.8242459550005
20
8.25431116450494
30
0
41
1
10
54.4714280605985
20
8.29238595426088
30
0
41
1
10
53.7655621709406
20
8.36339068529608
30
0
41
1
10
53.4125151789038
20
8.39633236553698
30
0
41
1
10
52.7062418457189
20
8.45717556812303
30
0
41
1
10
52.3530133012535
20
8.48507517523512
30
0
41
1
10
51.6464040873492
20
8.53585602713912
30
0
41
1
10
51.2931014345023
20
8.55873157916196
30
0
41
1
10
50.5868465771542
20
8.59943494153507
30
0
41
1
10
50.2338725074424
20
8.6172730317262
30
0
41
1
10
49.5280695773118
20
8.6478096332211
30
0
41
1
10
49.1751387674984
20
8.66047245070052
30
0
41
1
10
48.133028286142
20
8.69018887705639
30
0
41
1
10
47.4436946087948
20
8.70000081598786
30
0
41
1
10
46.7542486587073
20
8.70000004879799
30
0
0
SPLINE
5
CC
100
AcDbEntity
8
1
62
256
6
ByLayer
370
18
48
1
60
0
100
AcDbSpline
70
4
71
3
72
100
73
96
40
0
40
0
40
0
40
0
40
0.0624999999999965
40
0.0624999999999965
40
0.0937499999999948
40
0.0937499999999948
40
0.124999999999993
40
0.124999999999993
40
0.140624999999992
40
0.140624999999992
40
0.15624999999999
40
0.15624999999999
40
0.187499999999988
40
0.187499999999988
40
0.218749999999985
40
0.218749999999985
40
0.249999999999982
40
0.249999999999982
40
0.265624999999981
40
0.265624999999981
40
0.27343749999998
40
0.27343749999998
40
0.28124999999998
40
0.28124999999998
40
0.31249999999998
40
0.31249999999998
40
0.343749999999979
40
0.343749999999979
40
0.359374999999979
40
0.359374999999979
40
0.363281249999978
40
0.363281249999978
40
0.367187499999978
40
0.374999999999977
40
0.374999999999977
40
0.406249999999974
40
0.406249999999974
40
0.421874999999972
40
0.421874999999972
40
0.429687499999971
40
0.429687499999971
40
0.437499999999971
40
0.437499999999971
40
0.468749999999968
40
0.468749999999968
40
0.484374999999966
40
0.484374999999966
40
0.488281249999966
40
0.488281249999966
40
0.492187499999966
40
0.492187499999966
40
0.499999999999965
40
0.499999999999965
40
0.531249999999963
40
0.531249999999963
40
0.539062499999962
40
0.539062499999962
40
0.546874999999962
40
0.546874999999962
40
0.562499999999961
40
0.562499999999961
40
0.59374999999996
40
0.59374999999996
40
0.609374999999959
40
0.609374999999959
40
0.61718749999996
40
0.61718749999996
40
0.62499999999996
40
0.62499999999996
40
0.656249999999961
40
0.656249999999961
40
0.687499999999962
40
0.687499999999962
40
0.718749999999963
40
0.718749999999963
40
0.726562499999964
40
0.726562499999964
40
0.734374999999964
40
0.749999999999967
40
0.749999999999967
40
0.781249999999971
40
0.781249999999971
40
0.812499999999975
40
0.812499999999975
40
0.843749999999979
40
0.843749999999979
40
0.874999999999983
40
0.874999999999983
40
0.906249999999988
40
0.906249999999988
40
0.937499999999992
40
0.937499999999992
40
0.968749999999996
40
0.968749999999996
40
1
40
1
40
1
40
1
41
1
10
10
20
8.22991109068386
30
0
41
1
10
9.58934435669994
20
8.2467556764625
30
0
41
1
10
9.18382757257822
20
8.25627229817829
30
0
41
1
10
8.58353053653889
20
8.25693595233261
30
0
41
1
10
8.38476286201575
20
8.25487148235959
30
0
41
1
10
7.98996673757901
20
8.24548440733142
30
0
41
1
10
7.79393785862223
20
8.23816380679611
30
0
41
1
10
7.50203167055662
20
8.22255896312987
30
0
41
1
10
7.40508610364262
20
8.21658476830572
30
0
41
1
10
7.21192629973461
20
8.20295043678428
30
0
41
1
10
7.11568031986229
20
8.195287579287
30
0
41
1
10
6.82826856867237
20
8.16954357317832
30
0
41
1
10
6.63993421593992
20
8.14885243110507
30
0
41
1
10
6.27005645514953
20
8.09929702678346
30
0
41
1
10
6.08851126403795
20
8.07043679799702
30
0
41
1
10
5.73261447731286
20
8.00308936144882
30
0
41
1
10
5.55825972376479
20
7.96460929820651
30
0
41
1
10
5.30259865185263
20
7.89820111179384
30
0
41
1
10
5.21835889150083
20
7.87461247671564
30
0
41
1
10
5.09355403261074
20
7.83681349532685
30
0
41
1
10
5.05221173603388
20
7.82381073806735
30
0
41
1
10
4.97006239312964
20
7.79695370184876
30
0
41
1
10
4.92926725063199
20
7.78310171835213
30
0
41
1
10
4.72762970698659
20
7.7119440189982
30
0
41
1
10
4.57301284723201
20
7.64872815870399
30
0
41
1
10
4.27834755868946
20
7.50744818147029
30
0
41
1
10
4.13828587664489
20
7.4294015545313
30
0
41
1
10
3.94058736301273
20
7.29878017839428
30
0
41
1
10
3.87676078643176
20
7.25297211127054
30
0
41
1
10
3.79979777711691
20
7.19252988902775
30
0
41
1
10
3.78453342871325
20
7.18027107368249
30
0
41
1
10
3.7543881189317
20
7.15550289552408
30
0
41
1
10
3.70972735365592
20
7.11796219731079
30
0
41
1
10
3.66675214225475
20
7.07923753031886
30
0
41
1
10
3.52732078091376
20
6.94743334886365
30
0
41
1
10
3.42793163631444
20
6.83332687794228
30
0
41
1
10
3.29921845136744
20
6.64691794863356
30
0
41
1
10
3.25972165397076
20
6.58223120033583
30
0
41
1
10
3.20600429493658
20
6.48098432823619
30
0
41
1
10
3.18898893453814
20
6.4464503560402
30
0
41
1
10
3.15719934640731
20
6.37661939369403
30
0
41
1
10
3.14238752342953
20
6.34126258959577
30
0
41
1
10
3.07374370703312
20
6.16225008189775
30
0
41
1
10
3.03608437870727
20
6.01192919968554
30
0
41
1
10
3.00634822787509
20
5.77513030065791
30
0
41
1
10
3.00090932485165
20
5.69430711999024
30
0
41
1
10
2.99991166653953
20
5.590812842681
30
0
41
1
10
3.00000252681798
20
5.56999061770435
30
0
41
1
10
3.00077168909269
20
5.52809643003127
30
0
41
1
10
3.00145172931102
20
5.50699206685317
30
0
41
1
10
3.00436974177271
20
5.44357526731193
30
0
41
1
10
3.00747957484225
20
5.40118427270909
30
0
41
1
10
3.02869021498515
20
5.18867943866644
30
0
41
1
10
3.06369711242041
20
5.01691661511211
30
0
41
1
10
3.12829646190406
20
4.80025952550554
30
0
41
1
10
3.14226298448642
20
4.7568303974968
30
0
41
1
10
3.17226362138822
20
4.66978275352955
30
0
41
1
10
3.18831517434711
20
4.6261198275254
30
0
41
1
10
3.23942951823386
20
4.49514051570097
30
0
41
1
10
3.27709123454952
20
4.40871842545363
30
0
41
1
10
3.39985143761234
20
4.15194007160341
30
0
41
1
10
3.49467928748052
20
3.98406063089368
30
0
41
1
10
3.65364430431126
20
3.73667391792929
30
0
41
1
10
3.7094330957284
20
3.6549536794565
30
0
41
1
10
3.79706533368398
20
3.53344285216616
30
0
41
1
10
3.82696411718823
20
3.49307913469085
30
0
41
1
10
3.88791245713622
20
3.41287305793745
30
0
41
1
10
3.91887586802093
20
3.37314167368117
30
0
41
1
10
4.07600973955618
20
3.17625020651573
30
0
41
1
10
4.20909056893808
20
3.02435783431301
30
0
41
1
10
4.4874286086814
20
2.72997061905542
30
0
41
1
10
4.63270052479953
20
2.5874866127898
30
0
41
1
10
4.93361951952568
20
2.31061673634531
30
0
41
1
10
5.08927410413554
20
2.1762363997309
30
0
41
1
10
5.28945348414894
20
2.01268202697608
30
0
41
1
10
5.32980209824578
20
1.98016817300137
30
0
41
1
10
5.41078289449007
20
1.91577372089083
30
0
41
1
10
5.53274442613366
20
1.82007725881499
30
0
41
1
10
5.65610540984477
20
1.72693447773784
30
0
41
1
10
5.90452439859598
20
1.54374307300404
30
0
41
1
10
6.07239486085675
20
1.42573179491271
30
0
41
1
10
6.41189798958305
20
1.19656203522493
30
0
41
1
10
6.58353230972952
20
1.08540667476692
30
0
41
1
10
6.92995263669133
20
0.868837998733113
30
0
41
1
10
7.10473940317269
20
0.763426162791205
30
0
41
1
10
7.45695660861418
20
0.557426055851295
30
0
41
1
10
7.63438726597235
20
0.456838280656683
30
0
41
1
10
7.99147327198421
20
0.259732691669598
30
0
41
1
10
8.17112850840422
20
0.163214779378365
30
0
41
1
10
8.53233289122056
20
-0.0263443717505822
30
0
41
1
10
8.71388175528801
20
-0.119386012307928
30
0
41
1
10
9.07863734030641
20
-0.302416989621207
30
0
41
1
10
9.26184375322521
20
-0.392406775710981
30
0
41
1
10
9.62978252331391
20
-0.569575749446955
30
0
41
1
10
9.81451467629043
20
-0.656755209700691
30
0
41
1
10
10
20
-0.742553058087765
30
0
0
SPLINE
5
CD
100
AcDbEntity
8
1
62
256
6
ByLayer
370
18
48
1
60
0
100
AcDbSpline
70
4
71
3
72
14
73
10
40
0
40
0
40
0
40
0
40
0.25
40
0.25
40
0.5
40
0.5
40
0.75
40
0.75
40
1
40
1
40
1
40
1
41
1
10
12.8171581984049
20
-1.87759683648778
30
0
41
1
10
12.5782629644975
20
-1.79388571234711
30
0
41
1
10
12.3406471740751
20
-1.70691042163273
30
0
41
1
10
11.8675262290649
20
-1.52743273031021
30
0
41
1
10
11.6320197447941
20
-1.43493373761498
30
0
41
1
10
11.1627999226691
20
-1.24510759111658
30
0
41
1
10
10.9290856936923
20
-1.14778291971896
30
0
41
1
10
10.4633010508562
20
-0.948603673162665
30
0
41
1
10
10.2312303520229
20
-0.846750205706087
30
0
41
1
10
10
20
-0.742553058087765
30
0
0
SPLINE
5
CE
100
AcDbEntity
8
1
62
256
6
ByLayer
370
18
48
1
60
0
100
AcDbSpline
70
4
71
4
72
16
73
11
40
0
40
0
40
0
40
0
40
0
40
0.306739126546877
40
0.306739126546877
40
0.306739126546877
40
0.760354152703363
40
0.760354152703363
40
0.760354152703363
40
1
40
1
40
1
40
1
40
1
41
0.996558128848092
10
16.7479682766108
20
7.83726567925869
30
0
41
0.994685021583698
10
16.624745363656
20
7.08105889732498
30
0
41
0.994528364694865
10
16.4146243505234
20
6.13968562300568
30
0
41
1
10
16.1279277438861
20
5.10210329802933
30
0
41
1
10
15.3726004343462
20
2.67835240396533
30
0
41
0.988033871712585
10
14.7825632375078
20
1.04389054188716
30
0
41
1
10
14.1925260406695
20
-0.238161053778583
30
0
41
1
10
13.5038484441931
20
-1.43236695357694
30
0
41
0.996660214264813
10
13.2772058911382
20
-1.75374527967427
30
0
41
0.995273891933999
10
13.088880249658
20
-1.92151643065775
30
0
41
0.995541411091897
10
12.9493677540082
20
-1.9348578656661
30
0
0
SPLINE
5
CF
100
AcDbEntity
8
1
62
256
6
ByLayer
370
18
48
1
60
0
100
AcDbSpline
70
4
71
3
72
23
73
19
40
0
40
0
40
0
40
0
40
0.124999999999999
40
0.124999999999999
40
0.249999999999997
40
0.249999999999997
40
0.374999999999996
40
0.374999999999996
40
0.499999999999994
40
0.499999999999994
40
0.562499999999995
40
0.593749999999995
40
0.593749999999995
40
0.624999999999996
40
0.624999999999996
40
0.749999999999997
40
0.749999999999997
40
1
40
1
40
1
40
1
41
1
10
10
20
8.22991109068386
30
0
41
1
10
10.2876914456002
20
8.23981133237692
30
0
41
1
10
10.5746488480763
20
8.24589514888268
30
0
41
1
10
11.1472103821564
20
8.25141491471749
30
0
41
1
10
11.432813952695
20
8.25084431009765
30
0
41
1
10
12.002760546984
20
8.24347378014019
30
0
41
1
10
12.2871031427132
20
8.23666884031127
30
0
41
1
10
12.8546144911401
20
8.2168685055947
30
0
41
1
10
13.1377829091511
20
8.20386856562624
30
0
41
1
10
13.5617241827306
20
8.17957519801328
30
0
41
1
10
13.7734920908644
20
8.16622797117287
30
0
41
1
10
13.9849702795515
20
8.1510396049097
30
0
41
1
10
14.1258930699457
20
8.1404999867037
30
0
41
1
10
14.1963348257561
20
8.13502200998161
30
0
41
1
10
14.5477146514924
20
8.10664198074025
30
0
41
1
10
14.8267049323674
20
8.08072953445287
30
0
41
1
10
15.6582793169226
20
7.99321269774603
30
0
41
1
10
16.2054888462582
20
7.92178717195821
30
0
41
1
10
16.7479682766107
20
7.83726567925874
30
0
0
SPLINE
5
D0
100
AcDbEntity
8
1
62
256
6
ByLayer
370
13
48
1
60
0
100
AcDbSpline
70
4
71
3
72
110
73
106
40
0
40
0
40
0
40
0
40
0.0312500000000017
40
0.0312500000000017
40
0.0625000000000034
40
0.0625000000000034
40
0.0937500000000051
40
0.0937500000000051
40
0.109375000000006
40
0.109375000000006
40
0.125000000000006
40
0.125000000000006
40
0.140625000000007
40
0.140625000000007
40
0.156250000000008
40
0.156250000000008
40
0.171875000000008
40
0.171875000000008
40
0.187500000000009
40
0.187500000000009
40
0.218750000000011
40
0.218750000000011
40
0.250000000000012
40
0.250000000000012
40
0.257812500000013
40
0.257812500000013
40
0.261718750000013
40
0.261718750000013
40
0.265625000000013
40
0.265625000000013
40
0.281250000000013
40
0.281250000000013
40
0.312500000000013
40
0.312500000000013
40
0.343750000000013
40
0.343750000000013
40
0.359375000000013
40
0.359375000000013
40
0.375000000000013
40
0.375000000000013
40
0.390625000000013
40
0.390625000000013
40
0.406250000000013
40
0.406250000000013
40
0.421875000000013
40
0.421875000000013
40
0.437500000000013
40
0.437500000000013
40
0.468750000000013
40
0.468750000000013
40
0.500000000000014
40
0.500000000000014
40
0.515625000000014
40
0.515625000000014
40
0.523437500000013
40
0.523437500000013
40
0.531250000000013
40
0.531250000000013
40
0.562500000000013
40
0.562500000000013
40
0.593750000000014
40
0.593750000000014
40
0.625000000000014
40
0.625000000000014
40
0.640625000000014
40
0.640625000000014
40
0.656250000000014
40
0.656250000000014
40
0.671875000000014
40
0.671875000000014
40
0.687500000000013
40
0.687500000000013
40
0.703125000000013
40
0.703125000000013
40
0.718750000000013
40
0.718750000000013
40
0.750000000000013
40
0.750000000000013
40
0.781250000000013
40
0.781250000000013
40
0.789062500000013
40
0.789062500000013
40
0.792968750000012
40
0.792968750000012
40
0.796875000000012
40
0.796875000000012
40
0.812500000000011
40
0.812500000000011
40
0.843750000000009
40
0.843750000000009
40
0.875000000000007
40
0.875000000000007
40
0.890625000000006
40
0.890625000000006
40
0.906250000000005
40
0.906250000000005
40
0.921875000000004
40
0.921875000000004
40
0.937500000000003
40
0.937500000000003
40
0.953125000000003
40
0.953125000000003
40
0.968750000000002
40
0.968750000000002
40
1
40
1
40
1
40
1
41
1
10
81.0951147452557
20
9.12799999999999
30
0
41
1
10
81.1897247968846
20
9.12800000000001
30
0
41
1
10
81.2843348485133
20
9.08502902930249
30
0
41
1
10
81.4735549517708
20
8.89772597709072
30
0
41
1
10
81.5681650033996
20
8.75325177494173
30
0
41
1
10
81.7573851066571
20
8.35506733623816
30
0
41
1
10
81.8519951582859
20
8.10126693962727
30
0
41
1
10
81.9939102357291
20
7.64138669406935
30
0
41
1
10
82.0412152615436
20
7.4749958505619
30
0
41
1
10
82.1358253131723
20
7.11769580992009
30
0
41
1
10
82.1831303389866
20
6.92678903577792
30
0
41
1
10
82.2777403906154
20
6.52289550554315
30
0
41
1
10
82.3250454164298
20
6.30991296654852
30
0
41
1
10
82.4196554680585
20
5.86496674702241
30
0
41
1
10
82.466960493873
20
5.63300868163799
30
0
41
1
10
82.5615705455017
20
5.15372147161679
30
0
41
1
10
82.6088755713162
20
4.9063987612505
30
0
41
1
10
82.7034856229449
20
4.40032040976325
30
0
41
1
10
82.7507906487593
20
4.14157136049087
30
0
41
1
10
82.8927057262025
20
3.35427716612048
30
0
41
1
10
82.9873157778313
20
2.81482011567741
30
0
41
1
10
83.1765358810889
20
1.73779710590662
30
0
41
1
10
83.2711459327176
20
1.20035331256446
30
0
41
1
10
83.3894084972536
20
0.545724527624515
30
0
41
1
10
83.4130610101607
20
0.415639195787349
30
0
41
1
10
83.4485397795215
20
0.222011224341628
30
0
41
1
10
83.4603660359751
20
0.157718317375668
30
0
41
1
10
83.4840185488823
20
0.0296688307962825
30
0
41
1
10
83.4958448053359
20
-0.0339558538871643
30
0
41
1
10
83.5549760876039
20
-0.354139521178865
30
0
41
1
10
83.6022811134183
20
-0.614591054806283
30
0
41
1
10
83.7441961908615
20
-1.40502548488195
30
0
41
1
10
83.8388062424902
20
-1.9443056822895
30
0
41
1
10
84.0280263457478
20
-3.02124923075988
30
0
41
1
10
84.1226363973766
20
-3.55877938371702
30
0
41
1
10
84.2645514748197
20
-4.34002975590576
30
0
41
1
10
84.3118565006341
20
-4.59624357229856
30
0
41
1
10
84.4064665522628
20
-5.0962246084305
30
0
41
1
10
84.4537715780772
20
-5.33998521340806
30
0
41
1
10
84.5483816297059
20
-5.81118628386585
30
0
41
1
10
84.5956866555204
20
-6.03862046283575
30
0
41
1
10
84.6902967071492
20
-6.47367094378694
30
0
41
1
10
84.7376017329635
20
-6.6812819386364
30
0
41
1
10
84.8322117845924
20
-7.07374051418176
30
0
41
1
10
84.8795168104068
20
-7.25858430773371
30
0
41
1
10
84.9741268620355
20
-7.60325351284629
30
0
41
1
10
85.0214318878499
20
-7.76307699458766
30
0
41
1
10
85.163346965293
20
-8.20280353517015
30
0
41
1
10
85.2579570169218
20
-8.44257352237526
30
0
41
1
10
85.4471771201794
20
-8.81310177363457
30
0
41
1
10
85.5417871718081
20
-8.94396031227487
30
0
41
1
10
85.6837022492513
20
-9.06525736277638
30
0
41
1
10
85.7310072750657
20
-9.09326830039706
30
0
41
1
10
85.8019648137873
20
-9.11803797918716
30
0
41
1
10
85.8256173266945
20
-9.12342321778166
30
0
41
1
10
85.8729223525089
20
-9.12871374060819
30
0
41
1
10
85.8965748654161
20
-9.12865469731659
30
0
41
1
10
86.0148374299521
20
-9.11481500722402
30
0
41
1
10
86.1094474815808
20
-9.05962572218482
30
0
41
1
10
86.2986675848384
20
-8.8463524495094
30
0
41
1
10
86.3932776364671
20
-8.68812948337654
30
0
41
1
10
86.5824977397247
20
-8.26221446021862
30
0
41
1
10
86.6771077913535
20
-7.99444329915639
30
0
41
1
10
86.8190228687967
20
-7.5146598749794
30
0
41
1
10
86.866327894611
20
-7.34181160538409
30
0
41
1
10
86.9609379462398
20
-6.97215060592043
30
0
41
1
10
87.0082429720541
20
-6.7753407823225
30
0
41
1
10
87.102853023683
20
-6.36037556020457
30
0
41
1
10
87.1501580494974
20
-6.1422247825343
30
0
41
1
10
87.2447681011261
20
-5.68782300815136
30
0
41
1
10
87.2920731269405
20
-5.45157789625202
30
0
41
1
10
87.3866831785693
20
-4.96469973612415
30
0
41
1
10
87.4339882043837
20
-4.71407322611799
30
0
41
1
10
87.5285982560125
20
-4.20242264203512
30
0
41
1
10
87.5759032818269
20
-3.94140509510001
30
0
41
1
10
87.71781835927
20
-3.14886094003924
30
0
41
1
10
87.8124284108989
20
-2.60799651517999
30
0
41
1
10
88.0016485141564
20
-1.53183341108243
30
0
41
1
10
88.0962585657851
20
-0.996645612030505
30
0
41
1
10
88.214521130321
20
-0.346521589889363
30
0
41
1
10
88.2381736432283
20
-0.217420836829433
30
0
41
1
10
88.2736524125891
20
-0.0253826312548995
30
0
41
1
10
88.2854786690426
20
0.0382436993460828
30
0
41
1
10
88.3091311819499
20
0.166341110694788
30
0
41
1
10
88.3209574384034
20
0.230657177856301
30
0
41
1
10
88.3800887206713
20
0.553482023388028
30
0
41
1
10
88.4273937464858
20
0.81574448024034
30
0
41
1
10
88.569308823929
20
1.61050742361292
30
0
41
1
10
88.6639188755577
20
2.15118858998488
30
0
41
1
10
88.8531389788153
20
3.22708966624774
30
0
41
1
10
88.9477490304441
20
3.76216570415582
30
0
41
1
10
89.0896641078873
20
4.53657640828669
30
0
41
1
10
89.1369691337017
20
4.78998916803994
30
0
41
1
10
89.2315791853304
20
5.28335297802238
30
0
41
1
10
89.2788842111448
20
5.5232974335662
30
0
41
1
10
89.3734942627735
20
5.98592892872088
30
0
41
1
10
89.4207992885879
20
6.20860987270788
30
0
41
1
10
89.5154093402167
20
6.63334218933855
30
0
41
1
10
89.5627143660311
20
6.83538859867176
30
0
41
1
10
89.6573244176599
20
7.21607151789092
30
0
41
1
10
89.7046294434743
20
7.39470469288617
30
0
41
1
10
89.7992394951031
20
7.72649887446093
30
0
41
1
10
89.8465445209175
20
7.87965844987005
30
0
41
1
10
89.9884595983606
20
8.29902110016945
30
0
41
1
10
90.0830696499894
20
8.52472805085009
30
0
41
1
10
90.1776797016182
20
8.69622510212065
30
0
0
SPLINE
5
D1
100
AcDbEntity
8
1
62
256
6
ByLayer
370
13
48
1
60
0
100
AcDbSpline
70
4
71
3
72
118
73
114
40
0
40
0
40
0
40
0
40
0.0312500000000001
40
0.0312500000000001
40
0.0468750000000002
40
0.0468750000000002
40
0.0625000000000003
40
0.0625000000000003
40
0.0781250000000003
40
0.0781250000000003
40
0.0937500000000004
40
0.0937500000000004
40
0.109375000000001
40
0.109375000000001
40
0.125000000000001
40
0.125000000000001
40
0.140625000000001
40
0.140625000000001
40
0.156250000000001
40
0.156250000000001
40
0.171875000000001
40
0.171875000000001
40
0.187500000000001
40
0.187500000000001
40
0.203125000000001
40
0.203125000000001
40
0.218750000000001
40
0.218750000000001
40
0.250000000000001
40
0.250000000000001
40
0.281250000000001
40
0.281250000000001
40
0.296875000000001
40
0.296875000000001
40
0.312500000000001
40
0.312500000000001
40
0.328125000000001
40
0.328125000000001
40
0.343750000000001
40
0.343750000000001
40
0.359375000000001
40
0.359375000000001
40
0.375
40
0.375
40
0.390625
40
0.390625
40
0.40625
40
0.40625
40
0.421875
40
0.421875
40
0.4375
40
0.4375
40
0.453125
40
0.453125
40
0.46875
40
0.46875
40
0.5
40
0.5
40
0.53125
40
0.53125
40
0.546875
40
0.546875
40
0.562499999999999
40
0.562499999999999
40
0.578124999999999
40
0.578124999999999
40
0.593749999999999
40
0.593749999999999
40
0.609374999999999
40
0.609374999999999
40
0.624999999999999
40
0.624999999999999
40
0.640624999999999
40
0.640624999999999
40
0.656249999999999
40
0.656249999999999
40
0.671874999999999
40
0.671874999999999
40
0.687499999999999
40
0.687499999999999
40
0.703124999999999
40
0.703124999999999
40
0.718749999999999
40
0.718749999999999
40
0.749999999999999
40
0.749999999999999
40
0.781249999999999
40
0.781249999999999
40
0.796874999999999
40
0.796874999999999
40
0.812499999999999
40
0.812499999999999
40
0.828124999999999
40
0.828124999999999
40
0.843749999999999
40
0.843749999999999
40
0.859374999999999
40
0.859374999999999
40
0.875
40
0.875
40
0.890625
40
0.890625
40
0.90625
40
0.90625
40
0.921875
40
0.921875
40
0.9375
40
0.9375
40
0.953125
40
0.953125
40
0.96875
40
0.96875
40
1
40
1
40
1
40
1
41
1
10
80.600000478884
20
9.12799999999999
30
0
41
1
10
80.6997679707875
20
9.12800000000001
30
0
41
1
10
80.799535462691
20
9.08018437092827
30
0
41
1
10
80.9491867005462
20
8.9233249424245
30
0
41
1
10
80.9990704464979
20
8.8569006514652
30
0
41
1
10
81.0988379384014
20
8.69439880232309
30
0
41
1
10
81.1487216843532
20
8.59831628222986
30
0
41
1
10
81.2484891762566
20
8.37589907541621
30
0
41
1
10
81.2983729222084
20
8.2495610186327
30
0
41
1
10
81.3981404141118
20
7.96695202200803
30
0
41
1
10
81.4480241600637
20
7.81067993118961
30
0
41
1
10
81.547791651967
20
7.46951042867065
30
0
41
1
10
81.5976753979188
20
7.28461447079258
30
0
41
1
10
81.6974428898223
20
6.88848973750476
30
0
41
1
10
81.747326635774
20
6.67726505409968
30
0
41
1
10
81.8470941276776
20
6.23167687794776
30
0
41
1
10
81.8969778736292
20
5.9973197557288
30
0
41
1
10
81.9967453655327
20
5.50940349850251
30
0
41
1
10
82.0466291114845
20
5.25585230932253
30
0
41
1
10
82.146396603388
20
4.73400973124052
30
0
41
1
10
82.1962803493397
20
4.46572694743003
30
0
41
1
10
82.2960478412432
20
3.91915604524237
30
0
41
1
10
82.345931587195
20
3.64087623808504
30
0
41
1
10
82.4456990790985
20
3.07906179094252
30
0
41
1
10
82.4955828250501
20
2.79553434893495
30
0
41
1
10
82.5953503169537
20
2.22775512845161
30
0
41
1
10
82.6452340629054
20
1.94350887113947
30
0
41
1
10
82.7948853007605
20
1.09586026503732
30
0
41
1
10
82.894652792664
20
0.537873192529929
30
0
41
1
10
83.094187776471
20
-0.53787190163581
30
0
41
1
10
83.1939552683746
20
-1.09585891952492
30
0
41
1
10
83.3436065062298
20
-1.94350750953902
30
0
41
1
10
83.3934902521814
20
-2.22775376457702
30
0
41
1
10
83.4932577440849
20
-2.79553298746924
30
0
41
1
10
83.5431414900366
20
-3.07906043416276
30
0
41
1
10
83.6429089819402
20
-3.64087489815537
30
0
41
1
10
83.6927927278919
20
-3.91915471747919
30
0
41
1
10
83.7925602197953
20
-4.46572565165278
30
0
41
1
10
83.8424439657471
20
-4.73400845528391
30
0
41
1
10
83.9422114576506
20
-5.25585108043461
30
0
41
1
10
83.9920952036024
20
-5.50940229686233
30
0
41
1
10
84.0918626955058
20
-5.99731861537077
30
0
41
1
10
84.1417464414575
20
-6.23167577162229
30
0
41
1
10
84.241513933361
20
-6.67726402160167
30
0
41
1
10
84.2913976793128
20
-6.88848874479848
30
0
41
1
10
84.3911651712162
20
-7.28461356209988
30
0
41
1
10
84.441048917168
20
-7.46950956419579
30
0
41
1
10
84.5408164090716
20
-7.81067915805062
30
0
41
1
10
84.5907001550232
20
-7.96695129598271
30
0
41
1
10
84.6904676469267
20
-8.2495603881346
30
0
41
1
10
84.7403513928785
20
-8.37589849332767
30
0
41
1
10
84.8401188847819
20
-8.59831579671555
30
0
41
1
10
84.8900026307338
20
-8.69439836497037
30
0
41
1
10
84.9897701226373
20
-8.8569003088088
30
0
41
1
10
85.039653868589
20
-8.92332464630096
30
0
41
1
10
85.1893051064442
20
-9.0801842102498
30
0
41
1
10
85.2890725983477
20
-9.12799992393323
30
0
41
1
10
85.4886075821546
20
-9.12800007606657
30
0
41
1
10
85.588375074058
20
-9.08018453160653
30
0
41
1
10
85.7380263119132
20
-8.92332523854785
30
0
41
1
10
85.787910057865
20
-8.85690099412133
30
0
41
1
10
85.8876775497685
20
-8.69439923967562
30
0
41
1
10
85.9375612957202
20
-8.59831676774391
30
0
41
1
10
86.0373287876238
20
-8.37589965750453
30
0
41
1
10
86.0872125335754
20
-8.24956164913058
30
0
41
1
10
86.186980025479
20
-7.96695274803312
30
0
41
1
10
86.2368637714306
20
-7.81068070432841
30
0
41
1
10
86.3366312633341
20
-7.46951129314527
30
0
41
1
10
86.3865150092859
20
-7.28461537948505
30
0
41
1
10
86.4862825011894
20
-6.88849073021083
30
0
41
1
10
86.5361662471411
20
-6.67726608659748
30
0
41
1
10
86.6359337390446
20
-6.23167798427306
30
0
41
1
10
86.6858174849963
20
-5.99732089608668
30
0
41
1
10
86.7855849768998
20
-5.50940470014257
30
0
41
1
10
86.8354687228516
20
-5.25585353821035
30
0
41
1
10
86.935236214755
20
-4.73401100719701
30
0
41
1
10
86.9851199607068
20
-4.4657282432072
30
0
41
1
10
87.0848874526102
20
-3.9191573730055
30
0
41
1
10
87.134771198562
20
-3.64087757801465
30
0
41
1
10
87.2345386904655
20
-3.07906314772228
30
0
41
1
10
87.2844224364172
20
-2.79553571040066
30
0
41
1
10
87.3841899283207
20
-2.22775649232619
30
0
41
1
10
87.4340736742724
20
-1.94351023273995
30
0
41
1
10
87.5837249121277
20
-1.09586161054975
30
0
41
1
10
87.6834924040312
20
-0.5378745149319
30
0
41
1
10
87.8830273878382
20
0.537870642249459
30
0
41
1
10
87.9827948797416
20
1.09585757401257
30
0
41
1
10
88.1324461175968
20
1.94350614793853
30
0
41
1
10
88.1823298635486
20
2.22775240070243
30
0
41
1
10
88.282097355452
20
2.79553162600351
30
0
41
1
10
88.3319811014038
20
3.07905907738296
30
0
41
1
10
88.4317485933072
20
3.64087355822568
30
0
41
1
10
88.481632339259
20
3.91915338971595
30
0
41
1
10
88.5813998311625
20
4.46572435587544
30
0
41
1
10
88.6312835771142
20
4.73400717932719
30
0
41
1
10
88.7310510690177
20
5.25584985154657
30
0
41
1
10
88.7809348149693
20
5.50940109522202
30
0
41
1
10
88.8807023068729
20
5.99731747501258
30
0
41
1
10
88.9305860528247
20
6.23167466529668
30
0
41
1
10
89.0303535447281
20
6.6772629891035
30
0
41
1
10
89.0802372906799
20
6.888487752092
30
0
41
1
10
89.1800047825833
20
7.28461265340701
30
0
41
1
10
89.2298885285351
20
7.46950869972073
30
0
41
1
10
89.3296560204386
20
7.81067838491137
30
0
41
1
10
89.3795397663903
20
7.96695056995716
30
0
41
1
10
89.4793072582938
20
8.24955975763623
30
0
41
1
10
89.5291910042455
20
8.37589791123889
30
0
41
1
10
89.628958496149
20
8.59831531120102
30
0
41
1
10
89.6788422421007
20
8.69439792761739
30
0
41
1
10
89.7786097340042
20
8.85689996615221
30
0
41
1
10
89.828493479956
20
8.92332435017715
30
0
41
1
10
89.9781447178112
20
9.08018404957113
30
0
41
1
10
90.0779122097146
20
9.12799984786628
30
0
41
1
10
90.1776797016181
20
9.12799999999964
30
0
0
SPLINE
5
D2
100
AcDbEntity
8
1
62
256
6
ByLayer
370
13
48
1
60
0
100
AcDbSpline
70
4
71
3
72
109
73
105
40
0
40
0
40
0
40
0
40
0.0312499999999979
40
0.0312499999999979
40
0.046874999999997
40
0.046874999999997
40
0.062499999999996
40
0.062499999999996
40
0.0781249999999951
40
0.0781249999999951
40
0.0937499999999942
40
0.0937499999999942
40
0.109374999999993
40
0.109374999999993
40
0.124999999999992
40
0.124999999999992
40
0.15624999999999
40
0.15624999999999
40
0.187499999999988
40
0.187499999999988
40
0.203124999999988
40
0.203124999999988
40
0.207031249999988
40
0.207031249999988
40
0.210937499999988
40
0.210937499999988
40
0.218749999999988
40
0.218749999999988
40
0.249999999999987
40
0.249999999999987
40
0.281249999999986
40
0.281249999999986
40
0.296874999999985
40
0.296874999999985
40
0.312499999999985
40
0.312499999999985
40
0.328124999999984
40
0.328124999999984
40
0.343749999999984
40
0.343749999999984
40
0.359374999999983
40
0.359374999999983
40
0.374999999999983
40
0.374999999999983
40
0.406249999999981
40
0.406249999999981
40
0.43749999999998
40
0.43749999999998
40
0.468749999999979
40
0.468749999999979
40
0.476562499999979
40
0.476562499999979
40
0.484374999999978
40
0.484374999999978
40
0.499999999999978
40
0.499999999999978
40
0.531249999999978
40
0.531249999999978
40
0.562499999999978
40
0.562499999999978
40
0.578124999999978
40
0.578124999999978
40
0.593749999999978
40
0.593749999999978
40
0.609374999999978
40
0.609374999999978
40
0.624999999999978
40
0.624999999999978
40
0.640624999999978
40
0.640624999999978
40
0.656249999999978
40
0.656249999999978
40
0.687499999999978
40
0.687499999999978
40
0.718749999999979
40
0.718749999999979
40
0.734374999999978
40
0.734374999999978
40
0.738281249999979
40
0.738281249999979
40
0.742187499999979
40
0.749999999999979
40
0.749999999999979
40
0.781249999999982
40
0.781249999999982
40
0.812499999999984
40
0.812499999999984
40
0.828124999999985
40
0.828124999999985
40
0.843749999999986
40
0.843749999999986
40
0.859374999999988
40
0.859374999999988
40
0.874999999999989
40
0.874999999999989
40
0.89062499999999
40
0.89062499999999
40
0.906249999999992
40
0.906249999999992
40
0.937499999999994
40
0.937499999999994
40
0.968749999999997
40
0.968749999999997
40
1
40
1
40
1
40
1
41
1
10
80.6
20
8.69622683823857
30
0
41
1
10
80.6946100616056
20
8.52473013138749
30
0
41
1
10
80.7892201232111
20
8.29902352260578
30
0
41
1
10
80.9311352156194
20
7.87966135132527
30
0
41
1
10
80.9784402464221
20
7.72650192992694
30
0
41
1
10
81.0730503080276
20
7.39470804024225
30
0
41
1
10
81.1203553388304
20
7.21607500311441
30
0
41
1
10
81.214965400436
20
6.83539233927462
30
0
41
1
10
81.2622704312387
20
6.63334604744372
30
0
41
1
10
81.3568804928443
20
6.20861394217545
30
0
41
1
10
81.404185523647
20
5.98593309204233
30
0
41
1
10
81.4987955852525
20
5.52330175884612
30
0
41
1
10
81.5461006160552
20
5.28335737140497
30
0
41
1
10
81.6407106776609
20
4.78999367107417
30
0
41
1
10
81.6880157084636
20
4.53658095287233
30
0
41
1
10
81.8299308008719
20
3.76217033429788
30
0
41
1
10
81.9245408624774
20
3.22709430084967
30
0
41
1
10
82.1137609856884
20
2.15119314524827
30
0
41
1
10
82.2083710472939
20
1.61051189538648
30
0
41
1
10
82.3502861397022
20
0.815748781437037
30
0
41
1
10
82.397591170505
20
0.553486260218648
30
0
41
1
10
82.4567224590085
20
0.230661327119179
30
0
41
1
10
82.4685487167092
20
0.166345242088454
30
0
41
1
10
82.4922012321105
20
0.0382477943458639
30
0
41
1
10
82.5040274898113
20
-0.0253785453071487
30
0
41
1
10
82.5395062629134
20
-0.217416736818962
30
0
41
1
10
82.5631587783146
20
-0.346517482254029
30
0
41
1
10
82.6814213553215
20
-0.996641475653206
30
0
41
1
10
82.7760314169271
20
-1.53182928204404
30
0
41
1
10
82.9652515401382
20
-2.60799247345972
30
0
41
1
10
83.0598616017437
20
-3.14885697846518
30
0
41
1
10
83.201776694152
20
-3.94140130922665
30
0
41
1
10
83.2490817249547
20
-4.20241892387205
30
0
41
1
10
83.3436917865603
20
-4.7140696604632
30
0
41
1
10
83.390996817363
20
-4.96469625526549
30
0
41
1
10
83.4856068789686
20
-5.45157459997662
30
0
41
1
10
83.5329119097713
20
-5.68781981165819
30
0
41
1
10
83.6275219713768
20
-6.14222179770215
30
0
41
1
10
83.6748270021797
20
-6.36037268724368
30
0
41
1
10
83.7694370637851
20
-6.77533814169757
30
0
41
1
10
83.8167420945878
20
-6.97214808575103
30
0
41
1
10
83.9113521561934
20
-7.34180933086211
30
0
41
1
10
83.9586571869961
20
-7.51465772563969
30
0
41
1
10
84.1005722794044
20
-7.99444152658148
30
0
41
1
10
84.19518234101
20
-8.26221294019248
30
0
41
1
10
84.384402464221
20
-8.68812844334451
30
0
41
1
10
84.4790125258265
20
-8.84635163678334
30
0
41
1
10
84.6682326490376
20
-9.05962532045319
30
0
41
1
10
84.7628427106432
20
-9.11481478919939
30
0
41
1
10
84.88110528765
20
-9.12865467739215
30
0
41
1
10
84.9047578030513
20
-9.12871375824795
30
0
41
1
10
84.9520628338541
20
-9.12342331227745
30
0
41
1
10
84.9757153492556
20
-9.11803811249203
30
0
41
1
10
85.0466728954597
20
-9.09326855096091
30
0
41
1
10
85.0939779262624
20
-9.06525769263149
30
0
41
1
10
85.2358930186707
20
-8.94396088049237
30
0
41
1
10
85.3305030802762
20
-8.81310250148252
30
0
41
1
10
85.5197232034873
20
-8.44257455279677
30
0
41
1
10
85.6143332650928
20
-8.2028047083634
30
0
41
1
10
85.7562483575011
20
-7.76307835551876
30
0
41
1
10
85.8035533883038
20
-7.60325493196962
30
0
41
1
10
85.8981634499094
20
-7.2585858326199
30
0
41
1
10
85.9454684807122
20
-7.0737420866341
30
0
41
1
10
86.0400785423177
20
-6.68128359423332
30
0
41
1
10
86.0873835731204
20
-6.47367263495954
30
0
41
1
10
86.181993634726
20
-6.03862221240951
30
0
41
1
10
86.2292986655287
20
-5.81118805626457
30
0
41
1
10
86.3239087271342
20
-5.33998701859892
30
0
41
1
10
86.371213757937
20
-5.0962264235902
30
0
41
1
10
86.4658238195425
20
-4.59624539506927
30
0
41
1
10
86.5131288503454
20
-4.34003157632216
30
0
41
1
10
86.6550439427535
20
-3.55878118021744
30
0
41
1
10
86.7496540043592
20
-3.02125098871943
30
0
41
1
10
86.9388741275702
20
-1.94430733128172
30
0
41
1
10
87.0334841891757
20
-1.40502706360741
30
0
41
1
10
87.175399281584
20
-0.614592515955991
30
0
41
1
10
87.2227043123867
20
-0.354140941107261
30
0
41
1
10
87.2818356008902
20
-0.0339572208575305
30
0
41
1
10
87.2936618585909
20
0.0296674707833802
30
0
41
1
10
87.3173143739923
20
0.157716963289602
30
0
41
1
10
87.3527931470943
20
0.350595185221835
30
0
41
1
10
87.3882719201964
20
0.545723194077539
30
0
41
1
10
87.5065344972033
20
1.20035201973494
30
0
41
1
10
87.6011445588089
20
1.73779585773764
30
0
41
1
10
87.7903646820199
20
2.8148189788042
30
0
41
1
10
87.8849747436254
20
3.35427609588277
30
0
41
1
10
88.0268898360337
20
4.14157040122865
30
0
41
1
10
88.0741948668366
20
4.40031948928942
30
0
41
1
10
88.1688049284421
20
4.9063979206264
30
0
41
1
10
88.2161099592447
20
5.15372067205087
30
0
41
1
10
88.3107200208503
20
5.6330079649606
30
0
41
1
10
88.3580250516532
20
5.86496607217157
30
0
41
1
10
88.4526351132586
20
6.30991237455549
30
0
41
1
10
88.4999401440613
20
6.52289495457731
30
0
41
1
10
88.5945502056669
20
6.92678856455771
30
0
41
1
10
88.6418552364697
20
7.11769537741472
30
0
41
1
10
88.7364652980752
20
7.47499549183468
30
0
41
1
10
88.7837703288778
20
7.64138637040276
30
0
41
1
10
88.9256854212862
20
8.10126671405123
30
0
41
1
10
89.0202954828918
20
8.35506716641879
30
0
41
1
10
89.2095156061027
20
8.75325169282675
30
0
41
1
10
89.3041256677083
20
8.897725926953
30
0
41
1
10
89.4933457909193
20
9.08502902018617
30
0
41
1
10
89.5879558525249
20
9.12800000000001
30
0
41
1
10
89.6825659141304
20
9.12799999999999
30
0
0
SPLINE
5
D3
100
AcDbEntity
8
1
62
256
6
ByLayer
370
13
48
1
60
0
100
AcDbSpline
70
4
71
3
72
87
73
83
40
0
40
0
40
0
40
0
40
0.031249999999998
40
0.031249999999998
40
0.062499999999996
40
0.062499999999996
40
0.093749999999994
40
0.093749999999994
40
0.124999999999992
40
0.124999999999992
40
0.15624999999999
40
0.15624999999999
40
0.16015624999999
40
0.16015624999999
40
0.16406249999999
40
0.16406249999999
40
0.171874999999989
40
0.171874999999989
40
0.187499999999989
40
0.187499999999989
40
0.218749999999988
40
0.218749999999988
40
0.249999999999987
40
0.249999999999987
40
0.281249999999987
40
0.281249999999987
40
0.312499999999986
40
0.312499999999986
40
0.343749999999985
40
0.343749999999985
40
0.374999999999984
40
0.374999999999984
40
0.406249999999983
40
0.406249999999983
40
0.437499999999982
40
0.437499999999982
40
0.441406249999982
40
0.441406249999982
40
0.445312499999982
40
0.445312499999982
40
0.453124999999982
40
0.453124999999982
40
0.468749999999982
40
0.468749999999982
40
0.499999999999983
40
0.499999999999983
40
0.531249999999983
40
0.531249999999983
40
0.562499999999984
40
0.562499999999984
40
0.593749999999984
40
0.593749999999984
40
0.624999999999984
40
0.624999999999984
40
0.656249999999985
40
0.656249999999985
40
0.687499999999985
40
0.687499999999985
40
0.718749999999986
40
0.718749999999986
40
0.722656249999986
40
0.722656249999986
40
0.726562499999986
40
0.734374999999986
40
0.734374999999986
40
0.749999999999987
40
0.749999999999987
40
0.781249999999988
40
0.781249999999988
40
0.81249999999999
40
0.81249999999999
40
0.843749999999992
40
0.843749999999992
40
0.874999999999993
40
0.874999999999993
40
0.906249999999995
40
0.906249999999995
40
0.937499999999997
40
0.937499999999997
40
0.968749999999998
40
0.968749999999998
40
1
40
1
40
1
40
1
41
1
10
80.6
20
7.30832738901935
30
0
41
1
10
80.6894526213309
20
6.97154096006278
30
0
41
1
10
80.7789052426617
20
6.59058601363236
30
0
41
1
10
80.9578104853232
20
5.75872307221758
30
0
41
1
10
81.0472631066541
20
5.30794545464295
30
0
41
1
10
81.2261683493156
20
4.36178264587551
30
0
41
1
10
81.3156209706465
20
3.8665554498161
30
0
41
1
10
81.4945262133082
20
2.85916239036439
30
0
41
1
10
81.5839788346391
20
2.34712897906814
30
0
41
1
10
81.7628840773007
20
1.33156224602291
30
0
41
1
10
81.8523366986315
20
0.828103040663905
30
0
41
1
10
81.9529708976286
20
0.277748882372691
30
0
41
1
10
81.964152475295
20
0.216817072540152
30
0
41
1
10
81.9865156306277
20
0.0954224008101221
30
0
41
1
10
81.9976972082941
20
0.0350688090719302
30
0
41
1
10
82.0312419412932
20
-0.14598608677187
30
0
41
1
10
82.0536050966258
20
-0.267671631832684
30
0
41
1
10
82.1206945626239
20
-0.635299742829318
30
0
41
1
10
82.1654208732893
20
-0.883826506271419
30
0
41
1
10
82.2995998052855
20
-1.63626098063958
30
0
41
1
10
82.3890524266164
20
-2.14718630057607
30
0
41
1
10
82.567957669278
20
-3.16465841945438
30
0
41
1
10
82.6574102906089
20
-3.67109768468546
30
0
41
1
10
82.8363155332705
20
-4.65254659182196
30
0
41
1
10
82.9257681546014
20
-5.12740424199114
30
0
41
1
10
83.104673397263
20
-6.01865638281976
30
0
41
1
10
83.1941260185937
20
-6.43490076118383
30
0
41
1
10
83.3730312612554
20
-7.18664137981074
30
0
41
1
10
83.4624838825862
20
-7.52204248376754
30
0
41
1
10
83.6413891252479
20
-8.09843487186896
30
0
41
1
10
83.7308417465787
20
-8.3394158387805
30
0
41
1
10
83.9097469892403
20
-8.72359225039281
30
0
41
1
10
83.9991996105712
20
-8.86685365387379
30
0
41
1
10
84.1781048532328
20
-9.06159845834449
30
0
41
1
10
84.2675574745637
20
-9.11318784273402
30
0
41
1
10
84.3681916735608
20
-9.12672029025441
30
0
41
1
10
84.3793732512271
20
-9.12760873171152
30
0
41
1
10
84.4017364065598
20
-9.12818415771306
30
0
41
1
10
84.4129179842262
20
-9.12787522137864
30
0
41
1
10
84.4464627172252
20
-9.12512745393781
30
0
41
1
10
84.468825872558
20
-9.12086207209205
30
0
41
1
10
84.535915338556
20
-9.10042879279388
30
0
41
1
10
84.5806416492214
20
-9.0766141789062
30
0
41
1
10
84.7148205812176
20
-8.9721933184795
30
0
41
1
10
84.8042732025485
20
-8.85837446567177
30
0
41
1
10
84.9831784452101
20
-8.53407834274708
30
0
41
1
10
85.072631066541
20
-8.32351817008478
30
0
41
1
10
85.2515363092026
20
-7.80586763074095
30
0
41
1
10
85.3409889305334
20
-7.49876130467365
30
0
41
1
10
85.519894173195
20
-6.79837226934791
30
0
41
1
10
85.6093467945259
20
-6.40515985617327
30
0
41
1
10
85.7882520371875
20
-5.55236508910477
30
0
41
1
10
85.8777046585184
20
-5.09292094777047
30
0
41
1
10
86.0566099011801
20
-4.13368513645651
30
0
41
1
10
86.1460625225108
20
-3.63405073488482
30
0
41
1
10
86.3249677651725
20
-2.62203439354116
30
0
41
1
10
86.4144203865033
20
-2.10977724785002
30
0
41
1
10
86.5933256291649
20
-1.09727568274434
30
0
41
1
10
86.6827782504958
20
-0.597095396675627
30
0
41
1
10
86.783412449493
20
-0.0518407567071506
30
0
41
1
10
86.7945940271592
20
0.0083432755040462
30
0
41
1
10
86.8169571824919
20
0.129280488782456
30
0
41
1
10
86.8505019154909
20
0.311411247474524
30
0
41
1
10
86.8840466484901
20
0.495580831576717
30
0
41
1
10
86.9511361144882
20
0.866238965296276
30
0
41
1
10
86.9958624251535
20
1.1164487360661
30
0
41
1
10
87.1300413571498
20
1.87273372876581
30
0
41
1
10
87.2194939784806
20
2.38461529232765
30
0
41
1
10
87.3983992211423
20
3.39998346380977
30
0
41
1
10
87.4878518424731
20
3.9033536242973
30
0
41
1
10
87.6667570851347
20
4.87435432838674
30
0
41
1
10
87.7562097064655
20
5.34182962493068
30
0
41
1
10
87.9351149491272
20
6.21443529403021
30
0
41
1
10
88.024567570458
20
6.61942085471901
30
0
41
1
10
88.2034728131197
20
7.34588883031824
30
0
41
1
10
88.2929254344505
20
7.66728822578241
30
0
41
1
10
88.4718306771121
20
8.21447460290108
30
0
41
1
10
88.5612832984429
20
8.44026459141978
30
0
41
1
10
88.7401885411047
20
8.79442928532151
30
0
41
1
10
88.8296411624353
20
8.92287890972835
30
0
41
1
10
89.008546405097
20
9.08961006937759
30
0
41
1
10
89.0979990264278
20
9.12799999999999
30
0
41
1
10
89.1874516477587
20
9.12799999999999
30
0
0
SPLINE
5
D4
100
AcDbEntity
8
1
62
256
6
ByLayer
370
13
48
1
60
0
100
AcDbSpline
70
4
71
3
72
8
73
4
40
0
40
0
40
0
40
0
40
1
40
1
40
1
40
1
41
1
10
90.0071715399467
20
9.12799999999999
30
0
41
1
10
90.0640075938372
20
9.12799999999999
30
0
41
1
10
90.1208436477277
20
9.1125462395199
30
0
41
1
10
90.1776797016181
20
9.07984668914199
30
0
0
SPLINE
5
D5
100
AcDbEntity
8
1
62
256
6
ByLayer
370
13
48
1
60
0
100
AcDbSpline
70
4
71
3
72
85
73
81
40
0
40
0
40
0
40
0
40
0.0312500000000038
40
0.0312500000000038
40
0.0625000000000076
40
0.0625000000000076
40
0.0937500000000114
40
0.0937500000000114
40
0.109375000000013
40
0.109375000000013
40
0.113281250000013
40
0.113281250000013
40
0.117187500000014
40
0.125000000000014
40
0.125000000000014
40
0.156250000000014
40
0.156250000000014
40
0.187500000000015
40
0.187500000000015
40
0.218750000000015
40
0.218750000000015
40
0.250000000000015
40
0.250000000000015
40
0.281250000000016
40
0.281250000000016
40
0.312500000000016
40
0.312500000000016
40
0.343750000000017
40
0.343750000000017
40
0.375000000000017
40
0.375000000000017
40
0.406250000000018
40
0.406250000000018
40
0.410156250000018
40
0.410156250000018
40
0.414062500000018
40
0.421875000000017
40
0.421875000000017
40
0.437500000000016
40
0.437500000000016
40
0.468750000000014
40
0.468750000000014
40
0.500000000000012
40
0.500000000000012
40
0.53125000000001
40
0.53125000000001
40
0.562500000000008
40
0.562500000000008
40
0.593750000000006
40
0.593750000000006
40
0.625000000000004
40
0.625000000000004
40
0.656250000000002
40
0.656250000000002
40
0.6875
40
0.6875
40
0.703124999999999
40
0.703124999999999
40
0.707031249999999
40
0.707031249999999
40
0.710937499999999
40
0.718749999999999
40
0.718749999999999
40
0.749999999999999
40
0.749999999999999
40
0.781249999999999
40
0.781249999999999
40
0.812499999999999
40
0.812499999999999
40
0.843749999999999
40
0.843749999999999
40
0.875
40
0.875
40
0.90625
40
0.90625
40
0.9375
40
0.9375
40
0.96875
40
0.96875
40
1
40
1
40
1
40
1
41
1
10
80.6
20
5.05323310576489
30
0
41
1
10
80.6842951810561
20
4.61419676157453
30
0
41
1
10
80.7685903621122
20
4.15362843402391
30
0
41
1
10
80.9371807242244
20
3.21227597105568
30
0
41
1
10
81.0214759052806
20
2.73159723431169
30
0
41
1
10
81.1900662673928
20
1.7720443233024
30
0
41
1
10
81.274361448449
20
1.29323807710745
30
0
41
1
10
81.4008042200331
20
0.590088234502929
30
0
41
1
10
81.4429518105612
20
0.35817939530861
30
0
41
1
10
81.4956362987213
20
0.0725132612260211
30
0
41
1
10
81.5061731963532
20
0.0157255338701816
30
0
41
1
10
81.5272469916173
20
-0.0980994916801876
30
0
41
1
10
81.5588576845134
20
-0.269486874202357
30
0
41
1
10
81.5904683774094
20
-0.44271098108706
30
0
41
1
10
81.6958373537295
20
-1.02365643476028
30
0
41
1
10
81.7801325347857
20
-1.49990579559645
30
0
41
1
10
81.9487228968979
20
-2.45814257687792
30
0
41
1
10
82.0330180779539
20
-2.94007052880556
30
0
41
1
10
82.2016084400661
20
-3.88826503468363
30
0
41
1
10
82.2859036211223
20
-4.35443185552757
30
0
41
1
10
82.4544939832346
20
-5.24800427771595
30
0
41
1
10
82.5387891642906
20
-5.67529227030812
30
0
41
1
10
82.707379526403
20
-6.46967187812768
30
0
41
1
10
82.7916747074589
20
-6.83666324469831
30
0
41
1
10
82.9602650695713
20
-7.49408881081635
30
0
41
1
10
83.0445602506273
20
-7.78447169941683
30
0
41
1
10
83.2131506127396
20
-8.27977647947199
30
0
41
1
10
83.2974457937956
20
-8.48470775691231
30
0
41
1
10
83.4660361559079
20
-8.80831313313931
30
0
41
1
10
83.5503313369641
20
-8.92704528752472
30
0
41
1
10
83.7189216990762
20
-9.08448624914342
30
0
41
1
10
83.8032168801324
20
-9.12327574619908
30
0
41
1
10
83.8980489588205
20
-9.12813104953224
30
0
41
1
10
83.9085858564525
20
-9.12813705835379
30
0
41
1
10
83.9296596517165
20
-9.12708255481442
30
0
41
1
10
83.9612703446127
20
-9.12389186371408
30
0
41
1
10
83.9928810375086
20
-9.11576492696085
30
0
41
1
10
84.0561024233007
20
-9.09265289322877
30
0
41
1
10
84.0982500138286
20
-9.06809284330578
30
0
41
1
10
84.2246927854129
20
-8.9649876801013
30
0
41
1
10
84.3089879664691
20
-8.85683155672058
30
0
41
1
10
84.4775783285812
20
-8.55482499911145
30
0
41
1
10
84.5618735096374
20
-8.36091208519176
30
0
41
1
10
84.7304638717496
20
-7.88711733659355
30
0
41
1
10
84.8147590528056
20
-7.60721887039529
30
0
41
1
10
84.9833494149179
20
-6.96920798577256
30
0
41
1
10
85.0676445959741
20
-6.61113933345212
30
0
41
1
10
85.2362349580863
20
-5.83220252126856
30
0
41
1
10
85.3205301391424
20
-5.41142988058866
30
0
41
1
10
85.4891205012546
20
-4.52801176906917
30
0
41
1
10
85.5734156823107
20
-4.06548376901767
30
0
41
1
10
85.742006044423
20
-3.12166923075011
30
0
41
1
10
85.826301225479
20
-2.64048630213605
30
0
41
1
10
85.9948915875913
20
-1.68121263173361
30
0
41
1
10
86.0791867686474
20
-1.20318701769148
30
0
41
1
10
86.2056295402316
20
-0.501950626068947
30
0
41
1
10
86.2477771307596
20
-0.270802642992777
30
0
41
1
10
86.3004616189198
20
0.0137846049855455
30
0
41
1
10
86.3109985165518
20
0.0705648070956784
30
0
41
1
10
86.3320723118158
20
0.184821678192151
30
0
41
1
10
86.3636830047118
20
0.356837678087686
30
0
41
1
10
86.3952936976078
20
0.530629987343076
30
0
41
1
10
86.5006626739279
20
1.11332218545709
30
0
41
1
10
86.5849578549841
20
1.59049509161136
30
0
41
1
10
86.7535482170964
20
2.54932938747868
30
0
41
1
10
86.8378433981525
20
3.03092847091557
30
0
41
1
10
87.0064337602647
20
3.97702345553264
30
0
41
1
10
87.0907289413208
20
4.44141763719961
30
0
41
1
10
87.259319303433
20
5.33000266970663
30
0
41
1
10
87.3436144844891
20
5.75407590664531
30
0
41
1
10
87.5122048466014
20
6.54080924672721
30
0
41
1
10
87.5965000276574
20
6.90337140166443
30
0
41
1
10
87.7650903897696
20
7.55113851897832
30
0
41
1
10
87.8493855708258
20
7.83629592192477
30
0
41
1
10
88.017975932938
20
8.32086268411354
30
0
41
1
10
88.1022711139941
20
8.5202850806848
30
0
41
1
10
88.2708614761063
20
8.83307765254
30
0
41
1
10
88.3551566571625
20
8.94650815087576
30
0
41
1
10
88.5237470192748
20
9.09392873064786
30
0
41
1
10
88.6080422003308
20
9.12799999999999
30
0
41
1
10
88.6923373813869
20
9.12799999999999
30
0
0
SPLINE
5
D6
100
AcDbEntity
8
1
62
256
6
ByLayer
370
13
48
1
60
0
100
AcDbSpline
70
4
71
3
72
14
73
10
40
0
40
0
40
0
40
0
40
0.25
40
0.25
40
0.5
40
0.5
40
0.75
40
0.75
40
1
40
1
40
1
40
1
41
1
10
89.512057273575
20
9.12799999999999
30
0
41
1
10
89.5675258092453
20
9.12799999999999
30
0
41
1
10
89.6229943449156
20
9.11328218601562
30
0
41
1
10
89.733931416256
20
9.05107208365416
30
0
41
1
10
89.7893999519264
20
9.00356958497966
30
0
41
1
10
89.9003370232668
20
8.87314467074785
30
0
41
1
10
89.9558055589371
20
8.79021258458866
30
0
41
1
10
90.0667426302776
20
8.58729884656947
30
0
41
1
10
90.1222111659479
20
8.46730954791525
30
0
41
1
10
90.1776797016181
20
8.32862139323481
30
0
0
SPLINE
5
D7
100
AcDbEntity
8
1
62
256
6
ByLayer
370
13
48
1
60
0
100
AcDbSpline
70
4
71
3
72
85
73
81
40
0
40
0
40
0
40
0
40
0.0312500000000021
40
0.0312500000000021
40
0.0468750000000034
40
0.0468750000000034
40
0.054687500000004
40
0.054687500000004
40
0.0625000000000046
40
0.0625000000000046
40
0.093750000000006
40
0.093750000000006
40
0.125000000000007
40
0.125000000000007
40
0.156250000000009
40
0.156250000000009
40
0.18750000000001
40
0.18750000000001
40
0.218750000000011
40
0.218750000000011
40
0.250000000000013
40
0.250000000000013
40
0.281250000000014
40
0.281250000000014
40
0.312500000000016
40
0.312500000000016
40
0.343750000000017
40
0.343750000000017
40
0.359375000000018
40
0.359375000000018
40
0.367187500000018
40
0.367187500000018
40
0.371093750000019
40
0.371093750000019
40
0.375000000000019
40
0.375000000000019
40
0.406250000000018
40
0.406250000000018
40
0.437500000000017
40
0.437500000000017
40
0.468750000000017
40
0.468750000000017
40
0.500000000000016
40
0.500000000000016
40
0.531250000000015
40
0.531250000000015
40
0.562500000000014
40
0.562500000000014
40
0.593750000000014
40
0.593750000000014
40
0.625000000000013
40
0.625000000000013
40
0.656250000000012
40
0.656250000000012
40
0.671875000000012
40
0.671875000000012
40
0.679687500000011
40
0.683593750000011
40
0.683593750000011
40
0.687500000000011
40
0.687500000000011
40
0.71875000000001
40
0.71875000000001
40
0.750000000000009
40
0.750000000000009
40
0.781250000000008
40
0.781250000000008
40
0.812500000000007
40
0.812500000000007
40
0.843750000000005
40
0.843750000000005
40
0.875000000000004
40
0.875000000000004
40
0.906250000000003
40
0.906250000000003
40
0.937500000000002
40
0.937500000000002
40
0.968750000000001
40
0.968750000000001
40
1
40
1
40
1
40
1
41
1
10
80.6
20
2.31247881116266
30
0
41
1
10
80.6791377407815
20
1.86201138947865
30
0
41
1
10
80.7582754815628
20
1.41199843337068
30
0
41
1
10
80.8769820927349
20
0.749124542323557
30
0
41
1
10
80.9165509631256
20
0.530163944676076
30
0
41
1
10
80.9759042687117
20
0.205886108060042
30
0
41
1
10
80.995688703907
20
0.0985611591544568
30
0
41
1
10
81.0352575742978
20
-0.114843616259378
30
0
41
1
10
81.0550420094932
20
-0.222319006303479
30
0
41
1
10
81.1539641854699
20
-0.763132559436002
30
0
41
1
10
81.2331019262513
20
-1.20693438602987
30
0
41
1
10
81.3913774078142
20
-2.10335887568132
30
0
41
1
10
81.4705151485956
20
-2.55594560766161
30
0
41
1
10
81.6287906301584
20
-3.45296006404644
30
0
41
1
10
81.7079283709397
20
-3.89732234205115
30
0
41
1
10
81.8662038525025
20
-4.75895231247043
30
0
41
1
10
81.945341593284
20
-5.17613599418857
30
0
41
1
10
82.1036170748467
20
-5.96481367460794
30
0
41
1
10
82.1827548156282
20
-6.33622597441234
30
0
41
1
10
82.3410302971911
20
-7.01767967825072
30
0
41
1
10
82.4201680379724
20
-7.32766462404345
30
0
41
1
10
82.5784435195352
20
-7.87565415583376
30
0
41
1
10
82.6575812603166
20
-8.11364211185906
30
0
41
1
10
82.8158567418794
20
-8.51324041717487
30
0
41
1
10
82.8949944826608
20
-8.6748740269351
30
0
41
1
10
83.0532699642237
20
-8.9234650778528
30
0
41
1
10
83.1324077050051
20
-9.01047302863179
30
0
41
1
10
83.2511143161772
20
-9.08995466487863
30
0
41
1
10
83.2906831865679
20
-9.10797683664956
30
0
41
1
10
83.3500364921539
20
-9.12315835005168
30
0
41
1
10
83.3698209273493
20
-9.12624494256698
30
0
41
1
10
83.3994975801423
20
-9.12803157932956
30
0
41
1
10
83.40938979774
20
-9.12815505142606
30
0
41
1
10
83.4291742329353
20
-9.12746570982796
30
0
41
1
10
83.439066450533
20
-9.12664990107686
30
0
41
1
10
83.5280964089121
20
-9.11497748431768
30
0
41
1
10
83.6072341496935
20
-9.07369774921594
30
0
41
1
10
83.7655096312565
20
-8.92049389822373
30
0
41
1
10
83.8446473720378
20
-8.80851106688417
30
0
41
1
10
84.0029228536006
20
-8.50874309819432
30
0
41
1
10
84.082060594382
20
-8.3209148401339
30
0
41
1
10
84.2403360759448
20
-7.86968744250743
30
0
41
1
10
84.3194738167263
20
-7.60627777059392
30
0
41
1
10
84.4777492982892
20
-7.01037520446073
30
0
41
1
10
84.5568870390705
20
-6.67791333471573
30
0
41
1
10
84.7151625206333
20
-5.95636561945196
30
0
41
1
10
84.7943002614147
20
-5.5673471185201
30
0
41
1
10
84.9525757429775
20
-4.74960619245616
30
0
41
1
10
85.0317134837589
20
-4.32096895277638
30
0
41
1
10
85.1899889653217
20
-3.44300222078243
30
0
41
1
10
85.2691267061031
20
-2.99375234983268
30
0
41
1
10
85.427402187666
20
-2.09310146733844
30
0
41
1
10
85.5065399284474
20
-1.64175643807755
30
0
41
1
10
85.6252465396195
20
-0.975107085043334
30
0
41
1
10
85.6648154100102
20
-0.754593422916486
30
0
41
1
10
85.7241687155962
20
-0.427608204848752
30
0
41
1
10
85.7538453683893
20
-0.265059023431633
30
0
41
1
10
85.7835220211823
20
-0.104129087999866
30
0
41
1
10
85.8033064563776
20
0.0027769082264513
30
0
41
1
10
85.8131986739754
20
0.0560530282438947
30
0
41
1
10
85.9022286323544
20
0.538375727521242
30
0
41
1
10
85.9813663731358
20
0.979212375509519
30
0
41
1
10
86.1396418546987
20
1.87228814127769
30
0
41
1
10
86.21877959548
20
2.32449660677193
30
0
41
1
10
86.3770550770428
20
3.22384876861631
30
0
41
1
10
86.4561928178241
20
3.67093162026842
30
0
41
1
10
86.614468299387
20
4.54128531946353
30
0
41
1
10
86.6936060401685
20
4.96447405634731
30
0
41
1
10
86.8518815217313
20
5.76820328602389
30
0
41
1
10
86.9310192625127
20
6.14865998241632
30
0
41
1
10
87.0892947440755
20
6.85057257864779
30
0
41
1
10
87.1684324848569
20
7.17196632444771
30
0
41
1
10
87.3267079664198
20
7.74416233435019
30
0
41
1
10
87.4058457072013
20
7.99494073345221
30
0
41
1
10
87.564121188764
20
8.42042079450189
30
0
41
1
10
87.6432589295454
20
8.59513952147358
30
0
41
1
10
87.8015344111082
20
8.86921805767574
30
0
41
1
10
87.8806721518896
20
8.96862494806354
30
0
41
1
10
88.0389476334524
20
9.09798612182576
30
0
41
1
10
88.1180853742338
20
9.12800000000001
30
0
41
1
10
88.1972231150152
20
9.12799999999999
30
0
0
SPLINE
5
D8
100
AcDbEntity
8
1
62
256
6
ByLayer
370
13
48
1
60
0
100
AcDbSpline
70
4
71
3
72
18
73
14
40
0
40
0
40
0
40
0
40
0.249999999999999
40
0.249999999999999
40
0.499999999999998
40
0.499999999999998
40
0.624999999999999
40
0.624999999999999
40
0.749999999999999
40
0.749999999999999
40
0.875
40
0.875
40
1
40
1
40
1
40
1
41
1
10
89.0169430072033
20
9.12799999999999
30
0
41
1
10
89.1136710650713
20
9.12799999999999
30
0
41
1
10
89.2103991229391
20
9.08307144582926
30
0
41
1
10
89.403855238675
20
8.88695250560602
30
0
41
1
10
89.5005832965429
20
8.73560404280252
30
0
41
1
10
89.6456753833447
20
8.42283517182329
30
0
41
1
10
89.6940394122786
20
8.30437145979386
30
0
41
1
10
89.7907674701465
20
8.03920682569392
30
0
41
1
10
89.8391314990805
20
7.89250459917645
30
0
41
1
10
89.9358595569483
20
7.57190216579323
30
0
41
1
10
89.9842235858823
20
7.39800278430857
30
0
41
1
10
90.0809516437503
20
7.02492136322857
30
0
41
1
10
90.1293156726842
20
6.82574236240288
30
0
41
1
10
90.1776797016182
20
6.61528877716819
30
0
0
SPLINE
5
D9
100
AcDbEntity
8
1
62
256
6
ByLayer
370
13
48
1
60
0
100
AcDbSpline
70
4
71
3
72
81
73
77
40
0
40
0
40
0
40
0
40
0.0312499999999984
40
0.0312499999999984
40
0.0624999999999968
40
0.0624999999999968
40
0.0937499999999952
40
0.0937499999999952
40
0.124999999999994
40
0.124999999999994
40
0.156249999999992
40
0.156249999999992
40
0.187499999999991
40
0.187499999999991
40
0.218749999999989
40
0.218749999999989
40
0.249999999999988
40
0.249999999999988
40
0.281249999999986
40
0.281249999999986
40
0.312499999999984
40
0.312499999999984
40
0.320312499999984
40
0.324218749999984
40
0.324218749999984
40
0.328124999999984
40
0.328124999999984
40
0.343749999999984
40
0.343749999999984
40
0.374999999999984
40
0.374999999999984
40
0.406249999999984
40
0.406249999999984
40
0.437499999999984
40
0.437499999999984
40
0.468749999999984
40
0.468749999999984
40
0.499999999999984
40
0.499999999999984
40
0.531249999999984
40
0.531249999999984
40
0.562499999999984
40
0.562499999999984
40
0.593749999999984
40
0.593749999999984
40
0.624999999999984
40
0.624999999999984
40
0.656249999999984
40
0.656249999999984
40
0.660156249999984
40
0.660156249999984
40
0.664062499999984
40
0.664062499999984
40
0.671874999999985
40
0.671874999999985
40
0.687499999999985
40
0.687499999999985
40
0.718749999999987
40
0.718749999999987
40
0.749999999999988
40
0.749999999999988
40
0.78124999999999
40
0.78124999999999
40
0.812499999999991
40
0.812499999999991
40
0.843749999999993
40
0.843749999999993
40
0.874999999999994
40
0.874999999999994
40
0.906249999999996
40
0.906249999999996
40
0.937499999999997
40
0.937499999999997
40
0.968749999999999
40
0.968749999999999
40
1
40
1
40
1
40
1
41
1
10
80.6
20
-0.441633540610837
30
0
41
1
10
80.6739803005067
20
-0.847804038211621
30
0
41
1
10
80.7479606010134
20
-1.26326504240348
30
0
41
1
10
80.8959212020268
20
-2.10158566712465
30
0
41
1
10
80.9699015025335
20
-2.52441918852603
30
0
41
1
10
81.1178621035469
20
-3.3636440066376
30
0
41
1
10
81.1918424040537
20
-3.77998937583274
30
0
41
1
10
81.3398030050671
20
-4.5908372627992
30
0
41
1
10
81.4137833055738
20
-4.98528053654061
30
0
41
1
10
81.5617439065871
20
-5.73697370035512
30
0
41
1
10
81.6357242070939
20
-6.09416362886935
30
0
41
1
10
81.7836848081073
20
-6.7578912237162
30
0
41
1
10
81.857665108614
20
-7.0643828849926
30
0
41
1
10
82.0056257096274
20
-7.61679235874107
30
0
41
1
10
82.0796060101341
20
-7.86268907789054
30
0
41
1
10
82.2275666111475
20
-8.28856708385689
30
0
41
1
10
82.3015469116542
20
-8.46855511950497
30
0
41
1
10
82.4495075126675
20
-8.76207210833559
30
0
41
1
10
82.5234878131744
20
-8.87563020650518
30
0
41
1
10
82.6714484141878
20
-9.03997530781365
30
0
41
1
10
82.7454287146944
20
-9.09080339990228
30
0
41
1
10
82.8379040903278
20
-9.119371027889
30
0
41
1
10
82.8656467030178
20
-9.12532752889186
30
0
41
1
10
82.8933893157079
20
-9.12750525976
30
0
41
1
10
82.9118843908345
20
-9.1281338519166
30
0
41
1
10
82.9211319283978
20
-9.12803892486585
30
0
41
1
10
82.9673696162146
20
-9.12550396828823
30
0
41
1
10
83.0043597664678
20
-9.11685478487561
30
0
41
1
10
83.1153302172279
20
-9.06954081211165
30
0
41
1
10
83.1893105177346
20
-9.00942176384666
30
0
41
1
10
83.337271118748
20
-8.82568804336208
30
0
41
1
10
83.4112514192547
20
-8.70203337793401
30
0
41
1
10
83.5592120202681
20
-8.38810349373662
30
0
41
1
10
83.6331923207748
20
-8.19780197275861
30
0
41
1
10
83.7811529217882
20
-7.7517950725792
30
0
41
1
10
83.855133222295
20
-7.49608706770579
30
0
41
1
10
84.0030938233083
20
-6.92529476838959
30
0
41
1
10
84.077074123815
20
-6.610235827303
30
0
41
1
10
84.2250347248284
20
-5.9312482285024
30
0
41
1
10
84.2990150253352
20
-5.56736860083279
30
0
41
1
10
84.4469756263486
20
-4.80458407041229
30
0
41
1
10
84.5209559268553
20
-4.40573998859102
30
0
41
1
10
84.6689165278686
20
-3.58850951698406
30
0
41
1
10
84.7428968283754
20
-3.17018101736284
30
0
41
1
10
84.8908574293888
20
-2.32926562412163
30
0
41
1
10
84.9648377298955
20
-1.90672184725361
30
0
41
1
10
85.1127983309089
20
-1.07090466535738
30
0
41
1
10
85.1867786314156
20
-0.657654169258876
30
0
41
1
10
85.2700064694857
20
-0.204019333279774
30
0
41
1
10
85.279254007049
20
-0.15377006387709
30
0
41
1
10
85.2977490821756
20
-0.0535982792222285
30
0
41
1
10
85.3069966197389
20
-0.0037879189022192
30
0
41
1
10
85.3347392324289
20
0.146090393393166
30
0
41
1
10
85.3532343075556
20
0.246676206133145
30
0
41
1
10
85.4087195329357
20
0.550222762675332
30
0
41
1
10
85.4457096831891
20
0.754978633793399
30
0
41
1
10
85.556680133949
20
1.37450785010344
30
0
41
1
10
85.6306604344558
20
1.79462603056797
30
0
41
1
10
85.7786210354693
20
2.63668161918886
30
0
41
1
10
85.8526013359759
20
3.0585842029665
30
0
41
1
10
86.0005619369893
20
3.88954094850891
30
0
41
1
10
86.0745422374961
20
4.29854235129599
30
0
41
1
10
86.2225028385095
20
5.08809868767571
30
0
41
1
10
86.2964831390161
20
5.46859229146489
30
0
41
1
10
86.4444437400296
20
6.18635870596623
30
0
41
1
10
86.5184240405363
20
6.52357574964131
30
0
41
1
10
86.6663846415497
20
7.14265228168821
30
0
41
1
10
86.7403649420563
20
7.42447536701911
30
0
41
1
10
86.8883255430698
20
7.92469757055633
30
0
41
1
10
86.9623058435765
20
8.14308753846001
30
0
41
1
10
87.1102664445898
20
8.51315358198909
30
0
41
1
10
87.1842467450965
20
8.66484693748222
30
0
41
1
10
87.33220734611
20
8.90287289477263
30
0
41
1
10
87.4061876466166
20
8.98924109050552
30
0
41
1
10
87.55414824763
20
9.10178326082485
30
0
41
1
10
87.6281285481367
20
9.12799999999999
30
0
41
1
10
87.7021088486435
20
9.12799999999999
30
0
0
SPLINE
5
DA
100
AcDbEntity
8
1
62
256
6
ByLayer
370
13
48
1
60
0
100
AcDbSpline
70
4
71
3
72
22
73
18
40
0
40
0
40
0
40
0
40
0.125
40
0.125
40
0.25
40
0.25
40
0.375
40
0.375
40
0.5
40
0.5
40
0.625
40
0.625
40
0.75
40
0.75
40
0.875
40
0.875
40
1
40
1
40
1
40
1
41
1
10
88.5218287408316
20
9.12799999999999
30
0
41
1
10
88.5908225308644
20
9.12799999999999
30
0
41
1
10
88.6598163208971
20
9.10520796438362
30
0
41
1
10
88.7978039009627
20
9.00775861761102
30
0
41
1
10
88.8667976909954
20
8.93307102733365
30
0
41
1
10
89.004785271061
20
8.72737534379547
30
0
41
1
10
89.0737790610938
20
8.59634094260238
30
0
41
1
10
89.2117666411593
20
8.27625272533174
30
0
41
1
10
89.2807604311921
20
8.08718348377019
30
0
41
1
10
89.4187480112577
20
7.65273585855252
30
0
41
1
10
89.4877418012904
20
7.40735857574762
30
0
41
1
10
89.625729381356
20
6.86564856178134
30
0
41
1
10
89.6947231713887
20
6.5693353826544
30
0
41
1
10
89.8327107514542
20
5.9344437352691
30
0
41
1
10
89.901704541487
20
5.59590015238567
30
0
41
1
10
90.0396921215526
20
4.88774070186875
30
0
41
1
10
90.1086859115854
20
4.51816764296808
30
0
41
1
10
90.1776797016182
20
4.13930771358983
30
0
0
SPLINE
5
DB
100
AcDbEntity
8
1
62
256
6
ByLayer
370
13
48
1
60
0
100
AcDbSpline
70
4
71
3
72
80
73
76
40
0
40
0
40
0
40
0
40
0.0312499999999974
40
0.0312499999999974
40
0.0624999999999947
40
0.0624999999999947
40
0.0937499999999921
40
0.0937499999999921
40
0.124999999999989
40
0.124999999999989
40
0.156249999999987
40
0.156249999999987
40
0.187499999999984
40
0.187499999999984
40
0.218749999999981
40
0.218749999999981
40
0.249999999999979
40
0.249999999999979
40
0.265624999999978
40
0.265624999999978
40
0.273437499999977
40
0.273437499999977
40
0.277343749999977
40
0.277343749999977
40
0.281249999999977
40
0.281249999999977
40
0.312499999999978
40
0.312499999999978
40
0.343749999999978
40
0.343749999999978
40
0.374999999999979
40
0.374999999999979
40
0.40624999999998
40
0.40624999999998
40
0.43749999999998
40
0.43749999999998
40
0.468749999999981
40
0.468749999999981
40
0.499999999999982
40
0.499999999999982
40
0.531249999999982
40
0.531249999999982
40
0.562499999999983
40
0.562499999999983
40
0.593749999999983
40
0.593749999999983
40
0.624999999999984
40
0.624999999999984
40
0.632812499999984
40
0.632812499999984
40
0.640624999999984
40
0.640624999999984
40
0.656249999999985
40
0.656249999999985
40
0.687499999999986
40
0.687499999999986
40
0.718749999999987
40
0.718749999999987
40
0.749999999999989
40
0.749999999999989
40
0.78124999999999
40
0.78124999999999
40
0.812499999999992
40
0.812499999999992
40
0.843749999999993
40
0.843749999999993
40
0.874999999999995
40
0.874999999999995
40
0.906249999999996
40
0.906249999999996
40
0.937499999999997
40
0.937499999999997
40
0.968749999999999
40
0.968749999999999
40
1
40
1
40
1
40
1
41
1
10
80.6
20
-3.23399957844171
30
0
41
1
10
80.668822860232
20
-3.62257052661002
30
0
41
1
10
80.7376457204641
20
-4.00680862357078
30
0
41
1
10
80.875291440928
20
-4.75419044396833
30
0
41
1
10
80.94411430116
20
-5.11729207081916
30
0
41
1
10
81.0817600216241
20
-5.81016004820421
30
0
41
1
10
81.1505828818561
20
-6.13988502614581
30
0
41
1
10
81.28822860232
20
-6.75530164876903
30
0
41
1
10
81.357051462552
20
-7.04096150083922
30
0
41
1
10
81.4946971830159
20
-7.56022380348207
30
0
41
1
10
81.563520043248
20
-7.79381061114932
30
0
41
1
10
81.701165763712
20
-8.20431021517635
30
0
41
1
10
81.769988623944
20
-8.38122554973856
30
0
41
1
10
81.9076343444079
20
-8.67737265895232
30
0
41
1
10
81.9764572046399
20
-8.79662235600082
30
0
41
1
10
82.114102925104
20
-8.97971387676836
30
0
41
1
10
82.182925785336
20
-9.04358300320132
30
0
41
1
10
82.2861600756839
20
-9.10147379783592
30
0
41
1
10
82.3205715058
20
-9.1144693512102
30
0
41
1
10
82.3721886509741
20
-9.12508929460108
30
0
41
1
10
82.389394366032
20
-9.12715111495694
30
0
41
1
10
82.415202938619
20
-9.12810469783543
30
0
41
1
10
82.423805796148
20
-9.12806789813575
30
0
41
1
10
82.4410115112059
20
-9.12728289691867
30
0
41
1
10
82.449614368735
20
-9.12653321210576
30
0
41
1
10
82.527040086496
20
-9.11651232835018
30
0
41
1
10
82.5958629467279
20
-9.08426327606665
30
0
41
1
10
82.7335086671919
20
-8.96713724191679
30
0
41
1
10
82.8023315274239
20
-8.88223059609481
30
0
41
1
10
82.9399772478878
20
-8.65582383910612
30
0
41
1
10
83.0088001081199
20
-8.51429925032616
30
0
41
1
10
83.1464458285839
20
-8.17356523269973
30
0
41
1
10
83.2152686888159
20
-7.97434326303869
30
0
41
1
10
83.3529144092799
20
-7.52057834006115
30
0
41
1
10
83.4217372695119
20
-7.26603981828461
30
0
41
1
10
83.5593829899759
20
-6.70759911336077
30
0
41
1
10
83.6282058502079
20
-6.40371936084048
30
0
41
1
10
83.7658515706719
20
-5.75574327612009
30
0
41
1
10
83.8346744309039
20
-5.41168342583921
30
0
41
1
10
83.9723201513679
20
-4.69478029150898
30
0
41
1
10
84.0411430115999
20
-4.3219797361138
30
0
41
1
10
84.1787887320639
20
-3.56009336541899
30
0
41
1
10
84.2476115922959
20
-3.17104762000389
30
0
41
1
10
84.3852573127599
20
-2.38895797639319
30
0
41
1
10
84.4540801729919
20
-1.99594445654958
30
0
41
1
10
84.5917258934559
20
-1.21691414695789
30
0
41
1
10
84.660548753688
20
-0.830914665392072
30
0
41
1
10
84.7465773289779
20
-0.358399481521047
30
0
41
1
10
84.7637830440359
20
-0.264390179096921
30
0
41
1
10
84.798194474152
20
-0.0774764287184553
30
0
41
1
10
84.8154001892099
20
0.0150482168728558
30
0
41
1
10
84.8670173343839
20
0.294668956639271
30
0
41
1
10
84.9014287644998
20
0.483347108443894
30
0
41
1
10
85.0046630548478
20
1.05473560799757
30
0
41
1
10
85.0734859150799
20
1.44286677786903
30
0
41
1
10
85.2111316355439
20
2.22417312658874
30
0
41
1
10
85.2799544957759
20
2.61732838350014
30
0
41
1
10
85.4176002162399
20
3.39739363281748
30
0
41
1
10
85.4864230764718
20
3.78427097721232
30
0
41
1
10
85.6240687969358
20
4.53937592638505
30
0
41
1
10
85.6928916571678
20
4.90756230179824
30
0
41
1
10
85.8305373776319
20
5.61289385711416
30
0
41
1
10
85.8993602378638
20
5.9499968131303
30
0
41
1
10
86.0370059583278
20
6.5820670234699
30
0
41
1
10
86.1058288185599
20
6.87700000018037
30
0
41
1
10
86.2434745390238
20
7.41611482791916
30
0
41
1
10
86.3122973992558
20
7.66027758453706
30
0
41
1
10
86.4499431197198
20
8.09254120630246
30
0
41
1
10
86.5187659799518
20
8.28064116346354
30
0
41
1
10
86.6564117004158
20
8.59908000383973
30
0
41
1
10
86.7252345606478
20
8.72943422737444
30
0
41
1
10
86.8628802811118
20
8.93406563572992
30
0
41
1
10
86.9317031413437
20
9.00836884211125
30
0
41
1
10
87.0693488618078
20
9.10532106974517
30
0
41
1
10
87.1381717220398
20
9.12799999999999
30
0
41
1
10
87.2069945822718
20
9.12799999999999
30
0
0
SPLINE
5
DC
100
AcDbEntity
8
1
62
256
6
ByLayer
370
13
48
1
60
0
100
AcDbSpline
70
4
71
3
72
22
73
18
40
0
40
0
40
0
40
0
40
0.125
40
0.125
40
0.25
40
0.25
40
0.375
40
0.375
40
0.5
40
0.5
40
0.625
40
0.625
40
0.75
40
0.75
40
0.875
40
0.875
40
1
40
1
40
1
40
1
41
1
10
88.0267144744599
20
9.12799999999999
30
0
41
1
10
88.1163380255915
20
9.12799999999999
30
0
41
1
10
88.205961576723
20
9.08946245297236
30
0
41
1
10
88.3852086789863
20
8.92206975451614
30
0
41
1
10
88.4748322301178
20
8.79310519950803
30
0
41
1
10
88.654079332381
20
8.43752392830476
30
0
41
1
10
88.7437028835126
20
8.2108317933984
30
0
41
1
10
88.9229499857757
20
7.6615114144127
30
0
41
1
10
89.0125735369074
20
7.33888062906146
30
0
41
1
10
89.1918206391706
20
6.60975655928846
30
0
41
1
10
89.2814441903023
20
6.20334770454051
30
0
41
1
10
89.4606912925655
20
5.32788907602367
30
0
41
1
10
89.550314843697
20
4.85898586123727
30
0
41
1
10
89.7295619459602
20
3.88531028951309
30
0
41
1
10
89.8191854970918
20
3.38069445787809
30
0
41
1
10
89.9984325993551
20
2.36315528022274
30
0
41
1
10
90.0880561504866
20
1.85034873851996
30
0
41
1
10
90.1776797016182
20
1.34542675704506
30
0
0
SPLINE
5
DD
100
AcDbEntity
8
1
62
256
6
ByLayer
370
13
48
1
60
0
100
AcDbSpline
70
4
71
3
72
78
73
74
40
0
40
0
40
0
40
0
40
0.0312499999999992
40
0.0312499999999992
40
0.0624999999999984
40
0.0624999999999984
40
0.0937499999999975
40
0.0937499999999975
40
0.124999999999997
40
0.124999999999997
40
0.156249999999996
40
0.156249999999996
40
0.187499999999995
40
0.187499999999995
40
0.203124999999995
40
0.203124999999995
40
0.210937499999995
40
0.210937499999995
40
0.218749999999995
40
0.218749999999995
40
0.249999999999994
40
0.249999999999994
40
0.281249999999994
40
0.281249999999994
40
0.312499999999993
40
0.312499999999993
40
0.343749999999993
40
0.343749999999993
40
0.374999999999992
40
0.374999999999992
40
0.406249999999992
40
0.406249999999992
40
0.437499999999991
40
0.437499999999991
40
0.468749999999991
40
0.468749999999991
40
0.499999999999991
40
0.499999999999991
40
0.53124999999999
40
0.53124999999999
40
0.562499999999989
40
0.562499999999989
40
0.593749999999989
40
0.593749999999989
40
0.601562499999989
40
0.601562499999989
40
0.609374999999989
40
0.609374999999989
40
0.62499999999999
40
0.62499999999999
40
0.656249999999991
40
0.656249999999991
40
0.687499999999992
40
0.687499999999992
40
0.718749999999992
40
0.718749999999992
40
0.749999999999993
40
0.749999999999993
40
0.781249999999994
40
0.781249999999994
40
0.812499999999995
40
0.812499999999995
40
0.843749999999996
40
0.843749999999996
40
0.874999999999997
40
0.874999999999997
40
0.906249999999997
40
0.906249999999997
40
0.937499999999998
40
0.937499999999998
40
0.968749999999999
40
0.968749999999999
40
1
40
1
40
1
40
1
41
1
10
80.6
20
-5.86912115172029
30
0
41
1
10
80.6636654199573
20
-6.1765207609661
30
0
41
1
10
80.7273308399146
20
-6.4677071599381
30
0
41
1
10
80.8546616798292
20
-7.00991638281644
30
0
41
1
10
80.9183270997866
20
-7.26092082049851
30
0
41
1
10
81.0456579397012
20
-7.71714812667236
30
0
41
1
10
81.1093233596583
20
-7.92236345775191
30
0
41
1
10
81.2366541995729
20
-8.28396457411512
30
0
41
1
10
81.3003196195302
20
-8.44035411712335
30
0
41
1
10
81.4276504594447
20
-8.70388151155674
30
0
41
1
10
81.4913158794021
20
-8.81103235971631
30
0
41
1
10
81.6186467193166
20
-8.97802471256645
30
0
41
1
10
81.682312139274
20
-9.0378848371696
30
0
41
1
10
81.77781026921
20
-9.09505624937492
30
0
41
1
10
81.8096429791886
20
-9.10868972848237
30
0
41
1
10
81.8573920441566
20
-9.12145479265723
30
0
41
1
10
81.8733083991459
20
-9.12442951622864
30
0
41
1
10
81.9051411091244
20
-9.12789936282991
30
0
41
1
10
81.9210574641138
20
-9.1283996187843
30
0
41
1
10
82.0006392390605
20
-9.12485081471897
30
0
41
1
10
82.0643046590177
20
-9.10241332367812
30
0
41
1
10
82.1916354989323
20
-9.01343598712796
30
0
41
1
10
82.2553009188896
20
-8.94687585001546
30
0
41
1
10
82.3826317588041
20
-8.76606866650232
30
0
41
1
10
82.4462971787616
20
-8.65180356994736
30
0
41
1
10
82.5736280186761
20
-8.37395039271382
30
0
41
1
10
82.6372934386335
20
-8.21035046146366
30
0
41
1
10
82.7646242785479
20
-7.83460405722229
30
0
41
1
10
82.8282896985053
20
-7.62245539844875
30
0
41
1
10
82.9556205384198
20
-7.15302340912848
30
0
41
1
10
83.0192859583772
20
-6.89574929259942
30
0
41
1
10
83.1466167982917
20
-6.34201276460107
30
0
41
1
10
83.2102822182489
20
-6.04557012117033
30
0
41
1
10
83.3376130581636
20
-5.42153670715197
30
0
41
1
10
83.4012784781209
20
-5.09397285180626
30
0
41
1
10
83.5286093180355
20
-4.41711531604224
30
0
41
1
10
83.5922747379928
20
-4.06785070804156
30
0
41
1
10
83.7196055779074
20
-3.35752805044228
30
0
41
1
10
83.7832709978646
20
-2.99649617947705
30
0
41
1
10
83.9106018377792
20
-2.27224572667933
30
0
41
1
10
83.9742672577364
20
-1.90904670740304
30
0
41
1
10
84.101598097651
20
-1.18904016298978
30
0
41
1
10
84.1652635176084
20
-0.832243912595629
30
0
41
1
10
84.2448452925551
20
-0.39466991581196
30
0
41
1
10
84.2607616475443
20
-0.307572168925105
30
0
41
1
10
84.2925943575229
20
-0.134304727032657
30
0
41
1
10
84.3085107125123
20
-0.0483635141832224
30
0
41
1
10
84.3562597774802
20
0.209500164591219
30
0
41
1
10
84.3880924874588
20
0.383393670090896
30
0
41
1
10
84.4835906173948
20
0.909916835730172
30
0
41
1
10
84.5472560373522
20
1.26743932091588
30
0
41
1
10
84.6745868772667
20
1.98832019046165
30
0
41
1
10
84.738252297224
20
2.3516666846331
30
0
41
1
10
84.8655831371386
20
3.07553995130564
30
0
41
1
10
84.9292485570959
20
3.43604659592719
30
0
41
1
10
85.0565793970105
20
4.14459613458808
30
0
41
1
10
85.1202448169678
20
4.49261249074678
30
0
41
1
10
85.2475756568824
20
5.16625826712513
30
0
41
1
10
85.3112410768396
20
5.4918585930161
30
0
41
1
10
85.4385719167542
20
6.11132121534345
30
0
41
1
10
85.5022373367115
20
6.405156960027
30
0
41
1
10
85.6295681766261
20
6.95316655074703
30
0
41
1
10
85.6932335965834
20
7.20732131080888
30
0
41
1
10
85.8205644364979
20
7.67017505504498
30
0
41
1
10
85.8842298564552
20
7.87886566180177
30
0
41
1
10
86.0115606963699
20
8.24754956599747
30
0
41
1
10
86.0752261163271
20
8.40754584045519
30
0
41
1
10
86.2025569562418
20
8.67823278147358
30
0
41
1
10
86.266222376199
20
8.78893588140878
30
0
41
1
10
86.3935532161136
20
8.96282078004666
30
0
41
1
10
86.4572186360708
20
9.02602092452628
30
0
41
1
10
86.5845494759855
20
9.10860037903726
30
0
41
1
10
86.6482148959427
20
9.12800000000001
30
0
41
1
10
86.7118803159
20
9.12799999999999
30
0
0
SPLINE
5
DE
100
AcDbEntity
8
1
62
256
6
ByLayer
370
13
48
1
60
0
100
AcDbSpline
70
4
71
3
72
42
73
38
40
0
40
0
40
0
40
0
40
0.0625000000000001
40
0.0625000000000001
40
0.125
40
0.125
40
0.1875
40
0.1875
40
0.25
40
0.25
40
0.3125
40
0.3125
40
0.375
40
0.375
40
0.4375
40
0.4375
40
0.5
40
0.5
40
0.562500000000001
40
0.562500000000001
40
0.625000000000001
40
0.625000000000001
40
0.687500000000001
40
0.687500000000001
40
0.750000000000001
40
0.750000000000001
40
0.812500000000001
40
0.812500000000001
40
0.875000000000001
40
0.875000000000001
40
0.890625000000001
40
0.890625000000001
40
0.906250000000001
40
0.906250000000001
40
0.9375
40
0.9375
40
1
40
1
40
1
40
1
41
1
10
87.5316002080881
20
9.12799999999999
30
0
41
1
10
87.5867268642034
20
9.12799999999999
30
0
41
1
10
87.6418535203185
20
9.11346335182694
30
0
41
1
10
87.752106832549
20
9.05203748232879
30
0
41
1
10
87.8072334886642
20
9.00513836160161
30
0
41
1
10
87.9174868008947
20
8.87638301861773
30
0
41
1
10
87.9726134570098
20
8.79451740438466
30
0
41
1
10
88.0828667692402
20
8.5942120371121
30
0
41
1
10
88.1379934253554
20
8.47576481935494
30
0
41
1
10
88.2482467375858
20
8.2019252426218
30
0
41
1
10
88.303373393701
20
8.0465287682504
30
0
41
1
10
88.4136267059314
20
7.69984480134704
30
0
41
1
10
88.4687533620468
20
7.50855762609481
30
0
41
1
10
88.5790066742771
20
7.09263219464606
30
0
41
1
10
88.6341333303923
20
6.8679991077862
30
0
41
1
10
88.7443866426228
20
6.38932616239873
30
0
41
1
10
88.799513298738
20
6.13529589275348
30
0
41
1
10
88.9097666109683
20
5.60295334735949
30
0
41
1
10
88.9648932670835
20
5.32465383416761
30
0
41
1
10
89.075146579314
20
4.74973720146997
30
0
41
1
10
89.1302732354292
20
4.45313423030456
30
0
41
1
10
89.2405265476596
20
3.84800374565216
30
0
41
1
10
89.2956532037748
20
3.53948985273348
30
0
41
1
10
89.4059065160052
20
2.91693534866735
30
0
41
1
10
89.4610331721204
20
2.60290620950172
30
0
41
1
10
89.5712864843509
20
1.97534153175832
30
0
41
1
10
89.6264131404661
20
1.66181427772031
30
0
41
1
10
89.7366664526966
20
1.04059640938789
30
0
41
1
10
89.7917931088117
20
0.732910530300444
30
0
41
1
10
89.8607014289557
20
0.354744624761707
30
0
41
1
10
89.8744830929845
20
0.279431231639279
30
0
41
1
10
89.9020464210421
20
0.129504441982931
30
0
41
1
10
89.9158280850709
20
0.0550045496609357
30
0
41
1
10
89.9571730771572
20
-0.168092195675712
30
0
41
1
10
89.9847364052149
20
-0.318319385193405
30
0
41
1
10
90.0674263893877
20
-0.772778831873609
30
0
41
1
10
90.1225530455029
20
-1.08081779363147
30
0
41
1
10
90.1776797016181
20
-1.39167254129276
30
0
0
SPLINE
5
DF
100
AcDbEntity
8
1
62
256
6
ByLayer
370
13
48
1
60
0
100
AcDbSpline
70
4
71
3
72
78
73
74
40
0
40
0
40
0
40
0
40
0.0312500000000024
40
0.0312500000000024
40
0.0625000000000049
40
0.0625000000000049
40
0.0937500000000073
40
0.0937500000000073
40
0.12500000000001
40
0.12500000000001
40
0.140625000000011
40
0.140625000000011
40
0.148437500000011
40
0.148437500000011
40
0.156250000000012
40
0.156250000000012
40
0.187500000000012
40
0.187500000000012
40
0.218750000000013
40
0.218750000000013
40
0.250000000000013
40
0.250000000000013
40
0.281250000000014
40
0.281250000000014
40
0.312500000000014
40
0.312500000000014
40
0.343750000000015
40
0.343750000000015
40
0.375000000000015
40
0.375000000000015
40
0.406250000000016
40
0.406250000000016
40
0.437500000000016
40
0.437500000000016
40
0.468750000000017
40
0.468750000000017
40
0.500000000000017
40
0.500000000000017
40
0.531250000000018
40
0.531250000000018
40
0.562500000000018
40
0.562500000000018
40
0.570312500000018
40
0.570312500000018
40
0.578125000000018
40
0.578125000000018
40
0.593750000000018
40
0.593750000000018
40
0.625000000000016
40
0.625000000000016
40
0.656250000000015
40
0.656250000000015
40
0.687500000000014
40
0.687500000000014
40
0.718750000000012
40
0.718750000000012
40
0.750000000000011
40
0.750000000000011
40
0.78125000000001
40
0.78125000000001
40
0.812500000000008
40
0.812500000000008
40
0.843750000000007
40
0.843750000000007
40
0.875000000000005
40
0.875000000000005
40
0.906250000000004
40
0.906250000000004
40
0.937500000000003
40
0.937500000000003
40
0.968750000000001
40
0.968750000000001
40
1
40
1
40
1
40
1
41
1
10
80.6
20
-7.86995740954364
30
0
41
1
10
80.6585079796826
20
-8.05416728961092
30
0
41
1
10
80.7170159593651
20
-8.21816030614673
30
0
41
1
10
80.8340319187303
20
-8.50448526122091
30
0
41
1
10
80.8925398984129
20
-8.62682302564792
30
0
41
1
10
81.0095558577781
20
-8.83041148772037
30
0
41
1
10
81.0680638374607
20
-8.91167263077671
30
0
41
1
10
81.1850797968259
20
-9.03523280895249
30
0
41
1
10
81.2435877765085
20
-9.07754473554823
30
0
41
1
10
81.3313497460324
20
-9.11427894461531
30
0
41
1
10
81.3606037358736
20
-9.1220761230822
30
0
41
1
10
81.4044847206355
20
-9.12746895975536
30
0
41
1
10
81.4191117155563
20
-9.12821743236907
30
0
41
1
10
81.4483657053975
20
-9.12767483452276
30
0
41
1
10
81.4629927003182
20
-9.12637719805585
30
0
41
1
10
81.5361276749214
20
-9.11459614006549
30
0
41
1
10
81.594635654604
20
-9.08820321080421
30
0
41
1
10
81.7116516139691
20
-8.99779751864207
30
0
41
1
10
81.7701595936517
20
-8.93377147778298
30
0
41
1
10
81.887175553017
20
-8.76540650544112
30
0
41
1
10
81.9456835326995
20
-8.66105579302535
30
0
41
1
10
82.0626994920647
20
-8.4107486054161
30
0
41
1
10
82.1212074717473
20
-8.26478405142524
30
0
41
1
10
82.2382234311124
20
-7.93166303471159
30
0
41
1
10
82.2967314107951
20
-7.74450416196754
30
0
41
1
10
82.4137473701602
20
-7.33127955249461
30
0
41
1
10
82.4722553498428
20
-7.1052182132386
30
0
41
1
10
82.589271309208
20
-6.6183184486768
30
0
41
1
10
82.6477792888905
20
-6.35749109221672
30
0
41
1
10
82.7647952482557
20
-5.80679990956142
30
0
41
1
10
82.8233032279383
20
-5.51695231809722
30
0
41
1
10
82.9403191873035
20
-4.9151554628626
30
0
41
1
10
82.9988271669861
20
-4.6032250631315
30
0
41
1
10
83.1158431263513
20
-3.96485449392131
30
0
41
1
10
83.1743511060338
20
-3.63843291021277
30
0
41
1
10
83.2913670653991
20
-2.97875591179098
30
0
41
1
10
83.3498750450816
20
-2.64551625445392
30
0
41
1
10
83.4668910044468
20
-1.97943864197052
30
0
41
1
10
83.5253989841293
20
-1.64661195660756
30
0
41
1
10
83.6424149434945
20
-0.987744530793435
30
0
41
1
10
83.7009229231771
20
-0.661709996489748
30
0
41
1
10
83.7740578977803
20
-0.261701519969876
30
0
41
1
10
83.788684892701
20
-0.182073643799782
30
0
41
1
10
83.8179388825423
20
-0.0236358529727738
30
0
41
1
10
83.8325658774629
20
0.0550297964680908
30
0
41
1
10
83.8764468622249
20
0.293009573823156
30
0
41
1
10
83.9057008520662
20
0.453282999386289
30
0
41
1
10
83.99346282159
20
0.938083724982562
30
0
41
1
10
84.0519708012727
20
1.26662719401665
30
0
41
1
10
84.1689867606378
20
1.92881244529661
30
0
41
1
10
84.2274947403204
20
2.26244658958652
30
0
41
1
10
84.3445106996856
20
2.92816452604879
30
0
41
1
10
84.4030186793682
20
3.26023567254478
30
0
41
1
10
84.5200346387333
20
3.91542810441183
30
0
41
1
10
84.5785426184159
20
4.23853261789091
30
0
41
1
10
84.6955585777811
20
4.86808722456885
30
0
41
1
10
84.7540665574637
20
5.17451836646114
30
0
41
1
10
84.8710825168288
20
5.76326103158954
30
0
41
1
10
84.9295904965114
20
6.04555414211001
30
0
41
1
10
85.0466064558765
20
6.57936646211644
30
0
41
1
10
85.1051144355591
20
6.83087067638184
30
0
41
1
10
85.2221303949243
20
7.29777396997812
30
0
41
1
10
85.2806383746069
20
7.51316377319279
30
0
41
1
10
85.3976543339721
20
7.90420220251883
30
0
41
1
10
85.4561623136547
20
8.07984840537497
30
0
41
1
10
85.5731782730198
20
8.38963738938492
30
0
41
1
10
85.6316862527025
20
8.52378434743889
30
0
41
1
10
85.7487022120677
20
8.75065781801845
30
0
41
1
10
85.8072101917502
20
8.84339367847068
30
0
41
1
10
85.9242261511154
20
8.98916380715181
30
0
41
1
10
85.982734130798
20
9.04221050008746
30
0
41
1
10
86.0997500901632
20
9.11162193171765
30
0
41
1
10
86.1582580698457
20
9.12799999999999
30
0
41
1
10
86.2167660495283
20
9.12799999999999
30
0
0
SPLINE
5
E0
100
AcDbEntity
8
1
62
256
6
ByLayer
370
13
48
1
60
0
100
AcDbSpline
70
4
71
3
72
42
73
38
40
0
40
0
40
0
40
0
40
0.0624999999999999
40
0.0624999999999999
40
0.125
40
0.125
40
0.1875
40
0.1875
40
0.249999999999999
40
0.249999999999999
40
0.312499999999999
40
0.312499999999999
40
0.374999999999999
40
0.374999999999999
40
0.437499999999999
40
0.437499999999999
40
0.499999999999999
40
0.499999999999999
40
0.562499999999999
40
0.562499999999999
40
0.624999999999999
40
0.624999999999999
40
0.687499999999999
40
0.687499999999999
40
0.749999999999999
40
0.749999999999999
40
0.765624999999998
40
0.765624999999998
40
0.781249999999998
40
0.781249999999998
40
0.812499999999998
40
0.812499999999998
40
0.874999999999999
40
0.874999999999999
40
0.937499999999999
40
0.937499999999999
40
1
40
1
40
1
40
1
41
1
10
87.0364859417165
20
9.12799999999999
30
0
41
1
10
87.1019274783811
20
9.12799999999999
30
0
41
1
10
87.1673690150457
20
9.10750018638063
30
0
41
1
10
87.2982520883749
20
9.02010768816109
30
0
41
1
10
87.3636936250394
20
8.95319171343613
30
0
41
1
10
87.4945766983687
20
8.76901640090804
30
0
41
1
10
87.5600182350334
20
8.65173628124637
30
0
41
1
10
87.6909013083627
20
8.3650465113964
30
0
41
1
10
87.7563428450272
20
8.1956233741451
30
0
41
1
10
87.8872259183565
20
7.80555855141597
30
0
41
1
10
87.9526674550211
20
7.58491484855915
30
0
41
1
10
88.0835505283503
20
7.09626441796811
30
0
41
1
10
88.148992065015
20
6.8282691311594
30
0
41
1
10
88.2798751383441
20
6.25157913823978
30
0
41
1
10
88.3453166750088
20
5.94290808564495
30
0
41
1
10
88.476199748338
20
5.29380364341372
30
0
41
1
10
88.5416412850027
20
4.95340175163904
30
0
41
1
10
88.6725243583319
20
4.25119938053717
30
0
41
1
10
88.7379658949965
20
3.8894320950636
30
0
41
1
10
88.8688489683258
20
3.15529428018689
30
0
41
1
10
88.9342905049904
20
2.78295267799342
30
0
41
1
10
89.0651735783196
20
2.03793926004818
30
0
41
1
10
89.1306151149843
20
1.6652880047485
30
0
41
1
10
89.2614981883136
20
0.928650016171162
30
0
41
1
10
89.3269397249781
20
0.564673976988701
30
0
41
1
10
89.4087416458087
20
0.119646894859215
30
0
41
1
10
89.425102029975
20
0.0314426175686719
30
0
41
1
10
89.4578227983072
20
-0.145414870558824
30
0
41
1
10
89.4741831824734
20
-0.234363486923144
30
0
41
1
10
89.523264334972
20
-0.502622700051347
30
0
41
1
10
89.5559851033044
20
-0.683350357199089
30
0
41
1
10
89.6541474083014
20
-1.22989328893993
30
0
41
1
10
89.7195889449658
20
-1.60012144694923
30
0
41
1
10
89.850472018295
20
-2.34399631238733
30
0
41
1
10
89.9159135549598
20
-2.71762629661868
30
0
41
1
10
90.046796628289
20
-3.45847653451335
30
0
41
1
10
90.1122381649536
20
-3.82567079502334
30
0
41
1
10
90.1776797016182
20
-4.18431836954619
30
0
0
SPLINE
5
E1
100
AcDbEntity
8
1
62
256
6
ByLayer
370
13
48
1
60
0
100
AcDbSpline
70
4
71
3
72
76
73
72
40
0
40
0
40
0
40
0
40
0.0312499999999971
40
0.0312499999999971
40
0.0624999999999943
40
0.0624999999999943
40
0.0703124999999937
40
0.0703124999999937
40
0.0781249999999931
40
0.0937499999999925
40
0.0937499999999925
40
0.124999999999992
40
0.124999999999992
40
0.156249999999991
40
0.156249999999991
40
0.18749999999999
40
0.18749999999999
40
0.218749999999989
40
0.218749999999989
40
0.249999999999989
40
0.249999999999989
40
0.281249999999988
40
0.281249999999988
40
0.312499999999987
40
0.312499999999987
40
0.343749999999986
40
0.343749999999986
40
0.374999999999986
40
0.374999999999986
40
0.406249999999985
40
0.406249999999985
40
0.437499999999984
40
0.437499999999984
40
0.468749999999984
40
0.468749999999984
40
0.499999999999983
40
0.499999999999983
40
0.531249999999982
40
0.531249999999982
40
0.539062499999982
40
0.539062499999982
40
0.546874999999982
40
0.562499999999982
40
0.562499999999982
40
0.593749999999984
40
0.593749999999984
40
0.624999999999985
40
0.624999999999985
40
0.656249999999986
40
0.656249999999986
40
0.687499999999988
40
0.687499999999988
40
0.718749999999989
40
0.718749999999989
40
0.74999999999999
40
0.74999999999999
40
0.781249999999991
40
0.781249999999991
40
0.812499999999993
40
0.812499999999993
40
0.843749999999994
40
0.843749999999994
40
0.874999999999995
40
0.874999999999995
40
0.906249999999996
40
0.906249999999996
40
0.937499999999998
40
0.937499999999998
40
0.968749999999999
40
0.968749999999999
40
1
40
1
40
1
40
1
41
1
10
80.6
20
-8.93835628335151
30
0
41
1
10
80.6533505394079
20
-9.00107883157031
30
0
41
1
10
80.7067010788158
20
-9.04742048622077
30
0
41
1
10
80.8134021576316
20
-9.10966339389356
30
0
41
1
10
80.8667526970394
20
-9.12557305810049
30
0
41
1
10
80.9334408712992
20
-9.1282843078975
30
0
41
1
10
80.9467785061513
20
-9.12797631252633
30
0
41
1
10
80.9734537758552
20
-9.12563399704408
30
0
41
1
10
81.0134666804111
20
-9.11952122491735
30
0
41
1
10
81.053479584967
20
-9.10539047462109
30
0
41
1
10
81.1335053940788
20
-9.06589410018233
30
0
41
1
10
81.1868559334868
20
-9.02456046573542
30
0
41
1
10
81.2935570123025
20
-8.90945092239051
30
0
41
1
10
81.3469075517103
20
-8.8356669057022
30
0
41
1
10
81.4536086305261
20
-8.65403389719881
30
0
41
1
10
81.506959169934
20
-8.54617819050273
30
0
41
1
10
81.6136602487499
20
-8.29583684256133
30
0
41
1
10
81.6670107881577
20
-8.15334703040668
30
0
41
1
10
81.7737118669734
20
-7.83439795701327
30
0
41
1
10
81.8270624063813
20
-7.65793801093466
30
0
41
1
10
81.9337634851971
20
-7.27301077484915
30
0
41
1
10
81.987114024605
20
-7.06454676590829
30
0
41
1
10
82.0938151034208
20
-6.61883749690543
30
0
41
1
10
82.1471656428287
20
-6.38159932834333
30
0
41
1
10
82.2538667216444
20
-5.88267496392126
30
0
41
1
10
82.3072172610523
20
-5.62099885849295
30
0
41
1
10
82.4139183398681
20
-5.07837748948364
30
0
41
1
10
82.4672688792758
20
-4.79744400196498
30
0
41
1
10
82.5739699580915
20
-4.22199890043518
30
0
41
1
10
82.6273204974995
20
-3.92749921911783
30
0
41
1
10
82.7340215763153
20
-3.33076327902987
30
0
41
1
10
82.7873721157231
20
-3.02853769036508
30
0
41
1
10
82.8940731945389
20
-2.42199767000514
30
0
41
1
10
82.9474237339468
20
-2.1176916003374
30
0
41
1
10
83.0541248127626
20
-1.51215541721069
30
0
41
1
10
83.1074753521704
20
-1.2109308211829
30
0
41
1
10
83.2141764309862
20
-0.616029659971474
30
0
41
1
10
83.2675269703941
20
-0.32235573403733
30
0
41
1
10
83.334215144654
20
0.0377333427220492
30
0
41
1
10
83.3475527795059
20
0.109713315664152
30
0
41
1
10
83.3742280492098
20
0.254674890234583
30
0
41
1
10
83.4142409537657
20
0.473107956479595
30
0
41
1
10
83.4542538583216
20
0.694274166879438
30
0
41
1
10
83.5342796674335
20
1.13953957712343
30
0
41
1
10
83.5876302068414
20
1.44031779686824
30
0
41
1
10
83.6943312856571
20
2.04534333933611
30
0
41
1
10
83.7476818250651
20
2.34958537799034
30
0
41
1
10
83.8543829038808
20
2.95642796687639
30
0
41
1
10
83.9077334432886
20
3.25902036833958
30
0
41
1
10
84.0144345221044
20
3.856949400416
30
0
41
1
10
84.0677850615123
20
4.15227551220747
30
0
41
1
10
84.174486140328
20
4.72983646158991
30
0
41
1
10
84.2278366797359
20
5.01205941839854
30
0
41
1
10
84.3345377585517
20
5.55769773469046
30
0
41
1
10
84.3878882979595
20
5.82110124922039
30
0
41
1
10
84.4945893767754
20
6.323865155665
30
0
41
1
10
84.5479399161833
20
6.56321527041988
30
0
41
1
10
84.654640994999
20
7.01345543591248
30
0
41
1
10
84.7079915344069
20
7.22433811935352
30
0
41
1
10
84.8146926132226
20
7.61431462697581
30
0
41
1
10
84.8680431526305
20
7.7934048528829
30
0
41
1
10
84.9747442314463
20
8.11772305837658
30
0
41
1
10
85.0280947708542
20
8.26295141784422
30
0
41
1
10
85.1347958496699
20
8.51877635453152
30
0
41
1
10
85.1881463890778
20
8.62937685570893
30
0
41
1
10
85.2948474678936
20
8.81641358442644
30
0
41
1
10
85.3481980073016
20
8.89285636585151
30
0
41
1
10
85.4548990861172
20
9.01312113114429
30
0
41
1
10
85.5082496255251
20
9.05695115471872
30
0
41
1
10
85.6149507043409
20
9.11438638762544
30
0
41
1
10
85.6683012437487
20
9.12799999999999
30
0
41
1
10
85.7216517831566
20
9.12799999999999
30
0
0
SPLINE
5
E2
100
AcDbEntity
8
1
62
256
6
ByLayer
370
13
48
1
60
0
100
AcDbSpline
70
4
71
3
72
43
73
39
40
0
40
0
40
0
40
0
40
0.0624999999999999
40
0.0624999999999999
40
0.125
40
0.125
40
0.1875
40
0.1875
40
0.25
40
0.25
40
0.3125
40
0.3125
40
0.375
40
0.375
40
0.4375
40
0.4375
40
0.5
40
0.5
40
0.5625
40
0.5625
40
0.625
40
0.625
40
0.65625
40
0.65625
40
0.6640625
40
0.6640625
40
0.671875
40
0.6875
40
0.6875
40
0.75
40
0.75
40
0.8125
40
0.8125
40
0.875
40
0.875
40
0.9375
40
0.9375
40
1
40
1
40
1
40
1
41
1
10
86.5413716753447
20
9.12799999999999
30
0
41
1
10
86.6171280925588
20
9.12799999999999
30
0
41
1
10
86.6928845097727
20
9.10050492474585
30
0
41
1
10
86.8443973442008
20
8.98230996996273
30
0
41
1
10
86.9201537614149
20
8.8915620170194
30
0
41
1
10
87.071666595843
20
8.64142067180174
30
0
41
1
10
87.147423013057
20
8.48198794200988
30
0
41
1
10
87.298935847485
20
8.09326070885692
30
0
41
1
10
87.374692264699
20
7.86394868303941
30
0
41
1
10
87.5262050991271
20
7.3393734128706
30
0
41
1
10
87.6019615163411
20
7.0441235361277
30
0
41
1
10
87.7534743507692
20
6.39680058292169
30
0
41
1
10
87.8292307679833
20
6.04477173530429
30
0
41
1
10
87.9807436024113
20
5.29736174305776
30
0
41
1
10
88.0565000196254
20
4.90204529434041
30
0
41
1
10
88.2080128540533
20
4.08419077168932
30
0
41
1
10
88.2837692712674
20
3.66172111738726
30
0
41
1
10
88.4352821056954
20
2.8062861507718
30
0
41
1
10
88.5110385229094
20
2.3733769299273
30
0
41
1
10
88.6625513573374
20
1.51245817989374
30
0
41
1
10
88.7383077745516
20
1.08448286352922
30
0
41
1
10
88.8519424003727
20
0.455705243104745
30
0
41
1
10
88.8898206089797
20
0.248285973040652
30
0
41
1
10
88.9371683697384
20
-0.007479886165271
30
0
41
1
10
88.9466379218902
20
-0.0584951126827491
30
0
41
1
10
88.9655770261937
20
-0.161099005075187
30
0
41
1
10
88.9939856826489
20
-0.315517487345886
30
0
41
1
10
89.0223943391043
20
-0.471390364135573
30
0
41
1
10
89.1170898606218
20
-0.993795756910401
30
0
41
1
10
89.1928462778358
20
-1.42089901933514
30
0
41
1
10
89.3443591122638
20
-2.28107523156768
30
0
41
1
10
89.4201155294779
20
-2.71411566814106
30
0
41
1
10
89.5716283639059
20
-3.57097093285211
30
0
41
1
10
89.64738478112
20
-3.99473101001382
30
0
41
1
10
89.798897615548
20
-4.81636178818437
30
0
41
1
10
89.874654032762
20
-5.21416446820078
30
0
41
1
10
90.0261668671901
20
-5.96763289215664
30
0
41
1
10
90.1019232844042
20
-6.32323308719822
30
0
41
1
10
90.1776797016182
20
-6.65088370480893
30
0
0
SPLINE
5
E3
100
AcDbEntity
8
1
62
256
6
ByLayer
370
13
48
1
60
0
100
AcDbSpline
70
4
71
3
72
62
73
58
40
0
40
0
40
0
40
0
40
0.062499999999999
40
0.062499999999999
40
0.0937499999999985
40
0.0937499999999985
40
0.124999999999998
40
0.124999999999998
40
0.156249999999998
40
0.156249999999998
40
0.187499999999997
40
0.187499999999997
40
0.218749999999997
40
0.218749999999997
40
0.249999999999996
40
0.249999999999996
40
0.281249999999996
40
0.281249999999996
40
0.312499999999995
40
0.312499999999995
40
0.343749999999995
40
0.343749999999995
40
0.374999999999994
40
0.374999999999994
40
0.437499999999993
40
0.437499999999993
40
0.468749999999993
40
0.468749999999993
40
0.476562499999993
40
0.476562499999993
40
0.484374999999993
40
0.484374999999993
40
0.499999999999993
40
0.499999999999993
40
0.562499999999993
40
0.562499999999993
40
0.624999999999994
40
0.624999999999994
40
0.656249999999994
40
0.656249999999994
40
0.687499999999995
40
0.687499999999995
40
0.718749999999995
40
0.718749999999995
40
0.749999999999996
40
0.749999999999996
40
0.781249999999996
40
0.781249999999996
40
0.812499999999997
40
0.812499999999997
40
0.843749999999997
40
0.843749999999997
40
0.874999999999998
40
0.874999999999998
40
0.937499999999999
40
0.937499999999999
40
1
40
1
40
1
40
1
41
1
10
80.6
20
-9.08444830019462
30
0
41
1
10
80.6963861982665
20
-9.03179848689697
30
0
41
1
10
80.7927723965327
20
-8.92950611615885
30
0
41
1
10
80.9373516939322
20
-8.69257719026172
30
0
41
1
10
80.9855447930655
20
-8.59975195302664
30
0
41
1
10
81.0819309913318
20
-8.38587218167214
30
0
41
1
10
81.130124090465
20
-8.26481478161708
30
0
41
1
10
81.2265102887313
20
-7.99472934530144
30
0
41
1
10
81.2747033878645
20
-7.84570023387354
30
0
41
1
10
81.3710895861308
20
-7.52078938493491
30
0
41
1
10
81.419282685264
20
-7.34490867897253
30
0
41
1
10
81.5156688835303
20
-6.96827366489165
30
0
41
1
10
81.5638619826635
20
-6.76752254728871
30
0
41
1
10
81.6602481809299
20
-6.34392333541749
30
0
41
1
10
81.7084412800631
20
-6.12108034389354
30
0
41
1
10
81.8048274783295
20
-5.65674595999604
30
0
41
1
10
81.8530205774626
20
-5.41526106524012
30
0
41
1
10
81.9494067757289
20
-4.91758714660995
30
0
41
1
10
81.9975998748621
20
-4.66140531568524
30
0
41
1
10
82.0939860731285
20
-4.13856928271937
30
0
41
1
10
82.1421791722616
20
-3.87192221311176
30
0
41
1
10
82.238565370528
20
-3.33245712404829
30
0
41
1
10
82.2867584696612
20
-3.05964549406542
30
0
41
1
10
82.4313377670607
20
-2.23820275146789
30
0
41
1
10
82.527723965327
20
-1.68680044226463
30
0
41
1
10
82.6723032627265
20
-0.875820610286297
30
0
41
1
10
82.7204963618598
20
-0.60812746581297
30
0
41
1
10
82.7807377357763
20
-0.278604010908566
30
0
41
1
10
82.7927860105596
20
-0.212952617921843
30
0
41
1
10
82.8168825601261
20
-0.0821959978806319
30
0
41
1
10
82.8289308349094
20
-0.017268828066193
30
0
41
1
10
82.8650756592593
20
0.178016458235191
30
0
41
1
10
82.8891722088259
20
0.309338717757044
30
0
41
1
10
83.0096549566588
20
0.970819405010786
30
0
41
1
10
83.1060411549252
20
1.51591423092259
30
0
41
1
10
83.2988135514578
20
2.61224205412381
30
0
41
1
10
83.3951997497242
20
3.16335373637799
30
0
41
1
10
83.5397790471237
20
3.97018437945292
30
0
41
1
10
83.587972146257
20
4.23578050681726
30
0
41
1
10
83.6843583445233
20
4.75598790913307
30
0
41
1
10
83.7325514436565
20
5.01059200493179
30
0
41
1
10
83.8289376419228
20
5.50460702802087
30
0
41
1
10
83.8771307410559
20
5.74401080680434
30
0
41
1
10
83.9735169393223
20
6.20372935677517
30
0
41
1
10
84.0217100384555
20
6.42403776628055
30
0
41
1
10
84.1180962367219
20
6.84218781747089
30
0
41
1
10
84.166289335855
20
7.04002456781885
30
0
41
1
10
84.2626755341214
20
7.4105429502516
30
0
41
1
10
84.3108686332545
20
7.58322164922041
30
0
41
1
10
84.4072548315208
20
7.9015440232655
30
0
41
1
10
84.455447930654
20
8.04718693372925
30
0
41
1
10
84.5518341289205
20
8.31042227003323
30
0
41
1
10
84.6000272280536
20
8.42801601210726
30
0
41
1
10
84.7446065254532
20
8.73848165205942
30
0
41
1
10
84.8409927237195
20
8.88870895732018
30
0
41
1
10
85.0337651202522
20
9.08339042455927
30
0
41
1
10
85.1301513185184
20
9.12799999999999
30
0
41
1
10
85.2265375167848
20
9.12799999999999
30
0
0
SPLINE
5
E4
100
AcDbEntity
8
1
62
256
6
ByLayer
370
13
48
1
60
0
100
AcDbSpline
70
4
71
3
72
44
73
40
40
0
40
0
40
0
40
0
40
0.0625000000000022
40
0.0625000000000022
40
0.125000000000004
40
0.125000000000004
40
0.187500000000006
40
0.187500000000006
40
0.250000000000009
40
0.250000000000009
40
0.312500000000011
40
0.312500000000011
40
0.375000000000013
40
0.375000000000013
40
0.437500000000015
40
0.437500000000015
40
0.500000000000018
40
0.500000000000018
40
0.56250000000002
40
0.56250000000002
40
0.57812500000002
40
0.57812500000002
40
0.58593750000002
40
0.58593750000002
40
0.59375000000002
40
0.59375000000002
40
0.625000000000018
40
0.625000000000018
40
0.687500000000015
40
0.687500000000015
40
0.750000000000012
40
0.750000000000012
40
0.812500000000009
40
0.812500000000009
40
0.875000000000006
40
0.875000000000006
40
0.937500000000003
40
0.937500000000003
40
1
40
1
40
1
40
1
41
1
10
86.046257408973
20
9.12799999999999
30
0
41
1
10
86.1323287067364
20
9.12799999999999
30
0
41
1
10
86.2184000044998
20
9.09247102172972
30
0
41
1
10
86.3905426000266
20
8.93854204811325
30
0
41
1
10
86.4766138977902
20
8.82005217371287
30
0
41
1
10
86.6487564933171
20
8.49331158917838
30
0
41
1
10
86.7348277910805
20
8.2849956535872
30
0
41
1
10
86.9069703866074
20
7.77925498741482
30
0
41
1
10
86.9930416843708
20
7.48181986867834
30
0
41
1
10
87.1651842798977
20
6.80727809492896
30
0
41
1
10
87.2512555776611
20
6.43022973684566
30
0
41
1
10
87.423398173188
20
5.61399437090142
30
0
41
1
10
87.5094694709514
20
5.17492017238982
30
0
41
1
10
87.6816120664784
20
4.25761202208986
30
0
41
1
10
87.7676833642418
20
3.77950835191444
30
0
41
1
10
87.9398259597687
20
2.80876289825372
30
0
41
1
10
88.0258972575322
20
2.31622866267776
30
0
41
1
10
88.1980398530591
20
1.33917151518167
30
0
41
1
10
88.2841111508225
20
0.854709329481835
30
0
41
1
10
88.3917002730269
20
0.265314050443095
30
0
41
1
10
88.4132180974677
20
0.148230827963403
30
0
41
1
10
88.4454948341289
20
-0.0260330642506403
30
0
41
1
10
88.4562537463493
20
-0.0840618161997781
30
0
41
1
10
88.4777715707902
20
-0.200799740162523
30
0
41
1
10
88.4885304830106
20
-0.259386850908413
30
0
41
1
10
88.5423250441128
20
-0.55334301997172
30
0
41
1
10
88.5853606929945
20
-0.791787735971212
30
0
41
1
10
88.7144676396397
20
-1.51393407023085
30
0
41
1
10
88.8005389374031
20
-2.00459355324074
30
0
41
1
10
88.9726815329299
20
-2.9843106390577
30
0
41
1
10
89.0587528306934
20
-3.47328474063673
30
0
41
1
10
89.2308954262203
20
-4.42581179556925
30
0
41
1
10
89.3169667239838
20
-4.88924260113916
30
0
41
1
10
89.4891093195107
20
-5.76632316614743
30
0
41
1
10
89.575180617274
20
-6.17984524515401
30
0
41
1
10
89.7473232128009
20
-6.93610072024626
30
0
41
1
10
89.8333945105644
20
-7.27874249197146
30
0
41
1
10
90.0055371060912
20
-7.87903004738257
30
0
41
1
10
90.0916084038547
20
-8.136648745451
30
0
41
1
10
90.1776797016181
20
-8.34900008230875
30
0
0
SPLINE
5
E5
100
AcDbEntity
8
1
62
256
6
ByLayer
370
13
48
1
60
0
100
AcDbSpline
70
4
71
3
72
44
73
40
40
0
40
0
40
0
40
0
40
0.0625000000000005
40
0.0625000000000005
40
0.125000000000001
40
0.125000000000001
40
0.187500000000001
40
0.187500000000001
40
0.250000000000002
40
0.250000000000002
40
0.312500000000002
40
0.312500000000002
40
0.375000000000002
40
0.375000000000002
40
0.406250000000002
40
0.406250000000002
40
0.414062500000002
40
0.414062500000002
40
0.421875000000002
40
0.421875000000002
40
0.437500000000002
40
0.437500000000002
40
0.500000000000002
40
0.500000000000002
40
0.562500000000001
40
0.562500000000001
40
0.625000000000001
40
0.625000000000001
40
0.687500000000001
40
0.687500000000001
40
0.750000000000001
40
0.750000000000001
40
0.812500000000001
40
0.812500000000001
40
0.875
40
0.875
40
0.9375
40
0.9375
40
1
40
1
40
1
40
1
41
1
10
80.6
20
-8.34900244527006
30
0
41
1
10
80.6860713177169
20
-8.13665139229181
30
0
41
1
10
80.7721426354339
20
-7.87903295489923
30
0
41
1
10
80.9442852708677
20
-7.27874584673296
30
0
41
1
10
81.0303565885847
20
-6.93610426136496
30
0
41
1
10
81.2024992240185
20
-6.17984906743555
30
0
41
1
10
81.2885705417356
20
-5.76632708316424
30
0
41
1
10
81.4607131771694
20
-4.889246613968
30
0
41
1
10
81.5467844948864
20
-4.42581580957486
30
0
41
1
10
81.7189271303203
20
-3.47328867614377
30
0
41
1
10
81.8049984480372
20
-2.98431449509999
30
0
41
1
10
81.9771410834711
20
-2.00459719226225
30
0
41
1
10
82.063212401188
20
-1.51393757191613
30
0
41
1
10
82.1923193777633
20
-0.79179100748118
30
0
41
1
10
82.2353550366219
20
-0.55334621073041
30
0
41
1
10
82.2891496101949
20
-0.259389937567136
30
0
41
1
10
82.2999085249096
20
-0.200802805842614
30
0
41
1
10
82.3214263543388
20
-0.084064839649443
30
0
41
1
10
82.3321852690535
20
-0.0260360594512576
30
0
41
1
10
82.3644620131973
20
0.14822784983869
30
0
41
1
10
82.3859798426265
20
0.265311085031101
30
0
41
1
10
82.4935689897727
20
0.854706434366904
30
0
41
1
10
82.5796403074896
20
1.33916869812171
30
0
41
1
10
82.7517829429236
20
2.31622604358165
30
0
41
1
10
82.8378542606406
20
2.808760399091
30
0
41
1
10
83.0099968960744
20
3.77950612516781
30
0
41
1
10
83.0960682137913
20
4.25760994776431
30
0
41
1
10
83.2682108492252
20
5.17491841892192
30
0
41
1
10
83.3542821669421
20
5.61399278572563
30
0
41
1
10
83.526424802376
20
6.43022848366181
30
0
41
1
10
83.6124961200929
20
6.80727700527046
30
0
41
1
10
83.7846387555267
20
7.48181908182693
30
0
41
1
10
83.8707100732437
20
7.77925433971623
30
0
41
1
10
84.0428527086776
20
8.28499524609461
30
0
41
1
10
84.1289240263947
20
8.49331128270484
30
0
41
1
10
84.3010666618285
20
8.82005202570605
30
0
41
1
10
84.3871379795455
20
8.93854195760997
30
0
41
1
10
84.5592806149793
20
9.09247100517911
30
0
41
1
10
84.6453519326963
20
9.12800000000001
30
0
41
1
10
84.7314232504132
20
9.12799999999999
30
0
0
SPLINE
5
E6
100
AcDbEntity
8
1
62
256
6
ByLayer
370
13
48
1
60
0
100
AcDbSpline
70
4
71
3
72
62
73
58
40
0
40
0
40
0
40
0
40
0.0624999999999977
40
0.0624999999999977
40
0.124999999999995
40
0.124999999999995
40
0.156249999999994
40
0.156249999999994
40
0.187499999999993
40
0.187499999999993
40
0.218749999999991
40
0.218749999999991
40
0.24999999999999
40
0.24999999999999
40
0.281249999999989
40
0.281249999999989
40
0.312499999999987
40
0.312499999999987
40
0.343749999999986
40
0.343749999999986
40
0.374999999999985
40
0.374999999999985
40
0.437499999999982
40
0.437499999999982
40
0.49999999999998
40
0.49999999999998
40
0.51562499999998
40
0.51562499999998
40
0.52343749999998
40
0.52343749999998
40
0.53124999999998
40
0.53124999999998
40
0.562499999999981
40
0.562499999999981
40
0.624999999999984
40
0.624999999999984
40
0.656249999999985
40
0.656249999999985
40
0.687499999999987
40
0.687499999999987
40
0.718749999999988
40
0.718749999999988
40
0.749999999999989
40
0.749999999999989
40
0.78124999999999
40
0.78124999999999
40
0.812499999999992
40
0.812499999999992
40
0.843749999999993
40
0.843749999999993
40
0.874999999999994
40
0.874999999999994
40
0.906249999999996
40
0.906249999999996
40
0.937499999999997
40
0.937499999999997
40
1
40
1
40
1
40
1
41
1
10
85.5511431426013
20
9.12799999999999
30
0
41
1
10
85.6475293209141
20
9.12800000000001
30
0
41
1
10
85.743915499227
20
9.08339044314343
30
0
41
1
10
85.9366878558528
20
8.88870905964265
30
0
41
1
10
86.0330740341656
20
8.73848181969055
30
0
41
1
10
86.1776533016348
20
8.42801631392007
30
0
41
1
10
86.2258463907912
20
8.31042262253106
30
0
41
1
10
86.322232569104
20
8.0471873986408
30
0
41
1
10
86.3704256582606
20
7.90154454990508
30
0
41
1
10
86.4668118365734
20
7.58322230874236
30
0
41
1
10
86.5150049257298
20
7.41054368092441
30
0
41
1
10
86.6113911040427
20
7.0400254479149
30
0
41
1
10
86.6595841931991
20
6.84218877583317
30
0
41
1
10
86.7559703715119
20
6.42403888544956
30
0
41
1
10
86.8041634606683
20
6.20373055847674
30
0
41
1
10
86.9005496389812
20
5.74401217466993
30
0
41
1
10
86.9487427281376
20
5.50460847950922
30
0
41
1
10
87.0451289064504
20
5.01059362151582
30
0
41
1
10
87.0933219956069
20
4.75598960718173
30
0
41
1
10
87.1897081739198
20
4.23578236258231
30
0
41
1
10
87.2379012630762
20
3.97018631146304
30
0
41
1
10
87.3824805305455
20
3.16335588532846
30
0
41
1
10
87.4788667088583
20
2.61224433162604
30
0
41
1
10
87.671639065484
20
1.51591671952912
30
0
41
1
10
87.7680252437969
20
0.97082197618866
30
0
41
1
10
87.8885079666879
20
0.309341361455097
30
0
41
1
10
87.9126045112661
20
0.178019114926883
30
0
41
1
10
87.9487493281335
20
-0.0172661541183174
30
0
41
1
10
87.9607976004226
20
-0.0821932985804494
30
0
41
1
10
87.9848941450007
20
-0.212949876407322
30
0
41
1
10
87.9969424172898
20
-0.278601248440509
30
0
41
1
10
88.0571837787354
20
-0.608124599484199
30
0
41
1
10
88.1053768678919
20
-0.875817663758312
30
0
41
1
10
88.2499561353611
20
-1.68679726948139
30
0
41
1
10
88.3463423136739
20
-2.2381994470241
30
0
41
1
10
88.4909215811432
20
-3.05964204472997
30
0
41
1
10
88.5391146702997
20
-3.33245363518302
30
0
41
1
10
88.6355008486125
20
-3.87191866626378
30
0
41
1
10
88.683693937769
20
-4.1385657174296
30
0
41
1
10
88.7800801160819
20
-4.66140173743139
30
0
41
1
10
88.8282732052382
20
-4.9175835738431
30
0
41
1
10
88.9246593835511
20
-5.41525752917497
30
0
41
1
10
88.9728524727076
20
-5.65674245515152
30
0
41
1
10
89.0692386510204
20
-6.12107692775729
30
0
41
1
10
89.1174317401768
20
-6.34391997677031
30
0
41
1
10
89.2138179184897
20
-6.76751932904341
30
0
41
1
10
89.262011007646
20
-6.96827052955567
30
0
41
1
10
89.3583971859589
20
-7.34490573268315
30
0
41
1
10
89.4065902751153
20
-7.52078654477487
30
0
41
1
10
89.5029764534282
20
-7.84569762582601
30
0
41
1
10
89.5511695425846
20
-7.99472686322591
30
0
41
1
10
89.6475557208974
20
-8.26481256707797
30
0
41
1
10
89.6957488100539
20
-8.3858701086848
30
0
41
1
10
89.7921349883668
20
-8.59975017394973
30
0
41
1
10
89.8403280775232
20
-8.69257556353108
30
0
41
1
10
89.9849073449925
20
-8.9295049552851
30
0
41
1
10
90.0812935233054
20
-9.03179764807678
30
0
41
1
10
90.1776797016182
20
-9.08444777702366
30
0
0
SPLINE
5
E7
100
AcDbEntity
8
1
62
256
6
ByLayer
370
13
48
1
60
0
100
AcDbSpline
70
4
71
3
72
43
73
39
40
0
40
0
40
0
40
0
40
0.0625
40
0.0625
40
0.125
40
0.125
40
0.1875
40
0.1875
40
0.25
40
0.25
40
0.3125
40
0.3125
40
0.328125
40
0.3359375
40
0.3359375
40
0.343749999999999
40
0.343749999999999
40
0.374999999999999
40
0.374999999999999
40
0.437499999999999
40
0.437499999999999
40
0.499999999999999
40
0.499999999999999
40
0.562499999999999
40
0.562499999999999
40
0.624999999999999
40
0.624999999999999
40
0.687499999999999
40
0.687499999999999
40
0.749999999999999
40
0.749999999999999
40
0.8125
40
0.8125
40
0.875
40
0.875
40
0.9375
40
0.9375
40
1
40
1
40
1
40
1
41
1
10
80.6
20
-6.65088784720586
30
0
41
1
10
80.6757564371676
20
-6.32323737760203
30
0
41
1
10
80.751512874335
20
-5.96763729072541
30
0
41
1
10
80.9030257486701
20
-5.21416900015953
30
0
41
1
10
80.9787821858376
20
-4.81636634540916
30
0
41
1
10
81.1302950601727
20
-3.99473554198733
30
0
41
1
10
81.2060514973402
20
-3.57097541442025
30
0
41
1
10
81.3575643716753
20
-2.71411998837704
30
0
41
1
10
81.4333208088428
20
-2.28107944101427
30
0
41
1
10
81.5848336831779
20
-1.42090296612068
30
0
41
1
10
81.6605901203454
20
-0.993799551942516
30
0
41
1
10
81.7552856668049
20
-0.47139395606132
30
0
41
1
10
81.7836943307426
20
-0.315521017327512
30
0
41
1
10
81.8121029946805
20
-0.161102471910709
30
0
41
1
10
81.8310421039724
20
-0.0584985371874325
30
0
41
1
10
81.8405116586183
20
-0.0074832871589763
30
0
41
1
10
81.887859431848
20
0.248282600728089
30
0
41
1
10
81.9257376504319
20
0.455701898425303
30
0
41
1
10
82.0393723061831
20
1.08447961605626
30
0
41
1
10
82.1151287433506
20
1.51245501646076
30
0
41
1
10
82.2666416176857
20
2.37337397090582
30
0
41
1
10
82.3423980548532
20
2.80628331213325
30
0
41
1
10
82.4939109291882
20
3.66171854850882
30
0
41
1
10
82.5696673663558
20
4.0841883521534
30
0
41
1
10
82.7211802406908
20
4.9020431901636
30
0
41
1
10
82.7969366778584
20
5.29735980481709
30
0
41
1
10
82.9484495521934
20
6.04477013005601
30
0
41
1
10
83.024205989361
20
6.39679914462499
30
0
41
1
10
83.175718863696
20
7.04412241694612
30
0
41
1
10
83.2514753008636
20
7.33937244575873
30
0
41
1
10
83.4029881751985
20
7.86394799213511
30
0
41
1
10
83.4787446123662
20
8.09326014203842
30
0
41
1
10
83.6302574867012
20
8.48198758734569
30
0
41
1
10
83.7060139238688
20
8.64142040520716
30
0
41
1
10
83.8575267982038
20
8.89156188830523
30
0
41
1
10
83.9332832353713
20
8.98230989110269
30
0
41
1
10
84.0847961097064
20
9.1005049102117
30
0
41
1
10
84.1605525468739
20
9.12800000000001
30
0
41
1
10
84.2363089840414
20
9.12799999999999
30
0
0
SPLINE
5
E8
100
AcDbEntity
8
1
62
256
6
ByLayer
370
13
48
1
60
0
100
AcDbSpline
70
4
71
3
72
78
73
74
40
0
40
0
40
0
40
0
40
0.0312499999999993
40
0.0312499999999993
40
0.0624999999999986
40
0.0624999999999986
40
0.0937499999999978
40
0.0937499999999978
40
0.124999999999997
40
0.124999999999997
40
0.156249999999996
40
0.156249999999996
40
0.187499999999996
40
0.187499999999996
40
0.218749999999995
40
0.218749999999995
40
0.249999999999994
40
0.249999999999994
40
0.281249999999994
40
0.281249999999994
40
0.312499999999993
40
0.312499999999993
40
0.343749999999993
40
0.343749999999993
40
0.374999999999992
40
0.374999999999992
40
0.406249999999991
40
0.406249999999991
40
0.437499999999991
40
0.437499999999991
40
0.453124999999991
40
0.453124999999991
40
0.460937499999991
40
0.460937499999991
40
0.468749999999991
40
0.468749999999991
40
0.499999999999991
40
0.499999999999991
40
0.531249999999991
40
0.531249999999991
40
0.562499999999992
40
0.562499999999992
40
0.593749999999992
40
0.593749999999992
40
0.624999999999993
40
0.624999999999993
40
0.656249999999993
40
0.656249999999993
40
0.687499999999994
40
0.687499999999994
40
0.718749999999994
40
0.718749999999994
40
0.749999999999995
40
0.749999999999995
40
0.781249999999995
40
0.781249999999995
40
0.812499999999996
40
0.812499999999996
40
0.843749999999996
40
0.843749999999996
40
0.874999999999996
40
0.874999999999996
40
0.906249999999997
40
0.906249999999997
40
0.921874999999997
40
0.921874999999997
40
0.929687499999998
40
0.929687499999998
40
0.937499999999998
40
0.937499999999998
40
0.968749999999999
40
0.968749999999999
40
1
40
1
40
1
40
1
41
1
10
85.0560288762296
20
9.12799999999999
30
0
41
1
10
85.1093794056607
20
9.12799999999999
30
0
41
1
10
85.1627299350919
20
9.11438639272484
30
0
41
1
10
85.2694309939541
20
9.05695118184113
30
0
41
1
10
85.3227815233852
20
9.01312117519822
30
0
41
1
10
85.4294825822474
20
8.89285645673732
30
0
41
1
10
85.4828331116786
20
8.81641370521976
30
0
41
1
10
85.5895341705408
20
8.62937704970463
30
0
41
1
10
85.642884699972
20
8.51877659182699
30
0
41
1
10
85.7495857588342
20
8.26295175463127
30
0
41
1
10
85.8029362882653
20
8.11772345135674
30
0
41
1
10
85.9096373471276
20
7.79340536963338
30
0
41
1
10
85.9629878765588
20
7.61431521130021
30
0
41
1
10
86.0696889354209
20
7.22433884771607
30
0
41
1
10
86.1230394648521
20
7.01345624073136
30
0
41
1
10
86.2297405237144
20
6.56321623372918
30
0
41
1
10
86.2830910531455
20
6.32386620099703
30
0
41
1
10
86.3897921120078
20
5.82110246033756
30
0
41
1
10
86.443142641439
20
5.55769902955711
30
0
41
1
10
86.5498437003012
20
5.01206087851449
30
0
41
1
10
86.6031942297324
20
4.72983800319329
30
0
41
1
10
86.7098952885947
20
4.15227721078543
30
0
41
1
10
86.7632458180257
20
3.85695117447142
30
0
41
1
10
86.869946876888
20
3.25902228417763
30
0
41
1
10
86.9232974063191
20
2.95642994901382
30
0
41
1
10
87.0299984651815
20
2.34958748119857
30
0
41
1
10
87.0833489946126
20
2.04534549731423
30
0
41
1
10
87.1900500534748
20
1.44032005142938
30
0
41
1
10
87.2434005829058
20
1.13954187349989
30
0
41
1
10
87.3234263770527
20
0.694276515875487
30
0
41
1
10
87.3501016417682
20
0.546832391471781
30
0
41
1
10
87.3901145388415
20
0.327488570065725
30
0
41
1
10
87.4034521711993
20
0.254677283059919
30
0
41
1
10
87.4301274359149
20
0.109715721017778
30
0
41
1
10
87.4434650682726
20
0.0377357456138157
30
0
41
1
10
87.5101532300616
20
-0.322353224765237
30
0
41
1
10
87.5635037594927
20
-0.616027068017388
30
0
41
1
10
87.670204818355
20
-1.21092807319801
30
0
41
1
10
87.7235553477861
20
-1.51215259588767
30
0
41
1
10
87.8302564066483
20
-2.11768864654687
30
0
41
1
10
87.8836069360794
20
-2.42199465709973
30
0
41
1
10
87.9903079949418
20
-3.0285345783073
30
0
41
1
10
88.0436585243729
20
-3.33076012695136
30
0
41
1
10
88.1503595832351
20
-3.92749601046097
30
0
41
1
10
88.2037101126663
20
-4.22199567523722
30
0
41
1
10
88.3104111715286
20
-4.79744077053971
30
0
41
1
10
88.3637617009596
20
-5.07837426838546
30
0
41
1
10
88.470462759822
20
-5.62099568684053
30
0
41
1
10
88.5238132892531
20
-5.88267183139484
30
0
41
1
10
88.6305143481153
20
-6.38159630302133
30
0
41
1
10
88.6838648775464
20
-6.61883453966144
30
0
41
1
10
88.7905659364087
20
-7.06454397204945
30
0
41
1
10
88.8439164658399
20
-7.27300807628907
30
0
41
1
10
88.9506175247021
20
-7.65793552672926
30
0
41
1
10
89.0039680541333
20
-7.83439559184896
30
0
41
1
10
89.1106691129955
20
-8.15334492221891
30
0
41
1
10
89.1640196424266
20
-8.29583487229053
30
0
41
1
10
89.270720701289
20
-8.54617650921944
30
0
41
1
10
89.3240712307199
20
-8.65403236696721
30
0
41
1
10
89.4307722895823
20
-8.8356656846812
30
0
41
1
10
89.4841228190135
20
-8.90944985951216
30
0
41
1
10
89.5908238778758
20
-9.02455972043441
30
0
41
1
10
89.6441744073069
20
-9.06589351430418
30
0
41
1
10
89.7242002014536
20
-9.10539012497887
30
0
41
1
10
89.750875466169
20
-9.11481070344485
30
0
41
1
10
89.7908883632424
20
-9.12359607876115
30
0
41
1
10
89.8042259956002
20
-9.12563388050805
30
0
41
1
10
89.8309012603158
20
-9.12797627268603
30
0
41
1
10
89.8442388926736
20
-9.12828430581146
30
0
41
1
10
89.9109270544626
20
-9.12557324896321
30
0
41
1
10
89.9642775838936
20
-9.10966375319848
30
0
41
1
10
90.0709786427559
20
-9.04742120940077
30
0
41
1
10
90.124329172187
20
-9.00107975019142
30
0
41
1
10
90.1776797016182
20
-8.93835740936737
30
0
0
SPLINE
5
E9
100
AcDbEntity
8
1
62
256
6
ByLayer
370
13
48
1
60
0
100
AcDbSpline
70
4
71
3
72
42
73
38
40
0
40
0
40
0
40
0
40
0.0624999999999973
40
0.0624999999999973
40
0.124999999999995
40
0.124999999999995
40
0.187499999999992
40
0.187499999999992
40
0.218749999999991
40
0.218749999999991
40
0.234374999999991
40
0.234374999999991
40
0.24999999999999
40
0.24999999999999
40
0.312499999999991
40
0.312499999999991
40
0.374999999999992
40
0.374999999999992
40
0.437499999999992
40
0.437499999999992
40
0.499999999999993
40
0.499999999999993
40
0.562499999999994
40
0.562499999999994
40
0.624999999999995
40
0.624999999999995
40
0.687499999999995
40
0.687499999999995
40
0.749999999999996
40
0.749999999999996
40
0.812499999999997
40
0.812499999999997
40
0.874999999999998
40
0.874999999999998
40
0.937499999999999
40
0.937499999999999
40
1
40
1
40
1
40
1
41
1
10
80.6
20
-4.18432361852311
30
0
41
1
10
80.6654415566182
20
-3.82567601817405
30
0
41
1
10
80.7308831132362
20
-3.45848170022089
30
0
41
1
10
80.8617662264725
20
-2.71763129593725
30
0
41
1
10
80.9272077830906
20
-2.34400120283701
30
0
41
1
10
81.0580908963268
20
-1.60012608259132
30
0
41
1
10
81.1235324529449
20
-1.22989777871118
30
0
41
1
10
81.2216947878723
20
-0.683354611432549
30
0
41
1
10
81.2544155661813
20
-0.502626872979704
30
0
41
1
10
81.3034967336448
20
-0.234367534992174
30
0
41
1
10
81.3198571227993
20
-0.145418876523649
30
0
41
1
10
81.3525779011084
20
0.0314386965782774
30
0
41
1
10
81.3689382902629
20
0.119642974220028
30
0
41
1
10
81.4507402360356
20
0.56467011999905
30
0
41
1
10
81.5161817926537
20
0.928646226499325
30
0
41
1
10
81.6470649058899
20
1.66528438245103
30
0
41
1
10
81.712506462508
20
2.03793573782372
30
0
41
1
10
81.8433895757443
20
2.78294938545224
30
0
41
1
10
81.9088311323624
20
3.15529111725382
30
0
41
1
10
82.0397142455986
20
3.88942921424024
30
0
41
1
10
82.1051558022168
20
4.25119665218986
30
0
41
1
10
82.2360389154529
20
4.95339934145343
30
0
41
1
10
82.301480472071
20
5.29380139886695
30
0
41
1
10
82.4323635853073
20
5.94290617396243
30
0
41
1
10
82.4978051419254
20
6.25157739372446
30
0
41
1
10
82.6286882551617
20
6.82826771062488
30
0
41
1
10
82.6941298117798
20
7.0962631541922
30
0
41
1
10
82.825012925016
20
7.58491387745002
30
0
41
1
10
82.8904544816342
20
7.80555771617719
30
0
41
1
10
83.0213375948705
20
8.19562278218768
30
0
41
1
10
83.0867791514886
20
8.36504602683721
30
0
41
1
10
83.2176622647247
20
8.65173597908526
30
0
41
1
10
83.2831038213428
20
8.76901617375847
30
0
41
1
10
83.4139869345792
20
8.95319160364897
30
0
41
1
10
83.4794284911973
20
9.02010762075344
30
0
41
1
10
83.6103116044335
20
9.10750017384888
30
0
41
1
10
83.6757531610516
20
9.12800000000001
30
0
41
1
10
83.7411947176697
20
9.12799999999999
30
0
0
SPLINE
5
EA
100
AcDbEntity
8
1
62
256
6
ByLayer
370
13
48
1
60
0
100
AcDbSpline
70
4
71
3
72
78
73
74
40
0
40
0
40
0
40
0
40
0.0312500000000002
40
0.0312500000000002
40
0.0625000000000004
40
0.0625000000000004
40
0.0937500000000005
40
0.0937500000000005
40
0.125000000000001
40
0.125000000000001
40
0.156250000000001
40
0.156250000000001
40
0.187500000000001
40
0.187500000000001
40
0.218750000000001
40
0.218750000000001
40
0.250000000000001
40
0.250000000000001
40
0.281250000000002
40
0.281250000000002
40
0.312500000000002
40
0.312500000000002
40
0.343750000000002
40
0.343750000000002
40
0.375000000000002
40
0.375000000000002
40
0.406250000000002
40
0.406250000000002
40
0.421875000000002
40
0.421875000000002
40
0.429687500000002
40
0.429687500000002
40
0.437500000000002
40
0.437500000000002
40
0.468750000000002
40
0.468750000000002
40
0.500000000000002
40
0.500000000000002
40
0.531250000000002
40
0.531250000000002
40
0.562500000000001
40
0.562500000000001
40
0.593750000000001
40
0.593750000000001
40
0.625000000000001
40
0.625000000000001
40
0.656250000000001
40
0.656250000000001
40
0.6875
40
0.6875
40
0.71875
40
0.71875
40
0.75
40
0.75
40
0.78125
40
0.78125
40
0.812499999999999
40
0.812499999999999
40
0.843749999999999
40
0.843749999999999
40
0.851562499999999
40
0.851562499999999
40
0.859374999999999
40
0.859374999999999
40
0.874999999999999
40
0.874999999999999
40
0.906249999999999
40
0.906249999999999
40
0.9375
40
0.9375
40
0.96875
40
0.96875
40
1
40
1
40
1
40
1
41
1
10
84.5609146098578
20
9.12799999999999
30
0
41
1
10
84.6194225795637
20
9.12799999999999
30
0
41
1
10
84.6779305492695
20
9.11162193731377
30
0
41
1
10
84.7949464886811
20
9.04221052999932
30
0
41
1
10
84.853454458387
20
8.98916385579463
30
0
41
1
10
84.9704703977987
20
8.84339377896774
30
0
41
1
10
85.0289783675045
20
8.75065795164875
30
0
41
1
10
85.1459943069162
20
8.52378456198568
30
0
41
1
10
85.204502276622
20
8.38963765172076
30
0
41
1
10
85.3215182160337
20
8.07984877693971
30
0
41
1
10
85.3800261857396
20
7.90420263552284
30
0
41
1
10
85.4970421251512
20
7.5131643403837
30
0
41
1
10
85.555550094857
20
7.29777460990869
30
0
41
1
10
85.6725660342688
20
6.83087146954099
30
0
41
1
10
85.7310740039745
20
6.57936733575002
30
0
41
1
10
85.8480899433862
20
6.04555518000953
30
0
41
1
10
85.9065979130921
20
5.76326215326228
30
0
41
1
10
86.0236138525038
20
5.17451965419835
30
0
41
1
10
86.0821218222097
20
4.86808859457901
30
0
41
1
10
86.1991377616212
20
4.23853414636619
30
0
41
1
10
86.257645731327
20
3.91542970906468
30
0
41
1
10
86.3746616707388
20
3.2602374195838
30
0
41
1
10
86.4331696404446
20
2.92816633928788
30
0
41
1
10
86.5501855798563
20
2.26244852243707
30
0
41
1
10
86.6086935495621
20
1.92881443155676
30
0
41
1
10
86.7257094889738
20
1.26662927271374
30
0
41
1
10
86.7842174586797
20
0.93808584271099
30
0
41
1
10
86.8719794132384
20
0.453285164572719
30
0
41
1
10
86.9012333980912
20
0.293011752989628
30
0
41
1
10
86.9451143753707
20
0.055031993879993
30
0
41
1
10
86.9597413677972
20
-0.0236336452687453
30
0
41
1
10
86.98899535265
20
-0.182071393743939
30
0
41
1
10
87.0036223450765
20
-0.26169924891704
30
0
41
1
10
87.0767573072088
20
-0.661707621550477
30
0
41
1
10
87.1352652769147
20
-0.987742076238163
30
0
41
1
10
87.2522812163263
20
-1.64660935542543
30
0
41
1
10
87.3107891860321
20
-1.97943597379566
30
0
41
1
10
87.4278051254438
20
-2.64551347082715
30
0
41
1
10
87.4863130951496
20
-2.97875307972814
30
0
41
1
10
87.6033290345613
20
-3.63843000539913
30
0
41
1
10
87.6618370042672
20
-3.96485156481751
30
0
41
1
10
87.7788529436789
20
-4.60322211408595
30
0
41
1
10
87.8373609133846
20
-4.91515251818632
30
0
41
1
10
87.9543768527963
20
-5.51694941354225
30
0
41
1
10
88.0128848225022
20
-5.8067970407707
30
0
41
1
10
88.1299007619138
20
-6.35748832679232
30
0
41
1
10
88.1884087316197
20
-6.61831575085458
30
0
41
1
10
88.3054246710313
20
-7.1052156804285
30
0
41
1
10
88.3639326407372
20
-7.33127711708195
30
0
41
1
10
88.4809485801489
20
-7.74450194683106
30
0
41
1
10
88.5394565498547
20
-7.93166094243145
30
0
41
1
10
88.6564724892663
20
-8.26478222425382
30
0
41
1
10
88.7149804589723
20
-8.41074692046988
30
0
41
1
10
88.8319963983839
20
-8.66105440484759
30
0
41
1
10
88.8905043680898
20
-8.76540527178022
30
0
41
1
10
89.0075203075014
20
-8.93377055822876
30
0
41
1
10
89.0660282772072
20
-8.99779675865665
30
0
41
1
10
89.1830442166189
20
-9.08820276834484
30
0
41
1
10
89.2415521863248
20
-9.11459585555011
30
0
41
1
10
89.3146871484571
20
-9.12637710646246
30
0
41
1
10
89.3293141408834
20
-9.12767478129146
30
0
41
1
10
89.3585681257364
20
-9.12821745534305
30
0
41
1
10
89.3731951181629
20
-9.12746902121003
30
0
41
1
10
89.4170760954423
20
-9.12207630363213
30
0
41
1
10
89.4463300802952
20
-9.11427920839955
30
0
41
1
10
89.534092034854
20
-9.07754526031093
30
0
41
1
10
89.5926000045598
20
-9.03523352281834
30
0
41
1
10
89.7096159439715
20
-8.91167374994717
30
0
41
1
10
89.7681239136773
20
-8.83041282309654
30
0
41
1
10
89.885139853089
20
-8.6268248146902
30
0
41
1
10
89.9436478227948
20
-8.50448728771417
30
0
41
1
10
90.0606637622064
20
-8.21816282028001
30
0
41
1
10
90.1191717319124
20
-8.05417005390862
30
0
41
1
10
90.1776797016182
20
-7.86996042503347
30
0
0
SPLINE
5
EB
100
AcDbEntity
8
1
62
256
6
ByLayer
370
13
48
1
60
0
100
AcDbSpline
70
4
71
3
72
42
73
38
40
0
40
0
40
0
40
0
40
0.0625000000000007
40
0.0625000000000007
40
0.0937500000000011
40
0.0937500000000011
40
0.109375000000002
40
0.109375000000002
40
0.125000000000002
40
0.125000000000002
40
0.187500000000002
40
0.187500000000002
40
0.250000000000002
40
0.250000000000002
40
0.312500000000002
40
0.312500000000002
40
0.375000000000002
40
0.375000000000002
40
0.437500000000002
40
0.437500000000002
40
0.500000000000001
40
0.500000000000001
40
0.562500000000001
40
0.562500000000001
40
0.625000000000001
40
0.625000000000001
40
0.687500000000001
40
0.687500000000001
40
0.750000000000001
40
0.750000000000001
40
0.812500000000001
40
0.812500000000001
40
0.875
40
0.875
40
0.9375
40
0.9375
40
1
40
1
40
1
40
1
41
1
10
80.6
20
-1.39167794206895
30
0
41
1
10
80.6551266760687
20
-1.08082304971899
30
0
41
1
10
80.7102533521374
20
-0.772783930973276
30
0
41
1
10
80.7929433662405
20
-0.318324237916698
30
0
41
1
10
80.8205067042747
20
-0.168096964451848
30
0
41
1
10
80.8618517113264
20
0.0549999086669288
30
0
41
1
10
80.8756333803436
20
0.129499789447863
30
0
41
1
10
80.903196718378
20
0.279426604500202
30
0
41
1
10
80.916978387395
20
0.35474001117791
30
0
41
1
10
80.9858867324809
20
0.732905988808653
30
0
41
1
10
81.0410134085496
20
1.04059193944849
30
0
41
1
10
81.1512667606871
20
1.66180997833922
30
0
41
1
10
81.2063934367558
20
1.9753373313911
30
0
41
1
10
81.3166467888933
20
2.60290223240935
30
0
41
1
10
81.371773464962
20
2.91693149583605
30
0
41
1
10
81.4820268170994
20
3.53948626940434
30
0
41
1
10
81.5371534931681
20
3.84800030755443
30
0
41
1
10
81.6474068453055
20
4.45313109745876
30
0
41
1
10
81.7025335213741
20
4.74973422862524
30
0
41
1
10
81.8127868735116
20
5.32465118843845
30
0
41
1
10
81.8679135495803
20
5.60295086871793
30
0
41
1
10
81.9781669017177
20
6.13529374694713
30
0
41
1
10
82.0332935777865
20
6.38932418231013
30
0
41
1
10
82.1435469299238
20
6.8679974494311
30
0
41
1
10
82.1986736059926
20
7.09263069227944
30
0
41
1
10
82.30892695813
20
7.50855641861003
30
0
41
1
10
82.3640536341987
20
7.69984373273581
30
0
41
1
10
82.4743069863362
20
8.04652795458904
30
0
41
1
10
82.5294336624048
20
8.20192454502748
30
0
41
1
10
82.6396870145422
20
8.47576432753002
30
0
41
1
10
82.6948136906108
20
8.59421163499124
30
0
41
1
10
82.8050670427483
20
8.79451715398739
30
0
41
1
10
82.860193718817
20
8.87638283025058
30
0
41
1
10
82.9704470709544
20
9.00513827034504
30
0
41
1
10
83.0255737470231
20
9.05203742616879
30
0
41
1
10
83.1358270991606
20
9.11346334128629
30
0
41
1
10
83.1909537752293
20
9.12799999999999
30
0
41
1
10
83.246080451298
20
9.12799999999999
30
0
0
SPLINE
5
EC
100
AcDbEntity
8
1
62
256
6
ByLayer
370
13
48
1
60
0
100
AcDbSpline
70
4
71
3
72
77
73
73
40
0
40
0
40
0
40
0
40
0.0312499999999989
40
0.0312499999999989
40
0.0624999999999978
40
0.0624999999999978
40
0.0937499999999968
40
0.0937499999999968
40
0.124999999999996
40
0.124999999999996
40
0.156249999999995
40
0.156249999999995
40
0.187499999999994
40
0.187499999999994
40
0.218749999999993
40
0.218749999999993
40
0.249999999999992
40
0.249999999999992
40
0.281249999999991
40
0.281249999999991
40
0.312499999999989
40
0.312499999999989
40
0.343749999999988
40
0.343749999999988
40
0.374999999999987
40
0.374999999999987
40
0.390624999999987
40
0.390624999999987
40
0.398437499999987
40
0.398437499999987
40
0.406249999999987
40
0.406249999999987
40
0.437499999999987
40
0.437499999999987
40
0.468749999999988
40
0.468749999999988
40
0.499999999999989
40
0.499999999999989
40
0.531249999999989
40
0.531249999999989
40
0.56249999999999
40
0.56249999999999
40
0.59374999999999
40
0.59374999999999
40
0.624999999999991
40
0.624999999999991
40
0.656249999999992
40
0.656249999999992
40
0.687499999999992
40
0.687499999999992
40
0.718749999999993
40
0.718749999999993
40
0.749999999999994
40
0.749999999999994
40
0.781249999999995
40
0.781249999999995
40
0.789062499999995
40
0.789062499999995
40
0.796874999999995
40
0.812499999999996
40
0.812499999999996
40
0.843749999999996
40
0.843749999999996
40
0.874999999999997
40
0.874999999999997
40
0.906249999999998
40
0.906249999999998
40
0.937499999999998
40
0.937499999999998
40
0.968749999999999
40
0.968749999999999
40
1
40
1
40
1
40
1
41
1
10
84.065800343486
20
9.12799999999999
30
0
41
1
10
84.1294657534667
20
9.12800000000001
30
0
41
1
10
84.1931311634472
20
9.10860038513135
30
0
41
1
10
84.3204619834082
20
9.02602095725425
30
0
41
1
10
84.3841273933888
20
8.96282083333028
30
0
41
1
10
84.51145821335
20
8.7889359916179
30
0
41
1
10
84.5751236233305
20
8.67823292806565
30
0
41
1
10
84.7024544432915
20
8.40754607562735
30
0
41
1
10
84.766119853272
20
8.24754985337276
30
0
41
1
10
84.8934506732331
20
7.87886606772591
30
0
41
1
10
84.9571160832137
20
7.67017552731045
30
0
41
1
10
85.0844469031747
20
7.2073219265223
30
0
41
1
10
85.1481123131553
20
6.95316724355155
30
0
41
1
10
85.2754431331164
20
6.40515781299686
30
0
41
1
10
85.3391085430969
20
6.11132215136377
30
0
41
1
10
85.466439363058
20
5.49185969553861
30
0
41
1
10
85.5301047730386
20
5.166259453073
30
0
41
1
10
85.6574355929996
20
4.4926138383419
30
0
41
1
10
85.7211010029803
20
4.14459756038255
30
0
41
1
10
85.8484318229413
20
3.43604816804856
30
0
41
1
10
85.9120972329218
20
3.07554159154051
30
0
41
1
10
86.0394280528828
20
2.35166844745547
30
0
41
1
10
86.1030934628634
20
1.98832200775433
30
0
41
1
10
86.2304242828245
20
1.26744123151167
30
0
41
1
10
86.2940896928051
20
0.909918785163967
30
0
41
1
10
86.3895878077759
20
0.383395665709202
30
0
41
1
10
86.4214205127662
20
0.209502173603681
30
0
41
1
10
86.4691695702516
20
-0.0483614880315315
30
0
41
1
10
86.4850859227467
20
-0.134302670890406
30
0
41
1
10
86.516918627737
20
-0.307570070805781
30
0
41
1
10
86.5328349802321
20
-0.394667796920572
30
0
41
1
10
86.6124167427078
20
-0.832241691172186
30
0
41
1
10
86.6760821526883
20
-1.18903786376717
30
0
41
1
10
86.8034129726494
20
-1.90904426779497
30
0
41
1
10
86.86707838263
20
-2.27224322451224
30
0
41
1
10
86.9944092025911
20
-2.99649357439839
30
0
41
1
10
87.0580746125715
20
-3.35752540504473
30
0
41
1
10
87.1854054325327
20
-4.06784801047337
30
0
41
1
10
87.2490708425132
20
-4.41711260665548
30
0
41
1
10
87.3764016624743
20
-5.09397015174511
30
0
41
1
10
87.4400670724548
20
-5.42153402825906
30
0
41
1
10
87.5673978924159
20
-6.04556751941632
30
0
41
1
10
87.6310633023965
20
-6.34201021882521
30
0
41
1
10
87.7583941223576
20
-6.89574689226743
30
0
41
1
10
87.8220595323381
20
-7.15302109825026
30
0
41
1
10
87.9493903522992
20
-7.62245329555876
30
0
41
1
10
88.0130557622797
20
-7.8346020728381
30
0
41
1
10
88.1403865822408
20
-8.21034873629958
30
0
41
1
10
88.2040519922214
20
-8.3739488082264
30
0
41
1
10
88.3313828121824
20
-8.65180228071094
30
0
41
1
10
88.395048222163
20
-8.76606753180303
30
0
41
1
10
88.522379042124
20
-8.94687502969725
30
0
41
1
10
88.5860444521046
20
-9.01343532662455
30
0
41
1
10
88.7133752720657
20
-9.10241298026372
30
0
41
1
10
88.7770406820462
20
-9.12485062856155
30
0
41
1
10
88.8566224445219
20
-9.12839962361363
30
0
41
1
10
88.872538797017
20
-9.12789940569374
30
0
41
1
10
88.9043715020073
20
-9.12442963811787
30
0
41
1
10
88.9521205594928
20
-9.11550671159031
30
0
41
1
10
88.9998696169781
20
-9.09505662391788
30
0
41
1
10
89.095367731949
20
-9.0378854857
30
0
41
1
10
89.1590331419295
20
-8.97802555987906
30
0
41
1
10
89.2863639618906
20
-8.81103363206537
30
0
41
1
10
89.3500293718711
20
-8.7038830101593
30
0
41
1
10
89.4773601918322
20
-8.44035608740785
30
0
41
1
10
89.5410256018127
20
-8.28396678980488
30
0
41
1
10
89.6683564217739
20
-7.92236617191793
30
0
41
1
10
89.7320218317544
20
-7.71715109386398
30
0
41
1
10
89.8593526517155
20
-7.26092428772154
30
0
41
1
10
89.923018061696
20
-7.00992009698518
30
0
41
1
10
90.050348881657
20
-6.46771134773533
30
0
41
1
10
90.1140142916375
20
-6.17652517538454
30
0
41
1
10
90.1776797016182
20
-5.8691257761682
30
0
0
SPLINE
5
ED
100
AcDbEntity
8
1
62
256
6
ByLayer
370
13
48
1
60
0
100
AcDbSpline
70
4
71
3
72
22
73
18
40
0
40
0
40
0
40
0
40
0.125
40
0.125
40
0.25
40
0.25
40
0.375
40
0.375
40
0.5
40
0.5
40
0.625
40
0.625
40
0.75
40
0.75
40
0.875
40
0.875
40
1
40
1
40
1
40
1
41
1
10
80.6
20
1.34542136116352
30
0
41
1
10
80.6896235910386
20
1.85034351285799
30
0
41
1
10
80.7792471820773
20
2.36315026990698
30
0
41
1
10
80.9584943641544
20
3.38068995344435
30
0
41
1
10
81.048117955193
20
3.88530607553295
30
0
41
1
10
81.2273651372702
20
4.85898227128075
30
0
41
1
10
81.3169887283087
20
5.3278858193386
30
0
41
1
10
81.496235910386
20
6.20334511394586
30
0
41
1
10
81.5858595014246
20
6.60975430110338
30
0
41
1
10
81.7651066835018
20
7.33887899132969
30
0
41
1
10
81.8547302745404
20
7.6615100643935
30
0
41
1
10
82.0339774566175
20
8.21083094203649
30
0
41
1
10
82.1236010476562
20
8.43752328777776
30
0
41
1
10
82.3028482297333
20
8.79310489004914
30
0
41
1
10
82.3924718207718
20
8.92206956540713
30
0
41
1
10
82.571719002849
20
9.08946241847468
30
0
41
1
10
82.6613425938876
20
9.12799999999999
30
0
41
1
10
82.7509661849263
20
9.12799999999999
30
0
0
SPLINE
5
EE
100
AcDbEntity
8
1
62
256
6
ByLayer
370
13
48
1
60
0
100
AcDbSpline
70
4
71
3
72
80
73
76
40
0
40
0
40
0
40
0
40
0.0312499999999996
40
0.0312499999999996
40
0.0624999999999992
40
0.0624999999999992
40
0.0937499999999988
40
0.0937499999999988
40
0.124999999999998
40
0.124999999999998
40
0.156249999999998
40
0.156249999999998
40
0.187499999999998
40
0.187499999999998
40
0.218749999999997
40
0.218749999999997
40
0.249999999999997
40
0.249999999999997
40
0.281249999999996
40
0.281249999999996
40
0.312499999999996
40
0.312499999999996
40
0.343749999999995
40
0.343749999999995
40
0.359374999999995
40
0.359374999999995
40
0.367187499999995
40
0.367187499999995
40
0.374999999999995
40
0.374999999999995
40
0.406249999999996
40
0.406249999999996
40
0.437499999999996
40
0.437499999999996
40
0.468749999999996
40
0.468749999999996
40
0.499999999999997
40
0.499999999999997
40
0.531249999999997
40
0.531249999999997
40
0.562499999999998
40
0.562499999999998
40
0.593749999999998
40
0.593749999999998
40
0.624999999999998
40
0.624999999999998
40
0.656249999999999
40
0.656249999999999
40
0.687499999999999
40
0.687499999999999
40
0.71875
40
0.71875
40
0.72265625
40
0.72265625
40
0.7265625
40
0.7265625
40
0.734375
40
0.734375
40
0.75
40
0.75
40
0.78125
40
0.78125
40
0.8125
40
0.8125
40
0.84375
40
0.84375
40
0.875
40
0.875
40
0.90625
40
0.90625
40
0.9375
40
0.9375
40
0.96875
40
0.96875
40
1
40
1
40
1
40
1
41
1
10
83.5706860771144
20
9.12799999999999
30
0
41
1
10
83.6395089273695
20
9.12799999999999
30
0
41
1
10
83.7083317776248
20
9.10532107633856
30
0
41
1
10
83.8459774781354
20
9.00836887768122
30
0
41
1
10
83.9148003283906
20
8.93406569370458
30
0
41
1
10
84.052446028901
20
8.72943434738329
30
0
41
1
10
84.1212688791563
20
8.59908016349476
30
0
41
1
10
84.2589145796669
20
8.28064141926433
30
0
41
1
10
84.3277374299221
20
8.0925415186079
30
0
41
1
10
84.4653831304326
20
7.66027802417693
30
0
41
1
10
84.5342059806878
20
7.41611533837778
30
0
41
1
10
84.6718516811983
20
6.877000661995
30
0
41
1
10
84.7406745314536
20
6.58206776579536
30
0
41
1
10
84.878320231964
20
5.94999772008396
30
0
41
1
10
84.9471430822193
20
5.61289484814995
30
0
41
1
10
85.0847887827298
20
4.90756345794486
30
0
41
1
10
85.1536116329851
20
4.53937716352632
30
0
41
1
10
85.2912573334955
20
3.78427236716073
30
0
41
1
10
85.3600801837509
20
3.39739509455467
30
0
41
1
10
85.4977258842613
20
2.61732997493334
30
0
41
1
10
85.5665487345166
20
2.22417477592038
30
0
41
1
10
85.7041944350271
20
1.44286852634642
30
0
41
1
10
85.7730172852823
20
1.05473739772739
30
0
41
1
10
85.8762515606652
20
0.483348946970267
30
0
41
1
10
85.9106629857928
20
0.294670809265597
30
0
41
1
10
85.9622801234842
20
0.0150500874462125
30
0
41
1
10
85.9794858360481
20
-0.0774745395540322
30
0
41
1
10
86.0138972611757
20
-0.264388247792141
30
0
41
1
10
86.0311029737395
20
-0.358397529370023
30
0
41
1
10
86.1171315365586
20
-0.830912610415481
30
0
41
1
10
86.1859543868138
20
-1.21691201418866
30
0
41
1
10
86.3236000873243
20
-1.99594218503486
30
0
41
1
10
86.3924229375796
20
-2.38895564396356
30
0
41
1
10
86.53006863809
20
-3.17104519073183
30
0
41
1
10
86.5988914883453
20
-3.56009090026586
30
0
41
1
10
86.7365371888558
20
-4.32197723123602
30
0
41
1
10
86.8053600391111
20
-4.6947777828311
30
0
41
1
10
86.9430057396215
20
-5.41168094615338
30
0
41
1
10
87.0118285898768
20
-5.75574082925328
30
0
41
1
10
87.1494742903872
20
-6.40371701715515
30
0
41
1
10
87.2182971406424
20
-6.70759684003806
30
0
41
1
10
87.355942841153
20
-7.26603772013954
30
0
41
1
10
87.4247656914082
20
-7.52057634670339
30
0
41
1
10
87.5624113919188
20
-7.97434150699215
30
0
41
1
10
87.6312342421739
20
-8.17356360912993
30
0
41
1
10
87.7688799426845
20
-8.51429791027056
30
0
41
1
10
87.8377027929398
20
-8.65582265003559
30
0
41
1
10
87.9753484934502
20
-8.88222971746973
30
0
41
1
10
88.0441713437054
20
-8.96713652270816
30
0
41
1
10
88.1818170442159
20
-9.08426287466565
30
0
41
1
10
88.2506398944712
20
-9.11651208531299
30
0
41
1
10
88.3280656010083
20
-9.12653314225136
30
0
41
1
10
88.3366684572902
20
-9.12728284623901
30
0
41
1
10
88.3538741698541
20
-9.12806788565712
30
0
41
1
10
88.3624770261359
20
-9.12810470427655
30
0
41
1
10
88.3882855949817
20
-9.12715117920695
30
0
41
1
10
88.4054913075455
20
-9.12508939852054
30
0
41
1
10
88.4571084452368
20
-9.11446957750667
30
0
41
1
10
88.4915198703646
20
-9.10147411021617
30
0
41
1
10
88.5947541457475
20
-9.04358358688714
30
0
41
1
10
88.6635769960027
20
-8.97971465887008
30
0
41
1
10
88.8012226965132
20
-8.79662356450538
30
0
41
1
10
88.8700455467684
20
-8.67737409544202
30
0
41
1
10
89.0076912472789
20
-8.38122746180926
30
0
41
1
10
89.0765140975342
20
-8.2043123748079
30
0
41
1
10
89.2141597980446
20
-7.79381327159373
30
0
41
1
10
89.2829826482999
20
-7.56022671711182
30
0
41
1
10
89.4206283488105
20
-7.04096491019607
30
0
41
1
10
89.4894511990657
20
-6.75530530058325
30
0
41
1
10
89.6270968995761
20
-6.1398891358144
30
0
41
1
10
89.6959197498314
20
-5.81016437319019
30
0
41
1
10
89.833565450342
20
-5.11729678543418
30
0
41
1
10
89.9023883005972
20
-4.75419533284213
30
0
41
1
10
90.0400340011076
20
-4.00681381054889
30
0
41
1
10
90.1088568513628
20
-3.62257583741976
30
0
41
1
10
90.1776797016182
20
-3.23400498595868
30
0
0
SPLINE
5
EF
100
AcDbEntity
8
1
62
256
6
ByLayer
370
13
48
1
60
0
100
AcDbSpline
70
4
71
3
72
22
73
18
40
0
40
0
40
0
40
0
40
0.125
40
0.125
40
0.25
40
0.25
40
0.375
40
0.375
40
0.5
40
0.5
40
0.625
40
0.625
40
0.75
40
0.75
40
0.875
40
0.875
40
1
40
1
40
1
40
1
41
1
10
80.6
20
4.13930245427679
30
0
41
1
10
80.6689938299398
20
4.51816268854245
30
0
41
1
10
80.7379876598795
20
4.8877360709613
30
0
41
1
10
80.8759753197591
20
5.59589618149025
30
0
41
1
10
80.9449691496989
20
5.93444010073054
30
0
41
1
10
81.0829568095785
20
6.5693324070435
30
0
41
1
10
81.1519506395182
20
6.86564590859854
30
0
41
1
10
81.2899382993978
20
7.40735652893648
30
0
41
1
10
81.3589321293375
20
7.65273409557724
30
0
41
1
10
81.496919789217
20
8.0871822312557
30
0
41
1
10
81.5659136191568
20
8.27625169939657
30
0
41
1
10
81.7039012790364
20
8.59634030224447
30
0
41
1
10
81.7728951089762
20
8.72737486245526
30
0
41
1
10
81.9108827688557
20
8.93307079480962
30
0
41
1
10
81.9798765987955
20
9.00775847495254
30
0
41
1
10
82.117864258675
20
9.10520793794373
30
0
41
1
10
82.1868580886147
20
9.12800000000001
30
0
41
1
10
82.2558519185545
20
9.12799999999999
30
0
0
SPLINE
5
F0
100
AcDbEntity
8
1
62
256
6
ByLayer
370
13
48
1
60
0
100
AcDbSpline
70
4
71
3
72
81
73
77
40
0
40
0
40
0
40
0
40
0.0312500000000015
40
0.0312500000000015
40
0.062500000000003
40
0.062500000000003
40
0.0937500000000045
40
0.0937500000000045
40
0.125000000000006
40
0.125000000000006
40
0.156250000000007
40
0.156250000000007
40
0.187500000000009
40
0.187500000000009
40
0.21875000000001
40
0.21875000000001
40
0.250000000000012
40
0.250000000000012
40
0.281250000000013
40
0.281250000000013
40
0.312500000000015
40
0.312500000000015
40
0.328125000000015
40
0.328125000000015
40
0.335937500000016
40
0.335937500000016
40
0.339843750000016
40
0.339843750000016
40
0.343750000000016
40
0.343750000000016
40
0.375000000000013
40
0.375000000000013
40
0.406250000000011
40
0.406250000000011
40
0.437500000000009
40
0.437500000000009
40
0.468750000000006
40
0.468750000000006
40
0.500000000000004
40
0.500000000000004
40
0.531250000000002
40
0.531250000000002
40
0.5625
40
0.5625
40
0.593749999999997
40
0.593749999999997
40
0.624999999999995
40
0.624999999999995
40
0.656249999999993
40
0.656249999999993
40
0.671874999999992
40
0.671874999999992
40
0.675781249999992
40
0.675781249999992
40
0.679687499999992
40
0.687499999999992
40
0.687499999999992
40
0.718749999999993
40
0.718749999999993
40
0.749999999999993
40
0.749999999999993
40
0.781249999999994
40
0.781249999999994
40
0.812499999999995
40
0.812499999999995
40
0.843749999999996
40
0.843749999999996
40
0.874999999999997
40
0.874999999999997
40
0.906249999999998
40
0.906249999999998
40
0.937499999999998
40
0.937499999999998
40
0.968749999999999
40
0.968749999999999
40
1
40
1
40
1
40
1
41
1
10
83.0755718107426
20
9.12799999999999
30
0
41
1
10
83.1495521012725
20
9.12799999999999
30
0
41
1
10
83.2235323918026
20
9.10178326791907
30
0
41
1
10
83.3714929728625
20
8.98924112894255
30
0
41
1
10
83.4454732633924
20
8.90287295748672
30
0
41
1
10
83.5934338444523
20
8.66484706736469
30
0
41
1
10
83.6674141349822
20
8.5131537547833
30
0
41
1
10
83.8153747160421
20
8.14308781481918
30
0
41
1
10
83.8893550065721
20
7.92469790757085
30
0
41
1
10
84.0373155876321
20
7.42447583950516
30
0
41
1
10
84.111295878162
20
7.14265282896901
30
0
41
1
10
84.2592564592219
20
6.52357645466103
30
0
41
1
10
84.3332367497519
20
6.18635949388909
30
0
41
1
10
84.4811973308117
20
5.46859324586472
30
0
41
1
10
84.5551776213417
20
5.08809972560138
30
0
41
1
10
84.7031382024016
20
4.29854354938877
30
0
41
1
10
84.7771184929317
20
3.88954222320359
30
0
41
1
10
84.9250790739915
20
3.05858561771663
30
0
41
1
10
84.9990593645214
20
2.63668309737258
30
0
41
1
10
85.1470199455812
20
1.79462761842206
30
0
41
1
10
85.2210002361113
20
1.37450948419556
30
0
41
1
10
85.3319706719061
20
0.754980323179979
30
0
41
1
10
85.3689608171711
20
0.550224468168778
30
0
41
1
10
85.4244460350686
20
0.246677932312252
30
0
41
1
10
85.4429411077012
20
0.146092125889396
30
0
41
1
10
85.4706837166499
20
-0.0037861777873331
30
0
41
1
10
85.4799312529661
20
-0.0535965269046415
30
0
41
1
10
85.4984263255986
20
-0.153768290384846
30
0
41
1
10
85.5076738619149
20
-0.204017549256832
30
0
41
1
10
85.5909016887611
20
-0.657652291042155
30
0
41
1
10
85.664881979291
20
-1.07090270750848
30
0
41
1
10
85.812842560351
20
-1.90671974733868
30
0
41
1
10
85.8868228508809
20
-2.32926346182163
30
0
41
1
10
86.0347834319408
20
-3.17017875693824
30
0
41
1
10
86.1087637224708
20
-3.5885072208817
30
0
41
1
10
86.2567243035307
20
-4.40573765591017
30
0
41
1
10
86.3307045940606
20
-4.804581736888
30
0
41
1
10
86.4786651751206
20
-5.56736630535463
30
0
41
1
10
86.5526454656505
20
-5.93124597194569
30
0
41
1
10
86.7006060467104
20
-6.61023368868518
30
0
41
1
10
86.7745863372403
20
-6.92529270878183
30
0
41
1
10
86.9225469183002
20
-7.49608520157506
30
0
41
1
10
86.9965272088301
20
-7.75179332086987
30
0
41
1
10
87.14448778989
20
-8.19780047652438
30
0
41
1
10
87.2184680804201
20
-8.38810213848856
30
0
41
1
10
87.36642866148
20
-8.70203232005198
30
0
41
1
10
87.4404089520099
20
-8.825687141793
30
0
41
1
10
87.5883695330697
20
-9.00942117874942
30
0
41
1
10
87.6623498235997
20
-9.06954038712502
30
0
41
1
10
87.7733202593947
20
-9.1168545953893
30
0
41
1
10
87.8103104046596
20
-9.12550385654052
30
0
41
1
10
87.8565480862409
20
-9.12803890870248
30
0
41
1
10
87.8657956225571
20
-9.1281338546643
30
0
41
1
10
87.8842906951896
20
-9.12750530100655
30
0
41
1
10
87.9120333041383
20
-9.12532762879735
30
0
41
1
10
87.939775913087
20
-9.11937118918001
30
0
41
1
10
88.0322512762494
20
-9.09080377180518
30
0
41
1
10
88.1062315667795
20
-9.03997586758933
30
0
41
1
10
88.2541921478394
20
-8.8756311759789
30
0
41
1
10
88.3281724383693
20
-8.76207329964279
30
0
41
1
10
88.4761330194292
20
-8.46855677815537
30
0
41
1
10
88.5501133099592
20
-8.2885689879796
30
0
41
1
10
88.6980738910191
20
-7.86269148120778
30
0
41
1
10
88.772054181549
20
-7.61679501569628
30
0
41
1
10
88.920014762609
20
-7.06438603873846
30
0
41
1
10
88.9939950531389
20
-6.75789462050275
30
0
41
1
10
89.1419556341988
20
-6.0941674822455
30
0
41
1
10
89.2159359247287
20
-5.73697776717452
30
0
41
1
10
89.3638965057887
20
-4.98528498488065
30
0
41
1
10
89.4378767963187
20
-4.5908418791509
30
0
41
1
10
89.5858373773785
20
-3.77999427278945
30
0
41
1
10
89.6598176679084
20
-3.36364901617841
30
0
41
1
10
89.8077782489684
20
-2.52442436475354
30
0
41
1
10
89.8817585394983
20
-2.10159089749575
30
0
41
1
10
90.0297191205582
20
-1.26327032598695
30
0
41
1
10
90.1036994110882
20
-0.847809320933038
30
0
41
1
10
90.1776797016182
20
-0.441638798998895
30
0
0
SPLINE
5
F1
100
AcDbEntity
8
1
62
256
6
ByLayer
370
13
48
1
60
0
100
AcDbSpline
70
4
71
3
72
18
73
14
40
0
40
0
40
0
40
0
40
0.125
40
0.125
40
0.249999999999999
40
0.249999999999999
40
0.374999999999999
40
0.374999999999999
40
0.499999999999998
40
0.499999999999998
40
0.749999999999999
40
0.749999999999999
40
1
40
1
40
1
40
1
41
1
10
80.6
20
6.6152846094887
30
0
41
1
10
80.6483640688409
20
6.82573851681323
30
0
41
1
10
80.6967281376819
20
7.02491783132342
30
0
41
1
10
80.7934562753638
20
7.3979998514944
30
0
41
1
10
80.8418203442047
20
7.57189951836059
30
0
41
1
10
80.9385484818866
20
7.89250248486456
30
0
41
1
10
80.9869125507277
20
8.03920495910688
30
0
41
1
10
81.0836406884096
20
8.30437004441825
30
0
41
1
10
81.1320047572505
20
8.42283395993144
30
0
41
1
10
81.2770969637733
20
8.73560336965508
30
0
41
1
10
81.3738251014552
20
8.88695209473772
30
0
41
1
10
81.567281376819
20
9.08307137122179
30
0
41
1
10
81.6640095145009
20
9.12799999999999
30
0
41
1
10
81.7607376521828
20
9.12799999999999
30
0
0
SPLINE
5
F2
100
AcDbEntity
8
1
62
256
6
ByLayer
370
13
48
1
60
0
100
AcDbSpline
70
4
71
3
72
85
73
81
40
0
40
0
40
0
40
0
40
0.0312499999999989
40
0.0312499999999989
40
0.0624999999999977
40
0.0624999999999977
40
0.0937499999999966
40
0.0937499999999966
40
0.124999999999996
40
0.124999999999996
40
0.156249999999994
40
0.156249999999994
40
0.187499999999993
40
0.187499999999993
40
0.218749999999992
40
0.218749999999992
40
0.249999999999991
40
0.249999999999991
40
0.28124999999999
40
0.28124999999999
40
0.312499999999989
40
0.312499999999989
40
0.316406249999989
40
0.316406249999989
40
0.320312499999989
40
0.328124999999989
40
0.328124999999989
40
0.343749999999989
40
0.343749999999989
40
0.37499999999999
40
0.37499999999999
40
0.40624999999999
40
0.40624999999999
40
0.43749999999999
40
0.43749999999999
40
0.468749999999991
40
0.468749999999991
40
0.499999999999991
40
0.499999999999991
40
0.531249999999992
40
0.531249999999992
40
0.562499999999992
40
0.562499999999992
40
0.593749999999992
40
0.593749999999992
40
0.624999999999993
40
0.624999999999993
40
0.628906249999993
40
0.628906249999993
40
0.632812499999993
40
0.632812499999993
40
0.640624999999994
40
0.640624999999994
40
0.656249999999994
40
0.656249999999994
40
0.687499999999994
40
0.687499999999994
40
0.718749999999995
40
0.718749999999995
40
0.749999999999996
40
0.749999999999996
40
0.781249999999997
40
0.781249999999997
40
0.812499999999998
40
0.812499999999998
40
0.843749999999999
40
0.843749999999999
40
0.875
40
0.875
40
0.906250000000001
40
0.906250000000001
40
0.937500000000001
40
0.937500000000001
40
0.945312500000001
40
0.945312500000001
40
0.953125000000001
40
0.953125000000001
40
0.968750000000001
40
0.968750000000001
40
1
40
1
40
1
40
1
41
1
10
82.5804575443709
20
9.12799999999999
30
0
41
1
10
82.6595952751755
20
9.12799999999999
30
0
41
1
10
82.7387330059803
20
9.09798612942251
30
0
41
1
10
82.8970084675895
20
8.96862498939177
30
0
41
1
10
82.9761461983942
20
8.86921812517565
30
0
41
1
10
83.1344216600035
20
8.59513966128912
30
0
41
1
10
83.2135593908082
20
8.42042098048546
30
0
41
1
10
83.3718348524175
20
7.994941030224
30
0
41
1
10
83.4509725832222
20
7.74416269573868
30
0
41
1
10
83.6092480448315
20
7.17196682868754
30
0
41
1
10
83.6883857756361
20
6.85057316108595
30
0
41
1
10
83.8466612372455
20
6.14866072731056
30
0
41
1
10
83.9257989680501
20
5.76820411511673
30
0
41
1
10
84.0840744296594
20
4.96447505109839
30
0
41
1
10
84.1632121604641
20
4.54128639561392
30
0
41
1
10
84.3214876220734
20
3.67093284831967
30
0
41
1
10
84.400625352878
20
3.22385006712892
30
0
41
1
10
84.5589008144873
20
2.32449802937148
30
0
41
1
10
84.6380385452921
20
1.87228961749255
30
0
41
1
10
84.7963140069014
20
0.979213939182102
30
0
41
1
10
84.875451737706
20
0.538377325051727
30
0
41
1
10
84.9644816848613
20
0.0560546527187569
30
0
41
1
10
84.9743739012118
20
0.0027785351093144
30
0
41
1
10
84.994158333913
20
-0.1041274398643
30
0
41
1
10
85.0238349829648
20
-0.265057343589831
30
0
41
1
10
85.0535116320165
20
-0.427606493901095
30
0
41
1
10
85.1128649301201
20
-0.754591650786296
30
0
41
1
10
85.1524337955224
20
-0.975105273494677
30
0
41
1
10
85.2711403917294
20
-1.64175451431987
30
0
41
1
10
85.350278122534
20
-2.09309947684551
30
0
41
1
10
85.5085535841433
20
-2.99375025276311
30
0
41
1
10
85.5876913149478
20
-3.44300008395069
30
0
41
1
10
85.7459667765573
20
-4.32096677294547
30
0
41
1
10
85.825104507362
20
-4.74960400946478
30
0
41
1
10
85.9833799689713
20
-5.56734497168506
30
0
41
1
10
86.062517699776
20
-5.95636351197649
30
0
41
1
10
86.2207931613852
20
-6.67791134880181
30
0
41
1
10
86.2999308921899
20
-7.01037330073655
30
0
41
1
10
86.4582063537991
20
-7.60627606834885
30
0
41
1
10
86.5373440846039
20
-7.86968585948742
30
0
41
1
10
86.6956195462132
20
-8.32091352199697
30
0
41
1
10
86.7747572770178
20
-8.50874192562509
30
0
41
1
10
86.9330327386271
20
-8.80851019872756
30
0
41
1
10
87.0121704694318
20
-8.92049318882903
30
0
41
1
10
87.1704459310411
20
-9.07369735770411
30
0
41
1
10
87.2495836618458
20
-9.11497725187422
30
0
41
1
10
87.338613609001
20
-9.12664984184042
30
0
41
1
10
87.3485058253516
20
-9.12746566975895
30
0
41
1
10
87.3682902580528
20
-9.12815504951928
30
0
41
1
10
87.3781824744034
20
-9.12803159638986
30
0
41
1
10
87.4078591234551
20
-9.12624501791029
30
0
41
1
10
87.4276435561562
20
-9.12315846554947
30
0
41
1
10
87.4869968542598
20
-9.10797707647285
30
0
41
1
10
87.526565719662
20
-9.08995499274715
30
0
41
1
10
87.6452723158691
20
-9.01047363542568
30
0
41
1
10
87.7244100466737
20
-8.92346589053238
30
0
41
1
10
87.882685508283
20
-8.67487528265534
30
0
41
1
10
87.9618232390877
20
-8.51324191003039
30
0
41
1
10
88.120098700697
20
-8.1136440949887
30
0
41
1
10
88.1992364315017
20
-7.8756563920148
30
0
41
1
10
88.3575118931111
20
-7.32766736191087
30
0
41
1
10
88.4366496239156
20
-7.0176826646144
30
0
41
1
10
88.5949250855249
20
-6.33622943126809
30
0
41
1
10
88.6740628163296
20
-5.96481735331486
30
0
41
1
10
88.832338277939
20
-5.17614007079763
30
0
41
1
10
88.9114760087436
20
-4.75895656503235
30
0
41
1
10
89.0697514703529
20
-3.89732688804102
30
0
41
1
10
89.1488892011575
20
-3.45296472749041
30
0
41
1
10
89.3071646627668
20
-2.55595044335436
30
0
41
1
10
89.3863023935716
20
-2.10336376621953
30
0
41
1
10
89.5445778551808
20
-1.20693932741321
30
0
41
1
10
89.6237155859856
20
-0.76313749690965
30
0
41
1
10
89.7226377494913
20
-0.222323908079062
30
0
41
1
10
89.7424221821925
20
-0.11484850936472
30
0
41
1
10
89.7819910475948
20
0.0985562862707923
30
0
41
1
10
89.801775480296
20
0.205881155453852
30
0
41
1
10
89.8611287783995
20
0.530158887403218
30
0
41
1
10
89.9006976438019
20
0.749119420067728
30
0
41
1
10
90.0194042400089
20
1.41199313436684
30
0
41
1
10
90.0985419708135
20
1.86200599699967
30
0
41
1
10
90.1776797016182
20
2.31247335936104
30
0
0
SPLINE
5
F3
100
AcDbEntity
8
1
62
256
6
ByLayer
370
13
48
1
60
0
100
AcDbSpline
70
4
71
3
72
14
73
10
40
0
40
0
40
0
40
0
40
0.25
40
0.25
40
0.5
40
0.5
40
0.75
40
0.75
40
1
40
1
40
1
40
1
41
1
10
80.6
20
8.3286189985227
30
0
41
1
10
80.6554686154843
20
8.4673075673368
30
0
41
1
10
80.7109372309685
20
8.58729722719247
30
0
41
1
10
80.821874461937
20
8.79021157619985
30
0
41
1
10
80.8773430774213
20
8.87314391218854
30
0
41
1
10
80.9882803083898
20
9.00356921752308
30
0
41
1
10
81.043748923874
20
9.05107185753658
30
0
41
1
10
81.1546861548425
20
9.11328214358957
30
0
41
1
10
81.2101547703268
20
9.12799999999999
30
0
41
1
10
81.2656233858111
20
9.12799999999999
30
0
0
SPLINE
5
F4
100
AcDbEntity
8
1
62
256
6
ByLayer
370
13
48
1
60
0
100
AcDbSpline
70
4
71
3
72
85
73
81
40
0
40
0
40
0
40
0
40
0.0312500000000014
40
0.0312500000000014
40
0.0625000000000028
40
0.0625000000000028
40
0.0937500000000042
40
0.0937500000000042
40
0.125000000000006
40
0.125000000000006
40
0.156250000000007
40
0.156250000000007
40
0.187500000000008
40
0.187500000000008
40
0.21875000000001
40
0.21875000000001
40
0.250000000000011
40
0.250000000000011
40
0.281250000000012
40
0.281250000000012
40
0.289062500000013
40
0.292968750000013
40
0.292968750000013
40
0.296875000000013
40
0.296875000000013
40
0.312500000000013
40
0.312500000000013
40
0.343750000000014
40
0.343750000000014
40
0.375000000000014
40
0.375000000000014
40
0.406250000000014
40
0.406250000000014
40
0.437500000000015
40
0.437500000000015
40
0.468750000000015
40
0.468750000000015
40
0.500000000000015
40
0.500000000000015
40
0.531250000000016
40
0.531250000000016
40
0.562500000000016
40
0.562500000000016
40
0.578125000000016
40
0.578125000000016
40
0.585937500000016
40
0.589843750000016
40
0.589843750000016
40
0.593750000000016
40
0.593750000000016
40
0.625000000000014
40
0.625000000000014
40
0.656250000000013
40
0.656250000000013
40
0.687500000000011
40
0.687500000000011
40
0.718750000000009
40
0.718750000000009
40
0.750000000000007
40
0.750000000000007
40
0.781250000000006
40
0.781250000000006
40
0.812500000000004
40
0.812500000000004
40
0.843750000000002
40
0.843750000000002
40
0.875000000000001
40
0.875000000000001
40
0.8828125
40
0.88671875
40
0.88671875
40
0.890625
40
0.890625
40
0.90625
40
0.90625
40
0.9375
40
0.9375
40
0.96875
40
0.96875
40
1
40
1
40
1
40
1
41
1
10
82.0853432779992
20
9.12799999999999
30
0
41
1
10
82.1696384490785
20
9.12799999999999
30
0
41
1
10
82.2539336201579
20
9.09392873874899
30
0
41
1
10
82.4225239623166
20
8.94650819511847
30
0
41
1
10
82.506819133396
20
8.83307772487007
30
0
41
1
10
82.6754094755547
20
8.52028523047795
30
0
41
1
10
82.7597046466341
20
8.32086288330947
30
0
41
1
10
82.9282949887929
20
7.83629623888655
30
0
41
1
10
83.0125901598722
20
7.55113890429036
30
0
41
1
10
83.1811805020309
20
6.90337193634946
30
0
41
1
10
83.2654756731102
20
6.54080986237872
30
0
41
1
10
83.434066015269
20
5.75407668770018
30
0
41
1
10
83.5183611863484
20
5.33000353511869
30
0
41
1
10
83.6869515285072
20
4.44141866481891
30
0
41
1
10
83.7712466995865
20
3.97702456093205
30
0
41
1
10
83.9398370417453
20
3.03092971699113
30
0
41
1
10
84.0241322128246
20
2.54933069641575
30
0
41
1
10
84.1927225549833
20
1.59049650626051
30
0
41
1
10
84.2770177260627
20
1.11332364296237
30
0
41
1
10
84.3823866899119
20
0.53063148500803
30
0
41
1
10
84.4139973790666
20
0.356839186807179
30
0
41
1
10
84.4456080682214
20
0.184823196486093
30
0
41
1
10
84.4666818609912
20
0.070566331446031
30
0
41
1
10
84.4772187573761
20
0.0137861302667091
30
0
41
1
10
84.5299032393008
20
-0.27080106455287
30
0
41
1
10
84.5720508248405
20
-0.501949006070532
30
0
41
1
10
84.6984935814595
20
-1.20318527800171
30
0
41
1
10
84.7827887525389
20
-1.68121081888094
30
0
41
1
10
84.9513790946976
20
-2.64048436834165
30
0
41
1
10
85.0356742657769
20
-3.12166724927329
30
0
41
1
10
85.2042646079357
20
-4.06548172911093
30
0
41
1
10
85.288559779015
20
-4.52800971851735
30
0
41
1
10
85.4571501211738
20
-5.4114278534218
30
0
41
1
10
85.5414452922531
20
-5.83220052819553
30
0
41
1
10
85.7100356344118
20
-6.6111374545024
30
0
41
1
10
85.7943308054912
20
-6.96920618684314
30
0
41
1
10
85.9629211476499
20
-7.60721727129621
30
0
41
1
10
86.0472163187293
20
-7.88711585722322
30
0
41
1
10
86.215806660888
20
-8.36091087291604
30
0
41
1
10
86.3001018319674
20
-8.55482393408511
30
0
41
1
10
86.4686921741261
20
-8.85683079880377
30
0
41
1
10
86.5529873452055
20
-8.96498708194108
30
0
41
1
10
86.6794301018246
20
-9.0680924834229
30
0
41
1
10
86.7215776873642
20
-9.0926526125603
30
0
41
1
10
86.7847990656737
20
-9.11576476366236
30
0
41
1
10
86.8164097548285
20
-9.12389175874026
30
0
41
1
10
86.8480204439833
20
-9.12708250743705
30
0
41
1
10
86.8690942367531
20
-9.12813704919319
30
0
41
1
10
86.879631133138
20
-9.12813105928069
30
0
41
1
10
86.9744632006023
20
-9.12327593024673
30
0
41
1
10
87.0587583716817
20
-9.08448661055562
30
0
41
1
10
87.2273487138405
20
-8.92704604414595
30
0
41
1
10
87.3116438849198
20
-8.8083141076319
30
0
41
1
10
87.4802342270785
20
-8.48470919533636
30
0
41
1
10
87.5645293981579
20
-8.2797781638989
30
0
41
1
10
87.7331197403166
20
-7.78447388402427
30
0
41
1
10
87.817414911396
20
-7.49409124945541
30
0
41
1
10
87.9860052535547
20
-6.83666617491667
30
0
41
1
10
88.0703004246341
20
-6.46967504570293
30
0
41
1
10
88.2388907667928
20
-5.67529587208048
30
0
41
1
10
88.3231859378722
20
-5.24800807616916
30
0
41
1
10
88.4917762800309
20
-4.35443598897544
30
0
41
1
10
88.5760714511102
20
-3.88826930637987
30
0
41
1
10
88.744661793269
20
-2.94007501054082
30
0
41
1
10
88.8289569643483
20
-2.45814713044408
30
0
41
1
10
88.997547306507
20
-1.49991042840568
30
0
41
1
10
89.0818424775865
20
-1.02366107509039
30
0
41
1
10
89.1872114414356
20
-0.442715596656342
30
0
41
1
10
89.2188221305905
20
-0.269491479801871
30
0
41
1
10
89.2504328197452
20
-0.0981040837185958
30
0
41
1
10
89.271506612515
20
0.0157209516444823
30
0
41
1
10
89.2820435088998
20
0.0725086541225721
30
0
41
1
10
89.3347279908245
20
0.35817469768952
30
0
41
1
10
89.3768755763642
20
0.590083469196543
30
0
41
1
10
89.5033183329832
20
1.29323312722462
30
0
41
1
10
89.5876135040626
20
1.77203927511059
30
0
41
1
10
89.7562038462213
20
2.73159206140065
30
0
41
1
10
89.8404990173007
20
3.21227077193112
30
0
41
1
10
90.0090893594595
20
4.15362327167381
30
0
41
1
10
90.0933845305389
20
4.61419166237525
30
0
41
1
10
90.1776797016182
20
5.05322811740118
30
0
0
SPLINE
5
F5
100
AcDbEntity
8
1
62
256
6
ByLayer
370
13
48
1
60
0
100
AcDbSpline
70
4
71
3
72
8
73
4
40
0
40
0
40
0
40
0
40
1
40
1
40
1
40
1
41
1
10
80.6
20
9.07984613810666
30
0
41
1
10
80.6568363731465
20
9.1125460656001
30
0
41
1
10
80.7136727462929
20
9.12799999999999
30
0
41
1
10
80.7705091194393
20
9.12799999999999
30
0
0
SPLINE
5
F6
100
AcDbEntity
8
1
62
256
6
ByLayer
370
13
48
1
60
0
100
AcDbSpline
70
4
71
3
72
87
73
83
40
0
40
0
40
0
40
0
40
0.03125
40
0.03125
40
0.0624999999999999
40
0.0624999999999999
40
0.0937499999999999
40
0.0937499999999999
40
0.125
40
0.125
40
0.15625
40
0.15625
40
0.1875
40
0.1875
40
0.21875
40
0.21875
40
0.25
40
0.25
40
0.265625
40
0.265625
40
0.2734375
40
0.277343749999999
40
0.277343749999999
40
0.281249999999999
40
0.281249999999999
40
0.312499999999999
40
0.312499999999999
40
0.343749999999999
40
0.343749999999999
40
0.374999999999999
40
0.374999999999999
40
0.406249999999999
40
0.406249999999999
40
0.437499999999999
40
0.437499999999999
40
0.468749999999999
40
0.468749999999999
40
0.499999999999999
40
0.499999999999999
40
0.531249999999999
40
0.531249999999999
40
0.546874999999999
40
0.546874999999999
40
0.554687499999999
40
0.554687499999999
40
0.55859375
40
0.55859375
40
0.5625
40
0.5625
40
0.59375
40
0.59375
40
0.625
40
0.625
40
0.65625
40
0.65625
40
0.6875
40
0.6875
40
0.71875
40
0.71875
40
0.75
40
0.75
40
0.78125
40
0.78125
40
0.8125
40
0.8125
40
0.828125
40
0.828125
40
0.8359375
40
0.8359375
40
0.83984375
40
0.83984375
40
0.84375
40
0.84375
40
0.875
40
0.875
40
0.90625
40
0.90625
40
0.9375
40
0.9375
40
0.96875
40
0.96875
40
1
40
1
40
1
40
1
41
1
10
81.5902290116275
20
9.12799999999999
30
0
41
1
10
81.6796816229815
20
9.12799999999999
30
0
41
1
10
81.7691342343355
20
9.08961007798518
30
0
41
1
10
81.9480394570437
20
8.92287895690791
30
0
41
1
10
82.0374920683978
20
8.79442936252403
30
0
41
1
10
82.2163972911059
20
8.4402647512195
30
0
41
1
10
82.3058499024601
20
8.21447481530419
30
0
41
1
10
82.4847551251682
20
7.66728856263398
30
0
41
1
10
82.5742077365222
20
7.34588923898798
30
0
41
1
10
82.7531129592304
20
6.61942141833455
30
0
41
1
10
82.8425655705844
20
6.21443594069152
30
0
41
1
10
83.0214707932925
20
5.34183043810941
30
0
41
1
10
83.1109234046466
20
4.8743552249355
30
0
41
1
10
83.2898286273547
20
3.90335467709051
30
0
41
1
10
83.3792812387089
20
3.39998458940286
30
0
41
1
10
83.5581864614171
20
2.38461654488233
30
0
41
1
10
83.6476390727711
20
1.87273503546115
30
0
41
1
10
83.7818179898022
20
1.11645010710166
30
0
41
1
10
83.8265442954792
20
0.866240355001736
30
0
41
1
10
83.8936337539948
20
0.495582245059495
30
0
41
1
10
83.9271784832525
20
0.311412671791942
30
0
41
1
10
83.9607232125103
20
0.129281922366289
30
0
41
1
10
83.9830863653488
20
0.0083447149198719
30
0
41
1
10
83.9942679417682
20
-0.0518393077794883
30
0
41
1
10
84.0949021295414
20
-0.59709385252151
30
0
41
1
10
84.1843547408955
20
-1.09727405827778
30
0
41
1
10
84.3632599636036
20
-2.10977548455412
30
0
41
1
10
84.4527125749577
20
-2.62203257183589
30
0
41
1
10
84.6316177976659
20
-3.63404883183713
30
0
41
1
10
84.7210704090198
20
-4.13368321060858
30
0
41
1
10
84.8999756317281
20
-5.09291902217154
30
0
41
1
10
84.9894282430821
20
-5.55236318665422
30
0
41
1
10
85.1683334657902
20
-6.40515804921091
30
0
41
1
10
85.2577860771443
20
-6.79837053473426
30
0
41
1
10
85.4366912998524
20
-7.49875975844984
30
0
41
1
10
85.5261439112065
20
-7.80586620046651
30
0
41
1
10
85.7050491339147
20
-8.32351700232229
30
0
41
1
10
85.7945017452687
20
-8.53407732140118
30
0
41
1
10
85.9734069679769
20
-8.85837375089972
30
0
41
1
10
86.062859579331
20
-8.97219276373286
30
0
41
1
10
86.1970384963621
20
-9.07661386232394
30
0
41
1
10
86.241764802039
20
-9.1004285553054
30
0
41
1
10
86.3088542605547
20
-9.12086195154626
30
0
41
1
10
86.3312174133931
20
-9.12512737209198
30
0
41
1
10
86.3647621426509
20
-9.12787519702457
30
0
41
1
10
86.3759437190702
20
-9.12818415228571
30
0
41
1
10
86.3983068719087
20
-9.1276087646703
30
0
41
1
10
86.4094884483279
20
-9.1267203427735
30
0
41
1
10
86.5101226361013
20
-9.11318807459
30
0
41
1
10
86.5995752474554
20
-9.06159887340226
30
0
41
1
10
86.7784804701634
20
-8.86685447686068
30
0
41
1
10
86.8679330815175
20
-8.72359329812596
30
0
41
1
10
87.0468383042257
20
-8.33941736190303
30
0
41
1
10
87.1362909155798
20
-8.09843664553529
30
0
41
1
10
87.3151961382879
20
-7.52204476009746
30
0
41
1
10
87.404648749642
20
-7.18664390805125
30
0
41
1
10
87.58355397235
20
-6.4349037665443
30
0
41
1
10
87.6730065837043
20
-6.0186596131507
30
0
41
1
10
87.8519118064124
20
-5.12740787042014
30
0
41
1
10
87.9413644177665
20
-4.65255039321875
30
0
41
1
10
88.1202696404746
20
-3.67110176455773
30
0
41
1
10
88.2097222518286
20
-3.16466260481664
30
0
41
1
10
88.3886274745367
20
-2.14719062619784
30
0
41
1
10
88.4780800858908
20
-1.6362653411359
30
0
41
1
10
88.612259002922
20
-0.883830871771721
30
0
41
1
10
88.656985308599
20
-0.635304102186268
30
0
41
1
10
88.7240747671145
20
-0.26767597146781
30
0
41
1
10
88.746437919953
20
-0.145990418084665
30
0
41
1
10
88.7799826492108
20
0.0350644926937207
30
0
41
1
10
88.79116422563
20
0.0954180524035166
30
0
41
1
10
88.8135273784686
20
0.216812688110849
30
0
41
1
10
88.8247089548879
20
0.277744480249254
30
0
41
1
10
88.9253431426613
20
0.828098482373662
30
0
41
1
10
89.0147957540153
20
1.33155757084188
30
0
41
1
10
89.1937009767233
20
2.34712413979801
30
0
41
1
10
89.2831535880774
20
2.85915750413827
30
0
41
1
10
89.4620588107856
20
3.8665505610993
30
0
41
1
10
89.5515114221396
20
4.36177780184929
30
0
41
1
10
89.7304166448478
20
5.30794080127529
30
0
41
1
10
89.8198692562019
20
5.75871856490676
30
0
41
1
10
89.99877447891
20
6.59058189253165
30
0
41
1
10
90.088227090264
20
6.97153707899955
30
0
41
1
10
90.1776797016181
20
7.3083237830501
30
0
0
SPLINE
5
F7
100
AcDbEntity
8
1
62
256
6
ByLayer
370
13
48
1
60
0
100
AcDbSpline
70
4
71
3
72
8
73
4
40
0
40
0
40
0
40
0
40
1
40
1
40
1
40
1
41
1
10
90.1776797016182
20
-0.0971642979168621
30
0
41
1
10
91.2851198010788
20
-0.074884339121752
30
0
41
1
10
92.3925599005394
20
-0.0424960424741414
30
0
41
1
10
93.5
20
0
30
0
0
SPLINE
5
F8
100
AcDbEntity
8
1
62
256
6
ByLayer
370
13
48
1
60
0
100
AcDbSpline
70
4
71
3
72
8
73
4
40
0
40
0
40
0
40
0
40
1
40
1
40
1
40
1
41
1
10
90.1776797016182
20
-4.29325730118006
30
0
41
1
10
91.2851198010788
20
-2.85325073974036
30
0
41
1
10
92.3925599005394
20
-1.42215709107069
30
0
41
1
10
93.5
20
-8.53E-14
30
0
0
SPLINE
5
F9
100
AcDbEntity
8
1
62
256
6
ByLayer
370
13
48
1
60
0
100
AcDbSpline
70
4
71
3
72
8
73
4
40
0
40
0
40
0
40
0
40
1
40
1
40
1
40
1
41
1
10
90.1776797016181
20
0.352064242730336
30
0
41
1
10
91.2851198010787
20
0.244810686611231
30
0
41
1
10
92.3925599005394
20
0.127455272782726
30
0
41
1
10
93.5000000000001
20
0
30
0
0
SPLINE
5
FA
100
AcDbEntity
8
1
62
256
6
ByLayer
370
13
48
1
60
0
100
AcDbSpline
70
4
71
3
72
8
73
4
40
0
40
0
40
0
40
0
40
1
40
1
40
1
40
1
41
1
10
90.1776797016182
20
5.52176718908115
30
0
41
1
10
91.2851198010786
20
3.67312874501056
30
0
41
1
10
92.3925599005391
20
1.83252953876288
30
0
41
1
10
93.4999999999995
20
8.527E-13
30
0
0
SPLINE
5
FB
100
AcDbEntity
8
1
62
256
6
ByLayer
370
13
48
1
60
0
100
AcDbSpline
70
4
71
3
72
8
73
4
40
0
40
0
40
0
40
0
40
1
40
1
40
1
40
1
41
1
10
90.1776797016182
20
-0.852082837649277
30
0
41
1
10
91.2851198010787
20
-0.55799065137677
30
0
41
1
10
92.3925599005393
20
-0.273961489821886
30
0
41
1
10
93.4999999999999
20
-2.84E-14
30
0
0
SPLINE
5
FC
100
AcDbEntity
8
1
62
256
6
ByLayer
370
13
48
1
60
0
100
AcDbSpline
70
4
71
3
72
8
73
4
40
0
40
0
40
0
40
0
40
1
40
1
40
1
40
1
41
1
10
90.1776797016182
20
6.430796146662
30
0
41
1
10
91.2851198010786
20
4.28002336910316
30
0
41
1
10
92.3925599005391
20
2.13641283643801
30
0
41
1
10
93.4999999999995
20
9.948E-13
30
0
0
SPLINE
5
FD
100
AcDbEntity
8
1
62
256
6
ByLayer
370
13
48
1
60
0
100
AcDbSpline
70
4
71
3
72
8
73
4
40
0
40
0
40
0
40
0
40
1
40
1
40
1
40
1
41
1
10
90.1776797016182
20
4.90140473527578
30
0
41
1
10
91.2851198010787
20
3.27613092134362
30
0
41
1
10
92.3925599005394
20
1.64232031044125
30
0
41
1
10
93.5
20
8.53E-14
30
0
0
SPLINE
5
FE
100
AcDbEntity
8
1
62
256
6
ByLayer
370
13
48
1
60
0
100
AcDbSpline
70
4
71
3
72
8
73
4
40
0
40
0
40
0
40
0
40
1
40
1
40
1
40
1
41
1
10
90.1776797016182
20
-9.12523548112799
30
0
41
1
10
91.2851198010788
20
-6.08324154963705
30
0
41
1
10
92.3925599005394
20
-3.04147960262833
30
0
41
1
10
93.5
20
-1.421E-13
30
0
0
SPLINE
5
FF
100
AcDbEntity
8
1
62
256
6
ByLayer
370
13
48
1
60
0
100
AcDbSpline
70
4
71
3
72
8
73
4
40
0
40
0
40
0
40
0
40
1
40
1
40
1
40
1
41
1
10
90.1776797016181
20
2.72110030797174
30
0
41
1
10
91.2851198010788
20
1.82371597393396
30
0
41
1
10
92.3925599005395
20
0.91667751436475
30
0
41
1
10
93.5000000000002
20
-1.421E-13
30
0
0
SPLINE
5
100
100
AcDbEntity
8
1
62
256
6
ByLayer
370
13
48
1
60
0
100
AcDbSpline
70
4
71
3
72
8
73
4
40
0
40
0
40
0
40
0
40
1
40
1
40
1
40
1
41
1
10
90.1776797016182
20
-5.31659913234205
30
0
41
1
10
91.2851198010788
20
-3.53618238336006
30
0
41
1
10
92.3925599005394
20
-1.76397290710099
30
0
41
1
10
93.5
20
-8.53E-14
30
0
0
SPLINE
5
101
100
AcDbEntity
8
1
62
256
6
ByLayer
370
13
48
1
60
0
100
AcDbSpline
70
4
71
3
72
8
73
4
40
0
40
0
40
0
40
0
40
1
40
1
40
1
40
1
41
1
10
90.1776797016182
20
-7.06930014468424
30
0
41
1
10
91.2851198010788
20
-4.70647179952206
30
0
41
1
10
92.3925599005394
20
-2.35002542480254
30
0
41
1
10
93.5
20
-1.137E-13
30
0
0
SPLINE
5
102
100
AcDbEntity
8
1
62
256
6
ByLayer
370
13
48
1
60
0
100
AcDbSpline
70
4
71
3
72
8
73
4
40
0
40
0
40
0
40
0
40
1
40
1
40
1
40
1
41
1
10
90.1776797016182
20
4.51657407054049
30
0
41
1
10
91.2851198010788
20
3.00226486401758
30
0
41
1
10
92.3925599005394
20
1.49673188115602
30
0
41
1
10
93.5
20
8.53E-14
30
0
0
SPLINE
5
103
100
AcDbEntity
8
1
62
256
6
ByLayer
370
13
48
1
60
0
100
AcDbSpline
70
4
71
3
72
8
73
4
40
0
40
0
40
0
40
0
40
1
40
1
40
1
40
1
41
1
10
90.1776797016182
20
8.92444711044465
30
0
41
1
10
91.2851198010787
20
5.9517542941777
30
0
41
1
10
92.3925599005394
20
2.97692216907745
30
0
41
1
10
93.5
20
0
30
0
0
SPLINE
5
104
100
AcDbEntity
8
1
62
256
6
ByLayer
370
13
48
1
60
0
100
AcDbSpline
70
4
71
3
72
8
73
4
40
0
40
0
40
0
40
0
40
1
40
1
40
1
40
1
41
1
10
90.1776797016182
20
8.81931609141859
30
0
41
1
10
91.285119801079
20
5.87693744530918
30
0
41
1
10
92.3925599005397
20
2.93714919532039
30
0
41
1
10
93.5000000000005
20
-1.0516E-12
30
0
0
SPLINE
5
105
100
AcDbEntity
8
1
62
256
6
ByLayer
370
13
48
1
60
0
100
AcDbSpline
70
4
71
3
72
8
73
4
40
0
40
0
40
0
40
0
40
1
40
1
40
1
40
1
41
1
10
90.1776797016182
20
-5.67524735699112
30
0
41
1
10
91.2851198010788
20
-3.79141561774691
30
0
41
1
10
92.3925599005394
20
-1.8996560438087
30
0
41
1
10
93.5
20
-8.53E-14
30
0
0
SPLINE
5
106
100
AcDbEntity
8
1
62
256
6
ByLayer
370
13
48
1
60
0
100
AcDbSpline
70
4
71
3
72
8
73
4
40
0
40
0
40
0
40
0
40
1
40
1
40
1
40
1
41
1
10
90.1776797016182
20
-4.68441337738287
30
0
41
1
10
91.2851198010788
20
-3.13161829774793
30
0
41
1
10
92.3925599005394
20
-1.57013853838834
30
0
41
1
10
93.5
20
-8.53E-14
30
0
0
SPLINE
5
107
100
AcDbEntity
8
1
62
256
6
ByLayer
370
13
48
1
60
0
100
AcDbSpline
70
4
71
3
72
8
73
4
40
0
40
0
40
0
40
0
40
1
40
1
40
1
40
1
41
1
10
90.1776797016182
20
5.87271779164206
30
0
41
1
10
91.2851198010787
20
3.92288394033935
30
0
41
1
10
92.3925599005394
20
1.96530052523951
30
0
41
1
10
93.5
20
1.137E-13
30
0
0
SPLINE
5
108
100
AcDbEntity
8
1
62
256
6
ByLayer
370
13
48
1
60
0
100
AcDbSpline
70
4
71
3
72
8
73
4
40
0
40
0
40
0
40
0
40
1
40
1
40
1
40
1
41
1
10
90.1776797016182
20
2.28908885608448
30
0
41
1
10
91.2851198010788
20
1.51627354823893
30
0
41
1
10
92.3925599005394
20
0.753239736461268
30
0
41
1
10
93.5
20
2.84E-14
30
0
0
SPLINE
5
109
100
AcDbEntity
8
1
62
256
6
ByLayer
370
13
48
1
60
0
100
AcDbSpline
70
4
71
3
72
8
73
4
40
0
40
0
40
0
40
0
40
1
40
1
40
1
40
1
41
1
10
90.1776797016182
20
-7.99458041777896
30
0
41
1
10
91.2851198010788
20
-5.33459893464848
30
0
41
1
10
92.3925599005394
20
-2.66972407931462
30
0
41
1
10
93.5
20
-1.421E-13
30
0
0
SPLINE
5
10A
100
AcDbEntity
8
1
62
256
6
ByLayer
370
13
48
1
60
0
100
AcDbSpline
70
4
71
3
72
8
73
4
40
0
40
0
40
0
40
0
40
1
40
1
40
1
40
1
41
1
10
90.1776797016182
20
7.89898737032112
30
0
41
1
10
91.2851198010788
20
5.26092555525929
30
0
41
1
10
92.3925599005394
20
2.62791524322881
30
0
41
1
10
93.5
20
1.421E-13
30
0
0
SPLINE
5
10B
100
AcDbEntity
8
1
62
256
6
ByLayer
370
13
48
1
60
0
100
AcDbSpline
70
4
71
3
72
8
73
4
40
0
40
0
40
0
40
0
40
1
40
1
40
1
40
1
41
1
10
90.1776797016182
20
1.1055894581159
30
0
41
1
10
91.2851198010788
20
0.727025347977388
30
0
41
1
10
92.3925599005394
20
0.358493513185238
30
0
41
1
10
93.5
20
2.84E-14
30
0
0
SPLINE
5
10C
100
AcDbEntity
8
1
62
256
6
ByLayer
370
13
48
1
60
0
100
AcDbSpline
70
4
71
3
72
8
73
4
40
0
40
0
40
0
40
0
40
1
40
1
40
1
40
1
41
1
10
90.1776797016182
20
3.43272269984368
30
0
41
1
10
91.2851198010788
20
2.27911513471923
30
0
41
1
10
92.3925599005394
20
1.13486793705033
30
0
41
1
10
93.5
20
5.68E-14
30
0
0
SPLINE
5
10D
100
AcDbEntity
8
1
62
256
6
ByLayer
370
13
48
1
60
0
100
AcDbSpline
70
4
71
3
72
8
73
4
40
0
40
0
40
0
40
0
40
1
40
1
40
1
40
1
41
1
10
90.1776797016182
20
7.4933808293394
30
0
41
1
10
91.2851198010787
20
5.00135969493522
30
0
41
1
10
92.3925599005394
20
2.50355228946052
30
0
41
1
10
93.5
20
0
30
0
0
SPLINE
5
10E
100
AcDbEntity
8
1
62
256
6
ByLayer
370
13
48
1
60
0
100
AcDbSpline
70
4
71
3
72
8
73
4
40
0
40
0
40
0
40
0
40
1
40
1
40
1
40
1
41
1
10
90.1776797016182
20
-6.24734990031467
30
0
41
1
10
91.2851198010788
20
-4.15752975508778
30
0
41
1
10
92.3925599005394
20
-2.07506830903947
30
0
41
1
10
93.5
20
-1.137E-13
30
0
0
SPLINE
5
10F
100
AcDbEntity
8
1
62
256
6
ByLayer
370
13
48
1
60
0
100
AcDbSpline
70
4
71
3
72
8
73
4
40
0
40
0
40
0
40
0
40
1
40
1
40
1
40
1
41
1
10
90.1776797016182
20
1.55007995948179
30
0
41
1
10
91.2851198010788
20
1.04334853186839
30
0
41
1
10
92.3925599005394
20
0.526652342135606
30
0
41
1
10
93.5
20
2.84E-14
30
0
0
SPLINE
5
110
100
AcDbEntity
8
1
62
256
6
ByLayer
370
13
48
1
60
0
100
AcDbSpline
70
4
71
3
72
8
73
4
40
0
40
0
40
0
40
0
40
1
40
1
40
1
40
1
41
1
10
90.1776797016182
20
-9.07535546732231
30
0
41
1
10
91.2851198010788
20
-6.05132108635974
30
0
41
1
10
92.3925599005394
20
-3.02618589992852
30
0
41
1
10
93.5
20
-1.421E-13
30
0
0
SPLINE
5
111
100
AcDbEntity
8
1
62
256
6
ByLayer
370
13
48
1
60
0
100
AcDbSpline
70
4
71
3
72
8
73
4
40
0
40
0
40
0
40
0
40
1
40
1
40
1
40
1
41
1
10
90.1776797016182
20
-8.86742388885585
30
0
41
1
10
91.2851198010788
20
-5.91401403305764
30
0
41
1
10
92.3925599005394
20
-2.95818975288256
30
0
41
1
10
93.5
20
-1.421E-13
30
0
0
SPLINE
5
112
100
AcDbEntity
8
1
62
256
6
ByLayer
370
13
48
1
60
0
100
AcDbSpline
70
4
71
3
72
8
73
4
40
0
40
0
40
0
40
0
40
1
40
1
40
1
40
1
41
1
10
90.1776797016181
20
-2.04139049645519
30
0
41
1
10
91.2851198010787
20
-1.35107432091269
30
0
41
1
10
92.3925599005394
20
-0.670607084808921
30
0
41
1
10
93.5000000000001
20
2.84E-14
30
0
0
SPLINE
5
113
100
AcDbEntity
8
1
62
256
6
ByLayer
370
13
48
1
60
0
100
AcDbSpline
70
4
71
3
72
8
73
4
40
0
40
0
40
0
40
0
40
1
40
1
40
1
40
1
41
1
10
90.1776797016182
20
7.22782977836783
30
0
41
1
10
91.2851198010786
20
4.81237938226118
30
0
41
1
10
92.3925599005391
20
2.40308950427081
30
0
41
1
10
93.4999999999995
20
1.1084E-12
30
0
0
SPLINE
5
114
100
AcDbEntity
8
1
62
256
6
ByLayer
370
13
48
1
60
0
100
AcDbSpline
70
4
71
3
72
8
73
4
40
0
40
0
40
0
40
0
40
1
40
1
40
1
40
1
41
1
10
90.1776797016182
20
8.5943136558916
30
0
41
1
10
91.2851198010788
20
5.73294827143869
30
0
41
1
10
92.3925599005394
20
2.86816123615389
30
0
41
1
10
93.5000000000001
20
-8.53E-14
30
0
0
SPLINE
5
115
100
AcDbEntity
8
1
62
256
6
ByLayer
370
13
48
1
60
0
100
AcDbSpline
70
4
71
3
72
8
73
4
40
0
40
0
40
0
40
0
40
1
40
1
40
1
40
1
41
1
10
90.1776797016182
20
-1.29822589220785
30
0
41
1
10
91.2851198010788
20
-0.875489880393275
30
0
41
1
10
92.3925599005394
20
-0.442745509656646
30
0
41
1
10
93.5
20
-2.84E-14
30
0
0
SPLINE
5
116
100
AcDbEntity
8
1
62
256
6
ByLayer
370
13
48
1
60
0
100
AcDbSpline
70
4
71
3
72
8
73
4
40
0
40
0
40
0
40
0
40
1
40
1
40
1
40
1
41
1
10
90.1776797016182
20
9.09915714002915
30
0
41
1
10
91.2851198010787
20
6.0669077291962
30
0
41
1
10
92.3925599005394
20
3.03383860859347
30
0
41
1
10
93.5
20
0
30
0
0
SPLINE
5
117
100
AcDbEntity
8
1
62
256
6
ByLayer
370
13
48
1
60
0
100
AcDbSpline
70
4
71
3
72
8
73
4
40
0
40
0
40
0
40
0
40
1
40
1
40
1
40
1
41
1
10
90.1776797016182
20
-7.34486950289383
30
0
41
1
10
91.2851198010788
20
-4.90258167476978
30
0
41
1
10
92.3925599005394
20
-2.45427831756115
30
0
41
1
10
93.5
20
-1.137E-13
30
0
0
SPLINE
5
118
100
AcDbEntity
8
1
62
256
6
ByLayer
370
13
48
1
60
0
100
AcDbSpline
70
4
71
3
72
8
73
4
40
0
40
0
40
0
40
0
40
1
40
1
40
1
40
1
41
1
10
90.1776797016182
20
-8.50506197152379
30
0
41
1
10
91.2851198010788
20
-5.67371165635291
30
0
41
1
10
92.3925599005394
20
-2.83867534622792
30
0
41
1
10
93.5
20
-1.421E-13
30
0
0
SPLINE
5
119
100
AcDbEntity
8
1
62
256
6
ByLayer
370
13
48
1
60
0
100
AcDbSpline
70
4
71
3
72
8
73
4
40
0
40
0
40
0
40
0
40
1
40
1
40
1
40
1
41
1
10
90.1776797016182
20
-7.76813521709749
30
0
41
1
10
91.2851198010788
20
-5.17344843393747
30
0
41
1
10
92.3925599005394
20
-2.58405574748073
30
0
41
1
10
93.5
20
-1.421E-13
30
0
0
SPLINE
5
11A
100
AcDbEntity
8
1
62
256
6
ByLayer
370
13
48
1
60
0
100
AcDbSpline
70
4
71
3
72
8
73
4
40
0
40
0
40
0
40
0
40
1
40
1
40
1
40
1
41
1
10
90.1776797016182
20
3.84473142054423
30
0
41
1
10
91.2851198010788
20
2.57232254842631
30
0
41
1
10
92.3925599005394
20
1.29073831848132
30
0
41
1
10
93.5
20
5.68E-14
30
0
0
SPLINE
5
11B
100
AcDbEntity
8
1
62
256
6
ByLayer
370
13
48
1
60
0
100
AcDbSpline
70
4
71
3
72
8
73
4
40
0
40
0
40
0
40
0
40
1
40
1
40
1
40
1
41
1
10
90.1776797016182
20
-8.33168457756483
30
0
41
1
10
91.2851198010788
20
-5.55032704160118
30
0
41
1
10
92.3925599005394
20
-2.77308352942865
30
0
41
1
10
93.5
20
-1.421E-13
30
0
0
SPLINE
5
11C
100
AcDbEntity
8
1
62
256
6
ByLayer
370
13
48
1
60
0
100
AcDbSpline
70
4
71
3
72
8
73
4
40
0
40
0
40
0
40
0
40
1
40
1
40
1
40
1
41
1
10
90.1776797016182
20
6.74175471798543
30
0
41
1
10
91.2851198010787
20
4.50131809876962
30
0
41
1
10
92.3925599005394
20
2.25405411121181
30
0
41
1
10
93.5
20
0
30
0
0
SPLINE
5
11D
100
AcDbEntity
8
1
62
256
6
ByLayer
370
13
48
1
60
0
100
AcDbSpline
70
4
71
3
72
8
73
4
40
0
40
0
40
0
40
0
40
1
40
1
40
1
40
1
41
1
10
90.1776797016182
20
-8.75013375011272
30
0
41
1
10
91.2851198010788
20
-5.83054410510138
30
0
41
1
10
92.3925599005394
20
-2.91381676331841
30
0
41
1
10
93.5
20
-1.421E-13
30
0
0
SPLINE
5
11E
100
AcDbEntity
8
1
62
256
6
ByLayer
370
13
48
1
60
0
100
AcDbSpline
70
4
71
3
72
8
73
4
40
0
40
0
40
0
40
0
40
1
40
1
40
1
40
1
41
1
10
90.1776797016182
20
-9.01619524647796
30
0
41
1
10
91.2851198010788
20
-6.009219513076
30
0
41
1
10
92.3925599005394
20
-3.00380451398874
30
0
41
1
10
93.5
20
-1.421E-13
30
0
0
SPLINE
5
11F
100
AcDbEntity
8
1
62
256
6
ByLayer
370
13
48
1
60
0
100
AcDbSpline
70
4
71
3
72
8
73
4
40
0
40
0
40
0
40
0
40
1
40
1
40
1
40
1
41
1
10
90.1776797016182
20
-3.61199814550531
30
0
41
1
10
91.2851198010788
20
-2.41728237882998
30
0
41
1
10
92.3925599005394
20
-1.21327633516302
30
0
41
1
10
93.5
20
-5.68E-14
30
0
0
SPLINE
5
120
100
AcDbEntity
8
1
62
256
6
ByLayer
370
13
48
1
60
0
100
AcDbSpline
70
4
71
3
72
8
73
4
40
0
40
0
40
0
40
0
40
1
40
1
40
1
40
1
41
1
10
90.1776797016182
20
-3.19514638396012
30
0
41
1
10
91.2851198010788
20
-2.12062839855963
30
0
41
1
10
92.3925599005394
20
-1.05557374342726
30
0
41
1
10
93.5
20
-5.68E-14
30
0
0
SPLINE
5
121
100
AcDbEntity
8
1
62
256
6
ByLayer
370
13
48
1
60
0
100
AcDbSpline
70
4
71
3
72
8
73
4
40
0
40
0
40
0
40
0
40
1
40
1
40
1
40
1
41
1
10
90.1776797016182
20
-6.56724424665404
30
0
41
1
10
91.2851198010788
20
-4.38518365957358
30
0
41
1
10
92.3925599005394
20
-2.19609014978289
30
0
41
1
10
93.5
20
-1.137E-13
30
0
0
SPLINE
5
122
100
AcDbEntity
8
1
62
256
6
ByLayer
370
13
48
1
60
0
100
AcDbSpline
70
4
71
3
72
8
73
4
40
0
40
0
40
0
40
0
40
1
40
1
40
1
40
1
41
1
10
90.1776797016182
20
9.0524592649752
30
0
41
1
10
91.2851198010786
20
6.03367502687203
30
0
41
1
10
92.3925599005391
20
3.01617195439278
30
0
41
1
10
93.4999999999995
20
1.3927E-12
30
0
0
SPLINE
5
123
100
AcDbEntity
8
1
62
256
6
ByLayer
370
13
48
1
60
0
100
AcDbSpline
70
4
71
3
72
8
73
4
40
0
40
0
40
0
40
0
40
1
40
1
40
1
40
1
41
1
10
90.1776797016182
20
-2.47667827474009
30
0
41
1
10
91.2851198010788
20
-1.66084835548219
30
0
41
1
10
92.3925599005394
20
-0.835284356489382
30
0
41
1
10
93.5
20
-5.68E-14
30
0
0
SPLINE
5
124
100
AcDbEntity
8
1
62
256
6
ByLayer
370
13
48
1
60
0
100
AcDbSpline
70
4
71
3
72
8
73
4
40
0
40
0
40
0
40
0
40
1
40
1
40
1
40
1
41
1
10
90.1776797016182
20
8.43258039881346
30
0
41
1
10
91.285119801079
20
5.61785024647992
30
0
41
1
10
92.3925599005397
20
2.80697460780235
30
0
41
1
10
93.5000000000005
20
-9.948E-13
30
0
0
SPLINE
5
125
100
AcDbEntity
8
1
62
256
6
ByLayer
370
13
48
1
60
0
100
AcDbSpline
70
4
71
3
72
8
73
4
40
0
40
0
40
0
40
0
40
1
40
1
40
1
40
1
41
1
10
90.1776797016182
20
8.11450620505374
30
0
41
1
10
91.2851198010788
20
5.41430027031299
30
0
41
1
10
92.3925599005394
20
2.70944993239303
30
0
41
1
10
93.5000000000001
20
-5.68E-14
30
0
0
LINE
5
7D
100
AcDbEntity
8
81
62
256
6
ByLayer
370
18
48
1
60
0
100
AcDbLine
10
93.5
20
0
30
0
11
98.5
21
0
31
0
39
0
210
0
220
0
230
1
0
LINE
5
7E
100
AcDbEntity
8
SK4
62
256
6
ByLayer
370
18
48
0.05
60
0
100
AcDbLine
10
-53
20
0
30
0
11
98.5
21
0
31
0
39
0
210
0
220
0
230
1
0
LINE
5
80
100
AcDbEntity
8
80
62
256
6
ByLayer
370
18
48
1
60
0
100
AcDbLine
10
0
20
0
30
0
11
-5
21
0
31
0
39
0
210
0
220
0
230
1
0
LINE
5
81
100
AcDbEntity
8
4
62
256
6
ByLayer
370
18
48
0.05
60
0
100
AcDbLine
10
-5
20
0
30
0
11
98.5
21
0
31
0
39
0
210
0
220
0
230
1
0
LINE
5
83
100
AcDbEntity
8
1
62
256
6
ByLayer
370
18
48
1
60
0
100
AcDbLine
10
0
20
9.525
30
0
11
0
21
-9.525
31
0
39
0
210
0
220
0
230
1
0
LINE
5
84
100
AcDbEntity
8
1
62
256
6
ByLayer
370
18
48
1
60
0
100
AcDbLine
10
90.17768
20
9.128
30
0
11
90.17768
21
8.838173
31
0
39
0
210
0
220
0
230
1
0
LINE
5
85
100
AcDbEntity
8
1
62
256
6
ByLayer
370
18
48
1
60
0
100
AcDbLine
10
90.17768
20
-9.128
30
0
11
90.17768
21
-1.302949
31
0
39
0
210
0
220
0
230
1
0
LINE
5
86
100
AcDbEntity
8
1
62
256
6
ByLayer
370
18
48
1
60
0
100
AcDbLine
10
10
20
-8.7
30
0
11
10
21
-0.742553
31
0
39
0
210
0
220
0
230
1
0
LINE
5
87
100
AcDbEntity
8
1
62
256
6
ByLayer
370
18
48
1
60
0
100
AcDbLine
10
10
20
8.7
30
0
11
10
21
8.229911
31
0
39
0
210
0
220
0
230
1
0
LINE
5
88
100
AcDbEntity
8
SK1
62
256
6
ByLayer
370
18
48
1
60
0
100
AcDbLine
10
-48
20
-8.525
30
0
11
-48
21
8.525
31
0
39
0
210
0
220
0
230
1
0
LINE
5
8A
100
AcDbEntity
8
SK1
62
256
6
ByLayer
370
18
48
1
60
0
100
AcDbLine
10
-40.207362
20
-3.933192
30
0
11
-40.207362
21
3.933192
31
0
39
0
210
0
220
0
230
1
0
LINE
5
8B
100
AcDbEntity
8
SK1
62
256
6
ByLayer
370
18
48
1
60
0
100
AcDbLine
10
-5.911513
20
-3.933192
30
0
11
-5.911513
21
3.933192
31
0
39
0
210
0
220
0
230
1
0
LINE
5
8C
100
AcDbEntity
8
SK1
62
256
6
ByLayer
370
18
48
1
60
0
100
AcDbLine
10
0
20
9.525
30
0
11
0
21
-9.525
31
0
39
0
210
0
220
0
230
1
0
LINE
5
8D
100
AcDbEntity
8
SK1
62
256
6
ByLayer
370
18
48
1
60
0
100
AcDbLine
10
-47
20
-9.525
30
0
11
-47
21
9.525
31
0
39
0
210
0
220
0
230
1
0
LINE
5
8E
100
AcDbEntity
8
SK1
62
256
6
ByLayer
370
18
48
1
60
0
100
AcDbLine
10
-5.911513
20
-3.933192
30
0
11
-40.207362
21
-3.933192
31
0
39
0
210
0
220
0
230
1
0
LINE
5
8F
100
AcDbEntity
8
SK1
62
256
6
ByLayer
370
18
48
1
60
0
100
AcDbLine
10
-40.207362
20
3.933192
30
0
11
-5.911513
21
3.933192
31
0
39
0
210
0
220
0
230
1
0
LINE
5
90
100
AcDbEntity
8
1
62
256
6
ByLayer
370
18
48
1
60
0
100
AcDbLine
10
10
20
-8.7
30
0
11
46.754518
21
-8.7
31
0
39
0
210
0
220
0
230
1
0
LINE
5
91
100
AcDbEntity
8
1
62
256
6
ByLayer
370
18
48
1
60
0
100
AcDbLine
10
46.754518
20
8.7
30
0
11
10
21
8.7
31
0
39
0
210
0
220
0
230
1
0
LINE
5
92
100
AcDbEntity
8
1
62
256
6
ByLayer
370
18
48
1
60
0
100
AcDbLine
10
93.5
20
0
30
0
11
90.17768
21
9.128
31
0
39
0
210
0
220
0
230
1
0
LINE
5
93
100
AcDbEntity
8
1
62
256
6
ByLayer
370
18
48
1
60
0
100
AcDbLine
10
90.17768
20
-9.128
30
0
11
93.5
21
0
31
0
39
0
210
0
220
0
230
1
0
LINE
5
94
100
AcDbEntity
8
1
62
256
6
ByLayer
370
18
48
1
60
0
100
AcDbLine
10
10
20
8.7
30
0
11
0
21
9.525
31
0
39
0
210
0
220
0
230
1
0
LINE
5
95
100
AcDbEntity
8
1
62
256
6
ByLayer
370
18
48
1
60
0
100
AcDbLine
10
0
20
-9.525
30
0
11
10
21
-8.7
31
0
39
0
210
0
220
0
230
1
0
LINE
5
96
100
AcDbEntity
8
1
62
256
6
ByLayer
370
18
48
1
60
0
100
AcDbLine
10
80.6
20
-9.128
30
0
11
90.17768
21
-9.128
31
0
39
0
210
0
220
0
230
1
0
LINE
5
97
100
AcDbEntity
8
1
62
256
6
ByLayer
370
18
48
1
60
0
100
AcDbLine
10
93.5
20
0
30
0
11
90.17768
21
9.128
31
0
39
0
210
0
220
0
230
1
0
LINE
5
98
100
AcDbEntity
8
1
62
256
6
ByLayer
370
18
48
1
60
0
100
AcDbLine
10
90.17768
20
-9.128
30
0
11
93.5
21
0
31
0
39
0
210
0
220
0
230
1
0
LINE
5
99
100
AcDbEntity
8
SK1
62
256
6
ByLayer
370
18
48
1
60
0
100
AcDbLine
10
-48
20
-8.525
30
0
11
-47
21
-9.525
31
0
39
0
210
0
220
0
230
1
0
LINE
5
9A
100
AcDbEntity
8
SK1
62
256
6
ByLayer
370
18
48
1
60
0
100
AcDbLine
10
-47
20
9.525
30
0
11
-48
21
8.525
31
0
39
0
210
0
220
0
230
1
0
LINE
5
9B
100
AcDbEntity
8
SK1
62
256
6
ByLayer
370
18
48
1
60
0
100
AcDbLine
10
-47
20
-9.525
30
0
11
0
21
-9.525
31
0
39
0
210
0
220
0
230
1
0
LINE
5
9C
100
AcDbEntity
8
SK1
62
256
6
ByLayer
370
18
48
1
60
0
100
AcDbLine
10
0
20
9.525
30
0
11
-47
21
9.525
31
0
39
0
210
0
220
0
230
1
0
LINE
5
9D
100
AcDbEntity
8
1
62
256
6
ByLayer
370
18
48
1
60
0
100
AcDbLine
10
90.17768
20
9.128
30
0
11
90.17768
21
-9.128
31
0
39
0
210
0
220
0
230
1
0
LINE
5
9E
100
AcDbEntity
8
1
62
256
6
ByLayer
370
18
48
1
60
0
100
AcDbLine
10
90.17768
20
9.128
30
0
11
90.17768
21
-9.128
31
0
39
0
210
0
220
0
230
1
0
LINE
5
9F
100
AcDbEntity
8
1
62
256
6
ByLayer
370
18
48
1
60
0
100
AcDbLine
10
90.17768
20
9.128
30
0
11
90.17768
21
-9.128
31
0
39
0
210
0
220
0
230
1
0
LINE
5
A0
100
AcDbEntity
8
1
62
256
6
ByLayer
370
18
48
1
60
0
100
AcDbLine
10
80.6
20
9.128
30
0
11
80.6
21
-9.128
31
0
39
0
210
0
220
0
230
1
0
LINE
5
A1
100
AcDbEntity
8
1
62
256
6
ByLayer
370
18
48
1
60
0
100
AcDbLine
10
80.6
20
9.128
30
0
11
80.6
21
-9.128
31
0
39
0
210
0
220
0
230
1
0
LINE
5
A2
100
AcDbEntity
8
1
62
256
6
ByLayer
370
18
48
1
60
0
100
AcDbLine
10
90.17768
20
9.128
30
0
11
90.17768
21
-9.128
31
0
39
0
210
0
220
0
230
1
0
LINE
5
A3
100
AcDbEntity
8
1
62
256
6
ByLayer
370
18
48
1
60
0
100
AcDbLine
10
80.6
20
9.128
30
0
11
80.6
21
-9.128
31
0
39
0
210
0
220
0
230
1
0
LINE
5
A4
100
AcDbEntity
8
1
62
256
6
ByLayer
370
18
48
1
60
0
100
AcDbLine
10
90.17768
20
9.128
30
0
11
90.17768
21
-9.128
31
0
39
0
210
0
220
0
230
1
0
LINE
5
A5
100
AcDbEntity
8
SK2
62
256
6
ByLayer
370
13
48
1
60
0
100
AcDbLine
10
-54.5
20
-9.525
30
0
11
-54.5
21
37.799683
31
0
39
0
210
0
220
0
230
1
0
LINE
5
A7
100
AcDbEntity
8
SK2
62
256
6
ByLayer
370
13
48
1
60
0
100
AcDbLine
10
-49.5875
20
9.525
30
0
11
-56.5
21
9.525
31
0
39
0
210
0
220
0
230
1
0
LINE
5
A8
100
AcDbEntity
8
SK2
62
256
6
ByLayer
370
13
48
1
60
0
100
AcDbLine
10
-49.5875
20
-9.525
30
0
11
-56.5
21
-9.525
31
0
39
0
210
0
220
0
230
1
0
LINE
5
A9
100
AcDbEntity
8
1
62
256
6
ByLayer
370
18
48
1
60
1
100
AcDbLine
10
-54.5
20
9.525
30
0
11
-54.039216
21
6.025002
31
0
39
0
210
0
220
0
230
1
0
LINE
5
AA
100
AcDbEntity
8
1
62
256
6
ByLayer
370
18
48
1
60
1
100
AcDbLine
10
-54.039216
20
6.025002
30
0
11
-54.960784
21
6.024998
31
0
39
0
210
0
220
0
230
1
0
LINE
5
AB
100
AcDbEntity
8
1
62
256
6
ByLayer
370
18
48
1
60
1
100
AcDbLine
10
-54.960784
20
6.024998
30
0
11
-54.5
21
9.525
31
0
39
0
210
0
220
0
230
1
0
LINE
5
AC
100
AcDbEntity
8
1
62
256
6
ByLayer
370
18
48
1
60
1
100
AcDbLine
10
-54.5
20
-9.525
30
0
11
-54.960784
21
-6.025002
31
0
39
0
210
0
220
0
230
1
0
LINE
5
AD
100
AcDbEntity
8
1
62
256
6
ByLayer
370
18
48
1
60
1
100
AcDbLine
10
-54.960784
20
-6.025002
30
0
11
-54.039216
21
-6.024998
31
0
39
0
210
0
220
0
230
1
0
LINE
5
AE
100
AcDbEntity
8
1
62
256
6
ByLayer
370
18
48
1
60
1
100
AcDbLine
10
-54.039216
20
-6.024998
30
0
11
-54.5
21
-9.525
31
0
39
0
210
0
220
0
230
1
0
LINE
5
AF
100
AcDbEntity
8
2
62
256
6
ByLayer
370
13
48
1
60
0
100
AcDbLine
10
101
20
-9.128
30
0
11
101
21
37.402683
31
0
39
0
210
0
220
0
230
1
0
LINE
5
B1
100
AcDbEntity
8
2
62
256
6
ByLayer
370
13
48
1
60
0
100
AcDbLine
10
91.76518
20
9.128
30
0
11
103
21
9.128
31
0
39
0
210
0
220
0
230
1
0
LINE
5
B2
100
AcDbEntity
8
2
62
256
6
ByLayer
370
13
48
1
60
0
100
AcDbLine
10
91.76518
20
-9.128
30
0
11
103
21
-9.128
31
0
39
0
210
0
220
0
230
1
0
LINE
5
B3
100
AcDbEntity
8
1
62
256
6
ByLayer
370
18
48
1
60
1
100
AcDbLine
10
101
20
9.128
30
0
11
101.460784
21
5.628002
31
0
39
0
210
0
220
0
230
1
0
LINE
5
B4
100
AcDbEntity
8
1
62
256
6
ByLayer
370
18
48
1
60
1
100
AcDbLine
10
101.460784
20
5.628002
30
0
11
100.539216
21
5.627998
31
0
39
0
210
0
220
0
230
1
0
LINE
5
B5
100
AcDbEntity
8
1
62
256
6
ByLayer
370
18
48
1
60
1
100
AcDbLine
10
100.539216
20
5.627998
30
0
11
101
21
9.128
31
0
39
0
210
0
220
0
230
1
0
LINE
5
B6
100
AcDbEntity
8
1
62
256
6
ByLayer
370
18
48
1
60
1
100
AcDbLine
10
101
20
-9.128
30
0
11
100.539216
21
-5.628002
31
0
39
0
210
0
220
0
230
1
0
LINE
5
B7
100
AcDbEntity
8
1
62
256
6
ByLayer
370
18
48
1
60
1
100
AcDbLine
10
100.539216
20
-5.628002
30
0
11
101.460784
21
-5.627998
31
0
39
0
210
0
220
0
230
1
0
LINE
5
B8
100
AcDbEntity
8
1
62
256
6
ByLayer
370
18
48
1
60
1
100
AcDbLine
10
101.460784
20
-5.627998
30
0
11
101
21
-9.128
31
0
39
0
210
0
220
0
230
1
0
LINE
5
B9
100
AcDbEntity
8
SK2
62
256
6
ByLayer
370
13
48
1
60
0
100
AcDbLine
10
94.042957
20
-1.491762
30
0
11
100.682423
21
-19.733545
31
0
39
0
210
0
220
0
230
1
0
LINE
5
BA
100
AcDbEntity
8
SK2
62
256
6
ByLayer
370
13
48
1
60
0
100
AcDbLine
10
94.042957
20
1.491762
30
0
11
100.682423
21
19.733545
31
0
39
0
210
0
220
0
230
1
0
LINE
5
BB
100
AcDbEntity
8
1
62
256
6
ByLayer
370
18
48
1
60
1
100
AcDbLine
10
99.998383
20
-17.85416
30
0
11
103.051575
21
-16.082064
31
0
39
0
210
0
220
0
230
1
0
LINE
5
BC
100
AcDbEntity
8
1
62
256
6
ByLayer
370
18
48
1
60
1
100
AcDbLine
10
103.051575
20
-16.082064
30
0
11
103.406196
21
-16.93267
31
0
39
0
210
0
220
0
230
1
0
LINE
5
BD
100
AcDbEntity
8
1
62
256
6
ByLayer
370
18
48
1
60
1
100
AcDbLine
10
103.406196
20
-16.93267
30
0
11
99.998383
21
-17.85416
31
0
39
0
210
0
220
0
230
1
0
LINE
5
BE
100
AcDbEntity
8
1
62
256
6
ByLayer
370
18
48
1
60
1
100
AcDbLine
10
99.998383
20
17.85416
30
0
11
103.406193
21
16.932671
31
0
39
0
210
0
220
0
230
1
0
LINE
5
BF
100
AcDbEntity
8
1
62
256
6
ByLayer
370
18
48
1
60
1
100
AcDbLine
10
103.406193
20
16.932671
30
0
11
103.051579
21
16.082063
31
0
39
0
210
0
220
0
230
1
0
LINE
5
C0
100
AcDbEntity
8
1
62
256
6
ByLayer
370
18
48
1
60
1
100
AcDbLine
10
103.051579
20
16.082063
30
0
11
99.998383
21
17.85416
31
0
39
0
210
0
220
0
230
1
0
LINE
5
12A
100
AcDbEntity
8
1
62
256
6
ByLayer
370
18
48
1
60
1
100
AcDbLine
10
-54.5
20
9.525
30
0
11
-54.039216
21
6.025002
31
0
39
0
210
0
220
0
230
1
0
LINE
5
12B
100
AcDbEntity
8
1
62
256
6
ByLayer
370
18
48
1
60
1
100
AcDbLine
10
-54.039216
20
6.025002
30
0
11
-54.960784
21
6.024998
31
0
39
0
210
0
220
0
230
1
0
LINE
5
12C
100
AcDbEntity
8
1
62
256
6
ByLayer
370
18
48
1
60
1
100
AcDbLine
10
-54.960784
20
6.024998
30
0
11
-54.5
21
9.525
31
0
39
0
210
0
220
0
230
1
0
LINE
5
12E
100
AcDbEntity
8
1
62
256
6
ByLayer
370
18
48
1
60
1
100
AcDbLine
10
-54.5
20
-9.525
30
0
11
-54.960784
21
-6.025002
31
0
39
0
210
0
220
0
230
1
0
LINE
5
12F
100
AcDbEntity
8
1
62
256
6
ByLayer
370
18
48
1
60
1
100
AcDbLine
10
-54.960784
20
-6.025002
30
0
11
-54.039216
21
-6.024998
31
0
39
0
210
0
220
0
230
1
0
LINE
5
130
100
AcDbEntity
8
1
62
256
6
ByLayer
370
18
48
1
60
1
100
AcDbLine
10
-54.039216
20
-6.024998
30
0
11
-54.5
21
-9.525
31
0
39
0
210
0
220
0
230
1
0
LINE
5
134
100
AcDbEntity
8
1
62
256
6
ByLayer
370
18
48
1
60
1
100
AcDbLine
10
101
20
9.128
30
0
11
101.460784
21
5.628002
31
0
39
0
210
0
220
0
230
1
0
LINE
5
135
100
AcDbEntity
8
1
62
256
6
ByLayer
370
18
48
1
60
1
100
AcDbLine
10
101.460784
20
5.628002
30
0
11
100.539216
21
5.627998
31
0
39
0
210
0
220
0
230
1
0
LINE
5
136
100
AcDbEntity
8
1
62
256
6
ByLayer
370
18
48
1
60
1
100
AcDbLine
10
100.539216
20
5.627998
30
0
11
101
21
9.128
31
0
39
0
210
0
220
0
230
1
0
LINE
5
138
100
AcDbEntity
8
1
62
256
6
ByLayer
370
18
48
1
60
1
100
AcDbLine
10
101
20
-9.128
30
0
11
100.539216
21
-5.628002
31
0
39
0
210
0
220
0
230
1
0
LINE
5
139
100
AcDbEntity
8
1
62
256
6
ByLayer
370
18
48
1
60
1
100
AcDbLine
10
100.539216
20
-5.628002
30
0
11
101.460784
21
-5.627998
31
0
39
0
210
0
220
0
230
1
0
LINE
5
13A
100
AcDbEntity
8
1
62
256
6
ByLayer
370
18
48
1
60
1
100
AcDbLine
10
101.460784
20
-5.627998
30
0
11
101
21
-9.128
31
0
39
0
210
0
220
0
230
1
0
LINE
5
13D
100
AcDbEntity
8
1
62
256
6
ByLayer
370
18
48
1
60
1
100
AcDbLine
10
99.998383
20
-17.85416
30
0
11
103.051575
21
-16.082064
31
0
39
0
210
0
220
0
230
1
0
LINE
5
13E
100
AcDbEntity
8
1
62
256
6
ByLayer
370
18
48
1
60
1
100
AcDbLine
10
103.051575
20
-16.082064
30
0
11
103.406196
21
-16.93267
31
0
39
0
210
0
220
0
230
1
0
LINE
5
13F
100
AcDbEntity
8
1
62
256
6
ByLayer
370
18
48
1
60
1
100
AcDbLine
10
103.406196
20
-16.93267
30
0
11
99.998383
21
-17.85416
31
0
39
0
210
0
220
0
230
1
0
LINE
5
141
100
AcDbEntity
8
1
62
256
6
ByLayer
370
18
48
1
60
1
100
AcDbLine
10
99.998383
20
17.85416
30
0
11
103.406193
21
16.932671
31
0
39
0
210
0
220
0
230
1
0
LINE
5
142
100
AcDbEntity
8
1
62
256
6
ByLayer
370
18
48
1
60
1
100
AcDbLine
10
103.406193
20
16.932671
30
0
11
103.051579
21
16.082063
31
0
39
0
210
0
220
0
230
1
0
LINE
5
143
100
AcDbEntity
8
1
62
256
6
ByLayer
370
18
48
1
60
1
100
AcDbLine
10
103.051579
20
16.082063
30
0
11
99.998383
21
17.85416
31
0
39
0
210
0
220
0
230
1
0
MTEXT
5
126
100
AcDbEntity
8
SK2
62
256
6
ByLayer
370
18
48
1
60
0
100
AcDbMText
10
-55.841114
20
21.183437
30
0
210
0
220
0
230
1
1
%%c
40
3
41
0
44
1.084337
50
90
71
7
72
5
7
iso_b_vert
0
MTEXT
5
129
100
AcDbEntity
8
SK2
62
256
6
ByLayer
370
18
48
1
60
0
100
AcDbMText
10
-55.841114
20
27.16
30
0
210
0
220
0
230
1
1
\W0.7022;19.050
40
3
41
0
44
1.084337
50
90
71
7
72
5
7
iso_b_vert
0
MTEXT
5
132
100
AcDbEntity
8
2
62
256
6
ByLayer
370
18
48
1
60
0
100
AcDbMText
10
99.658886
20
20.786437
30
0
210
0
220
0
230
1
1
%%c
40
3
41
0
44
1.084337
50
90
71
7
72
5
7
iso_b_vert
0
MTEXT
5
133
100
AcDbEntity
8
2
62
256
6
ByLayer
370
18
48
1
60
0
100
AcDbMText
10
99.658886
20
26.763
30
0
210
0
220
0
230
1
1
\W0.7022;18.256
40
3
41
0
44
1.084337
50
90
71
7
72
5
7
iso_b_vert
0
MTEXT
5
13C
100
AcDbEntity
8
SK2
62
256
6
ByLayer
370
18
48
1
60
0
100
AcDbMText
10
113.409114
20
3.734657
30
0
210
0
220
0
230
1
1
\W0.7071;140%%d
40
3
41
0
44
1.084337
50
270
71
7
72
5
7
iso_b_vert
0
MTEXT
5
145
100
AcDbEntity
8
SK6
62
256
6
ByLayer
370
18
48
1
60
0
100
AcDbMText
10
-5.476511
20
-67.114886
30
0
210
0
220
0
230
1
1
\W0.7833;H85323/32
40
3
41
0
44
1.084337
50
0
71
7
72
5
7
iso_b_vert
0
HATCH
5
12D
100
AcDbEntity
8
SK2
62
256
6
ByLayer
370
13
48
1
60
0
100
AcDbHatch
10
0
20
0
30
0
210
0
220
0
230
1
2
ANSI31
70
0
71
0
91
1
92
5
93
3
72
1
10
-54.5
20
9.52499999999998
11
-54.0392162584472
21
6.02500169255316
72
1
10
-54.0392162584472
20
6.02500169255316
11
-54.9607837415528
21
6.02499830744679
72
1
10
-54.9607837415528
20
6.02499830744679
11
-54.5
21
9.52499999999998
97
0
75
0
76
1
52
0
41
0.0062
77
0
78
1
53
45
43
0
44
0
45
-0.0139193969876572
46
0.0139193969876572
79
0
47
0
98
1
10
0
20
0
0
HATCH
5
131
100
AcDbEntity
8
SK2
62
256
6
ByLayer
370
13
48
1
60
0
100
AcDbHatch
10
0
20
0
30
0
210
0
220
0
230
1
2
ANSI31
70
0
71
0
91
1
92
5
93
3
72
1
10
-54.5
20
-9.52500000000001
11
-54.9607837415528
21
-6.02500169255319
72
1
10
-54.9607837415528
20
-6.02500169255319
11
-54.0392162584472
21
-6.02499830744682
72
1
10
-54.0392162584472
20
-6.02499830744682
11
-54.5
21
-9.52500000000001
97
0
75
0
76
1
52
0
41
0.0062
77
0
78
1
53
45
43
0
44
0
45
-0.0139193969876572
46
0.0139193969876572
79
0
47
0
98
1
10
0
20
0
0
HATCH
5
137
100
AcDbEntity
8
2
62
256
6
ByLayer
370
13
48
1
60
0
100
AcDbHatch
10
0
20
0
30
0
210
0
220
0
230
1
2
ANSI31
70
0
71
0
91
1
92
5
93
3
72
1
10
101
20
9.12799999999999
11
101.460783741553
21
5.62800169255317
72
1
10
101.460783741553
20
5.62800169255317
11
100.539216258447
21
5.6279983074468
72
1
10
100.539216258447
20
5.6279983074468
11
101
21
9.12799999999999
97
0
75
0
76
1
52
0
41
0.0062
77
0
78
1
53
45
43
0
44
0
45
-0.0139193969876572
46
0.0139193969876572
79
0
47
0
98
1
10
0
20
0
0
HATCH
5
13B
100
AcDbEntity
8
2
62
256
6
ByLayer
370
13
48
1
60
0
100
AcDbHatch
10
0
20
0
30
0
210
0
220
0
230
1
2
ANSI31
70
0
71
0
91
1
92
5
93
3
72
1
10
101
20
-9.12800000000001
11
100.539216258447
21
-5.6280016925532
72
1
10
100.539216258447
20
-5.6280016925532
11
101.460783741553
21
-5.62799830744683
72
1
10
101.460783741553
20
-5.62799830744683
11
101
21
-9.12800000000001
97
0
75
0
76
1
52
0
41
0.0062
77
0
78
1
53
45
43
0
44
0
45
-0.0139193969876572
46
0.0139193969876572
79
0
47
0
98
1
10
0
20
0
0
HATCH
5
140
100
AcDbEntity
8
SK2
62
256
6
ByLayer
370
13
48
1
60
0
100
AcDbHatch
10
0
20
0
30
0
210
0
220
0
230
1
2
ANSI31
70
0
71
0
91
1
92
5
93
3
72
1
10
99.9983827231877
20
-17.8541597949323
11
103.051575425693
21
-16.0820638240608
72
1
10
103.051575425693
20
-16.0820638240608
11
103.406195833975
21
-16.9326700737197
72
1
10
103.406195833975
20
-16.9326700737197
11
99.9983827231877
21
-17.8541597949323
97
0
75
0
76
1
52
0
41
0.0062
77
0
78
1
53
45
43
0
44
0
45
-0.0139193969876572
46
0.0139193969876572
79
0
47
0
98
1
10
0
20
0
0
HATCH
5
144
100
AcDbEntity
8
SK2
62
256
6
ByLayer
370
13
48
1
60
0
100
AcDbHatch
10
0
20
0
30
0
210
0
220
0
230
1
2
ANSI31
70
0
71
0
91
1
92
5
93
3
72
1
10
99.9983827231877
20
17.8541597949323
11
103.406192709519
21
16.9326713763016
72
1
10
103.406192709519
20
16.9326713763016
11
103.051578550149
21
16.0820625214788
72
1
10
103.051578550149
20
16.0820625214788
11
99.9983827231877
21
17.8541597949323
97
0
75
0
76
1
52
0
41
0.0062
77
0
78
1
53
45
43
0
44
0
45
-0.0139193969876572
46
0.0139193969876572
79
0
47
0
98
1
10
0
20
0
0
DIMENSION
5
148
100
AcDbEntity
8
SK2
62
256
6
ByLayer
370
18
48
1
60
0
100
AcDbDimension
2
_U0
10
93.5
20
-45.952229
30
0
11
22.75
21
-45.952229
31
0
70
32
71
1
72
1
41
1
210
0
220
0
230
1
3
Standard
100
AcDbAlignedDimension
13
-48
23
-9.525
33
0
14
93.5
24
0
34
0
50
0
100
AcDbRotatedDimension
1001
ACAD
1000
DSTYLE
1002
{
1070
   371
1070
    13
1070
   372
1070
    13
1070
     3
1000

1070
   170
1070
     0
1070
   144
1040
1.0
1070
   277
1070
     2
1070
   284
1070
     8
1070
   278
1070
    46
1070
   146
1040
1.166667
1070
   345
1005
16
1070
   347
1005
16
1070
   346
1005
16
1070
   344
1005
0
1070
   343
1005
0
1070
   172
1070
     1
1070
    76
1070
     0
1070
    75
1070
     0
1070
   282
1070
     0
1070
   281
1070
     0
1070
    71
1070
     0
1070
    74
1070
     0
1070
   279
1070
     0
1070
   173
1070
     1
1070
   340
1005
127
1070
   271
1070
     2
1070
   272
1070
     3
1070
    77
1070
     1
1070
    73
1070
     1
1070
   171
1070
     3
1070
   274
1070
     4
1070
   177
1070
     2
1070
   176
1070
     2
1070
   178
1070
     2
1070
    78
1070
     8
1070
    48
1040
-0.1
1070
    41
1040
3.5
1070
   147
1040
1.5
1070
    42
1040
1.5875
1070
    44
1040
2.0
1070
   140
1040
3.0
1002
}
1001
ACAD_DSTYLE_DIM_LINETYPE
1070
   380
1005
16
1001
ACAD_DSTYLE_DIM_EXT1_LINETYPE
1070
   381
1005
16
1001
ACAD_DSTYLE_DIM_EXT2_LINETYPE
1070
   382
1005
16
0
DIMENSION
5
161
100
AcDbEntity
8
SK2
62
256
6
ByLayer
370
18
48
1
60
0
100
AcDbDimension
2
_U1
10
3
20
-35.952229
30
0
11
48.25
21
-35.952229
31
0
70
32
71
1
72
1
41
1
210
0
220
0
230
1
3
Standard
100
AcDbAlignedDimension
13
93.5
23
0
33
0
14
3
24
-9.128
34
0
50
0
100
AcDbRotatedDimension
1001
ACAD
1000
DSTYLE
1002
{
1070
   371
1070
    13
1070
   372
1070
    13
1070
     3
1000

1070
   170
1070
     0
1070
   144
1040
1.0
1070
   277
1070
     2
1070
   284
1070
     8
1070
   278
1070
    46
1070
   146
1040
1.166667
1070
   345
1005
16
1070
   347
1005
16
1070
   346
1005
16
1070
   344
1005
0
1070
   343
1005
0
1070
   172
1070
     1
1070
    76
1070
     0
1070
    75
1070
     0
1070
   282
1070
     0
1070
   281
1070
     0
1070
    71
1070
     0
1070
    74
1070
     0
1070
   279
1070
     0
1070
   173
1070
     1
1070
   340
1005
127
1070
   271
1070
     2
1070
   272
1070
     3
1070
    77
1070
     1
1070
    73
1070
     1
1070
   171
1070
     3
1070
   274
1070
     4
1070
   177
1070
     2
1070
   176
1070
     2
1070
   178
1070
     2
1070
    78
1070
     8
1070
    48
1040
-0.1
1070
    41
1040
3.5
1070
   147
1040
1.5
1070
    42
1040
1.5875
1070
    44
1040
2.0
1070
   140
1040
3.0
1002
}
1001
ACAD_DSTYLE_DIM_LINETYPE
1070
   380
1005
16
1001
ACAD_DSTYLE_DIM_EXT1_LINETYPE
1070
   381
1005
16
1001
ACAD_DSTYLE_DIM_EXT2_LINETYPE
1070
   382
1005
16
0
DIMENSION
5
179
100
AcDbEntity
8
SK2
62
256
6
ByLayer
370
18
48
1
60
0
100
AcDbDimension
2
_U2
10
0
20
-35.952229
30
0
11
-24
21
-35.952229
31
0
70
32
71
1
72
1
41
1
210
0
220
0
230
1
3
Standard
100
AcDbAlignedDimension
13
-48
23
-9.525
33
0
14
0
24
-9.525
34
0
50
0
100
AcDbRotatedDimension
1001
ACAD
1000
DSTYLE
1002
{
1070
   371
1070
    13
1070
   372
1070
    13
1070
     3
1000

1070
   170
1070
     0
1070
   144
1040
1.0
1070
   277
1070
     2
1070
   284
1070
     8
1070
   278
1070
    46
1070
   146
1040
1.166667
1070
   345
1005
16
1070
   347
1005
16
1070
   346
1005
16
1070
   344
1005
0
1070
   343
1005
0
1070
   172
1070
     1
1070
    76
1070
     0
1070
    75
1070
     0
1070
   282
1070
     0
1070
   281
1070
     0
1070
    71
1070
     0
1070
    74
1070
     0
1070
   279
1070
     0
1070
   173
1070
     1
1070
   340
1005
127
1070
   271
1070
     2
1070
   272
1070
     3
1070
    77
1070
     1
1070
    73
1070
     1
1070
   171
1070
     3
1070
   274
1070
     4
1070
   177
1070
     2
1070
   176
1070
     2
1070
   178
1070
     2
1070
    78
1070
     8
1070
    48
1040
-0.1
1070
    41
1040
3.5
1070
   147
1040
1.5
1070
    42
1040
1.5875
1070
    44
1040
2.0
1070
   140
1040
3.0
1002
}
1001
ACAD_DSTYLE_DIM_LINETYPE
1070
   380
1005
16
1001
ACAD_DSTYLE_DIM_EXT1_LINETYPE
1070
   381
1005
16
1001
ACAD_DSTYLE_DIM_EXT2_LINETYPE
1070
   382
1005
16
0
DIMENSION
5
191
100
AcDbEntity
8
SK2
62
256
6
ByLayer
370
18
48
1
60
0
100
AcDbDimension
2
_U3
10
27
20
32.952229
30
0
11
60.25
21
32.952229
31
0
70
32
71
1
72
1
41
1
210
0
220
0
230
1
3
Standard
100
AcDbAlignedDimension
13
93.5
23
0
33
0
14
27
24
9.128
34
0
50
0
100
AcDbRotatedDimension
1001
ACAD
1000
DSTYLE
1002
{
1070
   371
1070
    13
1070
   372
1070
    13
1070
     3
1000

1070
   170
1070
     0
1070
   144
1040
1.0
1070
   277
1070
     2
1070
   284
1070
     8
1070
   278
1070
    46
1070
   146
1040
1.166667
1070
   345
1005
16
1070
   347
1005
16
1070
   346
1005
16
1070
   344
1005
0
1070
   343
1005
0
1070
   172
1070
     1
1070
    76
1070
     0
1070
    75
1070
     0
1070
   282
1070
     0
1070
   281
1070
     0
1070
    71
1070
     0
1070
    74
1070
     0
1070
   279
1070
     0
1070
   173
1070
     1
1070
   340
1005
127
1070
   271
1070
     2
1070
   272
1070
     3
1070
    77
1070
     1
1070
    73
1070
     1
1070
   171
1070
     3
1070
   274
1070
     4
1070
   177
1070
     2
1070
   176
1070
     2
1070
   178
1070
     2
1070
    78
1070
     8
1070
    48
1040
-0.1
1070
    41
1040
3.5
1070
   147
1040
1.5
1070
    42
1040
1.5875
1070
    44
1040
2.0
1070
   140
1040
3.0
1002
}
1001
ACAD_DSTYLE_DIM_LINETYPE
1070
   380
1005
16
1001
ACAD_DSTYLE_DIM_EXT1_LINETYPE
1070
   381
1005
16
1001
ACAD_DSTYLE_DIM_EXT2_LINETYPE
1070
   382
1005
16
0
ENDSEC
0
SECTION
2
OBJECTS
0
DICTIONARY
5
219
330
0
100
AcDbDictionary
280
0
281
1
3
ACAD_GROUP
350
21a
3
ACAD_MLINESTYLE
350
21b
0
DICTIONARY
5
21a
330
0
100
AcDbDictionary
280
0
281
1
0
DICTIONARY
5
21b
330
0
100
AcDbDictionary
280
0
281
1
3
Standard
350
18
0
MLINESTYLE
5
18
330
21b
100
AcDbMlineStyle
2
Standard
70
0
3

62
256
51
90
52
90
71
2
49
-0.5
62
256
6
ByLayer
49
0.5
62
256
6
ByLayer
0
RASTERVARIABLES
5
207
330

100
AcDbRasterVariables
90
0
70
1
71
1
72
1
0
ENDSEC
0
EOF
