0
SECTION
2
HEADER
9
$ACADVER
1
AC1015
9
$DWGCODEPAGE
3
ANSI_1252
9
$HANDSEED
5
23e
9
$ANGBASE
50
0
9
$ANGDIR
70
0
9
$ATTMODE
70
1
9
$AUNITS
70
0
9
$AUPREC
70
0
9
$CECOLOR
62
256
9
$CELTSCALE
40
1
9
$CELTYPE
6
ByLayer
9
$CELWEIGHT
370
18
9
$CLAYER
8
0
9
$CMLJUST
70
0
9
$CMLSCALE
40
1
9
$CMLSTYLE
2
Standard
9
$DIMSTYLE
2
Standard
9
$TEXTSIZE
40
0.2
9
$TEXTSTYLE
7
Standard
9
$LUNITS
70
2
9
$LUPREC
70
4
9
$EXTNAMES
290
1
9
$INSUNITS
70
4
9
$LTSCALE
40
1
9
$LWDISPLAY
290
1
9
$PDMODE
70
0
9
$PDSIZE
40
0
9
$PLINEGEN
70
0
0
ENDSEC
0
SECTION
2
CLASSES
0
CLASS
1
RASTERVARIABLES
2
AcDbRasterVariables
3
ISM
90
0
280
0
281
0
0
ENDSEC
0
SECTION
2
TABLES
0
TABLE
2
VPORT
5
234
100
AcDbSymbolTable
0
VPORT
5
1
100
AcDbSymbolTableRecord
100
AcDbViewportTableRecord
2
*Active
70
0
10
0
20
0
11
1
21
1
12
-1
22
1
13
0
23
0
14
0.5
24
0.5
15
10
25
10
16
0
26
0
36
1
17
0
27
0
37
0
0
ENDTAB
0
TABLE
2
LTYPE
5
235
100
AcDbSymbolTable
0
LTYPE
5
14
100
AcDbSymbolTableRecord
100
AcDbLinetypeTableRecord
70
0
2
ByBlock
3

72
65
73
0
40
0
0
LTYPE
5
15
100
AcDbSymbolTableRecord
100
AcDbLinetypeTableRecord
70
0
2
ByLayer
3

72
65
73
0
40
0
0
LTYPE
5
16
100
AcDbSymbolTableRecord
100
AcDbLinetypeTableRecord
70
0
2
Continuous
3
Solid line
72
65
73
0
40
0
0
LTYPE
5
6E
100
AcDbSymbolTableRecord
100
AcDbLinetypeTableRecord
70
0
2
CENTER
3
____ _ ____ _ ____ _ ____
72
65
73
4
40
47.5
49
22
74
0
49
-8.5
74
0
49
8.5
74
0
49
-8.5
74
0
0
LTYPE
5
6F
100
AcDbSymbolTableRecord
100
AcDbLinetypeTableRecord
70
0
2
DASHED
3
__ __ __ __ __ __ __ __ __
72
65
73
2
40
25.72
49
12.86
74
0
49
-12.86
74
0
0
ENDTAB
0
TABLE
2
LAYER
5
236
100
AcDbSymbolTable
0
LAYER
5
10
100
AcDbSymbolTableRecord
100
AcDbLayerTableRecord
2
0
70
0
62
7
6
Continuous
290
1
370
-3
390
0
0
LAYER
5
71
100
AcDbSymbolTableRecord
100
AcDbLayerTableRecord
2
80
70
0
62
-6
6
Continuous
290
1
370
-3
390
0
0
LAYER
5
73
100
AcDbSymbolTableRecord
100
AcDbLayerTableRecord
2
81
70
0
62
-3
6
Continuous
290
1
370
-3
390
0
0
LAYER
5
75
100
AcDbSymbolTableRecord
100
AcDbLayerTableRecord
2
1
70
0
62
4
6
Continuous
290
1
370
-3
390
0
0
LAYER
5
7F
100
AcDbSymbolTableRecord
100
AcDbLayerTableRecord
2
4
70
0
62
-2
6
CENTER
290
1
370
-3
390
0
0
LAYER
5
B1
100
AcDbSymbolTableRecord
100
AcDbLayerTableRecord
2
2
70
0
62
7
6
Continuous
290
1
370
-3
390
0
0
LAYER
5
163
100
AcDbSymbolTableRecord
100
AcDbLayerTableRecord
2
Defpoints
70
0
62
7
6
Continuous
290
0
370
-3
390
0
0
LAYER
5
220
100
AcDbSymbolTableRecord
100
AcDbLayerTableRecord
2
SK4
70
0
62
2
6
CENTER
290
1
370
-3
390
0
0
LAYER
5
221
100
AcDbSymbolTableRecord
100
AcDbLayerTableRecord
2
SK1
70
0
62
4
6
Continuous
290
1
370
-3
390
0
0
LAYER
5
222
100
AcDbSymbolTableRecord
100
AcDbLayerTableRecord
2
SK2
70
0
62
7
6
Continuous
290
1
370
-3
390
0
0
LAYER
5
223
100
AcDbSymbolTableRecord
100
AcDbLayerTableRecord
2
SK6
70
0
62
5
6
Continuous
290
1
370
-3
390
0
0
ENDTAB
0
TABLE
2
STYLE
5
237
100
AcDbSymbolTable
0
STYLE
5
11
100
AcDbSymbolTableRecord
100
AcDbTextStyleTableRecord
2
Standard
3
txt
70
0
71
0
40
0
41
1
42
0
50
0
0
STYLE
5
13F
100
AcDbSymbolTableRecord
100
AcDbTextStyleTableRecord
2
iso_b_vert
3
simplex.shx
70
0
71
0
40
0
41
1
42
0
50
0
0
STYLE
5
140
100
AcDbSymbolTableRecord
100
AcDbTextStyleTableRecord
2
DWGDirectTextStyle
3
simplex
70
0
71
0
40
0
41
1
42
0
50
0
0
ENDTAB
0
TABLE
2
DIMSTYLE
5
238
100
AcDbSymbolTable
100
AcDbDimStyleTable
0
DIMSTYLE
105
27
100
AcDbSymbolTableRecord
100
AcDbDimStyleTableRecord
2
Standard
70
0
3
<>
41
0.18
42
0.0625
44
0.18
140
0.18
147
0.09
73
0
74
0
77
1
271
2
275
0
278
52
280
0
340
11
0
ENDTAB
0
TABLE
2
VIEW
5
239
100
AcDbSymbolTable
0
ENDTAB
0
TABLE
2
UCS
5
23a
100
AcDbSymbolTable
0
ENDTAB
0
TABLE
2
APPID
5
23b
100
AcDbSymbolTable
0
APPID
5
12
100
AcDbSymbolTableRecord
100
AcDbRegAppTableRecord
2
ACAD
70
0
0
APPID
5
15F
100
AcDbSymbolTableRecord
100
AcDbRegAppTableRecord
2
ACAD_DSTYLE_DIMBREAK
70
0
0
APPID
5
1DF
100
AcDbSymbolTableRecord
100
AcDbRegAppTableRecord
2
ACAD_DSTYLE_DIM_LINETYPE
70
0
0
APPID
5
1E0
100
AcDbSymbolTableRecord
100
AcDbRegAppTableRecord
2
ACAD_DSTYLE_DIM_EXT1_LINETYPE
70
0
0
APPID
5
1E1
100
AcDbSymbolTableRecord
100
AcDbRegAppTableRecord
2
ACAD_DSTYLE_DIM_EXT2_LINETYPE
70
0
0
APPID
5
21C
100
AcDbSymbolTableRecord
100
AcDbRegAppTableRecord
2
ACAD_MLEADERVER
70
0
0
ENDTAB
0
TABLE
2
BLOCK_RECORD
5
23c
100
AcDbSymbolTable
0
BLOCK_RECORD
5
1F
100
AcDbSymbolTableRecord
100
AcDbBlockTableRecord
2
*Model_Space
340
0
70
0
0
BLOCK_RECORD
5
1B
100
AcDbSymbolTableRecord
100
AcDbBlockTableRecord
2
*Paper_Space
340
0
70
0
0
BLOCK_RECORD
5
23
100
AcDbSymbolTableRecord
100
AcDbBlockTableRecord
2
*Paper_Space0
340
0
70
0
0
BLOCK_RECORD
5
164
100
AcDbSymbolTableRecord
100
AcDbBlockTableRecord
2
*D1
340
0
70
0
0
BLOCK_RECORD
5
170
100
AcDbSymbolTableRecord
100
AcDbBlockTableRecord
2
_U0
340
0
70
0
0
BLOCK_RECORD
5
17C
100
AcDbSymbolTableRecord
100
AcDbBlockTableRecord
2
*D3
340
0
70
0
0
BLOCK_RECORD
5
188
100
AcDbSymbolTableRecord
100
AcDbBlockTableRecord
2
_U1
340
0
70
0
0
BLOCK_RECORD
5
194
100
AcDbSymbolTableRecord
100
AcDbBlockTableRecord
2
*D5
340
0
70
0
0
BLOCK_RECORD
5
1A0
100
AcDbSymbolTableRecord
100
AcDbBlockTableRecord
2
_U2
340
0
70
0
0
BLOCK_RECORD
5
1AC
100
AcDbSymbolTableRecord
100
AcDbBlockTableRecord
2
*D7
340
0
70
0
0
BLOCK_RECORD
5
1B8
100
AcDbSymbolTableRecord
100
AcDbBlockTableRecord
2
_U3
340
0
70
0
0
ENDTAB
0
ENDSEC
0
SECTION
2
BLOCKS
0
BLOCK
5
20
100
AcDbEntity
8
0
100
AcDbBlockBegin
2
*Model_Space
70
0
10
0
20
0
30
0
3
*Model_Space
0
ENDBLK
5
21
100
AcDbEntity
8
0
100
AcDbBlockEnd
0
BLOCK
5
1C
100
AcDbEntity
8
0
100
AcDbBlockBegin
2
*Paper_Space
70
0
10
0
20
0
30
0
3
*Paper_Space
0
ENDBLK
5
1D
100
AcDbEntity
8
0
100
AcDbBlockEnd
0
BLOCK
5
24
100
AcDbEntity
8
0
100
AcDbBlockBegin
2
*Paper_Space0
70
0
10
0
20
0
30
0
3
*Paper_Space0
0
ENDBLK
5
25
100
AcDbEntity
8
0
100
AcDbBlockEnd
0
BLOCK
5
165
100
AcDbEntity
8
0
100
AcDbBlockBegin
2
*D1
70
1
10
0
20
0
30
0
3
*D1
0
LINE
5
167
100
AcDbEntity
8
0
62
256
6
ByLayer
370
-2
48
1
60
0
100
AcDbLine
10
-56
20
-14.0875
30
0
11
-56
21
-47.952229
31
0
39
0
210
0
220
0
230
1
0
LINE
5
168
100
AcDbEntity
8
0
62
256
6
ByLayer
370
-2
48
1
60
0
100
AcDbLine
10
105.5
20
-1.5875
30
0
11
105.5
21
-47.952229
31
0
39
0
210
0
220
0
230
1
0
LINE
5
169
100
AcDbEntity
8
0
62
256
6
ByLayer
370
-2
48
1
60
0
100
AcDbLine
10
-52.5
20
-45.952229
30
0
11
102
21
-45.952229
31
0
39
0
210
0
220
0
230
1
0
SOLID
5
16A
100
AcDbEntity
8
0
62
256
6
ByLayer
370
-1
48
1
60
0
100
AcDbTrace
10
-52.5
20
-45.368896
30
0
11
-52.5
21
-46.535563
31
0
12
-56
22
-45.952229
32
0
13
-56
23
-45.952229
33
0
39
0
210
0
220
0
230
1
0
SOLID
5
16B
100
AcDbEntity
8
0
62
256
6
ByLayer
370
-1
48
1
60
0
100
AcDbTrace
10
102
20
-46.535563
30
0
11
102
21
-45.368896
31
0
12
105.5
22
-45.952229
32
0
13
105.5
23
-45.952229
33
0
39
0
210
0
220
0
230
1
0
MTEXT
5
16C
100
AcDbEntity
8
0
62
256
6
ByLayer
370
18
48
1
60
0
100
AcDbMText
10
24.75
20
-39.952229
30
0
210
0
220
0
230
1
1
\A1;161.5
40
3
41
0
44
1
50
0
71
5
72
5
7
iso_b_vert
0
POINT
5
16D
100
AcDbEntity
8
Defpoints
62
0
6
ByLayer
370
-1
48
1
60
0
100
AcDbPoint
10
-56
20
-12.5
30
0
39
0
210
0
220
0
230
1
50
360
0
POINT
5
16E
100
AcDbEntity
8
Defpoints
62
0
6
ByLayer
370
-1
48
1
60
0
100
AcDbPoint
10
105.5
20
0
30
0
39
0
210
0
220
0
230
1
50
360
0
POINT
5
16F
100
AcDbEntity
8
Defpoints
62
0
6
ByLayer
370
-1
48
1
60
0
100
AcDbPoint
10
105.5
20
-45.952229
30
0
39
0
210
0
220
0
230
1
50
360
0
ENDBLK
5
166
100
AcDbEntity
8
0
100
AcDbBlockEnd
0
BLOCK
5
177
100
AcDbEntity
8
0
100
AcDbBlockBegin
2
_U0
70
0
10
0
20
0
30
0
3
_U0
0
MTEXT
5
171
100
AcDbEntity
8
SK2
62
256
6
ByLayer
370
18
48
1
60
0
100
AcDbMText
10
19.896601
20
-45.067115
30
0
210
0
220
0
230
1
1
\W0.6532;161.50
40
3
41
0
44
1.084337
50
0
71
7
72
5
7
iso_b_vert
0
LINE
5
172
100
AcDbEntity
8
SK2
62
256
6
ByLayer
370
13
48
1
60
0
100
AcDbLine
10
-56
20
-14.0875
30
0
11
-56
21
-47.952229
31
0
39
0
210
0
220
0
230
1
0
LINE
5
173
100
AcDbEntity
8
SK2
62
256
6
ByLayer
370
13
48
1
60
0
100
AcDbLine
10
105.5
20
-1.5875
30
0
11
105.5
21
-47.952229
31
0
39
0
210
0
220
0
230
1
0
LINE
5
174
100
AcDbEntity
8
SK2
62
256
6
ByLayer
370
13
48
1
60
0
100
AcDbLine
10
-56
20
-45.952229
30
0
11
105.5
21
-45.952229
31
0
39
0
210
0
220
0
230
1
0
SOLID
5
175
100
AcDbEntity
8
SK2
62
256
6
ByLayer
370
18
48
1
60
0
100
AcDbTrace
10
-56
20
-45.952229
30
0
11
-52.500002
21
-45.491446
31
0
12
-52.499998
22
-46.413013
32
0
13
-52.499998
23
-46.413013
33
0
39
0
210
0
220
0
230
1
0
SOLID
5
176
100
AcDbEntity
8
SK2
62
256
6
ByLayer
370
18
48
1
60
0
100
AcDbTrace
10
105.5
20
-45.952229
30
0
11
102.000002
21
-46.413013
31
0
12
101.999998
22
-45.491446
32
0
13
101.999998
23
-45.491446
33
0
39
0
210
0
220
0
230
1
0
ENDBLK
5
178
100
AcDbEntity
8
0
100
AcDbBlockEnd
0
BLOCK
5
17D
100
AcDbEntity
8
0
100
AcDbBlockBegin
2
*D3
70
1
10
0
20
0
30
0
3
*D3
0
LINE
5
17F
100
AcDbEntity
8
0
62
256
6
ByLayer
370
-2
48
1
60
0
100
AcDbLine
10
105.5
20
-1.5875
30
0
11
105.5
21
-37.952229
31
0
39
0
210
0
220
0
230
1
0
LINE
5
180
100
AcDbEntity
8
0
62
256
6
ByLayer
370
-2
48
1
60
0
100
AcDbLine
10
3
20
-12.5875
30
0
11
3
21
-37.952229
31
0
39
0
210
0
220
0
230
1
0
LINE
5
181
100
AcDbEntity
8
0
62
256
6
ByLayer
370
-2
48
1
60
0
100
AcDbLine
10
102
20
-35.952229
30
0
11
6.5
21
-35.952229
31
0
39
0
210
0
220
0
230
1
0
SOLID
5
182
100
AcDbEntity
8
0
62
256
6
ByLayer
370
-1
48
1
60
0
100
AcDbTrace
10
102
20
-36.535563
30
0
11
102
21
-35.368896
31
0
12
105.5
22
-35.952229
32
0
13
105.5
23
-35.952229
33
0
39
0
210
0
220
0
230
1
0
SOLID
5
183
100
AcDbEntity
8
0
62
256
6
ByLayer
370
-1
48
1
60
0
100
AcDbTrace
10
6.5
20
-35.368896
30
0
11
6.5
21
-36.535563
31
0
12
3
22
-35.952229
32
0
13
3
23
-35.952229
33
0
39
0
210
0
220
0
230
1
0
MTEXT
5
184
100
AcDbEntity
8
0
62
256
6
ByLayer
370
18
48
1
60
0
100
AcDbMText
10
54.25
20
-29.952229
30
0
210
0
220
0
230
1
1
\A1;102.5
40
3
41
0
44
1
50
0
71
5
72
5
7
iso_b_vert
0
POINT
5
185
100
AcDbEntity
8
Defpoints
62
0
6
ByLayer
370
-1
48
1
60
0
100
AcDbPoint
10
105.5
20
0
30
0
39
0
210
0
220
0
230
1
50
360
0
POINT
5
186
100
AcDbEntity
8
Defpoints
62
0
6
ByLayer
370
-1
48
1
60
0
100
AcDbPoint
10
3
20
-11
30
0
39
0
210
0
220
0
230
1
50
360
0
POINT
5
187
100
AcDbEntity
8
Defpoints
62
0
6
ByLayer
370
-1
48
1
60
0
100
AcDbPoint
10
3
20
-35.952229
30
0
39
0
210
0
220
0
230
1
50
360
0
ENDBLK
5
17E
100
AcDbEntity
8
0
100
AcDbBlockEnd
0
BLOCK
5
18F
100
AcDbEntity
8
0
100
AcDbBlockBegin
2
_U1
70
0
10
0
20
0
30
0
3
_U1
0
MTEXT
5
189
100
AcDbEntity
8
SK2
62
256
6
ByLayer
370
18
48
1
60
0
100
AcDbMText
10
49.021658
20
-35.067115
30
0
210
0
220
0
230
1
1
\W0.7022;102.50
40
3
41
0
44
1.084337
50
0
71
7
72
5
7
iso_b_vert
0
LINE
5
18A
100
AcDbEntity
8
SK2
62
256
6
ByLayer
370
13
48
1
60
0
100
AcDbLine
10
105.5
20
-1.5875
30
0
11
105.5
21
-37.952229
31
0
39
0
210
0
220
0
230
1
0
LINE
5
18B
100
AcDbEntity
8
SK2
62
256
6
ByLayer
370
13
48
1
60
0
100
AcDbLine
10
3
20
-12.5875
30
0
11
3
21
-37.952229
31
0
39
0
210
0
220
0
230
1
0
LINE
5
18C
100
AcDbEntity
8
SK2
62
256
6
ByLayer
370
13
48
1
60
0
100
AcDbLine
10
105.5
20
-35.952229
30
0
11
3
21
-35.952229
31
0
39
0
210
0
220
0
230
1
0
SOLID
5
18D
100
AcDbEntity
8
SK2
62
256
6
ByLayer
370
18
48
1
60
0
100
AcDbTrace
10
105.5
20
-35.952229
30
0
11
102.000002
21
-36.413013
31
0
12
101.999998
22
-35.491446
32
0
13
101.999998
23
-35.491446
33
0
39
0
210
0
220
0
230
1
0
SOLID
5
18E
100
AcDbEntity
8
SK2
62
256
6
ByLayer
370
18
48
1
60
0
100
AcDbTrace
10
3
20
-35.952229
30
0
11
6.499998
21
-35.491446
31
0
12
6.500002
22
-36.413013
32
0
13
6.500002
23
-36.413013
33
0
39
0
210
0
220
0
230
1
0
ENDBLK
5
190
100
AcDbEntity
8
0
100
AcDbBlockEnd
0
BLOCK
5
195
100
AcDbEntity
8
0
100
AcDbBlockBegin
2
*D5
70
1
10
0
20
0
30
0
3
*D5
0
LINE
5
197
100
AcDbEntity
8
0
62
256
6
ByLayer
370
-2
48
1
60
0
100
AcDbLine
10
-56
20
-14.0875
30
0
11
-56
21
-37.952229
31
0
39
0
210
0
220
0
230
1
0
LINE
5
198
100
AcDbEntity
8
0
62
256
6
ByLayer
370
-2
48
1
60
0
100
AcDbLine
10
0
20
-14.0875
30
0
11
0
21
-37.952229
31
0
39
0
210
0
220
0
230
1
0
LINE
5
199
100
AcDbEntity
8
0
62
256
6
ByLayer
370
-2
48
1
60
0
100
AcDbLine
10
-52.5
20
-35.952229
30
0
11
-3.5
21
-35.952229
31
0
39
0
210
0
220
0
230
1
0
SOLID
5
19A
100
AcDbEntity
8
0
62
256
6
ByLayer
370
-1
48
1
60
0
100
AcDbTrace
10
-52.5
20
-35.368896
30
0
11
-52.5
21
-36.535563
31
0
12
-56
22
-35.952229
32
0
13
-56
23
-35.952229
33
0
39
0
210
0
220
0
230
1
0
SOLID
5
19B
100
AcDbEntity
8
0
62
256
6
ByLayer
370
-1
48
1
60
0
100
AcDbTrace
10
-3.5
20
-36.535563
30
0
11
-3.5
21
-35.368896
31
0
12
0
22
-35.952229
32
0
13
0
23
-35.952229
33
0
39
0
210
0
220
0
230
1
0
MTEXT
5
19C
100
AcDbEntity
8
0
62
256
6
ByLayer
370
18
48
1
60
0
100
AcDbMText
10
-28
20
-29.952229
30
0
210
0
220
0
230
1
1
\A1;56
40
3
41
0
44
1
50
0
71
5
72
5
7
iso_b_vert
0
POINT
5
19D
100
AcDbEntity
8
Defpoints
62
0
6
ByLayer
370
-1
48
1
60
0
100
AcDbPoint
10
-56
20
-12.5
30
0
39
0
210
0
220
0
230
1
50
360
0
POINT
5
19E
100
AcDbEntity
8
Defpoints
62
0
6
ByLayer
370
-1
48
1
60
0
100
AcDbPoint
10
0
20
-12.5
30
0
39
0
210
0
220
0
230
1
50
360
0
POINT
5
19F
100
AcDbEntity
8
Defpoints
62
0
6
ByLayer
370
-1
48
1
60
0
100
AcDbPoint
10
0
20
-35.952229
30
0
39
0
210
0
220
0
230
1
50
360
0
ENDBLK
5
196
100
AcDbEntity
8
0
100
AcDbBlockEnd
0
BLOCK
5
1A7
100
AcDbEntity
8
0
100
AcDbBlockBegin
2
_U2
70
0
10
0
20
0
30
0
3
_U2
0
MTEXT
5
1A1
100
AcDbEntity
8
SK2
62
256
6
ByLayer
370
18
48
1
60
0
100
AcDbMText
10
-32.48237
20
-35.067115
30
0
210
0
220
0
230
1
1
\W0.7468;56.00
40
3
41
0
44
1.084337
50
0
71
7
72
5
7
iso_b_vert
0
LINE
5
1A2
100
AcDbEntity
8
SK2
62
256
6
ByLayer
370
13
48
1
60
0
100
AcDbLine
10
-56
20
-14.0875
30
0
11
-56
21
-37.952229
31
0
39
0
210
0
220
0
230
1
0
LINE
5
1A3
100
AcDbEntity
8
SK2
62
256
6
ByLayer
370
13
48
1
60
0
100
AcDbLine
10
0
20
-14.0875
30
0
11
0
21
-37.952229
31
0
39
0
210
0
220
0
230
1
0
LINE
5
1A4
100
AcDbEntity
8
SK2
62
256
6
ByLayer
370
13
48
1
60
0
100
AcDbLine
10
-56
20
-35.952229
30
0
11
0
21
-35.952229
31
0
39
0
210
0
220
0
230
1
0
SOLID
5
1A5
100
AcDbEntity
8
SK2
62
256
6
ByLayer
370
18
48
1
60
0
100
AcDbTrace
10
-56
20
-35.952229
30
0
11
-52.500002
21
-35.491446
31
0
12
-52.499998
22
-36.413013
32
0
13
-52.499998
23
-36.413013
33
0
39
0
210
0
220
0
230
1
0
SOLID
5
1A6
100
AcDbEntity
8
SK2
62
256
6
ByLayer
370
18
48
1
60
0
100
AcDbTrace
10
0
20
-35.952229
30
0
11
-3.499998
21
-36.413013
31
0
12
-3.500002
22
-35.491446
32
0
13
-3.500002
23
-35.491446
33
0
39
0
210
0
220
0
230
1
0
ENDBLK
5
1A8
100
AcDbEntity
8
0
100
AcDbBlockEnd
0
BLOCK
5
1AD
100
AcDbEntity
8
0
100
AcDbBlockBegin
2
*D7
70
1
10
0
20
0
30
0
3
*D7
0
LINE
5
1AF
100
AcDbEntity
8
0
62
256
6
ByLayer
370
-2
48
1
60
0
100
AcDbLine
10
105.5
20
1.5875
30
0
11
105.5
21
34.952229
31
0
39
0
210
0
220
0
230
1
0
LINE
5
1B0
100
AcDbEntity
8
0
62
256
6
ByLayer
370
-2
48
1
60
0
100
AcDbLine
10
25.4
20
12.5875
30
0
11
25.4
21
34.952229
31
0
39
0
210
0
220
0
230
1
0
LINE
5
1B1
100
AcDbEntity
8
0
62
256
6
ByLayer
370
-2
48
1
60
0
100
AcDbLine
10
102
20
32.952229
30
0
11
28.9
21
32.952229
31
0
39
0
210
0
220
0
230
1
0
SOLID
5
1B2
100
AcDbEntity
8
0
62
256
6
ByLayer
370
-1
48
1
60
0
100
AcDbTrace
10
102
20
32.368896
30
0
11
102
21
33.535563
31
0
12
105.5
22
32.952229
32
0
13
105.5
23
32.952229
33
0
39
0
210
0
220
0
230
1
0
SOLID
5
1B3
100
AcDbEntity
8
0
62
256
6
ByLayer
370
-1
48
1
60
0
100
AcDbTrace
10
28.9
20
33.535563
30
0
11
28.9
21
32.368896
31
0
12
25.4
22
32.952229
32
0
13
25.4
23
32.952229
33
0
39
0
210
0
220
0
230
1
0
MTEXT
5
1B4
100
AcDbEntity
8
0
62
256
6
ByLayer
370
18
48
1
60
0
100
AcDbMText
10
65.45
20
38.952229
30
0
210
0
220
0
230
1
1
\A1;80.1
40
3
41
0
44
1
50
0
71
5
72
5
7
iso_b_vert
0
POINT
5
1B5
100
AcDbEntity
8
Defpoints
62
0
6
ByLayer
370
-1
48
1
60
0
100
AcDbPoint
10
105.5
20
0
30
0
39
0
210
0
220
0
230
1
50
360
0
POINT
5
1B6
100
AcDbEntity
8
Defpoints
62
0
6
ByLayer
370
-1
48
1
60
0
100
AcDbPoint
10
25.4
20
11
30
0
39
0
210
0
220
0
230
1
50
360
0
POINT
5
1B7
100
AcDbEntity
8
Defpoints
62
0
6
ByLayer
370
-1
48
1
60
0
100
AcDbPoint
10
25.4
20
32.952229
30
0
39
0
210
0
220
0
230
1
50
360
0
ENDBLK
5
1AE
100
AcDbEntity
8
0
100
AcDbBlockEnd
0
BLOCK
5
1BF
100
AcDbEntity
8
0
100
AcDbBlockBegin
2
_U3
70
0
10
0
20
0
30
0
3
_U3
0
MTEXT
5
1B9
100
AcDbEntity
8
SK2
62
256
6
ByLayer
370
18
48
1
60
0
100
AcDbMText
10
61.342572
20
33.837344
30
0
210
0
220
0
230
1
1
\W0.6864;80.10
40
3
41
0
44
1.084337
50
0
71
7
72
5
7
iso_b_vert
0
LINE
5
1BA
100
AcDbEntity
8
SK2
62
256
6
ByLayer
370
13
48
1
60
0
100
AcDbLine
10
105.5
20
1.5875
30
0
11
105.5
21
34.952229
31
0
39
0
210
0
220
0
230
1
0
LINE
5
1BB
100
AcDbEntity
8
SK2
62
256
6
ByLayer
370
13
48
1
60
0
100
AcDbLine
10
25.4
20
12.5875
30
0
11
25.4
21
34.952229
31
0
39
0
210
0
220
0
230
1
0
LINE
5
1BC
100
AcDbEntity
8
SK2
62
256
6
ByLayer
370
13
48
1
60
0
100
AcDbLine
10
105.5
20
32.952229
30
0
11
25.4
21
32.952229
31
0
39
0
210
0
220
0
230
1
0
SOLID
5
1BD
100
AcDbEntity
8
SK2
62
256
6
ByLayer
370
18
48
1
60
0
100
AcDbTrace
10
105.5
20
32.952229
30
0
11
102.000002
21
32.491446
31
0
12
101.999998
22
33.413013
32
0
13
101.999998
23
33.413013
33
0
39
0
210
0
220
0
230
1
0
SOLID
5
1BE
100
AcDbEntity
8
SK2
62
256
6
ByLayer
370
18
48
1
60
0
100
AcDbTrace
10
25.4
20
32.952229
30
0
11
28.899998
21
33.413013
31
0
12
28.900002
22
32.491446
32
0
13
28.900002
23
32.491446
33
0
39
0
210
0
220
0
230
1
0
ENDBLK
5
1C0
100
AcDbEntity
8
0
100
AcDbBlockEnd
0
ENDSEC
0
SECTION
2
ENTITIES
0
ARC
5
C2
100
AcDbEntity
8
SK2
62
256
6
ByLayer
370
13
48
1
60
0
100
AcDbCircle
39
0
10
105.5
20
0
30
0
40
19
210
0
220
0
230
1
100
AcDbArc
50
290
51
70
0
ELLIPSE
5
C3
100
AcDbEntity
8
SK1
62
256
6
ByLayer
370
18
48
1
60
0
100
AcDbEllipse
10
-41.343561
20
0
30
0
11
-2.29613691341699E-15
21
-12.5000000000002
31
0
210
0
220
0
230
1
40
0.932515
41
-1.86465462472194
42
-1.27693802886786
0
ELLIPSE
5
C4
100
AcDbEntity
8
SK1
62
256
6
ByLayer
370
18
48
1
60
0
100
AcDbEllipse
10
276.680659
20
0
30
0
11
357.953166043254
21
-4.05596621644435E-13
31
0
210
0
220
0
230
1
40
0.034921
41
2.52406396812455
42
2.73005601344533
0
ELLIPSE
5
C5
100
AcDbEntity
8
SK1
62
256
6
ByLayer
370
18
48
1
60
0
100
AcDbEllipse
10
276.680659
20
0
30
0
11
357.953166032003
21
-4.05596621631686E-13
31
0
210
0
220
0
230
1
40
0.034921
41
-2.73005601344242
42
-2.52406396811705
0
ELLIPSE
5
C6
100
AcDbEntity
8
SK1
62
256
6
ByLayer
370
18
48
1
60
0
100
AcDbEllipse
10
-25.404609
20
0
30
0
11
13.4046088753088
21
-1.51887581674114E-14
31
0
210
0
220
0
230
1
40
0.932515
41
-0.555530755442636
42
0.555530755442635
0
POINT
5
70
100
AcDbEntity
8
80
62
256
6
ByLayer
370
18
48
1
60
0
100
AcDbPoint
10
0
20
0
30
0
39
0
210
0
220
0
230
1
50
360
0
POINT
5
72
100
AcDbEntity
8
81
62
256
6
ByLayer
370
18
48
1
60
0
100
AcDbPoint
10
105.5
20
0
30
0
39
0
210
0
220
0
230
1
50
360
0
POINT
5
74
100
AcDbEntity
8
1
62
256
6
ByLayer
370
18
48
1
60
1
100
AcDbPoint
10
-56
20
-12.5
30
0
39
0
210
0
220
0
230
1
50
360
0
POINT
5
76
100
AcDbEntity
8
1
62
256
6
ByLayer
370
18
48
1
60
1
100
AcDbPoint
10
105.5
20
0
30
0
39
0
210
0
220
0
230
1
50
360
0
POINT
5
77
100
AcDbEntity
8
1
62
256
6
ByLayer
370
18
48
1
60
1
100
AcDbPoint
10
105.5
20
0
30
0
39
0
210
0
220
0
230
1
50
360
0
POINT
5
78
100
AcDbEntity
8
1
62
256
6
ByLayer
370
18
48
1
60
1
100
AcDbPoint
10
3
20
-11
30
0
39
0
210
0
220
0
230
1
50
360
0
POINT
5
79
100
AcDbEntity
8
1
62
256
6
ByLayer
370
18
48
1
60
1
100
AcDbPoint
10
-56
20
-12.5
30
0
39
0
210
0
220
0
230
1
50
360
0
POINT
5
7A
100
AcDbEntity
8
1
62
256
6
ByLayer
370
18
48
1
60
1
100
AcDbPoint
10
0
20
-12.5
30
0
39
0
210
0
220
0
230
1
50
360
0
POINT
5
7B
100
AcDbEntity
8
1
62
256
6
ByLayer
370
18
48
1
60
1
100
AcDbPoint
10
105.5
20
0
30
0
39
0
210
0
220
0
230
1
50
360
0
POINT
5
7C
100
AcDbEntity
8
1
62
256
6
ByLayer
370
18
48
1
60
1
100
AcDbPoint
10
25.4
20
11
30
0
39
0
210
0
220
0
230
1
50
360
0
SPLINE
5
C7
100
AcDbEntity
8
1
62
256
6
ByLayer
370
18
48
1
60
0
100
AcDbSpline
70
4
71
3
72
22
73
18
40
0
40
0
40
0
40
0
40
0.0624999999999992
40
0.0624999999999992
40
0.124999999999998
40
0.124999999999998
40
0.249999999999997
40
0.249999999999997
40
0.499999999999993
40
0.499999999999993
40
0.562499999999994
40
0.562499999999994
40
0.624999999999995
40
0.624999999999995
40
0.749999999999997
40
0.749999999999997
40
1
40
1
40
1
40
1
41
1
10
101.496327423068
20
-1.56976443347085
30
0
41
1
10
101.26696497305
20
-1.48708785877417
30
0
41
1
10
101.037687890668
20
-1.4042117483653
30
0
41
1
10
100.579294999768
20
-1.23808713272786
30
0
41
1
10
100.350170106308
20
-1.1548639325969
30
0
41
1
10
99.6627799919472
20
-0.905350328261221
30
0
41
1
10
99.2045463552028
20
-0.739085017402232
30
0
41
1
10
97.8300160444026
20
-0.240262059665128
30
0
41
1
10
96.9138707651554
20
0.0922709449067725
30
0
41
1
10
95.769274052996
20
0.508812171950552
30
0
41
1
10
95.5403881752446
20
0.592175685074864
30
0
41
1
10
95.0826585583158
20
0.758944359320878
30
0
41
1
10
94.8538010867968
20
0.842311587388451
30
0
41
1
10
94.1670437358309
20
1.09179159156901
30
0
41
1
10
93.7090149552949
20
1.25743748232475
30
0
41
1
10
92.3344522758056
20
1.7526188882143
30
0
41
1
10
91.4174259284748
20
2.08035538814187
30
0
41
1
10
90.5000000000001
20
2.40639196805026
30
0
0
SPLINE
5
C8
100
AcDbEntity
8
1
62
256
6
ByLayer
370
18
48
1
60
0
100
AcDbSpline
70
4
71
3
72
92
73
88
40
0
40
0
40
0
40
0
40
0.0312499999999979
40
0.0312499999999979
40
0.0624999999999959
40
0.0624999999999959
40
0.0937499999999938
40
0.0937499999999938
40
0.124999999999992
40
0.124999999999992
40
0.140624999999991
40
0.140624999999991
40
0.148437499999991
40
0.148437499999991
40
0.156249999999991
40
0.18749999999999
40
0.18749999999999
40
0.218749999999989
40
0.218749999999989
40
0.249999999999989
40
0.249999999999989
40
0.281249999999988
40
0.281249999999988
40
0.296874999999988
40
0.296874999999988
40
0.312499999999987
40
0.312499999999987
40
0.343749999999988
40
0.343749999999988
40
0.374999999999988
40
0.374999999999988
40
0.406249999999989
40
0.406249999999989
40
0.437499999999989
40
0.437499999999989
40
0.445312499999989
40
0.445312499999989
40
0.453124999999989
40
0.468749999999988
40
0.468749999999988
40
0.499999999999988
40
0.499999999999988
40
0.531249999999987
40
0.531249999999987
40
0.539062499999987
40
0.539062499999987
40
0.546874999999987
40
0.562499999999988
40
0.562499999999988
40
0.59374999999999
40
0.59374999999999
40
0.624999999999992
40
0.624999999999992
40
0.632812499999992
40
0.632812499999992
40
0.640624999999992
40
0.656249999999992
40
0.656249999999992
40
0.687499999999992
40
0.687499999999992
40
0.718749999999992
40
0.718749999999992
40
0.726562499999993
40
0.726562499999993
40
0.734374999999993
40
0.734374999999993
40
0.749999999999995
40
0.749999999999995
40
0.781249999999997
40
0.781249999999997
40
0.812499999999999
40
0.812499999999999
40
0.843750000000002
40
0.843750000000002
40
0.851562500000002
40
0.851562500000002
40
0.859375000000002
40
0.875000000000002
40
0.875000000000002
40
0.906250000000001
40
0.937500000000001
40
0.96875
40
0.96875
40
0.9765625
40
0.9765625
40
0.984374999999999
40
1
40
1
40
1
40
1
41
1
10
101.496327423072
20
10.6506959460465
30
0
41
1
10
101.565032757508
20
10.4803352956328
30
0
41
1
10
101.633846028208
20
10.3074186563931
30
0
41
1
10
101.771805082437
20
9.95687710274203
30
0
41
1
10
101.840950744275
20
9.77925129010308
30
0
41
1
10
101.979656356223
20
9.41958263907634
30
0
41
1
10
102.049216356468
20
9.23753929507708
30
0
41
1
10
102.188799204489
20
8.86923774408925
30
0
41
1
10
102.258822291502
20
8.68297932840659
30
0
41
1
10
102.364212394921
20
8.40052317836435
30
0
41
1
10
102.399401360189
20
8.30585911033984
30
0
41
1
10
102.452270947019
20
8.16310120627909
30
0
41
1
10
102.469920689826
20
8.11535510342483
30
0
41
1
10
102.505185525666
20
8.01977925532316
30
0
41
1
10
102.593218063866
20
7.78074491212564
30
0
41
1
10
102.680611556463
20
7.54124445543266
30
0
41
1
10
102.819565998115
20
7.15744301906636
30
0
41
1
10
102.888606504192
20
6.96524222823962
30
0
41
1
10
103.025655373071
20
6.58019553056249
30
0
41
1
10
103.093665304417
20
6.38735017221165
30
0
41
1
10
103.228360364954
20
6.00091746875793
30
0
41
1
10
103.295048215132
20
5.80733110219234
30
0
41
1
10
103.393718395969
20
5.51626643383563
30
0
41
1
10
103.426379730524
20
5.41913001988269
30
0
41
1
10
103.491156091281
20
5.22459580901756
30
0
41
1
10
103.523285035481
20
5.12715287449785
30
0
41
1
10
103.618224243449
20
4.835799899309
30
0
41
1
10
103.679757357927
20
4.64240953546991
30
0
41
1
10
103.798178547789
20
4.25699793091331
30
0
41
1
10
103.855074672249
20
4.06497739671187
30
0
41
1
10
103.962506091204
20
3.68189310741042
30
0
41
1
10
104.013050568499
20
3.49083004802969
30
0
41
1
10
104.10518829884
20
3.10913827186619
30
0
41
1
10
104.146785035261
20
2.91850868040061
30
0
41
1
10
104.190868373978
20
2.68010261252084
30
0
41
1
10
104.199291571688
20
2.63238579281472
30
0
41
1
10
104.215251415331
20
2.53705780246338
30
0
41
1
10
104.237806096843
20
2.39456639193969
30
0
41
1
10
104.255962785564
20
2.25359657815437
30
0
41
1
10
104.285820941008
20
1.9737653706143
30
0
41
1
10
104.297055841584
20
1.79001292568171
30
0
41
1
10
104.300084081362
20
1.42876932292441
30
0
41
1
10
104.291859814218
20
1.25128118848926
30
0
41
1
10
104.269503979606
20
1.03391363799557
30
0
41
1
10
104.264429423827
20
0.990624600432227
30
0
41
1
10
104.253132292283
20
0.904691337965033
30
0
41
1
10
104.234521915346
20
0.777163254439245
30
0
41
1
10
104.211206148838
20
0.653699785105005
30
0
41
1
10
104.159084163719
20
0.412060450088603
30
0
41
1
10
104.117045694178
20
0.258007886978106
30
0
41
1
10
104.022180855764
20
-0.036570504447468
30
0
41
1
10
103.969362467326
20
-0.177100333567267
30
0
41
1
10
103.898352356872
20
-0.344439537121758
30
0
41
1
10
103.883887175639
20
-0.377514969463334
30
0
41
1
10
103.854536709537
20
-0.442719099425602
30
0
41
1
10
103.80996153349
20
-0.538928196605724
30
0
41
1
10
103.763908708428
20
-0.630440357349244
30
0
41
1
10
103.67019073958
20
-0.807390885976702
30
0
41
1
10
103.605583678351
20
-0.917276408090146
30
0
41
1
10
103.473366891889
20
-1.12142781651767
30
0
41
1
10
103.405748221187
20
-1.21569075884798
30
0
41
1
10
103.319755318684
20
-1.32377438993168
30
0
41
1
10
103.302482166189
20
-1.34490271981903
30
0
41
1
10
103.267793149454
20
-1.38617859437755
30
0
41
1
10
103.250363679609
20
-1.40634041724687
30
0
41
1
10
103.198090158049
20
-1.46510334070902
30
0
41
1
10
103.163200064143
20
-1.50205962300976
30
0
41
1
10
103.058461130565
20
-1.60642162042353
30
0
41
1
10
102.988548836616
20
-1.66733391748792
30
0
41
1
10
102.848678576838
20
-1.77227472062302
30
0
41
1
10
102.778718428462
20
-1.81630147525848
30
0
41
1
10
102.638730914485
20
-1.887495809201
30
0
41
1
10
102.568702550853
20
-1.9146633967944
30
0
41
1
10
102.481051985323
20
-1.93786135545531
30
0
41
1
10
102.463502899998
20
-1.94196347733438
30
0
41
1
10
102.428546077897
20
-1.94905282027526
30
0
41
1
10
102.376271432944
20
-1.95803017999933
30
0
41
1
10
102.324461395563
20
-1.96209300938457
30
0
41
1
10
102.221415322442
20
-1.96377764892617
30
0
41
1
10
102.085550802328
20
-1.94887039901843
30
0
41
1
10
101.885628268521
20
-1.87598147392254
30
0
41
1
10
101.754459684469
20
-1.7936424512036
30
0
41
1
10
101.672992103772
20
-1.73140324996191
30
0
41
1
10
101.656734122403
20
-1.71842246672711
30
0
41
1
10
101.624353370808
20
-1.69145109258196
30
0
41
1
10
101.575955312193
20
-1.64945657461948
30
0
41
1
10
101.528055962859
20
-1.60286479910275
30
0
41
1
10
101.496327423072
20
-1.56976443347205
30
0
0
SPLINE
5
C9
100
AcDbEntity
8
1
62
256
6
ByLayer
370
18
48
1
60
0
100
AcDbSpline
70
4
71
3
72
24
73
20
40
0
40
0
40
0
40
0
40
0.0095666648869267
40
0.0095666648869267
40
0.0996060589881196
40
0.0996060589881196
40
0.189645453089312
40
0.189645453089312
40
0.279684847190505
40
0.279684847190505
40
0.639842423595258
40
0.639842423595258
40
0.729881817696443
40
0.729881817696443
40
0.819921211797629
40
0.819921211797629
40
0.909960605898814
40
0.909960605898814
40
1
40
1
40
1
40
1
41
1
10
93.8650965628676
20
10.9986263798328
30
0
41
1
10
93.8894238295118
20
10.9986310375904
30
0
41
1
10
93.9137504035742
20
10.9986249644269
30
0
41
1
10
94.1670261723395
20
10.9984499316689
30
0
41
1
10
94.3959005529262
20
10.9973392518236
30
0
41
1
10
94.853598463684
20
10.9932051526866
30
0
41
1
10
95.0824545758535
20
10.9901840990066
30
0
41
1
10
95.5402733492407
20
10.9822591715141
30
0
41
1
10
95.7692198442136
20
10.9773544206636
30
0
41
1
10
96.9140646622533
20
10.9481388820255
30
0
41
1
10
97.8303195739492
20
10.9098138468634
30
0
41
1
10
98.9756175294415
20
10.8429951686435
30
0
41
1
10
99.2046755615925
20
10.828681808236
30
0
41
1
10
99.6627762175992
20
10.7981348627004
30
0
41
1
10
99.891803750844
20
10.7818920829976
30
0
41
1
10
100.349942501669
20
10.7475250498592
30
0
41
1
10
100.579087028145
20
10.7294206953108
30
0
41
1
10
101.037579733497
20
10.6914171297526
30
0
41
1
10
101.2669158145
20
10.6715110804326
30
0
41
1
10
101.496327423068
20
10.6506959460469
30
0
0
SPLINE
5
CA
100
AcDbEntity
8
1
62
256
6
ByLayer
370
18
48
1
60
0
100
AcDbSpline
70
4
71
3
72
46
73
42
40
0
40
0
40
0
40
0
40
0.0385193015525753
40
0.0385193015525753
40
0.068565573379058
40
0.068565573379058
40
0.0986118452055406
40
0.0986118452055406
40
0.158704388858505
40
0.158704388858505
40
0.278889476164431
40
0.278889476164431
40
0.338982019817393
40
0.338982019817393
40
0.369028291643873
40
0.369028291643873
40
0.399074563470352
40
0.399074563470352
40
0.459167107123311
40
0.459167107123311
40
0.51925965077627
40
0.51925965077627
40
0.579352194429229
40
0.579352194429229
40
0.60939846625571
40
0.60939846625571
40
0.639444738082191
40
0.639444738082191
40
0.669491009908673
40
0.669491009908673
40
0.699537281735154
40
0.699537281735154
40
0.759629825388121
40
0.759629825388121
40
0.879814912694054
40
0.879814912694054
40
0.90986118452054
40
0.90986118452054
40
0.939907456347027
40
0.939907456347027
40
1
40
1
40
1
40
1
41
1
10
71.7786916857983
20
7.89319936383544
30
0
41
1
10
72.0190880027513
20
7.9506901759959
30
0
41
1
10
72.2594631208255
20
8.00750259620577
30
0
41
1
10
72.6872872861362
20
8.10744159974669
30
0
41
1
10
72.8747472908576
20
8.15082823647128
30
0
41
1
10
73.2497464357079
20
8.23657271922329
30
0
41
1
10
73.4372973753953
20
8.27890974766586
30
0
41
1
10
74.0001002364731
20
8.40433242246942
30
0
41
1
10
74.3754288674216
20
8.48584092271545
30
0
41
1
10
75.5011659675872
20
8.7242204551396
30
0
41
1
10
76.2515479935556
20
8.87496140734959
30
0
41
1
10
77.3766179654717
20
9.08930516883092
30
0
41
1
10
77.7515447597179
20
9.15880531749838
30
0
41
1
10
78.3138061781393
20
9.26007040940044
30
0
41
1
10
78.5012175761922
20
9.29330917996441
30
0
41
1
10
78.876143222972
20
9.35858687697868
30
0
41
1
10
79.0636496867603
20
9.39063764829845
30
0
41
1
10
79.6262758247952
20
9.485069915537
30
0
41
1
10
80.0014967613337
20
9.54573982288682
30
0
41
1
10
80.752143583843
20
9.66262465876935
30
0
41
1
10
81.1275772638082
20
9.71883427815968
30
0
41
1
10
81.878037518676
20
9.82676945240834
30
0
41
1
10
82.2531336100879
20
9.87850795318687
30
0
41
1
10
82.8155328576948
20
9.95279958526044
30
0
41
1
10
83.0029584579213
20
9.97701043607458
30
0
41
1
10
83.3777209750175
20
10.0243263671428
30
0
41
1
10
83.5650498670565
20
10.0474388299507
30
0
41
1
10
83.9396824393077
20
10.0924891662881
30
0
41
1
10
84.1270003120143
20
10.1144135718627
30
0
41
1
10
84.5016996410591
20
10.1570130060269
30
0
41
1
10
84.689071546425
20
10.1776973675403
30
0
41
1
10
85.2512304841181
20
10.2379369466298
30
0
41
1
10
85.6260566419702
20
10.2756831644915
30
0
41
1
10
86.7506149998227
20
10.3817880942664
30
0
41
1
10
87.5004360802345
20
10.4430281326537
30
0
41
1
10
88.4375681261108
20
10.5077665683511
30
0
41
1
10
88.6249873196588
20
10.5201219693656
30
0
41
1
10
88.9998053104339
20
10.5436422416909
30
0
41
1
10
89.1872043339224
20
10.5548059609894
30
0
41
1
10
89.7495435036199
20
10.5864227207108
30
0
41
1
10
90.1246772869754
20
10.6049843942957
30
0
41
1
10
90.5000000000001
20
10.6210789860472
30
0
0
SPLINE
5
CB
100
AcDbEntity
8
1
62
256
6
ByLayer
370
18
48
1
60
0
100
AcDbSpline
70
4
71
3
72
79
73
75
40
0
40
0
40
0
40
0
40
0.0145934269706384
40
0.0145934269706384
40
0.0291868539412767
40
0.0291868539412767
40
0.0583737078825534
40
0.0583737078825534
40
0.116747415765105
40
0.116747415765105
40
0.14593426970638
40
0.14593426970638
40
0.160527696677018
40
0.160527696677018
40
0.175121123647657
40
0.175121123647657
40
0.233494831530207
40
0.233494831530207
40
0.262681685471482
40
0.262681685471482
40
0.277275112442119
40
0.277275112442119
40
0.291868539412756
40
0.291868539412756
40
0.321055393354032
40
0.321055393354032
40
0.350242247295308
40
0.350242247295308
40
0.408615955177859
40
0.408615955177859
40
0.423209382148497
40
0.423209382148497
40
0.437802809119134
40
0.466989663060409
40
0.466989663060409
40
0.496176517001684
40
0.496176517001684
40
0.525363370942959
40
0.525363370942959
40
0.539956797913596
40
0.539956797913596
40
0.554550224884233
40
0.554550224884233
40
0.583737078825507
40
0.583737078825507
40
0.642110786708056
40
0.642110786708056
40
0.67129764064933
40
0.67129764064933
40
0.685891067619967
40
0.685891067619967
40
0.700484494590604
40
0.700484494590604
40
0.758858202473152
40
0.758858202473152
40
0.788045056414425
40
0.788045056414425
40
0.802638483385061
40
0.802638483385061
40
0.817231910355698
40
0.817231910355698
40
0.846418764296969
40
0.846418764296969
40
0.875605618238241
40
0.875605618238241
40
0.933979326120785
40
0.933979326120785
40
0.948572753091421
40
0.948572753091421
40
0.963166180062057
40
0.963166180062057
40
0.992353034003328
40
0.992353034003328
40
1
40
1
40
1
40
1
41
1
10
90.5
20
2.2335610134698
30
0
41
1
10
90.2999231606751
20
2.30292000126073
30
0
41
1
10
90.0998966891298
20
2.37219270736219
30
0
41
1
10
89.6999228620846
20
2.51050347912582
30
0
41
1
10
89.499969091734
20
2.57952356352018
30
0
41
1
10
88.9000591817806
20
2.78577172812217
30
0
41
1
10
88.5000854510296
20
2.92227465107939
30
0
41
1
10
87.3001209206941
20
3.32897980945253
30
0
41
1
10
86.5000753579958
20
3.59635421615417
30
0
41
1
10
85.3001243696193
20
3.99235698372649
30
0
41
1
10
84.9001689737523
20
4.12353574053554
30
0
41
1
10
84.3002657946646
20
4.31902360950357
30
0
41
1
10
84.1002948577066
20
4.38395114610492
30
0
41
1
10
83.7002437268064
20
4.51306966586958
30
0
41
1
10
83.5001556815355
20
4.57728168520654
30
0
41
1
10
82.4997937021081
20
4.89652402481374
30
0
41
1
10
81.6995828659491
20
5.14617773154134
30
0
41
1
10
80.4995739247198
20
5.51258497810147
30
0
41
1
10
80.0996250280191
20
5.63337955059143
30
0
41
1
10
79.4998108056182
20
5.81261203354421
30
0
41
1
10
79.2998925167615
20
5.87203319899334
30
0
41
1
10
78.9000858957656
20
5.99020258902974
30
0
41
1
10
78.7001935592665
20
6.0489408965604
30
0
41
1
10
78.1003908739195
20
6.22374631744296
30
0
41
1
10
77.7003716995617
20
6.3384460859111
30
0
41
1
10
76.9000728637726
20
6.56428945713148
30
0
41
1
10
76.4997359863164
20
6.67544573381525
30
0
41
1
10
75.299109586516
20
7.00348177070234
30
0
41
1
10
74.4990437833675
20
7.21502141630546
30
0
41
1
10
73.4995628351344
20
7.47073433064415
30
0
41
1
10
73.2996912804186
20
7.52142839067159
30
0
41
1
10
72.8998913844501
20
7.62170598494129
30
0
41
1
10
72.3001102251432
20
7.77046611264129
30
0
41
1
10
71.7001115833343
20
7.91433681424519
30
0
41
1
10
70.8999524944389
20
8.10190256108163
30
0
41
1
10
70.4997914562619
20
8.19355258639487
30
0
41
1
10
69.6993413358401
20
8.37264696523377
30
0
41
1
10
69.2990682319616
20
8.46009020614642
30
0
41
1
10
68.6989962712551
20
8.5880467795877
30
0
41
1
10
68.4990122444794
20
8.63016817410028
30
0
41
1
10
68.0991235001067
20
8.71334237563582
30
0
41
1
10
67.8992170620852
20
8.75439149577539
30
0
41
1
10
67.2994549596474
20
8.87566946451699
30
0
41
1
10
66.8995486396591
20
8.95402091816686
30
0
41
1
10
65.6996949947013
20
9.18173797454583
30
0
41
1
10
64.8996039038428
20
9.32377007153229
30
0
41
1
10
63.699396851427
20
9.52244241770831
30
0
41
1
10
63.2993197140017
20
9.58627070579098
30
0
41
1
10
62.6992087111021
20
9.6784024962607
30
0
41
1
10
62.4991986714422
20
9.70850513236823
30
0
41
1
10
62.0992007925929
20
9.7673626038906
30
0
41
1
10
61.8991969316958
20
9.7961137063636
30
0
41
1
10
60.8991618228545
20
9.93651192361548
30
0
41
1
10
60.0990906796123
20
10.038119866253
30
0
41
1
10
58.8991086873904
20
10.1747823288826
30
0
41
1
10
58.4991373909042
20
10.217708659319
30
0
41
1
10
57.8992446999809
20
10.2781563319341
30
0
41
1
10
57.699290790628
20
10.2976479266874
30
0
41
1
10
57.2994068115601
20
10.3353106750048
30
0
41
1
10
57.0994779974336
20
10.3534818682871
30
0
41
1
10
56.4995839264054
20
10.4059050256102
30
0
41
1
10
56.0994250919571
20
10.4380505357554
30
0
41
1
10
55.2990204853588
20
10.4967766438304
30
0
41
1
10
54.8988586563687
20
10.5233525309072
30
0
41
1
10
53.6985372469646
20
10.5947814442606
30
0
41
1
10
52.898545234054
20
10.6313595834032
30
0
41
1
10
51.8990215073544
20
10.6631946123977
30
0
41
1
10
51.6991426974475
20
10.6688652831012
30
0
41
1
10
51.299342344667
20
10.6787900171806
30
0
41
1
10
51.0994108516242
20
10.6830429510666
30
0
41
1
10
50.4995155144513
20
10.6936835080448
30
0
41
1
10
50.0994578016624
20
10.6979555151792
30
0
41
1
10
49.5944457866093
20
10.6998083349112
30
0
41
1
10
49.4895896023074
20
10.7000004456817
30
0
41
1
10
49.3847268816693
20
10.7000000412094
30
0
0
SPLINE
5
CC
100
AcDbEntity
8
1
62
256
6
ByLayer
370
18
48
1
60
0
100
AcDbSpline
70
4
71
3
72
10
73
6
40
0
40
0
40
0
40
0
40
0.817369044608451
40
0.817369044608451
40
1
40
1
40
1
40
1
41
1
10
90.5
20
-10.930053490234
30
0
41
1
10
91.4176316424036
20
-10.9672616453831
30
0
41
1
10
92.3347772355514
20
-10.9892816712967
30
0
41
1
10
93.4557760925283
20
-10.997788719919
30
0
41
1
10
93.6604608514828
20
-10.9985871998849
30
0
41
1
10
93.8650966046379
20
-10.9986263798408
30
0
0
SPLINE
5
CD
100
AcDbEntity
8
1
62
256
6
ByLayer
370
18
48
1
60
0
100
AcDbSpline
70
4
71
3
72
137
73
133
40
0
40
0
40
0
40
0
40
0.0312499999999978
40
0.0312499999999978
40
0.0624999999999957
40
0.0624999999999957
40
0.0703124999999951
40
0.0703124999999951
40
0.0781249999999946
40
0.0781249999999946
40
0.093749999999993
40
0.093749999999993
40
0.109374999999991
40
0.109374999999991
40
0.12499999999999
40
0.140624999999988
40
0.140624999999988
40
0.148437499999988
40
0.148437499999988
40
0.156249999999987
40
0.156249999999987
40
0.171874999999986
40
0.171874999999986
40
0.187499999999985
40
0.187499999999985
40
0.203124999999984
40
0.203124999999984
40
0.218749999999983
40
0.218749999999983
40
0.234374999999982
40
0.234374999999982
40
0.249999999999981
40
0.249999999999981
40
0.281249999999978
40
0.281249999999978
40
0.296874999999977
40
0.296874999999977
40
0.304687499999976
40
0.304687499999976
40
0.312499999999976
40
0.312499999999976
40
0.343749999999975
40
0.343749999999975
40
0.359374999999975
40
0.359374999999975
40
0.374999999999974
40
0.374999999999974
40
0.382812499999974
40
0.382812499999974
40
0.390624999999974
40
0.390624999999974
40
0.406249999999974
40
0.406249999999974
40
0.437499999999973
40
0.437499999999973
40
0.445312499999973
40
0.445312499999973
40
0.453124999999973
40
0.453124999999973
40
0.460937499999973
40
0.460937499999973
40
0.468749999999973
40
0.468749999999973
40
0.484374999999972
40
0.484374999999972
40
0.499999999999972
40
0.499999999999972
40
0.515624999999972
40
0.515624999999972
40
0.523437499999972
40
0.523437499999972
40
0.531249999999972
40
0.531249999999972
40
0.562499999999974
40
0.562499999999974
40
0.578124999999974
40
0.578124999999974
40
0.593749999999975
40
0.593749999999975
40
0.601562499999975
40
0.601562499999975
40
0.609374999999975
40
0.609374999999975
40
0.624999999999976
40
0.624999999999976
40
0.656249999999978
40
0.656249999999978
40
0.671874999999979
40
0.671874999999979
40
0.687499999999981
40
0.687499999999981
40
0.718749999999984
40
0.718749999999984
40
0.749999999999987
40
0.749999999999987
40
0.757812499999988
40
0.757812499999988
40
0.76562499999999
40
0.76562499999999
40
0.781249999999992
40
0.781249999999992
40
0.812499999999995
40
0.812499999999995
40
0.828124999999996
40
0.828124999999996
40
0.835937499999997
40
0.835937499999997
40
0.843749999999997
40
0.843749999999997
40
0.859374999999998
40
0.859374999999998
40
0.874999999999999
40
0.874999999999999
40
0.890625
40
0.890625
40
0.8984375
40
0.8984375
40
0.90625
40
0.90625
40
0.9140625
40
0.9140625
40
0.921875
40
0.921875
40
0.9375
40
0.9375
40
0.968749999999999
40
0.968749999999999
40
0.976562499999999
40
0.976562499999999
40
0.984375
40
0.984375
40
1
40
1
40
1
40
1
41
1
10
18.4852995561674
20
8.60069538545164
30
0
41
1
10
19.2354174305755
20
8.44184848338546
30
0
41
1
10
19.9857480484293
20
8.27603564930351
30
0
41
1
10
21.4863313088112
20
7.92991809887019
30
0
41
1
10
22.2365874934352
20
7.74961824955051
30
0
41
1
10
23.1740773980245
20
7.51456042504628
30
0
41
1
10
23.3615588842339
20
7.46706347811562
30
0
41
1
10
23.736482100407
20
7.37107870128696
30
0
41
1
10
23.9239199379761
20
7.32258217176636
30
0
41
1
10
24.4863264744043
20
7.17591537086452
30
0
41
1
10
24.8614587752543
20
7.07671895099082
30
0
41
1
10
25.6120410100168
20
6.87538282384622
30
0
41
1
10
25.9873975393501
20
6.77324304344649
30
0
41
1
10
26.7379230538066
20
6.5660040615164
30
0
41
1
10
27.4883463110555
20
6.35579070669007
30
0
41
1
10
28.2384443495932
20
6.13934935812253
30
0
41
1
10
28.8008527777939
20
5.97456411099841
30
0
41
1
10
28.9882915431956
20
5.91921888006363
30
0
41
1
10
29.3631228018436
20
5.80772566789358
30
0
41
1
10
29.5505210624754
20
5.75159080812475
30
0
41
1
10
30.1128518941277
20
5.58247256701486
30
0
41
1
10
30.487903606963
20
5.46873899632322
30
0
41
1
10
31.2382128455748
20
5.23902919132698
30
0
41
1
10
31.6134741043388
20
5.12306139083665
30
0
41
1
10
32.3641620479413
20
4.88878843345623
30
0
41
1
10
32.7395764656847
20
4.7704883549801
30
0
41
1
10
33.4900408519551
20
4.53154002320849
30
0
41
1
10
33.8651492366278
20
4.41087400998882
30
0
41
1
10
34.6150609715631
20
4.16699285572071
30
0
41
1
10
34.9898150036184
20
4.04364465888486
30
0
41
1
10
35.7396568443779
20
3.79606480082666
30
0
41
1
10
36.1146908962496
20
3.67169676565936
30
0
41
1
10
37.239969674678
20
3.29645384821742
30
0
41
1
10
37.9904195669749
20
3.04352277902524
30
0
41
1
10
39.1161623991637
20
2.65906472596575
30
0
41
1
10
39.4914542174184
20
2.53005128001573
30
0
41
1
10
40.0540200210251
20
2.33525010652457
30
0
41
1
10
40.2414901632679
20
2.2700903877726
30
0
41
1
10
40.6164386771742
20
2.13962872868515
30
0
41
1
10
40.8039301680328
20
2.07436333044049
30
0
41
1
10
41.7414871771766
20
1.74790416470054
30
0
41
1
10
42.4917564824129
20
1.48605392332246
30
0
41
1
10
43.617126828712
20
1.09124278856396
30
0
41
1
10
43.9922468953093
20
0.959305249912092
30
0
41
1
10
44.7424215589858
20
0.694592968912076
30
0
41
1
10
45.1174671574229
20
0.561792670604234
30
0
41
1
10
45.6799756256068
20
0.361926914443501
30
0
41
1
10
45.8674787765202
20
0.295223227719362
30
0
41
1
10
46.2426097180143
20
0.162005062406934
30
0
41
1
10
46.4302169695491
20
0.095480587294503
30
0
41
1
10
46.9930147781494
20
-0.10386275257224
30
0
41
1
10
47.3682251546044
20
-0.236484532921764
30
0
41
1
10
48.4937871759223
20
-0.633831605497534
30
0
41
1
10
49.2440893960721
20
-0.8979848932089
30
0
41
1
10
50.1815889886475
20
-1.22805024982588
30
0
41
1
10
50.369069928593
20
-1.29405703532325
30
0
41
1
10
50.7439869630503
20
-1.42607662650309
30
0
41
1
10
50.9314150412399
20
-1.49211188452986
30
0
41
1
10
51.306282458926
20
-1.62403020355555
30
0
41
1
10
51.4937352654325
20
-1.68987550159335
30
0
41
1
10
51.8687509670695
20
-1.82113770563691
30
0
41
1
10
52.0563034113207
20
-1.88658393842798
30
0
41
1
10
52.6190705675183
20
-2.0824361151754
30
0
41
1
10
52.9944461979671
20
-2.21238733142266
30
0
41
1
10
53.7451344660967
20
-2.47107645796586
30
0
41
1
10
54.1204181156789
20
-2.59979729291248
30
0
41
1
10
54.8708078554878
20
-2.85614788426909
30
0
41
1
10
55.245913089447
20
-2.98377999609812
30
0
41
1
10
55.80839305713
20
-3.17452255456561
30
0
41
1
10
55.9958567334968
20
-3.2379856901893
30
0
41
1
10
56.3707179563275
20
-3.36469229913072
30
0
41
1
10
56.5581137846564
20
-3.42794006273186
30
0
41
1
10
57.495202102868
20
-3.74288936575425
30
0
41
1
10
58.2454521749447
20
-3.99012276205423
30
0
41
1
10
59.3712235213107
20
-4.35521555228712
30
0
41
1
10
59.7465858918947
20
-4.47594043064402
30
0
41
1
10
60.4972629794878
20
-4.71552933623423
30
0
41
1
10
60.8724687270693
20
-4.83435938944132
30
0
41
1
10
61.4350347212641
20
-5.01125147474951
30
0
41
1
10
61.6225121524935
20
-5.0700000707634
30
0
41
1
10
61.9974001602497
20
-5.18700647420692
30
0
41
1
10
62.184817374209
20
-5.24524729921922
30
0
41
1
10
62.7471733731478
20
-5.41872913034254
30
0
41
1
10
63.1221885825785
20
-5.53280196318687
30
0
41
1
10
64.2473870137314
20
-5.87076324357602
30
0
41
1
10
64.9977458150873
20
-6.0903485015678
30
0
41
1
10
66.1233021629795
20
-6.41189137849523
30
0
41
1
10
66.4984890742343
20
-6.51776728724224
30
0
41
1
10
67.2488110396685
20
-6.72700134159535
30
0
41
1
10
67.6237573068842
20
-6.8304003458536
30
0
41
1
10
68.748914894466
20
-7.13450116042873
30
0
41
1
10
69.4992241383289
20
-7.32978729166231
30
0
41
1
10
70.999707633801
20
-7.70678895186424
30
0
41
1
10
71.7498984092304
20
-7.88846913889884
30
0
41
1
10
72.6872872861381
20
-8.10744159974712
30
0
41
1
10
72.8747472908595
20
-8.15082823647177
30
0
41
1
10
73.2497464357099
20
-8.23657271922374
30
0
41
1
10
73.4372973753972
20
-8.27890974766632
30
0
41
1
10
74.0001002364751
20
-8.40433242246985
30
0
41
1
10
74.3754288674236
20
-8.48584092271591
30
0
41
1
10
75.5011659675893
20
-8.72422045514003
30
0
41
1
10
76.2515479935577
20
-8.87496140735001
30
0
41
1
10
77.3766179654738
20
-9.08930516883132
30
0
41
1
10
77.7515447597202
20
-9.1588053174988
30
0
41
1
10
78.3138061781415
20
-9.26007040940081
30
0
41
1
10
78.5012175761944
20
-9.29330917996478
30
0
41
1
10
78.8761432229742
20
-9.35858687697905
30
0
41
1
10
79.0636496867625
20
-9.39063764829885
30
0
41
1
10
79.6262758247974
20
-9.48506991553734
30
0
41
1
10
80.0014967613358
20
-9.54573982288716
30
0
41
1
10
80.7521435838453
20
-9.66262465876969
30
0
41
1
10
81.1275772638105
20
-9.71883427815999
30
0
41
1
10
81.8780375186782
20
-9.82676945240868
30
0
41
1
10
82.2531336100902
20
-9.87850795318715
30
0
41
1
10
82.8155328576971
20
-9.95279958526075
30
0
41
1
10
83.0029584579237
20
-9.97701043607489
30
0
41
1
10
83.3777209750199
20
-10.024326367143
30
0
41
1
10
83.5650498670588
20
-10.047438829951
30
0
41
1
10
83.9396824393101
20
-10.0924891662884
30
0
41
1
10
84.1270003120165
20
-10.114413571863
30
0
41
1
10
84.5016996410615
20
-10.1570130060272
30
0
41
1
10
84.6890715464273
20
-10.1776973675406
30
0
41
1
10
85.2512304841205
20
-10.23793694663
30
0
41
1
10
85.6260566419726
20
-10.2756831644918
30
0
41
1
10
86.7506149998251
20
-10.3817880942665
30
0
41
1
10
87.500436080237
20
-10.4430281326539
30
0
41
1
10
88.4375681261133
20
-10.5077665683512
30
0
41
1
10
88.6249873196614
20
-10.5201219693658
30
0
41
1
10
88.9998053104365
20
-10.543642241691
30
0
41
1
10
89.1872043339249
20
-10.5548059609895
30
0
41
1
10
89.7495435036224
20
-10.5864227207109
30
0
41
1
10
90.1246772869755
20
-10.6049843942957
30
0
41
1
10
90.5
20
-10.6210789860472
30
0
0
SPLINE
5
CE
100
AcDbEntity
8
1
62
256
6
ByLayer
370
18
48
1
60
0
100
AcDbSpline
70
4
71
3
72
100
73
96
40
0
40
0
40
0
40
0
40
0.0082439774887311
40
0.0082439774887311
40
0.0289055612910476
40
0.0289055612910476
40
0.049567145093364
40
0.049567145093364
40
0.0598979369945222
40
0.0598979369945222
40
0.0702287288956804
40
0.0702287288956804
40
0.0908903126979962
40
0.0908903126979962
40
0.132213480302628
40
0.132213480302628
40
0.152875064104945
40
0.152875064104945
40
0.163205856006103
40
0.163205856006103
40
0.173536647907261
40
0.173536647907261
40
0.214859815511894
40
0.214859815511894
40
0.235521399314211
40
0.235521399314211
40
0.245852191215369
40
0.245852191215369
40
0.256182983116528
40
0.256182983116528
40
0.276844566918845
40
0.276844566918845
40
0.297506150721162
40
0.297506150721162
40
0.338829318325796
40
0.338829318325796
40
0.349160110226955
40
0.349160110226955
40
0.359490902128114
40
0.359490902128114
40
0.380152485930433
40
0.380152485930433
40
0.400814069732751
40
0.400814069732751
40
0.42147565353507
40
0.42147565353507
40
0.431806445436229
40
0.431806445436229
40
0.442137237337388
40
0.442137237337388
40
0.462798821139706
40
0.462798821139706
40
0.504121988744343
40
0.504121988744343
40
0.524783572546661
40
0.524783572546661
40
0.53511436444782
40
0.53511436444782
40
0.54544515634898
40
0.54544515634898
40
0.586768323953616
40
0.586768323953616
40
0.607429907755934
40
0.607429907755934
40
0.617760699657093
40
0.617760699657093
40
0.628091491558252
40
0.628091491558252
40
0.648753075360572
40
0.648753075360572
40
0.669414659162891
40
0.669414659162891
40
0.710737826767529
40
0.710737826767529
40
0.731399410569848
40
0.731399410569848
40
0.752060994372167
40
0.752060994372167
40
0.793384161976805
40
0.793384161976805
40
0.814045745779125
40
0.814045745779125
40
0.834707329581444
40
0.834707329581444
40
0.855368913383764
40
0.855368913383764
40
0.876030497186083
40
0.876030497186083
40
0.896692080988403
40
0.896692080988403
40
0.917353664790722
40
0.917353664790722
40
0.958676832395361
40
0.958676832395361
40
1
40
1
40
1
40
1
41
1
10
71.7788881232999
20
-7.89484109631306
30
0
41
1
10
71.6192829226292
20
-7.93294165800836
30
0
41
1
10
71.4596638846195
20
-7.97070029597083
30
0
41
1
10
70.8999524944389
20
-8.10190256108163
30
0
41
1
10
70.4997914562618
20
-8.19355258639487
30
0
41
1
10
69.6993413358402
20
-8.37264696523377
30
0
41
1
10
69.2990682319616
20
-8.46009020614642
30
0
41
1
10
68.698996271255
20
-8.5880467795877
30
0
41
1
10
68.4990122444794
20
-8.63016817410028
30
0
41
1
10
68.0991235001067
20
-8.71334237563579
30
0
41
1
10
67.8992170620851
20
-8.75439149577539
30
0
41
1
10
67.2994549596474
20
-8.87566946451699
30
0
41
1
10
66.8995486396592
20
-8.95402091816686
30
0
41
1
10
65.6996949947013
20
-9.1817379745458
30
0
41
1
10
64.8996039038427
20
-9.32377007153229
30
0
41
1
10
63.699396851427
20
-9.52244241770831
30
0
41
1
10
63.2993197140017
20
-9.58627070579098
30
0
41
1
10
62.6992087111021
20
-9.6784024962607
30
0
41
1
10
62.4991986714422
20
-9.70850513236823
30
0
41
1
10
62.0992007925928
20
-9.7673626038906
30
0
41
1
10
61.8991969316957
20
-9.7961137063636
30
0
41
1
10
60.8991618228545
20
-9.93651192361548
30
0
41
1
10
60.0990906796123
20
-10.038119866253
30
0
41
1
10
58.8991086873903
20
-10.1747823288825
30
0
41
1
10
58.4991373909041
20
-10.217708659319
30
0
41
1
10
57.8992446999809
20
-10.2781563319341
30
0
41
1
10
57.699290790628
20
-10.2976479266874
30
0
41
1
10
57.2994068115601
20
-10.3353106750048
30
0
41
1
10
57.0994779974336
20
-10.3534818682871
30
0
41
1
10
56.4995839264055
20
-10.4059050256102
30
0
41
1
10
56.0994250919571
20
-10.4380505357554
30
0
41
1
10
55.2990204853589
20
-10.4967766438304
30
0
41
1
10
54.8988586563687
20
-10.5233525309072
30
0
41
1
10
53.6985372469645
20
-10.5947814442606
30
0
41
1
10
52.898545234054
20
-10.6313595834032
30
0
41
1
10
51.8990215073544
20
-10.6631946123977
30
0
41
1
10
51.6991426974475
20
-10.6688652831012
30
0
41
1
10
51.299342344667
20
-10.6787900171806
30
0
41
1
10
51.0994108516242
20
-10.6830429510666
30
0
41
1
10
50.4995155144513
20
-10.6936835080448
30
0
41
1
10
50.0994578016624
20
-10.6979555151792
30
0
41
1
10
49.2991220261834
20
-10.7008918372325
30
0
41
1
10
48.8987784937275
20
-10.6995549837231
30
0
41
1
10
48.0983540635816
20
-10.6912748831188
30
0
41
1
10
47.6982493932247
20
-10.6843327989895
30
0
41
1
10
47.0982854557878
20
-10.6696919117419
30
0
41
1
10
46.8983292685405
20
-10.6641066957882
30
0
41
1
10
46.4984839467638
20
-10.6515187661749
30
0
41
1
10
46.2985995187707
20
-10.6445139973988
30
0
41
1
10
45.6989257683692
20
-10.6214007736306
30
0
41
1
10
45.299059373797
20
-10.603215095965
30
0
41
1
10
44.0992166152205
20
-10.5404066372902
30
0
41
1
10
43.2990137002764
20
-10.4875481183042
30
0
41
1
10
42.0984522306364
20
-10.3916731305823
30
0
41
1
10
41.6982136412274
20
-10.3569403829776
30
0
41
1
10
41.0982216485448
20
-10.3006664041564
30
0
41
1
10
40.8982742761031
20
-10.2812060565339
30
0
41
1
10
40.4983953502576
20
-10.2409431208463
30
0
41
1
10
40.2984513242818
20
-10.2201511367692
30
0
41
1
10
39.2986599395119
20
-10.1129480871841
30
0
41
1
10
38.4986612591901
20
-10.0167813883485
30
0
41
1
10
37.2986060517605
20
-9.85687422536046
30
0
41
1
10
36.8985789946678
20
-9.8009568032482
30
0
41
1
10
36.2985573139482
20
-9.71309808546474
30
0
41
1
10
36.0985528684446
20
-9.68314816083583
30
0
41
1
10
35.6985527036665
20
-9.62190972075305
30
0
41
1
10
35.4985632955054
20
-9.59061275100876
30
0
41
1
10
34.8985105744761
20
-9.4948268370531
30
0
41
1
10
34.49839663114
20
-9.42855671184051
30
0
41
1
10
33.6982504670581
20
-9.2913367346361
30
0
41
1
10
33.2981877992012
20
-9.2203642801864
30
0
41
1
10
32.0980734092652
20
-9.0003347628778
30
0
41
1
10
31.2980959790358
20
-8.84418336149685
30
0
41
1
10
30.0985083145209
20
-8.59525281102444
30
0
41
1
10
29.6987298077812
20
-8.50977617994363
30
0
41
1
10
28.8987483951646
20
-8.334835970829
30
0
41
1
10
28.4985631639741
20
-8.24528012706162
30
0
41
1
10
27.2978228944983
20
-7.97037751144737
30
0
41
1
10
26.497581430664
20
-7.77895156359583
30
0
41
1
10
25.2978291565061
20
-7.47911042857237
30
0
41
1
10
24.898040205377
20
-7.37698641459048
30
0
41
1
10
24.098559803069
20
-7.16867626485745
30
0
41
1
10
23.6987427662803
20
-7.06275194109224
30
0
41
1
10
22.8988654022672
20
-6.84758950189331
30
0
41
1
10
22.4988255822286
20
-6.73830871704251
30
0
41
1
10
21.6985727856712
20
-6.51629868947225
30
0
41
1
10
21.2983324132693
20
-6.40356334530182
30
0
41
1
10
20.4978293033906
20
-6.17458085517416
30
0
41
1
10
20.0977234285453
20
-6.05837299272596
30
0
41
1
10
19.2978356782318
20
-5.82242897233607
30
0
41
1
10
18.8980925183824
20
-5.70259554838813
30
0
41
1
10
17.6985626075395
20
-5.33967135003468
30
0
41
1
10
16.8986487590611
20
-5.0927710322913
30
0
41
1
10
15.2986226563374
20
-4.58853948026749
30
0
41
1
10
14.4985038135949
20
-4.33122665681469
30
0
41
1
10
13.6984473050945
20
-4.06818332055261
30
0
0
SPLINE
5
CF
100
AcDbEntity
8
1
62
256
6
ByLayer
370
18
48
1
60
0
100
AcDbSpline
70
4
71
3
72
100
73
96
40
0
40
0
40
0
40
0
40
0.0625000000000048
40
0.0625000000000048
40
0.093750000000008
40
0.093750000000008
40
0.125000000000011
40
0.125000000000011
40
0.156250000000015
40
0.156250000000015
40
0.171875000000015
40
0.171875000000015
40
0.179687500000016
40
0.179687500000016
40
0.187500000000016
40
0.187500000000016
40
0.218750000000015
40
0.218750000000015
40
0.250000000000015
40
0.250000000000015
40
0.281250000000014
40
0.281250000000014
40
0.289062500000014
40
0.289062500000014
40
0.296875000000014
40
0.312500000000014
40
0.312500000000014
40
0.343750000000015
40
0.343750000000015
40
0.375000000000015
40
0.375000000000015
40
0.382812500000015
40
0.382812500000015
40
0.390625000000015
40
0.406250000000015
40
0.406250000000015
40
0.437500000000016
40
0.437500000000016
40
0.445312500000016
40
0.445312500000016
40
0.449218750000016
40
0.449218750000016
40
0.453125000000016
40
0.468750000000016
40
0.468750000000016
40
0.500000000000017
40
0.500000000000017
40
0.515625000000017
40
0.515625000000017
40
0.523437500000017
40
0.523437500000017
40
0.531250000000017
40
0.531250000000017
40
0.562500000000016
40
0.562500000000016
40
0.578125000000016
40
0.578125000000016
40
0.582031250000015
40
0.582031250000015
40
0.585937500000015
40
0.585937500000015
40
0.593750000000015
40
0.593750000000015
40
0.625000000000013
40
0.625000000000013
40
0.656250000000012
40
0.656250000000012
40
0.671875000000011
40
0.671875000000011
40
0.679687500000011
40
0.679687500000011
40
0.68750000000001
40
0.68750000000001
40
0.71875000000001
40
0.71875000000001
40
0.750000000000009
40
0.750000000000009
40
0.781250000000009
40
0.781250000000009
40
0.796875000000009
40
0.804687500000009
40
0.804687500000009
40
0.812500000000009
40
0.812500000000009
40
0.843750000000008
40
0.843750000000008
40
0.875000000000006
40
0.875000000000006
40
0.906250000000005
40
0.906250000000005
40
0.937500000000003
40
0.937500000000003
40
0.968750000000002
40
0.968750000000002
40
1
40
1
40
1
40
1
41
1
10
10
20
9.09699337012952
30
0
41
1
10
9.56739369441158
20
9.10752423703724
30
0
41
1
10
9.14346855293144
20
9.10388561750923
30
0
41
1
10
8.52070856542832
20
9.07348715876003
30
0
41
1
10
8.31531331958888
20
9.05917969561483
30
0
41
1
10
7.90897897255502
20
9.02133266147138
30
0
41
1
10
7.70803932029281
20
8.99779546120521
30
0
41
1
10
7.31074230775712
20
8.9403630449192
30
0
41
1
10
7.1143840950985
20
8.90647163881562
30
0
41
1
10
6.82343364144944
20
8.84676947759095
30
0
41
1
10
6.72704862313529
20
8.82538827845499
30
0
41
1
10
6.58339483637116
20
8.7909257424966
30
0
41
1
10
6.53572096296108
20
8.77905239789456
30
0
41
1
10
6.44102031709846
20
8.75457007881789
30
0
41
1
10
6.3939600822352
20
8.74195314704588
30
0
41
1
10
6.16011811467956
20
8.67694413797187
30
0
41
1
10
5.9777058815543
20
8.61879378160202
30
0
41
1
10
5.62255117777372
20
8.48882162551999
30
0
41
1
10
5.44980585318001
20
8.41700584778997
30
0
41
1
10
5.1145778659787
20
8.25785904574153
30
0
41
1
10
4.95209003525497
20
8.17053869978639
30
0
41
1
10
4.75599260075501
20
8.05009772576659
30
0
41
1
10
4.71708553882812
20
8.02541676160442
30
0
41
1
10
4.64018180897432
20
7.97499436602138
30
0
41
1
10
4.5263584807945
20
7.89788373491064
30
0
41
1
10
4.41717215965835
20
7.81624294186875
30
0
41
1
10
4.20513784477285
20
7.64660735689574
30
0
41
1
10
4.07220831542546
20
7.52507152854022
30
0
41
1
10
3.82453531082473
20
7.26290115674252
30
0
41
1
10
3.70977675199697
20
7.1222845710258
30
0
41
1
10
3.57911242188169
20
6.93255165606365
30
0
41
1
10
3.55369806231241
20
6.8940096534144
30
0
41
1
10
3.50451577993579
20
6.81600993450871
30
0
41
1
10
3.43312042950802
20
6.69750251747678
30
0
41
1
10
3.36890783455874
20
6.57440065771956
30
0
41
1
10
3.25028752173958
20
6.32182756189837
30
0
41
1
10
3.18423286855909
20
6.14498106637242
30
0
41
1
10
3.11932793547251
20
5.91217351472127
30
0
41
1
10
3.10723384667196
20
5.86502233765336
30
0
41
1
10
3.090461207685
20
5.79338187293936
30
0
41
1
10
3.08509396349493
20
5.76932613432749
30
0
41
1
10
3.07486595906835
20
5.72111600477453
30
0
41
1
10
3.05053814584537
20
5.60024843093981
30
0
41
1
10
3.03238048784101
20
5.4776752104587
30
0
41
1
10
3.00049435988902
20
5.18024051062537
30
0
41
1
10
2.99478450109422
20
4.9776129354405
30
0
41
1
10
3.00970385341708
20
4.66709193478596
30
0
41
1
10
3.01860153317796
20
4.56248646239862
30
0
41
1
10
3.03795234357477
20
4.40390396911002
30
0
41
1
10
3.04541914974578
20
4.35069464964266
30
0
41
1
10
3.06221419176532
20
4.24467649787672
30
0
41
1
10
3.0715531670788
20
4.1917577185009
30
0
41
1
10
3.12283932585569
20
3.92760766563552
30
0
41
1
10
3.17850851966722
20
3.71770112533466
30
0
41
1
10
3.28243091194261
20
3.40490424499967
30
0
41
1
10
3.32048518051255
20
3.30098379953932
30
0
41
1
10
3.37222514448996
20
3.17151751117208
30
0
41
1
10
3.3827818879941
20
3.1456459864583
30
0
41
1
10
3.40431106486037
20
3.09394654838243
30
0
41
1
10
3.41529400270292
20
3.06809476020663
30
0
41
1
10
3.44876338176783
20
2.99083496449489
30
0
41
1
10
3.47177587564795
20
2.93970402808625
30
0
41
1
10
3.59020261892857
20
2.68585782878685
30
0
41
1
10
3.69566621935914
20
2.48854493355347
30
0
41
1
10
3.92541014002495
20
2.10408962385876
30
0
41
1
10
4.04970582072161
20
1.91695546091628
30
0
41
1
10
4.24892920184257
20
1.64320149096736
30
0
41
1
10
4.31747191856039
20
1.55311065072968
30
0
41
1
10
4.42335436559654
20
1.41964703497229
30
0
41
1
10
4.45906228982676
20
1.37556219176591
30
0
41
1
10
4.5311558343148
20
1.28831051860271
30
0
41
1
10
4.56756051088138
20
1.24511965499198
30
0
41
1
10
4.75130317626113
20
1.03125133521351
30
0
41
1
10
4.90378239019066
20
0.866810459226286
30
0
41
1
10
5.21821399142618
20
0.54934783497302
30
0
41
1
10
5.3801720989054
20
0.396333223410721
30
0
41
1
10
5.71239278951583
20
0.100261563701167
30
0
41
1
10
5.88265854937777
20
-0.0427915127401377
30
0
41
1
10
6.14354496653277
20
-0.250816604115045
30
0
41
1
10
6.27536184289397
20
-0.353188167468005
30
0
41
1
10
6.409112361674
20
-0.453252828733099
30
0
41
1
10
6.49869568269881
20
-0.519466135279316
30
0
41
1
10
6.54368804344619
20
-0.552318609886356
30
0
41
1
10
6.76917257650274
20
-0.715036332778396
30
0
41
1
10
6.95161534639175
20
-0.840565996599906
30
0
41
1
10
7.31998008517687
20
-1.08376271601455
30
0
41
1
10
7.50590245594998
20
-1.20142813427222
30
0
41
1
10
7.88068786416747
20
-1.43006925216079
30
0
41
1
10
8.06955074294208
20
-1.54104451286199
30
0
41
1
10
8.44976604798299
20
-1.75726038946681
30
0
41
1
10
8.64111796023343
20
-1.86250127022598
30
0
41
1
10
9.0259585050207
20
-2.06798641932844
30
0
41
1
10
9.21944647022207
20
-2.16823123636635
30
0
41
1
10
9.6083231143152
20
-2.36423142439517
30
0
41
1
10
9.80371118584696
20
-2.45998724028092
30
0
41
1
10
9.99999999999997
20
-2.55362829250842
30
0
0
SPLINE
5
D0
100
AcDbEntity
8
1
62
256
6
ByLayer
370
18
48
1
60
0
100
AcDbSpline
70
4
71
3
72
14
73
10
40
0
40
0
40
0
40
0
40
0.25
40
0.25
40
0.5
40
0.5
40
0.75
40
0.75
40
1
40
1
40
1
40
1
41
1
10
13.6984473050943
20
-4.06818332055258
30
0
41
1
10
13.3827250735975
20
-3.96123317073889
30
0
41
1
10
13.0693030036559
20
-3.84874490058877
30
0
41
1
10
12.4461703427713
20
-3.61431961355558
30
0
41
1
10
12.1364555289205
20
-3.49239339009185
30
0
41
1
10
11.5202849710329
20
-3.23981735344947
30
0
41
1
10
11.2138280353783
20
-3.1091725616277
30
0
41
1
10
10.6042552231621
20
-2.8387059234542
30
0
41
1
10
10.3011411463913
20
-2.69888288748231
30
0
41
1
10
10
20
-2.55362829250845
30
0
0
SPLINE
5
D1
100
AcDbEntity
8
1
62
256
6
ByLayer
370
18
48
1
60
0
100
AcDbSpline
70
4
71
4
72
16
73
11
40
0
40
0
40
0
40
0
40
0
40
0.302187672396916
40
0.302187672396916
40
0.302187672396916
40
0.73017030272008
40
0.73017030272008
40
0.73017030272008
40
1
40
1
40
1
40
1
40
1
41
0.996907709499566
10
18.4852995561675
20
8.60069538545162
30
0
41
0.994739667456008
10
18.3448325411231
20
7.87698974804576
30
0
41
0.99403439004852
10
18.0893004680739
20
6.86810282797757
30
0
41
1
10
17.7293669259854
20
5.65735370814011
30
0
41
1
10
16.802917379494
20
2.78552577743562
30
0
41
0.988033871712585
10
16.0918734306309
20
0.773169219958486
30
0
41
1
10
15.3808294817679
20
-0.978170727199654
30
0
41
1
10
14.4954361536147
20
-2.92017204594251
30
0
41
0.995243572736839
10
14.1721680588429
20
-3.55355309132402
30
0
41
0.994727055241183
10
13.9245536987611
20
-3.92602716992268
30
0
41
0.996102964838773
10
13.766375800146
20
-4.03734399786753
30
0
0
SPLINE
5
D2
100
AcDbEntity
8
1
62
256
6
ByLayer
370
18
48
1
60
0
100
AcDbSpline
70
4
71
4
72
10
73
5
40
0
40
0
40
0
40
0
40
0
40
1
40
1
40
1
40
1
40
1
41
0.996591054727426
10
13.7208188642704
20
-4.06234615497875
30
0
41
0.99666648284581
10
13.7149758624493
20
-4.06451282995034
30
0
41
0.996744574740571
10
13.7092992974726
20
-4.06620688327519
30
0
41
0.996825079734675
10
13.7037896712615
20
-4.06742973293665
30
0
41
0.996907709499566
10
13.6984473050944
20
-4.06818332055261
30
0
0
SPLINE
5
D3
100
AcDbEntity
8
1
62
256
6
ByLayer
370
18
48
1
60
0
100
AcDbSpline
70
4
71
3
72
27
73
23
40
0
40
0
40
0
40
0
40
0.125000000000027
40
0.125000000000027
40
0.250000000000055
40
0.250000000000055
40
0.375000000000082
40
0.375000000000082
40
0.406250000000088
40
0.421875000000088
40
0.421875000000088
40
0.437500000000089
40
0.437500000000089
40
0.500000000000081
40
0.500000000000081
40
0.625000000000061
40
0.625000000000061
40
0.750000000000041
40
0.750000000000041
40
0.87500000000002
40
0.87500000000002
40
1
40
1
40
1
40
1
41
1
10
10
20
9.09699337012952
30
0
41
1
10
10.3548452283293
20
9.13994432203106
30
0
41
1
10
10.7109051120334
20
9.17269031670227
30
0
41
1
10
11.4252768395165
20
9.22072800669577
30
0
41
1
10
11.7835899491642
20
9.23600268367454
30
0
41
1
10
12.5023506334572
20
9.25067908251069
30
0
41
1
10
12.862799231814
20
9.25006900469748
30
0
41
1
10
13.3146350545644
20
9.23980598984664
30
0
41
1
10
13.4502814556739
20
9.23601189642932
30
0
41
1
10
13.5860696460734
20
9.23115000897332
30
0
41
1
10
13.6766264214638
20
9.22767177870949
30
0
41
1
10
13.7219400165001
20
9.22581326029015
30
0
41
1
10
13.9481716695452
20
9.21594774796714
30
0
41
1
10
14.1283095473378
20
9.2062161929704
30
0
41
1
10
14.6663341719839
20
9.17169410411199
30
0
41
1
10
15.0218312204904
20
9.1415820120659
30
0
41
1
10
15.7272605245278
20
9.06790666940032
30
0
41
1
10
16.0771916882444
20
9.02433435406027
30
0
41
1
10
16.7723276393464
20
8.92438072434686
30
0
41
1
10
17.1175337419835
20
8.8679966220983
30
0
41
1
10
17.8040939284661
20
8.74317413391734
30
0
41
1
10
18.1454519729449
20
8.67474193641041
30
0
41
1
10
18.4852995561674
20
8.6006953854517
30
0
0
SPLINE
5
D4
100
AcDbEntity
8
SK1
62
256
6
ByLayer
370
18
48
1
60
0
100
AcDbSpline
70
4
71
3
72
34
73
30
40
0
40
0
40
0
40
0
40
0.125000000000001
40
0.125000000000001
40
0.250000000000002
40
0.250000000000002
40
0.375000000000003
40
0.375000000000003
40
0.437500000000004
40
0.437500000000004
40
0.500000000000005
40
0.500000000000005
40
0.625000000000005
40
0.625000000000005
40
0.656250000000005
40
0.656250000000005
40
0.687500000000005
40
0.687500000000005
40
0.750000000000005
40
0.750000000000005
40
0.812500000000005
40
0.812500000000005
40
0.843750000000004
40
0.843750000000004
40
0.875000000000004
40
0.875000000000004
40
0.937500000000002
40
0.937500000000002
40
1
40
1
40
1
40
1
41
1
10
-52.5003287739481
20
-3.62059097355461
30
0
41
1
10
-52.4791023107682
20
-3.69580949914169
30
0
41
1
10
-52.456173666836
20
-3.7701328086529
30
0
41
1
10
-52.4062202513365
20
-3.91675156331095
30
0
41
1
10
-52.3792000011184
20
-3.98904864238443
30
0
41
1
10
-52.3201140822394
20
-4.13128549106548
30
0
41
1
10
-52.2880578558644
20
-4.20122868864783
30
0
41
1
10
-52.2351342019209
20
-4.30400502578081
30
0
41
1
10
-52.2166821098451
20
-4.33790583931534
30
0
41
1
10
-52.1779019271959
20
-4.40490146665846
30
0
41
1
10
-52.1575385793023
20
-4.43805147836142
30
0
41
1
10
-52.093380094742
20
-4.53574061166557
30
0
41
1
10
-52.0468993353633
20
-4.59806703723407
30
0
41
1
10
-51.9825062567773
20
-4.67139689881651
30
0
41
1
10
-51.9693089720826
20
-4.68583123022111
30
0
41
1
10
-51.9422155209833
20
-4.71419608571787
30
0
41
1
10
-51.9282893124732
20
-4.72815494045494
30
0
41
1
10
-51.8855899983215
20
-4.7689776324583
30
0
41
1
10
-51.8559681934236
20
-4.79473829352929
30
0
41
1
10
-51.7940523105194
20
-4.84293492664423
30
0
41
1
10
-51.7617609635258
20
-4.86537421079322
30
0
41
1
10
-51.710934585781
20
-4.89608972183805
30
0
41
1
10
-51.6935927882519
20
-4.9058359097269
30
0
41
1
10
-51.6580214478988
20
-4.92423937407065
30
0
41
1
10
-51.6397301965266
20
-4.93292309713041
30
0
41
1
10
-51.583780125377
20
-4.9569645106269
30
0
41
1
10
-51.5455987975117
20
-4.97010157811332
30
0
41
1
10
-51.4673083175319
20
-4.99008231274206
30
0
41
1
10
-51.4272005227822
20
-4.99693051090844
30
0
41
1
10
-51.3860020460814
20
-5.00022676868039
30
0
0
SPLINE
5
D5
100
AcDbEntity
8
SK1
62
256
6
ByLayer
370
18
48
1
60
0
100
AcDbSpline
70
4
71
3
72
34
73
30
40
0
40
0
40
0
40
0
40
0.0625000000000001
40
0.0625000000000001
40
0.125
40
0.125
40
0.1875
40
0.1875
40
0.25
40
0.25
40
0.28125
40
0.28125
40
0.312499999999999
40
0.312499999999999
40
0.374999999999998
40
0.374999999999998
40
0.499999999999995
40
0.499999999999995
40
0.531249999999995
40
0.531249999999995
40
0.562499999999995
40
0.562499999999995
40
0.624999999999996
40
0.624999999999996
40
0.749999999999997
40
0.749999999999997
40
0.874999999999999
40
0.874999999999999
40
1
40
1
40
1
40
1
41
1
10
-51.3860020460814
20
5.00022676868039
30
0
41
1
10
-51.4271597094618
20
4.99693377635015
30
0
41
1
10
-51.4672462826171
20
4.9900941818546
30
0
41
1
10
-51.5455242136708
20
4.97012456894885
30
0
41
1
10
-51.5837142752675
20
4.95699014998107
30
0
41
1
10
-51.658355568598
20
4.92492253812571
30
0
41
1
10
-51.6938849422845
20
4.90639169663621
30
0
41
1
10
-51.7618166387264
20
4.86534206803361
30
0
41
1
10
-51.7942559781117
20
4.84279931421437
30
0
41
1
10
-51.8409760500773
20
4.80639681369991
30
0
41
1
10
-51.8562248159031
20
4.79382938651
30
0
41
1
10
-51.8861176712827
20
4.76788296468004
30
0
41
1
10
-51.9007110618413
20
4.75454548912128
30
0
41
1
10
-51.9432559764382
20
4.71379512925466
30
0
41
1
10
-51.9701014783725
20
4.68554212638855
30
0
41
1
10
-52.0468805903312
20
4.59805033156974
30
0
41
1
10
-52.0930959781036
20
4.5361050376323
30
0
41
1
10
-52.146279276313
20
4.45521167958731
30
0
41
1
10
-52.1566830990007
20
4.43885754119347
30
0
41
1
10
-52.1770537162702
20
4.4058167491863
30
0
41
1
10
-52.1870311208955
20
4.38911114781021
30
0
41
1
10
-52.2162315231511
20
4.33872068618709
30
0
41
1
10
-52.2347469485042
20
4.30473232112985
30
0
41
1
10
-52.2878314108395
20
4.20171722667834
30
0
41
1
10
-52.3199565384223
20
4.13164670884206
30
0
41
1
10
-52.3791390929746
20
3.98921323503123
30
0
41
1
10
-52.4061866509714
20
3.91684682729945
30
0
41
1
10
-52.4561716481468
20
3.77014208810513
30
0
41
1
10
-52.4791043925606
20
3.69580212206003
30
0
41
1
10
-52.5003287739482
20
3.62059097355464
30
0
0
SPLINE
5
D6
100
AcDbEntity
8
SK1
62
256
6
ByLayer
370
18
48
1
60
0
100
AcDbSpline
70
4
71
3
72
32
73
28
40
0
40
0
40
0
40
0
40
0.124999999999982
40
0.124999999999982
40
0.249999999999963
40
0.249999999999963
40
0.374999999999945
40
0.374999999999945
40
0.406249999999941
40
0.406249999999941
40
0.437499999999938
40
0.499999999999932
40
0.499999999999932
40
0.624999999999931
40
0.624999999999931
40
0.656249999999931
40
0.656249999999931
40
0.68749999999993
40
0.68749999999993
40
0.749999999999941
40
0.749999999999941
40
0.874999999999977
40
0.874999999999977
40
0.906249999999979
40
0.906249999999979
40
0.937499999999981
40
1
40
1
40
1
40
1
41
1
10
-14.0157764695459
20
6.59242894057729
30
0
41
1
10
-14.0458287908144
20
6.6375753796253
30
0
41
1
10
-14.0777095790597
20
6.68135165141678
30
0
41
1
10
-14.1456160664485
20
6.76590887596987
30
0
41
1
10
-14.1816386907667
20
6.80669170869109
30
0
41
1
10
-14.2584995514322
20
6.88489663469755
30
0
41
1
10
-14.2993317458756
20
6.92232243783545
30
0
41
1
10
-14.35399779722
20
6.96665617585003
30
0
41
1
10
-14.3651284778382
20
6.97541075031074
30
0
41
1
10
-14.3876400333972
20
6.9925614515505
30
0
41
1
10
-14.4218166346372
20
7.01777898878851
30
0
41
1
10
-14.4572545898122
20
7.04143848131534
30
0
41
1
10
-14.529923003083
20
7.08656817107874
30
0
41
1
10
-14.5807455844469
20
7.11375097789289
30
0
41
1
10
-14.6477689594914
20
7.14354340177493
30
0
41
1
10
-14.6613494138678
20
7.1492913738704
30
0
41
1
10
-14.6888796972728
20
7.1603468035685
30
0
41
1
10
-14.7028224503024
20
7.16564964334611
30
0
41
1
10
-14.7448319317882
20
7.18073146134719
30
0
41
1
10
-14.7732044950192
20
7.1897362156873
30
0
41
1
10
-14.8594560991353
20
7.21351895535656
30
0
41
1
10
-14.9184624466539
20
7.22508541231923
30
0
41
1
10
-14.9943023139084
20
7.23365556703433
30
0
41
1
10
-15.009604540326
20
7.23507501753883
30
0
41
1
10
-15.0401948935638
20
7.23728819114979
30
0
41
1
10
-15.0861089470591
20
7.23967813447453
30
0
41
1
10
-15.1321084232236
20
7.23928527151031
30
0
41
1
10
-15.1628130403699
20
7.23777548279986
30
0
0
SPLINE
5
D7
100
AcDbEntity
8
SK1
62
256
6
ByLayer
370
18
48
1
60
0
100
AcDbSpline
70
4
71
3
72
24
73
20
40
0
40
0
40
0
40
0
40
0.124999999999998
40
0.124999999999998
40
0.249999999999995
40
0.249999999999995
40
0.374999999999993
40
0.374999999999993
40
0.49999999999999
40
0.49999999999999
40
0.624999999999988
40
0.624999999999988
40
0.749999999999985
40
0.749999999999985
40
0.812499999999989
40
0.812499999999989
40
0.874999999999992
40
0.874999999999992
40
1
40
1
40
1
40
1
41
1
10
-15.1628130403699
20
-7.23777548279986
30
0
41
1
10
-15.1013368482927
20
-7.2407983526281
30
0
41
1
10
-15.0406973758297
20
-7.23880609117487
30
0
41
1
10
-14.920978556398
20
-7.22545942224767
30
0
41
1
10
-14.8618998887329
20
-7.21410077871741
30
0
41
1
10
-14.7452745335612
20
-7.18212437688828
30
0
41
1
10
-14.6895699451789
20
-7.16201960319464
30
0
41
1
10
-14.5827589175342
20
-7.11474711952985
30
0
41
1
10
-14.5316211412475
20
-7.08755690757022
30
0
41
1
10
-14.4334554488588
20
-7.02672282100497
30
0
41
1
10
-14.38751619038
20
-6.99376703919228
30
0
41
1
10
-14.3007925764322
20
-6.92357765523022
30
0
41
1
10
-14.2600161652162
20
-6.88633798514746
30
0
41
1
10
-14.2021759714483
20
-6.82763631844753
30
0
41
1
10
-14.1834523029509
20
-6.80759363972547
30
0
41
1
10
-14.1470479748901
20
-6.76660288333122
30
0
41
1
10
-14.1293429656042
20
-6.74562348347595
30
0
41
1
10
-14.0779142754528
20
-6.68164973874727
30
0
41
1
10
-14.0458764161971
20
-6.63764692539442
30
0
41
1
10
-14.0157764695459
20
-6.59242894057729
30
0
0
SPLINE
5
D8
100
AcDbEntity
8
1
62
256
6
ByLayer
370
13
48
1
60
0
100
AcDbSpline
70
4
71
3
72
41
73
37
40
0
40
0
40
0
40
0
40
0.0625
40
0.0625
40
0.125
40
0.125
40
0.1875
40
0.1875
40
0.25
40
0.25
40
0.3125
40
0.3125
40
0.375
40
0.375
40
0.4375
40
0.4375
40
0.5
40
0.5
40
0.5625
40
0.5625
40
0.625
40
0.625
40
0.6875
40
0.6875
40
0.75
40
0.75
40
0.8125
40
0.8125
40
0.875
40
0.875
40
0.890625
40
0.890625
40
0.90625
40
0.9375
40
0.9375
40
1
40
1
40
1
40
1
41
1
10
98.3682445320504
20
11
30
0
41
1
10
98.4334129256134
20
11
30
0
41
1
10
98.4985813191763
20
10.9814262032608
30
0
41
1
10
98.6289181063022
20
10.90282850524
30
0
41
1
10
98.6940864998651
20
10.8427907980373
30
0
41
1
10
98.824423286991
20
10.6778878145973
30
0
41
1
10
98.889591680554
20
10.5730095479592
30
0
41
1
10
99.0199284676798
20
10.3164080298129
30
0
41
1
10
99.0850968612428
20
10.1646747120971
30
0
41
1
10
99.2154336483687
20
9.81406000644267
30
0
41
1
10
99.2806020419316
20
9.61517355170619
30
0
41
1
10
99.4109388290576
20
9.17189861469294
30
0
41
1
10
99.4761072226205
20
8.92751156938729
30
0
41
1
10
99.6064440097464
20
8.39689010164051
30
0
41
1
10
99.6716124033094
20
8.11066406183576
30
0
41
1
10
99.8019491904353
20
7.50188106901228
30
0
41
1
10
99.8671175839983
20
7.17933857710128
30
0
41
1
10
99.997454371124
20
6.50495363802901
30
0
41
1
10
100.062622764687
20
6.15312968299995
30
0
41
1
10
100.192959551813
20
5.4282240324292
30
0
41
1
10
100.258127945376
20
5.0551621181948
30
0
41
1
10
100.388464732502
20
4.29624887591129
30
0
41
1
10
100.453633126065
20
3.91041585378298
30
0
41
1
10
100.583969913191
20
3.13427305023194
30
0
41
1
10
100.649138306754
20
2.74397792836498
30
0
41
1
10
100.779475093879
20
1.96656574830715
30
0
41
1
10
100.844643487442
20
1.57945849293836
30
0
41
1
10
100.974980274568
20
0.815048357732309
30
0
41
1
10
101.040148668131
20
0.437750224399935
30
0
41
1
10
101.121609160085
20
-0.0243824199289691
30
0
41
1
10
101.137901258476
20
-0.116528331592946
30
0
41
1
10
101.170485455257
20
-0.302320492774442
30
0
41
1
10
101.219361750429
20
-0.582364228197349
30
0
41
1
10
101.268238045602
20
-0.866128296458868
30
0
41
1
10
101.365990635946
20
-1.43757972286781
30
0
41
1
10
101.431159029509
20
-1.82381495259858
30
0
41
1
10
101.496327423072
20
-2.2120860628587
30
0
0
SPLINE
5
D9
100
AcDbEntity
8
1
62
256
6
ByLayer
370
13
48
1
60
0
100
AcDbSpline
70
4
71
3
72
79
73
75
40
0
40
0
40
0
40
0
40
0.0312500000000001
40
0.0312500000000001
40
0.0625000000000001
40
0.0625000000000001
40
0.0937500000000002
40
0.0937500000000002
40
0.125
40
0.125
40
0.15625
40
0.15625
40
0.1875
40
0.1875
40
0.21875
40
0.21875
40
0.25
40
0.25
40
0.281250000000001
40
0.281250000000001
40
0.312500000000001
40
0.312500000000001
40
0.320312500000001
40
0.320312500000001
40
0.328125000000001
40
0.328125000000001
40
0.343750000000001
40
0.343750000000001
40
0.375
40
0.375
40
0.40625
40
0.40625
40
0.4375
40
0.4375
40
0.46875
40
0.46875
40
0.499999999999999
40
0.499999999999999
40
0.531249999999999
40
0.531249999999999
40
0.562499999999999
40
0.562499999999999
40
0.593749999999999
40
0.593749999999999
40
0.624999999999999
40
0.624999999999999
40
0.656249999999998
40
0.656249999999998
40
0.660156249999999
40
0.660156249999999
40
0.664062499999999
40
0.671874999999999
40
0.671874999999999
40
0.687499999999999
40
0.687499999999999
40
0.718749999999999
40
0.718749999999999
40
0.749999999999999
40
0.749999999999999
40
0.781249999999999
40
0.781249999999999
40
0.812499999999999
40
0.812499999999999
40
0.843749999999999
40
0.843749999999999
40
0.874999999999999
40
0.874999999999999
40
0.906249999999999
40
0.906249999999999
40
0.9375
40
0.9375
40
0.96875
40
0.96875
40
1
40
1
40
1
40
1
41
1
10
90.5
20
-1.16204616422758
30
0
41
1
10
90.5838097549954
20
-1.65319356908387
30
0
41
1
10
90.6676195099907
20
-2.15265170876222
30
0
41
1
10
90.8352390199813
20
-3.15387253304792
30
0
41
1
10
90.9190487749767
20
-3.65559621570438
30
0
41
1
10
91.0866682849673
20
-4.64440315932944
30
0
41
1
10
91.1704780399626
20
-5.13142733719263
30
0
41
1
10
91.3380975499532
20
-6.07278377904436
30
0
41
1
10
91.4219073049485
20
-6.52704699010025
30
0
41
1
10
91.5895268149392
20
-7.38569182373493
30
0
41
1
10
91.6733365699345
20
-7.79000984304289
30
0
41
1
10
91.8409560799251
20
-8.53448910875863
30
0
41
1
10
91.9247658349204
20
-8.87460754731265
30
0
41
1
10
92.0923853449111
20
-9.48097941602168
30
0
41
1
10
92.1761950999064
20
-9.74722005880176
30
0
41
1
10
92.343814609897
20
-10.2015565518558
30
0
41
1
10
92.4276243648923
20
-10.3896694699988
30
0
41
1
10
92.595243874883
20
-10.6888252189113
30
0
41
1
10
92.6790536298782
20
-10.7999066088187
30
0
41
1
10
92.8466731398688
20
-10.9505557063281
30
0
41
1
10
92.9304828948642
20
-10.9901713186712
30
0
41
1
10
93.0352450886084
20
-11.0004278514987
30
0
41
1
10
93.0561975273573
20
-11.0005396701336
30
0
41
1
10
93.0981024048549
20
-10.996897749231
30
0
41
1
10
93.1190548436036
20
-10.9931236503063
30
0
41
1
10
93.1819121598501
20
-10.975720362823
30
0
41
1
10
93.2238170373478
20
-10.9560054127817
30
0
41
1
10
93.3495316698408
20
-10.8708986328059
30
0
41
1
10
93.4333414248361
20
-10.7794321328737
30
0
41
1
10
93.6009609348267
20
-10.5205981549077
30
0
41
1
10
93.684770689822
20
-10.3531884273173
30
0
41
1
10
93.8523901998127
20
-9.94005897525298
30
0
41
1
10
93.936199954808
20
-9.69431543171518
30
0
41
1
10
94.1038194647987
20
-9.12727961798151
30
0
41
1
10
94.1876292197939
20
-8.80599182282242
30
0
41
1
10
94.3552487297845
20
-8.096122489023
30
0
41
1
10
94.4390584847799
20
-7.70757634686896
30
0
41
1
10
94.6066779947705
20
-6.87634217151009
30
0
41
1
10
94.6904877497659
20
-6.43371357569188
30
0
41
1
10
94.8581072597565
20
-5.51090498427394
30
0
41
1
10
94.9419170147518
20
-5.0307942107917
30
0
41
1
10
95.1095365247425
20
-4.05106044957239
30
0
41
1
10
95.1933462797377
20
-3.55150045525775
30
0
41
1
10
95.3609657897284
20
-2.55031219172005
30
0
41
1
10
95.4447755447237
20
-2.04872880627895
30
0
41
1
10
95.6123950547143
20
-1.05868417362376
30
0
41
1
10
95.6962048097096
20
-0.570245062554221
30
0
41
1
10
95.7904907840793
20
-0.0348376085368898
30
0
41
1
10
95.8009670034538
20
0.0243488325684496
30
0
41
1
10
95.8219194422027
20
0.143282638444674
30
0
41
1
10
95.8533481003259
20
0.322265016928355
30
0
41
1
10
95.8847767584491
20
0.50290343477144
30
0
41
1
10
95.9476340746957
20
0.866131353550799
30
0
41
1
10
95.9895389521932
20
1.1108915023741
30
0
41
1
10
96.1152535846863
20
1.85069157085013
30
0
41
1
10
96.1990633396815
20
2.35134244700674
30
0
41
1
10
96.3666828496722
20
3.35282904304057
30
0
41
1
10
96.4504926046675
20
3.85362278892774
30
0
41
1
10
96.6181121146581
20
4.83820488322215
30
0
41
1
10
96.7019218696535
20
5.32193209491442
30
0
41
1
10
96.8695413796441
20
6.25432412889296
30
0
41
1
10
96.9533511346395
20
6.70291967115912
30
0
41
1
10
97.12097064463
20
7.54813037211323
30
0
41
1
10
97.2047803996253
20
7.94468387576822
30
0
41
1
10
97.372399909616
20
8.67205894507691
30
0
41
1
10
97.4562096646114
20
9.00284133571478
30
0
41
1
10
97.623829174602
20
9.58965509135228
30
0
41
1
10
97.7076389295973
20
9.84567783895551
30
0
41
1
10
97.8752584395879
20
10.2794253107428
30
0
41
1
10
97.9590681945832
20
10.4571705622486
30
0
41
1
10
98.1266877045738
20
10.7360951121834
30
0
41
1
10
98.2104974595691
20
10.8373149259144
30
0
41
1
10
98.3781169695599
20
10.9692432495285
30
0
41
1
10
98.4619267245552
20
11
30
0
41
1
10
98.5457364795504
20
11
30
0
0
SPLINE
5
DA
100
AcDbEntity
8
1
62
256
6
ByLayer
370
13
48
1
60
0
100
AcDbSpline
70
4
71
3
72
42
73
38
40
0
40
0
40
0
40
0
40
0.0625000000000003
40
0.0625000000000003
40
0.125000000000001
40
0.125000000000001
40
0.187500000000001
40
0.187500000000001
40
0.250000000000001
40
0.250000000000001
40
0.312500000000002
40
0.312500000000002
40
0.375000000000002
40
0.375000000000002
40
0.437500000000002
40
0.437500000000002
40
0.500000000000002
40
0.500000000000002
40
0.562500000000003
40
0.562500000000003
40
0.625000000000003
40
0.625000000000003
40
0.687500000000004
40
0.687500000000004
40
0.750000000000004
40
0.750000000000004
40
0.765625000000004
40
0.765625000000004
40
0.781250000000003
40
0.781250000000003
40
0.812500000000003
40
0.812500000000003
40
0.875000000000002
40
0.875000000000002
40
0.937500000000001
40
0.937500000000001
40
1
40
1
40
1
40
1
41
1
10
97.8764792831608
20
11
30
0
41
1
10
97.9518927860756
20
11
30
0
41
1
10
98.0273062889903
20
10.975111916673
30
0
41
1
10
98.17813329482
20
10.8689904046159
30
0
41
1
10
98.2535467977348
20
10.7877283879265
30
0
41
1
10
98.4043738035645
20
10.5640573609369
30
0
41
1
10
98.4797873064793
20
10.4216228854217
30
0
41
1
10
98.6306143123089
20
10.0734580542311
30
0
41
1
10
98.7060278152237
20
9.86771127541488
30
0
41
1
10
98.8568548210534
20
9.39407726203916
30
0
41
1
10
98.9322683239682
20
9.12618778796252
30
0
41
1
10
99.0830953297978
20
8.53302627848876
30
0
41
1
10
99.1585088327125
20
8.20776859256196
30
0
41
1
10
99.3093358385423
20
7.50805518466956
30
0
41
1
10
99.384749341457
20
7.1336287826814
30
0
41
1
10
99.5355763472867
20
6.34652361659769
30
0
41
1
10
99.6109898502015
20
5.93388367052532
30
0
41
1
10
99.761816856031
20
5.08301176168968
30
0
41
1
10
99.837230358946
20
4.64482048797245
30
0
41
1
10
99.9880573647756
20
3.7559977634584
30
0
41
1
10
100.06347086769
20
3.30540154354785
30
0
41
1
10
100.21429787352
20
2.40424638153618
30
0
41
1
10
100.289711376435
20
1.95371224247327
30
0
41
1
10
100.440538382264
20
1.06356733204277
30
0
41
1
10
100.515951885179
20
0.623969200326457
30
0
41
1
10
100.610218763823
20
0.0867544784603353
30
0
41
1
10
100.629072139551
20
-0.0196663567340352
30
0
41
1
10
100.666778891009
20
-0.234038282888804
30
0
41
1
10
100.685632266738
20
-0.341844976033542
30
0
41
1
10
100.742192393924
20
-0.666946501608038
30
0
41
1
10
100.779899145381
20
-0.885927283367778
30
0
41
1
10
100.893019399753
20
-1.54799878854584
30
0
41
1
10
100.968432902668
20
-1.99628265857842
30
0
41
1
10
101.119259908498
20
-2.89642177020005
30
0
41
1
10
101.194673411412
20
-3.34825585011993
30
0
41
1
10
101.345500417242
20
-4.24343988766685
30
0
41
1
10
101.420913920157
20
-4.68675738604736
30
0
41
1
10
101.496327423072
20
-5.11930881284206
30
0
0
SPLINE
5
DB
100
AcDbEntity
8
1
62
256
6
ByLayer
370
13
48
1
60
0
100
AcDbSpline
70
4
71
3
72
80
73
76
40
0
40
0
40
0
40
0
40
0.0312500000000012
40
0.0312500000000012
40
0.0625000000000025
40
0.0625000000000025
40
0.0937500000000037
40
0.0937500000000037
40
0.125000000000005
40
0.125000000000005
40
0.156250000000006
40
0.156250000000006
40
0.187500000000007
40
0.187500000000007
40
0.218750000000009
40
0.218750000000009
40
0.25000000000001
40
0.25000000000001
40
0.265625000000011
40
0.265625000000011
40
0.269531250000011
40
0.269531250000011
40
0.273437500000011
40
0.273437500000011
40
0.281250000000011
40
0.281250000000011
40
0.312500000000011
40
0.312500000000011
40
0.343750000000011
40
0.343750000000011
40
0.375000000000012
40
0.375000000000012
40
0.406250000000012
40
0.406250000000012
40
0.437500000000012
40
0.437500000000012
40
0.468750000000012
40
0.468750000000012
40
0.500000000000013
40
0.500000000000013
40
0.531250000000013
40
0.531250000000013
40
0.562500000000013
40
0.562500000000013
40
0.593750000000013
40
0.593750000000013
40
0.625000000000014
40
0.625000000000014
40
0.632812500000014
40
0.632812500000014
40
0.640625000000013
40
0.640625000000013
40
0.656250000000013
40
0.656250000000013
40
0.687500000000012
40
0.687500000000012
40
0.718750000000011
40
0.718750000000011
40
0.75000000000001
40
0.75000000000001
40
0.781250000000008
40
0.781250000000008
40
0.812500000000007
40
0.812500000000007
40
0.843750000000006
40
0.843750000000006
40
0.875000000000005
40
0.875000000000005
40
0.906250000000004
40
0.906250000000004
40
0.937500000000003
40
0.937500000000003
40
0.968750000000001
40
0.968750000000001
40
1
40
1
40
1
40
1
41
1
10
90.5
20
-4.0845167152969
30
0
41
1
10
90.5786872003194
20
-4.54929805286949
30
0
41
1
10
90.6573744006388
20
-5.00792049936194
30
0
41
1
10
90.8147488012775
20
-5.89801427254358
30
0
41
1
10
90.8934360015969
20
-6.32943543536419
30
0
41
1
10
91.0508104022356
20
-7.15070907342297
30
0
41
1
10
91.129497602555
20
-7.54051358226562
30
0
41
1
10
91.2868720031938
20
-8.26614935284994
30
0
41
1
10
91.3655592035132
20
-8.60194507480745
30
0
41
1
10
91.5229336041521
20
-9.21046273185223
30
0
41
1
10
91.6016208044714
20
-9.48316870486804
30
0
41
1
10
91.7589952051102
20
-9.96050617193768
30
0
41
1
10
91.8376824054295
20
-10.1651429669459
30
0
41
1
10
91.9950568060684
20
-10.5056020213641
30
0
41
1
10
92.0737440063877
20
-10.6414470193775
30
0
41
1
10
92.2311184070265
20
-10.8474031113726
30
0
41
1
10
92.3098056073459
20
-10.9175471152633
30
0
41
1
10
92.4278364078249
20
-10.9779900561623
30
0
41
1
10
92.4671800079846
20
-10.9906953382386
30
0
41
1
10
92.5163595081842
20
-10.9978609750769
30
0
41
1
10
92.5261954082241
20
-10.9988585478563
30
0
41
1
10
92.545867208304
20
-10.9999981677644
30
0
41
1
10
92.5557031083439
20
-11.0001413776133
30
0
41
1
10
92.5852108084637
20
-10.9993028678915
30
0
41
1
10
92.6048826085434
20
-10.9970434017212
30
0
41
1
10
92.7032416089428
20
-10.9769331760085
30
0
41
1
10
92.7819288092622
20
-10.9325689764313
30
0
41
1
10
92.9393032099009
20
-10.7803961753133
30
0
41
1
10
93.0179904102203
20
-10.6725527956067
30
0
41
1
10
93.175364810859
20
-10.3889717181846
30
0
41
1
10
93.2540520111785
20
-10.2132060542573
30
0
41
1
10
93.4114264118173
20
-9.79281279837255
30
0
41
1
10
93.4901136121366
20
-9.54817189808875
30
0
41
1
10
93.6474880127754
20
-8.99319171285035
30
0
41
1
10
93.7261752130947
20
-8.68285937316969
30
0
41
1
10
93.8835496137335
20
-8.00390450391231
30
0
41
1
10
93.9622368140529
20
-7.63530992606491
30
0
41
1
10
94.1196112146916
20
-6.85095726079606
30
0
41
1
10
94.1982984150111
20
-6.43524309442026
30
0
41
1
10
94.3556728156498
20
-5.57039342217078
30
0
41
1
10
94.4343600159692
20
-5.12130845738179
30
0
41
1
10
94.591734416608
20
-4.20461884681268
30
0
41
1
10
94.6704216169273
20
-3.73706098198005
30
0
41
1
10
94.827796017566
20
-2.79798734735843
30
0
41
1
10
94.9064832178855
20
-2.32650659261913
30
0
41
1
10
95.0638576185242
20
-1.39255451387083
30
0
41
1
10
95.1425448188436
20
-0.930102755796355
30
0
41
1
10
95.2409038192428
20
-0.364259067569918
30
0
41
1
10
95.2605756193228
20
-0.251694850465952
30
0
41
1
10
95.2999192194825
20
-0.0279129844426791
30
0
41
1
10
95.3195910195622
20
0.0830990704305066
30
0
41
1
10
95.3786064198018
20
0.419432145410468
30
0
41
1
10
95.4179500199615
20
0.646308895074725
30
0
41
1
10
95.5359808204406
20
1.3331663080541
30
0
41
1
10
95.61466802076
20
1.79945256026204
30
0
41
1
10
95.7720424213987
20
2.73752877080432
30
0
41
1
10
95.8507296217181
20
3.20929455499521
30
0
41
1
10
96.0081040223569
20
4.14482140478938
30
0
41
1
10
96.0867912226762
20
4.60854344072854
30
0
41
1
10
96.244165623315
20
5.51319674672453
30
0
41
1
10
96.3228528236344
20
5.95407915496304
30
0
41
1
10
96.4802272242732
20
6.79833202114395
30
0
41
1
10
96.5589144245924
20
7.20165276936456
30
0
41
1
10
96.7162888252312
20
7.95764248626205
30
0
41
1
10
96.7949760255507
20
8.31027135914709
30
0
41
1
10
96.9523504261895
20
8.95470632896891
30
0
41
1
10
97.0310376265089
20
9.24649032248735
30
0
41
1
10
97.1884120271476
20
9.76299520019003
30
0
41
1
10
97.2670992274669
20
9.98771536782772
30
0
41
1
10
97.4244736281058
20
10.3681328254144
30
0
41
1
10
97.5031608284251
20
10.5238484265349
30
0
41
1
10
97.6605352290639
20
10.768299416493
30
0
41
1
10
97.7392224293833
20
10.8570655893549
30
0
41
1
10
97.8965968300221
20
10.9728982295337
30
0
41
1
10
97.9752840303414
20
11
30
0
41
1
10
98.0539712306608
20
11
30
0
0
SPLINE
5
DC
100
AcDbEntity
8
1
62
256
6
ByLayer
370
13
48
1
60
0
100
AcDbSpline
70
4
71
3
72
44
73
40
40
0
40
0
40
0
40
0
40
0.062499999999999
40
0.062499999999999
40
0.124999999999998
40
0.124999999999998
40
0.187499999999997
40
0.187499999999997
40
0.249999999999996
40
0.249999999999996
40
0.312499999999995
40
0.312499999999995
40
0.374999999999994
40
0.374999999999994
40
0.437499999999993
40
0.437499999999993
40
0.499999999999992
40
0.499999999999992
40
0.562499999999991
40
0.562499999999991
40
0.62499999999999
40
0.62499999999999
40
0.65624999999999
40
0.65624999999999
40
0.66406249999999
40
0.66406249999999
40
0.67187499999999
40
0.67187499999999
40
0.68749999999999
40
0.68749999999999
40
0.749999999999992
40
0.749999999999992
40
0.812499999999994
40
0.812499999999994
40
0.874999999999996
40
0.874999999999996
40
0.937499999999998
40
0.937499999999998
40
1
40
1
40
1
40
1
41
1
10
97.3847140342712
20
11
30
0
41
1
10
97.4703726465377
20
11
30
0
41
1
10
97.5560312588045
20
10.9678667078883
30
0
41
1
10
97.7273484833379
20
10.8298577858331
30
0
41
1
10
97.8130070956045
20
10.7239284278093
30
0
41
1
10
97.9843243201378
20
10.4319733545397
30
0
41
1
10
98.0699829324046
20
10.2459031833507
30
0
41
1
10
98.241300156938
20
9.79206050793286
30
0
41
1
10
98.3269587692047
20
9.5242670385496
30
0
41
1
10
98.498275993738
20
8.91115540458893
30
0
41
1
10
98.5839346060047
20
8.56584995102219
30
0
41
1
10
98.755251830538
20
7.80783178507829
30
0
41
1
10
98.8409104428048
20
7.39516613009368
30
0
41
1
10
99.0122276673382
20
6.51757972494013
30
0
41
1
10
99.0978862796048
20
6.05272987219197
30
0
41
1
10
99.2692035041381
20
5.08914200096183
30
0
41
1
10
99.3548621164048
20
4.59048088537034
30
0
41
1
10
99.5261793409383
20
3.57856228801668
30
0
41
1
10
99.6118379532048
20
3.06536986760949
30
0
41
1
10
99.7831551777382
20
2.04241024474325
30
0
41
1
10
99.8688137900049
20
1.53268485828056
30
0
41
1
10
99.9973017084051
20
0.781999635025954
30
0
41
1
10
100.040131014538
20
0.534061832377148
30
0
41
1
10
100.093667647205
20
0.227962024357623
30
0
41
1
10
100.104374973738
20
0.166932593110488
30
0
41
1
10
100.125789626805
20
0.0452763902122229
30
0
41
1
10
100.136496953338
20
-0.0152209545222206
30
0
41
1
10
100.168618932938
20
-0.19750492927804
30
0
41
1
10
100.190033586005
20
-0.319840327374891
30
0
41
1
10
100.297106851338
20
-0.935142664337349
30
0
41
1
10
100.382765463605
20
-1.43913207531088
30
0
41
1
10
100.554082688138
20
-2.45699196666058
30
0
41
1
10
100.639741300405
20
-2.97083100424834
30
0
41
1
10
100.811058524938
20
-3.99141536264369
30
0
41
1
10
100.896717137205
20
-4.49810394472073
30
0
41
1
10
101.068034361738
20
-5.48539333780877
30
0
41
1
10
101.153692974005
20
-5.96592004670359
30
0
41
1
10
101.325010198538
20
-6.88187485649044
30
0
41
1
10
101.410668810805
20
-7.31722737596274
30
0
41
1
10
101.496327423072
20
-7.72167326843615
30
0
0
SPLINE
5
DD
100
AcDbEntity
8
1
62
256
6
ByLayer
370
13
48
1
60
0
100
AcDbSpline
70
4
71
3
72
79
73
75
40
0
40
0
40
0
40
0
40
0.0312500000000002
40
0.0312500000000002
40
0.0625000000000004
40
0.0625000000000004
40
0.0937500000000006
40
0.0937500000000006
40
0.125000000000001
40
0.125000000000001
40
0.156250000000001
40
0.156250000000001
40
0.187500000000001
40
0.187500000000001
40
0.218750000000001
40
0.218750000000001
40
0.226562500000001
40
0.226562500000001
40
0.234375000000001
40
0.234375000000001
40
0.250000000000002
40
0.250000000000002
40
0.281250000000002
40
0.281250000000002
40
0.312500000000002
40
0.312500000000002
40
0.343750000000002
40
0.343750000000002
40
0.375000000000002
40
0.375000000000002
40
0.406250000000003
40
0.406250000000003
40
0.437500000000003
40
0.437500000000003
40
0.468750000000003
40
0.468750000000003
40
0.500000000000003
40
0.500000000000003
40
0.531250000000003
40
0.531250000000003
40
0.562500000000003
40
0.562500000000003
40
0.593750000000003
40
0.593750000000003
40
0.609375000000004
40
0.609375000000004
40
0.613281250000003
40
0.613281250000003
40
0.617187500000003
40
0.625000000000003
40
0.625000000000003
40
0.656250000000003
40
0.656250000000003
40
0.687500000000003
40
0.687500000000003
40
0.718750000000002
40
0.718750000000002
40
0.750000000000002
40
0.750000000000002
40
0.781250000000002
40
0.781250000000002
40
0.812500000000002
40
0.812500000000002
40
0.843750000000001
40
0.843750000000001
40
0.875000000000001
40
0.875000000000001
40
0.906250000000001
40
0.906250000000001
40
0.9375
40
0.9375
40
0.96875
40
0.96875
40
1
40
1
40
1
40
1
41
1
10
90.5
20
-6.84214184029778
30
0
41
1
10
90.5735646456434
20
-7.222778100298
30
0
41
1
10
90.6471292912869
20
-7.58472668241973
30
0
41
1
10
90.7942585825738
20
-8.26130073696143
30
0
41
1
10
90.8678232282173
20
-8.57590101315967
30
0
41
1
10
91.0149525195042
20
-9.15030328147185
30
0
41
1
10
91.0885171651476
20
-9.41009314735706
30
0
41
1
10
91.2356464564345
20
-9.87051410058635
30
0
41
1
10
91.3092111020781
20
-10.0711473584846
30
0
41
1
10
91.4563403933648
20
-10.4121600529694
30
0
41
1
10
91.5299050390083
20
-10.5525538880167
30
0
41
1
10
91.6770343302952
20
-10.7749987874533
30
0
41
1
10
91.7505989759387
20
-10.8570721627407
30
0
41
1
10
91.8977282672255
20
-10.9672244640374
30
0
41
1
10
91.971292912869
20
-10.9953286241842
30
0
41
1
10
92.0632487199233
20
-11.0004954798974
30
0
41
1
10
92.0816398813342
20
-11.0000491894357
30
0
41
1
10
92.1184222041559
20
-10.9961517102759
30
0
41
1
10
92.1368133655668
20
-10.9926922822778
30
0
41
1
10
92.1919868497995
20
-10.9776323769289
30
0
41
1
10
92.2287691726211
20
-10.9613475165601
30
0
41
1
10
92.3391161410862
20
-10.8926492673888
30
0
41
1
10
92.4126807867298
20
-10.8203289903306
30
0
41
1
10
92.5598100780166
20
-10.6179923093805
30
0
41
1
10
92.63337472366
20
-10.4879527330798
30
0
41
1
10
92.7805040149469
20
-10.1677811414173
30
0
41
1
10
92.8540686605903
20
-9.97763300228024
30
0
41
1
10
93.0011979518773
20
-9.53776450507738
30
0
41
1
10
93.0747625975208
20
-9.28803962044637
30
0
41
1
10
93.2218918888077
20
-8.73278064894046
30
0
41
1
10
93.2954565344511
20
-8.42725619190756
30
0
41
1
10
93.442585825738
20
-7.76733460271609
30
0
41
1
10
93.5161504713814
20
-7.41296063361062
30
0
41
1
10
93.6632797626684
20
-6.66495232909827
30
0
41
1
10
93.7368444083118
20
-6.27135074752132
30
0
41
1
10
93.8839736995986
20
-5.4563183411795
30
0
41
1
10
93.9575383452421
20
-5.0349237137637
30
0
41
1
10
94.1046676365291
20
-4.17649570424413
30
0
41
1
10
94.1782322821725
20
-3.73949551365433
30
0
41
1
10
94.3253615734594
20
-2.86174098315814
30
0
41
1
10
94.3989262191028
20
-2.42101190823695
30
0
41
1
10
94.5460555103897
20
-1.54648443734345
30
0
41
1
10
94.6196201560332
20
-1.11270101349567
30
0
41
1
10
94.7299671244985
20
-0.473880008334362
30
0
41
1
10
94.7667494473201
20
-0.26289988707299
30
0
41
1
10
94.8127273508472
20
-0.0021948799732456
30
0
41
1
10
94.8219229315528
20
0.0497868552030241
30
0
41
1
10
94.8403140929636
20
0.154251173120969
30
0
41
1
10
94.8679008350799
20
0.311393497151016
30
0
41
1
10
94.8954875771962
20
0.469812959641302
30
0
41
1
10
94.9874433842504
20
1.00042794669722
30
0
41
1
10
95.0610080298939
20
1.43315969343683
30
0
41
1
10
95.2081373211809
20
2.30643166921703
30
0
41
1
10
95.2817019668242
20
2.7469578446505
30
0
41
1
10
95.4288312581111
20
3.62529225987308
30
0
41
1
10
95.5023959037545
20
4.06307607499443
30
0
41
1
10
95.6495251950414
20
4.92413000096548
30
0
41
1
10
95.7230898406849
20
5.34736744674746
30
0
41
1
10
95.8702191319718
20
6.16713087640863
30
0
41
1
10
95.9437837776153
20
6.56362067920708
30
0
41
1
10
96.0909130689022
20
7.3183424512101
30
0
41
1
10
96.1644777145456
20
7.67654110477298
30
0
41
1
10
96.3116070058325
20
8.34485372659654
30
0
41
1
10
96.385171651476
20
8.65494349896935
30
0
41
1
10
96.5323009427629
20
9.21981690925546
30
0
41
1
10
96.6058655884063
20
9.47458966565441
30
0
41
1
10
96.7529948796932
20
9.92475271241889
30
0
41
1
10
96.8265595253367
20
10.1201463604852
30
0
41
1
10
96.9736888166235
20
10.4507330975592
30
0
41
1
10
97.047253462267
20
10.5859414649803
30
0
41
1
10
97.1943827535539
20
10.7983065475561
30
0
41
1
10
97.2679473991974
20
10.8754860235988
30
0
41
1
10
97.4150766904843
20
10.9763201157634
30
0
41
1
10
97.4886413361277
20
11
30
0
41
1
10
97.5622059817712
20
11
30
0
0
SPLINE
5
DE
100
AcDbEntity
8
1
62
256
6
ByLayer
370
13
48
1
60
0
100
AcDbSpline
70
4
71
3
72
43
73
39
40
0
40
0
40
0
40
0
40
0.0624999999999991
40
0.0624999999999991
40
0.124999999999998
40
0.124999999999998
40
0.187499999999997
40
0.187499999999997
40
0.249999999999996
40
0.249999999999996
40
0.312499999999996
40
0.312499999999996
40
0.374999999999995
40
0.374999999999995
40
0.437499999999994
40
0.437499999999994
40
0.499999999999993
40
0.499999999999993
40
0.562499999999992
40
0.562499999999992
40
0.593749999999992
40
0.593749999999992
40
0.601562499999992
40
0.601562499999992
40
0.609374999999992
40
0.624999999999992
40
0.624999999999992
40
0.687499999999994
40
0.687499999999994
40
0.749999999999995
40
0.749999999999995
40
0.812499999999996
40
0.812499999999996
40
0.874999999999997
40
0.874999999999997
40
0.937499999999999
40
0.937499999999999
40
1
40
1
40
1
40
1
41
1
10
96.8929487853815
20
11
30
0
41
1
10
96.9888525070001
20
11
30
0
41
1
10
97.0847562286186
20
10.9596855222101
30
0
41
1
10
97.2765636718556
20
10.7853505914125
30
0
41
1
10
97.3724673934743
20
10.6512365567958
30
0
41
1
10
97.5642748367113
20
10.2814097422724
30
0
41
1
10
97.66017855833
20
10.0456267506323
30
0
41
1
10
97.851986001567
20
9.47250579064522
30
0
41
1
10
97.9478897231855
20
9.13515100692084
30
0
41
1
10
98.1396971664227
20
8.36828230074866
30
0
41
1
10
98.2356008880412
20
7.93882064992647
30
0
41
1
10
98.4274083312782
20
7.00599280645412
30
0
41
1
10
98.5233120528968
20
6.50273743663269
30
0
41
1
10
98.7151194961339
20
5.44692089804283
30
0
41
1
10
98.8110232177524
20
4.89449506103281
30
0
41
1
10
99.0028306609895
20
3.76744050680557
30
0
41
1
10
99.0987343826081
20
3.19293112363277
30
0
41
1
10
99.2905418258452
20
2.04734401930253
30
0
41
1
10
99.3864455474638
20
1.47634177092522
30
0
41
1
10
99.5303011298917
20
0.638278076245342
30
0
41
1
10
99.5782529907009
20
0.361954914249537
30
0
41
1
10
99.6381928167125
20
0.0216410800439633
30
0
41
1
10
99.6501807819148
20
-0.046074976905345
30
0
41
1
10
99.6741567123195
20
-0.182321674162779
30
0
41
1
10
99.7101206079264
20
-0.387446730725259
30
0
41
1
10
99.7460845035333
20
-0.594702393770831
30
0
41
1
10
99.8659641555565
20
-1.28963561233471
30
0
41
1
10
99.9618678771751
20
-1.85886228007061
30
0
41
1
10
100.153675320412
20
-3.00347446401713
30
0
41
1
10
100.249579042031
20
-3.57879011925488
30
0
41
1
10
100.441386485268
20
-4.71040744331106
30
0
41
1
10
100.537290206886
20
-5.26659360225881
30
0
41
1
10
100.729097650124
20
-6.33286552372439
30
0
41
1
10
100.825001371742
20
-6.84281581872762
30
0
41
1
10
101.016808814979
20
-7.79150048539174
30
0
41
1
10
101.112712536598
20
-8.23011937369463
30
0
41
1
10
101.304519979835
20
-9.01692145068066
30
0
41
1
10
101.400423701453
20
-9.36504489775177
30
0
41
1
10
101.496327423072
20
-9.66266458933373
30
0
0
SPLINE
5
DF
100
AcDbEntity
8
1
62
256
6
ByLayer
370
13
48
1
60
0
100
AcDbSpline
70
4
71
3
72
77
73
73
40
0
40
0
40
0
40
0
40
0.031250000000002
40
0.031250000000002
40
0.0625000000000039
40
0.0625000000000039
40
0.0937500000000058
40
0.0937500000000058
40
0.125000000000008
40
0.125000000000008
40
0.15625000000001
40
0.15625000000001
40
0.16406250000001
40
0.16406250000001
40
0.17187500000001
40
0.18750000000001
40
0.18750000000001
40
0.218750000000011
40
0.218750000000011
40
0.250000000000011
40
0.250000000000011
40
0.281250000000012
40
0.281250000000012
40
0.312500000000012
40
0.312500000000012
40
0.343750000000012
40
0.343750000000012
40
0.375000000000013
40
0.375000000000013
40
0.406250000000013
40
0.406250000000013
40
0.437500000000013
40
0.437500000000013
40
0.468750000000014
40
0.468750000000014
40
0.500000000000014
40
0.500000000000014
40
0.531250000000015
40
0.531250000000015
40
0.562500000000015
40
0.562500000000015
40
0.578125000000015
40
0.578125000000015
40
0.585937500000015
40
0.585937500000015
40
0.593750000000015
40
0.593750000000015
40
0.625000000000014
40
0.625000000000014
40
0.656250000000013
40
0.656250000000013
40
0.687500000000012
40
0.687500000000012
40
0.71875000000001
40
0.71875000000001
40
0.750000000000009
40
0.750000000000009
40
0.781250000000008
40
0.781250000000008
40
0.812500000000007
40
0.812500000000007
40
0.843750000000006
40
0.843750000000006
40
0.875000000000005
40
0.875000000000005
40
0.906250000000004
40
0.906250000000004
40
0.937500000000002
40
0.937500000000002
40
0.968750000000001
40
0.968750000000001
40
1
40
1
40
1
40
1
41
1
10
90.5
20
-9.05548051550022
30
0
41
1
10
90.5684420909676
20
-9.31095894604229
30
0
41
1
10
90.636884181935
20
-9.54217442431099
30
0
41
1
10
90.7737683638701
20
-9.9530929709035
30
0
41
1
10
90.8422104548376
20
-10.1327990645711
30
0
41
1
10
90.9790946367727
20
-10.4401348064372
30
0
41
1
10
91.0475367277402
20
-10.5677751394561
30
0
41
1
10
91.1844209096752
20
-10.7726370413455
30
0
41
1
10
91.2528630006427
20
-10.849874257321
30
0
41
1
10
91.3897471825778
20
-10.9574031311034
30
0
41
1
10
91.4581892735453
20
-10.98771237423
30
0
41
1
10
91.5437418872547
20
-10.9992445382296
30
0
41
1
10
91.5608524099965
20
-11.0002366122552
30
0
41
1
10
91.5950734554804
20
-10.9996691612742
30
0
41
1
10
91.6464050237059
20
-10.9949694647332
30
0
41
1
10
91.6977365919315
20
-10.9783477042869
30
0
41
1
10
91.8003997283828
20
-10.9282802759171
30
0
41
1
10
91.8688418193504
20
-10.8724268492715
30
0
41
1
10
92.0057260012854
20
-10.7116840395736
30
0
41
1
10
92.0741680922529
20
-10.6067777841411
30
0
41
1
10
92.211052274188
20
-10.3453987227012
30
0
41
1
10
92.2794943651554
20
-10.1889126536709
30
0
41
1
10
92.4163785470905
20
-9.82389737419101
30
0
41
1
10
92.484820638058
20
-9.61536145581593
30
0
41
1
10
92.621704819993
20
-9.14813456905014
30
0
41
1
10
92.6901469109605
20
-8.88944559632819
30
0
41
1
10
92.8270310928956
20
-8.32624322088651
30
0
41
1
10
92.895473183863
20
-8.02174110435803
30
0
41
1
10
93.0323573657981
20
-7.37348683640914
30
0
41
1
10
93.1007994567656
20
-7.02975391747731
30
0
41
1
10
93.2376836387007
20
-6.31139132141143
30
0
41
1
10
93.3061257296682
20
-5.93678578851652
30
0
41
1
10
93.4430099116032
20
-5.16614632928685
30
0
41
1
10
93.5114520025708
20
-4.770137534366
30
0
41
1
10
93.6483361845058
20
-3.96652022578567
30
0
41
1
10
93.7167782754733
20
-3.55893406353584
30
0
41
1
10
93.8536624574083
20
-2.7416247184934
30
0
41
1
10
93.9221045483758
20
-2.33191838461957
30
0
41
1
10
94.0589887303108
20
-1.51886808553729
30
0
41
1
10
94.1274308212784
20
-1.1155342271995
30
0
41
1
10
94.2300939577297
20
-0.52065147484538
30
0
41
1
10
94.2643150032134
20
-0.324031950463137
30
0
41
1
10
94.3156465714391
20
-0.0321723027720395
30
0
41
1
10
94.3327570941809
20
0.0644072627203798
30
0
41
1
10
94.3669781396646
20
0.259205513698077
30
0
41
1
10
94.3840886624066
20
0.357110647159857
30
0
41
1
10
94.469641276116
20
0.848940097362231
30
0
41
1
10
94.5380833670833
20
1.24983609161393
30
0
41
1
10
94.6749675490185
20
2.05972113082862
30
0
41
1
10
94.7434096399861
20
2.46870158677581
30
0
41
1
10
94.8802938219211
20
3.28654661432813
30
0
41
1
10
94.9487359128885
20
3.69539578280185
30
0
41
1
10
95.0856200948236
20
4.50369592517467
30
0
41
1
10
95.1540621857911
20
4.90312558463182
30
0
41
1
10
95.2909463677262
20
5.68278680988112
30
0
41
1
10
95.3593884586937
20
6.06299356204514
30
0
41
1
10
95.4962726406287
20
6.79459423822067
30
0
41
1
10
95.5647147315962
20
7.14596344827143
30
0
41
1
10
95.7015989135313
20
7.81121725017479
30
0
41
1
10
95.7700410044987
20
8.12508120840405
30
0
41
1
10
95.9069251864339
20
8.70829125262713
30
0
41
1
10
95.9753672774013
20
8.97762410189239
30
0
41
1
10
96.1122514593363
20
9.46689704514841
30
0
41
1
10
96.1806935503038
20
9.68683306273766
30
0
41
1
10
96.317577732239
20
10.0748606127837
30
0
41
1
10
96.3860198232064
20
10.242957059273
30
0
41
1
10
96.5229040051415
20
10.5272618380855
30
0
41
1
10
96.591346096109
20
10.6434822163007
30
0
41
1
10
96.728230278044
20
10.8261363770299
30
0
41
1
10
96.7966723690115
20
10.8925864944993
30
0
41
1
10
96.9335565509466
20
10.9795094886065
30
0
41
1
10
97.0019986419139
20
11
30
0
41
1
10
97.0704407328815
20
11
30
0
0
SPLINE
5
E0
100
AcDbEntity
8
1
62
256
6
ByLayer
370
13
48
1
60
0
100
AcDbSpline
70
4
71
3
72
64
73
60
40
0
40
0
40
0
40
0
40
0.0625000000000003
40
0.0625000000000003
40
0.125000000000001
40
0.125000000000001
40
0.156250000000001
40
0.156250000000001
40
0.187500000000001
40
0.187500000000001
40
0.218750000000001
40
0.218750000000001
40
0.250000000000001
40
0.250000000000001
40
0.281250000000001
40
0.281250000000001
40
0.312500000000001
40
0.312500000000001
40
0.343750000000001
40
0.343750000000001
40
0.375000000000001
40
0.375000000000001
40
0.406250000000001
40
0.406250000000001
40
0.437500000000001
40
0.437500000000001
40
0.500000000000001
40
0.500000000000001
40
0.531250000000001
40
0.531250000000001
40
0.546875000000001
40
0.546875000000001
40
0.562500000000001
40
0.562500000000001
40
0.625000000000001
40
0.625000000000001
40
0.656250000000001
40
0.656250000000001
40
0.687500000000001
40
0.687500000000001
40
0.718750000000001
40
0.718750000000001
40
0.750000000000001
40
0.750000000000001
40
0.781250000000001
40
0.781250000000001
40
0.812500000000001
40
0.812500000000001
40
0.84375
40
0.84375
40
0.875
40
0.875
40
0.90625
40
0.90625
40
0.9375
40
0.9375
40
0.96875
40
0.96875
40
1
40
1
40
1
40
1
41
1
10
96.4011835364919
20
11
30
0
41
1
10
96.5073323674623
20
11
30
0
41
1
10
96.6134811984327
20
10.9505623098751
30
0
41
1
10
96.8257788603735
20
10.735393729141
30
0
41
1
10
96.931927691344
20
10.5695095852368
30
0
41
1
10
97.0911509377996
20
10.2265444722934
30
0
41
1
10
97.1442253532848
20
10.0966147297952
30
0
41
1
10
97.2503741842552
20
9.80555170872094
30
0
41
1
10
97.3034485997405
20
9.6444167598095
30
0
41
1
10
97.4095974307108
20
9.29181199425886
30
0
41
1
10
97.462671846196
20
9.1003424082335
30
0
41
1
10
97.5688206771665
20
8.68882239904269
30
0
41
1
10
97.6218950926516
20
8.46877424868316
30
0
41
1
10
97.7280439236221
20
8.00269927196626
30
0
41
1
10
97.7811183391073
20
7.75667664860586
30
0
41
1
10
97.8872671700777
20
7.24200518760617
30
0
41
1
10
97.940341585563
20
6.97336211920972
30
0
41
1
10
98.0464904165333
20
6.41740129732847
30
0
41
1
10
98.0995648320185
20
6.13009031604054
30
0
41
1
10
98.205713662989
20
5.54115378919877
30
0
41
1
10
98.2587880784741
20
5.23953534881417
30
0
41
1
10
98.3649369094446
20
4.62654178699154
30
0
41
1
10
98.4180113249298
20
4.31517343694992
30
0
41
1
10
98.5241601559002
20
3.68722500181792
30
0
41
1
10
98.5772345713854
20
3.37065079144736
30
0
41
1
10
98.736457817841
20
2.41962094034613
30
0
41
1
10
98.8426066488115
20
1.78411138347951
30
0
41
1
10
99.0018298952671
20
0.851020804259036
30
0
41
1
10
99.0549043107522
20
0.543294252588822
30
0
41
1
10
99.1345159339801
20
0.088868362758376
30
0
41
1
10
99.1610531417227
20
-0.0607093720926457
30
0
41
1
10
99.2141275572079
20
-0.36336250496808
30
0
41
1
10
99.2406647649505
20
-0.515888928847687
30
0
41
1
10
99.3733508036636
20
-1.28365029155995
30
0
41
1
10
99.479499634634
20
-1.91460362184509
30
0
41
1
10
99.6387228810896
20
-2.86532676588712
30
0
41
1
10
99.6917972965748
20
-3.18288183882851
30
0
41
1
10
99.7979461275452
20
-3.81513254329687
30
0
41
1
10
99.8510205430304
20
-4.1298229473949
30
0
41
1
10
99.9571693740008
20
-4.75188832416137
30
0
41
1
10
100.010243789486
20
-5.0592569414957
30
0
41
1
10
100.116392620456
20
-5.66210360551807
30
0
41
1
10
100.169467035942
20
-5.95757464583971
30
0
41
1
10
100.275615866912
20
-6.53213433175878
30
0
41
1
10
100.328690282397
20
-6.81121594249947
30
0
41
1
10
100.434839113368
20
-7.34880141826432
30
0
41
1
10
100.487913528853
20
-7.60729890190021
30
0
41
1
10
100.594062359823
20
-8.10002116175758
30
0
41
1
10
100.647136775308
20
-8.33424084327669
30
0
41
1
10
100.753285606279
20
-8.77538744151238
30
0
41
1
10
100.806360021764
20
-8.9823110295664
30
0
41
1
10
100.912508852735
20
-9.3666483194643
30
0
41
1
10
100.96558326822
20
-9.54406070802477
30
0
41
1
10
101.07173209919
20
-9.8680317733774
30
0
41
1
10
101.124806514675
20
-10.0145911425378
30
0
41
1
10
101.230955345646
20
-10.2763946699435
30
0
41
1
10
101.284029761131
20
-10.3916412798036
30
0
41
1
10
101.390178592101
20
-10.5911917928649
30
0
41
1
10
101.443253007587
20
-10.6754994876562
30
0
41
1
10
101.496327423072
20
-10.7448913770933
30
0
0
SPLINE
5
E1
100
AcDbEntity
8
1
62
256
6
ByLayer
370
13
48
1
60
0
100
AcDbSpline
70
4
71
3
72
77
73
73
40
0
40
0
40
0
40
0
40
0.0312500000000008
40
0.0312500000000008
40
0.0625000000000017
40
0.0625000000000017
40
0.0937500000000025
40
0.0937500000000025
40
0.101562500000003
40
0.101562500000003
40
0.109375000000003
40
0.125000000000003
40
0.125000000000003
40
0.156250000000004
40
0.156250000000004
40
0.187500000000004
40
0.187500000000004
40
0.218750000000005
40
0.218750000000005
40
0.250000000000005
40
0.250000000000005
40
0.281250000000006
40
0.281250000000006
40
0.312500000000006
40
0.312500000000006
40
0.343750000000007
40
0.343750000000007
40
0.375000000000007
40
0.375000000000007
40
0.406250000000007
40
0.406250000000007
40
0.437500000000008
40
0.437500000000008
40
0.468750000000008
40
0.468750000000008
40
0.500000000000009
40
0.500000000000009
40
0.531250000000009
40
0.531250000000009
40
0.546875000000009
40
0.546875000000009
40
0.55468750000001
40
0.55468750000001
40
0.56250000000001
40
0.56250000000001
40
0.593750000000009
40
0.593750000000009
40
0.625000000000008
40
0.625000000000008
40
0.656250000000007
40
0.656250000000007
40
0.687500000000007
40
0.687500000000007
40
0.718750000000006
40
0.718750000000006
40
0.750000000000005
40
0.750000000000005
40
0.781250000000005
40
0.781250000000005
40
0.812500000000004
40
0.812500000000004
40
0.843750000000003
40
0.843750000000003
40
0.875000000000003
40
0.875000000000003
40
0.906250000000002
40
0.906250000000002
40
0.937500000000001
40
0.937500000000001
40
0.968750000000001
40
0.968750000000001
40
1
40
1
40
1
40
1
41
1
10
90.5
20
-10.4564626936645
30
0
41
1
10
90.5633195362916
20
-10.5797302386536
30
0
41
1
10
90.6266390725832
20
-10.6809067067535
30
0
41
1
10
90.7532781451663
20
-10.8409280715795
30
0
41
1
10
90.8165976814579
20
-10.8997842262834
30
0
41
1
10
90.9432367540412
20
-10.9782481342773
30
0
41
1
10
91.0065562903326
20
-10.997867849731
30
0
41
1
10
91.0857057106971
20
-11.0003267556523
30
0
41
1
10
91.10153559477
20
-10.9997258066322
30
0
41
1
10
91.1331953629159
20
-10.9962895674501
30
0
41
1
10
91.1806850151344
20
-10.9877766339299
30
0
41
1
10
91.2281746673531
20
-10.968896095335
30
0
41
1
10
91.3231539717906
20
-10.9165931625189
30
0
41
1
10
91.3864735080822
20
-10.8623030843738
30
0
41
1
10
91.5131125806653
20
-10.7117053741803
30
0
41
1
10
91.576432116957
20
-10.6153863227576
30
0
41
1
10
91.7030711895401
20
-10.3787052712827
30
0
41
1
10
91.7663907258317
20
-10.2383340826779
30
0
41
1
10
91.8930297984148
20
-9.91301247479723
30
0
41
1
10
91.9563493347064
20
-9.72805682669107
30
0
41
1
10
92.0829884072896
20
-9.31474196687597
30
0
41
1
10
92.1463079435812
20
-9.08638282865155
30
0
41
1
10
92.2729470161643
20
-8.5892305785037
30
0
41
1
10
92.3362665524559
20
-8.32044340036788
30
0
41
1
10
92.4629056250391
20
-7.74710972150535
30
0
41
1
10
92.5262251613307
20
-7.4425745485666
30
0
41
1
10
92.6528642339139
20
-6.80386281310891
30
0
41
1
10
92.7161837702055
20
-6.46970151251961
30
0
41
1
10
92.8428228427886
20
-5.77889334381928
30
0
41
1
10
92.9061423790802
20
-5.42226353345936
30
0
41
1
10
93.0327814516633
20
-4.69421849172798
30
0
41
1
10
93.096100987955
20
-4.32281979565289
30
0
41
1
10
93.2227400605381
20
-3.57296860224383
30
0
41
1
10
93.2860595968297
20
-3.19453012993637
30
0
41
1
10
93.4126986694127
20
-2.43789683920855
30
0
41
1
10
93.4760182057043
20
-2.05971223892996
30
0
41
1
10
93.6026572782876
20
-1.31008202879153
30
0
41
1
10
93.6659768145792
20
-0.938642352071042
30
0
41
1
10
93.7609561190166
20
-0.390624456928862
30
0
41
1
10
93.7926158871623
20
-0.209466735449979
30
0
41
1
10
93.840105539381
20
0.0595682949601724
30
0
41
1
10
93.8559354234538
20
0.149331842031955
30
0
41
1
10
93.8875951915996
20
0.330042795258237
30
0
41
1
10
93.9034250756725
20
0.420821289617464
30
0
41
1
10
93.982574496037
20
0.876646863173818
30
0
41
1
10
94.0458940323286
20
1.2475373893528
30
0
41
1
10
94.1725331049118
20
1.99640323227467
30
0
41
1
10
94.2358526412033
20
2.37437285428155
30
0
41
1
10
94.3624917137865
20
3.13096345003251
30
0
41
1
10
94.4258112500781
20
3.50957444044042
30
0
41
1
10
94.5524503226613
20
4.26019429971808
30
0
41
1
10
94.6157698589528
20
4.63218932994124
30
0
41
1
10
94.742408931536
20
5.36186357976368
30
0
41
1
10
94.8057284678276
20
5.71952635728147
30
0
41
1
10
94.9323675404108
20
6.41282209068567
30
0
41
1
10
94.9956870767023
20
6.74843795772469
30
0
41
1
10
95.1223261492855
20
7.39043669454742
30
0
41
1
10
95.1856456855771
20
7.69680414122107
30
0
41
1
10
95.3122847581603
20
8.27411051205024
30
0
41
1
10
95.3756042944519
20
8.54503784134977
30
0
41
1
10
95.5022433670351
20
9.04668939848895
30
0
41
1
10
95.5655629033266
20
9.27740736825734
30
0
41
1
10
95.6922019759098
20
9.69555941782497
30
0
41
1
10
95.7555215122014
20
9.88299310188791
30
0
41
1
10
95.8821605847846
20
10.2132904228546
30
0
41
1
10
95.9454801210761
20
10.3561590215312
30
0
41
1
10
96.0721191936592
20
10.5977632749204
30
0
41
1
10
96.1354387299508
20
10.6965079405351
30
0
41
1
10
96.262077802534
20
10.851809409736
30
0
41
1
10
96.3253973388256
20
10.9083775547303
30
0
41
1
10
96.4520364114087
20
10.9824668720813
30
0
41
1
10
96.5153559477004
20
11
30
0
41
1
10
96.5786754839919
20
11
30
0
0
SPLINE
5
E2
100
AcDbEntity
8
1
62
256
6
ByLayer
370
13
48
1
60
0
100
AcDbSpline
70
4
71
3
72
74
73
70
40
0
40
0
40
0
40
0
40
0.0312500000000001
40
0.0312500000000001
40
0.0625000000000002
40
0.0625000000000002
40
0.0937500000000003
40
0.0937500000000003
40
0.125
40
0.125
40
0.156250000000001
40
0.156250000000001
40
0.187500000000001
40
0.187500000000001
40
0.218750000000001
40
0.218750000000001
40
0.250000000000001
40
0.250000000000001
40
0.281250000000001
40
0.281250000000001
40
0.312500000000001
40
0.312500000000001
40
0.343750000000001
40
0.343750000000001
40
0.375000000000001
40
0.375000000000001
40
0.406250000000001
40
0.406250000000001
40
0.437500000000001
40
0.437500000000001
40
0.468750000000001
40
0.468750000000001
40
0.484375
40
0.484375
40
0.5
40
0.5
40
0.53125
40
0.53125
40
0.5625
40
0.5625
40
0.59375
40
0.59375
40
0.625
40
0.625
40
0.65625
40
0.65625
40
0.6875
40
0.6875
40
0.71875
40
0.71875
40
0.75
40
0.75
40
0.78125
40
0.78125
40
0.8125
40
0.8125
40
0.84375
40
0.84375
40
0.875
40
0.875
40
0.90625
40
0.90625
40
0.9375
40
0.9375
40
0.96875
40
0.96875
40
0.984375
40
0.984375
40
1
40
1
40
1
40
1
41
1
10
95.9094182876023
20
11
30
0
41
1
10
95.9676152577634
20
11
30
0
41
1
10
96.0258122279245
20
10.9851927421736
30
0
41
1
10
96.1422061682467
20
10.9228700647421
30
0
41
1
10
96.200403138408
20
10.8753468086106
30
0
41
1
10
96.3167970787302
20
10.7450605280864
30
0
41
1
10
96.3749940488914
20
10.6622899189211
30
0
41
1
10
96.4913879892136
20
10.4597885327957
30
0
41
1
10
96.5495849593748
20
10.3400513584909
30
0
41
1
10
96.6659788996972
20
10.0629211566356
30
0
41
1
10
96.7241758698583
20
9.90552389540153
30
0
41
1
10
96.8405698101805
20
9.55356578042358
30
0
41
1
10
96.8987667803416
20
9.35900368596882
30
0
41
1
10
97.015160720664
20
8.93448122049784
30
0
41
1
10
97.073357690825
20
8.70452308729986
30
0
41
1
10
97.1897516311474
20
8.21223343044673
30
0
41
1
10
97.2479486013085
20
7.94990761718117
30
0
41
1
10
97.3643425416308
20
7.3970472861489
30
0
41
1
10
97.4225395117919
20
7.10652140889951
30
0
41
1
10
97.5389334521143
20
6.50234755107553
30
0
41
1
10
97.5971304222754
20
6.18871014516335
30
0
41
1
10
97.7135243625976
20
5.54402927035613
30
0
41
1
10
97.7717213327588
20
5.2129970539165
30
0
41
1
10
97.888115273081
20
4.53953959148277
30
0
41
1
10
97.9463122432422
20
4.19712500650675
30
0
41
1
10
98.0627061835645
20
3.50687928218179
30
0
41
1
10
98.1209031537256
20
3.15905716031636
30
0
41
1
10
98.237297094048
20
2.46363728845566
30
0
41
1
10
98.295494064209
20
2.11604623065736
30
0
41
1
10
98.4118880045313
20
1.42615594668919
30
0
41
1
10
98.4700849746925
20
1.08386082560082
30
0
41
1
10
98.5573804299343
20
0.577635565613917
30
0
41
1
10
98.5864789150148
20
0.410090598563727
30
0
41
1
10
98.644675885176
20
0.0778586768122693
30
0
41
1
10
98.6737743702565
20
-0.0860900259417861
30
0
41
1
10
98.7610698254982
20
-0.584579924949679
30
0
41
1
10
98.8192667956594
20
-0.922633628688033
30
0
41
1
10
98.9356607359816
20
-1.60626734553867
30
0
41
1
10
98.9938577061428
20
-1.9518445037931
30
0
41
1
10
99.110251646465
20
-2.64580930289668
30
0
41
1
10
99.1684486166262
20
-2.99419151616397
30
0
41
1
10
99.2848425569484
20
-3.6883872460387
30
0
41
1
10
99.3430395271096
20
-4.03419282945626
30
0
41
1
10
99.4594334674319
20
-4.71739381945173
30
0
41
1
10
99.5176304375931
20
-5.05477926224808
30
0
41
1
10
99.6340243779153
20
-5.71510692174019
30
0
41
1
10
99.6922213480765
20
-6.03803802695307
30
0
41
1
10
99.8086152883988
20
-6.66355234036277
30
0
41
1
10
99.8668122585598
20
-6.966124476885
30
0
41
1
10
99.9832061988822
20
-7.54548216054985
30
0
41
1
10
100.041403169043
20
-7.82225797002101
30
0
41
1
10
100.157797109366
20
-8.34536746553485
30
0
41
1
10
100.215994079527
20
-8.59169390106445
30
0
41
1
10
100.332388019849
20
-9.05029134060496
30
0
41
1
10
100.39058499001
20
-9.26255836485626
30
0
41
1
10
100.506978930332
20
-9.65063696883615
30
0
41
1
10
100.565175900494
20
-9.82644811151471
30
0
41
1
10
100.681569840816
20
-10.1404950275514
30
0
41
1
10
100.739766810977
20
-10.278733649578
30
0
41
1
10
100.856160751299
20
-10.5177580376768
30
0
41
1
10
100.91435772146
20
-10.6185492548636
30
0
41
1
10
101.030751661783
20
-10.78391629389
30
0
41
1
10
101.088948631944
20
-10.8484992400294
30
0
41
1
10
101.205342572266
20
-10.9436097487417
30
0
41
1
10
101.263539542427
20
-10.9741451322964
30
0
41
1
10
101.350834997669
20
-10.9965476288409
30
0
41
1
10
101.379933482749
20
-11.0001198179172
30
0
41
1
10
101.438130452911
20
-10.9998740600067
30
0
41
1
10
101.467228937991
20
-10.9960494751343
30
0
41
1
10
101.496327423072
20
-10.9883230236012
30
0
0
SPLINE
5
E3
100
AcDbEntity
8
1
62
256
6
ByLayer
370
13
48
1
60
0
100
AcDbSpline
70
4
71
3
72
74
73
70
40
0
40
0
40
0
40
0
40
0.0156249999999998
40
0.0156249999999998
40
0.0312499999999996
40
0.0312499999999996
40
0.0624999999999996
40
0.0624999999999996
40
0.0937499999999996
40
0.0937499999999996
40
0.125
40
0.125
40
0.15625
40
0.15625
40
0.1875
40
0.1875
40
0.21875
40
0.21875
40
0.25
40
0.25
40
0.28125
40
0.28125
40
0.3125
40
0.3125
40
0.34375
40
0.34375
40
0.374999999999999
40
0.374999999999999
40
0.406249999999999
40
0.406249999999999
40
0.437499999999999
40
0.437499999999999
40
0.468749999999999
40
0.468749999999999
40
0.499999999999999
40
0.499999999999999
40
0.515624999999999
40
0.515624999999999
40
0.531249999999999
40
0.531249999999999
40
0.5625
40
0.5625
40
0.59375
40
0.59375
40
0.625
40
0.625
40
0.65625
40
0.65625
40
0.6875
40
0.6875
40
0.71875
40
0.71875
40
0.75
40
0.75
40
0.78125
40
0.78125
40
0.8125
40
0.8125
40
0.84375
40
0.84375
40
0.875
40
0.875
40
0.90625
40
0.90625
40
0.9375
40
0.9375
40
0.96875
40
0.96875
40
1
40
1
40
1
40
1
41
1
10
90.5000000000001
20
-10.9883227316165
30
0
41
1
10
90.5290984908079
20
-10.9960492829442
30
0
41
1
10
90.5581969816157
20
-10.999873963634
30
0
41
1
10
90.6163939632313
20
-11.0001199051445
30
0
41
1
10
90.6454924540391
20
-10.9965478086417
30
0
41
1
10
90.7327879264626
20
-10.9741455928248
30
0
41
1
10
90.7909849080783
20
-10.9436103997981
30
0
41
1
10
90.9073788713096
20
-10.8485002737646
30
0
41
1
10
90.9655758529252
20
-10.783917519767
30
0
41
1
10
91.0819698161566
20
-10.6185508606635
30
0
41
1
10
91.1401667977722
20
-10.5177598312439
30
0
41
1
10
91.2565607610035
20
-10.2787358078311
30
0
41
1
10
91.3147577426191
20
-10.140497362706
30
0
41
1
10
91.4311517058504
20
-9.82645078310335
30
0
41
1
10
91.4893486874661
20
-9.65063979993849
30
0
41
1
10
91.6057426506974
20
-9.26256149161179
30
0
41
1
10
91.663939632313
20
-9.05029460348254
30
0
41
1
10
91.7803335955444
20
-8.59169740787678
30
0
41
1
10
91.83853057716
20
-8.34537108014655
30
0
41
1
10
91.9549245403912
20
-7.82226176852927
30
0
41
1
10
92.0131215220069
20
-7.54548603514843
30
0
41
1
10
92.1295154852381
20
-6.96612847042175
30
0
41
1
10
92.1877124668538
20
-6.66355637674806
30
0
41
1
10
92.3041064300851
20
-6.03804211620022
30
0
41
1
10
92.3623034117007
20
-5.71511102100845
30
0
41
1
10
92.478697374932
20
-5.05478335094608
30
0
41
1
10
92.5368943565477
20
-4.71739788757174
30
0
41
1
10
92.6532883197791
20
-4.03419682951969
30
0
41
1
10
92.7114853013946
20
-3.68839119863986
30
0
41
1
10
92.8278792646259
20
-2.99419535168636
30
0
41
1
10
92.8860762462417
20
-2.64581306881908
30
0
41
1
10
93.0024702094729
20
-1.95184811363879
30
0
41
1
10
93.0606671910886
20
-1.60627086892222
30
0
41
1
10
93.17706115432
20
-0.922636967604689
30
0
41
1
10
93.2352581359355
20
-0.584583165872772
30
0
41
1
10
93.3225536083589
20
-0.08609311496798
30
0
41
1
10
93.3516520991668
20
0.0778556208512668
30
0
41
1
10
93.4098490807824
20
0.410087573170102
30
0
41
1
10
93.4389475715903
20
0.577632557404996
30
0
41
1
10
93.5262430440138
20
1.08385787470524
30
0
41
1
10
93.5844400256294
20
1.42615304170886
30
0
41
1
10
93.7008339888607
20
2.11604343261163
30
0
41
1
10
93.7590309704763
20
2.46363455143236
30
0
41
1
10
93.8754249337076
20
3.15905455922677
30
0
41
1
10
93.9336219153233
20
3.50687675600335
30
0
41
1
10
94.0500158785546
20
4.19712264185844
30
0
41
1
10
94.1082128601702
20
4.53953731344942
30
0
41
1
10
94.2246068234015
20
5.21299495773434
30
0
41
1
10
94.2828038050172
20
5.54402726940225
30
0
41
1
10
94.3991977682485
20
6.18870833947457
30
0
41
1
10
94.4573947498642
20
6.50234584541252
30
0
41
1
10
94.5737887130954
20
7.10651990384744
30
0
41
1
10
94.6319856947111
20
7.3970458816693
30
0
41
1
10
94.7483796579425
20
7.94990641008425
30
0
41
1
10
94.806576639558
20
8.21223232014768
30
0
41
1
10
94.9229706027894
20
8.70452216282533
30
0
41
1
10
94.9811675844051
20
8.93448038503979
30
0
41
1
10
95.0975615476362
20
9.35900301742188
30
0
41
1
10
95.1557585292519
20
9.55356518976481
30
0
41
1
10
95.2721524924831
20
9.90552344695794
30
0
41
1
10
95.3303494740988
20
10.062920772517
30
0
41
1
10
95.4467434373301
20
10.3400510880619
30
0
41
1
10
95.5049404189458
20
10.4597883117336
30
0
41
1
10
95.621334382177
20
10.6622897812707
30
0
41
1
10
95.6795313637929
20
10.7450604244863
30
0
41
1
10
95.7959253270241
20
10.8753467583507
30
0
41
1
10
95.8541223086397
20
10.9228700337792
30
0
41
1
10
95.970516271871
20
10.9851927363369
30
0
41
1
10
96.0287132534867
20
11
30
0
41
1
10
96.0869102351023
20
11
30
0
0
SPLINE
5
E4
100
AcDbEntity
8
1
62
256
6
ByLayer
370
13
48
1
60
0
100
AcDbSpline
70
4
71
3
72
78
73
74
40
0
40
0
40
0
40
0
40
0.0312500000000002
40
0.0312500000000002
40
0.0625000000000003
40
0.0625000000000003
40
0.0937500000000005
40
0.0937500000000005
40
0.125000000000001
40
0.125000000000001
40
0.156250000000001
40
0.156250000000001
40
0.187500000000001
40
0.187500000000001
40
0.218750000000001
40
0.218750000000001
40
0.250000000000002
40
0.250000000000002
40
0.281250000000002
40
0.281250000000002
40
0.312500000000002
40
0.312500000000002
40
0.343750000000002
40
0.343750000000002
40
0.375000000000002
40
0.375000000000002
40
0.406250000000003
40
0.406250000000003
40
0.437500000000003
40
0.437500000000003
40
0.445312500000003
40
0.445312500000003
40
0.453125000000003
40
0.453125000000003
40
0.468750000000003
40
0.468750000000003
40
0.500000000000002
40
0.500000000000002
40
0.531250000000002
40
0.531250000000002
40
0.562500000000002
40
0.562500000000002
40
0.593750000000001
40
0.593750000000001
40
0.625000000000001
40
0.625000000000001
40
0.656250000000001
40
0.656250000000001
40
0.687500000000001
40
0.687500000000001
40
0.71875
40
0.71875
40
0.75
40
0.75
40
0.78125
40
0.78125
40
0.8125
40
0.8125
40
0.84375
40
0.84375
40
0.875
40
0.875
40
0.890624999999999
40
0.890624999999999
40
0.898437499999999
40
0.898437499999999
40
0.906249999999999
40
0.906249999999999
40
0.9375
40
0.9375
40
0.96875
40
0.96875
40
1
40
1
40
1
40
1
41
1
10
95.4176530387126
20
11
30
0
41
1
10
95.4809725635497
20
11
30
0
41
1
10
95.5442920883868
20
10.9824668784352
30
0
41
1
10
95.670931138061
20
10.9083775885846
30
0
41
1
10
95.734250662898
20
10.8518094647475
30
0
41
1
10
95.8608897125722
20
10.6965080540878
30
0
41
1
10
95.9242092374093
20
10.597763425867
30
0
41
1
10
96.0508482870835
20
10.3561592639407
30
0
41
1
10
96.1141678119204
20
10.2132907193396
30
0
41
1
10
96.2408068615946
20
9.88299352241242
30
0
41
1
10
96.3041263864317
20
9.69555990831432
30
0
41
1
10
96.4307654361058
20
9.27740801242382
30
0
41
1
10
96.4940849609429
20
9.04669012636208
30
0
41
1
10
96.6207240106171
20
8.54503874695479
30
0
41
1
10
96.6840435354541
20
8.27411151166851
30
0
41
1
10
96.8106825851282
20
7.69680533473246
30
0
41
1
10
96.8740021099654
20
7.39043798792224
30
0
41
1
10
97.0006411596396
20
6.74843945165222
30
0
41
1
10
97.0639606844767
20
6.41282368528445
30
0
41
1
10
97.1905997341508
20
5.71952814894786
30
0
41
1
10
97.2539192589878
20
5.36186546781016
30
0
41
1
10
97.380558308662
20
4.63219140183796
30
0
41
1
10
97.4438778334991
20
4.2601964590732
30
0
41
1
10
97.5705168831732
20
3.5095767620619
30
0
41
1
10
97.6338364080103
20
3.13096584645615
30
0
41
1
10
97.7604754576845
20
2.37437538507999
30
0
41
1
10
97.8237949825215
20
1.99640582264587
30
0
41
1
10
97.9504340321957
20
1.24754008230667
30
0
41
1
10
98.0137535570327
20
0.876649599142439
30
0
41
1
10
98.092902963079
20
0.420824068898043
30
0
41
1
10
98.1087328442883
20
0.330045582680953
30
0
41
1
10
98.1403926067068
20
0.149334644705704
30
0
41
1
10
98.1562224879162
20
0.0595710920750037
30
0
41
1
10
98.203712131544
20
-0.209463861369528
30
0
41
1
10
98.2353718939626
20
-0.390621532290282
30
0
41
1
10
98.3303511812181
20
-0.938639279066592
30
0
41
1
10
98.3936707060551
20
-1.31007886127367
30
0
41
1
10
98.5203097557293
20
-2.05970889725703
30
0
41
1
10
98.5836292805664
20
-2.43789341791171
30
0
41
1
10
98.7102683302405
20
-3.19452657060805
30
0
41
1
10
98.7735878550776
20
-3.57296498453007
30
0
41
1
10
98.9002269047518
20
-4.32281608836789
30
0
41
1
10
98.9635464295889
20
-4.69421475328056
30
0
41
1
10
99.090185479263
20
-5.42225976481319
30
0
41
1
10
99.1535050041001
20
-5.77888957615721
30
0
41
1
10
99.2801440537743
20
-6.46969778214668
30
0
41
1
10
99.3434635786113
20
-6.80385911905412
30
0
41
1
10
99.4701026282854
20
-7.44257096341187
30
0
41
1
10
99.5334221531225
20
-7.74710620893509
30
0
41
1
10
99.6600612027967
20
-8.32044006767427
30
0
41
1
10
99.7233807276338
20
-8.58922735309329
30
0
41
1
10
99.8500197773079
20
-9.08637984855392
30
0
41
1
10
99.9133393021449
20
-9.31473912478913
30
0
41
1
10
100.039978351819
20
-9.72805428543049
30
0
41
1
10
100.103297876656
20
-9.91301009632727
30
0
41
1
10
100.22993692633
20
-10.2383320473429
30
0
41
1
10
100.293256451167
20
-10.3787034162659
30
0
41
1
10
100.419895500842
20
-10.6153848381535
30
0
41
1
10
100.483215025679
20
-10.7117040796478
30
0
41
1
10
100.609854075353
20
-10.8623021722095
30
0
41
1
10
100.67317360019
20
-10.9165924426343
30
0
41
1
10
100.768152887445
20
-10.9688956605004
30
0
41
1
10
100.799812649864
20
-10.9814827806934
30
0
41
1
10
100.847302293492
20
-10.9934514800875
30
0
41
1
10
100.863132174701
20
-10.9962894139445
30
0
41
1
10
100.89479193712
20
-10.9997257456774
30
0
41
1
10
100.910621818329
20
-11.0003267402879
30
0
41
1
10
100.989771224375
20
-10.9978680659773
30
0
41
1
10
101.053090749212
20
-10.9782485533663
30
0
41
1
10
101.179729798887
20
-10.8997850846621
30
0
41
1
10
101.243049323724
20
-10.8409291664165
30
0
41
1
10
101.369688373398
20
-10.6809083040648
30
0
41
1
10
101.433007898235
20
-10.5797321019828
30
0
41
1
10
101.496327423072
20
-10.4564648343764
30
0
0
SPLINE
5
E5
100
AcDbEntity
8
1
62
256
6
ByLayer
370
13
48
1
60
0
100
AcDbSpline
70
4
71
3
72
64
73
60
40
0
40
0
40
0
40
0
40
0.0312500000000002
40
0.0312500000000002
40
0.0625000000000005
40
0.0625000000000005
40
0.0937500000000007
40
0.0937500000000007
40
0.125000000000001
40
0.125000000000001
40
0.156250000000001
40
0.156250000000001
40
0.187500000000001
40
0.187500000000001
40
0.218750000000002
40
0.218750000000002
40
0.250000000000002
40
0.250000000000002
40
0.281250000000002
40
0.281250000000002
40
0.312500000000003
40
0.312500000000003
40
0.343750000000003
40
0.343750000000003
40
0.375000000000003
40
0.375000000000003
40
0.437500000000004
40
0.437500000000004
40
0.453125000000004
40
0.453125000000004
40
0.468750000000004
40
0.468750000000004
40
0.500000000000004
40
0.500000000000004
40
0.562500000000004
40
0.562500000000004
40
0.593750000000004
40
0.593750000000004
40
0.625000000000003
40
0.625000000000003
40
0.656250000000003
40
0.656250000000003
40
0.687500000000003
40
0.687500000000003
40
0.718750000000003
40
0.718750000000003
40
0.750000000000003
40
0.750000000000003
40
0.781250000000002
40
0.781250000000002
40
0.812500000000002
40
0.812500000000002
40
0.843750000000002
40
0.843750000000002
40
0.875000000000002
40
0.875000000000002
40
0.937500000000001
40
0.937500000000001
40
1
40
1
40
1
40
1
41
1
10
90.5
20
-10.7448928148007
30
0
41
1
10
90.5530744269397
20
-10.6755011160296
30
0
41
1
10
90.6061488538795
20
-10.5911936104247
30
0
41
1
10
90.7122977077589
20
-10.3916434674653
30
0
41
1
10
90.7653721346986
20
-10.2763970385094
30
0
41
1
10
90.8715209885781
20
-10.0145938591817
30
0
41
1
10
90.9245954155177
20
-9.86803465718228
30
0
41
1
10
91.0307442693972
20
-9.54406390720033
30
0
41
1
10
91.0838186963369
20
-9.36665166683673
30
0
41
1
10
91.1899675502164
20
-8.98231464978758
30
0
41
1
10
91.2430419771561
20
-8.77539118637443
30
0
41
1
10
91.3491908310355
20
-8.33424481027222
30
0
41
1
10
91.4022652579752
20
-8.10002522623805
30
0
41
1
10
91.5084141118547
20
-7.60730313187503
30
0
41
1
10
91.5614885387943
20
-7.34880571624532
30
0
41
1
10
91.6676373926738
20
-6.81122034613423
30
0
41
1
10
91.7207118196135
20
-6.53213877304265
30
0
41
1
10
91.8268606734929
20
-5.95757913265049
30
0
41
1
10
91.8799351004326
20
-5.66210810021264
30
0
41
1
10
91.9860839543121
20
-5.05926142412955
30
0
41
1
10
92.0391583812518
20
-4.75189278686005
30
0
41
1
10
92.1453072351311
20
-4.12982734545966
30
0
41
1
10
92.1983816620709
20
-3.81513689667412
30
0
41
1
10
92.3045305159503
20
-3.18288608193936
30
0
41
1
10
92.35760494289
20
-2.86533094343065
30
0
41
1
10
92.5168282237091
20
-1.91460757784853
30
0
41
1
10
92.6229770775886
20
-1.2836540668666
30
0
41
1
10
92.755663144938
20
-0.515892458869189
30
0
41
1
10
92.7822003584079
20
-0.363365984954186
30
0
41
1
10
92.8352747853475
20
-0.0607127505521987
30
0
41
1
10
92.8618119988173
20
0.0888650129836606
30
0
41
1
10
92.9414236392269
20
0.543290948582097
30
0
41
1
10
92.9944980661666
20
0.851017537715535
30
0
41
1
10
93.1537213469858
20
1.78410825035647
30
0
41
1
10
93.2598702008652
20
2.41961792457829
30
0
41
1
10
93.4190934816843
20
3.37064798905956
30
0
41
1
10
93.472167908624
20
3.68722227669124
30
0
41
1
10
93.5783167625035
20
4.31517087665299
30
0
41
1
10
93.6313911894432
20
4.62653931425999
30
0
41
1
10
93.7375400433226
20
5.23953305888509
30
0
41
1
10
93.7906144702623
20
5.54115159450114
30
0
41
1
10
93.8967633241418
20
6.13008831630137
30
0
41
1
10
93.9498377510815
20
6.41739939730866
30
0
41
1
10
94.055986604961
20
6.97336041960935
30
0
41
1
10
94.1090610319006
20
7.24200358869706
30
0
41
1
10
94.21520988578
20
7.75667524845542
30
0
41
1
10
94.2682843127199
20
8.00269796987448
30
0
41
1
10
94.3744331665993
20
8.46877313665817
30
0
41
1
10
94.427507593539
20
8.68882137901824
30
0
41
1
10
94.5336564474184
20
9.10034156316064
30
0
41
1
10
94.586730874358
20
9.29181123213158
30
0
41
1
10
94.6928797282375
20
9.64441615215327
30
0
41
1
10
94.7459541551772
20
9.80555117258729
30
0
41
1
10
94.8521030090567
20
10.0966143236715
30
0
41
1
10
94.9051774359964
20
10.2265441246569
30
0
41
1
10
95.0644007168154
20
10.569509392286
30
0
41
1
10
95.170549570695
20
10.7353936112868
30
0
41
1
10
95.3828472784537
20
10.9505622884164
30
0
41
1
10
95.4889961323333
20
11
30
0
41
1
10
95.5951449862127
20
11
30
0
0
SPLINE
5
E6
100
AcDbEntity
8
1
62
256
6
ByLayer
370
13
48
1
60
0
100
AcDbSpline
70
4
71
3
72
78
73
74
40
0
40
0
40
0
40
0
40
0.0312499999999988
40
0.0312499999999988
40
0.0624999999999977
40
0.0624999999999977
40
0.0937499999999966
40
0.0937499999999966
40
0.124999999999995
40
0.124999999999995
40
0.156249999999994
40
0.156249999999994
40
0.187499999999993
40
0.187499999999993
40
0.218749999999992
40
0.218749999999992
40
0.249999999999991
40
0.249999999999991
40
0.28124999999999
40
0.28124999999999
40
0.312499999999989
40
0.312499999999989
40
0.343749999999988
40
0.343749999999988
40
0.374999999999986
40
0.374999999999986
40
0.406249999999985
40
0.406249999999985
40
0.414062499999985
40
0.414062499999985
40
0.421874999999985
40
0.421874999999985
40
0.437499999999985
40
0.437499999999985
40
0.468749999999986
40
0.468749999999986
40
0.499999999999986
40
0.499999999999986
40
0.531249999999986
40
0.531249999999986
40
0.562499999999987
40
0.562499999999987
40
0.593749999999987
40
0.593749999999987
40
0.624999999999987
40
0.624999999999987
40
0.656249999999988
40
0.656249999999988
40
0.687499999999988
40
0.687499999999988
40
0.718749999999989
40
0.718749999999989
40
0.749999999999989
40
0.749999999999989
40
0.78124999999999
40
0.78124999999999
40
0.81249999999999
40
0.81249999999999
40
0.82812499999999
40
0.82812499999999
40
0.83593749999999
40
0.83593749999999
40
0.843749999999991
40
0.843749999999991
40
0.874999999999992
40
0.874999999999992
40
0.906249999999994
40
0.906249999999994
40
0.937499999999996
40
0.937499999999996
40
0.968749999999998
40
0.968749999999998
40
1
40
1
40
1
40
1
41
1
10
94.925887789823
20
11
30
0
41
1
10
94.9943298693361
20
11
30
0
41
1
10
95.0627719488491
20
10.9795094954787
30
0
41
1
10
95.1996561078751
20
10.8925865312696
30
0
41
1
10
95.2680981873881
20
10.8261364368408
30
0
41
1
10
95.4049823464141
20
10.6434823399044
30
0
41
1
10
95.4734244259271
20
10.527262002454
30
0
41
1
10
95.6103085849531
20
10.2429573231371
30
0
41
1
10
95.6787506644661
20
10.0748609353858
30
0
41
1
10
95.8156348234921
20
9.68683351942167
30
0
41
1
10
95.8840769030052
20
9.46689757717499
30
0
41
1
10
96.0209610620312
20
8.97762479814068
30
0
41
1
10
96.0894031415442
20
8.70829203774332
30
0
41
1
10
96.2262873005702
20
8.12508218020233
30
0
41
1
10
96.2947293800831
20
7.81121831976756
30
0
41
1
10
96.4316135391093
20
7.14596471676091
30
0
41
1
10
96.5000556186222
20
6.79459560778812
30
0
41
1
10
96.6369397776483
20
6.0629951310641
30
0
41
1
10
96.7053818571612
20
5.68278847725011
30
0
41
1
10
96.8422660161873
20
4.90312744034551
30
0
41
1
10
96.9107080957003
20
4.50369787086507
30
0
41
1
10
97.0475922547263
20
3.69539789543862
30
0
41
1
10
97.1160343342393
20
3.28654880392506
30
0
41
1
10
97.2529184932654
20
2.46870391405429
30
0
41
1
10
97.3213605727783
20
2.05972351882781
30
0
41
1
10
97.4582447318043
20
1.2498385831565
30
0
41
1
10
97.5266868113173
20
0.848942631733905
30
0
41
1
10
97.6122394107086
20
0.35711322376855
30
0
41
1
10
97.629349930587
20
0.25920809819246
30
0
41
1
10
97.6635709703435
20
0.0644098618721785
30
0
41
1
10
97.6806814902217
20
-0.0321696906094928
30
0
41
1
10
97.7320130498564
20
-0.324029261769368
30
0
41
1
10
97.7662340896129
20
-0.520648736011481
30
0
41
1
10
97.8688972088824
20
-1.1155313418345
30
0
41
1
10
97.9373392883955
20
-1.51886510765593
30
0
41
1
10
98.0742234474214
20
-2.33191523923568
30
0
41
1
10
98.1426655269345
20
-2.74162149814904
30
0
41
1
10
98.2795496859604
20
-3.55893071818289
30
0
41
1
10
98.3479917654735
20
-3.96651683041574
30
0
41
1
10
98.4848759244995
20
-4.77013407054918
30
0
41
1
10
98.5533180040125
20
-5.16614284707117
30
0
41
1
10
98.6902021630384
20
-5.9367823060999
30
0
41
1
10
98.7586442425516
20
-6.31138785721672
30
0
41
1
10
98.8955284015776
20
-7.02975052881331
30
0
41
1
10
98.9639704810905
20
-7.3734835050646
30
0
41
1
10
99.1008546401164
20
-8.02173792616895
30
0
41
1
10
99.1692967196295
20
-8.3262401385272
30
0
41
1
10
99.3061808786555
20
-8.8894427404399
30
0
41
1
10
99.3746229581686
20
-9.14813184378107
30
0
41
1
10
99.5115071171946
20
-9.61535902018926
30
0
41
1
10
99.5799491967076
20
-9.82389509755492
30
0
41
1
10
99.7168333557336
20
-10.1889107151523
30
0
41
1
10
99.7852754352466
20
-10.3453969632736
30
0
41
1
10
99.9221595942727
20
-10.6067763939587
30
0
41
1
10
99.9906016737857
20
-10.7116828395135
30
0
41
1
10
100.127485832812
20
-10.8724260316784
30
0
41
1
10
100.195927912325
20
-10.9282796506458
30
0
41
1
10
100.298591031594
20
-10.9783473633342
30
0
41
1
10
100.332812071351
20
-10.9894286310544
30
0
41
1
10
100.384143630986
20
-10.9981021759758
30
0
41
1
10
100.401254150864
20
-10.9996691001259
30
0
41
1
10
100.43547519062
20
-11.000236642916
30
0
41
1
10
100.452585710498
20
-10.9992446153655
30
0
41
1
10
100.53813830989
20
-10.9877126910095
30
0
41
1
10
100.606580389403
20
-10.9574036585389
30
0
41
1
10
100.743464548429
20
-10.8498752415543
30
0
41
1
10
100.811906627942
20
-10.7726382717329
30
0
41
1
10
100.948790786968
20
-10.5677768919301
30
0
41
1
10
101.017232866481
20
-10.44013683484
30
0
41
1
10
101.154117025507
20
-10.1328016653941
30
0
41
1
10
101.22255910502
20
-9.95309586819448
30
0
41
1
10
101.359443264046
20
-9.5421779227712
30
0
41
1
10
101.427885343559
20
-9.31096274916123
30
0
41
1
10
101.496327423072
20
-9.05548462017171
30
0
0
SPLINE
5
E7
100
AcDbEntity
8
1
62
256
6
ByLayer
370
13
48
1
60
0
100
AcDbSpline
70
4
71
3
72
43
73
39
40
0
40
0
40
0
40
0
40
0.0625000000000013
40
0.0625000000000013
40
0.125000000000003
40
0.125000000000003
40
0.187500000000004
40
0.187500000000004
40
0.250000000000005
40
0.250000000000005
40
0.312500000000007
40
0.312500000000007
40
0.375000000000008
40
0.375000000000008
40
0.390625000000008
40
0.398437500000008
40
0.398437500000008
40
0.406250000000008
40
0.406250000000008
40
0.437500000000008
40
0.437500000000008
40
0.500000000000007
40
0.500000000000007
40
0.562500000000006
40
0.562500000000006
40
0.625000000000005
40
0.625000000000005
40
0.687500000000004
40
0.687500000000004
40
0.750000000000003
40
0.750000000000003
40
0.812500000000003
40
0.812500000000003
40
0.875000000000002
40
0.875000000000002
40
0.937500000000001
40
0.937500000000001
40
1
40
1
40
1
40
1
41
1
10
90.5
20
-9.66266800184096
30
0
41
1
10
90.5959037445276
20
-9.36504862224265
30
0
41
1
10
90.6918074890551
20
-9.01692545174237
30
0
41
1
10
90.8836149781102
20
-8.23012383026503
30
0
41
1
10
90.9795187226379
20
-7.79150512073028
30
0
41
1
10
91.171326211693
20
-6.84282070130843
30
0
41
1
10
91.2672299562206
20
-6.33287047478157
30
0
41
1
10
91.4590374452757
20
-5.26659858472868
30
0
41
1
10
91.5549411898032
20
-4.71041238888148
30
0
41
1
10
91.7467486788583
20
-3.57879490503291
30
0
41
1
10
91.842652423386
20
-3.00347912714352
30
0
41
1
10
92.034459912441
20
-1.85886663978445
30
0
41
1
10
92.1303636569686
20
-1.28963979150572
30
0
41
1
10
92.250243337628
20
-0.594706329046488
30
0
41
1
10
92.2862072418258
20
-0.387450591457395
30
0
41
1
10
92.3221711460237
20
-0.182325458753525
30
0
41
1
10
92.3461470821557
20
-0.0460787104293274
30
0
41
1
10
92.3581350502216
20
0.0216373660515785
30
0
41
1
10
92.4180748905513
20
0.361951235526703
30
0
41
1
10
92.4660267628151
20
0.638274431980165
30
0
41
1
10
92.6098823796064
20
1.47633824905657
30
0
41
1
10
92.705786124134
20
2.04734060465987
30
0
41
1
10
92.8975936131892
20
3.1929279706207
30
0
41
1
10
92.9934973577167
20
3.76743750820506
30
0
41
1
10
93.1853048467717
20
4.89449240590147
30
0
41
1
10
93.2812085912993
20
5.44691843188281
30
0
41
1
10
93.4730160803545
20
6.50273536304255
30
0
41
1
10
93.5689198248821
20
7.0059909362968
30
0
41
1
10
93.7607273139371
20
7.93881917764273
30
0
41
1
10
93.8566310584647
20
8.36828102272108
30
0
41
1
10
94.0484385475199
20
9.13515008671772
30
0
41
1
10
94.1443422920475
20
9.47250503388267
30
0
41
1
10
94.3361497811024
20
10.0456262752555
30
0
41
1
10
94.4320535256301
20
10.281409384814
30
0
41
1
10
94.6238610146853
20
10.6512363841995
30
0
41
1
10
94.7197647592128
20
10.7853504858243
30
0
41
1
10
94.9115722482679
20
10.9596855028654
30
0
41
1
10
95.0074759927955
20
11
30
0
41
1
10
95.1033797373231
20
11
30
0
0
SPLINE
5
E8
100
AcDbEntity
8
1
62
256
6
ByLayer
370
13
48
1
60
0
100
AcDbSpline
70
4
71
3
72
79
73
75
40
0
40
0
40
0
40
0
40
0.0312500000000008
40
0.0312500000000008
40
0.0625000000000015
40
0.0625000000000015
40
0.0937500000000023
40
0.0937500000000023
40
0.125000000000003
40
0.125000000000003
40
0.156250000000004
40
0.156250000000004
40
0.187500000000005
40
0.187500000000005
40
0.218750000000005
40
0.218750000000005
40
0.250000000000006
40
0.250000000000006
40
0.281250000000007
40
0.281250000000007
40
0.312500000000007
40
0.312500000000007
40
0.343750000000008
40
0.343750000000008
40
0.375000000000009
40
0.375000000000009
40
0.382812500000009
40
0.386718750000009
40
0.386718750000009
40
0.390625000000009
40
0.390625000000009
40
0.406250000000008
40
0.406250000000008
40
0.437500000000008
40
0.437500000000008
40
0.468750000000008
40
0.468750000000008
40
0.500000000000008
40
0.500000000000008
40
0.531250000000007
40
0.531250000000007
40
0.562500000000007
40
0.562500000000007
40
0.593750000000007
40
0.593750000000007
40
0.625000000000006
40
0.625000000000006
40
0.656250000000006
40
0.656250000000006
40
0.687500000000006
40
0.687500000000006
40
0.718750000000005
40
0.718750000000005
40
0.750000000000005
40
0.750000000000005
40
0.765625000000005
40
0.765625000000005
40
0.773437500000004
40
0.773437500000004
40
0.781250000000004
40
0.781250000000004
40
0.812500000000004
40
0.812500000000004
40
0.843750000000003
40
0.843750000000003
40
0.875000000000002
40
0.875000000000002
40
0.906250000000002
40
0.906250000000002
40
0.937500000000001
40
0.937500000000001
40
0.968750000000001
40
0.968750000000001
40
1
40
1
40
1
40
1
41
1
10
94.4341225409333
20
11
30
0
41
1
10
94.5076871751223
20
11
30
0
41
1
10
94.5812518093113
20
10.9763201231549
30
0
41
1
10
94.7283810776892
20
10.8754860633089
30
0
41
1
10
94.8019457118781
20
10.7983066122129
30
0
41
1
10
94.949074980256
20
10.5859415987234
30
0
41
1
10
95.022639614445
20
10.4507332754579
30
0
41
1
10
95.1697688828228
20
10.1201466458576
30
0
41
1
10
95.2433335170117
20
9.92475306111658
30
0
41
1
10
95.3904627853897
20
9.47459015807743
30
0
41
1
10
95.4640274195786
20
9.21981748207264
30
0
41
1
10
95.6111566879565
20
8.6549442454706
30
0
41
1
10
95.6847213221454
20
8.3448545663681
30
0
41
1
10
95.8318505905232
20
7.67654213809476
30
0
41
1
10
95.9054152247122
20
7.3183435847821
30
0
41
1
10
96.0525444930901
20
6.56362201345476
30
0
41
1
10
96.1261091272791
20
6.16713231104916
30
0
41
1
10
96.2732383956569
20
5.34736907553042
30
0
41
1
10
96.3468030298459
20
4.92413172347059
30
0
41
1
10
96.4939322982238
20
4.06307797242937
30
0
41
1
10
96.5674969324127
20
3.62529423849918
30
0
41
1
10
96.7146262007907
20
2.74695996890074
30
0
41
1
10
96.7881908349796
20
2.30643385789648
30
0
41
1
10
96.9353201033575
20
1.43316199190903
30
0
41
1
10
97.0088847375464
20
1.00043029054004
30
0
41
1
10
97.1008405302825
20
0.469815348011622
30
0
41
1
10
97.1284272681035
20
0.311395897971892
30
0
41
1
10
97.1560140059242
20
0.154253585040948
30
0
41
1
10
97.1744051644715
20
0.0497892742238548
30
0
41
1
10
97.1836007437452
20
-0.0021924571729812
30
0
41
1
10
97.2295786401132
20
-0.262897400220425
30
0
41
1
10
97.2663609572077
20
-0.473877471130948
30
0
41
1
10
97.3767079084911
20
-1.11269832934386
30
0
41
1
10
97.45027254268
20
-1.54648166068068
30
0
41
1
10
97.5974018110579
20
-2.42100896576909
30
0
41
1
10
97.6709664452468
20
-2.8617379674308
30
0
41
1
10
97.8180957136248
20
-3.73949237913018
30
0
41
1
10
97.8916603478137
20
-4.17649252422461
30
0
41
1
10
98.0387896161916
20
-5.03492047795967
30
0
41
1
10
98.1123542503805
20
-5.45631509512668
30
0
41
1
10
98.2594835187584
20
-6.27134752136763
30
0
41
1
10
98.3330481529473
20
-6.6649491331203
30
0
41
1
10
98.4801774213252
20
-7.4129575402132
30
0
41
1
10
98.5537420555141
20
-7.76733158173002
30
0
41
1
10
98.700871323892
20
-8.42725335590256
30
0
41
1
10
98.774435958081
20
-8.73277792548748
30
0
41
1
10
98.9215652264589
20
-9.28803715644551
30
0
41
1
10
98.9951298606478
20
-9.53776218793917
30
0
41
1
10
99.1422591290257
20
-9.97763100451709
30
0
41
1
10
99.2158237632147
20
-10.1677793161195
30
0
41
1
10
99.3629530315925
20
-10.4879512680868
30
0
41
1
10
99.4365176657815
20
-10.6179910321821
30
0
41
1
10
99.5836469341594
20
-10.8203280936697
30
0
41
1
10
99.6572115683483
20
-10.8926485634371
30
0
41
1
10
99.7675585196316
20
-10.9613470983664
30
0
41
1
10
99.8043408367263
20
-10.9776320534484
30
0
41
1
10
99.8595143123679
20
-10.992692099312
30
0
41
1
10
99.8779054709152
20
-10.99615157389
30
0
41
1
10
99.9146877880096
20
-11.000049145581
30
0
41
1
10
99.9330789465568
20
-11.0004954814523
30
0
41
1
10
100.025034739293
20
-10.9953288593134
30
0
41
1
10
100.098599373482
20
-10.9672249064524
30
0
41
1
10
100.24572864186
20
-10.8570730581362
30
0
41
1
10
100.319293276049
20
-10.7749999285607
30
0
41
1
10
100.466422544427
20
-10.5525555524351
30
0
41
1
10
100.539987178616
20
-10.4121619949815
30
0
41
1
10
100.687116446994
20
-10.0711498766976
30
0
41
1
10
100.760681081182
20
-9.87051691737287
30
0
41
1
10
100.90781034956
20
-9.41009656765115
30
0
41
1
10
100.981374983749
20
-9.15030700663962
30
0
41
1
10
101.128504252127
20
-8.5759053374332
30
0
41
1
10
101.202068886316
20
-8.26130535539104
30
0
41
1
10
101.349198154694
20
-7.58473186126778
30
0
41
1
10
101.422762788883
20
-7.22278354533429
30
0
41
1
10
101.496327423072
20
-6.84214752998719
30
0
0
SPLINE
5
E9
100
AcDbEntity
8
1
62
256
6
ByLayer
370
13
48
1
60
0
100
AcDbSpline
70
4
71
3
72
43
73
39
40
0
40
0
40
0
40
0
40
0.0625000000000002
40
0.0625000000000002
40
0.125
40
0.125
40
0.187500000000001
40
0.187500000000001
40
0.250000000000001
40
0.250000000000001
40
0.312500000000001
40
0.312500000000001
40
0.328125000000001
40
0.328125000000001
40
0.335937500000001
40
0.335937500000001
40
0.343750000000001
40
0.375000000000001
40
0.375000000000001
40
0.437500000000001
40
0.437500000000001
40
0.500000000000001
40
0.500000000000001
40
0.562500000000001
40
0.562500000000001
40
0.625000000000001
40
0.625000000000001
40
0.687500000000001
40
0.687500000000001
40
0.750000000000001
40
0.750000000000001
40
0.812500000000001
40
0.812500000000001
40
0.875
40
0.875
40
0.9375
40
0.9375
40
1
40
1
40
1
40
1
41
1
10
90.5000000000001
20
-7.72167846046275
30
0
41
1
10
90.5856586351758
20
-7.31723272303961
30
0
41
1
10
90.6713172703514
20
-6.88188031029551
30
0
41
1
10
90.8426345407029
20
-5.96592561645821
30
0
41
1
10
90.9282931758785
20
-5.48539891685311
30
0
41
1
10
91.0996104462299
20
-4.49810945561399
30
0
41
1
10
91.1852690814056
20
-3.99142079623405
30
0
41
1
10
91.356586351757
20
-2.97083621573697
30
0
41
1
10
91.4422449869327
20
-2.45699703350547
30
0
41
1
10
91.6135622572841
20
-1.43913680846202
30
0
41
1
10
91.6992208924598
20
-0.935147208564757
30
0
41
1
10
91.8062941864294
20
-0.319844621794317
30
0
41
1
10
91.8277088452232
20
-0.197509173047138
30
0
41
1
10
91.8598308334142
20
-0.0152251215221497
30
0
41
1
10
91.8705381628112
20
0.0452722347037593
30
0
41
1
10
91.8919528216051
20
0.166928451834849
30
0
41
1
10
91.9454894685898
20
0.472073277757147
30
0
41
1
10
91.9990261155747
20
0.781995577152344
30
0
41
1
10
92.1275140683382
20
1.53268092798282
30
0
41
1
10
92.213172703514
20
2.04240642231537
30
0
41
1
10
92.3844899738653
20
3.06536630321531
30
0
41
1
10
92.470148609041
20
3.57855887379296
30
0
41
1
10
92.6414658793924
20
4.59047780439872
30
0
41
1
10
92.7271245145681
20
5.08913910302573
30
0
41
1
10
92.8984417849195
20
6.05272735827458
30
0
41
1
10
92.9841004200952
20
6.51757741191022
30
0
41
1
10
93.1554176904466
20
7.39516421840469
30
0
41
1
10
93.2410763256223
20
7.80783007372341
30
0
41
1
10
93.4123935959736
20
8.56584862144788
30
0
41
1
10
93.4980522311494
20
8.91115425635726
30
0
41
1
10
93.6693695015008
20
9.52426621909322
30
0
41
1
10
93.7550281366765
20
9.79205983585368
30
0
41
1
10
93.9263454070278
20
10.2459027630259
30
0
41
1
10
94.0120040422036
20
10.4319730385958
30
0
41
1
10
94.183321312555
20
10.7239282752606
30
0
41
1
10
94.2689799477306
20
10.8298576923488
30
0
41
1
10
94.4402972180819
20
10.9678666906429
30
0
41
1
10
94.5259558532578
20
11
30
0
41
1
10
94.6116144884334
20
11
30
0
0
SPLINE
5
EA
100
AcDbEntity
8
1
62
256
6
ByLayer
370
13
48
1
60
0
100
AcDbSpline
70
4
71
3
72
79
73
75
40
0
40
0
40
0
40
0
40
0.0312499999999991
40
0.0312499999999991
40
0.0624999999999982
40
0.0624999999999982
40
0.0937499999999973
40
0.0937499999999973
40
0.124999999999996
40
0.124999999999996
40
0.156249999999996
40
0.156249999999996
40
0.187499999999995
40
0.187499999999995
40
0.218749999999994
40
0.218749999999994
40
0.249999999999993
40
0.249999999999993
40
0.281249999999992
40
0.281249999999992
40
0.312499999999991
40
0.312499999999991
40
0.34374999999999
40
0.34374999999999
40
0.35937499999999
40
0.35937499999999
40
0.36718749999999
40
0.36718749999999
40
0.37499999999999
40
0.37499999999999
40
0.40624999999999
40
0.40624999999999
40
0.43749999999999
40
0.43749999999999
40
0.46874999999999
40
0.46874999999999
40
0.499999999999991
40
0.499999999999991
40
0.531249999999991
40
0.531249999999991
40
0.562499999999991
40
0.562499999999991
40
0.593749999999992
40
0.593749999999992
40
0.624999999999992
40
0.624999999999992
40
0.656249999999992
40
0.656249999999992
40
0.687499999999993
40
0.687499999999993
40
0.718749999999993
40
0.718749999999993
40
0.726562499999993
40
0.726562499999993
40
0.730468749999993
40
0.730468749999993
40
0.734374999999993
40
0.749999999999994
40
0.749999999999994
40
0.781249999999995
40
0.781249999999995
40
0.812499999999995
40
0.812499999999995
40
0.843749999999996
40
0.843749999999996
40
0.874999999999997
40
0.874999999999997
40
0.906249999999997
40
0.906249999999997
40
0.937499999999998
40
0.937499999999998
40
0.968749999999999
40
0.968749999999999
40
1
40
1
40
1
40
1
41
1
10
93.9423572920438
20
11
30
0
41
1
10
94.0210444809087
20
11
30
0
41
1
10
94.0997316697735
20
10.9728982374458
30
0
41
1
10
94.2571060475033
20
10.8570656320282
30
0
41
1
10
94.3357932363682
20
10.768299486041
30
0
41
1
10
94.493167614098
20
10.5238485704955
30
0
41
1
10
94.5718548029628
20
10.3681330169327
30
0
41
1
10
94.7292291806925
20
9.98771567470618
30
0
41
1
10
94.8079163695575
20
9.76299557487695
30
0
41
1
10
94.9652907472871
20
9.24649085005268
30
0
41
1
10
95.043977936152
20
8.9547069415913
30
0
41
1
10
95.2013523138818
20
8.31027215368204
30
0
41
1
10
95.2800395027467
20
7.95764337762134
30
0
41
1
10
95.4374138804765
20
7.2016538588968
30
0
41
1
10
95.5161010693413
20
6.79833321198311
30
0
41
1
10
95.673475447071
20
5.95408054498211
30
0
41
1
10
95.752162635936
20
5.51319823457607
30
0
41
1
10
95.9095370136657
20
4.60854511344934
30
0
41
1
10
95.9882242025305
20
4.14482316451836
30
0
41
1
10
96.1455985802604
20
3.20929647225535
30
0
41
1
10
96.2242857691251
20
2.73753075857627
30
0
41
1
10
96.381660146855
20
1.79945466916698
30
0
41
1
10
96.4603473357197
20
1.33316846758564
30
0
41
1
10
96.578378119017
20
0.646311114844963
30
0
41
1
10
96.6177217134495
20
0.419434382661109
30
0
41
1
10
96.6767371050983
20
0.0831013300492032
30
0
41
1
10
96.6964089023144
20
-0.0279107133322896
30
0
41
1
10
96.7357524967468
20
-0.251692528366192
30
0
41
1
10
96.7554242939631
20
-0.364256720231111
30
0
41
1
10
96.8537832800441
20
-0.930100283879227
30
0
41
1
10
96.9324704689091
20
-1.39255194742736
30
0
41
1
10
97.0898448466388
20
-2.32650385679645
30
0
41
1
10
97.1685320355037
20
-2.79798453672697
30
0
41
1
10
97.3259064132335
20
-3.73705805116569
30
0
41
1
10
97.4045936020983
20
-4.20461587067894
30
0
41
1
10
97.5619679798281
20
-5.12130542859629
30
0
41
1
10
97.6406551686929
20
-5.57039038610515
30
0
41
1
10
97.7980295464226
20
-6.43524008746314
30
0
41
1
10
97.8767167352876
20
-6.85095429026117
30
0
41
1
10
98.0340911130173
20
-7.63530707350384
30
0
41
1
10
98.1127783018821
20
-8.00390173290555
30
0
41
1
10
98.2701526796119
20
-8.68285680705492
30
0
41
1
10
98.3488398684768
20
-8.99318927004273
30
0
41
1
10
98.5062142462066
20
-9.54816973594757
30
0
41
1
10
98.5849014350715
20
-9.79281079353601
30
0
41
1
10
98.7422758128012
20
-10.2132043872896
30
0
41
1
10
98.8209630016661
20
-10.3889702317188
30
0
41
1
10
98.9783373793958
20
-10.6725516813714
30
0
41
1
10
99.0570245682608
20
-10.780395252753
30
0
41
1
10
99.2143989459905
20
-10.9325684369696
30
0
41
1
10
99.2930861348553
20
-10.9769328279359
30
0
41
1
10
99.3914451209364
20
-10.9970432867442
30
0
41
1
10
99.4111169181526
20
-10.9993027992324
30
0
41
1
10
99.4406246139769
20
-11.0001413778861
30
0
41
1
10
99.450460512585
20
-10.9999981909259
30
0
41
1
10
99.4701323098012
20
-10.9988586177598
30
0
41
1
10
99.5193118028418
20
-10.9938718472075
30
0
41
1
10
99.5684912958824
20
-10.9779903716217
30
0
41
1
10
99.6865220791797
20
-10.9175477513524
30
0
41
1
10
99.7652092680446
20
-10.8474039824563
30
0
41
1
10
99.9225836457744
20
-10.6414483968706
30
0
41
1
10
100.001270834639
20
-10.5056036702734
30
0
41
1
10
100.158645212369
20
-10.1651451837663
30
0
41
1
10
100.237332401234
20
-9.96050868521584
30
0
41
1
10
100.394706778964
20
-9.48317181995975
30
0
41
1
10
100.473393967828
20
-9.21046615222431
30
0
41
1
10
100.630768345558
20
-8.60194909532078
30
0
41
1
10
100.709455534423
20
-8.26615366812518
30
0
41
1
10
100.866829912153
20
-7.54051845687647
30
0
41
1
10
100.945517101018
20
-7.15071421251088
30
0
41
1
10
101.102891478747
20
-6.3294410560373
30
0
41
1
10
101.181578667612
20
-5.89802011025716
30
0
41
1
10
101.338953045342
20
-5.00792671175751
30
0
41
1
10
101.417640234207
20
-4.54930442288389
30
0
41
1
10
101.496327423072
20
-4.08452321049225
30
0
0
SPLINE
5
EB
100
AcDbEntity
8
1
62
256
6
ByLayer
370
13
48
1
60
0
100
AcDbSpline
70
4
71
3
72
42
73
38
40
0
40
0
40
0
40
0
40
0.0624999999999999
40
0.0624999999999999
40
0.125
40
0.125
40
0.1875
40
0.1875
40
0.21875
40
0.21875
40
0.234375
40
0.234375
40
0.250000000000001
40
0.250000000000001
40
0.312500000000001
40
0.312500000000001
40
0.375
40
0.375
40
0.4375
40
0.4375
40
0.5
40
0.5
40
0.5625
40
0.5625
40
0.625
40
0.625
40
0.6875
40
0.6875
40
0.75
40
0.75
40
0.8125
40
0.8125
40
0.875
40
0.875
40
0.9375
40
0.9375
40
1
40
1
40
1
40
1
41
1
10
90.5
20
-5.11931512003679
30
0
41
1
10
90.5754135258238
20
-4.68676366663971
30
0
41
1
10
90.6508270516478
20
-4.24344610306474
30
0
41
1
10
90.8016541032953
20
-3.34826187192405
30
0
41
1
10
90.8770676291192
20
-2.89642766369889
30
0
41
1
10
91.0278946807668
20
-1.99628824968914
30
0
41
1
10
91.1033082065907
20
-1.5480042056578
30
0
41
1
10
91.2164284953265
20
-0.885932418617642
30
0
41
1
10
91.2541352582383
20
-0.666951539422683
30
0
41
1
10
91.3106954026061
20
-0.341849864045486
30
0
41
1
10
91.3295487840621
20
-0.2340431203572
30
0
41
1
10
91.3672555469741
20
-0.0196710921450176
30
0
41
1
10
91.3861089284301
20
0.0867497635582026
30
0
41
1
10
91.4803758357098
20
0.623964559945676
30
0
41
1
10
91.5557893615336
20
1.06356277107602
30
0
41
1
10
91.7066164131812
20
1.95370788000759
30
0
41
1
10
91.7820299390052
20
2.40424213817838
30
0
41
1
10
91.9328569906529
20
3.30539757435361
30
0
41
1
10
92.0082705164766
20
3.75599394931822
30
0
41
1
10
92.1590975681243
20
4.6448170119665
30
0
41
1
10
92.2345110939481
20
5.08300846873365
30
0
41
1
10
92.3853381455957
20
5.93388076003879
30
0
41
1
10
92.4607516714195
20
6.34652090547411
30
0
41
1
10
92.6115787230672
20
7.13362647258316
30
0
41
1
10
92.6869922488911
20
7.50805307616255
30
0
41
1
10
92.8378193005387
20
8.20776687502411
30
0
41
1
10
92.9132328263625
20
8.53302475026118
30
0
41
1
10
93.0640598780102
20
9.12618661334233
30
0
41
1
10
93.139473403834
20
9.3940762516693
30
0
41
1
10
93.2903004554817
20
9.86771055922543
30
0
41
1
10
93.3657139813055
20
10.0734574679556
30
0
41
1
10
93.5165410329532
20
10.4216225198116
30
0
41
1
10
93.591954558777
20
10.564057086092
30
0
41
1
10
93.7427816104247
20
10.7877282550923
30
0
41
1
10
93.8181951362485
20
10.868990323062
30
0
41
1
10
93.9690221878961
20
10.9751119015146
30
0
41
1
10
94.04443571372
20
11
30
0
41
1
10
94.1198492395438
20
11
30
0
0
SPLINE
5
EC
100
AcDbEntity
8
1
62
256
6
ByLayer
370
13
48
1
60
0
100
AcDbSpline
70
4
71
3
72
79
73
75
40
0
40
0
40
0
40
0
40
0.0312500000000003
40
0.0312500000000003
40
0.0625000000000006
40
0.0625000000000006
40
0.0937500000000009
40
0.0937500000000009
40
0.125000000000001
40
0.125000000000001
40
0.156250000000001
40
0.156250000000001
40
0.187500000000002
40
0.187500000000002
40
0.218750000000002
40
0.218750000000002
40
0.250000000000003
40
0.250000000000003
40
0.281250000000003
40
0.281250000000003
40
0.312500000000003
40
0.312500000000003
40
0.328125000000003
40
0.328125000000003
40
0.335937500000003
40
0.339843750000003
40
0.339843750000003
40
0.343750000000003
40
0.343750000000003
40
0.375000000000003
40
0.375000000000003
40
0.406250000000003
40
0.406250000000003
40
0.437500000000003
40
0.437500000000003
40
0.468750000000003
40
0.468750000000003
40
0.500000000000003
40
0.500000000000003
40
0.531250000000003
40
0.531250000000003
40
0.562500000000003
40
0.562500000000003
40
0.593750000000003
40
0.593750000000003
40
0.625000000000003
40
0.625000000000003
40
0.656250000000003
40
0.656250000000003
40
0.671875000000003
40
0.671875000000003
40
0.679687500000003
40
0.679687500000003
40
0.687500000000003
40
0.687500000000003
40
0.718750000000002
40
0.718750000000002
40
0.750000000000002
40
0.750000000000002
40
0.781250000000002
40
0.781250000000002
40
0.812500000000002
40
0.812500000000002
40
0.843750000000002
40
0.843750000000002
40
0.875000000000001
40
0.875000000000001
40
0.906250000000001
40
0.906250000000001
40
0.9375
40
0.9375
40
0.96875
40
0.96875
40
1
40
1
40
1
40
1
41
1
10
93.4505920431541
20
11
30
0
41
1
10
93.534401786695
20
11
30
0
41
1
10
93.6182115302358
20
10.9692432579624
30
0
41
1
10
93.7858310173174
20
10.8373149715735
30
0
41
1
10
93.8696407608583
20
10.7360951866661
30
0
41
1
10
94.0372602479399
20
10.4571707164941
30
0
41
1
10
94.1210699914806
20
10.2794255159509
30
0
41
1
10
94.2886894785622
20
9.84567816728043
30
0
41
1
10
94.372499222103
20
9.5896554918348
30
0
41
1
10
94.5401187091846
20
9.00284189764938
30
0
41
1
10
94.6239284527255
20
8.67205959628294
30
0
41
1
10
94.7915479398071
20
7.94468471574709
30
0
41
1
10
94.8753576833479
20
7.54813131154771
30
0
41
1
10
95.0429771704296
20
6.70292081103506
30
0
41
1
10
95.1267869139704
20
6.25432536969987
30
0
41
1
10
95.294406401052
20
5.32193353019113
30
0
41
1
10
95.3782161445928
20
4.83820641199117
30
0
41
1
10
95.5458356316744
20
3.85362448973103
30
0
41
1
10
95.6296453752152
20
3.35283082236037
30
0
41
1
10
95.7972648622968
20
2.35134436333627
30
0
41
1
10
95.8810746058376
20
1.85069354567162
30
0
41
1
10
96.0067892211489
20
1.11089354827811
30
0
41
1
10
96.0486940929193
20
0.866133420395556
30
0
41
1
10
96.1115514005749
20
0.502905528880177
30
0
41
1
10
96.1429800544026
20
0.322267123634134
30
0
41
1
10
96.1744087082303
20
0.143284756207464
30
0
41
1
10
96.1953611441155
20
0.0243509573627136
30
0
41
1
10
96.2058373620583
20
-0.0348354748342672
30
0
41
1
10
96.3001233235417
20
-0.570242813818652
30
0
41
1
10
96.3839330670825
20
-1.05868182678211
30
0
41
1
10
96.5515525541642
20
-2.0487262818852
30
0
41
1
10
96.6353622977049
20
-2.55030958793253
30
0
41
1
10
96.8029817847865
20
-3.55149772247526
30
0
41
1
10
96.8867915283273
20
-4.05105766725794
30
0
41
1
10
97.054411015409
20
-5.03079136918487
30
0
41
1
10
97.1382207589498
20
-5.51090213297496
30
0
41
1
10
97.3058402460314
20
-6.43371075146598
30
0
41
1
10
97.3896499895721
20
-6.8763393840934
30
0
41
1
10
97.5572694766538
20
-7.70757368114698
30
0
41
1
10
97.6410792201945
20
-8.09611990818814
30
0
41
1
10
97.8086987072762
20
-8.80598945564762
30
0
41
1
10
97.8925084508171
20
-9.12727737953631
30
0
41
1
10
98.0601279378986
20
-9.69431348524924
30
0
41
1
10
98.1439376814395
20
-9.94005719196323
30
0
41
1
10
98.3115571685211
20
-10.3531869921844
30
0
41
1
10
98.3953669120619
20
-10.5205969046765
30
0
41
1
10
98.5629863991435
20
-10.7794312605706
30
0
41
1
10
98.6467961426844
20
-10.8708979534671
30
0
41
1
10
98.7725107579955
20
-10.956005019648
30
0
41
1
10
98.8144156297659
20
-10.9757200645664
30
0
41
1
10
98.8772729374215
20
-10.9931234925998
30
0
41
1
10
98.8982253733067
20
-10.9968976380817
30
0
41
1
10
98.9401302450772
20
-11.0005396513681
30
0
41
1
10
98.9610826809622
20
-11.0004278781504
30
0
41
1
10
99.0658448603883
20
-10.9901715821321
30
0
41
1
10
99.1496546039292
20
-10.9505561825395
30
0
41
1
10
99.3172740910108
20
-10.7999075532892
30
0
41
1
10
99.4010838345517
20
-10.6888264189129
30
0
41
1
10
99.5687033216332
20
-10.3896712138178
30
0
41
1
10
99.6525130651739
20
-10.2015585839362
30
0
41
1
10
99.8201325522556
20
-9.74722268387407
30
0
41
1
10
99.9039422957965
20
-9.48098234574459
30
0
41
1
10
100.071561782878
20
-8.87461108179755
30
0
41
1
10
100.155371526419
20
-8.53449294323403
30
0
41
1
10
100.3229910135
20
-7.79001425031564
30
0
41
1
10
100.406800757041
20
-7.38569650368638
30
0
41
1
10
100.574420244123
20
-6.52705216782618
30
0
41
1
10
100.658229987664
20
-6.07278918177045
30
0
41
1
10
100.825849474745
20
-5.13143312768918
30
0
41
1
10
100.909659218286
20
-4.64440911256028
30
0
41
1
10
101.077278705368
20
-3.65560242533729
30
0
41
1
10
101.161088448909
20
-3.15387883637484
30
0
41
1
10
101.32870793599
20
-2.15265813151612
30
0
41
1
10
101.412517679531
20
-1.65320001763999
30
0
41
1
10
101.496327423072
20
-1.16205260836759
30
0
0
SPLINE
5
ED
100
AcDbEntity
8
1
62
256
6
ByLayer
370
13
48
1
60
0
100
AcDbSpline
70
4
71
3
72
42
73
38
40
0
40
0
40
0
40
0
40
0.0625000000000015
40
0.0625000000000015
40
0.0937500000000018
40
0.0937500000000018
40
0.109375000000002
40
0.109375000000002
40
0.125000000000002
40
0.125000000000002
40
0.187500000000002
40
0.187500000000002
40
0.250000000000002
40
0.250000000000002
40
0.312500000000002
40
0.312500000000002
40
0.375000000000002
40
0.375000000000002
40
0.437500000000002
40
0.437500000000002
40
0.500000000000002
40
0.500000000000002
40
0.562500000000001
40
0.562500000000001
40
0.625000000000001
40
0.625000000000001
40
0.687500000000001
40
0.687500000000001
40
0.750000000000001
40
0.750000000000001
40
0.812500000000001
40
0.812500000000001
40
0.875
40
0.875
40
0.9375
40
0.9375
40
1
40
1
40
1
40
1
41
1
10
90.5
20
-2.21209261443391
30
0
41
1
10
90.565168416472
20
-1.82382134532395
30
0
41
1
10
90.6303368329439
20
-1.43758593838479
30
0
41
1
10
90.7280894576518
20
-0.866134228551317
30
0
41
1
10
90.7606736658879
20
-0.676958085629678
30
0
41
1
10
90.8095499782418
20
-0.395674508613354
30
0
41
1
10
90.8258420823598
20
-0.302326127771579
30
0
41
1
10
90.8584262905958
20
-0.11653386504679
30
0
41
1
10
90.8747183947138
20
-0.0243878923964473
30
0
41
1
10
90.9561789153037
20
0.437744821646106
30
0
41
1
10
91.0213473317757
20
0.815043027742348
30
0
41
1
10
91.1516841647197
20
1.57945334294911
30
0
41
1
10
91.2168525811916
20
1.96656070556861
30
0
41
1
10
91.3471894141355
20
2.74397313273155
30
0
41
1
10
91.4123578306074
20
3.1342683944572
30
0
41
1
10
91.5426946635514
20
3.91041150577536
30
0
41
1
10
91.6078630800233
20
4.29624469580344
30
0
41
1
10
91.7381999129673
20
5.05515829474984
30
0
41
1
10
91.8033683294394
20
5.42822039772474
30
0
41
1
10
91.9337051623831
20
6.15312643728845
30
0
41
1
10
91.9988735788551
20
6.50495059253575
30
0
41
1
10
92.129210411799
20
7.1793359329051
30
0
41
1
10
92.194378828271
20
7.50187862585491
30
0
41
1
10
92.324715661215
20
8.11066201080473
30
0
41
1
10
92.3898840776869
20
8.39688824165887
30
0
41
1
10
92.5202209106308
20
8.9275100717856
30
0
41
1
10
92.5853893271027
20
9.17189728839296
30
0
41
1
10
92.7157261600467
20
9.61517254060144
30
0
41
1
10
92.7808945765187
20
9.81405913921677
30
0
41
1
10
92.9112314094626
20
10.1646741002798
30
0
41
1
10
92.9763998259346
20
10.3164075295261
30
0
41
1
10
93.1067366588785
20
10.5730092364047
30
0
41
1
10
93.1719050753504
20
10.6778875802582
30
0
41
1
10
93.3022419082944
20
10.8427906845607
30
0
41
1
10
93.3674103247663
20
10.9028284354321
30
0
41
1
10
93.4977471577103
20
10.981426190179
30
0
41
1
10
93.5629155741823
20
11
30
0
41
1
10
93.6280839906542
20
11
30
0
0
SPLINE
5
EE
100
AcDbEntity
8
1
62
256
6
ByLayer
370
13
48
1
60
0
100
AcDbSpline
70
4
71
3
72
84
73
80
40
0
40
0
40
0
40
0
40
0.031250000000001
40
0.031250000000001
40
0.062500000000002
40
0.062500000000002
40
0.093750000000003
40
0.093750000000003
40
0.125000000000004
40
0.125000000000004
40
0.156250000000005
40
0.156250000000005
40
0.187500000000006
40
0.187500000000006
40
0.218750000000007
40
0.218750000000007
40
0.250000000000008
40
0.250000000000008
40
0.281250000000009
40
0.281250000000009
40
0.31250000000001
40
0.31250000000001
40
0.32031250000001
40
0.32031250000001
40
0.32421875000001
40
0.32421875000001
40
0.328125000000011
40
0.34375000000001
40
0.34375000000001
40
0.375000000000009
40
0.375000000000009
40
0.406250000000009
40
0.406250000000009
40
0.437500000000008
40
0.437500000000008
40
0.468750000000007
40
0.468750000000007
40
0.500000000000007
40
0.500000000000007
40
0.531250000000006
40
0.531250000000006
40
0.562500000000005
40
0.562500000000005
40
0.593750000000005
40
0.593750000000005
40
0.625000000000004
40
0.625000000000004
40
0.640625000000004
40
0.640625000000004
40
0.648437500000004
40
0.648437500000004
40
0.656250000000004
40
0.656250000000004
40
0.687500000000003
40
0.687500000000003
40
0.718750000000003
40
0.718750000000003
40
0.750000000000003
40
0.750000000000003
40
0.781250000000003
40
0.781250000000003
40
0.812500000000003
40
0.812500000000003
40
0.843750000000003
40
0.843750000000003
40
0.875000000000003
40
0.875000000000003
40
0.906250000000003
40
0.906250000000003
40
0.937500000000003
40
0.937500000000003
40
0.953125000000003
40
0.953125000000003
40
0.960937500000003
40
0.964843750000003
40
0.964843750000003
40
0.968750000000002
40
0.968750000000002
40
1
40
1
40
1
40
1
41
1
10
92.9588267942645
20
11
30
0
41
1
10
93.0477590924813
20
11
30
0
41
1
10
93.1366913906979
20
10.96535454546
30
0
41
1
10
93.3145559871315
20
10.8162241128987
30
0
41
1
10
93.4034882853483
20
10.7016745020312
30
0
41
1
10
93.5813528817817
20
10.3858804062557
30
0
41
1
10
93.6702851799985
20
10.1845839370236
30
0
41
1
10
93.848149776432
20
9.69407386813958
30
0
41
1
10
93.9370820746487
20
9.40483922440021
30
0
41
1
10
94.1149466710821
20
8.74402808951555
30
0
41
1
10
94.2038789692989
20
8.3724735530715
30
0
41
1
10
94.3817435657323
20
7.55941803447968
30
0
41
1
10
94.4706758639492
20
7.11798060732085
30
0
41
1
10
94.6485404603827
20
6.18307152302648
30
0
41
1
10
94.7374727585994
20
5.68968901566362
30
0
41
1
10
94.9153373550329
20
4.67195410807778
30
0
41
1
10
95.0042696532497
20
4.1476924706773
30
0
41
1
10
95.1821342496831
20
3.0896214974382
30
0
41
1
10
95.2710665478999
20
2.55588300233296
30
0
41
1
10
95.4489311443334
20
1.498137804908
30
0
41
1
10
95.53786344255
20
0.974170671072045
30
0
41
1
10
95.6490288153209
20
0.334949061914813
30
0
41
1
10
95.6712618898752
20
0.207881017970834
30
0
41
1
10
95.7046115017064
20
0.0185909970551279
30
0
41
1
10
95.7157280389836
20
-0.0442118977110226
30
0
41
1
10
95.7379611135378
20
-0.170523321171515
30
0
41
1
10
95.7935437999231
20
-0.487383817779289
30
0
41
1
10
95.8491264863086
20
-0.809381744155814
30
0
41
1
10
95.9825249336337
20
-1.58945344972466
30
0
41
1
10
96.0714572318504
20
-2.11932529728469
30
0
41
1
10
96.249321828284
20
-3.18173383512396
30
0
41
1
10
96.3382541265007
20
-3.71421813122998
30
0
41
1
10
96.5161187229342
20
-4.76153504552707
30
0
41
1
10
96.605051021151
20
-5.27628699567509
30
0
41
1
10
96.7829156175845
20
-6.26655302814851
30
0
41
1
10
96.8718479158013
20
-6.74197405008525
30
0
41
1
10
97.0497125122347
20
-7.63340089003583
30
0
41
1
10
97.1386448104514
20
-8.04932495197278
30
0
41
1
10
97.3165094068849
20
-8.80570709603501
30
0
41
1
10
97.4054417051017
20
-9.1461167578089
30
0
41
1
10
97.5833063015352
20
-9.74157691672073
30
0
41
1
10
97.672238599752
20
-9.9966230005401
30
0
41
1
10
97.8501031961854
20
-10.4184401146033
30
0
41
1
10
97.9390354944021
20
-10.5852462930784
30
0
41
1
10
98.1169000908355
20
-10.8341532028998
30
0
41
1
10
98.2058323890524
20
-10.9163131108417
30
0
41
1
10
98.3392308363776
20
-10.9824538848322
30
0
41
1
10
98.3836969854858
20
-10.9950173787684
30
0
41
1
10
98.4503962091484
20
-11.0006658751341
30
0
41
1
10
98.4726292837026
20
-11.0003761870427
30
0
41
1
10
98.5170954328109
20
-10.9954150865511
30
0
41
1
10
98.5393285073652
20
-10.9907240948046
30
0
41
1
10
98.6504938801362
20
-10.9557792398872
30
0
41
1
10
98.7394261783529
20
-10.8909195734667
30
0
41
1
10
98.9172907747862
20
-10.6781107459802
30
0
41
1
10
99.0062230730031
20
-10.5300996943358
30
0
41
1
10
99.1840876694366
20
-10.1461474670549
30
0
41
1
10
99.2730199676533
20
-9.91016440294939
30
0
41
1
10
99.4508845640867
20
-9.35162586106335
30
0
41
1
10
99.5398168623035
20
-9.02906538265344
30
0
41
1
10
99.717681458737
20
-8.30569150850522
30
0
41
1
10
99.8066137569537
20
-7.90491740946942
30
0
41
1
10
99.9844783533873
20
-7.0398987208635
30
0
41
1
10
100.073410651604
20
-6.57573028381685
30
0
41
1
10
100.251275248038
20
-5.6033926960707
30
0
41
1
10
100.340207546254
20
-5.09531628127203
30
0
41
1
10
100.518072142688
20
-4.0566991234277
30
0
41
1
10
100.607004440904
20
-3.52624344791289
30
0
41
1
10
100.784869037338
20
-2.46371121046533
30
0
41
1
10
100.873801335555
20
-1.93169390541962
30
0
41
1
10
101.00719978288
20
-1.14589584065237
30
0
41
1
10
101.051665931988
20
-0.885972844937982
30
0
41
1
10
101.118365155651
20
-0.500487118597192
30
0
41
1
10
101.151714767482
20
-0.308840741812162
30
0
41
1
10
101.185064379313
20
-0.119069040387331
30
0
41
1
10
101.207297453867
20
0.0070053668524963
30
0
41
1
10
101.218413991144
20
0.0698571616227071
30
0
41
1
10
101.318462826638
20
0.638785997632311
30
0
41
1
10
101.407395124855
20
1.1584644212962
30
0
41
1
10
101.496327423072
20
1.68489225196774
30
0
0
SPLINE
5
EF
100
AcDbEntity
8
1
62
256
6
ByLayer
370
13
48
1
60
0
100
AcDbSpline
70
4
71
3
72
36
73
32
40
0
40
0
40
0
40
0
40
0.0625000000000001
40
0.0625000000000001
40
0.125
40
0.125
40
0.1875
40
0.1875
40
0.25
40
0.25
40
0.312500000000001
40
0.312500000000001
40
0.375000000000001
40
0.375000000000001
40
0.437500000000001
40
0.437500000000001
40
0.500000000000001
40
0.500000000000001
40
0.562500000000001
40
0.562500000000001
40
0.625000000000001
40
0.625000000000001
40
0.687500000000001
40
0.687500000000001
40
0.75
40
0.75
40
0.8125
40
0.8125
40
0.875
40
0.875
40
1
40
1
40
1
40
1
41
1
10
90.5
20
0.645300739833203
30
0
41
1
10
90.5549233071201
20
0.96288020923231
30
0
41
1
10
90.6098466142402
20
1.28491507554887
30
0
41
1
10
90.7196932284804
20
1.93434673160505
30
0
41
1
10
90.7746165356004
20
2.26174074987105
30
0
41
1
10
90.8844631498407
20
2.91774153052182
30
0
41
1
10
90.9393864569607
20
3.24634368764421
30
0
41
1
10
91.0492330712009
20
3.90012377033025
30
0
41
1
10
91.104156378321
20
4.22529537339472
30
0
41
1
10
91.2140029925612
20
4.86725419857402
30
0
41
1
10
91.2689262996813
20
5.18403376083299
30
0
41
1
10
91.3787729139216
20
5.80413666569243
30
0
41
1
10
91.4336962210416
20
6.10745164151038
30
0
41
1
10
91.5435428352818
20
6.69568493042465
30
0
41
1
10
91.598466142402
20
6.98059497894391
30
0
41
1
10
91.7083127566422
20
7.52746211992945
30
0
41
1
10
91.7632360637622
20
7.78941191467359
30
0
41
1
10
91.8730826780024
20
8.28642320035428
30
0
41
1
10
91.9280059851225
20
8.52147913195802
30
0
41
1
10
92.0378525993626
20
8.96158399728125
30
0
41
1
10
92.0927759064827
20
9.16662965171201
30
0
41
1
10
92.202622520723
20
9.54454634250732
30
0
41
1
10
92.257545827843
20
9.71741660258834
30
0
41
1
10
92.3673924420832
20
10.0298273356374
30
0
41
1
10
92.4223157492033
20
10.1693694204773
30
0
41
1
10
92.5321623634435
20
10.4149677939328
30
0
41
1
10
92.5870856705635
20
10.5210276805526
30
0
41
1
10
92.6969322848038
20
10.7004248587967
30
0
41
1
10
92.7518555919238
20
10.7737671457712
30
0
41
1
10
92.9166255132841
20
10.9470367495319
30
0
41
1
10
93.0264721275244
20
11
30
0
41
1
10
93.1363187417646
20
11
30
0
0
SPLINE
5
F0
100
AcDbEntity
8
1
62
256
6
ByLayer
370
13
48
1
60
0
100
AcDbSpline
70
4
71
3
72
84
73
80
40
0
40
0
40
0
40
0
40
0.0312500000000003
40
0.0312500000000003
40
0.0625000000000005
40
0.0625000000000005
40
0.0937500000000008
40
0.0937500000000008
40
0.125000000000001
40
0.125000000000001
40
0.156250000000001
40
0.156250000000001
40
0.187500000000002
40
0.187500000000002
40
0.218750000000002
40
0.218750000000002
40
0.250000000000002
40
0.250000000000002
40
0.281250000000003
40
0.281250000000003
40
0.296875000000003
40
0.296875000000003
40
0.304687500000003
40
0.304687500000003
40
0.312500000000003
40
0.312500000000003
40
0.343750000000004
40
0.343750000000004
40
0.375000000000005
40
0.375000000000005
40
0.406250000000006
40
0.406250000000006
40
0.437500000000006
40
0.437500000000006
40
0.468750000000007
40
0.468750000000007
40
0.500000000000008
40
0.500000000000008
40
0.531250000000009
40
0.531250000000009
40
0.56250000000001
40
0.56250000000001
40
0.59375000000001
40
0.59375000000001
40
0.60156250000001
40
0.60156250000001
40
0.60937500000001
40
0.60937500000001
40
0.62500000000001
40
0.62500000000001
40
0.656250000000009
40
0.656250000000009
40
0.687500000000008
40
0.687500000000008
40
0.718750000000008
40
0.718750000000008
40
0.750000000000007
40
0.750000000000007
40
0.781250000000006
40
0.781250000000006
40
0.812500000000005
40
0.812500000000005
40
0.843750000000004
40
0.843750000000004
40
0.875000000000003
40
0.875000000000003
40
0.906250000000003
40
0.906250000000003
40
0.910156250000002
40
0.910156250000002
40
0.914062500000002
40
0.914062500000002
40
0.921875000000002
40
0.921875000000002
40
0.937500000000002
40
0.937500000000002
40
0.968750000000001
40
0.968750000000001
40
1
40
1
40
1
40
1
41
1
10
92.4670615453749
20
11
30
0
41
1
10
92.5611163982676
20
11
30
0
41
1
10
92.6551712511601
20
10.9612313993721
30
0
41
1
10
92.8432809569455
20
10.7937833937248
30
0
41
1
10
92.9373358098383
20
10.6650189073306
30
0
41
1
10
93.1254455156237
20
10.3099550958711
30
0
41
1
10
93.2195003685163
20
10.0835906628114
30
0
41
1
10
93.4076100743017
20
9.53296903324076
30
0
41
1
10
93.5016649271943
20
9.20869316768093
30
0
41
1
10
93.6897746329797
20
8.47051137751677
30
0
41
1
10
93.7838294858723
20
8.05664806750551
30
0
41
1
10
93.9719391916577
20
7.15585464828854
30
0
41
1
10
94.0659940445504
20
6.66902111265279
30
0
41
1
10
94.2541037503357
20
5.64501117024
30
0
41
1
10
94.3481586032285
20
5.10795698450917
30
0
41
1
10
94.5362683090138
20
4.00898366885318
30
0
41
1
10
94.6303231619064
20
3.44717668160578
30
0
41
1
10
94.8184328676917
20
2.32327754980946
30
0
41
1
10
94.9124877205845
20
1.76126091127284
30
0
41
1
10
95.0535699999235
20
0.933606208595819
30
0
41
1
10
95.1005974263699
20
0.660246357648674
30
0
41
1
10
95.1711385660394
20
0.255562477878158
30
0
41
1
10
95.1946522792625
20
0.121667539391041
30
0
41
1
10
95.2416797057088
20
-0.144563118373242
30
0
41
1
10
95.265193418932
20
-0.278676263422938
30
0
41
1
10
95.3827619850479
20
-0.95365722215729
30
0
41
1
10
95.4768168379405
20
-1.50798281882479
30
0
41
1
10
95.6649265437259
20
-2.62715411053677
30
0
41
1
10
95.7589813966185
20
-3.19194633576606
30
0
41
1
10
95.9470911024039
20
-4.3091150809008
30
0
41
1
10
96.0411459552965
20
-4.86139497471174
30
0
41
1
10
96.2292556610819
20
-5.92811788532717
30
0
41
1
10
96.3233105139745
20
-6.44243934338618
30
0
41
1
10
96.5114202197599
20
-7.40870081351184
30
0
41
1
10
96.6054750726527
20
-7.8605273863206
30
0
41
1
10
96.7935847784381
20
-8.68179328936137
30
0
41
1
10
96.8876396313307
20
-9.05116138840253
30
0
41
1
10
97.0757493371161
20
-9.69493747361841
30
0
41
1
10
97.1698041900087
20
-9.96933499056198
30
0
41
1
10
97.357913895794
20
-10.4193061422747
30
0
41
1
10
97.4519687486867
20
-10.5949252501764
30
0
41
1
10
97.6400784544721
20
-10.851619663254
30
0
41
1
10
97.7341333073648
20
-10.9327738200558
30
0
41
1
10
97.8517018734806
20
-10.9816647928905
30
0
41
1
10
97.8752155867038
20
-10.9888269233975
30
0
41
1
10
97.9222430131501
20
-10.9981208531816
30
0
41
1
10
97.9457567263732
20
-11.0002534094671
30
0
41
1
10
98.0162978660427
20
-10.9994216674342
30
0
41
1
10
98.0633252924891
20
-10.9891777008408
30
0
41
1
10
98.2044075718281
20
-10.9269011633609
30
0
41
1
10
98.2984624247208
20
-10.8431606855298
30
0
41
1
10
98.4865721305061
20
-10.5810721025871
30
0
41
1
10
98.5806269833989
20
-10.4026457155411
30
0
41
1
10
98.7687366891843
20
-9.94704802657714
30
0
41
1
10
98.8627915420769
20
-9.66983259727033
30
0
41
1
10
99.0509012478623
20
-9.02065795818646
30
0
41
1
10
99.1449561007549
20
-8.64871100302923
30
0
41
1
10
99.3330658065403
20
-7.82276493173646
30
0
41
1
10
99.4271206594328
20
-7.36883862089474
30
0
41
1
10
99.6152303652182
20
-6.39903344170446
30
0
41
1
10
99.709285218111
20
-5.88326875727586
30
0
41
1
10
99.8973949238963
20
-4.81439441239726
30
0
41
1
10
99.9914497767891
20
-4.26140600953272
30
0
41
1
10
100.179559482574
20
-3.14352855131892
30
0
41
1
10
100.273614335467
20
-2.57873504853725
30
0
41
1
10
100.461724041252
20
-1.46015889214226
30
0
41
1
10
100.555778894145
20
-0.906428391013179
30
0
41
1
10
100.661590603649
20
-0.299863157223342
30
0
41
1
10
100.673347460261
20
-0.232691039747238
30
0
41
1
10
100.696861173484
20
-0.0988239138800679
30
0
41
1
10
100.708618030096
20
-0.0322565460691919
30
0
41
1
10
100.74388859993
20
0.167587406979777
30
0
41
1
10
100.767402313154
20
0.301808245162647
30
0
41
1
10
100.837943452823
20
0.707099141532296
30
0
41
1
10
100.884970879269
20
0.980808424698864
30
0
41
1
10
101.026053158609
20
1.80931575449918
30
0
41
1
10
101.120108011501
20
2.37163836469455
30
0
41
1
10
101.308217717286
20
3.49548907199673
30
0
41
1
10
101.402272570179
20
4.05694040275588
30
0
41
1
10
101.496327423072
20
4.60570489713615
30
0
0
SPLINE
5
F1
100
AcDbEntity
8
1
62
256
6
ByLayer
370
13
48
1
60
0
100
AcDbSpline
70
4
71
3
72
22
73
18
40
0
40
0
40
0
40
0
40
0.125
40
0.125
40
0.25
40
0.25
40
0.375
40
0.375
40
0.5
40
0.5
40
0.625
40
0.625
40
0.75
40
0.75
40
0.875
40
0.875
40
1
40
1
40
1
40
1
41
1
10
90.5
20
3.55808817139698
30
0
41
1
10
90.5893563955365
20
4.09000142516635
30
0
41
1
10
90.6787127910729
20
4.61749354900829
30
0
41
1
10
90.8574255821458
20
5.64212711597284
30
0
41
1
10
90.9467819776823
20
6.13917598958236
30
0
41
1
10
91.1254947687552
20
7.08149912840108
30
0
41
1
10
91.2148511642916
20
7.52668170737891
30
0
41
1
10
91.3935639553646
20
8.34693259211767
30
0
41
1
10
91.4829203509011
20
8.72193495379287
30
0
41
1
10
91.6616331419739
20
9.38902812954416
30
0
41
1
10
91.7509895375104
20
9.68109558412132
30
0
41
1
10
91.9297023285833
20
10.1764564254825
30
0
41
1
10
92.0190587241198
20
10.3797707882478
30
0
41
1
10
92.1977715151926
20
10.6987248819364
30
0
41
1
10
92.2871279107291
20
10.8144176229666
30
0
41
1
10
92.465840701802
20
10.9650221003968
30
0
41
1
10
92.5551970973385
20
11
30
0
41
1
10
92.6445534928749
20
11
30
0
0
SPLINE
5
F2
100
AcDbEntity
8
1
62
256
6
ByLayer
370
13
48
1
60
0
100
AcDbSpline
70
4
71
3
72
86
73
82
40
0
40
0
40
0
40
0
40
0.0312500000000014
40
0.0312500000000014
40
0.0625000000000027
40
0.0625000000000027
40
0.0937500000000041
40
0.0937500000000041
40
0.125000000000005
40
0.125000000000005
40
0.156250000000007
40
0.156250000000007
40
0.187500000000008
40
0.187500000000008
40
0.218750000000009
40
0.218750000000009
40
0.25000000000001
40
0.25000000000001
40
0.281250000000012
40
0.281250000000012
40
0.289062500000012
40
0.289062500000012
40
0.296875000000012
40
0.296875000000012
40
0.312500000000013
40
0.312500000000013
40
0.343750000000014
40
0.343750000000014
40
0.375000000000015
40
0.375000000000015
40
0.406250000000016
40
0.406250000000016
40
0.437500000000017
40
0.437500000000017
40
0.468750000000018
40
0.468750000000018
40
0.500000000000019
40
0.500000000000019
40
0.53125000000002
40
0.53125000000002
40
0.562500000000021
40
0.562500000000021
40
0.570312500000021
40
0.570312500000021
40
0.574218750000021
40
0.574218750000021
40
0.578125000000021
40
0.578125000000021
40
0.593750000000021
40
0.593750000000021
40
0.625000000000019
40
0.625000000000019
40
0.656250000000018
40
0.656250000000018
40
0.687500000000016
40
0.687500000000016
40
0.718750000000015
40
0.718750000000015
40
0.750000000000013
40
0.750000000000013
40
0.781250000000011
40
0.781250000000011
40
0.81250000000001
40
0.81250000000001
40
0.843750000000008
40
0.843750000000008
40
0.859375000000007
40
0.859375000000007
40
0.863281250000007
40
0.863281250000007
40
0.867187500000007
40
0.867187500000007
40
0.875000000000007
40
0.875000000000007
40
0.906250000000005
40
0.906250000000005
40
0.937500000000003
40
0.937500000000003
40
0.968750000000002
40
0.968750000000002
40
1
40
1
40
1
40
1
41
1
10
91.9752962964852
20
11
30
0
41
1
10
92.0744737040538
20
11
30
0
41
1
10
92.1736511116225
20
10.9568730553714
30
0
41
1
10
92.3720059267597
20
10.7699834684565
30
0
41
1
10
92.4711833343283
20
10.6261105939514
30
0
41
1
10
92.6695381494656
20
10.2293774966014
30
0
41
1
10
92.7687155570342
20
9.97643761859797
30
0
41
1
10
92.9670703721714
20
9.36245679645853
30
0
41
1
10
93.06624777974
20
9.00140398993423
30
0
41
1
10
93.2646025948773
20
8.18282862823878
30
0
41
1
10
93.3637800024458
20
7.72537877599592
30
0
41
1
10
93.562134817583
20
6.73550736440484
30
0
41
1
10
93.6613122251515
20
6.20322505275314
30
0
41
1
10
93.8596670402888
20
5.09176968000526
30
0
41
1
10
93.9588444478575
20
4.51275634066286
30
0
41
1
10
94.1571992629947
20
3.33782363824858
30
0
41
1
10
94.2563766705633
20
2.74203502337809
30
0
41
1
10
94.4547314857004
20
1.56090241849711
30
0
41
1
10
94.5539088932692
20
0.97563112421156
30
0
41
1
10
94.6778806527299
20
0.264056270191418
30
0
41
1
10
94.7026750046221
20
0.122898990867867
30
0
41
1
10
94.7522637084064
20
-0.157895158774807
30
0
41
1
10
94.7770580602985
20
-0.299399973519002
30
0
41
1
10
94.851441115975
20
-0.726832291387836
30
0
41
1
10
94.9010298197592
20
-1.01569104612926
30
0
41
1
10
95.0497959311121
20
-1.89024601160779
30
0
41
1
10
95.1489733386808
20
-2.48409623155427
30
0
41
1
10
95.347328153818
20
-3.6687715286732
30
0
41
1
10
95.4465055613865
20
-4.25949180470849
30
0
41
1
10
95.6448603765238
20
-5.40877595507203
30
0
41
1
10
95.7440377840925
20
-5.96718867155474
30
0
41
1
10
95.9423925992296
20
-7.02226180091816
30
0
41
1
10
96.0415700067983
20
-7.5187665238679
30
0
41
1
10
96.2399248219355
20
-8.42474837267648
30
0
41
1
10
96.3391022295041
20
-8.83411649725403
30
0
41
1
10
96.5374570446414
20
-9.54903465198504
30
0
41
1
10
96.6366344522099
20
-9.85455610083329
30
0
41
1
10
96.8349892673471
20
-10.3556405212921
30
0
41
1
10
96.9341666749158
20
-10.5512545576686
30
0
41
1
10
97.132521490053
20
-10.8366595298078
30
0
41
1
10
97.2316988976216
20
-10.9265510820115
30
0
41
1
10
97.3556706570823
20
-10.9802765779752
30
0
41
1
10
97.3804650089746
20
-10.988104311603
30
0
41
1
10
97.4176565368128
20
-10.9956467246415
30
0
41
1
10
97.4300537127589
20
-10.997461124946
30
0
41
1
10
97.4548480646509
20
-10.99972131768
30
0
41
1
10
97.467245240597
20
-11.0001678485863
30
0
41
1
10
97.5292311203274
20
-10.9990500743829
30
0
41
1
10
97.5788198241117
20
-10.9873664821139
30
0
41
1
10
97.7275859354646
20
-10.9170589606961
30
0
41
1
10
97.8267633430332
20
-10.8229697144246
30
0
41
1
10
98.0251181581705
20
-10.5288168497963
30
0
41
1
10
98.124295565739
20
-10.3286538819061
30
0
41
1
10
98.3226503808763
20
-9.81850563102211
30
0
41
1
10
98.4218277884449
20
-9.50847213731771
30
0
41
1
10
98.6201826035822
20
-8.78501477448839
30
0
41
1
10
98.7193600111507
20
-8.37162306587612
30
0
41
1
10
98.917714826288
20
-7.45849335215274
30
0
41
1
10
99.0168922338565
20
-6.95886716633072
30
0
41
1
10
99.2152470489938
20
-5.89872651110755
30
0
41
1
10
99.3144244565624
20
-5.33836858801345
30
0
41
1
10
99.5127792716995
20
-4.18644823178667
30
0
41
1
10
99.6119566792682
20
-3.59503571340124
30
0
41
1
10
99.8103114944055
20
-2.41011808078451
30
0
41
1
10
99.9094889019741
20
-1.8167153040572
30
0
41
1
10
100.058255013327
20
-0.943505658130505
30
0
41
1
10
100.107843717111
20
-0.655206935643946
30
0
41
1
10
100.169829596842
20
-0.299830545142669
30
0
41
1
10
100.182226772788
20
-0.229004061592292
30
0
41
1
10
100.20702112468
20
-0.0878827515341811
30
0
41
1
10
100.219418300626
20
-0.0177614712674483
30
0
41
1
10
100.256609828464
20
0.193108733905888
30
0
41
1
10
100.281404180357
20
0.334785905558874
30
0
41
1
10
100.405375939817
20
1.04797563505386
30
0
41
1
10
100.504553347386
20
1.6341592676666
30
0
41
1
10
100.702908162523
20
2.81608468644288
30
0
41
1
10
100.802085570092
20
3.4117511577123
30
0
41
1
10
101.000440385229
20
4.58522197224261
30
0
41
1
10
101.099617792797
20
5.16289359135098
30
0
41
1
10
101.297972607935
20
6.27042699772397
30
0
41
1
10
101.397150015503
20
6.80012885625243
30
0
41
1
10
101.496327423072
20
7.2919551693353
30
0
0
SPLINE
5
F3
100
AcDbEntity
8
1
62
256
6
ByLayer
370
13
48
1
60
0
100
AcDbSpline
70
4
71
3
72
22
73
18
40
0
40
0
40
0
40
0
40
0.125
40
0.125
40
0.25
40
0.25
40
0.375
40
0.375
40
0.5
40
0.5
40
0.625
40
0.625
40
0.75
40
0.75
40
0.875
40
0.875
40
1
40
1
40
1
40
1
41
1
10
90.5
20
6.37429009256593
30
0
41
1
10
90.5688661768328
20
6.74378006070413
30
0
41
1
10
90.6377323536655
20
7.09889185969672
30
0
41
1
10
90.7754647073309
20
7.77151459890453
30
0
41
1
10
90.8443308841637
20
8.08900399815755
30
0
41
1
10
90.9820632378292
20
8.67913774594209
30
0
41
1
10
91.0509294146617
20
8.95176811559745
30
0
41
1
10
91.1886617683271
20
9.44713644658509
30
0
41
1
10
91.25752794516
20
9.66986990321544
30
0
41
1
10
91.3952602988254
20
10.0628767271799
30
0
41
1
10
91.4641264756581
20
10.233154948907
30
0
41
1
10
91.6018588293235
20
10.5211556791674
30
0
41
1
10
91.6707250061563
20
10.6388904978883
30
0
41
1
10
91.8084573598218
20
10.8239145744211
30
0
41
1
10
91.8773235366544
20
10.8912206422771
30
0
41
1
10
92.0150558903198
20
10.9792542617006
30
0
41
1
10
92.0839220671527
20
11
30
0
41
1
10
92.1527882439853
20
11
30
0
0
SPLINE
5
F4
100
AcDbEntity
8
1
62
256
6
ByLayer
370
13
48
1
60
0
100
AcDbSpline
70
4
71
3
72
117
73
113
40
0
40
0
40
0
40
0
40
0.0312500000000004
40
0.0312500000000004
40
0.0625000000000008
40
0.0625000000000008
40
0.0781250000000009
40
0.0781250000000009
40
0.093750000000001
40
0.093750000000001
40
0.109375000000001
40
0.109375000000001
40
0.125000000000001
40
0.125000000000001
40
0.140625000000001
40
0.140625000000001
40
0.156250000000001
40
0.156250000000001
40
0.171875000000002
40
0.171875000000002
40
0.187500000000002
40
0.187500000000002
40
0.218750000000002
40
0.218750000000002
40
0.250000000000003
40
0.250000000000003
40
0.265625000000003
40
0.265625000000003
40
0.273437500000003
40
0.273437500000003
40
0.277343750000003
40
0.277343750000003
40
0.281250000000003
40
0.281250000000003
40
0.312500000000004
40
0.312500000000004
40
0.343750000000005
40
0.343750000000005
40
0.359375000000005
40
0.359375000000005
40
0.375000000000005
40
0.375000000000005
40
0.390625000000005
40
0.390625000000005
40
0.406250000000006
40
0.406250000000006
40
0.421875000000006
40
0.421875000000006
40
0.437500000000006
40
0.437500000000006
40
0.453125000000007
40
0.453125000000007
40
0.468750000000007
40
0.468750000000007
40
0.500000000000008
40
0.500000000000008
40
0.531250000000009
40
0.531250000000009
40
0.546875000000009
40
0.546875000000009
40
0.550781250000009
40
0.550781250000009
40
0.554687500000009
40
0.562500000000009
40
0.562500000000009
40
0.593750000000008
40
0.593750000000008
40
0.625000000000007
40
0.625000000000007
40
0.640625000000006
40
0.640625000000006
40
0.656250000000006
40
0.656250000000006
40
0.671875000000005
40
0.671875000000005
40
0.687500000000004
40
0.687500000000004
40
0.703125000000004
40
0.703125000000004
40
0.718750000000003
40
0.718750000000003
40
0.734375000000003
40
0.734375000000003
40
0.750000000000002
40
0.750000000000002
40
0.781250000000001
40
0.781250000000001
40
0.8125
40
0.8125
40
0.8203125
40
0.8203125
40
0.82421875
40
0.82421875
40
0.828125
40
0.828125
40
0.84375
40
0.84375
40
0.875
40
0.875
40
0.90625
40
0.90625
40
0.921875
40
0.921875
40
0.9375
40
0.9375
40
0.953125
40
0.953125
40
0.96875
40
0.96875
40
0.984375
40
0.984375
40
1
40
1
40
1
40
1
41
1
10
91.4835310475956
20
11
30
0
41
1
10
91.5878310098402
20
11
30
0
41
1
10
91.6921309720847
20
10.9522786829587
30
0
41
1
10
91.9007308965738
20
10.7448153180496
30
0
41
1
10
92.0050308588184
20
10.5849324997751
30
0
41
1
10
92.1614808021852
20
10.2543349245477
30
0
41
1
10
92.2136307833074
20
10.1290822484081
30
0
41
1
10
92.317930745552
20
9.84842025783948
30
0
41
1
10
92.3700807266744
20
9.69300927422287
30
0
41
1
10
92.4743806889188
20
9.35277467092448
30
0
41
1
10
92.5265306700411
20
9.16795107045687
30
0
41
1
10
92.6308306322857
20
8.77046084467631
30
0
41
1
10
92.6829806134079
20
8.55779607374689
30
0
41
1
10
92.7872805756524
20
8.10699099936869
30
0
41
1
10
92.8394305567748
20
7.86885431462426
30
0
41
1
10
92.9437305190193
20
7.37018819101928
30
0
41
1
10
92.9958805001415
20
7.10966384241314
30
0
41
1
10
93.1001804623861
20
6.56988847322924
30
0
41
1
10
93.1523304435083
20
6.2906435389192
30
0
41
1
10
93.2566304057529
20
5.71750673243551
30
0
41
1
10
93.3087803868752
20
5.42362135922161
30
0
41
1
10
93.465230330242
20
4.5264482339376
30
0
41
1
10
93.5695302924865
20
3.90773875640934
30
0
41
1
10
93.7781302169756
20
2.66313531737708
30
0
41
1
10
93.8824301792201
20
2.03738482245052
30
0
41
1
10
94.0388801225869
20
1.11553250683363
30
0
41
1
10
94.0910301037093
20
0.810992576216449
30
0
41
1
10
94.1692550753927
20
0.360509331605556
30
0
41
1
10
94.1953300659538
20
0.211398631286102
30
0
41
1
10
94.2344425517955
20
-0.0104528771726677
30
0
41
1
10
94.2474800470761
20
-0.0841629007707638
30
0
41
1
10
94.2735550376372
20
-0.232572786584228
30
0
41
1
10
94.2865925329177
20
-0.307071742450432
30
0
41
1
10
94.4039299904429
20
-0.980029923687823
30
0
41
1
10
94.5082299526874
20
-1.5960981769334
30
0
41
1
10
94.7168298771765
20
-2.83898892236408
30
0
41
1
10
94.821129839421
20
-3.46571489031058
30
0
41
1
10
94.9775797827879
20
-4.38986460000456
30
0
41
1
10
95.0297297639101
20
-4.69521325217042
30
0
41
1
10
95.1340297261546
20
-5.29620153197206
30
0
41
1
10
95.1861797072769
20
-5.59183491810927
30
0
41
1
10
95.2904796695215
20
-6.16907512467873
30
0
41
1
10
95.3426296506437
20
-6.45067543684618
30
0
41
1
10
95.4469296128883
20
-6.99572521912722
30
0
41
1
10
95.4990795940106
20
-7.25916850665729
30
0
41
1
10
95.6033795562551
20
-7.76416595135848
30
0
41
1
10
95.6555295373774
20
-8.00571484291726
30
0
41
1
10
95.7598294996219
20
-8.4637451823271
30
0
41
1
10
95.8119794807442
20
-8.68022277777024
30
0
41
1
10
95.9162794429888
20
-9.08563076206968
30
0
41
1
10
95.968429424111
20
-9.27455903405939
30
0
41
1
10
96.0727293863555
20
-9.62317776206592
30
0
41
1
10
96.1248793674778
20
-9.78286794016134
30
0
41
1
10
96.2813293108446
20
-10.2167837284407
30
0
41
1
10
96.3856292730892
20
-10.4454883380272
30
0
41
1
10
96.5942291975783
20
-10.7842511565418
30
0
41
1
10
96.6985291598228
20
-10.8944311163881
30
0
41
1
10
96.8549791031897
20
-10.9803541242366
30
0
41
1
10
96.9071290843119
20
-10.9958379707729
30
0
41
1
10
96.9723165607148
20
-11.0001219757609
30
0
41
1
10
96.9853540559953
20
-11.0002298436776
30
0
41
1
10
97.0114290465565
20
-10.9989557298142
30
0
41
1
10
97.0505415323982
20
-10.9947944648102
30
0
41
1
10
97.0896540182398
20
-10.983717688505
30
0
41
1
10
97.2200289710455
20
-10.9307348619873
30
0
41
1
10
97.3243289332901
20
-10.8366715111418
30
0
41
1
10
97.5329288577791
20
-10.5314560224319
30
0
41
1
10
97.6372288200238
20
-10.3201756101386
30
0
41
1
10
97.7936787633906
20
-9.91212645175872
30
0
41
1
10
97.8458287445128
20
-9.7610099256809
30
0
41
1
10
97.9501287067574
20
-9.42920701274753
30
0
41
1
10
98.0022786878797
20
-9.24852038948779
30
0
41
1
10
98.1065786501242
20
-8.85902900624495
30
0
41
1
10
98.1587286312465
20
-8.65022583671612
30
0
41
1
10
98.2630285934911
20
-8.20675834895459
30
0
41
1
10
98.3151785746133
20
-7.97209740964519
30
0
41
1
10
98.4194785368578
20
-7.47990172277386
30
0
41
1
10
98.4716285179801
20
-7.22237188021663
30
0
41
1
10
98.5759284802246
20
-6.68803058635939
30
0
41
1
10
98.6280784613468
20
-6.41122511287551
30
0
41
1
10
98.7323784235915
20
-5.84236444608655
30
0
41
1
10
98.7845284047137
20
-5.55031573000602
30
0
41
1
10
98.8888283669583
20
-4.95525101622025
30
0
41
1
10
98.9409783480805
20
-4.65224139343968
30
0
41
1
10
99.0974282914473
20
-3.73326841006218
30
0
41
1
10
99.201728253692
20
-3.10752110926708
30
0
41
1
10
99.410328178181
20
-1.8623356399402
30
0
41
1
10
99.5146281404255
20
-1.24300613746271
30
0
41
1
10
99.6450030932311
20
-0.489264349487428
30
0
41
1
10
99.6710780837924
20
-0.339517622434187
30
0
41
1
10
99.7101905696341
20
-0.116646174821881
30
0
41
1
10
99.7232280649146
20
-0.0427831179117959
30
0
41
1
10
99.7493030554757
20
0.10494041123485
30
0
41
1
10
99.7623405507563
20
0.179107082613484
30
0
41
1
10
99.8275280271591
20
0.551368806786968
30
0
41
1
10
99.8796780082814
20
0.853769738955123
30
0
41
1
10
100.036127951648
20
1.77055229552599
30
0
41
1
10
100.140427913893
20
2.39473333421071
30
0
41
1
10
100.349027838382
20
3.64080809198617
30
0
41
1
10
100.453327800626
20
4.26256960851592
30
0
41
1
10
100.609777743993
20
5.16809443958297
30
0
41
1
10
100.661927725116
20
5.46538687334541
30
0
41
1
10
100.76622768736
20
6.04655651753339
30
0
41
1
10
100.818377668482
20
6.33042722270105
30
0
41
1
10
100.922677630727
20
6.8805894037707
30
0
41
1
10
100.974827611849
20
7.14687461307409
30
0
41
1
10
101.079127574094
20
7.65806090019615
30
0
41
1
10
101.131277555216
20
7.90295654736784
30
0
41
1
10
101.23557751746
20
8.36809567124715
30
0
41
1
10
101.287727498583
20
8.5883350685379
30
0
41
1
10
101.392027460827
20
9.00157505888842
30
0
41
1
10
101.44417744195
20
9.19457327472367
30
0
41
1
10
101.496327423072
20
9.37304849018005
30
0
0
SPLINE
5
F5
100
AcDbEntity
8
1
62
256
6
ByLayer
370
13
48
1
60
0
100
AcDbSpline
70
4
71
3
72
14
73
10
40
0
40
0
40
0
40
0
40
0.25
40
0.25
40
0.5
40
0.5
40
0.75
40
0.75
40
1
40
1
40
1
40
1
41
1
10
90.5
20
8.71085122568485
30
0
41
1
10
90.5967519162579
20
9.10092938530497
30
0
41
1
10
90.6935038325159
20
9.44435869426576
30
0
41
1
10
90.8870076650319
20
10.0279417115816
30
0
41
1
10
90.9837595812899
20
10.2681111700843
30
0
41
1
10
91.1772634138058
20
10.6448152876014
30
0
41
1
10
91.2740153300638
20
10.7814225580192
30
0
41
1
10
91.4675191625796
20
10.9589660668547
30
0
41
1
10
91.5642710788377
20
11
30
0
41
1
10
91.6610229950957
20
11
30
0
0
SPLINE
5
F6
100
AcDbEntity
8
1
62
256
6
ByLayer
370
13
48
1
60
0
100
AcDbSpline
70
4
71
3
72
134
73
130
40
0
40
0
40
0
40
0
40
0.03125
40
0.03125
40
0.046875
40
0.046875
40
0.0625
40
0.0625
40
0.078125
40
0.078125
40
0.0937500000000001
40
0.0937500000000001
40
0.109375
40
0.109375
40
0.125
40
0.125
40
0.140625
40
0.140625
40
0.15625
40
0.15625
40
0.171875
40
0.171875
40
0.1875
40
0.1875
40
0.203125
40
0.203125
40
0.21875
40
0.21875
40
0.234375
40
0.234375
40
0.25
40
0.25
40
0.2578125
40
0.2578125
40
0.265625
40
0.265625
40
0.28125
40
0.28125
40
0.296875
40
0.296875
40
0.3125
40
0.3125
40
0.328125
40
0.328125
40
0.34375
40
0.34375
40
0.359375
40
0.359375
40
0.375
40
0.375
40
0.390625
40
0.390625
40
0.40625
40
0.40625
40
0.421875
40
0.421875
40
0.4375
40
0.4375
40
0.453125
40
0.453125
40
0.46875
40
0.46875
40
0.484375
40
0.484375
40
0.5
40
0.5
40
0.515625
40
0.515625
40
0.5234375
40
0.5234375
40
0.53125
40
0.53125
40
0.5625
40
0.5625
40
0.578125
40
0.578125
40
0.59375
40
0.59375
40
0.609375
40
0.609375
40
0.625
40
0.625
40
0.640625
40
0.640625
40
0.65625
40
0.65625
40
0.671875
40
0.671875
40
0.6875
40
0.6875
40
0.703125
40
0.703125
40
0.71875
40
0.71875
40
0.734375
40
0.734375
40
0.75
40
0.75
40
0.78125
40
0.78125
40
0.7890625
40
0.7890625
40
0.796875
40
0.796875
40
0.8125
40
0.8125
40
0.828125
40
0.828125
40
0.84375
40
0.84375
40
0.859375
40
0.859375
40
0.875
40
0.875
40
0.890625
40
0.890625
40
0.90625
40
0.90625
40
0.921875
40
0.921875
40
0.9375
40
0.9375
40
0.953125
40
0.953125
40
0.96875
40
0.96875
40
0.984375
40
0.984375
40
1
40
1
40
1
40
1
41
1
10
90.991765798706
20
11
30
0
41
1
10
91.1011883156265
20
11
30
0
41
1
10
91.210610832547
20
10.9474473830871
30
0
41
1
10
91.3747446079276
20
10.7755645406325
30
0
41
1
10
91.4294558663879
20
10.702812111137
30
0
41
1
10
91.5388783833084
20
10.5248608606911
30
0
41
1
10
91.5935896417686
20
10.4196571277201
30
0
41
1
10
91.7030121586891
20
10.1760347013615
30
0
41
1
10
91.7577234171494
20
10.0376124527975
30
0
41
1
10
91.8671459340699
20
9.72768670913536
30
0
41
1
10
91.92185719253
20
9.55618159078497
30
0
41
1
10
92.0312797094505
20
9.18120590786774
30
0
41
1
10
92.0859909679107
20
8.97773604790274
30
0
41
1
10
92.1954134848313
20
8.54094386540729
30
0
41
1
10
92.2501247432915
20
8.30762469443633
30
0
41
1
10
92.359547260212
20
7.81418637385218
30
0
41
1
10
92.4142585186722
20
7.55407261470106
30
0
41
1
10
92.5236810355927
20
7.01090783589331
30
0
41
1
10
92.5783922940529
20
6.72786392693104
30
0
41
1
10
92.6878148109735
20
6.14332198641142
30
0
41
1
10
92.7425260694337
20
5.8418320404426
30
0
41
1
10
92.8519485863541
20
5.22527056675128
30
0
41
1
10
92.9066598448144
20
4.91020725857754
30
0
41
1
10
93.0160823617348
20
4.27151312002354
30
0
41
1
10
93.0707936201951
20
3.94788985049334
30
0
41
1
10
93.1802161371155
20
3.29699167443368
30
0
41
1
10
93.2349273955759
20
2.96972304634824
30
0
41
1
10
93.3443499124963
20
2.31614204111551
30
0
41
1
10
93.3990611709565
20
1.98983427725787
30
0
41
1
10
93.508483687877
20
1.34231026284954
30
0
41
1
10
93.5631949463373
20
1.02109683373627
30
0
41
1
10
93.6452618340276
20
0.545758463887239
30
0
41
1
10
93.6726174632578
20
0.388387818712204
30
0
41
1
10
93.727328721718
20
0.0761810674945025
30
0
41
1
10
93.754684350948
20
-0.077984627461035
30
0
41
1
10
93.8367512386384
20
-0.546324148035438
30
0
41
1
10
93.8914624970987
20
-0.863636856566814
30
0
41
1
10
94.0008850140192
20
-1.50520415968859
30
0
41
1
10
94.0555962724794
20
-1.82945680116936
30
0
41
1
10
94.1650187893999
20
-2.48105273328196
30
0
41
1
10
94.2197300478601
20
-2.80839230237558
30
0
41
1
10
94.3291525647805
20
-3.46177574996813
30
0
41
1
10
94.3838638232408
20
-3.78781414780579
30
0
41
1
10
94.4932863401613
20
-4.4338121029065
30
0
41
1
10
94.5479975986215
20
-4.75376467410121
30
0
41
1
10
94.657420115542
20
-5.38259926486205
30
0
41
1
10
94.7121313740022
20
-5.69147330207437
30
0
41
1
10
94.8215538909228
20
-6.29317730965613
30
0
41
1
10
94.8762651493829
20
-6.58599902235286
30
0
41
1
10
94.9856876663035
20
-7.15088964770553
30
0
41
1
10
95.0403989247637
20
-7.42295086156645
30
0
41
1
10
95.1498214416841
20
-7.9421191928221
30
0
41
1
10
95.2045327001444
20
-8.18921998132399
30
0
41
1
10
95.3139552170649
20
-8.65498709247211
30
0
41
1
10
95.3686664755252
20
-8.87364910181952
30
0
41
1
10
95.4780889924456
20
-9.27994114607606
30
0
41
1
10
95.5328002509058
20
-9.46756925256096
30
0
41
1
10
95.6422227678263
20
-9.81017360967081
30
0
41
1
10
95.6969340262865
20
-9.96515035820624
30
0
41
1
10
95.806356543207
20
-10.2418310486236
30
0
41
1
10
95.8610678016672
20
-10.3635376468121
30
0
41
1
10
95.9704903185878
20
-10.5740073907263
30
0
41
1
10
96.0252015770481
20
-10.6627748512526
30
0
41
1
10
96.1346240939685
20
-10.8085392889452
30
0
41
1
10
96.1893353524287
20
-10.8655416179717
30
0
41
1
10
96.2987578693492
20
-10.9496448890249
30
0
41
1
10
96.3534691278094
20
-10.9767515898677
30
0
41
1
10
96.4355360154998
20
-10.9967827061086
30
0
41
1
10
96.4628916447299
20
-11.0000251601255
30
0
41
1
10
96.5176029031901
20
-10.9999745459164
30
0
41
1
10
96.5449585324202
20
-10.9966801587714
30
0
41
1
10
96.6817366785708
20
-10.963029005922
30
0
41
1
10
96.7911591954913
20
-10.8808197582083
30
0
41
1
10
96.9552929708721
20
-10.6618047536983
30
0
41
1
10
97.0100042293323
20
-10.5729115160934
30
0
41
1
10
97.1194267462528
20
-10.3621872208761
30
0
41
1
10
97.1741380047129
20
-10.240351853727
30
0
41
1
10
97.2835605216334
20
-9.9634141299731
30
0
41
1
10
97.3382717800937
20
-9.80830912457142
30
0
41
1
10
97.4476942970142
20
-9.46545257152891
30
0
41
1
10
97.5024055554744
20
-9.27770053503667
30
0
41
1
10
97.6118280723948
20
-8.87116882158304
30
0
41
1
10
97.6665393308551
20
-8.65239108257455
30
0
41
1
10
97.7759618477756
20
-8.18640435240837
30
0
41
1
10
97.8306731062358
20
-7.93919968326992
30
0
41
1
10
97.9400956231563
20
-7.41983857820358
30
0
41
1
10
97.9948068816165
20
-7.14768847786681
30
0
41
1
10
98.104229398537
20
-6.58263747603615
30
0
41
1
10
98.1589406569973
20
-6.2897442771278
30
0
41
1
10
98.2683631739178
20
-5.68791620410201
30
0
41
1
10
98.323074432378
20
-5.37898958816777
30
0
41
1
10
98.4324969492984
20
-4.75006929351795
30
0
41
1
10
98.4872082077588
20
-4.4300835945775
30
0
41
1
10
98.5966307246792
20
-3.78403845246916
30
0
41
1
10
98.6513419831393
20
-3.45798599036419
30
0
41
1
10
98.7607645000599
20
-2.80459228271747
30
0
41
1
10
98.8154757585201
20
-2.47725651134723
30
0
41
1
10
98.9796095339009
20
-1.49989805106051
30
0
41
1
10
99.0890320508213
20
-0.854845488054423
30
0
41
1
10
99.2258101969719
20
-0.0743776268180909
30
0
41
1
10
99.253165826202
20
0.0797883066568374
30
0
41
1
10
99.3078770846623
20
0.392034238642253
30
0
41
1
10
99.3352327138924
20
0.549423066976857
30
0
41
1
10
99.4172996015828
20
1.02481129317152
30
0
41
1
10
99.4720108600429
20
1.34605169470461
30
0
41
1
10
99.5814333769634
20
1.99361472834479
30
0
41
1
10
99.6361446354236
20
2.3199345321355
30
0
41
1
10
99.7455671523442
20
2.97352261091152
30
0
41
1
10
99.8002784108044
20
3.30078626575565
30
0
41
1
10
99.9097009277249
20
3.95165594435412
30
0
41
1
10
99.9644121861851
20
4.27525568379326
30
0
41
1
10
100.073834703106
20
4.91388339728769
30
0
41
1
10
100.128545961566
20
5.22890380660007
30
0
41
1
10
100.237968478486
20
5.84536018485016
30
0
41
1
10
100.292679736947
20
6.14678793315409
30
0
41
1
10
100.402102253867
20
6.7311872064692
30
0
41
1
10
100.456813512327
20
7.0141506480594
30
0
41
1
10
100.566236029248
20
7.55713818980581
30
0
41
1
10
100.620947287708
20
7.81715518459916
30
0
41
1
10
100.730369804628
20
8.31038647403108
30
0
41
1
10
100.785081063089
20
8.54359538605772
30
0
41
1
10
100.894503580009
20
8.98015697768383
30
0
41
1
10
100.949214838469
20
9.18350651501225
30
0
41
1
10
101.05863735539
20
9.55823527709268
30
0
41
1
10
101.11334861385
20
9.72961380668863
30
0
41
1
10
101.222771130771
20
10.0392839765835
30
0
41
1
10
101.277482389231
20
10.17757724853
30
0
41
1
10
101.386904906151
20
10.4209430144513
30
0
41
1
10
101.441616164612
20
10.5260190700442
30
0
41
1
10
101.496327423072
20
10.6148693008381
30
0
0
SPLINE
5
F7
100
AcDbEntity
8
1
62
256
6
ByLayer
370
13
48
1
60
0
100
AcDbSpline
70
4
71
3
72
8
73
4
40
0
40
0
40
0
40
0
40
1
40
1
40
1
40
1
41
1
10
101.318836025388
20
11
30
0
41
1
10
101.377999824616
20
11
30
0
41
1
10
101.437163623844
20
10.9846959683824
30
0
41
1
10
101.496327423072
20
10.9524648183305
30
0
0
SPLINE
5
F8
100
AcDbEntity
8
1
62
256
6
ByLayer
370
13
48
1
60
0
100
AcDbSpline
70
4
71
3
72
14
73
10
40
0
40
0
40
0
40
0
40
0.25
40
0.25
40
0.5
40
0.5
40
0.75
40
0.75
40
1
40
1
40
1
40
1
41
1
10
90.5
20
10.2692209552279
30
0
41
1
10
90.5557714788505
20
10.3960124877205
30
0
41
1
10
90.6115429577011
20
10.5055331365776
30
0
41
1
10
90.723085915402
20
10.6907754255768
30
0
41
1
10
90.7788573942526
20
10.7665024034916
30
0
41
1
10
90.8904003519536
20
10.8857527634152
30
0
41
1
10
90.9461718308041
20
10.9292823234134
30
0
41
1
10
91.0577147885051
20
10.9864027765364
30
0
41
1
10
91.1134862673555
20
11
30
0
41
1
10
91.169257746206
20
11
30
0
0
SPLINE
5
F9
100
AcDbEntity
8
1
62
256
6
ByLayer
370
13
48
1
60
0
100
AcDbSpline
70
4
71
3
72
134
73
130
40
0
40
0
40
0
40
0
40
0.015625
40
0.015625
40
0.0312500000000001
40
0.0312500000000001
40
0.0468750000000002
40
0.0468750000000002
40
0.0625000000000002
40
0.0625000000000002
40
0.0781250000000003
40
0.0781250000000003
40
0.0937500000000003
40
0.0937500000000003
40
0.109375
40
0.109375
40
0.125000000000001
40
0.125000000000001
40
0.140625000000001
40
0.140625000000001
40
0.156250000000001
40
0.156250000000001
40
0.171875000000001
40
0.171875000000001
40
0.187500000000001
40
0.187500000000001
40
0.203125000000001
40
0.203125000000001
40
0.218750000000001
40
0.218750000000001
40
0.234375000000001
40
0.234375000000001
40
0.250000000000001
40
0.250000000000001
40
0.265625000000001
40
0.265625000000001
40
0.281250000000001
40
0.281250000000001
40
0.296875000000001
40
0.296875000000001
40
0.312500000000001
40
0.312500000000001
40
0.328125000000001
40
0.328125000000001
40
0.343750000000001
40
0.343750000000001
40
0.359375000000001
40
0.359375000000001
40
0.375000000000001
40
0.375000000000001
40
0.390625000000001
40
0.390625000000001
40
0.406250000000001
40
0.406250000000001
40
0.421875000000001
40
0.421875000000001
40
0.437500000000001
40
0.437500000000001
40
0.453125000000001
40
0.453125000000001
40
0.468750000000001
40
0.468750000000001
40
0.484375000000001
40
0.484375000000001
40
0.500000000000001
40
0.500000000000001
40
0.515625000000001
40
0.515625000000001
40
0.531250000000001
40
0.531250000000001
40
0.546875000000001
40
0.546875000000001
40
0.562500000000001
40
0.562500000000001
40
0.578125000000001
40
0.578125000000001
40
0.593750000000001
40
0.593750000000001
40
0.609375000000001
40
0.609375000000001
40
0.625000000000001
40
0.625000000000001
40
0.640625000000001
40
0.640625000000001
40
0.656250000000001
40
0.656250000000001
40
0.671875000000001
40
0.671875000000001
40
0.6875
40
0.6875
40
0.703125
40
0.703125
40
0.71875
40
0.71875
40
0.734375
40
0.734375
40
0.75
40
0.75
40
0.765625
40
0.765625
40
0.78125
40
0.78125
40
0.796875
40
0.796875
40
0.8125
40
0.8125
40
0.828125
40
0.828125
40
0.84375
40
0.84375
40
0.859375
40
0.859375
40
0.875
40
0.875
40
0.890625
40
0.890625
40
0.90625
40
0.90625
40
0.921875
40
0.921875
40
0.9375
40
0.9375
40
0.953125
40
0.953125
40
0.96875
40
0.96875
40
0.984375
40
0.984375
40
1
40
1
40
1
40
1
41
1
10
90.5000005498164
20
11
30
0
41
1
10
90.5572730856146
20
11
30
0
41
1
10
90.6145456214127
20
10.9856600340683
30
0
41
1
10
90.7290906930092
20
10.9253479644618
30
0
41
1
10
90.7863632288075
20
10.8793686286551
30
0
41
1
10
90.9009083004038
20
10.7533495143153
30
0
41
1
10
90.958180836202
20
10.673302713203
30
0
41
1
10
91.0727259077984
20
10.4774744550344
30
0
41
1
10
91.1299984435967
20
10.3616870184628
30
0
41
1
10
91.2445435151932
20
10.0936557657294
30
0
41
1
10
91.3018160509913
20
9.94140788836106
30
0
41
1
10
91.4163611225877
20
9.60084051731903
30
0
41
1
10
91.4736336583859
20
9.41251963662202
30
0
41
1
10
91.5881787299824
20
9.00138198021222
30
0
41
1
10
91.6454512657806
20
8.7785669564766
30
0
41
1
10
91.7599963373769
20
8.30120367140142
30
0
41
1
10
91.8172688731751
20
8.04666034126825
30
0
41
1
10
91.9318139447716
20
7.50968948920084
30
0
41
1
10
91.9890864805698
20
7.22726964428318
30
0
41
1
10
92.1036315521661
20
6.63928993027252
30
0
41
1
10
92.1609040879644
20
6.33373963656311
30
0
41
1
10
92.2754491595608
20
5.70487588120568
30
0
41
1
10
92.3327216953589
20
5.38157278940955
30
0
41
1
10
92.4472667669554
20
4.72290934461725
30
0
41
1
10
92.5045393027535
20
4.38755900733298
30
0
41
1
10
92.61908437435
20
3.71052582168798
30
0
41
1
10
92.6763569101482
20
3.36885164748955
30
0
41
1
10
92.7909019817446
20
2.68463041334002
30
0
41
1
10
92.8481745175428
20
2.34209000685081
30
0
41
1
10
92.9627195891393
20
1.6610985762984
30
0
41
1
10
93.0199921249375
20
1.32265187438102
30
0
41
1
10
93.1345371965339
20
0.654147263503859
30
0
41
1
10
93.1918097323322
20
0.324091379149138
30
0
41
1
10
93.3063548039285
20
-0.324089823514271
30
0
41
1
10
93.3636273397267
20
-0.654145672417997
30
0
41
1
10
93.478172411323
20
-1.32265025664478
30
0
41
1
10
93.5354449471213
20
-1.66109694838144
30
0
41
1
10
93.6499900187177
20
-2.34208836600888
30
0
41
1
10
93.7072625545159
20
-2.68462876975758
30
0
41
1
10
93.8218076261122
20
-3.36885000680999
30
0
41
1
10
93.8790801619105
20
-3.71052418665539
30
0
41
1
10
93.993625233507
20
-4.3875573926062
30
0
41
1
10
94.0508977693052
20
-4.72290774455206
30
0
41
1
10
94.1654428409016
20
-5.38157122789008
30
0
41
1
10
94.2227153766997
20
-5.70487434357176
30
0
41
1
10
94.3372604482961
20
-6.33373815565085
30
0
41
1
10
94.3945329840943
20
-6.63928848219606
30
0
41
1
10
94.5090780556907
20
-7.22726827005681
30
0
41
1
10
94.566350591489
20
-7.50968815598657
30
0
41
1
10
94.6808956630854
20
-8.0466590970222
30
0
41
1
10
94.7381681988836
20
-8.30120247510771
30
0
41
1
10
94.85271327048
20
-8.77856586142624
30
0
41
1
10
94.9099858062782
20
-9.00138093844805
30
0
41
1
10
95.0245308778746
20
-9.41251870492513
30
0
41
1
10
95.0818034136729
20
-9.60083964239809
30
0
41
1
10
95.1963484852693
20
-9.94140712855832
30
0
41
1
10
95.2536210210675
20
-10.0936550642643
30
0
41
1
10
95.3681660926638
20
-10.3616864333776
30
0
41
1
10
95.4254386284621
20
-10.4774739279879
30
0
41
1
10
95.5399837000584
20
-10.6733023002735
30
0
41
1
10
95.5972562358567
20
-10.7533491574617
30
0
41
1
10
95.711801307453
20
-10.8793683806167
30
0
41
1
10
95.7690738432512
20
-10.9253477691615
30
0
41
1
10
95.8836189148477
20
-10.9856599398704
30
0
41
1
10
95.940891450646
20
-10.9999999541665
30
0
41
1
10
96.0554365222424
20
-11.0000000458332
30
0
41
1
10
96.1127090580407
20
-10.985660128266
30
0
41
1
10
96.227254129637
20
-10.9253481597618
30
0
41
1
10
96.2845266654352
20
-10.8793688766933
30
0
41
1
10
96.3990717370316
20
-10.7533498711686
30
0
41
1
10
96.4563442728297
20
-10.6733031261322
30
0
41
1
10
96.5708893444262
20
-10.4774749820806
30
0
41
1
10
96.6281618802244
20
-10.3616876035477
30
0
41
1
10
96.7427069518208
20
-10.0936564671943
30
0
41
1
10
96.799979487619
20
-9.9414086481635
30
0
41
1
10
96.9145245592155
20
-9.60084139223972
30
0
41
1
10
96.9717970950137
20
-9.41252056831863
30
0
41
1
10
97.08634216661
20
-9.0013830219761
30
0
41
1
10
97.1436147024082
20
-8.77856805152666
30
0
41
1
10
97.2581597740046
20
-8.30120486769491
30
0
41
1
10
97.3154323098028
20
-8.04666158551407
30
0
41
1
10
97.4299773813992
20
-7.50969082241494
30
0
41
1
10
97.4872499171975
20
-7.22727101850936
30
0
41
1
10
97.6017949887938
20
-6.63929137834884
30
0
41
1
10
97.659067524592
20
-6.3337411174752
30
0
41
1
10
97.7736125961885
20
-5.70487741883952
30
0
41
1
10
97.8308851319867
20
-5.3815743509289
30
0
41
1
10
97.9454302035831
20
-4.72291094468235
30
0
41
1
10
98.0027027393813
20
-4.38756062205971
30
0
41
1
10
98.1172478109777
20
-3.71052745672051
30
0
41
1
10
98.1745203467759
20
-3.36885328816905
30
0
41
1
10
98.2890654183723
20
-2.68463205692245
30
0
41
1
10
98.3463379541705
20
-2.34209164769274
30
0
41
1
10
98.460883025767
20
-1.66110020421539
30
0
41
1
10
98.5181555615652
20
-1.32265349211735
30
0
41
1
10
98.6327006331616
20
-0.654148854589778
30
0
41
1
10
98.6899731689598
20
-0.324092953768854
30
0
41
1
10
98.8045182405562
20
0.324088286864082
30
0
41
1
10
98.8617907763544
20
0.65414408133222
30
0
41
1
10
98.9763358479509
20
1.32264863890859
30
0
41
1
10
99.033608383749
20
1.66109532046454
30
0
41
1
10
99.1481534553454
20
2.34208672516698
30
0
41
1
10
99.2054259911436
20
2.68462712617517
30
0
41
1
10
99.31997106274
20
3.36884836613044
30
0
41
1
10
99.3772435985383
20
3.71052255162277
30
0
41
1
10
99.4917886701346
20
4.38755577787933
30
0
41
1
10
99.5490612059328
20
4.72290614448679
30
0
41
1
10
99.6636062775293
20
5.38156966637049
30
0
41
1
10
99.7208788133274
20
5.7048728059377
30
0
41
1
10
99.8354238849239
20
6.33373667473842
30
0
41
1
10
99.8926964207222
20
6.63928703411943
30
0
41
1
10
100.007241492318
20
7.22726689583024
30
0
41
1
10
100.064514028117
20
7.50968682277207
30
0
41
1
10
100.179059099713
20
8.04665785277592
30
0
41
1
10
100.236331635511
20
8.30120127881378
30
0
41
1
10
100.350876707108
20
8.77856476637567
30
0
41
1
10
100.408149242906
20
9.00137989668363
30
0
41
1
10
100.522694314502
20
9.41251777322799
30
0
41
1
10
100.579966850301
20
9.60083876747686
30
0
41
1
10
100.694511921897
20
9.94140636875534
30
0
41
1
10
100.751784457695
20
10.0936543627988
30
0
41
1
10
100.866329529292
20
10.3616858482922
30
0
41
1
10
100.92360206509
20
10.4774734009412
30
0
41
1
10
101.038147136686
20
10.6733018873438
30
0
41
1
10
101.095419672484
20
10.7533488006079
30
0
41
1
10
101.209964744081
20
10.8793681325779
30
0
41
1
10
101.267237279879
20
10.925347573861
30
0
41
1
10
101.381782351475
20
10.9856598456723
30
0
41
1
10
101.439054887274
20
10.9999999083329
30
0
41
1
10
101.496327423072
20
10.9999999999996
30
0
0
SPLINE
5
FA
100
AcDbEntity
8
1
62
256
6
ByLayer
370
13
48
1
60
0
100
AcDbSpline
70
4
71
3
72
14
73
10
40
0
40
0
40
0
40
0
40
0.25
40
0.25
40
0.5
40
0.5
40
0.75
40
0.75
40
1
40
1
40
1
40
1
41
1
10
100.827070776499
20
11
30
0
41
1
10
100.882842163713
20
11
30
0
41
1
10
100.938613550927
20
10.9864028212738
30
0
41
1
10
101.050156325356
20
10.9292825602333
30
0
41
1
10
101.105927712571
20
10.8857531476324
30
0
41
1
10
101.217470487
20
10.7665031948885
30
0
41
1
10
101.273241874214
20
10.6907764768049
30
0
41
1
10
101.384784648643
20
10.50553482463
30
0
41
1
10
101.440556035857
20
10.3960145528037
30
0
41
1
10
101.496327423072
20
10.2692234551436
30
0
0
SPLINE
5
FB
100
AcDbEntity
8
1
62
256
6
ByLayer
370
13
48
1
60
0
100
AcDbSpline
70
4
71
3
72
8
73
4
40
0
40
0
40
0
40
0
40
1
40
1
40
1
40
1
41
1
10
90.5
20
10.9524642192726
30
0
41
1
10
90.5591641657721
20
10.9846957784841
30
0
41
1
10
90.6183283315443
20
11
30
0
41
1
10
90.6774924973164
20
11
30
0
0
SPLINE
5
FC
100
AcDbEntity
8
1
62
256
6
ByLayer
370
13
48
1
60
0
100
AcDbSpline
70
4
71
3
72
134
73
130
40
0
40
0
40
0
40
0
40
0.015625
40
0.015625
40
0.0312499999999999
40
0.0312499999999999
40
0.0468749999999999
40
0.0468749999999999
40
0.0624999999999998
40
0.0624999999999998
40
0.0781249999999998
40
0.0781249999999998
40
0.0937499999999997
40
0.0937499999999997
40
0.109375
40
0.109375
40
0.125
40
0.125
40
0.140625
40
0.140625
40
0.15625
40
0.15625
40
0.171874999999999
40
0.171874999999999
40
0.187499999999999
40
0.187499999999999
40
0.203124999999999
40
0.203124999999999
40
0.210937499999999
40
0.210937499999999
40
0.218749999999999
40
0.218749999999999
40
0.249999999999999
40
0.249999999999999
40
0.265624999999999
40
0.265624999999999
40
0.281249999999999
40
0.281249999999999
40
0.296874999999999
40
0.296874999999999
40
0.312499999999999
40
0.312499999999999
40
0.328125
40
0.328125
40
0.34375
40
0.34375
40
0.359375
40
0.359375
40
0.375
40
0.375
40
0.390625
40
0.390625
40
0.40625
40
0.40625
40
0.421875
40
0.421875
40
0.4375
40
0.4375
40
0.46875
40
0.46875
40
0.4765625
40
0.4765625
40
0.484375
40
0.484375
40
0.5
40
0.5
40
0.515625
40
0.515625
40
0.53125
40
0.53125
40
0.546875
40
0.546875
40
0.5625
40
0.5625
40
0.578125
40
0.578125
40
0.59375
40
0.59375
40
0.609375
40
0.609375
40
0.625
40
0.625
40
0.640625000000001
40
0.640625000000001
40
0.656250000000001
40
0.656250000000001
40
0.671875000000001
40
0.671875000000001
40
0.687500000000001
40
0.687500000000001
40
0.703125000000001
40
0.703125000000001
40
0.718750000000001
40
0.718750000000001
40
0.734375000000001
40
0.734375000000001
40
0.742187500000001
40
0.742187500000001
40
0.750000000000001
40
0.750000000000001
40
0.765625000000001
40
0.765625000000001
40
0.781250000000001
40
0.781250000000001
40
0.796875
40
0.796875
40
0.8125
40
0.8125
40
0.828125
40
0.828125
40
0.84375
40
0.84375
40
0.859375
40
0.859375
40
0.875
40
0.875
40
0.890625
40
0.890625
40
0.90625
40
0.90625
40
0.921875
40
0.921875
40
0.9375
40
0.9375
40
0.953125
40
0.953125
40
0.96875
40
0.96875
40
1
40
1
40
1
40
1
41
1
10
90.5
20
10.6148710866223
30
0
41
1
10
90.5547112641875
20
10.5260210634782
30
0
41
1
10
90.609422528375
20
10.4209452160858
30
0
41
1
10
90.71884505675
20
10.1775798618326
30
0
41
1
10
90.7735563209375
20
10.039286793341
30
0
41
1
10
90.8829788493124
20
9.72961701943711
30
0
41
1
10
90.9376901134999
20
9.55823868236226
30
0
41
1
10
91.0471126418749
20
9.1835102883071
30
0
41
1
10
91.1018239060624
20
8.98016092646765
30
0
41
1
10
91.2112464344374
20
8.54359966325228
30
0
41
1
10
91.2659576986249
20
8.31039090413393
30
0
41
1
10
91.3753802269999
20
7.8171598933865
30
0
41
1
10
91.4300914911874
20
7.55714302435962
30
0
41
1
10
91.5395140195624
20
7.0141557037887
30
0
41
1
10
91.59422528375
20
6.73119235760288
30
0
41
1
10
91.703647812125
20
6.14679324307374
30
0
41
1
10
91.7583590763124
20
5.84536555815225
30
0
41
1
10
91.8677816046873
20
5.22890927459633
30
0
41
1
10
91.9224928688748
20
4.91388889660161
30
0
41
1
10
92.0319153972498
20
4.27526121513662
30
0
41
1
10
92.0866266614373
20
3.95166147641905
30
0
41
1
10
92.1960491898122
20
3.30079177139515
30
0
41
1
10
92.2507604539998
20
2.97352808941588
30
0
41
1
10
92.3601829823747
20
2.31993993218009
30
0
41
1
10
92.4148942465622
20
1.99362007707697
30
0
41
1
10
92.5243167749372
20
1.3460569208753
30
0
41
1
10
92.5790280391248
20
1.02481644810427
30
0
41
1
10
92.661094935406
20
0.549428103453181
30
0
41
1
10
92.6884505674998
20
0.392039233700473
30
0
41
1
10
92.7431618316872
20
0.0797932155653882
30
0
41
1
10
92.770517463781
20
-0.0743727349592689
30
0
41
1
10
92.9072956242497
20
-0.854840545340124
30
0
41
1
10
93.0167181526247
20
-1.49989310264971
30
0
41
1
10
93.1808519451872
20
-2.47725161913934
30
0
41
1
10
93.2355632093746
20
-2.80458741997057
30
0
41
1
10
93.3449857377497
20
-3.45798120896487
30
0
41
1
10
93.3996970019371
20
-3.78403372296177
30
0
41
1
10
93.509119530312
20
-4.43007899129066
30
0
41
1
10
93.5638307944995
20
-4.75006476456232
30
0
41
1
10
93.6732533228745
20
-5.37898522922396
30
0
41
1
10
93.727964587062
20
-5.68791194083778
30
0
41
1
10
93.837387115437
20
-6.28974022436014
30
0
41
1
10
93.8920983796245
20
-6.58263353808064
30
0
41
1
10
94.0015209079995
20
-7.14768478542504
30
0
41
1
10
94.0562321721871
20
-7.41983501645501
30
0
41
1
10
94.1656547005621
20
-7.93919639471551
30
0
41
1
10
94.2203659647495
20
-8.18640120634402
30
0
41
1
10
94.3297884931245
20
-8.65238822867698
30
0
41
1
10
94.384499757312
20
-8.8711661173503
30
0
41
1
10
94.4939222856869
20
-9.27769813250842
30
0
41
1
10
94.5486335498745
20
-9.46545032102901
30
0
41
1
10
94.6580560782494
20
-9.80830717585542
30
0
41
1
10
94.7127673424369
20
-9.96341233100333
30
0
41
1
10
94.8221898708119
20
-10.2403503478076
30
0
41
1
10
94.8769011349994
20
-10.3621858582546
30
0
41
1
10
94.9863236633743
20
-10.5729104301728
30
0
41
1
10
95.0410349275619
20
-10.6618038011777
30
0
41
1
10
95.2051687201243
20
-10.8808191871523
30
0
41
1
10
95.3145912484994
20
-10.9630286637667
30
0
41
1
10
95.451369408968
20
-10.9966800646544
30
0
41
1
10
95.4787250410618
20
-10.9999744995355
30
0
41
1
10
95.5334363052493
20
-11.0000252054405
30
0
41
1
10
95.5607919373431
20
-10.9967827977542
30
0
41
1
10
95.6428588336244
20
-10.9767518217587
30
0
41
1
10
95.6975700978118
20
-10.9496452160232
30
0
41
1
10
95.8069926261868
20
-10.8655421361614
30
0
41
1
10
95.8617038903743
20
-10.8085399032156
30
0
41
1
10
95.9711264187492
20
-10.6627756560527
30
0
41
1
10
96.0258376829368
20
-10.5740082899705
30
0
41
1
10
96.1352602113117
20
-10.3635387304719
30
0
41
1
10
96.1899714754992
20
-10.2418322222484
30
0
41
1
10
96.2993940038742
20
-9.96515170439062
30
0
41
1
10
96.3541052680618
20
-9.81017503844248
30
0
41
1
10
96.4635277964368
20
-9.46757083639136
30
0
41
1
10
96.5182390606241
20
-9.27994280237084
30
0
41
1
10
96.6276615889992
20
-8.87365089055436
30
0
41
1
10
96.6823728531866
20
-8.6549889411767
30
0
41
1
10
96.7917953815617
20
-8.18922193567846
30
0
41
1
10
96.8465066457492
20
-7.94212119285285
30
0
41
1
10
96.9559291741241
20
-7.4229529375821
30
0
41
1
10
97.0106404383116
20
-7.15089175402863
30
0
41
1
10
97.1200629666866
20
-6.58600117364631
30
0
41
1
10
97.1747742308741
20
-6.29317947561407
30
0
41
1
10
97.2841967592491
20
-5.69147548223617
30
0
41
1
10
97.3389080234366
20
-5.38260144456723
30
0
41
1
10
97.4483305518115
20
-4.75376683899867
30
0
41
1
10
97.503041815999
20
-4.43381425345854
30
0
41
1
10
97.6124643443741
20
-3.78781625756577
30
0
41
1
10
97.6671756085616
20
-3.46177783328795
30
0
41
1
10
97.7765981369365
20
-2.80839432288329
30
0
41
1
10
97.831309401124
20
-2.48105471742406
30
0
41
1
10
97.940731929499
20
-1.82945870499762
30
0
41
1
10
97.9954431936865
20
-1.5052060195741
30
0
41
1
10
98.1048657220615
20
-0.863638623331866
30
0
41
1
10
98.159576986249
20
-0.546325865626983
30
0
41
1
10
98.2416438825302
20
-0.0779862690147581
30
0
41
1
10
98.2689995146239
20
0.0761794421256354
30
0
41
1
10
98.3237107788115
20
0.388386208537952
30
0
41
1
10
98.3510664109052
20
0.545756862203405
30
0
41
1
10
98.4331333071864
20
1.02109526022963
30
0
41
1
10
98.4878445713739
20
1.34230871174674
30
0
41
1
10
98.5972670997488
20
1.98983277809191
30
0
41
1
10
98.6519783639364
20
2.31614057148377
30
0
41
1
10
98.7614008923114
20
2.96972164243212
30
0
41
1
10
98.8161121564989
20
3.29699030669914
30
0
41
1
10
98.9255346848738
20
3.94788856088633
30
0
41
1
10
98.9802459490613
20
4.27151187236126
30
0
41
1
10
99.0896684774362
20
4.91020609930041
30
0
41
1
10
99.1443797416238
20
5.22526945391184
30
0
41
1
10
99.2538022699988
20
5.84183102337789
30
0
41
1
10
99.3085135341863
20
6.14332101867976
30
0
41
1
10
99.4179360625612
20
6.72786305894175
30
0
41
1
10
99.4726473267488
20
7.0109070183085
30
0
41
1
10
99.5820698551237
20
7.55407189708538
30
0
41
1
10
99.6367811193112
20
7.81418570579609
30
0
41
1
10
99.7462036476862
20
8.30762412280023
30
0
41
1
10
99.8009149118737
20
8.54094334062708
30
0
41
1
10
99.9103374402487
20
8.97773561247811
30
0
41
1
10
99.9650487044362
20
9.18120551493936
30
0
41
1
10
100.074471232811
20
9.55618127715937
30
0
41
1
10
100.129182496999
20
9.7276864323143
30
0
41
1
10
100.238605025374
20
10.0376122429664
30
0
41
1
10
100.293316289561
20
10.1760345217156
30
0
41
1
10
100.402738817936
20
10.419657001333
30
0
41
1
10
100.457450082124
20
10.5248607573791
30
0
41
1
10
100.566872610499
20
10.7028120467952
30
0
41
1
10
100.621583874686
20
10.7755644921881
30
0
41
1
10
100.785717667249
20
10.9474473720182
30
0
41
1
10
100.895140195623
20
11
30
0
41
1
10
101.004562723999
20
11
30
0
0
SPLINE
5
FD
100
AcDbEntity
8
1
62
256
6
ByLayer
370
13
48
1
60
0
100
AcDbSpline
70
4
71
3
72
14
73
10
40
0
40
0
40
0
40
0
40
0.25
40
0.25
40
0.5
40
0.5
40
0.75
40
0.75
40
1
40
1
40
1
40
1
41
1
10
100.335305527609
20
11
30
0
41
1
10
100.432057352231
20
11
30
0
41
1
10
100.528809176853
20
10.958966144931
30
0
41
1
10
100.722312826096
20
10.7814229844097
30
0
41
1
10
100.819064650719
20
10.6448159846816
30
0
41
1
10
101.012568299962
20
10.2681126137161
30
0
41
1
10
101.109320124584
20
10.0279436313365
30
0
41
1
10
101.302823773828
20
9.4443617490376
30
0
41
1
10
101.39957559845
20
9.10093309884772
30
0
41
1
10
101.496327423072
20
8.71085565911145
30
0
0
SPLINE
5
FE
100
AcDbEntity
8
1
62
256
6
ByLayer
370
13
48
1
60
0
100
AcDbSpline
70
4
71
3
72
118
73
114
40
0
40
0
40
0
40
0
40
0.0156250000000005
40
0.0156250000000005
40
0.031250000000001
40
0.031250000000001
40
0.0468750000000015
40
0.0468750000000015
40
0.062500000000002
40
0.062500000000002
40
0.0781250000000025
40
0.0781250000000025
40
0.093750000000003
40
0.093750000000003
40
0.125000000000004
40
0.125000000000004
40
0.156250000000005
40
0.156250000000005
40
0.171875000000006
40
0.171875000000006
40
0.175781250000006
40
0.175781250000006
40
0.179687500000005
40
0.179687500000005
40
0.187500000000005
40
0.187500000000005
40
0.218750000000005
40
0.218750000000005
40
0.250000000000006
40
0.250000000000006
40
0.265625000000006
40
0.265625000000006
40
0.281250000000006
40
0.281250000000006
40
0.296875000000006
40
0.296875000000006
40
0.312500000000006
40
0.312500000000006
40
0.328125000000006
40
0.328125000000006
40
0.343750000000006
40
0.343750000000006
40
0.359375000000006
40
0.359375000000006
40
0.375000000000006
40
0.375000000000006
40
0.406250000000006
40
0.406250000000006
40
0.437500000000006
40
0.437500000000006
40
0.445312500000006
40
0.445312500000006
40
0.449218750000006
40
0.449218750000006
40
0.453125000000006
40
0.453125000000006
40
0.468750000000005
40
0.468750000000005
40
0.500000000000004
40
0.500000000000004
40
0.531250000000004
40
0.531250000000004
40
0.546875000000003
40
0.546875000000003
40
0.562500000000003
40
0.562500000000003
40
0.578125000000003
40
0.578125000000003
40
0.593750000000002
40
0.593750000000002
40
0.609375000000002
40
0.609375000000002
40
0.625000000000002
40
0.625000000000002
40
0.640625000000001
40
0.640625000000001
40
0.656250000000001
40
0.656250000000001
40
0.6875
40
0.6875
40
0.718749999999999
40
0.718749999999999
40
0.722656249999999
40
0.722656249999999
40
0.726562499999999
40
0.726562499999999
40
0.734374999999999
40
0.734374999999999
40
0.749999999999999
40
0.749999999999999
40
0.781249999999999
40
0.781249999999999
40
0.8125
40
0.8125
40
0.828125
40
0.828125
40
0.84375
40
0.84375
40
0.859375
40
0.859375
40
0.875
40
0.875
40
0.890625
40
0.890625
40
0.90625
40
0.90625
40
0.921875
40
0.921875
40
0.9375
40
0.9375
40
0.96875
40
0.96875
40
1
40
1
40
1
40
1
41
1
10
90.5
20
9.37305225350019
30
0
41
1
10
90.5521499868496
20
9.19457722212223
30
0
41
1
10
90.6042999736991
20
9.0015791822546
30
0
41
1
10
90.7085999473981
20
8.58833952258266
30
0
41
1
10
90.7607499342477
20
8.36810027999161
30
0
41
1
10
90.8650499079466
20
7.90296144003051
30
0
41
1
10
90.9171998947961
20
7.65806592206889
30
0
41
1
10
91.0214998684953
20
7.14687986479618
30
0
41
1
10
91.0736498553448
20
6.88059475612758
30
0
41
1
10
91.1779498290438
20
6.33043274599902
30
0
41
1
10
91.2300998158934
20
6.04656211113755
30
0
41
1
10
91.3343997895925
20
5.4653925768782
30
0
41
1
10
91.3865497764419
20
5.16810018274222
30
0
41
1
10
91.5429997369905
20
4.2625754260115
30
0
41
1
10
91.6472997106895
20
3.64081389921222
30
0
41
1
10
91.8558996580878
20
2.39473902216136
30
0
41
1
10
91.9601996317867
20
1.77055787478986
30
0
41
1
10
92.1166495923353
20
0.853775104692943
30
0
41
1
10
92.1687995791848
20
0.551374092979046
30
0
41
1
10
92.2339870627466
20
0.179112261431584
30
0
41
1
10
92.2470245594591
20
0.104945568180852
30
0
41
1
10
92.2730995528838
20
-0.0427780054429832
30
0
41
1
10
92.2861370495962
20
-0.11664104005618
30
0
41
1
10
92.3252495397334
20
-0.339512471864708
30
0
41
1
10
92.3513245331583
20
-0.489259190434296
30
0
41
1
10
92.481699500282
20
-1.24300094694507
30
0
41
1
10
92.5859994739811
20
-1.86233045963718
30
0
41
1
10
92.7945994213792
20
-3.10751603334435
30
0
41
1
10
92.8988993950782
20
-3.73326342847699
30
0
41
1
10
93.0553493556267
20
-4.65223661769451
30
0
41
1
10
93.1074993424763
20
-4.95524631970119
30
0
41
1
10
93.2117993161753
20
-5.55031121194344
30
0
41
1
10
93.2639493030248
20
-5.84236002725285
30
0
41
1
10
93.3682492767239
20
-6.41122091031863
30
0
41
1
10
93.4203992635734
20
-6.68802650084592
30
0
41
1
10
93.5246992372724
20
-7.22236804354742
30
0
41
1
10
93.576849224122
20
-7.47989801789825
30
0
41
1
10
93.6811491978211
20
-7.97209397935444
30
0
41
1
10
93.7332991846706
20
-8.20675506144602
30
0
41
1
10
93.8375991583697
20
-8.65022284155995
30
0
41
1
10
93.8897491452192
20
-8.85902616064919
30
0
41
1
10
93.9940491189183
20
-9.24851784543046
30
0
41
1
10
94.0461991057678
20
-9.42920462065879
30
0
41
1
10
94.1504990794668
20
-9.76100783570877
30
0
41
1
10
94.2026490663164
20
-9.91212451192672
30
0
41
1
10
94.359099026865
20
-10.3201741122309
30
0
41
1
10
94.463399000564
20
-10.5314548074316
30
0
41
1
10
94.671998947962
20
-10.8366708155234
30
0
41
1
10
94.7762989216612
20
-10.9307344028267
30
0
41
1
10
94.9066738887849
20
-10.9837174890836
30
0
41
1
10
94.9327488822096
20
-10.9911020568058
30
0
41
1
10
94.9718613723468
20
-10.9975684639428
30
0
41
1
10
94.9848988690593
20
-10.9989556769189
30
0
41
1
10
95.0109738624841
20
-11.0002298373829
30
0
41
1
10
95.0240113591964
20
-11.0001219922269
30
0
41
1
10
95.0891988427583
20
-10.9958381025085
30
0
41
1
10
95.1413488296078
20
-10.9803543500588
30
0
41
1
10
95.2977987901563
20
-10.8944316272444
30
0
41
1
10
95.4020987638554
20
-10.7842518612415
30
0
41
1
10
95.6106987112536
20
-10.4454894191118
30
0
41
1
10
95.7149986849524
20
-10.2167849919132
30
0
41
1
10
95.8714486455011
20
-9.78286945284623
30
0
41
1
10
95.9235986323507
20
-9.62317935375938
30
0
41
1
10
96.0278986060497
20
-9.27456077326994
30
0
41
1
10
96.0800485928993
20
-9.08563256978312
30
0
41
1
10
96.1843485665983
20
-8.68022470998932
30
0
41
1
10
96.2364985534477
20
-8.46374717054451
30
0
41
1
10
96.3407985271469
20
-8.00571692917305
30
0
41
1
10
96.3929485139965
20
-7.76416807965165
30
0
41
1
10
96.4972484876954
20
-7.25917070425936
30
0
41
1
10
96.549398474545
20
-6.99572744400035
30
0
41
1
10
96.6536984482441
20
-6.45067770138715
30
0
41
1
10
96.7058484350936
20
-6.16907740161818
30
0
41
1
10
96.8101484087926
20
-5.59183720554475
30
0
41
1
10
96.8622983956421
20
-5.29620381750863
30
0
41
1
10
96.9665983693412
20
-4.69521552078402
30
0
41
1
10
97.0187483561907
20
-4.3898668535989
30
0
41
1
10
97.1751983167393
20
-3.4657170816368
30
0
41
1
10
97.2794982904384
20
-2.83899104916787
30
0
41
1
10
97.4880982378364
20
-1.59610014505961
30
0
41
1
10
97.5923982115355
20
-0.980031797805282
30
0
41
1
10
97.7097356819469
20
-0.307073503650798
30
0
41
1
10
97.7227731786593
20
-0.232574535137474
30
0
41
1
10
97.748848172084
20
-0.084164623857788
30
0
41
1
10
97.7618856687965
20
-0.0104545861534859
30
0
41
1
10
97.8009981589337
20
0.211396932736392
30
0
41
1
10
97.8270731523584
20
0.3605076408559
30
0
41
1
10
97.9052981326327
20
0.810990911438921
30
0
41
1
10
97.9574481194821
20
1.11553086280955
30
0
41
1
10
98.1138980800307
20
2.03738325096214
30
0
41
1
10
98.2181980537299
20
2.6631338081221
30
0
41
1
10
98.426798001128
20
3.90773739526341
30
0
41
1
10
98.5310979748269
20
4.52644695864785
30
0
41
1
10
98.6875479353755
20
5.42362022332625
30
0
41
1
10
98.7396979222251
20
5.71750564473271
30
0
41
1
10
98.8439978959241
20
6.29064254948798
30
0
41
1
10
98.8961478827736
20
6.56988753387341
30
0
41
1
10
99.0004478564727
20
7.1096630033806
30
0
41
1
10
99.0525978433222
20
7.37018740223056
30
0
41
1
10
99.1568978170212
20
7.86885362476116
30
0
41
1
10
99.2090478038708
20
8.1069903581834
30
0
41
1
10
99.3133477775698
20
8.55779552672459
30
0
41
1
10
99.3654977644194
20
8.77046034313577
30
0
41
1
10
99.4697977381184
20
9.16795065527458
30
0
41
1
10
99.521947724968
20
9.35277429661625
30
0
41
1
10
99.626247698667
20
9.69300897595213
30
0
41
1
10
99.6783976855165
20
9.84841999473096
30
0
41
1
10
99.7826976592155
20
10.1290820491705
30
0
41
1
10
99.8348476460652
20
10.2543347540189
30
0
41
1
10
99.9912976066137
20
10.5849324051471
30
0
41
1
10
100.095597580313
20
10.7448152602349
30
0
41
1
10
100.304197527711
20
10.9522786724207
30
0
41
1
10
100.40849750141
20
11
30
0
41
1
10
100.512797475109
20
11
30
0
0
SPLINE
5
FF
100
AcDbEntity
8
1
62
256
6
ByLayer
370
13
48
1
60
0
100
AcDbSpline
70
4
71
3
72
22
73
18
40
0
40
0
40
0
40
0
40
0.125
40
0.125
40
0.25
40
0.25
40
0.375
40
0.375
40
0.5
40
0.5
40
0.625
40
0.625
40
0.75
40
0.75
40
0.875
40
0.875
40
1
40
1
40
1
40
1
41
1
10
99.8435402787193
20
11
30
0
41
1
10
99.912406409734
20
11
30
0
41
1
10
99.9812725407487
20
10.9792542893611
30
0
41
1
10
100.119004802778
20
10.8912207903281
30
0
41
1
10
100.187870933793
20
10.8239148152625
30
0
41
1
10
100.325603195822
20
10.6388909956477
30
0
41
1
10
100.394469326837
20
10.5211563411064
30
0
41
1
10
100.532201588866
20
10.2331560114807
30
0
41
1
10
100.601067719881
20
10.0628780262373
30
0
41
1
10
100.73879998191
20
9.66987174185957
30
0
41
1
10
100.807666112925
20
9.44713858832526
30
0
41
1
10
100.945398374954
20
8.95177091753095
30
0
41
1
10
101.014264505969
20
8.67914090492542
30
0
41
1
10
101.151996767998
20
8.08900790646999
30
0
41
1
10
101.220862899013
20
7.77151889941453
30
0
41
1
10
101.358595161042
20
7.09889695687792
30
0
41
1
10
101.427461292057
20
6.74378556225955
30
0
41
1
10
101.496327423072
20
6.37429599246042
30
0
0
SPLINE
5
100
100
AcDbEntity
8
1
62
256
6
ByLayer
370
13
48
1
60
0
100
AcDbSpline
70
4
71
3
72
85
73
81
40
0
40
0
40
0
40
0
40
0.0312500000000002
40
0.0312500000000002
40
0.0625000000000005
40
0.0625000000000005
40
0.0937500000000007
40
0.0937500000000007
40
0.125000000000001
40
0.125000000000001
40
0.132812500000001
40
0.132812500000001
40
0.136718750000001
40
0.136718750000001
40
0.140625000000001
40
0.140625000000001
40
0.156250000000001
40
0.156250000000001
40
0.187500000000001
40
0.187500000000001
40
0.218750000000002
40
0.218750000000002
40
0.250000000000002
40
0.250000000000002
40
0.281250000000002
40
0.281250000000002
40
0.312500000000002
40
0.312500000000002
40
0.343750000000003
40
0.343750000000003
40
0.375000000000003
40
0.375000000000003
40
0.406250000000003
40
0.406250000000003
40
0.421875000000003
40
0.421875000000003
40
0.425781250000003
40
0.425781250000003
40
0.429687500000003
40
0.437500000000003
40
0.437500000000003
40
0.468750000000003
40
0.468750000000003
40
0.500000000000003
40
0.500000000000003
40
0.531250000000003
40
0.531250000000003
40
0.562500000000002
40
0.562500000000002
40
0.593750000000002
40
0.593750000000002
40
0.625000000000002
40
0.625000000000002
40
0.656250000000001
40
0.656250000000001
40
0.687500000000001
40
0.687500000000001
40
0.703125000000001
40
0.703125000000001
40
0.710937500000001
40
0.710937500000001
40
0.718750000000001
40
0.718750000000001
40
0.750000000000001
40
0.750000000000001
40
0.781250000000001
40
0.781250000000001
40
0.812500000000001
40
0.812500000000001
40
0.84375
40
0.84375
40
0.875
40
0.875
40
0.90625
40
0.90625
40
0.9375
40
0.9375
40
0.96875
40
0.96875
40
1
40
1
40
1
40
1
41
1
10
90.5
20
7.29196062247391
30
0
41
1
10
90.5991774190231
20
6.8001345310351
30
0
41
1
10
90.6983548380463
20
6.270432838582
30
0
41
1
10
90.8967096760925
20
5.16289964655948
30
0
41
1
10
90.9958870951156
20
4.58522807583205
30
0
41
1
10
91.1942419331619
20
3.41175725183692
30
0
41
1
10
91.293419352185
20
2.81609072296064
30
0
41
1
10
91.4917741902312
20
1.63416510722584
30
0
41
1
10
91.5909516092543
20
1.04798133551588
30
0
41
1
10
91.7149233830332
20
0.334791399518934
30
0
41
1
10
91.739717737789
20
0.193114184936064
30
0
41
1
10
91.7769092699226
20
-0.0177560867393822
30
0
41
1
10
91.7893064473005
20
-0.0878773538917699
30
0
41
1
10
91.8141008020564
20
-0.228998653115497
30
0
41
1
10
91.8264979794342
20
-0.299825131733911
30
0
41
1
10
91.8884838663236
20
-0.655201500081574
30
0
41
1
10
91.9380725758352
20
-0.943500212878178
30
0
41
1
10
92.08683870437
20
-1.81670985662615
30
0
41
1
10
92.186016123393
20
-2.41011266806004
30
0
41
1
10
92.3843709614393
20
-3.59503045165292
30
0
41
1
10
92.4835483804624
20
-4.18644308642786
30
0
41
1
10
92.6819032185085
20
-5.33836375528219
30
0
41
1
10
92.7810806375317
20
-5.89872187461711
30
0
41
1
10
92.9794354755779
20
-6.95886298706188
30
0
41
1
10
93.0786128946011
20
-7.45848943372084
30
0
41
1
10
93.2769677326472
20
-8.37161970742588
30
0
41
1
10
93.3761451516705
20
-8.78501171494054
30
0
41
1
10
93.5744999897167
20
-9.50846968218067
30
0
41
1
10
93.6736774087398
20
-9.81850348115597
30
0
41
1
10
93.872032246786
20
-10.3286523198331
30
0
41
1
10
93.9712096658091
20
-10.5288155701049
30
0
41
1
10
94.1695645038554
20
-10.822968955721
30
0
41
1
10
94.2687419228786
20
-10.9170584405833
30
0
41
1
10
94.4175080514132
20
-10.9873662793192
30
0
41
1
10
94.4670967609247
20
-10.9990499706834
30
0
41
1
10
94.5290826478142
20
-11.0001678601806
30
0
41
1
10
94.5414798251921
20
-10.9997213521347
30
0
41
1
10
94.5662741799479
20
-10.9974612056092
30
0
41
1
10
94.6034657120815
20
-10.9920183287151
30
0
41
1
10
94.640657244215
20
-10.9802767987647
30
0
41
1
10
94.764629017994
20
-10.9265515391375
30
0
41
1
10
94.8638064370172
20
-10.8366601805307
30
0
41
1
10
95.0621612750634
20
-10.5512555880515
30
0
41
1
10
95.1613386940866
20
-10.3556417376224
30
0
41
1
10
95.3596935321328
20
-9.85455766239676
30
0
41
1
10
95.4588709511559
20
-9.54903637267958
30
0
41
1
10
95.6572257892021
20
-8.83411849218896
30
0
41
1
10
95.7564032082253
20
-8.42475048258811
30
0
41
1
10
95.9547580462714
20
-7.51876880868818
30
0
41
1
10
96.0539354652947
20
-7.0222641456221
30
0
41
1
10
96.2522903033408
20
-5.96719107922684
30
0
41
1
10
96.351467722364
20
-5.4087783658853
30
0
41
1
10
96.5498225604102
20
-4.25949417241702
30
0
41
1
10
96.6489999794333
20
-3.66877385026288
30
0
41
1
10
96.8473548174795
20
-2.48409842516406
30
0
41
1
10
96.9465322365027
20
-1.8902481234918
30
0
41
1
10
97.0952983650374
20
-1.01569302039246
30
0
41
1
10
97.1448870745489
20
-0.726834217274643
30
0
41
1
10
97.2192701388162
20
-0.299401824457675
30
0
41
1
10
97.2440644935721
20
-0.157896984332467
30
0
41
1
10
97.2936532030836
20
0.122897216655815
30
0
41
1
10
97.3184475578394
20
0.264054486768913
30
0
41
1
10
97.4424193316183
20
0.975629382091427
30
0
41
1
10
97.5415967506415
20
1.56090072259582
30
0
41
1
10
97.7399515886876
20
2.7420334453179
30
0
41
1
10
97.8391290077108
20
3.33782213182698
30
0
41
1
10
98.037483845757
20
4.51275499740535
30
0
41
1
10
98.1366612647801
20
5.09176842823695
30
0
41
1
10
98.3350161028263
20
6.20322399390312
30
0
41
1
10
98.4341935218495
20
6.7355064068964
30
0
41
1
10
98.6325483598957
20
7.72537801862438
30
0
41
1
10
98.7317257789188
20
8.18282796955583
30
0
41
1
10
98.9300806169651
20
9.00140351411952
30
0
41
1
10
99.0292580359882
20
9.36245640474397
30
0
41
1
10
99.2276128740343
20
9.97643737210635
30
0
41
1
10
99.3267902930575
20
10.229377311211
30
0
41
1
10
99.5251451311038
20
10.6261105044173
30
0
41
1
10
99.6243225501268
20
10.7699834137112
30
0
41
1
10
99.8226773881731
20
10.9568730453622
30
0
41
1
10
99.9218548071962
20
11
30
0
41
1
10
100.021032226219
20
11
30
0
0
SPLINE
5
101
100
AcDbEntity
8
1
62
256
6
ByLayer
370
13
48
1
60
0
100
AcDbSpline
70
4
71
3
72
22
73
18
40
0
40
0
40
0
40
0
40
0.125
40
0.125
40
0.25
40
0.25
40
0.375
40
0.375
40
0.5
40
0.5
40
0.625
40
0.625
40
0.75
40
0.75
40
0.875
40
0.875
40
1
40
1
40
1
40
1
41
1
10
99.3517750298297
20
11
30
0
41
1
10
99.4411313795481
20
11
30
0
41
1
10
99.5304877292665
20
10.9650221363999
30
0
41
1
10
99.7092004287034
20
10.8144178186336
30
0
41
1
10
99.7985567784218
20
10.6987252014311
30
0
41
1
10
99.9772694778586
20
10.3797714500266
30
0
41
1
10
100.066625827577
20
10.1764573058292
30
0
41
1
10
100.245338527014
20
9.68109698976735
30
0
41
1
10
100.334694876732
20
9.38902984191327
30
0
41
1
10
100.513407576169
20
8.72193734609527
30
0
41
1
10
100.602763925888
20
8.34693535747579
30
0
41
1
10
100.781476625324
20
7.52668525084817
30
0
41
1
10
100.870832975043
20
7.08150307666443
30
0
41
1
10
101.04954567448
20
6.13918073859116
30
0
41
1
10
101.138902024198
20
5.64213226065692
30
0
41
1
10
101.317614723635
20
4.61749943745082
30
0
41
1
10
101.406971073353
20
4.09000766149691
30
0
41
1
10
101.496327423072
20
3.55809471719817
30
0
0
SPLINE
5
102
100
AcDbEntity
8
1
62
256
6
ByLayer
370
13
48
1
60
0
100
AcDbSpline
70
4
71
3
72
84
73
80
40
0
40
0
40
0
40
0
40
0.0312500000000023
40
0.0312500000000023
40
0.0625000000000045
40
0.0625000000000045
40
0.0781250000000055
40
0.0781250000000055
40
0.085937500000006
40
0.085937500000006
40
0.0898437500000061
40
0.0898437500000061
40
0.0937500000000062
40
0.0937500000000062
40
0.125000000000006
40
0.125000000000006
40
0.156250000000005
40
0.156250000000005
40
0.187500000000005
40
0.187500000000005
40
0.218750000000004
40
0.218750000000004
40
0.250000000000004
40
0.250000000000004
40
0.281250000000003
40
0.281250000000003
40
0.312500000000003
40
0.312500000000003
40
0.343750000000002
40
0.343750000000002
40
0.375000000000002
40
0.375000000000002
40
0.390625000000002
40
0.390625000000002
40
0.398437500000002
40
0.398437500000002
40
0.406250000000002
40
0.406250000000002
40
0.437500000000002
40
0.437500000000002
40
0.468750000000002
40
0.468750000000002
40
0.500000000000002
40
0.500000000000002
40
0.531250000000002
40
0.531250000000002
40
0.562500000000002
40
0.562500000000002
40
0.593750000000003
40
0.593750000000003
40
0.625000000000003
40
0.625000000000003
40
0.656250000000003
40
0.656250000000003
40
0.687500000000003
40
0.687500000000003
40
0.695312500000003
40
0.695312500000003
40
0.703125000000003
40
0.703125000000003
40
0.718750000000003
40
0.718750000000003
40
0.750000000000003
40
0.750000000000003
40
0.781250000000002
40
0.781250000000002
40
0.812500000000002
40
0.812500000000002
40
0.843750000000002
40
0.843750000000002
40
0.875000000000001
40
0.875000000000001
40
0.906250000000001
40
0.906250000000001
40
0.937500000000001
40
0.937500000000001
40
0.96875
40
0.96875
40
1
40
1
40
1
40
1
41
1
10
90.5
20
4.60571131295973
30
0
41
1
10
90.5940548643472
20
4.0569468513182
30
0
41
1
10
90.6881097286945
20
3.49549550039319
30
0
41
1
10
90.8762194573889
20
2.37164466507818
30
0
41
1
10
90.9702743217359
20
1.80932194724801
30
0
41
1
10
91.1113566182568
20
0.980814409333448
30
0
41
1
10
91.1583840504303
20
0.707105049051734
30
0
41
1
10
91.2289251986907
20
0.301814027860416
30
0
41
1
10
91.2524389147775
20
0.167593146545386
30
0
41
1
10
91.2877094889077
20
-0.0322508731867686
30
0
41
1
10
91.2994663469511
20
-0.0988182213444873
30
0
41
1
10
91.3229800630379
20
-0.232685336444376
30
0
41
1
10
91.3347369210813
20
-0.299857448997528
30
0
41
1
10
91.4405486434719
20
-0.906422642756553
30
0
41
1
10
91.534603507819
20
-1.46015313892602
30
0
41
1
10
91.7227132365133
20
-2.57872935874968
30
0
41
1
10
91.8167681008606
20
-3.14352293004461
30
0
41
1
10
92.004877829555
20
-4.26140060337357
30
0
41
1
10
92.0989326939022
20
-4.81438915290607
30
0
41
1
10
92.2870424225965
20
-5.88326386324962
30
0
41
1
10
92.3810972869437
20
-6.3990287664366
30
0
41
1
10
92.5692070156381
20
-7.36883443805277
30
0
41
1
10
92.6632618799852
20
-7.82276102241545
30
0
41
1
10
92.8513716086796
20
-8.64870766999994
30
0
41
1
10
92.9454264730268
20
-9.02065492772422
30
0
41
1
10
93.1335362017212
20
-9.66983017259099
30
0
41
1
10
93.2275910660683
20
-9.94704590493157
30
0
41
1
10
93.4157007947628
20
-10.402644175165
30
0
41
1
10
93.5097556591099
20
-10.5810708403466
30
0
41
1
10
93.6978653878043
20
-10.843159936899
30
0
41
1
10
93.7919202521515
20
-10.9269006501996
30
0
41
1
10
93.9330025486723
20
-10.9891775023579
30
0
41
1
10
93.9800299808458
20
-10.999421567494
30
0
41
1
10
94.0505711291062
20
-11.0002534475848
30
0
41
1
10
94.0740848451929
20
-10.9981209373153
30
0
41
1
10
94.1211122773666
20
-10.9888271007233
30
0
41
1
10
94.1446259934534
20
-10.9816650171756
30
0
41
1
10
94.2621945738875
20
-10.9327742804712
30
0
41
1
10
94.3562494382346
20
-10.8516203169814
30
0
41
1
10
94.5443591669289
20
-10.5949262845757
30
0
41
1
10
94.6384140312761
20
-10.4193073639435
30
0
41
1
10
94.8265237599704
20
-9.96933656368759
30
0
41
1
10
94.9205786243176
20
-9.69493921080755
30
0
41
1
10
95.108688353012
20
-9.05116341453356
30
0
41
1
10
95.2027432173592
20
-8.68179544025602
30
0
41
1
10
95.3908529460536
20
-7.86052973624385
30
0
41
1
10
95.4849078104007
20
-7.40870323764233
30
0
41
1
10
95.6730175390951
20
-6.44244186166964
30
0
41
1
10
95.7670724034423
20
-5.92812042357983
30
0
41
1
10
95.9551821321367
20
-4.86139750299841
30
0
41
1
10
96.0492369964838
20
-4.3091175793418
30
0
41
1
10
96.2373467251783
20
-3.19194873529918
30
0
41
1
10
96.3314015895254
20
-2.62715644112063
30
0
41
1
10
96.5195113182198
20
-1.5079849860987
30
0
41
1
10
96.613566182567
20
-0.953659295164698
30
0
41
1
10
96.731134763001
20
-0.27867821125588
30
0
41
1
10
96.7546484790877
20
-0.14456504080033
30
0
41
1
10
96.8016759112614
20
0.121665668326301
30
0
41
1
10
96.8251896273482
20
0.255560596864058
30
0
41
1
10
96.8957307756086
20
0.660244501234189
30
0
41
1
10
96.9427582077821
20
0.933604371671663
30
0
41
1
10
97.0838405043029
20
1.76125914212341
30
0
41
1
10
97.1778953686501
20
2.32327583837488
30
0
41
1
10
97.3660050973444
20
3.44717510805231
30
0
41
1
10
97.4600599616916
20
4.00898217546302
30
0
41
1
10
97.648169690386
20
5.10795566728234
30
0
41
1
10
97.7422245547333
20
5.64500994896738
30
0
41
1
10
97.9303342834276
20
6.66902008915511
30
0
41
1
10
98.0243891477747
20
7.15585372653209
30
0
41
1
10
98.2124988764691
20
8.05664734370964
30
0
41
1
10
98.3065537408162
20
8.47051074985598
30
0
41
1
10
98.4946634695107
20
9.2086927165445
30
0
41
1
10
98.5887183338579
20
9.53296866243772
30
0
41
1
10
98.7768280625522
20
10.0835904300953
30
0
41
1
10
98.8708829268994
20
10.309954920899
30
0
41
1
10
99.0589926555938
20
10.6650188228531
30
0
41
1
10
99.1530475199409
20
10.793783342029
30
0
41
1
10
99.3411572486353
20
10.9612313898897
30
0
41
1
10
99.4352121129825
20
11
30
0
41
1
10
99.5292669773297
20
11
30
0
0
SPLINE
5
103
100
AcDbEntity
8
1
62
256
6
ByLayer
370
13
48
1
60
0
100
AcDbSpline
70
4
71
3
72
36
73
32
40
0
40
0
40
0
40
0
40
0.125
40
0.125
40
0.1875
40
0.1875
40
0.25
40
0.25
40
0.3125
40
0.3125
40
0.375
40
0.375
40
0.4375
40
0.4375
40
0.5
40
0.5
40
0.5625
40
0.5625
40
0.625
40
0.625
40
0.6875
40
0.6875
40
0.75
40
0.75
40
0.8125
40
0.8125
40
0.875
40
0.875
40
0.9375
40
0.9375
40
1
40
1
40
1
40
1
41
1
10
98.86000978094
20
11
30
0
41
1
10
98.9698563493622
20
11
30
0
41
1
10
99.0797029177843
20
10.9470367939834
30
0
41
1
10
99.2444727704176
20
10.7737673403624
30
0
41
1
10
99.2993960546287
20
10.7004251172508
30
0
41
1
10
99.4092426230508
20
10.5210280955523
30
0
41
1
10
99.4641659072619
20
10.4149683016241
30
0
41
1
10
99.5740124756841
20
10.1693701420817
30
0
41
1
10
99.6289357598952
20
10.0298281784678
30
0
41
1
10
99.7387823283173
20
9.71741771439815
30
0
41
1
10
99.7937056125284
20
9.54454760206912
30
0
41
1
10
99.9035521809506
20
9.16663122953491
30
0
41
1
10
99.9584754651617
20
8.96158574560545
30
0
41
1
10
100.068322033584
20
8.52148123864038
30
0
41
1
10
100.123245317795
20
8.28642549487958
30
0
41
1
10
100.233091886217
20
7.78941459553857
30
0
41
1
10
100.288015170428
20
7.5274649992727
30
0
41
1
10
100.39786173885
20
6.9805982583888
30
0
41
1
10
100.452785023061
20
6.69568841147256
30
0
41
1
10
100.562631591483
20
6.10745552118652
30
0
41
1
10
100.617554875695
20
5.80414074237441
30
0
41
1
10
100.727401444117
20
5.18403821962028
30
0
41
1
10
100.782324728328
20
4.86725884244487
30
0
41
1
10
100.89217129675
20
4.22530036913213
30
0
41
1
10
100.947094580961
20
3.90012893284006
30
0
41
1
10
101.056941149383
20
3.24634916034319
30
0
41
1
10
101.111864433594
20
2.9177471466329
30
0
41
1
10
101.221711002017
20
2.26174662596571
30
0
41
1
10
101.276634286228
20
1.9343527242722
30
0
41
1
10
101.38648085465
20
1.28492127265784
30
0
41
1
10
101.441404138861
20
0.962886494216207
30
0
41
1
10
101.496327423072
20
0.645307098168644
30
0
0
SPLINE
5
104
100
AcDbEntity
8
1
62
256
6
ByLayer
370
13
48
1
60
0
100
AcDbSpline
70
4
71
3
72
85
73
81
40
0
40
0
40
0
40
0
40
0.031250000000004
40
0.031250000000004
40
0.0351562500000044
40
0.0351562500000044
40
0.0390625000000047
40
0.046875000000005
40
0.046875000000005
40
0.0625000000000055
40
0.0625000000000055
40
0.0937500000000063
40
0.0937500000000063
40
0.125000000000007
40
0.125000000000007
40
0.156250000000008
40
0.156250000000008
40
0.187500000000009
40
0.187500000000009
40
0.21875000000001
40
0.21875000000001
40
0.250000000000011
40
0.250000000000011
40
0.281250000000012
40
0.281250000000012
40
0.312500000000012
40
0.312500000000012
40
0.343750000000013
40
0.343750000000013
40
0.351562500000014
40
0.351562500000014
40
0.359375000000014
40
0.359375000000014
40
0.375000000000014
40
0.375000000000014
40
0.406250000000013
40
0.406250000000013
40
0.437500000000013
40
0.437500000000013
40
0.468750000000013
40
0.468750000000013
40
0.500000000000013
40
0.500000000000013
40
0.531250000000013
40
0.531250000000013
40
0.562500000000012
40
0.562500000000012
40
0.593750000000012
40
0.593750000000012
40
0.625000000000012
40
0.625000000000012
40
0.656250000000011
40
0.656250000000011
40
0.671875000000011
40
0.671875000000011
40
0.675781250000011
40
0.675781250000011
40
0.679687500000011
40
0.679687500000011
40
0.687500000000011
40
0.687500000000011
40
0.71875000000001
40
0.71875000000001
40
0.750000000000009
40
0.750000000000009
40
0.781250000000008
40
0.781250000000008
40
0.812500000000007
40
0.812500000000007
40
0.843750000000005
40
0.843750000000005
40
0.875000000000004
40
0.875000000000004
40
0.906250000000003
40
0.906250000000003
40
0.937500000000002
40
0.937500000000002
40
0.968750000000001
40
0.968750000000001
40
1
40
1
40
1
40
1
41
1
10
90.5
20
1.68489876115854
30
0
41
1
10
90.5889323096714
20
1.1584708085438
30
0
41
1
10
90.6778646193426
20
0.638792230461036
30
0
41
1
10
90.7779134677227
20
0.0698631973934027
30
0
41
1
10
90.7890300064315
20
0.007011377303769
30
0
41
1
10
90.8112630838494
20
-0.119063018168731
30
0
41
1
10
90.8446126999761
20
-0.308834703226296
30
0
41
1
10
90.8779623161029
20
-0.500481067614317
30
0
41
1
10
90.9446615483564
20
-0.885966774756128
30
0
41
1
10
90.9891277031919
20
-1.14588976514017
30
0
41
1
10
91.1225261676988
20
-1.93168783845903
30
0
41
1
10
91.21145847737
20
-2.46370518215258
30
0
41
1
10
91.3893230967125
20
-3.52623756988572
30
0
41
1
10
91.4782554063838
20
-4.05669335711661
30
0
41
1
10
91.6561200257264
20
-5.09531081054854
30
0
41
1
10
91.7450523353975
20
-5.60338740923066
30
0
41
1
10
91.9229169547399
20
-6.57572542642734
30
0
41
1
10
92.0118492644112
20
-7.03989410896699
30
0
41
1
10
92.1897138837538
20
-7.9049133310192
30
0
41
1
10
92.2786461934251
20
-8.3056877178648
30
0
41
1
10
92.4565108127675
20
-9.02906218548304
30
0
41
1
10
92.5454431224388
20
-9.35162296938896
30
0
41
1
10
92.7233077417814
20
-9.91016211494588
30
0
41
1
10
92.8122400514526
20
-10.146145477097
30
0
41
1
10
92.9901046707951
20
-10.5300982720229
30
0
41
1
10
93.0790369804664
20
-10.6781095932066
30
0
41
1
10
93.2569015998087
20
-10.8909189171887
30
0
41
1
10
93.3458339094801
20
-10.9557788105754
30
0
41
1
10
93.4569992965692
20
-10.9907239185743
30
0
41
1
10
93.4792323739869
20
-10.9954149594234
30
0
41
1
10
93.5236985288225
20
-11.00037615506
30
0
41
1
10
93.5459316062403
20
-11.0006658886075
30
0
41
1
10
93.6126308384937
20
-10.9950175307912
30
0
41
1
10
93.6570969933294
20
-10.9824541307832
30
0
41
1
10
93.7904954578363
20
-10.9163136412116
30
0
41
1
10
93.8794277675075
20
-10.8341539264792
30
0
41
1
10
94.05729238685
20
-10.5852473968769
30
0
41
1
10
94.1462246965212
20
-10.4184414053378
30
0
41
1
10
94.3240893158637
20
-9.99662464363362
30
0
41
1
10
94.4130216255351
20
-9.74157872513828
30
0
41
1
10
94.5908862448775
20
-9.14611886085822
30
0
41
1
10
94.6798185545488
20
-8.80570932829818
30
0
41
1
10
94.8576831738913
20
-8.04932739597683
30
0
41
1
10
94.9466154835625
20
-7.63340341651318
30
0
41
1
10
95.124480102905
20
-6.74197669032958
30
0
41
1
10
95.2134124125763
20
-6.26655569969347
30
0
41
1
10
95.3912770319188
20
-5.27628968108573
30
0
41
1
10
95.48020934159
20
-4.76153771356454
30
0
41
1
10
95.6580739609325
20
-3.71422072408731
30
0
41
1
10
95.7470062706038
20
-3.18173637026325
30
0
41
1
10
95.9248708899462
20
-2.11932768833316
30
0
41
1
10
96.0138031996175
20
-1.58945575448394
30
0
41
1
10
96.1472016641243
20
-0.809383907401013
30
0
41
1
10
96.19166781896
20
-0.551785517112904
30
0
41
1
10
96.2472505125046
20
-0.233898021054955
30
0
41
1
10
96.2583670512135
20
-0.1705253594277
30
0
41
1
10
96.2806001286314
20
-0.0442139104236503
30
0
41
1
10
96.2917166673402
20
0.0185889943332427
30
0
41
1
10
96.3250662834669
20
0.207879025783967
30
0
41
1
10
96.3472993608848
20
0.334947077473061
30
0
41
1
10
96.4584647479738
20
0.974168729006465
30
0
41
1
10
96.5473970576451
20
1.49813590854339
30
0
41
1
10
96.7252616769875
20
2.55588122027405
30
0
41
1
10
96.8141939866588
20
3.08961978399668
30
0
41
1
10
96.9920586060013
20
4.14769091340193
30
0
41
1
10
97.0809909156726
20
4.6719526383342
30
0
41
1
10
97.2588555350151
20
5.68968773263111
30
0
41
1
10
97.3477878446863
20
6.18307033912447
30
0
41
1
10
97.5256524640289
20
7.11797962372435
30
0
41
1
10
97.6145847737001
20
7.5594171519902
30
0
41
1
10
97.7924493930425
20
8.37247286473385
30
0
41
1
10
97.8813817027138
20
8.74402749415896
30
0
41
1
10
98.0592463220563
20
9.4048387984046
30
0
41
1
10
98.1481786317275
20
9.69407351848656
30
0
41
1
10
98.3260432510701
20
10.184583718076
30
0
41
1
10
98.4149755607414
20
10.3858802416692
30
0
41
1
10
98.5928401800838
20
10.7016744225714
30
0
41
1
10
98.6817724897551
20
10.816224064232
30
0
41
1
10
98.8596371090975
20
10.9653545365026
30
0
41
1
10
98.9485694187688
20
11
30
0
41
1
10
99.03750172844
20
11
30
0
0
SPLINE
5
105
100
AcDbEntity
8
1
62
256
6
ByLayer
370
13
48
1
60
0
100
AcDbSpline
70
4
71
3
72
8
73
4
40
0
40
0
40
0
40
0
40
1
40
1
40
1
40
1
41
1
10
101.496327423072
20
-9.58395796271188
30
0
41
1
10
102.830884948714
20
-6.39651040519144
30
0
41
1
10
104.165442474357
20
-3.20183212756643
30
0
41
1
10
105.5
20
-5.4E-13
30
0
0
SPLINE
5
106
100
AcDbEntity
8
1
62
256
6
ByLayer
370
13
48
1
60
0
100
AcDbSpline
70
4
71
3
72
8
73
4
40
0
40
0
40
0
40
0
40
1
40
1
40
1
40
1
41
1
10
101.496327423072
20
-10.814433815444
30
0
41
1
10
102.830884948715
20
-7.21230763266092
30
0
41
1
10
104.165442474357
20
-3.60746746224098
30
0
41
1
10
105.5
20
6.253E-13
30
0
0
SPLINE
5
107
100
AcDbEntity
8
1
62
256
6
ByLayer
370
13
48
1
60
0
100
AcDbSpline
70
4
71
3
72
8
73
4
40
0
40
0
40
0
40
0
40
1
40
1
40
1
40
1
41
1
10
101.496327423072
20
7.9440933548502
30
0
41
1
10
102.830884948715
20
5.28590807071393
30
0
41
1
10
104.165442474357
20
2.63785575641933
30
0
41
1
10
105.5
20
4.263E-13
30
0
0
SPLINE
5
108
100
AcDbEntity
8
1
62
256
6
ByLayer
370
13
48
1
60
0
100
AcDbSpline
70
4
71
3
72
8
73
4
40
0
40
0
40
0
40
0
40
1
40
1
40
1
40
1
41
1
10
101.496327423072
20
-9.17754216034891
30
0
41
1
10
102.830884948714
20
-6.11026861474437
30
0
41
1
10
104.165442474357
20
-3.05106339787463
30
0
41
1
10
105.5
20
0
30
0
0
SPLINE
5
109
100
AcDbEntity
8
1
62
256
6
ByLayer
370
13
48
1
60
0
100
AcDbSpline
70
4
71
3
72
8
73
4
40
0
40
0
40
0
40
0
40
1
40
1
40
1
40
1
41
1
10
101.496327423072
20
1.20764109147052
30
0
41
1
10
102.830884948714
20
0.819685456717906
30
0
41
1
10
104.165442474357
20
0.417135160957684
30
0
41
1
10
105.5
20
0
30
0
0
SPLINE
5
10A
100
AcDbEntity
8
1
62
256
6
ByLayer
370
13
48
1
60
0
100
AcDbSpline
70
4
71
3
72
8
73
4
40
0
40
0
40
0
40
0
40
1
40
1
40
1
40
1
41
1
10
101.496327423072
20
6.73091094143601
30
0
41
1
10
102.830884948714
20
4.49888498248509
30
0
41
1
10
104.165442474357
20
2.25522998894019
30
0
41
1
10
105.5
20
8.53E-14
30
0
0
SPLINE
5
10B
100
AcDbEntity
8
1
62
256
6
ByLayer
370
13
48
1
60
0
100
AcDbSpline
70
4
71
3
72
8
73
4
40
0
40
0
40
0
40
0
40
1
40
1
40
1
40
1
41
1
10
101.496327423072
20
5.05898184861655
30
0
41
1
10
102.830884948715
20
3.35961909432157
30
0
41
1
10
104.165442474357
20
1.67327833089033
30
0
41
1
10
105.5
20
2.842E-13
30
0
0
SPLINE
5
10C
100
AcDbEntity
8
1
62
256
6
ByLayer
370
13
48
1
60
0
100
AcDbSpline
70
4
71
3
72
8
73
4
40
0
40
0
40
0
40
0
40
1
40
1
40
1
40
1
41
1
10
101.496327423072
20
-10.2772734502274
30
0
41
1
10
102.830884948714
20
-6.84628225323996
30
0
41
1
10
104.165442474357
20
-3.42049699410461
30
0
41
1
10
105.5
20
-5.684E-13
30
0
0
SPLINE
5
10D
100
AcDbEntity
8
1
62
256
6
ByLayer
370
13
48
1
60
0
100
AcDbSpline
70
4
71
3
72
8
73
4
40
0
40
0
40
0
40
0
40
1
40
1
40
1
40
1
41
1
10
101.496327423072
20
4.67617628940792
30
0
41
1
10
102.830884948714
20
3.13073848100279
30
0
41
1
10
104.165442474357
20
1.57200052300601
30
0
41
1
10
105.5
20
0
30
0
0
SPLINE
5
10E
100
AcDbEntity
8
1
62
256
6
ByLayer
370
13
48
1
60
0
100
AcDbSpline
70
4
71
3
72
8
73
4
40
0
40
0
40
0
40
0
40
1
40
1
40
1
40
1
41
1
10
101.496327423072
20
-0.775555472639155
30
0
41
1
10
102.830884948714
20
-0.531680581900019
30
0
41
1
10
104.165442474357
20
-0.273159979954414
30
0
41
1
10
105.499999999999
20
-1.421E-13
30
0
0
SPLINE
5
10F
100
AcDbEntity
8
1
62
256
6
ByLayer
370
13
48
1
60
0
100
AcDbSpline
70
4
71
3
72
8
73
4
40
0
40
0
40
0
40
0
40
1
40
1
40
1
40
1
41
1
10
101.496327423072
20
10.8853612891541
30
0
41
1
10
102.830884948714
20
7.25902140355166
30
0
41
1
10
104.165442474357
20
3.63053855393409
30
0
41
1
10
105.5
20
-2.84E-14
30
0
0
SPLINE
5
110
100
AcDbEntity
8
1
62
256
6
ByLayer
370
13
48
1
60
0
100
AcDbSpline
70
4
71
3
72
8
73
4
40
0
40
0
40
0
40
0
40
1
40
1
40
1
40
1
41
1
10
101.496327423072
20
9.18137750830289
30
0
41
1
10
102.830884948714
20
6.12900341252455
30
0
41
1
10
104.165442474357
20
3.06851969287015
30
0
41
1
10
105.5
20
0
30
0
0
SPLINE
5
111
100
AcDbEntity
8
1
62
256
6
ByLayer
370
13
48
1
60
0
100
AcDbSpline
70
4
71
3
72
8
73
4
40
0
40
0
40
0
40
0
40
1
40
1
40
1
40
1
41
1
10
101.496327423072
20
-10.8843568221666
30
0
41
1
10
102.830884948715
20
-7.25411481199453
30
0
41
1
10
104.165442474357
20
-3.6259667987087
30
0
41
1
10
105.5
20
6.253E-13
30
0
0
SPLINE
5
112
100
AcDbEntity
8
1
62
256
6
ByLayer
370
13
48
1
60
0
100
AcDbSpline
70
4
71
3
72
8
73
4
40
0
40
0
40
0
40
0
40
1
40
1
40
1
40
1
41
1
10
101.496327423072
20
-8.45854674939059
30
0
41
1
10
102.830884948714
20
-5.62964618170221
30
0
41
1
10
104.165442474357
20
-2.81010802611155
30
0
41
1
10
105.5
20
0
30
0
0
SPLINE
5
113
100
AcDbEntity
8
1
62
256
6
ByLayer
370
13
48
1
60
0
100
AcDbSpline
70
4
71
3
72
8
73
4
40
0
40
0
40
0
40
0
40
1
40
1
40
1
40
1
41
1
10
101.496327423072
20
1.63096482531938
30
0
41
1
10
102.830884948715
20
1.0727920104367
30
0
41
1
10
104.165442474357
20
0.529132750225187
30
0
41
1
10
105.5
20
8.53E-14
30
0
0
SPLINE
5
114
100
AcDbEntity
8
1
62
256
6
ByLayer
370
13
48
1
60
0
100
AcDbSpline
70
4
71
3
72
8
73
4
40
0
40
0
40
0
40
0
40
1
40
1
40
1
40
1
41
1
10
101.496327423072
20
10.9933371918532
30
0
41
1
10
102.830884948714
20
7.32940233255158
30
0
41
1
10
104.165442474357
20
3.66492723118586
30
0
41
1
10
105.5
20
0
30
0
0
SPLINE
5
115
100
AcDbEntity
8
1
62
256
6
ByLayer
370
13
48
1
60
0
100
AcDbSpline
70
4
71
3
72
8
73
4
40
0
40
0
40
0
40
0
40
1
40
1
40
1
40
1
41
1
10
101.496327423072
20
7.64288681545497
30
0
41
1
10
102.830884948714
20
5.10581576062594
30
0
41
1
10
104.165442474357
20
2.55816637548804
30
0
41
1
10
105.5
20
8.53E-14
30
0
0
SPLINE
5
116
100
AcDbEntity
8
1
62
256
6
ByLayer
370
13
48
1
60
0
100
AcDbSpline
70
4
71
3
72
8
73
4
40
0
40
0
40
0
40
0
40
1
40
1
40
1
40
1
41
1
10
101.496327423072
20
10.6465429508212
30
0
41
1
10
102.830884948714
20
7.10138677524594
30
0
41
1
10
104.165442474357
20
3.55251067220939
30
0
41
1
10
105.5
20
0
30
0
0
SPLINE
5
117
100
AcDbEntity
8
1
62
256
6
ByLayer
370
13
48
1
60
0
100
AcDbSpline
70
4
71
3
72
8
73
4
40
0
40
0
40
0
40
0
40
1
40
1
40
1
40
1
41
1
10
101.496327423072
20
-9.78622318325029
30
0
41
1
10
102.830884948714
20
-6.51744539846976
30
0
41
1
10
104.165442474357
20
-3.25534487745841
30
0
41
1
10
105.5
20
0
30
0
0
SPLINE
5
118
100
AcDbEntity
8
1
62
256
6
ByLayer
370
13
48
1
60
0
100
AcDbSpline
70
4
71
3
72
8
73
4
40
0
40
0
40
0
40
0
40
1
40
1
40
1
40
1
41
1
10
101.496327423072
20
10.9386233645574
30
0
41
1
10
102.830884948715
20
7.29086696115064
30
0
41
1
10
104.165442474357
20
3.6446299538905
30
0
41
1
10
105.5
20
5.969E-13
30
0
0
SPLINE
5
119
100
AcDbEntity
8
1
62
256
6
ByLayer
370
13
48
1
60
0
100
AcDbSpline
70
4
71
3
72
8
73
4
40
0
40
0
40
0
40
0
40
1
40
1
40
1
40
1
41
1
10
101.496327423072
20
10.7458522451645
30
0
41
1
10
102.830884948715
20
7.16076410572305
30
0
41
1
10
104.165442474357
20
3.57878465750505
30
0
41
1
10
105.5
20
5.969E-13
30
0
0
SPLINE
5
11A
100
AcDbEntity
8
1
62
256
6
ByLayer
370
13
48
1
60
0
100
AcDbSpline
70
4
71
3
72
8
73
4
40
0
40
0
40
0
40
0
40
1
40
1
40
1
40
1
41
1
10
101.496327423072
20
-1.97207947190341
30
0
41
1
10
102.830884948715
20
-1.32916193465388
30
0
41
1
10
104.165442474357
20
-0.671796803569833
30
0
41
1
10
105.5
20
-1.137E-13
30
0
0
SPLINE
5
11B
100
AcDbEntity
8
1
62
256
6
ByLayer
370
13
48
1
60
0
100
AcDbSpline
70
4
71
3
72
8
73
4
40
0
40
0
40
0
40
0
40
1
40
1
40
1
40
1
41
1
10
101.496327423072
20
0.430290731402124
30
0
41
1
10
102.830884948715
20
0.272191590640858
30
0
41
1
10
104.165442474357
20
0.128760236480645
30
0
41
1
10
105.5
20
2.84E-14
30
0
0
SPLINE
5
11C
100
AcDbEntity
8
1
62
256
6
ByLayer
370
13
48
1
60
0
100
AcDbSpline
70
4
71
3
72
8
73
4
40
0
40
0
40
0
40
0
40
1
40
1
40
1
40
1
41
1
10
101.496327423072
20
-7.63787930116925
30
0
41
1
10
102.830884948714
20
-5.08135519833786
30
0
41
1
10
104.165442474357
20
-2.53537505443575
30
0
41
1
10
105.5
20
0
30
0
0
SPLINE
5
11D
100
AcDbEntity
8
1
62
256
6
ByLayer
370
13
48
1
60
0
100
AcDbSpline
70
4
71
3
72
8
73
4
40
0
40
0
40
0
40
0
40
1
40
1
40
1
40
1
41
1
10
101.496327423072
20
9.78939961346757
30
0
41
1
10
102.830884948714
20
6.53296153377167
30
0
41
1
10
104.165442474357
20
3.26980215840689
30
0
41
1
10
105.5
20
0
30
0
0
SPLINE
5
11E
100
AcDbEntity
8
1
62
256
6
ByLayer
370
13
48
1
60
0
100
AcDbSpline
70
4
71
3
72
8
73
4
40
0
40
0
40
0
40
0
40
1
40
1
40
1
40
1
41
1
10
101.496327423072
20
-5.3634897175676
30
0
41
1
10
102.830884948715
20
-3.5884766355274
30
0
41
1
10
104.165442474357
20
-1.80063236653473
30
0
41
1
10
105.5
20
-3.126E-13
30
0
0
SPLINE
5
11F
100
AcDbEntity
8
1
62
256
6
ByLayer
370
13
48
1
60
0
100
AcDbSpline
70
4
71
3
72
8
73
4
40
0
40
0
40
0
40
0
40
1
40
1
40
1
40
1
41
1
10
101.496327423072
20
-4.27991673799082
30
0
41
1
10
102.830884948715
20
-2.86680120121233
30
0
41
1
10
104.165442474357
20
-1.44015081835684
30
0
41
1
10
105.5
20
-2.274E-13
30
0
0
SPLINE
5
120
100
AcDbEntity
8
1
62
256
6
ByLayer
370
13
48
1
60
0
100
AcDbSpline
70
4
71
3
72
8
73
4
40
0
40
0
40
0
40
0
40
1
40
1
40
1
40
1
41
1
10
101.496327423072
20
-6.3825933571288
30
0
41
1
10
102.830884948715
20
-4.2670184511469
30
0
41
1
10
104.165442474358
20
-2.13947024866744
30
0
41
1
10
105.5
20
3.695E-13
30
0
0
SPLINE
5
121
100
AcDbEntity
8
1
62
256
6
ByLayer
370
13
48
1
60
0
100
AcDbSpline
70
4
71
3
72
8
73
4
40
0
40
0
40
0
40
0
40
1
40
1
40
1
40
1
41
1
10
101.496327423072
20
-4.66987507332038
30
0
41
1
10
102.830884948714
20
-3.09995848122534
30
0
41
1
10
104.165442474357
20
-1.54332101643314
30
0
41
1
10
105.5
20
0
30
0
0
SPLINE
5
122
100
AcDbEntity
8
1
62
256
6
ByLayer
370
13
48
1
60
0
100
AcDbSpline
70
4
71
3
72
8
73
4
40
0
40
0
40
0
40
0
40
1
40
1
40
1
40
1
41
1
10
101.496327423072
20
10.2797527819021
30
0
41
1
10
102.830884948714
20
6.85839322155701
30
0
41
1
10
104.165442474357
20
3.43178148396674
30
0
41
1
10
105.5
20
0
30
0
0
SPLINE
5
123
100
AcDbEntity
8
1
62
256
6
ByLayer
370
13
48
1
60
0
100
AcDbSpline
70
4
71
3
72
8
73
4
40
0
40
0
40
0
40
0
40
1
40
1
40
1
40
1
41
1
10
101.496327423072
20
-3.14489900472756
30
0
41
1
10
102.830884948715
20
-2.11066671297334
30
0
41
1
10
104.165442474357
20
-1.06235860535594
30
0
41
1
10
105.5
20
-1.705E-13
30
0
0
SPLINE
5
124
100
AcDbEntity
8
1
62
256
6
ByLayer
370
13
48
1
60
0
100
AcDbSpline
70
4
71
3
72
8
73
4
40
0
40
0
40
0
40
0
40
1
40
1
40
1
40
1
41
1
10
101.496327423072
20
-6.72540426803681
30
0
41
1
10
102.830884948714
20
-4.47198614206349
30
0
41
1
10
104.165442474357
20
-2.23016678308403
30
0
41
1
10
105.5
20
0
30
0
0
SPLINE
5
125
100
AcDbEntity
8
1
62
256
6
ByLayer
370
13
48
1
60
0
100
AcDbSpline
70
4
71
3
72
8
73
4
40
0
40
0
40
0
40
0
40
1
40
1
40
1
40
1
41
1
10
101.496327423072
20
-8.17931613124495
30
0
41
1
10
102.830884948715
20
-5.46269334206551
30
0
41
1
10
104.165442474357
20
-2.73623275387541
30
0
41
1
10
105.5
20
4.832E-13
30
0
0
SPLINE
5
126
100
AcDbEntity
8
1
62
256
6
ByLayer
370
13
48
1
60
0
100
AcDbSpline
70
4
71
3
72
8
73
4
40
0
40
0
40
0
40
0
40
1
40
1
40
1
40
1
41
1
10
101.496327423072
20
2.81203466316197
30
0
41
1
10
102.830884948715
20
1.86049743154157
30
0
41
1
10
104.165442474357
20
0.923145069211444
30
0
41
1
10
105.5
20
1.421E-13
30
0
0
SPLINE
5
127
100
AcDbEntity
8
1
62
256
6
ByLayer
370
13
48
1
60
0
100
AcDbSpline
70
4
71
3
72
8
73
4
40
0
40
0
40
0
40
0
40
1
40
1
40
1
40
1
41
1
10
101.496327423072
20
9.40953051687035
30
0
41
1
10
102.830884948715
20
6.26541679335276
30
0
41
1
10
104.165442474357
20
3.12888150323096
30
0
41
1
10
105.5
20
5.116E-13
30
0
0
SPLINE
5
128
100
AcDbEntity
8
1
62
256
6
ByLayer
370
13
48
1
60
0
100
AcDbSpline
70
4
71
3
72
8
73
4
40
0
40
0
40
0
40
0
40
1
40
1
40
1
40
1
41
1
10
101.496327423072
20
10.4239155938825
30
0
41
1
10
102.830884948715
20
6.94458860725646
30
0
41
1
10
104.165442474357
20
3.46992224034997
30
0
41
1
10
105.5
20
5.684E-13
30
0
0
SPLINE
5
129
100
AcDbEntity
8
1
62
256
6
ByLayer
370
13
48
1
60
0
100
AcDbSpline
70
4
71
3
72
8
73
4
40
0
40
0
40
0
40
0
40
1
40
1
40
1
40
1
41
1
10
101.496327423072
20
-1.20072238968163
30
0
41
1
10
102.830884948715
20
-0.785889180481121
30
0
41
1
10
104.165442474357
20
-0.385645215100681
30
0
41
1
10
105.5
20
2.84E-14
30
0
0
SPLINE
5
12A
100
AcDbEntity
8
1
62
256
6
ByLayer
370
13
48
1
60
0
100
AcDbSpline
70
4
71
3
72
8
73
4
40
0
40
0
40
0
40
0
40
1
40
1
40
1
40
1
41
1
10
101.496327423072
20
-3.55152844685702
30
0
41
1
10
102.830884948714
20
-2.3537916986721
30
0
41
1
10
104.165442474357
20
-1.16993943204278
30
0
41
1
10
105.5
20
0
30
0
0
SPLINE
5
12B
100
AcDbEntity
8
1
62
256
6
ByLayer
370
13
48
1
60
0
100
AcDbSpline
70
4
71
3
72
8
73
4
40
0
40
0
40
0
40
0
40
1
40
1
40
1
40
1
41
1
10
101.496327423072
20
-10.1173778115549
30
0
41
1
10
102.830884948715
20
-6.75068016239743
30
0
41
1
10
104.165442474357
20
-3.37819384728314
30
0
41
1
10
105.5
20
5.969E-13
30
0
0
SPLINE
5
12C
100
AcDbEntity
8
1
62
256
6
ByLayer
370
13
48
1
60
0
100
AcDbSpline
70
4
71
3
72
8
73
4
40
0
40
0
40
0
40
0
40
1
40
1
40
1
40
1
41
1
10
101.496327423072
20
-8.93533859319678
30
0
41
1
10
102.830884948714
20
-5.96545436201436
30
0
41
1
10
104.165442474357
20
-2.98698427009637
30
0
41
1
10
105.5
20
-4.832E-13
30
0
0
SPLINE
5
12D
100
AcDbEntity
8
1
62
256
6
ByLayer
370
13
48
1
60
0
100
AcDbSpline
70
4
71
3
72
8
73
4
40
0
40
0
40
0
40
0
40
1
40
1
40
1
40
1
41
1
10
101.496327423072
20
7.06342338442744
30
0
41
1
10
102.830884948715
20
4.69769518797253
30
0
41
1
10
104.165442474357
20
2.34320188618759
30
0
41
1
10
105.5
20
3.979E-13
30
0
0
SPLINE
5
12E
100
AcDbEntity
8
1
62
256
6
ByLayer
370
13
48
1
60
0
100
AcDbSpline
70
4
71
3
72
8
73
4
40
0
40
0
40
0
40
0
40
1
40
1
40
1
40
1
41
1
10
101.496327423072
20
8.72927503638297
30
0
41
1
10
102.830884948715
20
5.81058414763544
30
0
41
1
10
104.165442474357
20
2.90080250523798
30
0
41
1
10
105.5
20
4.832E-13
30
0
0
SPLINE
5
12F
100
AcDbEntity
8
1
62
256
6
ByLayer
370
13
48
1
60
0
100
AcDbSpline
70
4
71
3
72
8
73
4
40
0
40
0
40
0
40
0
40
1
40
1
40
1
40
1
41
1
10
101.496327423072
20
2.39728602606419
30
0
41
1
10
102.830884948714
20
1.61251795436712
30
0
41
1
10
104.165442474357
20
0.813416169571013
30
0
41
1
10
105.5
20
5.68E-14
30
0
0
SPLINE
5
130
100
AcDbEntity
8
1
62
256
6
ByLayer
370
13
48
1
60
0
100
AcDbSpline
70
4
71
3
72
8
73
4
40
0
40
0
40
0
40
0
40
1
40
1
40
1
40
1
41
1
10
101.496327423072
20
0.0034802673641252
30
0
41
1
10
102.830884948714
20
0.017000310290058
30
0
41
1
10
104.165442474357
20
0.0158401726520481
30
0
41
1
10
105.5
20
0
30
0
0
SPLINE
5
131
100
AcDbEntity
8
1
62
256
6
ByLayer
370
13
48
1
60
0
100
AcDbSpline
70
4
71
3
72
8
73
4
40
0
40
0
40
0
40
0
40
1
40
1
40
1
40
1
41
1
10
101.496327423072
20
-10.9696913321612
30
0
41
1
10
102.830884948714
20
-7.31421656686194
30
0
41
1
10
104.165442474357
20
-3.65762348035372
30
0
41
1
10
105.5
20
2.84E-14
30
0
0
SPLINE
5
132
100
AcDbEntity
8
1
62
256
6
ByLayer
370
13
48
1
60
0
100
AcDbSpline
70
4
71
3
72
8
73
4
40
0
40
0
40
0
40
0
40
1
40
1
40
1
40
1
41
1
10
101.496327423072
20
-10.5291864138874
30
0
41
1
10
102.830884948714
20
-7.02370650036693
30
0
41
1
10
104.165442474357
20
-3.51394955501107
30
0
41
1
10
105.5
20
0
30
0
0
SPLINE
5
133
100
AcDbEntity
8
1
62
256
6
ByLayer
370
13
48
1
60
0
100
AcDbSpline
70
4
71
3
72
8
73
4
40
0
40
0
40
0
40
0
40
1
40
1
40
1
40
1
41
1
10
101.496327423072
20
3.95930374284492
30
0
41
1
10
102.830884948715
20
2.62583960635936
30
0
41
1
10
104.165442474357
20
1.30606115114225
30
0
41
1
10
105.5
20
2.274E-13
30
0
0
SPLINE
5
134
100
AcDbEntity
8
1
62
256
6
ByLayer
370
13
48
1
60
0
100
AcDbSpline
70
4
71
3
72
8
73
4
40
0
40
0
40
0
40
0
40
1
40
1
40
1
40
1
41
1
10
101.496327423072
20
6.09785080994945
30
0
41
1
10
102.830884948715
20
4.053015839495
30
0
41
1
10
104.165442474357
20
2.02038264469934
30
0
41
1
10
105.5
20
3.411E-13
30
0
0
SPLINE
5
135
100
AcDbEntity
8
1
62
256
6
ByLayer
370
13
48
1
60
0
100
AcDbSpline
70
4
71
3
72
8
73
4
40
0
40
0
40
0
40
0
40
1
40
1
40
1
40
1
41
1
10
101.496327423072
20
5.73802927492946
30
0
41
1
10
102.830884948715
20
3.83787744445459
30
0
41
1
10
104.165442474357
20
1.92518565651619
30
0
41
1
10
105.5
20
-8.53E-14
30
0
0
SPLINE
5
136
100
AcDbEntity
8
1
62
256
6
ByLayer
370
13
48
1
60
0
100
AcDbSpline
70
4
71
3
72
8
73
4
40
0
40
0
40
0
40
0
40
1
40
1
40
1
40
1
41
1
10
101.496327423072
20
-5.73208963282997
30
0
41
1
10
102.830884948714
20
-3.80886365093241
30
0
41
1
10
104.165442474357
20
-1.89815182649542
30
0
41
1
10
105.5
20
0
30
0
0
SPLINE
5
137
100
AcDbEntity
8
1
62
256
6
ByLayer
370
13
48
1
60
0
100
AcDbSpline
70
4
71
3
72
8
73
4
40
0
40
0
40
0
40
0
40
1
40
1
40
1
40
1
41
1
10
101.496327423072
20
3.55811549608771
30
0
41
1
10
102.830884948714
20
2.38596792799638
30
0
41
1
10
104.165442474357
20
1.19991988646339
30
0
41
1
10
105.5
20
0
30
0
0
SPLINE
5
138
100
AcDbEntity
8
1
62
256
6
ByLayer
370
13
48
1
60
0
100
AcDbSpline
70
4
71
3
72
8
73
4
40
0
40
0
40
0
40
0
40
1
40
1
40
1
40
1
41
1
10
101.496327423072
20
-7.3249779941398
30
0
41
1
10
102.830884948714
20
-4.89427055095416
30
0
41
1
10
104.165442474357
20
-2.452591621182
30
0
41
1
10
105.5
20
-3.979E-13
30
0
0
SPLINE
5
139
100
AcDbEntity
8
1
62
256
6
ByLayer
370
13
48
1
60
0
100
AcDbSpline
70
4
71
3
72
8
73
4
40
0
40
0
40
0
40
0
40
1
40
1
40
1
40
1
41
1
10
101.496327423072
20
-10.6447905193453
30
0
41
1
10
102.830884948714
20
-7.09282654818998
30
0
41
1
10
104.165442474357
20
-3.5445346134087
30
0
41
1
10
105.5
20
-5.969E-13
30
0
0
SPLINE
5
13A
100
AcDbEntity
8
1
62
256
6
ByLayer
370
13
48
1
60
0
100
AcDbSpline
70
4
71
3
72
8
73
4
40
0
40
0
40
0
40
0
40
1
40
1
40
1
40
1
41
1
10
101.496327423072
20
9.97668310088113
30
0
41
1
10
102.830884948714
20
6.64493890304669
30
0
41
1
10
104.165442474357
20
3.31935123261067
30
0
41
1
10
105.499999999999
20
2.8137E-12
30
0
0
SPLINE
5
13B
100
AcDbEntity
8
1
62
256
6
ByLayer
370
13
48
1
60
0
100
AcDbSpline
70
4
71
3
72
8
73
4
40
0
40
0
40
0
40
0
40
1
40
1
40
1
40
1
41
1
10
101.496327423072
20
-10.9930927630835
30
0
41
1
10
102.830884948714
20
-7.32820835390157
30
0
41
1
10
104.165442474357
20
-3.66381473219985
30
0
41
1
10
105.5
20
2.84E-14
30
0
0
SPLINE
5
13C
100
AcDbEntity
8
1
62
256
6
ByLayer
370
13
48
1
60
0
100
AcDbSpline
70
4
71
3
72
8
73
4
40
0
40
0
40
0
40
0
40
1
40
1
40
1
40
1
41
1
10
101.496327423072
20
-2.39049232025991
30
0
41
1
10
102.830884948714
20
-1.57933225493403
30
0
41
1
10
104.165442474357
20
-0.782495133446986
30
0
41
1
10
105.5
20
-5.68E-14
30
0
0
SPLINE
5
13D
100
AcDbEntity
8
1
62
256
6
ByLayer
370
13
48
1
60
0
100
AcDbSpline
70
4
71
3
72
8
73
4
40
0
40
0
40
0
40
0
40
1
40
1
40
1
40
1
41
1
10
101.496327423072
20
8.46299491406037
30
0
41
1
10
102.830884948714
20
5.65137444901501
30
0
41
1
10
104.165442474357
20
2.83035350985807
30
0
41
1
10
105.5
20
-1.421E-13
30
0
0
LINE
5
7D
100
AcDbEntity
8
80
62
256
6
ByLayer
370
18
48
1
60
0
100
AcDbLine
10
0
20
0
30
0
11
-5
21
0
31
0
39
0
210
0
220
0
230
1
0
LINE
5
7E
100
AcDbEntity
8
4
62
256
6
ByLayer
370
18
48
0.05
60
0
100
AcDbLine
10
-5
20
0
30
0
11
110.5
21
0
31
0
39
0
210
0
220
0
230
1
0
LINE
5
80
100
AcDbEntity
8
81
62
256
6
ByLayer
370
18
48
1
60
0
100
AcDbLine
10
105.5
20
0
30
0
11
110.5
21
0
31
0
39
0
210
0
220
0
230
1
0
LINE
5
81
100
AcDbEntity
8
SK4
62
256
6
ByLayer
370
18
48
0.05
60
0
100
AcDbLine
10
-61
20
0
30
0
11
110.5
21
0
31
0
39
0
210
0
220
0
230
1
0
LINE
5
83
100
AcDbEntity
8
1
62
256
6
ByLayer
370
18
48
1
60
0
100
AcDbLine
10
10
20
-10.7
30
0
11
49.38378
21
-10.7
31
0
39
0
210
0
220
0
230
1
0
LINE
5
84
100
AcDbEntity
8
1
62
256
6
ByLayer
370
18
48
1
60
0
100
AcDbLine
10
49.38378
20
10.7
30
0
11
10
21
10.7
31
0
39
0
210
0
220
0
230
1
0
LINE
5
85
100
AcDbEntity
8
1
62
256
6
ByLayer
370
18
48
1
60
0
100
AcDbLine
10
105.5
20
0
30
0
11
101.496327
21
11
31
0
39
0
210
0
220
0
230
1
0
LINE
5
86
100
AcDbEntity
8
1
62
256
6
ByLayer
370
18
48
1
60
0
100
AcDbLine
10
101.496327
20
-11
30
0
11
105.5
21
0
31
0
39
0
210
0
220
0
230
1
0
LINE
5
87
100
AcDbEntity
8
1
62
256
6
ByLayer
370
18
48
1
60
0
100
AcDbLine
10
10
20
10.7
30
0
11
0
21
12.5
31
0
39
0
210
0
220
0
230
1
0
LINE
5
88
100
AcDbEntity
8
1
62
256
6
ByLayer
370
18
48
1
60
0
100
AcDbLine
10
0
20
-12.5
30
0
11
10
21
-10.7
31
0
39
0
210
0
220
0
230
1
0
LINE
5
89
100
AcDbEntity
8
1
62
256
6
ByLayer
370
18
48
1
60
0
100
AcDbLine
10
101.496327
20
11
30
0
11
90.5
21
11
31
0
39
0
210
0
220
0
230
1
0
LINE
5
8A
100
AcDbEntity
8
1
62
256
6
ByLayer
370
18
48
1
60
0
100
AcDbLine
10
90.5
20
-11
30
0
11
101.496327
21
-11
31
0
39
0
210
0
220
0
230
1
0
LINE
5
8B
100
AcDbEntity
8
1
62
256
6
ByLayer
370
18
48
1
60
0
100
AcDbLine
10
105.5
20
0
30
0
11
101.496327
21
11
31
0
39
0
210
0
220
0
230
1
0
LINE
5
8C
100
AcDbEntity
8
1
62
256
6
ByLayer
370
18
48
1
60
0
100
AcDbLine
10
101.496327
20
-11
30
0
11
105.5
21
0
31
0
39
0
210
0
220
0
230
1
0
LINE
5
8D
100
AcDbEntity
8
SK1
62
256
6
ByLayer
370
18
48
1
60
0
100
AcDbLine
10
-56
20
-11.5
30
0
11
-55
21
-12.5
31
0
39
0
210
0
220
0
230
1
0
LINE
5
8F
100
AcDbEntity
8
SK1
62
256
6
ByLayer
370
18
48
1
60
0
100
AcDbLine
10
-55
20
12.5
30
0
11
-56
21
11.5
31
0
39
0
210
0
220
0
230
1
0
LINE
5
90
100
AcDbEntity
8
SK1
62
256
6
ByLayer
370
18
48
1
60
0
100
AcDbLine
10
-55
20
-12.5
30
0
11
0
21
-12.5
31
0
39
0
210
0
220
0
230
1
0
LINE
5
91
100
AcDbEntity
8
SK1
62
256
6
ByLayer
370
18
48
1
60
0
100
AcDbLine
10
0
20
12.5
30
0
11
-55
21
12.5
31
0
39
0
210
0
220
0
230
1
0
LINE
5
92
100
AcDbEntity
8
1
62
256
6
ByLayer
370
18
48
1
60
0
100
AcDbLine
10
0
20
12.5
30
0
11
0
21
-12.5
31
0
39
0
210
0
220
0
230
1
0
LINE
5
93
100
AcDbEntity
8
1
62
256
6
ByLayer
370
18
48
1
60
0
100
AcDbLine
10
101.496327
20
11
30
0
11
101.496327
21
10.650696
31
0
39
0
210
0
220
0
230
1
0
LINE
5
94
100
AcDbEntity
8
1
62
256
6
ByLayer
370
18
48
1
60
0
100
AcDbLine
10
101.496327
20
-11
30
0
11
101.496327
21
-1.569764
31
0
39
0
210
0
220
0
230
1
0
LINE
5
95
100
AcDbEntity
8
1
62
256
6
ByLayer
370
18
48
1
60
0
100
AcDbLine
10
10
20
-10.7
30
0
11
10
21
-2.553628
31
0
39
0
210
0
220
0
230
1
0
LINE
5
96
100
AcDbEntity
8
1
62
256
6
ByLayer
370
18
48
1
60
0
100
AcDbLine
10
10
20
10.7
30
0
11
10
21
9.096993
31
0
39
0
210
0
220
0
230
1
0
LINE
5
97
100
AcDbEntity
8
SK1
62
256
6
ByLayer
370
13
48
1
60
0
100
AcDbLine
10
-15.162813
20
-7.237775
30
0
11
-15.162813
21
7.237775
31
0
39
0
210
0
220
0
230
1
0
LINE
5
98
100
AcDbEntity
8
SK1
62
256
6
ByLayer
370
13
48
1
60
0
100
AcDbLine
10
-51.386002
20
5.000227
30
0
11
-51.386002
21
-5.000227
31
0
39
0
210
0
220
0
230
1
0
LINE
5
99
100
AcDbEntity
8
SK1
62
256
6
ByLayer
370
18
48
1
60
0
100
AcDbLine
10
-56
20
-11.5
30
0
11
-56
21
11.5
31
0
39
0
210
0
220
0
230
1
0
LINE
5
9A
100
AcDbEntity
8
SK1
62
256
6
ByLayer
370
13
48
1
60
0
100
AcDbLine
10
-52.500329
20
-3.620591
30
0
11
-52.500329
21
3.620591
31
0
39
0
210
0
220
0
230
1
0
LINE
5
9B
100
AcDbEntity
8
SK1
62
256
6
ByLayer
370
18
48
1
60
0
100
AcDbLine
10
-55
20
-12.5
30
0
11
-55
21
12.5
31
0
39
0
210
0
220
0
230
1
0
LINE
5
9C
100
AcDbEntity
8
SK1
62
256
6
ByLayer
370
18
48
1
60
0
100
AcDbLine
10
0
20
12.5
30
0
11
0
21
-12.5
31
0
39
0
210
0
220
0
230
1
0
LINE
5
9D
100
AcDbEntity
8
SK1
62
256
6
ByLayer
370
13
48
1
60
0
100
AcDbLine
10
-14.015776
20
6.592429
30
0
11
-14.015776
21
-6.592429
31
0
39
0
210
0
220
0
230
1
0
LINE
5
9E
100
AcDbEntity
8
1
62
256
6
ByLayer
370
18
48
1
60
0
100
AcDbLine
10
101.496327
20
11
30
0
11
101.496327
21
-11
31
0
39
0
210
0
220
0
230
1
0
LINE
5
9F
100
AcDbEntity
8
1
62
256
6
ByLayer
370
18
48
1
60
0
100
AcDbLine
10
101.496327
20
11
30
0
11
101.496327
21
-11
31
0
39
0
210
0
220
0
230
1
0
LINE
5
A0
100
AcDbEntity
8
1
62
256
6
ByLayer
370
18
48
1
60
0
100
AcDbLine
10
101.496327
20
11
30
0
11
101.496327
21
-11
31
0
39
0
210
0
220
0
230
1
0
LINE
5
A1
100
AcDbEntity
8
1
62
256
6
ByLayer
370
18
48
1
60
0
100
AcDbLine
10
90.5
20
11
30
0
11
90.5
21
-11
31
0
39
0
210
0
220
0
230
1
0
LINE
5
A2
100
AcDbEntity
8
1
62
256
6
ByLayer
370
18
48
1
60
0
100
AcDbLine
10
90.5
20
11
30
0
11
90.5
21
-11
31
0
39
0
210
0
220
0
230
1
0
LINE
5
A3
100
AcDbEntity
8
1
62
256
6
ByLayer
370
18
48
1
60
0
100
AcDbLine
10
101.496327
20
11
30
0
11
101.496327
21
-11
31
0
39
0
210
0
220
0
230
1
0
LINE
5
A4
100
AcDbEntity
8
1
62
256
6
ByLayer
370
18
48
1
60
0
100
AcDbLine
10
90.5
20
11
30
0
11
90.5
21
-11
31
0
39
0
210
0
220
0
230
1
0
LINE
5
A5
100
AcDbEntity
8
1
62
256
6
ByLayer
370
18
48
1
60
0
100
AcDbLine
10
101.496327
20
11
30
0
11
101.496327
21
-11
31
0
39
0
210
0
220
0
230
1
0
LINE
5
A6
100
AcDbEntity
8
SK2
62
256
6
ByLayer
370
13
48
1
60
0
100
AcDbLine
10
-62.5
20
-12.5
30
0
11
-62.5
21
41.524569
31
0
39
0
210
0
220
0
230
1
0
LINE
5
A8
100
AcDbEntity
8
SK2
62
256
6
ByLayer
370
13
48
1
60
0
100
AcDbLine
10
-57.5875
20
12.5
30
0
11
-64.5
21
12.5
31
0
39
0
210
0
220
0
230
1
0
LINE
5
A9
100
AcDbEntity
8
SK2
62
256
6
ByLayer
370
13
48
1
60
0
100
AcDbLine
10
-57.5875
20
-12.5
30
0
11
-64.5
21
-12.5
31
0
39
0
210
0
220
0
230
1
0
LINE
5
AA
100
AcDbEntity
8
1
62
256
6
ByLayer
370
18
48
1
60
1
100
AcDbLine
10
-62.5
20
12.5
30
0
11
-62.039216
21
9.000002
31
0
39
0
210
0
220
0
230
1
0
LINE
5
AB
100
AcDbEntity
8
1
62
256
6
ByLayer
370
18
48
1
60
1
100
AcDbLine
10
-62.039216
20
9.000002
30
0
11
-62.960784
21
8.999998
31
0
39
0
210
0
220
0
230
1
0
LINE
5
AC
100
AcDbEntity
8
1
62
256
6
ByLayer
370
18
48
1
60
1
100
AcDbLine
10
-62.960784
20
8.999998
30
0
11
-62.5
21
12.5
31
0
39
0
210
0
220
0
230
1
0
LINE
5
AD
100
AcDbEntity
8
1
62
256
6
ByLayer
370
18
48
1
60
1
100
AcDbLine
10
-62.5
20
-12.5
30
0
11
-62.960784
21
-9.000002
31
0
39
0
210
0
220
0
230
1
0
LINE
5
AE
100
AcDbEntity
8
1
62
256
6
ByLayer
370
18
48
1
60
1
100
AcDbLine
10
-62.960784
20
-9.000002
30
0
11
-62.039216
21
-8.999998
31
0
39
0
210
0
220
0
230
1
0
LINE
5
AF
100
AcDbEntity
8
1
62
256
6
ByLayer
370
18
48
1
60
1
100
AcDbLine
10
-62.039216
20
-8.999998
30
0
11
-62.5
21
-12.5
31
0
39
0
210
0
220
0
230
1
0
LINE
5
B0
100
AcDbEntity
8
2
62
256
6
ByLayer
370
13
48
1
60
0
100
AcDbLine
10
113
20
-11
30
0
11
113
21
40.024569
31
0
39
0
210
0
220
0
230
1
0
LINE
5
B2
100
AcDbEntity
8
2
62
256
6
ByLayer
370
13
48
1
60
0
100
AcDbLine
10
103.083827
20
11
30
0
11
115
21
11
31
0
39
0
210
0
220
0
230
1
0
LINE
5
B3
100
AcDbEntity
8
2
62
256
6
ByLayer
370
13
48
1
60
0
100
AcDbLine
10
103.083827
20
-11
30
0
11
115
21
-11
31
0
39
0
210
0
220
0
230
1
0
LINE
5
B4
100
AcDbEntity
8
1
62
256
6
ByLayer
370
18
48
1
60
1
100
AcDbLine
10
113
20
11
30
0
11
113.460784
21
7.500002
31
0
39
0
210
0
220
0
230
1
0
LINE
5
B5
100
AcDbEntity
8
1
62
256
6
ByLayer
370
18
48
1
60
1
100
AcDbLine
10
113.460784
20
7.500002
30
0
11
112.539216
21
7.499998
31
0
39
0
210
0
220
0
230
1
0
LINE
5
B6
100
AcDbEntity
8
1
62
256
6
ByLayer
370
18
48
1
60
1
100
AcDbLine
10
112.539216
20
7.499998
30
0
11
113
21
11
31
0
39
0
210
0
220
0
230
1
0
LINE
5
B7
100
AcDbEntity
8
1
62
256
6
ByLayer
370
18
48
1
60
1
100
AcDbLine
10
113
20
-11
30
0
11
112.539216
21
-7.500002
31
0
39
0
210
0
220
0
230
1
0
LINE
5
B8
100
AcDbEntity
8
1
62
256
6
ByLayer
370
18
48
1
60
1
100
AcDbLine
10
112.539216
20
-7.500002
30
0
11
113.460784
21
-7.499998
31
0
39
0
210
0
220
0
230
1
0
LINE
5
B9
100
AcDbEntity
8
1
62
256
6
ByLayer
370
18
48
1
60
1
100
AcDbLine
10
113.460784
20
-7.499998
30
0
11
113
21
-11
31
0
39
0
210
0
220
0
230
1
0
LINE
5
BA
100
AcDbEntity
8
SK2
62
256
6
ByLayer
370
13
48
1
60
0
100
AcDbLine
10
106.042957
20
-1.491762
30
0
11
112.682423
21
-19.733545
31
0
39
0
210
0
220
0
230
1
0
LINE
5
BB
100
AcDbEntity
8
SK2
62
256
6
ByLayer
370
13
48
1
60
0
100
AcDbLine
10
106.042957
20
1.491762
30
0
11
112.682423
21
19.733545
31
0
39
0
210
0
220
0
230
1
0
LINE
5
BC
100
AcDbEntity
8
1
62
256
6
ByLayer
370
18
48
1
60
1
100
AcDbLine
10
111.998383
20
-17.85416
30
0
11
115.051575
21
-16.082064
31
0
39
0
210
0
220
0
230
1
0
LINE
5
BD
100
AcDbEntity
8
1
62
256
6
ByLayer
370
18
48
1
60
1
100
AcDbLine
10
115.051575
20
-16.082064
30
0
11
115.406196
21
-16.93267
31
0
39
0
210
0
220
0
230
1
0
LINE
5
BE
100
AcDbEntity
8
1
62
256
6
ByLayer
370
18
48
1
60
1
100
AcDbLine
10
115.406196
20
-16.93267
30
0
11
111.998383
21
-17.85416
31
0
39
0
210
0
220
0
230
1
0
LINE
5
BF
100
AcDbEntity
8
1
62
256
6
ByLayer
370
18
48
1
60
1
100
AcDbLine
10
111.998383
20
17.85416
30
0
11
115.406193
21
16.932671
31
0
39
0
210
0
220
0
230
1
0
LINE
5
C0
100
AcDbEntity
8
1
62
256
6
ByLayer
370
18
48
1
60
1
100
AcDbLine
10
115.406193
20
16.932671
30
0
11
115.051579
21
16.082063
31
0
39
0
210
0
220
0
230
1
0
LINE
5
C1
100
AcDbEntity
8
1
62
256
6
ByLayer
370
18
48
1
60
1
100
AcDbLine
10
115.051579
20
16.082063
30
0
11
111.998383
21
17.85416
31
0
39
0
210
0
220
0
230
1
0
LINE
5
142
100
AcDbEntity
8
1
62
256
6
ByLayer
370
18
48
1
60
1
100
AcDbLine
10
-62.5
20
12.5
30
0
11
-62.039216
21
9.000002
31
0
39
0
210
0
220
0
230
1
0
LINE
5
143
100
AcDbEntity
8
1
62
256
6
ByLayer
370
18
48
1
60
1
100
AcDbLine
10
-62.039216
20
9.000002
30
0
11
-62.960784
21
8.999998
31
0
39
0
210
0
220
0
230
1
0
LINE
5
144
100
AcDbEntity
8
1
62
256
6
ByLayer
370
18
48
1
60
1
100
AcDbLine
10
-62.960784
20
8.999998
30
0
11
-62.5
21
12.5
31
0
39
0
210
0
220
0
230
1
0
LINE
5
146
100
AcDbEntity
8
1
62
256
6
ByLayer
370
18
48
1
60
1
100
AcDbLine
10
-62.5
20
-12.5
30
0
11
-62.960784
21
-9.000002
31
0
39
0
210
0
220
0
230
1
0
LINE
5
147
100
AcDbEntity
8
1
62
256
6
ByLayer
370
18
48
1
60
1
100
AcDbLine
10
-62.960784
20
-9.000002
30
0
11
-62.039216
21
-8.999998
31
0
39
0
210
0
220
0
230
1
0
LINE
5
148
100
AcDbEntity
8
1
62
256
6
ByLayer
370
18
48
1
60
1
100
AcDbLine
10
-62.039216
20
-8.999998
30
0
11
-62.5
21
-12.5
31
0
39
0
210
0
220
0
230
1
0
LINE
5
14C
100
AcDbEntity
8
1
62
256
6
ByLayer
370
18
48
1
60
1
100
AcDbLine
10
113
20
11
30
0
11
113.460784
21
7.500002
31
0
39
0
210
0
220
0
230
1
0
LINE
5
14D
100
AcDbEntity
8
1
62
256
6
ByLayer
370
18
48
1
60
1
100
AcDbLine
10
113.460784
20
7.500002
30
0
11
112.539216
21
7.499998
31
0
39
0
210
0
220
0
230
1
0
LINE
5
14E
100
AcDbEntity
8
1
62
256
6
ByLayer
370
18
48
1
60
1
100
AcDbLine
10
112.539216
20
7.499998
30
0
11
113
21
11
31
0
39
0
210
0
220
0
230
1
0
LINE
5
150
100
AcDbEntity
8
1
62
256
6
ByLayer
370
18
48
1
60
1
100
AcDbLine
10
113
20
-11
30
0
11
112.539216
21
-7.500002
31
0
39
0
210
0
220
0
230
1
0
LINE
5
151
100
AcDbEntity
8
1
62
256
6
ByLayer
370
18
48
1
60
1
100
AcDbLine
10
112.539216
20
-7.500002
30
0
11
113.460784
21
-7.499998
31
0
39
0
210
0
220
0
230
1
0
LINE
5
152
100
AcDbEntity
8
1
62
256
6
ByLayer
370
18
48
1
60
1
100
AcDbLine
10
113.460784
20
-7.499998
30
0
11
113
21
-11
31
0
39
0
210
0
220
0
230
1
0
LINE
5
155
100
AcDbEntity
8
1
62
256
6
ByLayer
370
18
48
1
60
1
100
AcDbLine
10
111.998383
20
-17.85416
30
0
11
115.051575
21
-16.082064
31
0
39
0
210
0
220
0
230
1
0
LINE
5
156
100
AcDbEntity
8
1
62
256
6
ByLayer
370
18
48
1
60
1
100
AcDbLine
10
115.051575
20
-16.082064
30
0
11
115.406196
21
-16.93267
31
0
39
0
210
0
220
0
230
1
0
LINE
5
157
100
AcDbEntity
8
1
62
256
6
ByLayer
370
18
48
1
60
1
100
AcDbLine
10
115.406196
20
-16.93267
30
0
11
111.998383
21
-17.85416
31
0
39
0
210
0
220
0
230
1
0
LINE
5
159
100
AcDbEntity
8
1
62
256
6
ByLayer
370
18
48
1
60
1
100
AcDbLine
10
111.998383
20
17.85416
30
0
11
115.406193
21
16.932671
31
0
39
0
210
0
220
0
230
1
0
LINE
5
15A
100
AcDbEntity
8
1
62
256
6
ByLayer
370
18
48
1
60
1
100
AcDbLine
10
115.406193
20
16.932671
30
0
11
115.051579
21
16.082063
31
0
39
0
210
0
220
0
230
1
0
LINE
5
15B
100
AcDbEntity
8
1
62
256
6
ByLayer
370
18
48
1
60
1
100
AcDbLine
10
115.051579
20
16.082063
30
0
11
111.998383
21
17.85416
31
0
39
0
210
0
220
0
230
1
0
MTEXT
5
13E
100
AcDbEntity
8
SK2
62
256
6
ByLayer
370
18
48
1
60
0
100
AcDbMText
10
-63.841114
20
24.158438
30
0
210
0
220
0
230
1
1
%%c
40
3
41
0
44
1.084337
50
90
71
7
72
5
7
iso_b_vert
0
MTEXT
5
141
100
AcDbEntity
8
SK2
62
256
6
ByLayer
370
18
48
1
60
0
100
AcDbMText
10
-63.841114
20
30.135
30
0
210
0
220
0
230
1
1
\W0.7513;25.000
40
3
41
0
44
1.084337
50
90
71
7
72
5
7
iso_b_vert
0
MTEXT
5
14A
100
AcDbEntity
8
2
62
256
6
ByLayer
370
18
48
1
60
0
100
AcDbMText
10
111.658886
20
22.658438
30
0
210
0
220
0
230
1
1
%%c
40
3
41
0
44
1.084337
50
90
71
7
72
5
7
iso_b_vert
0
MTEXT
5
14B
100
AcDbEntity
8
2
62
256
6
ByLayer
370
18
48
1
60
0
100
AcDbMText
10
111.658886
20
28.635
30
0
210
0
220
0
230
1
1
\W0.7513;22.000
40
3
41
0
44
1.084337
50
90
71
7
72
5
7
iso_b_vert
0
MTEXT
5
154
100
AcDbEntity
8
SK2
62
256
6
ByLayer
370
18
48
1
60
0
100
AcDbMText
10
125.409114
20
3.734657
30
0
210
0
220
0
230
1
1
\W0.7071;140%%d
40
3
41
0
44
1.084337
50
270
71
7
72
5
7
iso_b_vert
0
MTEXT
5
15D
100
AcDbEntity
8
SK6
62
256
6
ByLayer
370
18
48
1
60
0
100
AcDbMText
10
0.46286
20
-67.114886
30
0
210
0
220
0
230
1
1
\W0.7680;H85322.0
40
3
41
0
44
1.084337
50
0
71
7
72
5
7
iso_b_vert
0
HATCH
5
145
100
AcDbEntity
8
SK2
62
256
6
ByLayer
370
13
48
1
60
0
100
AcDbHatch
10
0
20
0
30
0
210
0
220
0
230
1
2
ANSI31
70
0
71
0
91
1
92
5
93
3
72
1
10
-62.5
20
12.5
11
-62.0392162584472
21
9.00000169255318
72
1
10
-62.0392162584472
20
9.00000169255318
11
-62.9607837415528
21
8.99999830744682
72
1
10
-62.9607837415528
20
8.99999830744682
11
-62.5
21
12.5
97
0
75
0
76
1
52
0
41
0.0062
77
0
78
1
53
45
43
0
44
0
45
-0.0139193969876572
46
0.0139193969876572
79
0
47
0
98
1
10
0
20
0
0
HATCH
5
149
100
AcDbEntity
8
SK2
62
256
6
ByLayer
370
13
48
1
60
0
100
AcDbHatch
10
0
20
0
30
0
210
0
220
0
230
1
2
ANSI31
70
0
71
0
91
1
92
5
93
3
72
1
10
-62.5
20
-12.5
11
-62.9607837415528
21
-9.00000169255318
72
1
10
-62.9607837415528
20
-9.00000169255318
11
-62.0392162584472
21
-8.99999830744682
72
1
10
-62.0392162584472
20
-8.99999830744682
11
-62.5
21
-12.5
97
0
75
0
76
1
52
0
41
0.0062
77
0
78
1
53
45
43
0
44
0
45
-0.0139193969876572
46
0.0139193969876572
79
0
47
0
98
1
10
0
20
0
0
HATCH
5
14F
100
AcDbEntity
8
2
62
256
6
ByLayer
370
13
48
1
60
0
100
AcDbHatch
10
0
20
0
30
0
210
0
220
0
230
1
2
ANSI31
70
0
71
0
91
1
92
5
93
3
72
1
10
113
20
11
11
113.460783741553
21
7.50000169255318
72
1
10
113.460783741553
20
7.50000169255318
11
112.539216258447
21
7.49999830744682
72
1
10
112.539216258447
20
7.49999830744682
11
113
21
11
97
0
75
0
76
1
52
0
41
0.0062
77
0
78
1
53
45
43
0
44
0
45
-0.0139193969876572
46
0.0139193969876572
79
0
47
0
98
1
10
0
20
0
0
HATCH
5
153
100
AcDbEntity
8
2
62
256
6
ByLayer
370
13
48
1
60
0
100
AcDbHatch
10
0
20
0
30
0
210
0
220
0
230
1
2
ANSI31
70
0
71
0
91
1
92
5
93
3
72
1
10
113
20
-11
11
112.539216258447
21
-7.50000169255318
72
1
10
112.539216258447
20
-7.50000169255318
11
113.460783741553
21
-7.49999830744682
72
1
10
113.460783741553
20
-7.49999830744682
11
113
21
-11
97
0
75
0
76
1
52
0
41
0.0062
77
0
78
1
53
45
43
0
44
0
45
-0.0139193969876572
46
0.0139193969876572
79
0
47
0
98
1
10
0
20
0
0
HATCH
5
158
100
AcDbEntity
8
SK2
62
256
6
ByLayer
370
13
48
1
60
0
100
AcDbHatch
10
0
20
0
30
0
210
0
220
0
230
1
2
ANSI31
70
0
71
0
91
1
92
5
93
3
72
1
10
111.998382723188
20
-17.8541597949323
11
115.051575425693
21
-16.0820638240607
72
1
10
115.051575425693
20
-16.0820638240607
11
115.406195833975
21
-16.9326700737196
72
1
10
115.406195833975
20
-16.9326700737196
11
111.998382723188
21
-17.8541597949323
97
0
75
0
76
1
52
0
41
0.0062
77
0
78
1
53
45
43
0
44
0
45
-0.0139193969876572
46
0.0139193969876572
79
0
47
0
98
1
10
0
20
0
0
HATCH
5
15C
100
AcDbEntity
8
SK2
62
256
6
ByLayer
370
13
48
1
60
0
100
AcDbHatch
10
0
20
0
30
0
210
0
220
0
230
1
2
ANSI31
70
0
71
0
91
1
92
5
93
3
72
1
10
111.998382723188
20
17.8541597949323
11
115.406192709519
21
16.9326713763016
72
1
10
115.406192709519
20
16.9326713763016
11
115.051578550149
21
16.0820625214787
72
1
10
115.051578550149
20
16.0820625214787
11
111.998382723188
21
17.8541597949323
97
0
75
0
76
1
52
0
41
0.0062
77
0
78
1
53
45
43
0
44
0
45
-0.0139193969876572
46
0.0139193969876572
79
0
47
0
98
1
10
0
20
0
0
DIMENSION
5
160
100
AcDbEntity
8
SK2
62
256
6
ByLayer
370
18
48
1
60
0
100
AcDbDimension
2
_U0
10
105.5
20
-45.952229
30
0
11
24.75
21
-45.952229
31
0
70
32
71
1
72
1
41
1
210
0
220
0
230
1
3
Standard
100
AcDbAlignedDimension
13
-56
23
-12.5
33
0
14
105.5
24
0
34
0
50
0
100
AcDbRotatedDimension
1001
ACAD
1000
DSTYLE
1002
{
1070
   371
1070
    13
1070
   372
1070
    13
1070
     3
1000

1070
   170
1070
     0
1070
   144
1040
1.0
1070
   277
1070
     2
1070
   284
1070
     8
1070
   278
1070
    46
1070
   146
1040
1.166667
1070
   345
1005
16
1070
   347
1005
16
1070
   346
1005
16
1070
   344
1005
0
1070
   343
1005
0
1070
   172
1070
     1
1070
    76
1070
     0
1070
    75
1070
     0
1070
   282
1070
     0
1070
   281
1070
     0
1070
    71
1070
     0
1070
    74
1070
     0
1070
   279
1070
     0
1070
   173
1070
     1
1070
   340
1005
13F
1070
   271
1070
     2
1070
   272
1070
     3
1070
    77
1070
     1
1070
    73
1070
     1
1070
   171
1070
     3
1070
   274
1070
     4
1070
   177
1070
     2
1070
   176
1070
     2
1070
   178
1070
     2
1070
    78
1070
     8
1070
    48
1040
-0.1
1070
    41
1040
3.5
1070
   147
1040
1.5
1070
    42
1040
1.5875
1070
    44
1040
2.0
1070
   140
1040
3.0
1002
}
1001
ACAD_DSTYLE_DIM_LINETYPE
1070
   380
1005
16
1001
ACAD_DSTYLE_DIM_EXT1_LINETYPE
1070
   381
1005
16
1001
ACAD_DSTYLE_DIM_EXT2_LINETYPE
1070
   382
1005
16
0
DIMENSION
5
179
100
AcDbEntity
8
SK2
62
256
6
ByLayer
370
18
48
1
60
0
100
AcDbDimension
2
_U1
10
3
20
-35.952229
30
0
11
54.25
21
-35.952229
31
0
70
32
71
1
72
1
41
1
210
0
220
0
230
1
3
Standard
100
AcDbAlignedDimension
13
105.5
23
0
33
0
14
3
24
-11
34
0
50
0
100
AcDbRotatedDimension
1001
ACAD
1000
DSTYLE
1002
{
1070
   371
1070
    13
1070
   372
1070
    13
1070
     3
1000

1070
   170
1070
     0
1070
   144
1040
1.0
1070
   277
1070
     2
1070
   284
1070
     8
1070
   278
1070
    46
1070
   146
1040
1.166667
1070
   345
1005
16
1070
   347
1005
16
1070
   346
1005
16
1070
   344
1005
0
1070
   343
1005
0
1070
   172
1070
     1
1070
    76
1070
     0
1070
    75
1070
     0
1070
   282
1070
     0
1070
   281
1070
     0
1070
    71
1070
     0
1070
    74
1070
     0
1070
   279
1070
     0
1070
   173
1070
     1
1070
   340
1005
13F
1070
   271
1070
     2
1070
   272
1070
     3
1070
    77
1070
     1
1070
    73
1070
     1
1070
   171
1070
     3
1070
   274
1070
     4
1070
   177
1070
     2
1070
   176
1070
     2
1070
   178
1070
     2
1070
    78
1070
     8
1070
    48
1040
-0.1
1070
    41
1040
3.5
1070
   147
1040
1.5
1070
    42
1040
1.5875
1070
    44
1040
2.0
1070
   140
1040
3.0
1002
}
1001
ACAD_DSTYLE_DIM_LINETYPE
1070
   380
1005
16
1001
ACAD_DSTYLE_DIM_EXT1_LINETYPE
1070
   381
1005
16
1001
ACAD_DSTYLE_DIM_EXT2_LINETYPE
1070
   382
1005
16
0
DIMENSION
5
191
100
AcDbEntity
8
SK2
62
256
6
ByLayer
370
18
48
1
60
0
100
AcDbDimension
2
_U2
10
0
20
-35.952229
30
0
11
-28
21
-35.952229
31
0
70
32
71
1
72
1
41
1
210
0
220
0
230
1
3
Standard
100
AcDbAlignedDimension
13
-56
23
-12.5
33
0
14
0
24
-12.5
34
0
50
0
100
AcDbRotatedDimension
1001
ACAD
1000
DSTYLE
1002
{
1070
   371
1070
    13
1070
   372
1070
    13
1070
     3
1000

1070
   170
1070
     0
1070
   144
1040
1.0
1070
   277
1070
     2
1070
   284
1070
     8
1070
   278
1070
    46
1070
   146
1040
1.166667
1070
   345
1005
16
1070
   347
1005
16
1070
   346
1005
16
1070
   344
1005
0
1070
   343
1005
0
1070
   172
1070
     1
1070
    76
1070
     0
1070
    75
1070
     0
1070
   282
1070
     0
1070
   281
1070
     0
1070
    71
1070
     0
1070
    74
1070
     0
1070
   279
1070
     0
1070
   173
1070
     1
1070
   340
1005
13F
1070
   271
1070
     2
1070
   272
1070
     3
1070
    77
1070
     1
1070
    73
1070
     1
1070
   171
1070
     3
1070
   274
1070
     4
1070
   177
1070
     2
1070
   176
1070
     2
1070
   178
1070
     2
1070
    78
1070
     8
1070
    48
1040
-0.1
1070
    41
1040
3.5
1070
   147
1040
1.5
1070
    42
1040
1.5875
1070
    44
1040
2.0
1070
   140
1040
3.0
1002
}
1001
ACAD_DSTYLE_DIM_LINETYPE
1070
   380
1005
16
1001
ACAD_DSTYLE_DIM_EXT1_LINETYPE
1070
   381
1005
16
1001
ACAD_DSTYLE_DIM_EXT2_LINETYPE
1070
   382
1005
16
0
DIMENSION
5
1A9
100
AcDbEntity
8
SK2
62
256
6
ByLayer
370
18
48
1
60
0
100
AcDbDimension
2
_U3
10
25.4
20
32.952229
30
0
11
65.45
21
32.952229
31
0
70
32
71
1
72
1
41
1
210
0
220
0
230
1
3
Standard
100
AcDbAlignedDimension
13
105.5
23
0
33
0
14
25.4
24
11
34
0
50
0
100
AcDbRotatedDimension
1001
ACAD
1000
DSTYLE
1002
{
1070
   371
1070
    13
1070
   372
1070
    13
1070
     3
1000

1070
   170
1070
     0
1070
   144
1040
1.0
1070
   277
1070
     2
1070
   284
1070
     8
1070
   278
1070
    46
1070
   146
1040
1.166667
1070
   345
1005
16
1070
   347
1005
16
1070
   346
1005
16
1070
   344
1005
0
1070
   343
1005
0
1070
   172
1070
     1
1070
    76
1070
     0
1070
    75
1070
     0
1070
   282
1070
     0
1070
   281
1070
     0
1070
    71
1070
     0
1070
    74
1070
     0
1070
   279
1070
     0
1070
   173
1070
     1
1070
   340
1005
13F
1070
   271
1070
     2
1070
   272
1070
     3
1070
    77
1070
     1
1070
    73
1070
     1
1070
   171
1070
     3
1070
   274
1070
     4
1070
   177
1070
     2
1070
   176
1070
     2
1070
   178
1070
     2
1070
    78
1070
     8
1070
    48
1040
-0.1
1070
    41
1040
3.5
1070
   147
1040
1.5
1070
    42
1040
1.5875
1070
    44
1040
2.0
1070
   140
1040
3.0
1002
}
1001
ACAD_DSTYLE_DIM_LINETYPE
1070
   380
1005
16
1001
ACAD_DSTYLE_DIM_EXT1_LINETYPE
1070
   381
1005
16
1001
ACAD_DSTYLE_DIM_EXT2_LINETYPE
1070
   382
1005
16
0
ENDSEC
0
SECTION
2
OBJECTS
0
DICTIONARY
5
231
330
0
100
AcDbDictionary
280
0
281
1
3
ACAD_GROUP
350
232
3
ACAD_MLINESTYLE
350
233
0
DICTIONARY
5
232
330
0
100
AcDbDictionary
280
0
281
1
0
DICTIONARY
5
233
330
0
100
AcDbDictionary
280
0
281
1
3
Standard
350
18
0
MLINESTYLE
5
18
330
233
100
AcDbMlineStyle
2
Standard
70
0
3

62
256
51
90
52
90
71
2
49
-0.5
62
256
6
ByLayer
49
0.5
62
256
6
ByLayer
0
RASTERVARIABLES
5
21f
330

100
AcDbRasterVariables
90
0
70
1
71
1
72
1
0
ENDSEC
0
EOF
