0
SECTION
2
HEADER
9
$ACADVER
1
AC1015
9
$DWGCODEPAGE
3
ANSI_1252
9
$HANDSEED
5
24d
9
$ANGBASE
50
0
9
$ANGDIR
70
0
9
$ATTMODE
70
1
9
$AUNITS
70
0
9
$AUPREC
70
0
9
$CECOLOR
62
256
9
$CELTSCALE
40
1
9
$CELTYPE
6
ByLayer
9
$CELWEIGHT
370
18
9
$CLAYER
8
0
9
$CMLJUST
70
0
9
$CMLSCALE
40
1
9
$CMLSTYLE
2
Standard
9
$DIMSTYLE
2
Standard
9
$TEXTSIZE
40
0.2
9
$TEXTSTYLE
7
Standard
9
$LUNITS
70
2
9
$LUPREC
70
4
9
$EXTNAMES
290
1
9
$INSUNITS
70
4
9
$LTSCALE
40
1
9
$LWDISPLAY
290
1
9
$PDMODE
70
0
9
$PDSIZE
40
0
9
$PLINEGEN
70
0
0
ENDSEC
0
SECTION
2
CLASSES
0
CLASS
1
RASTERVARIABLES
2
AcDbRasterVariables
3
ISM
90
0
280
0
281
0
0
ENDSEC
0
SECTION
2
TABLES
0
TABLE
2
VPORT
5
243
100
AcDbSymbolTable
0
VPORT
5
1
100
AcDbSymbolTableRecord
100
AcDbViewportTableRecord
2
*Active
70
0
10
0
20
0
11
1
21
1
12
-1
22
1
13
0
23
0
14
0.5
24
0.5
15
10
25
10
16
0
26
0
36
1
17
0
27
0
37
0
0
ENDTAB
0
TABLE
2
LTYPE
5
244
100
AcDbSymbolTable
0
LTYPE
5
14
100
AcDbSymbolTableRecord
100
AcDbLinetypeTableRecord
70
0
2
ByBlock
3

72
65
73
0
40
0
0
LTYPE
5
15
100
AcDbSymbolTableRecord
100
AcDbLinetypeTableRecord
70
0
2
ByLayer
3

72
65
73
0
40
0
0
LTYPE
5
16
100
AcDbSymbolTableRecord
100
AcDbLinetypeTableRecord
70
0
2
Continuous
3
Solid line
72
65
73
0
40
0
0
LTYPE
5
6E
100
AcDbSymbolTableRecord
100
AcDbLinetypeTableRecord
70
0
2
CENTER
3
____ _ ____ _ ____ _ ____
72
65
73
4
40
47.5
49
22
74
0
49
-8.5
74
0
49
8.5
74
0
49
-8.5
74
0
0
LTYPE
5
6F
100
AcDbSymbolTableRecord
100
AcDbLinetypeTableRecord
70
0
2
DASHED
3
__ __ __ __ __ __ __ __ __
72
65
73
2
40
25.72
49
12.86
74
0
49
-12.86
74
0
0
ENDTAB
0
TABLE
2
LAYER
5
245
100
AcDbSymbolTable
0
LAYER
5
10
100
AcDbSymbolTableRecord
100
AcDbLayerTableRecord
2
0
70
0
62
7
6
Continuous
290
1
370
-3
390
0
0
LAYER
5
71
100
AcDbSymbolTableRecord
100
AcDbLayerTableRecord
2
80
70
0
62
-6
6
Continuous
290
1
370
-3
390
0
0
LAYER
5
73
100
AcDbSymbolTableRecord
100
AcDbLayerTableRecord
2
81
70
0
62
-3
6
Continuous
290
1
370
-3
390
0
0
LAYER
5
75
100
AcDbSymbolTableRecord
100
AcDbLayerTableRecord
2
1
70
0
62
4
6
Continuous
290
1
370
-3
390
0
0
LAYER
5
7F
100
AcDbSymbolTableRecord
100
AcDbLayerTableRecord
2
4
70
0
62
-2
6
CENTER
290
1
370
-3
390
0
0
LAYER
5
B1
100
AcDbSymbolTableRecord
100
AcDbLayerTableRecord
2
2
70
0
62
7
6
Continuous
290
1
370
-3
390
0
0
LAYER
5
172
100
AcDbSymbolTableRecord
100
AcDbLayerTableRecord
2
Defpoints
70
0
62
7
6
Continuous
290
0
370
-3
390
0
0
LAYER
5
22f
100
AcDbSymbolTableRecord
100
AcDbLayerTableRecord
2
SK4
70
0
62
2
6
CENTER
290
1
370
-3
390
0
0
LAYER
5
230
100
AcDbSymbolTableRecord
100
AcDbLayerTableRecord
2
SK1
70
0
62
4
6
Continuous
290
1
370
-3
390
0
0
LAYER
5
231
100
AcDbSymbolTableRecord
100
AcDbLayerTableRecord
2
SK2
70
0
62
7
6
Continuous
290
1
370
-3
390
0
0
LAYER
5
232
100
AcDbSymbolTableRecord
100
AcDbLayerTableRecord
2
SK6
70
0
62
5
6
Continuous
290
1
370
-3
390
0
0
ENDTAB
0
TABLE
2
STYLE
5
246
100
AcDbSymbolTable
0
STYLE
5
11
100
AcDbSymbolTableRecord
100
AcDbTextStyleTableRecord
2
Standard
3
txt
70
0
71
0
40
0
41
1
42
0
50
0
0
STYLE
5
14E
100
AcDbSymbolTableRecord
100
AcDbTextStyleTableRecord
2
iso_b_vert
3
simplex.shx
70
0
71
0
40
0
41
1
42
0
50
0
0
STYLE
5
14F
100
AcDbSymbolTableRecord
100
AcDbTextStyleTableRecord
2
DWGDirectTextStyle
3
simplex
70
0
71
0
40
0
41
1
42
0
50
0
0
ENDTAB
0
TABLE
2
DIMSTYLE
5
247
100
AcDbSymbolTable
100
AcDbDimStyleTable
0
DIMSTYLE
105
27
100
AcDbSymbolTableRecord
100
AcDbDimStyleTableRecord
2
Standard
70
0
3
<>
41
0.18
42
0.0625
44
0.18
140
0.18
147
0.09
73
0
74
0
77
1
271
2
275
0
278
52
280
0
340
11
0
ENDTAB
0
TABLE
2
VIEW
5
248
100
AcDbSymbolTable
0
ENDTAB
0
TABLE
2
UCS
5
249
100
AcDbSymbolTable
0
ENDTAB
0
TABLE
2
APPID
5
24a
100
AcDbSymbolTable
0
APPID
5
12
100
AcDbSymbolTableRecord
100
AcDbRegAppTableRecord
2
ACAD
70
0
0
APPID
5
16E
100
AcDbSymbolTableRecord
100
AcDbRegAppTableRecord
2
ACAD_DSTYLE_DIMBREAK
70
0
0
APPID
5
1EE
100
AcDbSymbolTableRecord
100
AcDbRegAppTableRecord
2
ACAD_DSTYLE_DIM_LINETYPE
70
0
0
APPID
5
1EF
100
AcDbSymbolTableRecord
100
AcDbRegAppTableRecord
2
ACAD_DSTYLE_DIM_EXT1_LINETYPE
70
0
0
APPID
5
1F0
100
AcDbSymbolTableRecord
100
AcDbRegAppTableRecord
2
ACAD_DSTYLE_DIM_EXT2_LINETYPE
70
0
0
APPID
5
22B
100
AcDbSymbolTableRecord
100
AcDbRegAppTableRecord
2
ACAD_MLEADERVER
70
0
0
ENDTAB
0
TABLE
2
BLOCK_RECORD
5
24b
100
AcDbSymbolTable
0
BLOCK_RECORD
5
1F
100
AcDbSymbolTableRecord
100
AcDbBlockTableRecord
2
*Model_Space
340
0
70
0
0
BLOCK_RECORD
5
1B
100
AcDbSymbolTableRecord
100
AcDbBlockTableRecord
2
*Paper_Space
340
0
70
0
0
BLOCK_RECORD
5
23
100
AcDbSymbolTableRecord
100
AcDbBlockTableRecord
2
*Paper_Space0
340
0
70
0
0
BLOCK_RECORD
5
173
100
AcDbSymbolTableRecord
100
AcDbBlockTableRecord
2
*D1
340
0
70
0
0
BLOCK_RECORD
5
17F
100
AcDbSymbolTableRecord
100
AcDbBlockTableRecord
2
_U0
340
0
70
0
0
BLOCK_RECORD
5
18B
100
AcDbSymbolTableRecord
100
AcDbBlockTableRecord
2
*D3
340
0
70
0
0
BLOCK_RECORD
5
197
100
AcDbSymbolTableRecord
100
AcDbBlockTableRecord
2
_U1
340
0
70
0
0
BLOCK_RECORD
5
1A3
100
AcDbSymbolTableRecord
100
AcDbBlockTableRecord
2
*D5
340
0
70
0
0
BLOCK_RECORD
5
1AF
100
AcDbSymbolTableRecord
100
AcDbBlockTableRecord
2
_U2
340
0
70
0
0
BLOCK_RECORD
5
1BB
100
AcDbSymbolTableRecord
100
AcDbBlockTableRecord
2
*D7
340
0
70
0
0
BLOCK_RECORD
5
1C7
100
AcDbSymbolTableRecord
100
AcDbBlockTableRecord
2
_U3
340
0
70
0
0
ENDTAB
0
ENDSEC
0
SECTION
2
BLOCKS
0
BLOCK
5
20
100
AcDbEntity
8
0
100
AcDbBlockBegin
2
*Model_Space
70
0
10
0
20
0
30
0
3
*Model_Space
0
ENDBLK
5
21
100
AcDbEntity
8
0
100
AcDbBlockEnd
0
BLOCK
5
1C
100
AcDbEntity
8
0
100
AcDbBlockBegin
2
*Paper_Space
70
0
10
0
20
0
30
0
3
*Paper_Space
0
ENDBLK
5
1D
100
AcDbEntity
8
0
100
AcDbBlockEnd
0
BLOCK
5
24
100
AcDbEntity
8
0
100
AcDbBlockBegin
2
*Paper_Space0
70
0
10
0
20
0
30
0
3
*Paper_Space0
0
ENDBLK
5
25
100
AcDbEntity
8
0
100
AcDbBlockEnd
0
BLOCK
5
174
100
AcDbEntity
8
0
100
AcDbBlockBegin
2
*D1
70
1
10
0
20
0
30
0
3
*D1
0
LINE
5
176
100
AcDbEntity
8
0
62
256
6
ByLayer
370
-2
48
1
60
0
100
AcDbLine
10
-60
20
-17.4625
30
0
11
-60
21
-47.952229
31
0
39
0
210
0
220
0
230
1
0
LINE
5
177
100
AcDbEntity
8
0
62
256
6
ByLayer
370
-2
48
1
60
0
100
AcDbLine
10
115
20
-1.5875
30
0
11
115
21
-47.952229
31
0
39
0
210
0
220
0
230
1
0
LINE
5
178
100
AcDbEntity
8
0
62
256
6
ByLayer
370
-2
48
1
60
0
100
AcDbLine
10
-56.5
20
-45.952229
30
0
11
111.5
21
-45.952229
31
0
39
0
210
0
220
0
230
1
0
SOLID
5
179
100
AcDbEntity
8
0
62
256
6
ByLayer
370
-1
48
1
60
0
100
AcDbTrace
10
-56.5
20
-45.368896
30
0
11
-56.5
21
-46.535563
31
0
12
-60
22
-45.952229
32
0
13
-60
23
-45.952229
33
0
39
0
210
0
220
0
230
1
0
SOLID
5
17A
100
AcDbEntity
8
0
62
256
6
ByLayer
370
-1
48
1
60
0
100
AcDbTrace
10
111.5
20
-46.535563
30
0
11
111.5
21
-45.368896
31
0
12
115
22
-45.952229
32
0
13
115
23
-45.952229
33
0
39
0
210
0
220
0
230
1
0
MTEXT
5
17B
100
AcDbEntity
8
0
62
256
6
ByLayer
370
18
48
1
60
0
100
AcDbMText
10
27.5
20
-39.952229
30
0
210
0
220
0
230
1
1
\A1;175
40
3
41
0
44
1
50
0
71
5
72
5
7
iso_b_vert
0
POINT
5
17C
100
AcDbEntity
8
Defpoints
62
0
6
ByLayer
370
-1
48
1
60
0
100
AcDbPoint
10
-60
20
-15.875
30
0
39
0
210
0
220
0
230
1
50
360
0
POINT
5
17D
100
AcDbEntity
8
Defpoints
62
0
6
ByLayer
370
-1
48
1
60
0
100
AcDbPoint
10
115
20
0
30
0
39
0
210
0
220
0
230
1
50
360
0
POINT
5
17E
100
AcDbEntity
8
Defpoints
62
0
6
ByLayer
370
-1
48
1
60
0
100
AcDbPoint
10
115
20
-45.952229
30
0
39
0
210
0
220
0
230
1
50
360
0
ENDBLK
5
175
100
AcDbEntity
8
0
100
AcDbBlockEnd
0
BLOCK
5
186
100
AcDbEntity
8
0
100
AcDbBlockBegin
2
_U0
70
0
10
0
20
0
30
0
3
_U0
0
MTEXT
5
180
100
AcDbEntity
8
SK2
62
256
6
ByLayer
370
18
48
1
60
0
100
AcDbMText
10
22.271658
20
-45.067115
30
0
210
0
220
0
230
1
1
\W0.7022;175.00
40
3
41
0
44
1.084337
50
0
71
7
72
5
7
iso_b_vert
0
LINE
5
181
100
AcDbEntity
8
SK2
62
256
6
ByLayer
370
13
48
1
60
0
100
AcDbLine
10
-60
20
-17.4625
30
0
11
-60
21
-47.952229
31
0
39
0
210
0
220
0
230
1
0
LINE
5
182
100
AcDbEntity
8
SK2
62
256
6
ByLayer
370
13
48
1
60
0
100
AcDbLine
10
115
20
-1.5875
30
0
11
115
21
-47.952229
31
0
39
0
210
0
220
0
230
1
0
LINE
5
183
100
AcDbEntity
8
SK2
62
256
6
ByLayer
370
13
48
1
60
0
100
AcDbLine
10
-60
20
-45.952229
30
0
11
115
21
-45.952229
31
0
39
0
210
0
220
0
230
1
0
SOLID
5
184
100
AcDbEntity
8
SK2
62
256
6
ByLayer
370
18
48
1
60
0
100
AcDbTrace
10
-60
20
-45.952229
30
0
11
-56.500002
21
-45.491446
31
0
12
-56.499998
22
-46.413013
32
0
13
-56.499998
23
-46.413013
33
0
39
0
210
0
220
0
230
1
0
SOLID
5
185
100
AcDbEntity
8
SK2
62
256
6
ByLayer
370
18
48
1
60
0
100
AcDbTrace
10
115
20
-45.952229
30
0
11
111.500002
21
-46.413013
31
0
12
111.499998
22
-45.491446
32
0
13
111.499998
23
-45.491446
33
0
39
0
210
0
220
0
230
1
0
ENDBLK
5
187
100
AcDbEntity
8
0
100
AcDbBlockEnd
0
BLOCK
5
18C
100
AcDbEntity
8
0
100
AcDbBlockBegin
2
*D3
70
1
10
0
20
0
30
0
3
*D3
0
LINE
5
18E
100
AcDbEntity
8
0
62
256
6
ByLayer
370
-2
48
1
60
0
100
AcDbLine
10
115
20
-1.5875
30
0
11
115
21
-37.952229
31
0
39
0
210
0
220
0
230
1
0
LINE
5
18F
100
AcDbEntity
8
0
62
256
6
ByLayer
370
-2
48
1
60
0
100
AcDbLine
10
3
20
-15.478
30
0
11
3
21
-37.952229
31
0
39
0
210
0
220
0
230
1
0
LINE
5
190
100
AcDbEntity
8
0
62
256
6
ByLayer
370
-2
48
1
60
0
100
AcDbLine
10
111.5
20
-35.952229
30
0
11
6.5
21
-35.952229
31
0
39
0
210
0
220
0
230
1
0
SOLID
5
191
100
AcDbEntity
8
0
62
256
6
ByLayer
370
-1
48
1
60
0
100
AcDbTrace
10
111.5
20
-36.535563
30
0
11
111.5
21
-35.368896
31
0
12
115
22
-35.952229
32
0
13
115
23
-35.952229
33
0
39
0
210
0
220
0
230
1
0
SOLID
5
192
100
AcDbEntity
8
0
62
256
6
ByLayer
370
-1
48
1
60
0
100
AcDbTrace
10
6.5
20
-35.368896
30
0
11
6.5
21
-36.535563
31
0
12
3
22
-35.952229
32
0
13
3
23
-35.952229
33
0
39
0
210
0
220
0
230
1
0
MTEXT
5
193
100
AcDbEntity
8
0
62
256
6
ByLayer
370
18
48
1
60
0
100
AcDbMText
10
59
20
-29.952229
30
0
210
0
220
0
230
1
1
\A1;112
40
3
41
0
44
1
50
0
71
5
72
5
7
iso_b_vert
0
POINT
5
194
100
AcDbEntity
8
Defpoints
62
0
6
ByLayer
370
-1
48
1
60
0
100
AcDbPoint
10
115
20
0
30
0
39
0
210
0
220
0
230
1
50
360
0
POINT
5
195
100
AcDbEntity
8
Defpoints
62
0
6
ByLayer
370
-1
48
1
60
0
100
AcDbPoint
10
3
20
-13.8905
30
0
39
0
210
0
220
0
230
1
50
360
0
POINT
5
196
100
AcDbEntity
8
Defpoints
62
0
6
ByLayer
370
-1
48
1
60
0
100
AcDbPoint
10
3
20
-35.952229
30
0
39
0
210
0
220
0
230
1
50
360
0
ENDBLK
5
18D
100
AcDbEntity
8
0
100
AcDbBlockEnd
0
BLOCK
5
19E
100
AcDbEntity
8
0
100
AcDbBlockBegin
2
_U1
70
0
10
0
20
0
30
0
3
_U1
0
MTEXT
5
198
100
AcDbEntity
8
SK2
62
256
6
ByLayer
370
18
48
1
60
0
100
AcDbMText
10
54.146601
20
-35.067115
30
0
210
0
220
0
230
1
1
\W0.6532;112.00
40
3
41
0
44
1.084337
50
0
71
7
72
5
7
iso_b_vert
0
LINE
5
199
100
AcDbEntity
8
SK2
62
256
6
ByLayer
370
13
48
1
60
0
100
AcDbLine
10
115
20
-1.5875
30
0
11
115
21
-37.952229
31
0
39
0
210
0
220
0
230
1
0
LINE
5
19A
100
AcDbEntity
8
SK2
62
256
6
ByLayer
370
13
48
1
60
0
100
AcDbLine
10
3
20
-15.478
30
0
11
3
21
-37.952229
31
0
39
0
210
0
220
0
230
1
0
LINE
5
19B
100
AcDbEntity
8
SK2
62
256
6
ByLayer
370
13
48
1
60
0
100
AcDbLine
10
115
20
-35.952229
30
0
11
3
21
-35.952229
31
0
39
0
210
0
220
0
230
1
0
SOLID
5
19C
100
AcDbEntity
8
SK2
62
256
6
ByLayer
370
18
48
1
60
0
100
AcDbTrace
10
115
20
-35.952229
30
0
11
111.500002
21
-36.413013
31
0
12
111.499998
22
-35.491446
32
0
13
111.499998
23
-35.491446
33
0
39
0
210
0
220
0
230
1
0
SOLID
5
19D
100
AcDbEntity
8
SK2
62
256
6
ByLayer
370
18
48
1
60
0
100
AcDbTrace
10
3
20
-35.952229
30
0
11
6.499998
21
-35.491446
31
0
12
6.500002
22
-36.413013
32
0
13
6.500002
23
-36.413013
33
0
39
0
210
0
220
0
230
1
0
ENDBLK
5
19F
100
AcDbEntity
8
0
100
AcDbBlockEnd
0
BLOCK
5
1A4
100
AcDbEntity
8
0
100
AcDbBlockBegin
2
*D5
70
1
10
0
20
0
30
0
3
*D5
0
LINE
5
1A6
100
AcDbEntity
8
0
62
256
6
ByLayer
370
-2
48
1
60
0
100
AcDbLine
10
-60
20
-17.4625
30
0
11
-60
21
-37.952229
31
0
39
0
210
0
220
0
230
1
0
LINE
5
1A7
100
AcDbEntity
8
0
62
256
6
ByLayer
370
-2
48
1
60
0
100
AcDbLine
10
0
20
-17.4625
30
0
11
0
21
-37.952229
31
0
39
0
210
0
220
0
230
1
0
LINE
5
1A8
100
AcDbEntity
8
0
62
256
6
ByLayer
370
-2
48
1
60
0
100
AcDbLine
10
-56.5
20
-35.952229
30
0
11
-3.5
21
-35.952229
31
0
39
0
210
0
220
0
230
1
0
SOLID
5
1A9
100
AcDbEntity
8
0
62
256
6
ByLayer
370
-1
48
1
60
0
100
AcDbTrace
10
-56.5
20
-35.368896
30
0
11
-56.5
21
-36.535563
31
0
12
-60
22
-35.952229
32
0
13
-60
23
-35.952229
33
0
39
0
210
0
220
0
230
1
0
SOLID
5
1AA
100
AcDbEntity
8
0
62
256
6
ByLayer
370
-1
48
1
60
0
100
AcDbTrace
10
-3.5
20
-36.535563
30
0
11
-3.5
21
-35.368896
31
0
12
0
22
-35.952229
32
0
13
0
23
-35.952229
33
0
39
0
210
0
220
0
230
1
0
MTEXT
5
1AB
100
AcDbEntity
8
0
62
256
6
ByLayer
370
18
48
1
60
0
100
AcDbMText
10
-30
20
-29.952229
30
0
210
0
220
0
230
1
1
\A1;60
40
3
41
0
44
1
50
0
71
5
72
5
7
iso_b_vert
0
POINT
5
1AC
100
AcDbEntity
8
Defpoints
62
0
6
ByLayer
370
-1
48
1
60
0
100
AcDbPoint
10
-60
20
-15.875
30
0
39
0
210
0
220
0
230
1
50
360
0
POINT
5
1AD
100
AcDbEntity
8
Defpoints
62
0
6
ByLayer
370
-1
48
1
60
0
100
AcDbPoint
10
0
20
-15.875
30
0
39
0
210
0
220
0
230
1
50
360
0
POINT
5
1AE
100
AcDbEntity
8
Defpoints
62
0
6
ByLayer
370
-1
48
1
60
0
100
AcDbPoint
10
0
20
-35.952229
30
0
39
0
210
0
220
0
230
1
50
360
0
ENDBLK
5
1A5
100
AcDbEntity
8
0
100
AcDbBlockEnd
0
BLOCK
5
1B6
100
AcDbEntity
8
0
100
AcDbBlockBegin
2
_U2
70
0
10
0
20
0
30
0
3
_U2
0
MTEXT
5
1B0
100
AcDbEntity
8
SK2
62
256
6
ByLayer
370
18
48
1
60
0
100
AcDbMText
10
-34.48237
20
-35.067115
30
0
210
0
220
0
230
1
1
\W0.7468;60.00
40
3
41
0
44
1.084337
50
0
71
7
72
5
7
iso_b_vert
0
LINE
5
1B1
100
AcDbEntity
8
SK2
62
256
6
ByLayer
370
13
48
1
60
0
100
AcDbLine
10
-60
20
-17.4625
30
0
11
-60
21
-37.952229
31
0
39
0
210
0
220
0
230
1
0
LINE
5
1B2
100
AcDbEntity
8
SK2
62
256
6
ByLayer
370
13
48
1
60
0
100
AcDbLine
10
0
20
-17.4625
30
0
11
0
21
-37.952229
31
0
39
0
210
0
220
0
230
1
0
LINE
5
1B3
100
AcDbEntity
8
SK2
62
256
6
ByLayer
370
13
48
1
60
0
100
AcDbLine
10
-60
20
-35.952229
30
0
11
0
21
-35.952229
31
0
39
0
210
0
220
0
230
1
0
SOLID
5
1B4
100
AcDbEntity
8
SK2
62
256
6
ByLayer
370
18
48
1
60
0
100
AcDbTrace
10
-60
20
-35.952229
30
0
11
-56.500002
21
-35.491446
31
0
12
-56.499998
22
-36.413013
32
0
13
-56.499998
23
-36.413013
33
0
39
0
210
0
220
0
230
1
0
SOLID
5
1B5
100
AcDbEntity
8
SK2
62
256
6
ByLayer
370
18
48
1
60
0
100
AcDbTrace
10
0
20
-35.952229
30
0
11
-3.499998
21
-36.413013
31
0
12
-3.500002
22
-35.491446
32
0
13
-3.500002
23
-35.491446
33
0
39
0
210
0
220
0
230
1
0
ENDBLK
5
1B7
100
AcDbEntity
8
0
100
AcDbBlockEnd
0
BLOCK
5
1BC
100
AcDbEntity
8
0
100
AcDbBlockBegin
2
*D7
70
1
10
0
20
0
30
0
3
*D7
0
LINE
5
1BE
100
AcDbEntity
8
0
62
256
6
ByLayer
370
-2
48
1
60
0
100
AcDbLine
10
115
20
1.5875
30
0
11
115
21
34.952229
31
0
39
0
210
0
220
0
230
1
0
LINE
5
1BF
100
AcDbEntity
8
0
62
256
6
ByLayer
370
-2
48
1
60
0
100
AcDbLine
10
21
20
15.478
30
0
11
21
21
34.952229
31
0
39
0
210
0
220
0
230
1
0
LINE
5
1C0
100
AcDbEntity
8
0
62
256
6
ByLayer
370
-2
48
1
60
0
100
AcDbLine
10
111.5
20
32.952229
30
0
11
24.5
21
32.952229
31
0
39
0
210
0
220
0
230
1
0
SOLID
5
1C1
100
AcDbEntity
8
0
62
256
6
ByLayer
370
-1
48
1
60
0
100
AcDbTrace
10
111.5
20
32.368896
30
0
11
111.5
21
33.535563
31
0
12
115
22
32.952229
32
0
13
115
23
32.952229
33
0
39
0
210
0
220
0
230
1
0
SOLID
5
1C2
100
AcDbEntity
8
0
62
256
6
ByLayer
370
-1
48
1
60
0
100
AcDbTrace
10
24.5
20
33.535563
30
0
11
24.5
21
32.368896
31
0
12
21
22
32.952229
32
0
13
21
23
32.952229
33
0
39
0
210
0
220
0
230
1
0
MTEXT
5
1C3
100
AcDbEntity
8
0
62
256
6
ByLayer
370
18
48
1
60
0
100
AcDbMText
10
68
20
38.952229
30
0
210
0
220
0
230
1
1
\A1;94
40
3
41
0
44
1
50
0
71
5
72
5
7
iso_b_vert
0
POINT
5
1C4
100
AcDbEntity
8
Defpoints
62
0
6
ByLayer
370
-1
48
1
60
0
100
AcDbPoint
10
115
20
0
30
0
39
0
210
0
220
0
230
1
50
360
0
POINT
5
1C5
100
AcDbEntity
8
Defpoints
62
0
6
ByLayer
370
-1
48
1
60
0
100
AcDbPoint
10
21
20
13.8905
30
0
39
0
210
0
220
0
230
1
50
360
0
POINT
5
1C6
100
AcDbEntity
8
Defpoints
62
0
6
ByLayer
370
-1
48
1
60
0
100
AcDbPoint
10
21
20
32.952229
30
0
39
0
210
0
220
0
230
1
50
360
0
ENDBLK
5
1BD
100
AcDbEntity
8
0
100
AcDbBlockEnd
0
BLOCK
5
1CE
100
AcDbEntity
8
0
100
AcDbBlockBegin
2
_U3
70
0
10
0
20
0
30
0
3
_U3
0
MTEXT
5
1C8
100
AcDbEntity
8
SK2
62
256
6
ByLayer
370
18
48
1
60
0
100
AcDbMText
10
63.359687
20
33.837344
30
0
210
0
220
0
230
1
1
\W0.7694;94.00
40
3
41
0
44
1.084337
50
0
71
7
72
5
7
iso_b_vert
0
LINE
5
1C9
100
AcDbEntity
8
SK2
62
256
6
ByLayer
370
13
48
1
60
0
100
AcDbLine
10
115
20
1.5875
30
0
11
115
21
34.952229
31
0
39
0
210
0
220
0
230
1
0
LINE
5
1CA
100
AcDbEntity
8
SK2
62
256
6
ByLayer
370
13
48
1
60
0
100
AcDbLine
10
21
20
15.478
30
0
11
21
21
34.952229
31
0
39
0
210
0
220
0
230
1
0
LINE
5
1CB
100
AcDbEntity
8
SK2
62
256
6
ByLayer
370
13
48
1
60
0
100
AcDbLine
10
115
20
32.952229
30
0
11
21
21
32.952229
31
0
39
0
210
0
220
0
230
1
0
SOLID
5
1CC
100
AcDbEntity
8
SK2
62
256
6
ByLayer
370
18
48
1
60
0
100
AcDbTrace
10
115
20
32.952229
30
0
11
111.500002
21
32.491446
31
0
12
111.499998
22
33.413013
32
0
13
111.499998
23
33.413013
33
0
39
0
210
0
220
0
230
1
0
SOLID
5
1CD
100
AcDbEntity
8
SK2
62
256
6
ByLayer
370
18
48
1
60
0
100
AcDbTrace
10
21
20
32.952229
30
0
11
24.499998
21
33.413013
31
0
12
24.500002
22
32.491446
32
0
13
24.500002
23
32.491446
33
0
39
0
210
0
220
0
230
1
0
ENDBLK
5
1CF
100
AcDbEntity
8
0
100
AcDbBlockEnd
0
ENDSEC
0
SECTION
2
ENTITIES
0
ARC
5
C2
100
AcDbEntity
8
SK2
62
256
6
ByLayer
370
13
48
1
60
0
100
AcDbCircle
39
0
10
115
20
0
30
0
40
19
210
0
220
0
230
1
100
AcDbArc
50
290
51
70
0
ELLIPSE
5
C3
100
AcDbEntity
8
SK1
62
256
6
ByLayer
370
18
48
1
60
0
100
AcDbEllipse
10
-38.196323
20
0
30
0
11
-2.91609388003954E-15
21
-15.875
31
0
210
0
220
0
230
1
40
0.932515
41
-2.04476529460845
42
-1.09682735898134
0
ELLIPSE
5
C4
100
AcDbEntity
8
SK1
62
256
6
ByLayer
370
18
48
1
60
0
100
AcDbEllipse
10
-24.023853
20
0
30
0
11
17.0238532716365
21
-1.92897228726061E-14
31
0
210
0
220
0
230
1
40
0.932515
41
-0.473968967813626
42
0.473968967813628
0
POINT
5
70
100
AcDbEntity
8
80
62
256
6
ByLayer
370
18
48
1
60
0
100
AcDbPoint
10
0
20
0
30
0
39
0
210
0
220
0
230
1
50
360
0
POINT
5
72
100
AcDbEntity
8
81
62
256
6
ByLayer
370
18
48
1
60
0
100
AcDbPoint
10
115
20
0
30
0
39
0
210
0
220
0
230
1
50
360
0
POINT
5
74
100
AcDbEntity
8
1
62
256
6
ByLayer
370
18
48
1
60
1
100
AcDbPoint
10
-60
20
-15.875
30
0
39
0
210
0
220
0
230
1
50
360
0
POINT
5
76
100
AcDbEntity
8
1
62
256
6
ByLayer
370
18
48
1
60
1
100
AcDbPoint
10
115
20
0
30
0
39
0
210
0
220
0
230
1
50
360
0
POINT
5
77
100
AcDbEntity
8
1
62
256
6
ByLayer
370
18
48
1
60
1
100
AcDbPoint
10
115
20
0
30
0
39
0
210
0
220
0
230
1
50
360
0
POINT
5
78
100
AcDbEntity
8
1
62
256
6
ByLayer
370
18
48
1
60
1
100
AcDbPoint
10
3
20
-13.8905
30
0
39
0
210
0
220
0
230
1
50
360
0
POINT
5
79
100
AcDbEntity
8
1
62
256
6
ByLayer
370
18
48
1
60
1
100
AcDbPoint
10
-60
20
-15.875
30
0
39
0
210
0
220
0
230
1
50
360
0
POINT
5
7A
100
AcDbEntity
8
1
62
256
6
ByLayer
370
18
48
1
60
1
100
AcDbPoint
10
0
20
-15.875
30
0
39
0
210
0
220
0
230
1
50
360
0
POINT
5
7B
100
AcDbEntity
8
1
62
256
6
ByLayer
370
18
48
1
60
1
100
AcDbPoint
10
115
20
0
30
0
39
0
210
0
220
0
230
1
50
360
0
POINT
5
7C
100
AcDbEntity
8
1
62
256
6
ByLayer
370
18
48
1
60
1
100
AcDbPoint
10
21
20
13.8905
30
0
39
0
210
0
220
0
230
1
50
360
0
SPLINE
5
C5
100
AcDbEntity
8
1
62
256
6
ByLayer
370
18
48
1
60
0
100
AcDbSpline
70
4
71
3
72
8
73
4
40
0
40
0
40
0
40
0
40
1
40
1
40
1
40
1
41
1
10
97.3000000000001
20
-13.8452360754071
30
0
41
1
10
98.3030507079279
20
-13.8741239725833
30
0
41
1
10
99.3057717855727
20
-13.8885903955257
30
0
41
1
10
100.307845386249
20
-13.8887658081903
30
0
0
SPLINE
5
C6
100
AcDbEntity
8
1
62
256
6
ByLayer
370
18
48
1
60
0
100
AcDbSpline
70
4
71
3
72
114
73
110
40
0
40
0
40
0
40
0
40
0.0312499999999994
40
0.0312499999999994
40
0.0624999999999987
40
0.0624999999999987
40
0.0781249999999982
40
0.0781249999999982
40
0.0937499999999976
40
0.0937499999999976
40
0.109374999999997
40
0.109374999999997
40
0.124999999999997
40
0.124999999999997
40
0.156249999999996
40
0.156249999999996
40
0.171874999999996
40
0.171874999999996
40
0.187499999999996
40
0.187499999999996
40
0.218749999999996
40
0.218749999999996
40
0.234374999999996
40
0.234374999999996
40
0.249999999999996
40
0.249999999999996
40
0.281249999999997
40
0.281249999999997
40
0.312499999999998
40
0.312499999999998
40
0.328124999999998
40
0.328124999999998
40
0.335937499999998
40
0.335937499999998
40
0.343749999999999
40
0.343749999999999
40
0.375
40
0.375
40
0.406250000000001
40
0.406250000000001
40
0.421875000000002
40
0.421875000000002
40
0.437500000000002
40
0.437500000000002
40
0.453125000000003
40
0.453125000000003
40
0.468750000000003
40
0.468750000000003
40
0.484375000000003
40
0.484375000000003
40
0.500000000000004
40
0.500000000000004
40
0.515625000000004
40
0.515625000000004
40
0.531250000000004
40
0.531250000000004
40
0.562500000000005
40
0.562500000000005
40
0.570312500000006
40
0.570312500000006
40
0.578125000000006
40
0.578125000000006
40
0.593750000000007
40
0.593750000000007
40
0.625000000000007
40
0.625000000000007
40
0.640625000000008
40
0.640625000000008
40
0.656250000000009
40
0.656250000000009
40
0.664062500000009
40
0.664062500000009
40
0.671875000000009
40
0.671875000000009
40
0.687500000000009
40
0.687500000000009
40
0.718750000000008
40
0.718750000000008
40
0.734375000000007
40
0.734375000000007
40
0.750000000000006
40
0.750000000000006
40
0.781250000000005
40
0.781250000000005
40
0.796875000000004
40
0.796875000000004
40
0.812500000000004
40
0.812500000000004
40
0.828125000000003
40
0.828125000000003
40
0.843750000000003
40
0.843750000000003
40
0.875000000000003
40
0.875000000000003
40
0.890625000000003
40
0.890625000000003
40
0.898437500000002
40
0.898437500000002
40
0.906250000000002
40
0.906250000000002
40
0.937500000000002
40
0.937500000000002
40
0.968750000000002
40
0.968750000000002
40
0.984375000000002
40
0.984375000000002
40
0.992187500000001
40
0.992187500000001
40
1
40
1
40
1
40
1
41
1
10
20.1720865363972
20
6.99342166106246
30
0
41
1
10
20.9754742661618
20
6.74183702753371
30
0
41
1
10
21.7790143740681
20
6.4868516479645
30
0
41
1
10
23.3860108247247
20
5.96927237082556
30
0
41
1
10
24.1894709988556
20
5.70668745350159
30
0
41
1
10
25.3943320601152
20
5.30641321370192
30
0
41
1
10
25.7958910569985
20
5.17190410630644
30
0
41
1
10
26.5988749572509
20
4.90066938349975
30
0
41
1
10
27.0003509377945
20
4.7640729227719
30
0
41
1
10
27.8037203803673
20
4.49010043512223
30
0
41
1
10
28.2055534037785
20
4.35256933894476
30
0
41
1
10
29.0094335063003
20
4.07621109557556
30
0
41
1
10
29.4114477975908
20
3.93741080100273
30
0
41
1
10
30.6171262417081
20
3.51920129089967
30
0
41
1
10
31.4206261655164
20
3.2379112629333
30
0
41
1
10
32.6251542366565
20
2.81143267327468
30
0
41
1
10
33.026513441588
20
2.6684325608754
30
0
41
1
10
33.8295105066141
20
2.38232504645273
30
0
41
1
10
34.2311295985893
20
2.23916836631358
30
0
41
1
10
35.4361868533441
20
1.8089587619491
30
0
41
1
10
36.2398499284548
20
1.52123648290194
30
0
41
1
10
37.445545330415
20
1.08762492979909
30
0
41
1
10
37.8475119097094
20
0.942732349578392
30
0
41
1
10
38.6510325616529
20
0.65227630737499
30
0
41
1
10
39.0525863453641
20
0.506566169358592
30
0
41
1
10
40.2572209434933
20
0.0696368766201374
30
0
41
1
10
41.0605933007944
20
-0.220499702821286
30
0
41
1
10
42.6673923124874
20
-0.799900874341262
30
0
41
1
10
43.4708498133034
20
-1.08907991450522
30
0
41
1
10
44.675846450888
20
-1.52282680139422
30
0
41
1
10
45.0774510762662
20
-1.66748616714139
30
0
41
1
10
45.6798869376492
20
-1.88425754139618
30
0
41
1
10
45.8807152594526
20
-1.95644654005218
30
0
41
1
10
46.2824830007635
20
-2.10047242572099
30
0
41
1
10
46.4834213253802
20
-2.1723283558139
30
0
41
1
10
47.488046849869
20
-2.53081745875309
30
0
41
1
10
48.2917166611973
20
-2.81525224465739
30
0
41
1
10
49.8986735898658
20
-3.38032202425225
30
0
41
1
10
50.7019481921326
20
-3.660990741951
30
0
41
1
10
51.9063220724525
20
-4.07976537530789
30
0
41
1
10
52.3077476099057
20
-4.21883056612518
30
0
41
1
10
53.1109842937892
20
-4.49472322317123
30
0
41
1
10
53.5127348388479
20
-4.63171239859648
30
0
41
1
10
54.3164178568045
20
-4.9040003960267
30
0
41
1
10
54.7183752882246
20
-5.03929155088622
30
0
41
1
10
55.522366516687
20
-5.3082158267502
30
0
41
1
10
55.9242742807061
20
-5.44180977741499
30
0
41
1
10
56.7278665634298
20
-5.70737813502501
30
0
41
1
10
57.1295517305236
20
-5.83935092453743
30
0
41
1
10
57.9326477919346
20
-6.10178804473148
30
0
41
1
10
58.3340297281667
20
-6.23232043758168
30
0
41
1
10
59.1370399822461
20
-6.49057883205938
30
0
41
1
10
59.5386493313322
20
-6.61835628472323
30
0
41
1
10
60.3419689917903
20
-6.87148957605228
30
0
41
1
10
60.7436840933239
20
-6.99683331468552
30
0
41
1
10
61.9489441269787
20
-7.36932656199068
30
0
41
1
10
62.7526072092746
20
-7.61293763123138
30
0
41
1
10
63.7571455881609
20
-7.91204452892987
30
0
41
1
10
63.9580488860818
20
-7.97160111531289
30
0
41
1
10
64.3597455144015
20
-8.0901221267942
30
0
41
1
10
64.5605566654677
20
-8.14908167792115
30
0
41
1
10
65.1629927579472
20
-8.32480113478525
30
0
41
1
10
65.5646715252508
20
-8.44028979703015
30
0
41
1
10
66.7697817744955
20
-8.78203405271427
30
0
41
1
10
67.5732476886997
20
-9.00366186897136
30
0
41
1
10
68.7783103904202
20
-9.32731183030333
30
0
41
1
10
69.1799733264444
20
-9.43373172856909
30
0
41
1
10
69.9832029206596
20
-9.64372110160579
30
0
41
1
10
70.3847404178725
20
-9.74734699008019
30
0
41
1
10
70.9870512471263
20
-9.90047315351148
30
0
41
1
10
71.1878338626456
20
-9.95110718318173
30
0
41
1
10
71.5895021529227
20
-10.0514106555764
30
0
41
1
10
71.7903815664421
20
-10.1010925466658
30
0
41
1
10
72.393133584935
20
-10.2487764096602
30
0
41
1
10
72.7951347733539
20
-10.3454321893393
30
0
41
1
10
74.0008359522574
20
-10.6300025348283
30
0
41
1
10
74.8044661259545
20
-10.812550060947
30
0
41
1
10
76.0093903967978
20
-11.0760547506623
30
0
41
1
10
76.4109376730869
20
-11.1621791414133
30
0
41
1
10
77.2138325141096
20
-11.3309898992904
30
0
41
1
10
77.6152315134527
20
-11.4135881086541
30
0
41
1
10
78.819958262117
20
-11.6549338347514
30
0
41
1
10
79.6235437200174
20
-11.8076866425918
30
0
41
1
10
80.8292735076693
20
-12.0251206775462
30
0
41
1
10
81.231298787403
20
-12.095649899686
30
0
41
1
10
82.0350880137145
20
-12.2327819023886
30
0
41
1
10
82.4368619769052
20
-12.2993862174547
30
0
41
1
10
83.2401161417365
20
-12.4287045681068
30
0
41
1
10
83.641567512012
20
-12.4914456287842
30
0
41
1
10
84.4446977984763
20
-12.6124048347379
30
0
41
1
10
84.8463574856366
20
-12.6706543921599
30
0
41
1
10
86.0514591695993
20
-12.8389498950244
30
0
41
1
10
86.8550489500031
20
-12.9425246916638
30
0
41
1
10
88.0604792498881
20
-13.0851900838215
30
0
41
1
10
88.4622956056846
20
-13.1306272849007
30
0
41
1
10
89.0649929446885
20
-13.1956116779188
30
0
41
1
10
89.2658973440314
20
-13.2167476633119
30
0
41
1
10
89.6676166912785
20
-13.2579416256851
30
0
41
1
10
89.8684400161943
20
-13.2779966655471
30
0
41
1
10
90.872565451163
20
-13.375417583188
30
0
41
1
10
91.6760957183157
20
-13.4441029913385
30
0
41
1
10
93.2831050974448
20
-13.5635908712593
30
0
41
1
10
94.0866153542248
20
-13.6143712930522
30
0
41
1
10
95.2916116401245
20
-13.6771359543754
30
0
41
1
10
95.6932026473521
20
-13.6958283344141
30
0
41
1
10
96.2955991296653
20
-13.7204478335409
30
0
41
1
10
96.4964112663577
20
-13.72808075451
30
0
41
1
10
96.898140258058
20
-13.7421808140609
30
0
41
1
10
97.0990507864447
20
-13.748650326945
30
0
41
1
10
97.3
20
-13.7545440161984
30
0
0
SPLINE
5
C7
100
AcDbEntity
8
1
62
256
6
ByLayer
370
18
48
1
60
0
100
AcDbSpline
70
4
71
3
72
88
73
84
40
0
40
0
40
0
40
0
40
0.0189301939908833
40
0.0189301939908833
40
0.0300787145137142
40
0.0300787145137142
40
0.0412272350365451
40
0.0412272350365451
40
0.0635242760822069
40
0.0635242760822069
40
0.10811835817353
40
0.10811835817353
40
0.130415399219192
40
0.130415399219192
40
0.141563919742023
40
0.141563919742023
40
0.152712440264854
40
0.152712440264854
40
0.175009481310516
40
0.175009481310516
40
0.197306522356178
40
0.197306522356178
40
0.21960356340184
40
0.21960356340184
40
0.241900604447502
40
0.241900604447502
40
0.264197645493163
40
0.264197645493163
40
0.286494686538825
40
0.286494686538825
40
0.308791727584487
40
0.308791727584487
40
0.331088768630149
40
0.331088768630149
40
0.353385809675811
40
0.353385809675811
40
0.375682850721473
40
0.375682850721473
40
0.420276932812797
40
0.420276932812797
40
0.442573973858459
40
0.442573973858459
40
0.464871014904121
40
0.464871014904121
40
0.487168055949783
40
0.487168055949783
40
0.509465096995445
40
0.509465096995445
40
0.554059179086769
40
0.554059179086769
40
0.576356220132431
40
0.576356220132431
40
0.598653261178093
40
0.598653261178093
40
0.620950302223754
40
0.620950302223754
40
0.643247343269416
40
0.643247343269416
40
0.665544384315078
40
0.665544384315078
40
0.68784142536074
40
0.68784142536074
40
0.732435507452064
40
0.732435507452064
40
0.754732548497725
40
0.754732548497725
40
0.777029589543387
40
0.777029589543387
40
0.799326630589049
40
0.799326630589049
40
0.821623671634711
40
0.821623671634711
40
0.866217753726034
40
0.866217753726034
40
0.888514794771695
40
0.888514794771695
40
0.899663315294526
40
0.899663315294526
40
0.910811835817357
40
0.910811835817357
40
0.955405917908678
40
0.955405917908678
40
1
40
1
40
1
40
1
41
1
10
72.391279841308
20
-10.2599855570619
30
0
41
1
10
72.0231362596907
20
-10.3489996852481
30
0
41
1
10
71.6549843766277
20
-10.4366708769784
30
0
41
1
10
71.0700160120815
20
-10.5738505411965
30
0
41
1
10
70.8532065882063
20
-10.6242141782477
30
0
41
1
10
70.4196279836602
20
-10.723830356832
30
0
41
1
10
70.2028381562285
20
-10.7730753164173
30
0
41
1
10
69.5524621731268
20
-10.9191206631544
30
0
41
1
10
69.1188758320657
20
-11.0142433999116
30
0
41
1
10
67.8181559016534
20
-11.2930088093338
30
0
41
1
10
66.9510495289676
20
-11.470042435983
30
0
41
1
10
65.6506582209523
20
-11.7226688424354
30
0
41
1
10
65.2172552804823
20
-11.8047428918077
30
0
41
1
10
64.5671837861799
20
-11.9245404315321
30
0
41
1
10
64.3504906887315
20
-11.963908913665
30
0
41
1
10
63.9170229374823
20
-12.0414132840978
30
0
41
1
10
63.7002508560421
20
-12.0795532359375
30
0
41
1
10
63.0498277755296
20
-12.1921533429723
30
0
41
1
10
62.6160185572267
20
-12.2648049558096
30
0
41
1
10
61.7484005833509
20
-12.4052731247679
30
0
41
1
10
61.3146578439245
20
-12.4730781157235
30
0
41
1
10
60.4473347471111
20
-12.6038730655515
30
0
41
1
10
60.0137552739108
20
-12.6668641710609
30
0
41
1
10
59.1467991065638
20
-12.7880569247113
30
0
41
1
10
58.7134480562946
20
-12.8462829822061
30
0
41
1
10
57.8468288043536
20
-12.9577851700268
30
0
41
1
10
57.4134722263593
20
-13.010975017383
30
0
41
1
10
56.5465387007727
20
-13.1121492342445
30
0
41
1
10
56.1129870589265
20
-13.160158494351
30
0
41
1
10
55.2457395926724
20
-13.2510614600952
30
0
41
1
10
54.8120429215752
20
-13.2939545876163
30
0
41
1
10
53.9445358896339
20
-13.3746424422307
30
0
41
1
10
53.5106757620474
20
-13.4124416739241
30
0
41
1
10
52.6433615273718
20
-13.4828964486986
30
0
41
1
10
52.2098973177527
20
-13.5155743783674
30
0
41
1
10
51.3430691127678
20
-13.5756415834728
30
0
41
1
10
50.9096263987286
20
-13.6029932583337
30
0
41
1
10
49.6091788414268
20
-13.6770530596444
30
0
41
1
10
48.7420905763002
20
-13.7157992845483
30
0
41
1
10
47.4414439174577
20
-13.7580773720754
30
0
41
1
10
47.0078954859478
20
-13.769527031349
30
0
41
1
10
46.1408326610267
20
-13.7871118084628
30
0
41
1
10
45.7073595596388
20
-13.7932464804187
30
0
41
1
10
44.8401259692571
20
-13.8001315098766
30
0
41
1
10
44.4063770805409
20
-13.8008848981329
30
0
41
1
10
43.5390436958871
20
-13.7970579407478
30
0
41
1
10
43.1054025079111
20
-13.792477966724
30
0
41
1
10
41.8045917874381
20
-13.7707662365954
30
0
41
1
10
40.9375343274684
20
-13.7456794423335
30
0
41
1
10
39.637388597565
20
-13.6919580808732
30
0
41
1
10
39.2041138817239
20
-13.6713460910077
30
0
41
1
10
38.3372845639116
20
-13.6248838727126
30
0
41
1
10
37.9037371627826
20
-13.5990390732015
30
0
41
1
10
37.0364168203664
20
-13.542137352783
30
0
41
1
10
36.6026140886372
20
-13.5110786745714
30
0
41
1
10
35.7349273266865
20
-13.4437524652519
30
0
41
1
10
35.301176239061
20
-13.4074958762548
30
0
41
1
10
34.4338965469072
20
-13.3297652430297
30
0
41
1
10
34.0003691196367
20
-13.2882902618984
30
0
41
1
10
33.1335689562783
20
-13.2000657263911
30
0
41
1
10
32.7003007858378
20
-13.1533048466554
30
0
41
1
10
31.40015651608
20
-13.0056955794917
30
0
41
1
10
30.5330967801639
20
-12.8974298085317
30
0
41
1
10
29.2322353782271
20
-12.7201903955418
30
0
41
1
10
28.7985689249223
20
-12.6586345213593
30
0
41
1
10
27.9311824742314
20
-12.5305088337982
30
0
41
1
10
27.4973851395403
20
-12.4639214149934
30
0
41
1
10
26.6302912907407
20
-12.3257549708895
30
0
41
1
10
26.1969363798084
20
-12.2542135500621
30
0
41
1
10
25.3302027123117
20
-12.1067597772545
30
0
41
1
10
24.8968699483445
20
-12.0307925858524
30
0
41
1
10
23.5970208294111
20
-11.7961527185934
30
0
41
1
10
22.7306410665109
20
-11.6307721412744
30
0
41
1
10
21.4315547597282
20
-11.3689569652958
30
0
41
1
10
20.9986188493613
20
-11.2793712366042
30
0
41
1
10
20.3493197550727
20
-11.1415517499702
30
0
41
1
10
20.1328971649852
20
-11.0950494110514
30
0
41
1
10
19.6999979544925
20
-11.0010441572009
30
0
41
1
10
19.4835196652866
20
-10.953544537369
30
0
41
1
10
18.4009975052591
20
-10.7135514756458
30
0
41
1
10
17.5345714078368
20
-10.5135703505234
30
0
41
1
10
15.8011062728459
20
-10.0973383630411
30
0
41
1
10
14.9340656228522
20
-9.88109315204309
30
0
41
1
10
14.0668565695939
20
-9.65630195831821
30
0
0
SPLINE
5
C8
100
AcDbEntity
8
1
62
256
6
ByLayer
370
18
48
1
60
0
100
AcDbSpline
70
4
71
3
72
22
73
18
40
0
40
0
40
0
40
0
40
0.0624999999999996
40
0.0624999999999996
40
0.124999999999999
40
0.124999999999999
40
0.249999999999999
40
0.249999999999999
40
0.499999999999991
40
0.499999999999991
40
0.56249999999999
40
0.56249999999999
40
0.624999999999988
40
0.624999999999988
40
0.74999999999999
40
0.74999999999999
40
1
40
1
40
1
40
1
41
1
10
109.944271460921
20
-1.98213759395628
30
0
41
1
10
109.680592876922
20
-1.88709341048076
30
0
41
1
10
109.416999477456
20
-1.79183635277315
30
0
41
1
10
108.889954534634
20
-1.60097565106466
30
0
41
1
10
108.626496411222
20
-1.5053902525205
30
0
41
1
10
107.836118619638
20
-1.21871266865
30
0
41
1
10
107.309222241238
20
-1.02762498124156
30
0
41
1
10
105.728696415738
20
-0.454183406693119
30
0
41
1
10
104.675207063453
20
-0.0717144184606298
30
0
41
1
10
103.358903917251
20
0.407459753273031
30
0
41
1
10
103.095676027483
20
0.503362197038825
30
0
41
1
10
102.569257646137
20
0.695224582745766
30
0
41
1
10
102.306060608304
20
0.791166441816671
30
0
41
1
10
101.516307989542
20
1.07847811054066
30
0
41
1
10
100.989616542655
20
1.2694048872111
30
0
41
1
10
99.4090752616663
20
1.8406257668201
30
0
41
1
10
98.3547368709828
20
2.21930166305808
30
0
41
1
10
97.3000000000001
20
2.59651278042998
30
0
0
SPLINE
5
C9
100
AcDbEntity
8
1
62
256
6
ByLayer
370
18
48
1
60
0
100
AcDbSpline
70
4
71
3
72
97
73
93
40
0
40
0
40
0
40
0
40
0.031250000000006
40
0.031250000000006
40
0.062500000000012
40
0.062500000000012
40
0.093750000000018
40
0.093750000000018
40
0.125000000000024
40
0.125000000000024
40
0.140625000000027
40
0.140625000000027
40
0.148437500000028
40
0.148437500000028
40
0.156250000000029
40
0.187500000000032
40
0.187500000000032
40
0.218750000000035
40
0.218750000000035
40
0.250000000000038
40
0.250000000000038
40
0.281250000000041
40
0.281250000000041
40
0.296875000000044
40
0.296875000000044
40
0.304687500000044
40
0.304687500000044
40
0.312500000000045
40
0.312500000000045
40
0.343750000000044
40
0.343750000000044
40
0.375000000000043
40
0.375000000000043
40
0.406250000000042
40
0.406250000000042
40
0.437500000000042
40
0.437500000000042
40
0.445312500000041
40
0.445312500000041
40
0.453125000000041
40
0.468750000000041
40
0.468750000000041
40
0.500000000000042
40
0.500000000000042
40
0.531250000000042
40
0.531250000000042
40
0.535156250000042
40
0.535156250000042
40
0.539062500000042
40
0.539062500000042
40
0.546875000000042
40
0.562500000000042
40
0.562500000000042
40
0.593750000000041
40
0.593750000000041
40
0.625000000000041
40
0.625000000000041
40
0.632812500000041
40
0.632812500000041
40
0.640625000000041
40
0.65625000000004
40
0.65625000000004
40
0.687500000000037
40
0.687500000000037
40
0.718750000000035
40
0.718750000000035
40
0.726562500000034
40
0.726562500000034
40
0.734375000000033
40
0.734375000000033
40
0.750000000000031
40
0.750000000000031
40
0.781250000000026
40
0.781250000000026
40
0.812500000000022
40
0.812500000000022
40
0.843750000000017
40
0.843750000000017
40
0.851562500000016
40
0.851562500000016
40
0.859375000000016
40
0.875000000000014
40
0.875000000000014
40
0.906250000000011
40
0.906250000000011
40
0.937500000000008
40
0.968750000000004
40
0.968750000000004
40
0.976562500000003
40
0.976562500000003
40
0.984375000000002
40
1
40
1
40
1
40
1
41
1
10
109.944271460925
20
13.449420323117
30
0
41
1
10
110.031034238465
20
13.23427181532
30
0
41
1
10
110.117932994207
20
13.0158981321671
30
0
41
1
10
110.292149700349
20
12.5732090029505
30
0
41
1
10
110.379467509666
20
12.3488923273997
30
0
41
1
10
110.554625425807
20
11.8946852316399
30
0
41
1
10
110.642465593725
20
11.664794188439
30
0
41
1
10
110.818729329964
20
11.1996942422162
30
0
41
1
10
110.907153199434
20
10.9644850749661
30
0
41
1
10
111.040236927497
20
10.6078003568164
30
0
41
1
10
111.084672426928
20
10.488259536255
30
0
41
1
10
111.151434194186
20
10.3079873592122
30
0
41
1
10
111.173721586963
20
10.2476946192535
30
0
41
1
10
111.218252549529
20
10.1270038232674
30
0
41
1
10
111.329416442321
20
9.82515730641578
30
0
41
1
10
111.439773747462
20
9.52272261835475
30
0
41
1
10
111.615240766391
20
9.0380690607056
30
0
41
1
10
111.702423025038
20
8.79536360724688
30
0
41
1
10
111.875484661553
20
8.30913854622494
30
0
41
1
10
111.961366019911
20
8.06561963125841
30
0
41
1
10
112.131456427822
20
7.57764533351627
30
0
41
1
10
112.215668904551
20
7.33319118153022
30
0
41
1
10
112.340268977845
20
6.96564527117835
30
0
41
1
10
112.381513629064
20
6.84298500458314
30
0
41
1
10
112.442863424067
20
6.65874717549431
30
0
41
1
10
112.463236981159
20
6.59726278767673
30
0
41
1
10
112.503746658566
20
6.47435081918982
30
0
41
1
10
112.52386943008
20
6.41296408249602
30
0
41
1
10
112.62378154574
20
6.10636256243225
30
0
41
1
10
112.701490097725
20
5.86214738099937
30
0
41
1
10
112.851043252693
20
5.37544476540307
30
0
41
1
10
112.922897142827
20
5.13295910489265
30
0
41
1
10
113.058569168553
20
4.64919867247957
30
0
41
1
10
113.122398754672
20
4.407924883433
30
0
41
1
10
113.238747781902
20
3.92592862729151
30
0
41
1
10
113.291273353046
20
3.68520374006511
30
0
41
1
10
113.34693786471
20
3.38414562814012
30
0
41
1
10
113.357574356391
20
3.32388583943128
30
0
41
1
10
113.377725138863
20
3.20351491127983
30
0
41
1
10
113.406202360305
20
3.02359006857202
30
0
41
1
10
113.429126134969
20
2.84558493060067
30
0
41
1
10
113.466822288835
20
2.49223470865985
30
0
41
1
10
113.481004260073
20
2.26020257576556
30
0
41
1
10
113.484816765576
20
1.80403816036866
30
0
41
1
10
113.47442504746
20
1.5799096873626
30
0
41
1
10
113.449009144169
20
1.33286743404736
30
0
41
1
10
113.445996433941
20
1.30548932417165
30
0
41
1
10
113.439597087787
20
1.25087769525942
30
0
41
1
10
113.436207543678
20
1.22362248585179
30
0
41
1
10
113.425506395615
20
1.14224390583962
30
0
41
1
10
113.402002237785
20
0.981218147818311
30
0
41
1
10
113.372556826463
20
0.825322592643857
30
0
41
1
10
113.306733190139
20
0.520205659290326
30
0
41
1
10
113.25364502945
20
0.325680895464757
30
0
41
1
10
113.133845405951
20
-0.0462928691431443
30
0
41
1
10
113.067144029594
20
-0.223746923194881
30
0
41
1
10
112.977468696077
20
-0.43505656672815
30
0
41
1
10
112.959200394041
20
-0.476825001933577
30
0
41
1
10
112.922137948322
20
-0.559156094176927
30
0
41
1
10
112.865850377491
20
-0.680636579894212
30
0
41
1
10
112.807696675819
20
-0.796187579590963
30
0
41
1
10
112.689352858294
20
-1.01962158170079
30
0
41
1
10
112.607768704218
20
-1.15837490889984
30
0
41
1
10
112.440807042449
20
-1.41616053085451
30
0
41
1
10
112.355418246022
20
-1.53518911733164
30
0
41
1
10
112.246825274674
20
-1.67166997571164
30
0
41
1
10
112.225012450591
20
-1.69834945925893
30
0
41
1
10
112.181206460338
20
-1.75046998391667
30
0
41
1
10
112.15919726734
20
-1.77592768762005
30
0
41
1
10
112.093190907457
20
-1.85012316888543
30
0
41
1
10
112.049134533441
20
-1.89678535064479
30
0
41
1
10
111.916877928857
20
-2.02855668683603
30
0
41
1
10
111.828596779065
20
-2.1054675851598
30
0
41
1
10
111.651974675317
20
-2.23797104379844
30
0
41
1
10
111.563630967155
20
-2.29356139963863
30
0
41
1
10
111.386856505454
20
-2.38345321219566
30
0
41
1
10
111.298424492791
20
-2.41775468553686
30
0
41
1
10
111.187737705145
20
-2.44704137675447
30
0
41
1
10
111.165577737046
20
-2.45221960793776
30
0
41
1
10
111.121437862015
20
-2.46116806934248
30
0
41
1
10
111.055430595825
20
-2.47249906809023
30
0
41
1
10
110.990009324537
20
-2.47762485071269
30
0
41
1
10
110.859890731127
20
-2.47974349879576
30
0
41
1
10
110.774110063516
20
-2.47032585640497
30
0
41
1
10
110.604177220686
20
-2.43022372936258
30
0
41
1
10
110.435872852619
20
-2.36885234578872
30
0
41
1
10
110.270232782035
20
-2.26486426950402
30
0
41
1
10
110.16735397408
20
-2.18626053395303
30
0
41
1
10
110.146824855992
20
-2.16986816234063
30
0
41
1
10
110.105936282016
20
-2.13580755712016
30
0
41
1
10
110.044821857269
20
-2.08277522853652
30
0
41
1
10
109.984336866061
20
-2.02393767161576
30
0
41
1
10
109.944271460926
20
-1.98213759395804
30
0
0
SPLINE
5
CA
100
AcDbEntity
8
1
62
256
6
ByLayer
370
18
48
1
60
0
100
AcDbSpline
70
4
71
3
72
22
73
18
40
0
40
0
40
0
40
0
40
0.0160909698946737
40
0.0160909698946737
40
0.180075808245554
40
0.180075808245554
40
0.262068227420998
40
0.262068227420998
40
0.344060646596441
40
0.344060646596441
40
0.672030323298224
40
0.672030323298224
40
0.836015161649112
40
0.836015161649112
40
0.918007580824556
40
0.918007580824556
40
1
40
1
40
1
40
1
41
1
10
100.307845912113
20
13.8887658082823
30
0
41
1
10
100.35954658486
20
13.8887748582106
30
0
41
1
10
100.411245534084
20
13.8887458667752
30
0
41
1
10
100.989794366249
20
13.8879958958882
30
0
41
1
10
101.516458183188
20
13.8833534094766
30
0
41
1
10
102.306098550522
20
13.8703821166255
30
0
41
1
10
102.569259269458
20
13.8650554726067
30
0
41
1
10
103.095648875307
20
13.8524238915995
30
0
41
1
10
103.358891089006
20
13.8451232861108
30
0
41
1
10
104.67527651798
20
13.8037212966857
30
0
41
1
10
105.728864392538
20
13.7549541764171
30
0
41
1
10
107.309401421209
20
13.6581913254184
30
0
41
1
10
107.836269548739
20
13.6219897916335
30
0
41
1
10
108.62653379566
20
13.5616510914995
30
0
41
1
10
108.889955013516
20
13.5405332201948
30
0
41
1
10
109.41696964167
20
13.4963912088722
30
0
41
1
10
109.680576773681
20
13.4733777765966
30
0
41
1
10
109.94427146092
20
13.4494203231178
30
0
0
SPLINE
5
CB
100
AcDbEntity
8
1
62
256
6
ByLayer
370
18
48
1
60
0
100
AcDbSpline
70
4
71
3
72
42
73
38
40
0
40
0
40
0
40
0
40
0.0323204771683819
40
0.0323204771683819
40
0.129088429451547
40
0.129088429451547
40
0.177472405593128
40
0.177472405593128
40
0.225856381734709
40
0.225856381734709
40
0.322624334017868
40
0.322624334017868
40
0.371008310159448
40
0.371008310159448
40
0.419392286301028
40
0.419392286301028
40
0.467776262442607
40
0.467776262442607
40
0.516160238584187
40
0.516160238584187
40
0.612928190867349
40
0.612928190867349
40
0.661312167008932
40
0.661312167008932
40
0.685504155079723
40
0.685504155079723
40
0.709696143150514
40
0.709696143150514
40
0.806464095433676
40
0.806464095433676
40
0.903232047716838
40
0.903232047716838
40
0.951616023858418
40
0.951616023858418
40
0.975808011929209
40
0.975808011929209
40
1
40
1
40
1
40
1
41
1
10
72.3915719952208
20
10.2477874891099
30
0
41
1
10
72.6600515779083
20
10.3127576296509
30
0
41
1
10
72.9285658607634
20
10.3769246779488
30
0
41
1
10
74.0008359522573
20
10.6300025348283
30
0
41
1
10
74.8044661259545
20
10.812550060947
30
0
41
1
10
76.0093903967978
20
11.0760547506623
30
0
41
1
10
76.4109376730869
20
11.1621791414133
30
0
41
1
10
77.2138325141096
20
11.3309898992903
30
0
41
1
10
77.6152315134527
20
11.4135881086541
30
0
41
1
10
78.8199582621171
20
11.6549338347514
30
0
41
1
10
79.6235437200174
20
11.8076866425918
30
0
41
1
10
80.8292735076693
20
12.0251206775462
30
0
41
1
10
81.231298787403
20
12.0956498996859
30
0
41
1
10
82.0350880137145
20
12.2327819023886
30
0
41
1
10
82.4368619769052
20
12.2993862174547
30
0
41
1
10
83.2401161417364
20
12.4287045681068
30
0
41
1
10
83.641567512012
20
12.4914456287842
30
0
41
1
10
84.4446977984762
20
12.6124048347379
30
0
41
1
10
84.8463574856366
20
12.6706543921599
30
0
41
1
10
86.0514591695993
20
12.8389498950243
30
0
41
1
10
86.8550489500032
20
12.9425246916638
30
0
41
1
10
88.0604792498881
20
13.0851900838215
30
0
41
1
10
88.4622956056846
20
13.1306272849007
30
0
41
1
10
89.0649929446884
20
13.1956116779188
30
0
41
1
10
89.2658973440313
20
13.2167476633119
30
0
41
1
10
89.6676166912786
20
13.2579416256851
30
0
41
1
10
89.8684400161944
20
13.2779966655471
30
0
41
1
10
90.872565451163
20
13.3754175831881
30
0
41
1
10
91.6760957183157
20
13.4441029913385
30
0
41
1
10
93.2831050974447
20
13.5635908712593
30
0
41
1
10
94.0866153542247
20
13.6143712930522
30
0
41
1
10
95.2916116401244
20
13.6771359543753
30
0
41
1
10
95.693202647352
20
13.6958283344141
30
0
41
1
10
96.2955991296653
20
13.7204478335409
30
0
41
1
10
96.4964112663578
20
13.72808075451
30
0
41
1
10
96.8981402580582
20
13.7421808140609
30
0
41
1
10
97.0990507864444
20
13.748650326945
30
0
41
1
10
97.2999999999997
20
13.7545440161983
30
0
0
SPLINE
5
CC
100
AcDbEntity
8
1
62
256
6
ByLayer
370
18
48
1
60
0
100
AcDbSpline
70
4
71
3
72
80
73
76
40
0
40
0
40
0
40
0
40
0.0246050885539296
40
0.0246050885539296
40
0.0492101771078592
40
0.0492101771078592
40
0.0984203542157183
40
0.0984203542157183
40
0.123025442769649
40
0.123025442769649
40
0.147630531323579
40
0.147630531323579
40
0.172235619877509
40
0.172235619877509
40
0.196840708431439
40
0.196840708431439
40
0.246050885539299
40
0.246050885539299
40
0.270655974093229
40
0.270655974093229
40
0.295261062647159
40
0.295261062647159
40
0.319866151201089
40
0.319866151201089
40
0.34447123975502
40
0.34447123975502
40
0.36907632830895
40
0.36907632830895
40
0.39368141686288
40
0.39368141686288
40
0.442891593970741
40
0.442891593970741
40
0.492101771078601
40
0.492101771078601
40
0.504404315355565
40
0.504404315355565
40
0.516706859632529
40
0.516706859632529
40
0.541311948186458
40
0.541311948186458
40
0.590522125294314
40
0.590522125294314
40
0.615127213848242
40
0.615127213848242
40
0.627429758125206
40
0.627429758125206
40
0.63973230240217
40
0.63973230240217
40
0.664337390956096
40
0.664337390956096
40
0.688942479510023
40
0.688942479510023
40
0.71354756806395
40
0.71354756806395
40
0.738152656617877
40
0.738152656617877
40
0.762757745171804
40
0.762757745171804
40
0.787362833725731
40
0.787362833725731
40
0.811967922279658
40
0.811967922279658
40
0.836573010833584
40
0.836573010833584
40
0.861178099387511
40
0.861178099387511
40
0.885783187941438
40
0.885783187941438
40
0.934993365049292
40
0.934993365049292
40
0.95959845360322
40
0.95959845360322
40
0.984203542157147
40
0.984203542157147
40
1
40
1
40
1
40
1
41
1
10
97.3000000000001
20
2.546293997596
30
0
41
1
10
96.8662612934575
20
2.70054838514045
30
0
41
1
10
96.4327342924117
20
2.85458561585381
30
0
41
1
10
95.5657756522234
20
3.16132531431424
30
0
41
1
10
95.1322750480044
20
3.31384229844889
30
0
41
1
10
93.8317166527559
20
3.76887468626379
30
0
41
1
10
92.9646194940203
20
4.06892250418849
30
0
41
1
10
91.6640596284699
20
4.51450536801823
30
0
41
1
10
91.2305569377257
20
4.66229154014181
30
0
41
1
10
90.3636184458093
20
4.95645503665722
30
0
41
1
10
89.9302238334827
20
5.10293725004718
30
0
41
1
10
89.0631392208838
20
5.39354667396367
30
0
41
1
10
88.629360268899
20
5.53763326569219
30
0
41
1
10
87.7618586798102
20
5.82332606508362
30
0
41
1
10
87.3281494129905
20
5.96492524148485
30
0
41
1
10
86.0271825408992
20
6.38608809138069
30
0
41
1
10
85.1600861791537
20
6.66202629661609
30
0
41
1
10
83.8599793315902
20
7.06914091892614
30
0
41
1
10
83.4267255456053
20
7.20376860938828
30
0
41
1
10
82.5599445568281
20
7.46967296830277
30
0
41
1
10
82.1264382639465
20
7.60100307502955
30
0
41
1
10
81.2592329125015
20
7.86052623094417
30
0
41
1
10
80.825532383675
20
7.98871579003034
30
0
41
1
10
79.957960989781
20
8.24201194439712
30
0
41
1
10
79.5240653401885
20
8.3671253171897
30
0
41
1
10
78.6566535271637
20
8.61419809384572
30
0
41
1
10
78.2230768402671
20
8.7361782909492
30
0
41
1
10
77.3562102187153
20
8.97706316435591
30
0
41
1
10
76.9229087164794
20
9.09593784532751
30
0
41
1
10
75.622698957744
20
9.44640502494755
30
0
41
1
10
74.7556610748734
20
9.67223469095546
30
0
41
1
10
73.0213502060757
20
10.1088295817036
30
0
41
1
10
72.1540935604052
20
10.3196258632848
30
0
41
1
10
71.0700160120816
20
10.5738505411964
30
0
41
1
10
70.8532065882063
20
10.6242141782477
30
0
41
1
10
70.4196279836602
20
10.723830356832
30
0
41
1
10
70.2028381562286
20
10.7730753164173
30
0
41
1
10
69.5524621731269
20
10.9191206631544
30
0
41
1
10
69.1188758320659
20
11.0142433999116
30
0
41
1
10
67.8181559016535
20
11.2930088093339
30
0
41
1
10
66.9510495289677
20
11.4700424359831
30
0
41
1
10
65.6506582209523
20
11.7226688424354
30
0
41
1
10
65.2172552804824
20
11.8047428918076
30
0
41
1
10
64.56718378618
20
11.9245404315321
30
0
41
1
10
64.3504906887316
20
11.963908913665
30
0
41
1
10
63.9170229374823
20
12.0414132840978
30
0
41
1
10
63.7002508560422
20
12.0795532359375
30
0
41
1
10
63.0498277755297
20
12.1921533429723
30
0
41
1
10
62.6160185572268
20
12.2648049558096
30
0
41
1
10
61.748400583351
20
12.4052731247679
30
0
41
1
10
61.3146578439246
20
12.4730781157235
30
0
41
1
10
60.4473347471112
20
12.6038730655516
30
0
41
1
10
60.0137552739109
20
12.6668641710609
30
0
41
1
10
59.1467991065639
20
12.7880569247113
30
0
41
1
10
58.7134480562946
20
12.8462829822061
30
0
41
1
10
57.8468288043536
20
12.9577851700268
30
0
41
1
10
57.4134722263593
20
13.010975017383
30
0
41
1
10
56.5465387007727
20
13.1121492342445
30
0
41
1
10
56.1129870589265
20
13.160158494351
30
0
41
1
10
55.2457395926725
20
13.2510614600953
30
0
41
1
10
54.8120429215753
20
13.2939545876163
30
0
41
1
10
53.9445358896339
20
13.3746424422307
30
0
41
1
10
53.5106757620474
20
13.4124416739241
30
0
41
1
10
52.6433615273719
20
13.4828964486986
30
0
41
1
10
52.2098973177528
20
13.5155743783675
30
0
41
1
10
51.3430691127678
20
13.5756415834728
30
0
41
1
10
50.9096263987286
20
13.6029932583337
30
0
41
1
10
49.6091788414268
20
13.6770530596444
30
0
41
1
10
48.7420905763002
20
13.7157992845483
30
0
41
1
10
47.4414439174577
20
13.7580773720754
30
0
41
1
10
47.0078954859478
20
13.769527031349
30
0
41
1
10
46.1408326610267
20
13.7871118084628
30
0
41
1
10
45.7073595596388
20
13.7932464804187
30
0
41
1
10
44.9953609406975
20
13.7988990883432
30
0
41
1
10
44.7169246728133
20
13.8000008216796
30
0
41
1
10
44.4384906638001
20
13.8000000852232
30
0
0
SPLINE
5
CD
100
AcDbEntity
8
1
62
256
6
ByLayer
370
18
48
1
60
0
100
AcDbSpline
70
4
71
3
72
96
73
92
40
0
40
0
40
0
40
0
40
0.0624999999999994
40
0.0624999999999994
40
0.0937499999999983
40
0.0937499999999983
40
0.124999999999997
40
0.124999999999997
40
0.156249999999996
40
0.156249999999996
40
0.164062499999996
40
0.164062499999996
40
0.171874999999996
40
0.187499999999995
40
0.187499999999995
40
0.218749999999994
40
0.218749999999994
40
0.249999999999993
40
0.249999999999993
40
0.281249999999992
40
0.281249999999992
40
0.289062499999992
40
0.289062499999992
40
0.296874999999992
40
0.312499999999993
40
0.312499999999993
40
0.343749999999995
40
0.343749999999995
40
0.374999999999997
40
0.374999999999997
40
0.382812499999997
40
0.382812499999997
40
0.390624999999998
40
0.390624999999998
40
0.406249999999999
40
0.406249999999999
40
0.4375
40
0.4375
40
0.468750000000002
40
0.468750000000002
40
0.476562500000002
40
0.480468750000002
40
0.480468750000002
40
0.484375000000002
40
0.484375000000002
40
0.500000000000002
40
0.500000000000002
40
0.531250000000003
40
0.531250000000003
40
0.562500000000004
40
0.562500000000004
40
0.570312500000004
40
0.570312500000004
40
0.578125000000004
40
0.578125000000004
40
0.593750000000005
40
0.593750000000005
40
0.625000000000006
40
0.625000000000006
40
0.640625000000006
40
0.640625000000006
40
0.648437500000007
40
0.648437500000007
40
0.656250000000007
40
0.656250000000007
40
0.687500000000008
40
0.687500000000008
40
0.718750000000009
40
0.718750000000009
40
0.750000000000009
40
0.750000000000009
40
0.765625000000009
40
0.773437500000009
40
0.773437500000009
40
0.781250000000009
40
0.781250000000009
40
0.812500000000007
40
0.812500000000007
40
0.843750000000006
40
0.843750000000006
40
0.875000000000004
40
0.875000000000004
40
0.906250000000003
40
0.906250000000003
40
0.937500000000001
40
0.937500000000001
40
0.953125000000001
40
0.953125000000001
40
0.96875
40
0.96875
40
1
40
1
40
1
40
1
41
1
10
10
20
7.44983686775362
30
0
41
1
10
9.53408598679061
20
7.35360084269729
30
0
41
1
10
9.08173483986531
20
7.23234249974175
30
0
41
1
10
8.42323946441451
20
7.00969406462468
30
0
41
1
10
8.20708676749695
20
6.92866308679319
30
0
41
1
10
7.78152297747377
20
6.7521196226572
30
0
41
1
10
7.57211118828084
20
6.65660969081543
30
0
41
1
10
7.1601662741827
20
6.44997807888589
30
0
41
1
10
6.95763203109675
20
6.33886046604798
30
0
41
1
10
6.70892049617714
20
6.18926328153685
30
0
41
1
10
6.65936853796114
20
6.1587859600192
30
0
41
1
10
6.56108950732772
20
6.09696982402258
30
0
41
1
10
6.41478684913312
20
6.00288267366383
30
0
41
1
10
6.27182911700325
20
5.90466789741157
30
0
41
1
10
5.99038404698555
20
5.70260779701999
30
0
41
1
10
5.80870699453567
20
5.56040433934484
30
0
41
1
10
5.45748201449351
20
5.2600959221744
30
0
41
1
10
5.28793175973817
20
5.10199502512646
30
0
41
1
10
4.96144854439663
20
4.76860037285402
30
0
41
1
10
4.80451145259914
20
4.59331354063042
30
0
41
1
10
4.61675657951247
20
4.36231036006851
30
0
41
1
10
4.57964293525293
20
4.31552864808697
30
0
41
1
10
4.50664959242431
20
4.2212351812683
30
0
41
1
10
4.39886740662052
20
4.07852511298529
30
0
41
1
10
4.29621265018369
20
3.93197633159147
30
0
41
1
10
4.09779158122845
20
3.63365371148842
30
0
41
1
10
3.97467750109814
20
3.42781856007249
30
0
41
1
10
3.74745298035543
20
3.00138581238974
30
0
41
1
10
3.64333581010445
20
2.78079392655531
30
0
41
1
10
3.52588819368739
20
2.49498931579373
30
0
41
1
10
3.50303553248494
20
2.43732367824526
30
0
41
1
10
3.45863301914721
20
2.32095538535984
30
0
41
1
10
3.43718872407021
20
2.26252807620804
30
0
41
1
10
3.37516294895596
20
2.0866492029046
30
0
41
1
10
3.33686512572848
20
1.96854361590516
30
0
41
1
10
3.23107430531118
20
1.61166763189922
30
0
41
1
10
3.17265882229907
20
1.3703443377884
30
0
41
1
10
3.08034540823203
20
0.880738213601205
30
0
41
1
10
3.04644289771377
20
0.632456721056343
30
0
41
1
10
3.0201056659225
20
0.317527473023802
30
0
41
1
10
3.01341106211089
20
0.222704495064733
30
0
41
1
10
3.0085577458776
20
0.127355895154068
30
0
41
1
10
3.00573538475453
20
0.0636721880646007
30
0
41
1
10
3.00452993257431
20
0.0317421433201162
30
0
41
1
10
2.99955688581679
20
-0.12783442269054
30
0
41
1
10
2.9989529646553
20
-0.254913366431396
30
0
41
1
10
3.0070053549602
20
-0.63444799605864
30
0
41
1
10
3.02549912591942
20
-0.885205459736966
30
0
41
1
10
3.08806092935686
20
-1.38232188536193
30
0
41
1
10
3.13213203822892
20
-1.62868033527155
30
0
41
1
10
3.2033009413791
20
-1.93388526050387
30
0
41
1
10
3.21834063437035
20
-1.9947888076469
30
0
41
1
10
3.25004175512262
20
-2.11632007627981
30
0
41
1
10
3.2666313846795
20
-2.1766714025413
30
0
41
1
10
3.31854125192473
20
-2.35640008645149
30
0
41
1
10
3.35601393360343
20
-2.47450320463142
30
0
41
1
10
3.47672162076125
20
-2.82388151787114
30
0
41
1
10
3.56822758552895
20
-3.05023631023769
30
0
41
1
10
3.72120870094608
20
-3.38055793250766
30
0
41
1
10
3.77482781859874
20
-3.48912716204106
30
0
41
1
10
3.85913018004436
20
-3.64973121661194
30
0
41
1
10
3.88787682066993
20
-3.70289080126153
30
0
41
1
10
3.94665373777934
20
-3.80846779580529
30
0
41
1
10
3.97671745802791
20
-3.86094155365632
30
0
41
1
10
4.12983092857172
20
-4.12080118607025
30
0
41
1
10
4.26049640881232
20
-4.31947686179447
30
0
41
1
10
4.53664104097717
20
-4.70050320665828
30
0
41
1
10
4.68212724841067
20
-4.88284568125678
30
0
41
1
10
4.98680357170184
20
-5.23276890506725
30
0
41
1
10
5.14599826355777
20
-5.40034453109183
30
0
41
1
10
5.39441262635944
20
-5.6415711830378
30
0
41
1
10
5.52102755502261
20
-5.7596472556238
30
0
41
1
10
5.65114457415228
20
-5.87407170968757
30
0
41
1
10
5.73865597076997
20
-5.94955918992753
30
0
41
1
10
5.78269825200994
20
-5.98682140967011
30
0
41
1
10
6.00409357442157
20
-6.17063401901822
30
0
41
1
10
6.18521066357499
20
-6.30989372362376
30
0
41
1
10
6.55456814216419
20
-6.57487336932863
30
0
41
1
10
6.74281042158054
20
-6.70058883045925
30
0
41
1
10
7.12564735477352
20
-6.94016887896802
30
0
41
1
10
7.32024284110378
20
-7.05403109188697
30
0
41
1
10
7.71507642401389
20
-7.27135586758345
30
0
41
1
10
7.91531443630592
20
-7.37481758539752
30
0
41
1
10
8.32077365845271
20
-7.57260129052321
30
0
41
1
10
8.5259939304064
20
-7.66692361559018
30
0
41
1
10
8.83711664901892
20
-7.80235848627191
30
0
41
1
10
8.94137355161342
20
-7.84649384952965
30
0
41
1
10
9.15092136456576
20
-7.93286044388671
30
0
41
1
10
9.25624741194503
20
-7.9751048577443
30
0
41
1
10
9.57321399388024
20
-8.09895012228299
30
0
41
1
10
9.78595813144858
20
-8.17772569377442
30
0
41
1
10
10
20
-8.25308304252286
30
0
0
SPLINE
5
CE
100
AcDbEntity
8
1
62
256
6
ByLayer
370
18
48
1
60
0
100
AcDbSpline
70
4
71
3
72
14
73
10
40
0
40
0
40
0
40
0
40
0.25
40
0.25
40
0.5
40
0.5
40
0.75
40
0.75
40
1
40
1
40
1
40
1
41
1
10
14.0668565695938
20
-9.65630195831815
30
0
41
1
10
13.7172923386021
20
-9.56288578877783
30
0
41
1
10
13.3707965128771
20
-9.46341687498733
30
0
41
1
10
12.6829206144776
20
-9.2532953687367
30
0
41
1
10
12.3415349621522
20
-9.14265669048842
30
0
41
1
10
11.663582187959
20
-8.9100116757142
30
0
41
1
10
11.3270170173342
20
-8.788008795802
30
0
41
1
10
10.6592143803941
20
-8.53102860055029
30
0
41
1
10
10.3279839832253
20
-8.39604620806202
30
0
41
1
10
10
20
-8.25308304252283
30
0
0
SPLINE
5
CF
100
AcDbEntity
8
1
62
256
6
ByLayer
370
18
48
1
60
0
100
AcDbSpline
70
4
71
4
72
16
73
11
40
0
40
0
40
0
40
0
40
0
40
0.298068625470015
40
0.298068625470015
40
0.298068625470015
40
0.701931374529982
40
0.701931374529982
40
0.701931374529982
40
1
40
1
40
1
40
1
40
1
41
0.997316353327004
10
20.1720865363972
20
6.99342166106246
30
0
41
0.994877669543053
10
20.0073917480755
20
6.75580308344475
30
0
41
0.993481936457535
10
19.6831358981103
20
6.07406525037772
30
0
41
1
10
19.2091760808705
20
4.93807840754568
30
0
41
1
10
18.0173584595121
20
1.93227087381419
30
0
41
0.988033871712585
10
17.1194715529955
20
-0.441803758036467
30
0
41
1
10
16.221584646479
20
-2.96502829959908
30
0
41
1
10
15.0297670251206
20
-6.45969138146154
30
0
41
0.993481936457534
10
14.5558072078808
20
-7.90879961502886
30
0
41
0.994877669543053
10
14.2315513579156
20
-8.99563407596013
30
0
41
0.997316353327004
10
14.0668565695939
20
-9.65630195831821
30
0
0
SPLINE
5
D0
100
AcDbEntity
8
1
62
256
6
ByLayer
370
18
48
1
60
0
100
AcDbSpline
70
4
71
3
72
28
73
24
40
0
40
0
40
0
40
0
40
0.124999999999993
40
0.124999999999993
40
0.249999999999986
40
0.249999999999986
40
0.374999999999979
40
0.374999999999979
40
0.437499999999976
40
0.437499999999976
40
0.453124999999976
40
0.453124999999976
40
0.468749999999976
40
0.468749999999976
40
0.499999999999981
40
0.499999999999981
40
0.624999999999985
40
0.624999999999985
40
0.74999999999999
40
0.74999999999999
40
0.874999999999995
40
0.874999999999995
40
1
40
1
40
1
40
1
41
1
10
10
20
7.44983686775362
30
0
41
1
10
10.4142332711541
20
7.57327269892366
30
0
41
1
10
10.8320827659735
20
7.67466687773236
30
0
41
1
10
11.6745178134806
20
7.83833450031881
30
0
41
1
10
12.0991071916682
20
7.90057812412184
30
0
41
1
10
12.9547596837857
20
7.98865660849432
30
0
41
1
10
13.3858258258588
20
8.0144711644399
30
0
41
1
10
14.037177357822
20
8.02683725092754
30
0
41
1
10
14.2550873066401
20
8.02655705358845
30
0
41
1
10
14.5284572547747
20
8.02075015176956
30
0
41
1
10
14.5831803702777
20
8.01931583371649
30
0
41
1
10
14.6927246353957
20
8.01590209938055
30
0
41
1
10
14.7475038869075
20
8.01392362095143
30
0
41
1
10
14.911525341138
20
8.0071952171788
30
0
41
1
10
15.0205848238291
20
8.00164845998307
30
0
41
1
10
15.5644856637413
20
7.96875599747003
30
0
41
1
10
15.9951384221859
20
7.92595412077347
30
0
41
1
10
16.84859837599
20
7.81070776332021
30
0
41
1
10
17.271401930903
20
7.7382425232837
30
0
41
1
10
18.1102904459979
20
7.56684548094441
30
0
41
1
10
18.5263767015822
20
7.46791158576815
30
0
41
1
10
19.3530521652852
20
7.24704110931259
30
0
41
1
10
19.7636499629419
20
7.12513303321268
30
0
41
1
10
20.1720865363971
20
6.99342166106254
30
0
0
SPLINE
5
D1
100
AcDbEntity
8
1
62
256
6
ByLayer
370
13
48
1
60
0
100
AcDbSpline
70
4
71
3
72
22
73
18
40
0
40
0
40
0
40
0
40
0.125
40
0.125
40
0.25
40
0.25
40
0.375
40
0.375
40
0.5
40
0.5
40
0.625
40
0.625
40
0.75
40
0.75
40
0.875
40
0.875
40
1
40
1
40
1
40
1
41
1
10
107.500324255913
20
13.8905
30
0
41
1
10
107.602155389455
20
13.8905
30
0
41
1
10
107.703986522997
20
13.847118157663
30
0
41
1
10
107.907648790081
20
13.6604292155016
30
0
41
1
10
108.009479923624
20
13.5170421694932
30
0
41
1
10
108.213142190708
20
13.1217579045674
30
0
41
1
10
108.31497332425
20
12.8697961684433
30
0
41
1
10
108.518635591335
20
12.2557560970967
30
0
41
1
10
108.620466724877
20
11.8936511328538
30
0
41
1
10
108.824128991961
20
11.066148719139
30
0
41
1
10
108.925960125503
20
10.6007774857714
30
0
41
1
10
109.129622392588
20
9.58204865537846
30
0
41
1
10
109.23145352613
20
9.0287687228446
30
0
41
1
10
109.435115793214
20
7.85642840830718
30
0
41
1
10
109.536946926756
20
7.2374778258899
30
0
41
1
10
109.740609193841
20
5.96000014763939
30
0
41
1
10
109.842440327383
20
5.30158565795608
30
0
41
1
10
109.944271460925
20
4.63675723679177
30
0
0
SPLINE
5
D2
100
AcDbEntity
8
1
62
256
6
ByLayer
370
13
48
1
60
0
100
AcDbSpline
70
4
71
3
72
22
73
18
40
0
40
0
40
0
40
0
40
0.125
40
0.125
40
0.25
40
0.25
40
0.375
40
0.375
40
0.5
40
0.5
40
0.625
40
0.625
40
0.75
40
0.75
40
0.875
40
0.875
40
1
40
1
40
1
40
1
41
1
10
97.3
20
7.70595401658363
30
0
41
1
10
97.3815924488781
20
8.19540752545771
30
0
41
1
10
97.4631848977562
20
8.66714334009615
30
0
41
1
10
97.6263697955123
20
9.56257851000279
30
0
41
1
10
97.7079622443903
20
9.98624453870869
30
0
41
1
10
97.8711471421465
20
10.7750101539023
30
0
41
1
10
97.9527395910245
20
11.1400869351378
30
0
41
1
10
98.1159244887807
20
11.8041543266961
30
0
41
1
10
98.1975169376586
20
12.103136157142
30
0
41
1
10
98.3607018354147
20
12.630988751162
30
0
41
1
10
98.4422942842928
20
12.859865063241
30
0
41
1
10
98.605479182049
20
13.2470230734947
30
0
41
1
10
98.6870716309271
20
13.4053219822224
30
0
41
1
10
98.8502565286832
20
13.6540288429253
30
0
41
1
10
98.9318489775612
20
13.7444611680726
30
0
41
1
10
99.0950338753173
20
13.8626834157138
30
0
41
1
10
99.1766263241955
20
13.8905
30
0
41
1
10
99.2582187730735
20
13.8905
30
0
0
SPLINE
5
D3
100
AcDbEntity
8
1
62
256
6
ByLayer
370
13
48
1
60
0
100
AcDbSpline
70
4
71
3
72
145
73
141
40
0
40
0
40
0
40
0
40
0.0156249999999998
40
0.0156249999999998
40
0.0312499999999996
40
0.0312499999999996
40
0.0468749999999994
40
0.0468749999999994
40
0.0624999999999992
40
0.0624999999999992
40
0.078124999999999
40
0.078124999999999
40
0.0937499999999988
40
0.0937499999999988
40
0.109374999999999
40
0.109374999999999
40
0.124999999999998
40
0.124999999999998
40
0.140624999999998
40
0.140624999999998
40
0.156249999999998
40
0.156249999999998
40
0.171874999999998
40
0.171874999999998
40
0.187499999999998
40
0.187499999999998
40
0.203124999999997
40
0.203124999999997
40
0.218749999999997
40
0.218749999999997
40
0.222656249999997
40
0.222656249999997
40
0.226562499999997
40
0.234374999999997
40
0.234374999999997
40
0.249999999999997
40
0.249999999999997
40
0.265624999999997
40
0.265624999999997
40
0.281249999999996
40
0.281249999999996
40
0.296874999999996
40
0.296874999999996
40
0.312499999999996
40
0.312499999999996
40
0.328124999999996
40
0.328124999999996
40
0.343749999999996
40
0.343749999999996
40
0.359374999999996
40
0.359374999999996
40
0.374999999999995
40
0.374999999999995
40
0.390624999999995
40
0.390624999999995
40
0.406249999999995
40
0.406249999999995
40
0.421874999999995
40
0.421874999999995
40
0.437499999999995
40
0.437499999999995
40
0.453124999999994
40
0.453124999999994
40
0.468749999999994
40
0.468749999999994
40
0.476562499999994
40
0.476562499999994
40
0.480468749999994
40
0.480468749999994
40
0.484374999999994
40
0.484374999999994
40
0.499999999999995
40
0.499999999999995
40
0.515624999999995
40
0.515624999999995
40
0.531249999999996
40
0.531249999999996
40
0.546874999999996
40
0.546874999999996
40
0.562499999999997
40
0.562499999999997
40
0.578124999999997
40
0.578124999999997
40
0.593749999999998
40
0.593749999999998
40
0.609374999999998
40
0.609374999999998
40
0.624999999999999
40
0.624999999999999
40
0.640624999999999
40
0.640624999999999
40
0.65625
40
0.65625
40
0.671875000000001
40
0.671875000000001
40
0.687500000000001
40
0.687500000000001
40
0.703125000000002
40
0.703125000000002
40
0.718750000000002
40
0.718750000000002
40
0.734375000000003
40
0.734375000000003
40
0.738281250000003
40
0.738281250000003
40
0.742187500000003
40
0.742187500000003
40
0.750000000000003
40
0.750000000000003
40
0.765625000000003
40
0.765625000000003
40
0.781250000000003
40
0.781250000000003
40
0.796875000000002
40
0.796875000000002
40
0.812500000000002
40
0.812500000000002
40
0.828125000000002
40
0.828125000000002
40
0.843750000000002
40
0.843750000000002
40
0.859375000000002
40
0.859375000000002
40
0.875000000000001
40
0.875000000000001
40
0.890625000000001
40
0.890625000000001
40
0.906250000000001
40
0.906250000000001
40
0.921875000000001
40
0.921875000000001
40
0.937500000000001
40
0.937500000000001
40
0.953125
40
0.953125
40
0.96875
40
0.96875
40
0.984375
40
0.984375
40
1
40
1
40
1
40
1
41
1
10
97.3
20
13.5354811965051
30
0
41
1
10
97.3633257416499
20
13.4397879776954
30
0
41
1
10
97.4266514832997
20
13.3236954615808
30
0
41
1
10
97.5533029665994
20
13.0492913563325
30
0
41
1
10
97.6166287082493
20
12.890974285331
30
0
41
1
10
97.743280191549
20
12.5317925557977
30
0
41
1
10
97.8066059331989
20
12.3309246583886
30
0
41
1
10
97.9332574164986
20
11.8875524442049
30
0
41
1
10
97.9965831581484
20
11.6450477706233
30
0
41
1
10
98.1232346414482
20
11.1206090385174
30
0
41
1
10
98.186560383098
20
10.8386778237527
30
0
41
1
10
98.3132118663978
20
10.2388524760487
30
0
41
1
10
98.3765376080476
20
9.92096428796194
30
0
41
1
10
98.5031890913473
20
9.25381824338101
30
0
41
1
10
98.5665148329972
20
8.90456890006558
30
0
41
1
10
98.6931663162968
20
8.18020122785222
30
0
41
1
10
98.7564920579467
20
7.805093093083
30
0
41
1
10
98.8831435412465
20
7.03513160014973
30
0
41
1
10
98.9464692828963
20
6.64028903089351
30
0
41
1
10
99.073120766196
20
5.83728642109708
30
0
41
1
10
99.1364465078459
20
5.42913667133371
30
0
41
1
10
99.2630979911456
20
4.60593106246407
30
0
41
1
10
99.3264237327954
20
4.19088407456982
30
0
41
1
10
99.4530752160951
20
3.3599881641347
30
0
41
1
10
99.516400957745
20
2.94414606621371
30
0
41
1
10
99.6430524410448
20
2.11721934895809
30
0
41
1
10
99.7063781826946
20
1.70613922249424
30
0
41
1
10
99.8330296659943
20
0.893580543418352
30
0
41
1
10
99.8963554076441
20
0.492104184452586
30
0
41
1
10
99.9755125847065
20
-0.0012222338803554
30
0
41
1
10
99.991344020119
20
-0.0994701563052161
30
0
41
1
10
100.023006890944
20
-0.297371565808334
30
0
41
1
10
100.070501197181
20
-0.595465506832312
30
0
41
1
10
100.117995503419
20
-0.897024802917372
30
0
41
1
10
100.212984115893
20
-1.5039963251661
30
0
41
1
10
100.276309857543
20
-1.91380574141993
30
0
41
1
10
100.402961340843
20
-2.73904151383593
30
0
41
1
10
100.466287082493
20
-3.15446376596643
30
0
41
1
10
100.592938565793
20
-3.98547855643099
30
0
41
1
10
100.656264307442
20
-4.40106464399736
30
0
41
1
10
100.782915790742
20
-5.22638228682882
30
0
41
1
10
100.846241532392
20
-5.63610527404637
30
0
41
1
10
100.972893015692
20
-6.44332024549308
30
0
41
1
10
101.036218757342
20
-6.84080211625695
30
0
41
1
10
101.162870240641
20
-7.61708952435942
30
0
41
1
10
101.226195982291
20
-7.99588428227915
30
0
41
1
10
101.352847465591
20
-8.72860036517551
30
0
41
1
10
101.416173207241
20
-9.0825113206306
30
0
41
1
10
101.54282469054
20
-9.75983248381948
30
0
41
1
10
101.60615043219
20
-10.0832338326718
30
0
41
1
10
101.73280191549
20
-10.6947709089445
30
0
41
1
10
101.79612765714
20
-10.9829002205578
30
0
41
1
10
101.92277914044
20
-11.520223300814
30
0
41
1
10
101.986104882089
20
-11.7694136957817
30
0
41
1
10
102.112756365389
20
-12.2264327749315
30
0
41
1
10
102.176082107039
20
-12.434261299926
30
0
41
1
10
102.302733590339
20
-12.8074274665179
30
0
41
1
10
102.366059331989
20
-12.9727679089756
30
0
41
1
10
102.492710815288
20
-13.2610847358966
30
0
41
1
10
102.556036556938
20
-13.384066285791
30
0
41
1
10
102.682688040238
20
-13.5889260677913
30
0
41
1
10
102.746013781888
20
-13.6708110338726
30
0
41
1
10
102.872665265187
20
-13.7956905864486
30
0
41
1
10
102.935991006837
20
-13.8386926327815
30
0
41
1
10
103.030979619312
20
-13.8762396373021
30
0
41
1
10
103.062642490137
20
-13.88426766164
30
0
41
1
10
103.110136796374
20
-13.8898914910024
30
0
41
1
10
103.125968231787
20
-13.8906972572691
30
0
41
1
10
103.157631102612
20
-13.890221800583
30
0
41
1
10
103.173462538024
20
-13.8889356506892
30
0
41
1
10
103.252619715086
20
-13.8771270209685
30
0
41
1
10
103.315945456736
20
-13.8504510910297
30
0
41
1
10
103.442596940036
20
-13.7594535974809
30
0
41
1
10
103.505922681686
20
-13.6951245036295
30
0
41
1
10
103.632574164986
20
-13.5262529766216
30
0
41
1
10
103.695899906635
20
-13.4217033862067
30
0
41
1
10
103.822551389935
20
-13.1706806433451
30
0
41
1
10
103.885877131585
20
-13.0242015258186
30
0
41
1
10
104.012528614885
20
-12.6886671059602
30
0
41
1
10
104.075854356535
20
-12.4996078657536
30
0
41
1
10
104.202505839834
20
-12.0794699322578
30
0
41
1
10
104.265831581484
20
-11.8483900317616
30
0
41
1
10
104.392483064784
20
-11.3460565818212
30
0
41
1
10
104.455808806434
20
-11.0748049761744
30
0
41
1
10
104.582460289733
20
-10.4952532414969
30
0
41
1
10
104.645786031383
20
-10.1869582296526
30
0
41
1
10
104.772437514683
20
-9.5376178781749
30
0
41
1
10
104.835763256333
20
-9.19658041302878
30
0
41
1
10
104.962414739632
20
-8.48702950303618
30
0
41
1
10
105.025740481282
20
-8.11852588837664
30
0
41
1
10
105.152391964582
20
-7.36002415982705
30
0
41
1
10
105.215717706232
20
-6.97003678233989
30
0
41
1
10
105.342369189532
20
-6.17494338932067
30
0
41
1
10
105.405694931182
20
-5.76984790598107
30
0
41
1
10
105.532346414481
20
-4.95098521137334
30
0
41
1
10
105.595672156131
20
-4.53722734362265
30
0
41
1
10
105.722323639431
20
-3.70725605491083
30
0
41
1
10
105.785649381081
20
-3.29105007168795
30
0
41
1
10
105.91230086438
20
-2.46191376905279
30
0
41
1
10
105.97562660603
20
-2.04898860091782
30
0
41
1
10
106.10227808933
20
-1.2314701900892
30
0
41
1
10
106.16560383098
20
-0.826879762128868
30
0
41
1
10
106.244761008042
20
-0.329012872752401
30
0
41
1
10
106.260592443455
20
-0.229831024902097
30
0
41
1
10
106.29225531428
20
-0.032308712328188
30
0
41
1
10
106.308086749692
20
0.0658729240121545
30
0
41
1
10
106.355581055929
20
0.362441818812272
30
0
41
1
10
106.387243926754
20
0.561825920251948
30
0
41
1
10
106.482232539229
20
1.16426853994088
30
0
41
1
10
106.545558280879
20
1.57164260616091
30
0
41
1
10
106.672209764179
20
2.39339795068787
30
0
41
1
10
106.735535505829
20
2.80777577575498
30
0
41
1
10
106.862186989128
20
3.63828415058433
30
0
41
1
10
106.925512730778
20
4.0544088941449
30
0
41
1
10
107.052164214078
20
4.88252727732299
30
0
41
1
10
107.115489955728
20
5.29451289553685
30
0
41
1
10
107.242141439028
20
6.1080481322517
30
0
41
1
10
107.305467180677
20
6.50958799091799
30
0
41
1
10
107.432118663977
20
7.29577466922666
30
0
41
1
10
107.495444405627
20
7.68041079242073
30
0
41
1
10
107.622095888926
20
8.42649108363401
30
0
41
1
10
107.685421630576
20
8.78792465496389
30
0
41
1
10
107.812073113876
20
9.48178265820803
30
0
41
1
10
107.875398855526
20
9.81419770636631
30
0
41
1
10
108.002050338826
20
10.4449872501383
30
0
41
1
10
108.065376080476
20
10.7433545729292
30
0
41
1
10
108.192027563775
20
11.3020550668072
30
0
41
1
10
108.255353305425
20
11.5623839809432
30
0
41
1
10
108.382004788725
20
12.0422257201919
30
0
41
1
10
108.445330530375
20
12.2617374994768
30
0
41
1
10
108.571982013674
20
12.6584549666534
30
0
41
1
10
108.635307755324
20
12.8356626788606
30
0
41
1
10
108.761959238624
20
13.1475583170243
30
0
41
1
10
108.825284980274
20
13.2822508243981
30
0
41
1
10
108.951936463574
20
13.5100772757015
30
0
41
1
10
109.015262205223
20
13.6032176023056
30
0
41
1
10
109.141913688523
20
13.7499082608698
30
0
41
1
10
109.205239430173
20
13.8034659323986
30
0
41
1
10
109.331890913473
20
13.8737580501371
30
0
41
1
10
109.395216655122
20
13.8905
30
0
41
1
10
109.458542396772
20
13.8905
30
0
0
SPLINE
5
D4
100
AcDbEntity
8
1
62
256
6
ByLayer
370
13
48
1
60
0
100
AcDbSpline
70
4
71
3
72
38
73
34
40
0
40
0
40
0
40
0
40
0.0625
40
0.0625
40
0.125
40
0.125
40
0.1875
40
0.1875
40
0.25
40
0.25
40
0.3125
40
0.3125
40
0.375
40
0.375
40
0.4375
40
0.4375
40
0.5
40
0.5
40
0.5625
40
0.5625
40
0.625
40
0.625
40
0.6875
40
0.6875
40
0.75
40
0.75
40
0.8125
40
0.8125
40
0.875
40
0.875
40
0.9375
40
0.9375
40
1
40
1
40
1
40
1
41
1
10
107.014594559546
20
13.8905
30
0
41
1
10
107.075629494991
20
13.8905
30
0
41
1
10
107.136664430437
20
13.8749487397212
30
0
41
1
10
107.258734301327
20
13.8097594852823
30
0
41
1
10
107.319769236773
20
13.7601152541864
30
0
41
1
10
107.441839107664
20
13.6242301449212
30
0
41
1
10
107.502874043109
20
13.5379831289815
30
0
41
1
10
107.624943914
20
13.3270562071921
30
0
41
1
10
107.685978849445
20
13.20237086969
30
0
41
1
10
107.808048720336
20
12.9135807342267
30
0
41
1
10
107.869083655781
20
12.7494718646117
30
0
41
1
10
107.991153526672
20
12.381842874846
30
0
41
1
10
108.052188462118
20
12.1783206455048
30
0
41
1
10
108.174258333008
20
11.7329628891752
30
0
41
1
10
108.235293268454
20
11.4911276552141
30
0
41
1
10
108.357363139345
20
10.9713603336867
30
0
41
1
10
108.41839807479
20
10.6934311196617
30
0
41
1
10
108.540467945681
20
10.1047636777398
30
0
41
1
10
108.601502881126
20
9.79403076210818
30
0
41
1
10
108.723572752017
20
9.14399148859962
30
0
41
1
10
108.784607687463
20
8.8046924215285
30
0
41
1
10
108.906677558353
20
8.10251301709405
30
0
41
1
10
108.967712493799
20
7.73964123703524
30
0
41
1
10
109.08978236469
20
6.99582448146589
30
0
41
1
10
109.150817300135
20
6.61488848301346
30
0
41
1
10
109.272887171026
20
5.84070088024146
30
0
41
1
10
109.333922106471
20
5.44745783023635
30
0
41
1
10
109.455991977362
20
4.65439703468482
30
0
41
1
10
109.517026912807
20
4.25458670959111
30
0
41
1
10
109.639096783698
20
3.45387336868384
30
0
41
1
10
109.700131719144
20
3.05297614772277
30
0
41
1
10
109.822201590035
20
2.25511219575154
30
0
41
1
10
109.88323652548
20
1.85814939716113
30
0
41
1
10
109.944271460925
20
1.46536072445059
30
0
0
SPLINE
5
D5
100
AcDbEntity
8
1
62
256
6
ByLayer
370
13
48
1
60
0
100
AcDbSpline
70
4
71
3
72
22
73
18
40
0
40
0
40
0
40
0
40
0.125
40
0.125
40
0.25
40
0.25
40
0.375
40
0.375
40
0.5
40
0.5
40
0.625
40
0.625
40
0.75
40
0.75
40
0.875
40
0.875
40
1
40
1
40
1
40
1
41
1
10
97.3
20
10.3621176045092
30
0
41
1
10
97.3613537115295
20
10.6593597550909
30
0
41
1
10
97.4227074230589
20
10.9401055364779
30
0
41
1
10
97.5454148461178
20
11.4652302496344
30
0
41
1
10
97.6067685576473
20
11.7096061359607
30
0
41
1
10
97.7294759807062
20
12.1596962197116
30
0
41
1
10
97.7908296922357
20
12.3654100344485
30
0
41
1
10
97.9135371152946
20
12.7370232200923
30
0
41
1
10
97.974890826824
20
12.9029246959992
30
0
41
1
10
98.0975982498829
20
13.1948757145572
30
0
41
1
10
98.1589519614123
20
13.3209293998544
30
0
41
1
10
98.2816593844713
20
13.5341669227175
30
0
41
1
10
98.3430130960007
20
13.6213563182392
30
0
41
1
10
98.4657205190597
20
13.7587188730689
30
0
41
1
10
98.5270742305891
20
13.8088983276057
30
0
41
1
10
98.649781653648
20
13.874785689987
30
0
41
1
10
98.7111353651774
20
13.8905
30
0
41
1
10
98.7724890767068
20
13.8905
30
0
0
SPLINE
5
D6
100
AcDbEntity
8
1
62
256
6
ByLayer
370
13
48
1
60
0
100
AcDbSpline
70
4
71
3
72
142
73
138
40
0
40
0
40
0
40
0
40
0.015625
40
0.015625
40
0.0312499999999999
40
0.0312499999999999
40
0.0468749999999999
40
0.0468749999999999
40
0.0624999999999999
40
0.0624999999999999
40
0.0781249999999998
40
0.0781249999999998
40
0.0937499999999998
40
0.0937499999999998
40
0.109375
40
0.109375
40
0.125
40
0.125
40
0.140625
40
0.140625
40
0.15625
40
0.15625
40
0.171875
40
0.171875
40
0.1875
40
0.1875
40
0.203125
40
0.203125
40
0.21875
40
0.21875
40
0.234375
40
0.234375
40
0.25
40
0.25
40
0.265624999999999
40
0.265624999999999
40
0.281249999999999
40
0.281249999999999
40
0.296874999999999
40
0.296874999999999
40
0.312499999999999
40
0.312499999999999
40
0.328124999999999
40
0.328124999999999
40
0.343749999999999
40
0.343749999999999
40
0.359374999999999
40
0.359374999999999
40
0.374999999999999
40
0.374999999999999
40
0.390624999999999
40
0.390624999999999
40
0.406249999999999
40
0.406249999999999
40
0.421874999999999
40
0.421874999999999
40
0.437499999999999
40
0.437499999999999
40
0.453124999999999
40
0.453124999999999
40
0.457031249999999
40
0.457031249999999
40
0.460937499999999
40
0.460937499999999
40
0.468749999999999
40
0.468749999999999
40
0.484374999999999
40
0.484374999999999
40
0.499999999999999
40
0.499999999999999
40
0.515624999999999
40
0.515624999999999
40
0.531249999999999
40
0.531249999999999
40
0.546874999999999
40
0.546874999999999
40
0.562499999999999
40
0.562499999999999
40
0.578124999999999
40
0.578124999999999
40
0.593749999999999
40
0.593749999999999
40
0.609374999999999
40
0.609374999999999
40
0.624999999999999
40
0.624999999999999
40
0.640624999999999
40
0.640624999999999
40
0.656249999999999
40
0.656249999999999
40
0.671874999999999
40
0.671874999999999
40
0.687499999999998
40
0.687499999999998
40
0.703124999999998
40
0.703124999999998
40
0.718749999999998
40
0.718749999999998
40
0.726562499999998
40
0.726562499999998
40
0.730468749999998
40
0.730468749999998
40
0.734374999999998
40
0.734374999999998
40
0.749999999999999
40
0.749999999999999
40
0.765624999999999
40
0.765624999999999
40
0.781249999999999
40
0.781249999999999
40
0.796874999999999
40
0.796874999999999
40
0.812499999999999
40
0.812499999999999
40
0.828124999999999
40
0.828124999999999
40
0.843749999999999
40
0.843749999999999
40
0.859374999999999
40
0.859374999999999
40
0.874999999999999
40
0.874999999999999
40
0.890624999999999
40
0.890624999999999
40
0.906249999999999
40
0.906249999999999
40
0.921874999999999
40
0.921874999999999
40
0.937499999999999
40
0.937499999999999
40
0.953125
40
0.953125
40
0.96875
40
0.96875
40
0.984375
40
0.984375
40
1
40
1
40
1
40
1
41
1
10
97.3
20
12.3917075236544
30
0
41
1
10
97.3607958994813
20
12.1966783118306
30
0
41
1
10
97.4215917989626
20
11.9822041643261
30
0
41
1
10
97.5431835979251
20
11.5157897375028
30
0
41
1
10
97.6039794974064
20
11.2638505038387
30
0
41
1
10
97.725571296369
20
10.7250220501721
30
0
41
1
10
97.7863671958503
20
10.4381363890033
30
0
41
1
10
97.9079589948129
20
9.83295735893378
30
0
41
1
10
97.9687548942942
20
9.51466982877295
30
0
41
1
10
98.0903466932567
20
8.85111328813801
30
0
41
1
10
98.151142592738
20
8.5058518672011
30
0
41
1
10
98.2727343917006
20
7.79345397256384
30
0
41
1
10
98.3335302911818
20
7.42632609505517
30
0
41
1
10
98.4551220901444
20
6.67573606774115
30
0
41
1
10
98.5159179896257
20
6.29228268412251
30
0
41
1
10
98.6375097885882
20
5.51475304871343
30
0
41
1
10
98.6983056880694
20
5.12068493808522
30
0
41
1
10
98.8198974870319
20
4.32755125863619
30
0
41
1
10
98.8806933865134
20
3.92849256685969
30
0
41
1
10
99.0022851854759
20
3.13068955988416
30
0
41
1
10
99.0630810849572
20
2.73195044594709
30
0
41
1
10
99.1846728839197
20
1.9396023029615
30
0
41
1
10
99.245468783401
20
1.5459966353514
30
0
41
1
10
99.3670605823636
20
0.768106112176042
30
0
41
1
10
99.4278564818449
20
0.38382283645825
30
0
41
1
10
99.5494482808073
20
-0.371930863232592
30
0
41
1
10
99.6102441802886
20
-0.755963665471143
30
0
41
1
10
99.7318359792512
20
-1.53365937415066
30
0
41
1
10
99.7926318787325
20
-1.92718780640448
30
0
41
1
10
99.9142236776951
20
-2.71942882544616
30
0
41
1
10
99.9750195771763
20
-3.11813807013581
30
0
41
1
10
100.096611376139
20
-3.91593467175289
30
0
41
1
10
100.15740727562
20
-4.31501684629308
30
0
41
1
10
100.278999074583
20
-5.10825517676525
30
0
41
1
10
100.339794974064
20
-5.50240447153021
30
0
41
1
10
100.461386773027
20
-6.28015634760896
30
0
41
1
10
100.522182672508
20
-6.6637507980584
30
0
41
1
10
100.64377447147
20
-7.4146824503627
30
0
41
1
10
100.704570370952
20
-7.78201088864668
30
0
41
1
10
100.826162169914
20
-8.49486624595966
30
0
41
1
10
100.886958069396
20
-8.84038456262871
30
0
41
1
10
101.008549868358
20
-9.5045053666949
30
0
41
1
10
101.069345767839
20
-9.8231002498533
30
0
41
1
10
101.190937566802
20
-10.4289361852016
30
0
41
1
10
101.251733466283
20
-10.7161713770722
30
0
41
1
10
101.373325265246
20
-11.2557309671715
30
0
41
1
10
101.434121164727
20
-11.5080517808793
30
0
41
1
10
101.55571296369
20
-11.9752501876431
30
0
41
1
10
101.616508863171
20
-12.1901267085725
30
0
41
1
10
101.738100662133
20
-12.5809991083989
30
0
41
1
10
101.798896561615
20
-12.7569963475771
30
0
41
1
10
101.920488360577
20
-13.0697628405681
30
0
41
1
10
101.981284260059
20
-13.2065355304631
30
0
41
1
10
102.102876059021
20
-13.4415220925875
30
0
41
1
10
102.163671958502
20
-13.5397409293322
30
0
41
1
10
102.285263757465
20
-13.6991771841879
30
0
41
1
10
102.346059656946
20
-13.7604004636625
30
0
41
1
10
102.467651455909
20
-13.8481263482765
30
0
41
1
10
102.52844735539
20
-13.8746350970968
30
0
41
1
10
102.604442229742
20
-13.8878341543435
30
0
41
1
10
102.619641204612
20
-13.8894781864489
30
0
41
1
10
102.650039154353
20
-13.8908224796272
30
0
41
1
10
102.665238129223
20
-13.8905299712221
30
0
41
1
10
102.710835053834
20
-13.8867262420589
30
0
41
1
10
102.741233003574
20
-13.8802726933814
30
0
41
1
10
102.832426852797
20
-13.848598911867
30
0
41
1
10
102.893222752278
20
-13.8110490960776
30
0
41
1
10
103.01481455124
20
-13.7004282427411
30
0
41
1
10
103.075610450721
20
-13.627351090638
30
0
41
1
10
103.197202249684
20
-13.4436103470169
30
0
41
1
10
103.257998149165
20
-13.332941116581
30
0
41
1
10
103.379589948128
20
-13.0727297335694
30
0
41
1
10
103.440385847609
20
-12.9231830477257
30
0
41
1
10
103.561977646572
20
-12.5848640862307
30
0
41
1
10
103.622773546053
20
-12.3960889989291
30
0
41
1
10
103.744365345016
20
-11.9800068996456
30
0
41
1
10
103.805161244497
20
-11.752699294011
30
0
41
1
10
103.926753043459
20
-11.2613450048507
30
0
41
1
10
103.987548942941
20
-10.9973002196687
30
0
41
1
10
104.109140741903
20
-10.4353448390893
30
0
41
1
10
104.169936641385
20
-10.1374386122957
30
0
41
1
10
104.291528440347
20
-9.5116196384617
30
0
41
1
10
104.352324339828
20
-9.18371339186692
30
0
41
1
10
104.473916138791
20
-8.50257503418229
30
0
41
1
10
104.534712038272
20
-8.14935094220812
30
0
41
1
10
104.656303837235
20
-7.42285849904371
30
0
41
1
10
104.717099736716
20
-7.04959889538679
30
0
41
1
10
104.838691535679
20
-6.2886632846766
30
0
41
1
10
104.89948743516
20
-5.90099591633938
30
0
41
1
10
105.021079234122
20
-5.11695483678545
30
0
41
1
10
105.081875133604
20
-4.72058890198576
30
0
41
1
10
105.203466932566
20
-3.92469391760665
30
0
41
1
10
105.264262832048
20
-3.52517121419834
30
0
41
1
10
105.38585463101
20
-2.72812523948622
30
0
41
1
10
105.446650530491
20
-2.33060655609984
30
0
41
1
10
105.568242329454
20
-1.54218542922797
30
0
41
1
10
105.629038228935
20
-1.15128573094415
30
0
41
1
10
105.720232078157
20
-0.572869081947943
30
0
41
1
10
105.750630027898
20
-0.381380314223918
30
0
41
1
10
105.796226952509
20
-0.0964436256076624
30
0
41
1
10
105.811425927379
20
-0.0021130127843776
30
0
41
1
10
105.84182387712
20
0.187307607173949
30
0
41
1
10
105.85702285199
20
0.282409037234061
30
0
41
1
10
105.933017726342
20
0.75974386449775
30
0
41
1
10
105.993813625823
20
1.14748793908746
30
0
41
1
10
106.115405424786
20
1.93100790024991
30
0
41
1
10
106.176201324267
20
2.32678164353013
30
0
41
1
10
106.297793123229
20
3.12195916349026
30
0
41
1
10
106.358589022711
20
3.52135897484558
30
0
41
1
10
106.480180821673
20
4.3187977749466
30
0
41
1
10
106.540976721154
20
4.71683098562713
30
0
41
1
10
106.662568520117
20
5.50610305266753
30
0
41
1
10
106.723364419598
20
5.89733456225113
30
0
41
1
10
106.844956218561
20
6.66732509264651
30
0
41
1
10
106.905752118042
20
7.04607568857264
30
0
41
1
10
107.027343917005
20
7.78542038165065
30
0
41
1
10
107.088139816486
20
8.14600567604541
30
0
41
1
10
107.209731615449
20
8.84359120372471
30
0
41
1
10
107.27052751493
20
9.18058307909999
30
0
41
1
10
107.392119313892
20
9.82606934357179
30
0
41
1
10
107.452915213374
20
10.1345566409298
30
0
41
1
10
107.574507012336
20
10.7188723487824
30
0
41
1
10
107.635302911818
20
10.9946956196576
30
0
41
1
10
107.75689471078
20
11.5104588582986
30
0
41
1
10
107.817690610261
20
11.7503960773099
30
0
41
1
10
107.939282409224
20
12.192219542538
30
0
41
1
10
108.000078308705
20
12.394105560003
30
0
41
1
10
108.121670107668
20
12.758760559063
30
0
41
1
10
108.182466007149
20
12.9215316515496
30
0
41
1
10
108.304057806112
20
13.2079631313204
30
0
41
1
10
108.364853705593
20
13.3316275370919
30
0
41
1
10
108.486445504555
20
13.5408305409681
30
0
41
1
10
108.547241404037
20
13.6263744772871
30
0
41
1
10
108.668833202999
20
13.7611572620819
30
0
41
1
10
108.729629102481
20
13.8104021322614
30
0
41
1
10
108.851220901443
20
13.8750704435792
30
0
41
1
10
108.912016800925
20
13.8905
30
0
41
1
10
108.972812700406
20
13.8905
30
0
0
SPLINE
5
D7
100
AcDbEntity
8
1
62
256
6
ByLayer
370
13
48
1
60
0
100
AcDbSpline
70
4
71
3
72
44
73
40
40
0
40
0
40
0
40
0
40
0.0625000000000002
40
0.0625000000000002
40
0.125
40
0.125
40
0.187500000000001
40
0.187500000000001
40
0.250000000000001
40
0.250000000000001
40
0.312500000000001
40
0.312500000000001
40
0.375000000000001
40
0.375000000000001
40
0.437500000000002
40
0.437500000000002
40
0.500000000000002
40
0.500000000000002
40
0.562500000000002
40
0.562500000000002
40
0.625000000000002
40
0.625000000000002
40
0.687500000000002
40
0.687500000000002
40
0.750000000000002
40
0.750000000000002
40
0.812500000000003
40
0.812500000000003
40
0.875000000000003
40
0.875000000000003
40
0.906250000000003
40
0.906250000000003
40
0.921875000000002
40
0.921875000000002
40
0.929687500000002
40
0.929687500000002
40
0.937500000000002
40
0.937500000000002
40
1
40
1
40
1
40
1
41
1
10
106.528864863179
20
13.8905
30
0
41
1
10
106.600019167299
20
13.8905
30
0
41
1
10
106.671173471419
20
13.8693560040846
30
0
41
1
10
106.813482079658
20
13.7801071362211
30
0
41
1
10
106.884636383778
20
13.7119888072952
30
0
41
1
10
107.026944992017
20
13.5250480275307
30
0
41
1
10
107.098099296137
20
13.4062127341039
30
0
41
1
10
107.240407904376
20
13.1154503568587
30
0
41
1
10
107.311562208496
20
12.9435128828052
30
0
41
1
10
107.453870816736
20
12.5458699294807
30
0
41
1
10
107.525025120855
20
12.3201583759361
30
0
41
1
10
107.667333729095
20
11.8162565708214
30
0
41
1
10
107.738488033214
20
11.5380660292166
30
0
41
1
10
107.880796641454
20
10.9325616622507
30
0
41
1
10
107.951950945574
20
10.6052539906062
30
0
41
1
10
108.094259553813
20
9.90685054108047
30
0
41
1
10
108.165413857933
20
9.53576695089006
30
0
41
1
10
108.307722466172
20
8.75684879229468
30
0
41
1
10
108.378876770292
20
8.34903097333432
30
0
41
1
10
108.521185378531
20
7.50494270345973
30
0
41
1
10
108.592339682651
20
7.06869132640571
30
0
41
1
10
108.73464829089
20
6.17674890917971
30
0
41
1
10
108.80580259501
20
5.72107676365866
30
0
41
1
10
108.948111203249
20
4.79944111713436
30
0
41
1
10
109.019265507369
20
4.33349409737468
30
0
41
1
10
109.161574115609
20
3.40005347592347
30
0
41
1
10
109.232728419728
20
2.93257238392971
30
0
41
1
10
109.375037027968
20
2.00396467703604
30
0
41
1
10
109.446191332087
20
1.54284589727135
30
0
41
1
10
109.552922788267
20
0.86099626484102
30
0
41
1
10
109.588499940327
20
0.635341449289825
30
0
41
1
10
109.641865668417
20
0.299842163394459
30
0
41
1
10
109.659654244447
20
0.188505572911509
30
0
41
1
10
109.686337108491
20
0.0223070802535119
30
0
41
1
10
109.695231396506
20
-0.0328993002767106
30
0
41
1
10
109.713019972536
20
-0.143732553119463
30
0
41
1
10
109.721914260551
20
-0.199283219502377
30
0
41
1
10
109.801962852686
20
-0.700399997494287
30
0
41
1
10
109.873117156806
20
-1.1541461573662
30
0
41
1
10
109.944271460925
20
-1.61323181536997
30
0
0
SPLINE
5
D8
100
AcDbEntity
8
1
62
256
6
ByLayer
370
13
48
1
60
0
100
AcDbSpline
70
4
71
3
72
14
73
10
40
0
40
0
40
0
40
0
40
0.25
40
0.25
40
0.5
40
0.5
40
0.75
40
0.75
40
1
40
1
40
1
40
1
41
1
10
97.3000000000001
20
12.3422148431125
30
0
41
1
10
97.3822299483617
20
12.6104010722616
30
0
41
1
10
97.4644598967234
20
12.8430210193377
30
0
41
1
10
97.6289197934467
20
13.236526661714
30
0
41
1
10
97.7111497418085
20
13.3974300117517
30
0
41
1
10
97.8756096385319
20
13.6502120325333
30
0
41
1
10
97.9578395868936
20
13.7421159631999
30
0
41
1
10
98.1222994836169
20
13.8622460889276
30
0
41
1
10
98.2045294319786
20
13.8905
30
0
41
1
10
98.2867593803403
20
13.8905
30
0
0
SPLINE
5
D9
100
AcDbEntity
8
1
62
256
6
ByLayer
370
13
48
1
60
0
100
AcDbSpline
70
4
71
3
72
134
73
130
40
0
40
0
40
0
40
0
40
0.0156249999999995
40
0.0156249999999995
40
0.0312499999999989
40
0.0312499999999989
40
0.0468749999999984
40
0.0468749999999984
40
0.0624999999999979
40
0.0624999999999979
40
0.0781249999999974
40
0.0781249999999974
40
0.0937499999999969
40
0.0937499999999969
40
0.124999999999996
40
0.124999999999996
40
0.140624999999996
40
0.140624999999996
40
0.148437499999996
40
0.148437499999996
40
0.156249999999996
40
0.156249999999996
40
0.187499999999996
40
0.187499999999996
40
0.203124999999995
40
0.203124999999995
40
0.218749999999995
40
0.218749999999995
40
0.234374999999995
40
0.234374999999995
40
0.249999999999995
40
0.249999999999995
40
0.265624999999995
40
0.265624999999995
40
0.281249999999995
40
0.281249999999995
40
0.296874999999995
40
0.296874999999995
40
0.312499999999995
40
0.312499999999995
40
0.328124999999995
40
0.328124999999995
40
0.343749999999995
40
0.343749999999995
40
0.359374999999995
40
0.359374999999995
40
0.374999999999995
40
0.374999999999995
40
0.390624999999995
40
0.390624999999995
40
0.406249999999995
40
0.406249999999995
40
0.421874999999994
40
0.421874999999994
40
0.429687499999994
40
0.429687499999994
40
0.433593749999995
40
0.433593749999995
40
0.437499999999995
40
0.437499999999995
40
0.468749999999995
40
0.468749999999995
40
0.484374999999995
40
0.484374999999995
40
0.499999999999995
40
0.499999999999995
40
0.515624999999996
40
0.515624999999996
40
0.531249999999996
40
0.531249999999996
40
0.546874999999996
40
0.546874999999996
40
0.562499999999996
40
0.562499999999996
40
0.578124999999996
40
0.578124999999996
40
0.593749999999996
40
0.593749999999996
40
0.609374999999996
40
0.609374999999996
40
0.624999999999997
40
0.624999999999997
40
0.640624999999997
40
0.640624999999997
40
0.656249999999997
40
0.656249999999997
40
0.671874999999997
40
0.671874999999997
40
0.687499999999997
40
0.687499999999997
40
0.703124999999997
40
0.703124999999997
40
0.710937499999997
40
0.710937499999997
40
0.714843749999997
40
0.714843749999997
40
0.718749999999997
40
0.718749999999997
40
0.749999999999998
40
0.749999999999998
40
0.765624999999998
40
0.765624999999998
40
0.781249999999998
40
0.781249999999998
40
0.796874999999998
40
0.796874999999998
40
0.812499999999998
40
0.812499999999998
40
0.828124999999998
40
0.828124999999998
40
0.843749999999998
40
0.843749999999998
40
0.859374999999999
40
0.859374999999999
40
0.874999999999999
40
0.874999999999999
40
0.890624999999999
40
0.890624999999999
40
0.906249999999999
40
0.906249999999999
40
0.921874999999999
40
0.921874999999999
40
0.937499999999999
40
0.937499999999999
40
0.953124999999999
40
0.953124999999999
40
0.968749999999999
40
0.968749999999999
40
1
40
1
40
1
40
1
41
1
10
97.3000000000001
20
10.4359027634637
30
0
41
1
10
97.3582660573128
20
10.156229980311
30
0
41
1
10
97.4165321146255
20
9.86154319925305
30
0
41
1
10
97.5330642292508
20
9.245769198961
30
0
41
1
10
97.5913302865636
20
8.92468764595816
30
0
41
1
10
97.707862401189
20
8.26040396994276
30
0
41
1
10
97.7661284585017
20
7.9172085386582
30
0
41
1
10
97.8826605731271
20
7.21343353371915
30
0
41
1
10
97.9409266304398
20
6.85286107151671
30
0
41
1
10
98.0574587450652
20
6.11931551926654
30
0
41
1
10
98.1157248023779
20
5.74634934271907
30
0
41
1
10
98.2322569170033
20
4.99303420628874
30
0
41
1
10
98.290522974316
20
4.61269141936813
30
0
41
1
10
98.4653211462541
20
3.46786967819077
30
0
41
1
10
98.5818532608796
20
2.6998446774173
30
0
41
1
10
98.7566514328176
20
1.56630125209901
30
0
41
1
10
98.8149174901303
20
1.19147938616223
30
0
41
1
10
98.9023165760994
20
0.636409465989288
30
0
41
1
10
98.9314496047558
20
0.452575454554136
30
0
41
1
10
98.9897156620684
20
0.0876677459041559
30
0
41
1
10
99.0188486907248
20
-0.0926875987051972
30
0
41
1
10
99.1645138340066
20
-1.00508385375076
30
0
41
1
10
99.2810459486319
20
-1.75742206838723
30
0
41
1
10
99.4558441205702
20
-2.8985743289542
30
0
41
1
10
99.5141101778827
20
-3.28099108937406
30
0
41
1
10
99.6306422925081
20
-4.04559461974262
30
0
41
1
10
99.6889083498208
20
-4.42777702203662
30
0
41
1
10
99.8054404644463
20
-5.18720676749538
30
0
41
1
10
99.863706521759
20
-5.56444846403846
30
0
41
1
10
99.9802386363845
20
-6.30903883362208
30
0
41
1
10
100.038504693697
20
-6.67638089975586
30
0
41
1
10
100.155036808323
20
-7.39614637026105
30
0
41
1
10
100.213302865635
20
-7.74856268686599
30
0
41
1
10
100.329834980261
20
-8.43359078041814
30
0
41
1
10
100.388101037573
20
-8.7661955790642
30
0
41
1
10
100.504633152199
20
-9.40706789296479
30
0
41
1
10
100.562899209512
20
-9.71532916267148
30
0
41
1
10
100.679431324137
20
-10.3035355923307
30
0
41
1
10
100.737697381449
20
-10.5834758040523
30
0
41
1
10
100.854229496075
20
-11.1117852216621
30
0
41
1
10
100.912495553388
20
-11.3601511967915
30
0
41
1
10
101.029027668013
20
-11.8229053288959
30
0
41
1
10
101.087293725326
20
-12.0372921880462
30
0
41
1
10
101.203825839951
20
-12.4305979166035
30
0
41
1
10
101.262091897264
20
-12.6095174099784
30
0
41
1
10
101.378624011889
20
-12.9313247263675
30
0
41
1
10
101.436890069202
20
-13.074214876548
30
0
41
1
10
101.553422183827
20
-13.324281018194
30
0
41
1
10
101.61168824114
20
-13.431460666401
30
0
41
1
10
101.728220355766
20
-13.6112131733951
30
0
41
1
10
101.786486413078
20
-13.6837905606375
30
0
41
1
10
101.903018527703
20
-13.7961111598194
30
0
41
1
10
101.961284585016
20
-13.8358593021516
30
0
41
1
10
102.048683670985
20
-13.8725765032315
30
0
41
1
10
102.077816699642
20
-13.8810016710007
30
0
41
1
10
102.121516242626
20
-13.8881604564766
30
0
41
1
10
102.136082756954
20
-13.889633724467
30
0
41
1
10
102.165215785611
20
-13.8907964026706
30
0
41
1
10
102.179782299939
20
-13.8904921840439
30
0
41
1
10
102.310880928893
20
-13.8796886732606
30
0
41
1
10
102.427413043518
20
-13.8122734270869
30
0
41
1
10
102.602211215456
20
-13.6103673038293
30
0
41
1
10
102.660477272769
20
-13.5263172176718
30
0
41
1
10
102.777009387394
20
-13.3231653249294
30
0
41
1
10
102.835275444707
20
-13.2040592298878
30
0
41
1
10
102.951807559332
20
-12.9299390580489
30
0
41
1
10
103.010073616645
20
-12.7749217233188
30
0
41
1
10
103.12660573127
20
-12.4289469181319
30
0
41
1
10
103.184871788583
20
-12.2379876581195
30
0
41
1
10
103.301403903208
20
-11.8209983095449
30
0
41
1
10
103.359669960521
20
-11.594968228616
30
0
41
1
10
103.476202075147
20
-11.1096358786854
30
0
41
1
10
103.534468132459
20
-10.8503355677688
30
0
41
1
10
103.651000247085
20
-10.3011616469895
30
0
41
1
10
103.709266304397
20
-10.0112918807385
30
0
41
1
10
103.825798419023
20
-9.40449068518467
30
0
41
1
10
103.884064476335
20
-9.08756469618081
30
0
41
1
10
104.000596590961
20
-8.430834842862
30
0
41
1
10
104.058862648274
20
-8.09103753845278
30
0
41
1
10
104.175394762899
20
-7.39323897290814
30
0
41
1
10
104.233660820212
20
-7.03524479667155
30
0
41
1
10
104.350192934837
20
-6.30600946855526
30
0
41
1
10
104.40845899215
20
-5.93477530444071
30
0
41
1
10
104.524991106775
20
-5.18408653975968
30
0
41
1
10
104.583257164088
20
-4.80463826928471
30
0
41
1
10
104.699789278713
20
-4.04241552577633
30
0
41
1
10
104.758055336026
20
-3.65964629589783
30
0
41
1
10
104.874587450652
20
-2.89536843324439
30
0
41
1
10
104.932853507964
20
-2.51386369736753
30
0
41
1
10
105.04938562259
20
-1.75625624126013
30
0
41
1
10
105.107651679902
20
-1.38015598741916
30
0
41
1
10
105.195050765871
20
-0.822757430511814
30
0
41
1
10
105.224183794528
20
-0.638078767637552
30
0
41
1
10
105.267883337512
20
-0.363037852514594
30
0
41
1
10
105.28244985184
20
-0.27168676754701
30
0
41
1
10
105.311582880497
20
-0.0896887966744373
30
0
41
1
10
105.326149394825
20
0.000713780403629
30
0
41
1
10
105.457248023778
20
0.817610229790887
30
0
41
1
10
105.573780138404
20
1.56712568330747
30
0
41
1
10
105.748578310342
20
2.70607568932135
30
0
41
1
10
105.806844367655
20
3.08809629098769
30
0
41
1
10
105.92337648228
20
3.85266275939725
30
0
41
1
10
105.981642539593
20
4.23520449229224
30
0
41
1
10
106.098174654218
20
4.99616658639775
30
0
41
1
10
106.156440711531
20
5.37458149861837
30
0
41
1
10
106.272972826156
20
6.12236237755073
30
0
41
1
10
106.331238883469
20
6.49172186927586
30
0
41
1
10
106.447770998094
20
7.21636356163657
30
0
41
1
10
106.506037055407
20
7.57163871626437
30
0
41
1
10
106.622569170033
20
8.26318735852712
30
0
41
1
10
106.680835227345
20
8.59945380562777
30
0
41
1
10
106.797367341971
20
9.24837826625657
30
0
41
1
10
106.855633399283
20
9.56102986873685
30
0
41
1
10
106.972165513909
20
10.1586397001933
30
0
41
1
10
107.030431571222
20
10.4435927284672
30
0
41
1
10
107.146963685847
20
10.9824186588662
30
0
41
1
10
107.20522974316
20
11.2362880201994
30
0
41
1
10
107.321761857785
20
11.7103907677109
30
0
41
1
10
107.380027915098
20
11.9306225255718
30
0
41
1
10
107.496560029723
20
12.3358034346907
30
0
41
1
10
107.554826087036
20
12.5207528968129
30
0
41
1
10
107.671358201661
20
12.8546514499066
30
0
41
1
10
107.729624258974
20
13.0036026043031
30
0
41
1
10
107.846156373599
20
13.2656791149048
30
0
41
1
10
107.904422430912
20
13.3788079348836
30
0
41
1
10
108.020954545538
20
13.5702222753983
30
0
41
1
10
108.07922060285
20
13.6485122111467
30
0
41
1
10
108.254018774788
20
13.8336227113875
30
0
41
1
10
108.370550889414
20
13.8905
30
0
41
1
10
108.487083004039
20
13.8905
30
0
0
SPLINE
5
DA
100
AcDbEntity
8
1
62
256
6
ByLayer
370
13
48
1
60
0
100
AcDbSpline
70
4
71
3
72
43
73
39
40
0
40
0
40
0
40
0
40
0.0625000000000006
40
0.0625000000000006
40
0.125000000000001
40
0.125000000000001
40
0.187500000000002
40
0.187500000000002
40
0.250000000000002
40
0.250000000000002
40
0.312500000000003
40
0.312500000000003
40
0.375000000000004
40
0.375000000000004
40
0.437500000000004
40
0.437500000000004
40
0.500000000000005
40
0.500000000000005
40
0.562500000000005
40
0.562500000000005
40
0.625000000000006
40
0.625000000000006
40
0.687500000000007
40
0.687500000000007
40
0.750000000000007
40
0.750000000000007
40
0.781250000000007
40
0.781250000000007
40
0.796875000000008
40
0.804687500000008
40
0.804687500000008
40
0.812500000000008
40
0.812500000000008
40
0.875000000000005
40
0.875000000000005
40
0.937500000000003
40
0.937500000000003
40
1
40
1
40
1
40
1
41
1
10
106.043135166813
20
13.8905
30
0
41
1
10
106.124408839607
20
13.8905
30
0
41
1
10
106.205682512401
20
13.8629008087964
30
0
41
1
10
106.368229857989
20
13.7456265733029
30
0
41
1
10
106.449503530783
20
13.6559253823304
30
0
41
1
10
106.612050876371
20
13.4092431357872
30
0
41
1
10
106.693324549165
20
13.2522381419965
30
0
41
1
10
106.855871894753
20
12.868234415204
30
0
41
1
10
106.937145567547
20
12.6412186935599
30
0
41
1
10
107.099692913135
20
12.1176024604378
30
0
41
1
10
107.180966585929
20
11.8209963016905
30
0
41
1
10
107.343513931517
20
11.1620865645997
30
0
41
1
10
107.424787604311
20
10.7997913138434
30
0
41
1
10
107.587334949899
20
10.0168368390688
30
0
41
1
10
107.668608622693
20
9.59619968508815
30
0
41
1
10
107.831155968281
20
8.70688094006482
30
0
41
1
10
107.912429641075
20
8.23823181841391
30
0
41
1
10
108.074976986663
20
7.26536086364757
30
0
41
1
10
108.156250659457
20
6.76117628211247
30
0
41
1
10
108.318798005045
20
5.73078914776576
30
0
41
1
10
108.400071677839
20
5.20462234970881
30
0
41
1
10
108.562619023427
20
4.14378923107458
30
0
41
1
10
108.643892696221
20
3.60915193551583
30
0
41
1
10
108.806440041809
20
2.54386957414323
30
0
41
1
10
108.887713714603
20
2.01324375538678
30
0
41
1
10
109.009624223794
20
1.22834776648145
30
0
41
1
10
109.050261060191
20
0.968540722677346
30
0
41
1
10
109.111216314787
20
0.582420523933962
30
0
41
1
10
109.141693942085
20
0.390256381436615
30
0
41
1
10
109.172171569382
20
0.199581104075861
30
0
41
1
10
109.192489987581
20
0.0728101645631511
30
0
41
1
10
109.20264919668
20
0.0097137705288333
30
0
41
1
10
109.294082078573
20
-0.559387387825353
30
0
41
1
10
109.375355751367
20
-1.0766276246666
30
0
41
1
10
109.537903096955
20
-2.12516181793336
30
0
41
1
10
109.619176769749
20
-2.65644620083305
30
0
41
1
10
109.781724115337
20
-3.72221627488915
30
0
41
1
10
109.862997788131
20
-4.25668198178121
30
0
41
1
10
109.944271460925
20
-4.78646209629269
30
0
0
SPLINE
5
DB
100
AcDbEntity
8
1
62
256
6
ByLayer
370
13
48
1
60
0
100
AcDbSpline
70
4
71
3
72
10
73
6
40
0
40
0
40
0
40
0
40
0.5
40
0.5
40
1
40
1
40
1
40
1
41
1
10
97.3
20
13.5119633718921
30
0
41
1
10
97.383504947329
20
13.6424821196876
30
0
41
1
10
97.467009894658
20
13.7373671479816
30
0
41
1
10
97.6340197893157
20
13.8613611264788
30
0
41
1
10
97.7175247366447
20
13.8905
30
0
41
1
10
97.8010296839736
20
13.8905
30
0
0
SPLINE
5
DC
100
AcDbEntity
8
1
62
256
6
ByLayer
370
13
48
1
60
0
100
AcDbSpline
70
4
71
3
72
98
73
94
40
0
40
0
40
0
40
0
40
0.03125
40
0.03125
40
0.0625
40
0.0625
40
0.09375
40
0.09375
40
0.109375
40
0.109375
40
0.11328125
40
0.11328125
40
0.1171875
40
0.1171875
40
0.125
40
0.125
40
0.15625
40
0.15625
40
0.1875
40
0.1875
40
0.21875
40
0.21875
40
0.234375
40
0.234375
40
0.25
40
0.25
40
0.265625
40
0.265625
40
0.28125
40
0.28125
40
0.3125
40
0.3125
40
0.34375
40
0.34375
40
0.375
40
0.375
40
0.40625
40
0.40625
40
0.41015625
40
0.41015625
40
0.4140625
40
0.421875
40
0.421875
40
0.4375
40
0.4375
40
0.46875
40
0.46875
40
0.5
40
0.5
40
0.53125
40
0.53125
40
0.546875
40
0.546875
40
0.5625
40
0.5625
40
0.578125
40
0.578125
40
0.59375
40
0.59375
40
0.625
40
0.625
40
0.65625
40
0.65625
40
0.6875
40
0.6875
40
0.703125
40
0.703125
40
0.70703125
40
0.70703125
40
0.7109375
40
0.71875
40
0.71875
40
0.75
40
0.75
40
0.78125
40
0.78125
40
0.8125
40
0.8125
40
0.828125
40
0.828125
40
0.84375
40
0.84375
40
0.859375
40
0.859375
40
0.875
40
0.875
40
0.90625
40
0.90625
40
0.9375
40
0.9375
40
0.96875
40
0.96875
40
1
40
1
40
1
40
1
41
1
10
97.3000000000001
20
7.79753019170877
30
0
41
1
10
97.4114724302883
20
7.13188470736503
30
0
41
1
10
97.5229448605766
20
6.43243929446746
30
0
41
1
10
97.745889721153
20
5.00083680736577
30
0
41
1
10
97.8573621514413
20
4.26884361930271
30
0
41
1
10
98.0803070120178
20
2.80602419082726
30
0
41
1
10
98.191779442306
20
2.07530560010974
30
0
41
1
10
98.3589880877385
20
1.00133031585781
30
0
41
1
10
98.4147243028825
20
0.646968870294302
30
0
41
1
10
98.4843945718127
20
0.210308773602634
30
0
41
1
10
98.4983286255988
20
0.123290113052008
30
0
41
1
10
98.5261967331709
20
-0.050081581004207
30
0
41
1
10
98.5401307869569
20
-0.136767590020838
30
0
41
1
10
98.5819329483149
20
-0.398229494858839
30
0
41
1
10
98.609801055887
20
-0.573814177092231
30
0
41
1
10
98.7491415937473
20
-1.45729477096873
30
0
41
1
10
98.8606140240355
20
-2.18215811799317
30
0
41
1
10
99.0835588846121
20
-3.64200559152349
30
0
41
1
10
99.1950313149003
20
-4.37690160331246
30
0
41
1
10
99.4179761754768
20
-5.82430152173282
30
0
41
1
10
99.5294486057651
20
-6.53665457796248
30
0
41
1
10
99.6966572511976
20
-7.56190144598386
30
0
41
1
10
99.7523934663416
20
-7.89642986822363
30
0
41
1
10
99.8638658966298
20
-8.5468153563838
30
0
41
1
10
99.919602111774
20
-8.86266687826677
30
0
41
1
10
100.031074542062
20
-9.47177498352053
30
0
41
1
10
100.086810757206
20
-9.76502663381436
30
0
41
1
10
100.198283187495
20
-10.3254884421925
30
0
41
1
10
100.254019402639
20
-10.5926946859857
30
0
41
1
10
100.421228048071
20
-11.3509982358744
30
0
41
1
10
100.532700478359
20
-11.7983896029215
30
0
41
1
10
100.755645338936
20
-12.5629608092635
30
0
41
1
10
100.867117769224
20
-12.8801517256082
30
0
41
1
10
101.090062629801
20
-13.3826696355849
30
0
41
1
10
101.201535060089
20
-13.5680836938882
30
0
41
1
10
101.424479920666
20
-13.8162606495723
30
0
41
1
10
101.535952350954
20
-13.8791468943651
30
0
41
1
10
101.661358835028
20
-13.8903291255397
30
0
41
1
10
101.675292888814
20
-13.8907493082508
30
0
41
1
10
101.703160996386
20
-13.8899716320825
30
0
41
1
10
101.744963157744
20
-13.886362686018
30
0
41
1
10
101.786765319102
20
-13.875258062601
30
0
41
1
10
101.870369641819
20
-13.8426284163036
30
0
41
1
10
101.926105856963
20
-13.8069697120205
30
0
41
1
10
102.093314502395
20
-13.6552315463093
30
0
41
1
10
102.204786932683
20
-13.4941083079297
30
0
41
1
10
102.42773179326
20
-13.0411925906017
30
0
41
1
10
102.539204223548
20
-12.7493027932439
30
0
41
1
10
102.762149084125
20
-12.0341102259654
30
0
41
1
10
102.873621514413
20
-11.6107796131722
30
0
41
1
10
103.040830159845
20
-10.8858748687017
30
0
41
1
10
103.096566374989
20
-10.6293536079598
30
0
41
1
10
103.208038805277
20
-10.0891062664809
30
0
41
1
10
103.263775020422
20
-9.80538362589019
30
0
41
1
10
103.37524745071
20
-9.21395942592369
30
0
41
1
10
103.430983665854
20
-8.90626245569285
30
0
41
1
10
103.542456096142
20
-8.27064788676827
30
0
41
1
10
103.598192311286
20
-7.94273565225629
30
0
41
1
10
103.765400956719
20
-6.9348777371174
30
0
41
1
10
103.876873387007
20
-6.23080635208422
30
0
41
1
10
104.099818247584
20
-4.79331025128226
30
0
41
1
10
104.211290677872
20
-4.06004542511545
30
0
41
1
10
104.434235538448
20
-2.59766416523976
30
0
41
1
10
104.545707968737
20
-1.86864893977375
30
0
41
1
10
104.712916614169
20
-0.798955470935908
30
0
41
1
10
104.768652829313
20
-0.446307395930859
30
0
41
1
10
104.838323098243
20
-0.012086907516391
30
0
41
1
10
104.852257152029
20
0.0743704857419516
30
0
41
1
10
104.880125259601
20
0.248370780154005
30
0
41
1
10
104.921927420959
20
0.510341592597484
30
0
41
1
10
104.963729582318
20
0.775047582243928
30
0
41
1
10
105.103070120178
20
1.66262302790378
30
0
41
1
10
105.214542550466
20
2.38968435527721
30
0
41
1
10
105.437487411042
20
3.85107150466442
30
0
41
1
10
105.548959841331
20
4.58530263859333
30
0
41
1
10
105.771904701907
20
6.02806333909169
30
0
41
1
10
105.883377132196
20
6.73643736950524
30
0
41
1
10
106.050585777628
20
7.75322285327118
30
0
41
1
10
106.106321992772
20
8.08451924082306
30
0
41
1
10
106.21779442306
20
8.7276650470784
30
0
41
1
10
106.273530638205
20
9.03950900341749
30
0
41
1
10
106.385003068493
20
9.63990541147206
30
0
41
1
10
106.440739283637
20
9.92845309491148
30
0
41
1
10
106.552211713925
20
10.4789172480874
30
0
41
1
10
106.607947929069
20
10.7408300355287
30
0
41
1
10
106.775156574502
20
11.4825615613619
30
0
41
1
10
106.88662900479
20
11.9179807513232
30
0
41
1
10
107.109573865366
20
12.6579220093134
30
0
41
1
10
107.221046295655
20
12.9624636360475
30
0
41
1
10
107.443991156231
20
13.4401344414866
30
0
41
1
10
107.555463586519
20
13.6133560045142
30
0
41
1
10
107.778408447096
20
13.8384765001844
30
0
41
1
10
107.889880877384
20
13.8905
30
0
41
1
10
108.001353307673
20
13.8905
30
0
0
SPLINE
5
DD
100
AcDbEntity
8
1
62
256
6
ByLayer
370
13
48
1
60
0
100
AcDbSpline
70
4
71
3
72
43
73
39
40
0
40
0
40
0
40
0
40
0.0625
40
0.0625
40
0.125
40
0.125
40
0.1875
40
0.1875
40
0.25
40
0.25
40
0.3125
40
0.3125
40
0.375
40
0.375
40
0.4375
40
0.4375
40
0.5
40
0.5
40
0.5625
40
0.5625
40
0.625
40
0.625
40
0.6875
40
0.6875
40
0.71875
40
0.71875
40
0.7265625
40
0.7265625
40
0.734375
40
0.75
40
0.75
40
0.8125
40
0.8125
40
0.875
40
0.875
40
0.9375
40
0.9375
40
1
40
1
40
1
40
1
41
1
10
105.557405470446
20
13.8905
30
0
41
1
10
105.648798511914
20
13.8905
30
0
41
1
10
105.740191553383
20
13.8555801131785
30
0
41
1
10
105.922977636319
20
13.7062486065052
30
0
41
1
10
106.014370677788
20
13.5917901300335
30
0
41
1
10
106.197156760724
20
13.2765504380266
30
0
41
1
10
106.288549802193
20
13.0757285870796
30
0
41
1
10
106.471335885129
20
12.585190951007
30
0
41
1
10
106.562728926598
20
12.2954515175198
30
0
41
1
10
106.745515009534
20
11.629773412417
30
0
41
1
10
106.836908051002
20
11.2538368294627
30
0
41
1
10
107.019694133939
20
10.4240783563443
30
0
41
1
10
107.111087175407
20
9.97028719024752
30
0
41
1
10
107.293873258344
20
8.99826450317912
30
0
41
1
10
107.385266299812
20
8.48008735156236
30
0
41
1
10
107.568052382749
20
7.39656517172807
30
0
41
1
10
107.659445424217
20
6.83128651464713
30
0
41
1
10
107.842231507154
20
5.67280022012753
30
0
41
1
10
107.933624548622
20
5.07965678376235
30
0
41
1
10
108.116410631559
20
3.88463264458758
30
0
41
1
10
108.207803673027
20
3.28280215081043
30
0
41
1
10
108.390589755964
20
2.08779053355951
30
0
41
1
10
108.481982797432
20
1.49463938629913
30
0
41
1
10
108.619072359635
20
0.622170010416198
30
0
41
1
10
108.664768880369
20
0.334196786952958
30
0
41
1
10
108.721889531286
20
-0.0212975920848919
30
0
41
1
10
108.73331366147
20
-0.092276804807824
30
0
41
1
10
108.756161921837
20
-0.234943746915207
30
0
41
1
10
108.790434312388
20
-0.449596149133214
30
0
41
1
10
108.824706702939
20
-0.666107623716385
30
0
41
1
10
108.938948004774
20
-1.39147962957242
30
0
41
1
10
109.030341046242
20
-1.98364699809832
30
0
41
1
10
109.213127129179
20
-3.17761933933497
30
0
41
1
10
109.304520170647
20
-3.77939557647531
30
0
41
1
10
109.487306253584
20
-4.97538906335666
30
0
41
1
10
109.578699295052
20
-5.56955717623941
30
0
41
1
10
109.761485377989
20
-6.73123307970104
30
0
41
1
10
109.852878419457
20
-7.29867720539414
30
0
41
1
10
109.944271460925
20
-7.84314873182348
30
0
0
SPLINE
5
DE
100
AcDbEntity
8
1
62
256
6
ByLayer
370
13
48
1
60
0
100
AcDbSpline
70
4
71
3
72
8
73
4
40
0
40
0
40
0
40
0
40
1
40
1
40
1
40
1
41
1
10
97.3
20
13.890173668109
30
0
41
1
10
97.305099995869
20
13.8903915289962
30
0
41
1
10
97.310199991738
20
13.8905
30
0
41
1
10
97.315299987607
20
13.8905
30
0
0
SPLINE
5
DF
100
AcDbEntity
8
1
62
256
6
ByLayer
370
13
48
1
60
0
100
AcDbSpline
70
4
71
3
72
87
73
83
40
0
40
0
40
0
40
0
40
0.0312499999999998
40
0.0312499999999998
40
0.0624999999999996
40
0.0624999999999996
40
0.0703124999999996
40
0.0703124999999996
40
0.0742187499999997
40
0.0742187499999997
40
0.0781249999999997
40
0.0781249999999997
40
0.0937499999999996
40
0.0937499999999996
40
0.125
40
0.125
40
0.15625
40
0.15625
40
0.1875
40
0.1875
40
0.218749999999999
40
0.218749999999999
40
0.249999999999999
40
0.249999999999999
40
0.281249999999999
40
0.281249999999999
40
0.312499999999999
40
0.312499999999999
40
0.343749999999999
40
0.343749999999999
40
0.374999999999999
40
0.374999999999999
40
0.378906249999999
40
0.378906249999999
40
0.382812499999999
40
0.382812499999999
40
0.390624999999999
40
0.390624999999999
40
0.406249999999999
40
0.406249999999999
40
0.437499999999999
40
0.437499999999999
40
0.468749999999999
40
0.468749999999999
40
0.499999999999999
40
0.499999999999999
40
0.531249999999999
40
0.531249999999999
40
0.562499999999999
40
0.562499999999999
40
0.593749999999999
40
0.593749999999999
40
0.624999999999999
40
0.624999999999999
40
0.656249999999999
40
0.656249999999999
40
0.687499999999999
40
0.687499999999999
40
0.691406249999999
40
0.691406249999999
40
0.695312499999999
40
0.703124999999999
40
0.703124999999999
40
0.718749999999999
40
0.718749999999999
40
0.749999999999999
40
0.749999999999999
40
0.781249999999999
40
0.781249999999999
40
0.812499999999999
40
0.812499999999999
40
0.843749999999999
40
0.843749999999999
40
0.874999999999999
40
0.874999999999999
40
0.90625
40
0.90625
40
0.9375
40
0.9375
40
0.96875
40
0.96875
40
1
40
1
40
1
40
1
41
1
10
97.3
20
4.73659234384456
30
0
41
1
10
97.4064127459511
20
4.04256302281496
30
0
41
1
10
97.5128254919022
20
3.34093426550169
30
0
41
1
10
97.7256509838044
20
1.94997784193254
30
0
41
1
10
97.8320637297555
20
1.26071331638502
30
0
41
1
10
97.9650796621944
20
0.420652055096895
30
0
41
1
10
97.9916828486822
20
0.253700144927393
30
0
41
1
10
98.0315876284138
20
0.0050726410642312
30
0
41
1
10
98.0448892216577
20
-0.0774787124476859
30
0
41
1
10
98.0714924081456
20
-0.243577221325779
30
0
41
1
10
98.0847940013895
20
-0.326921435794162
30
0
41
1
10
98.1513019676089
20
-0.745030729526349
30
0
41
1
10
98.2045083405844
20
-1.08397671453628
30
0
41
1
10
98.364127459511
20
-2.11047327357812
30
0
41
1
10
98.4705402054622
20
-2.80785951286089
30
0
41
1
10
98.6833656973644
20
-4.20425358459792
30
0
41
1
10
98.7897784433154
20
-4.90317680491239
30
0
41
1
10
99.0026039352176
20
-6.27340217454
30
0
41
1
10
99.1090166811687
20
-6.94457622388302
30
0
41
1
10
99.3218421730709
20
-8.22861605155308
30
0
41
1
10
99.428254919022
20
-8.84133878747804
30
0
41
1
10
99.6410804109242
20
-9.98054001595906
30
0
41
1
10
99.7474931568754
20
-10.5069006362548
30
0
41
1
10
99.9603186487777
20
-11.4522652739147
30
0
41
1
10
100.066731394729
20
-11.8712104746843
30
0
41
1
10
100.279556886631
20
-12.5902216088971
30
0
41
1
10
100.385969632582
20
-12.8902995187725
30
0
41
1
10
100.598795124484
20
-13.3703656531664
30
0
41
1
10
100.705207870435
20
-13.5504229721203
30
0
41
1
10
100.918033362337
20
-13.7982599388275
30
0
41
1
10
101.024446108289
20
-13.8661369247117
30
0
41
1
10
101.144160447484
20
-13.8873406536116
30
0
41
1
10
101.157462040727
20
-13.8889334811902
30
0
41
1
10
101.184065227215
20
-13.8906248060364
30
0
41
1
10
101.197366820459
20
-13.8907267618357
30
0
41
1
10
101.237271600191
20
-13.8888116038412
30
0
41
1
10
101.263874786679
20
-13.8845547692183
30
0
41
1
10
101.343684346142
20
-13.8624641475747
30
0
41
1
10
101.396890719117
20
-13.8353012929426
30
0
41
1
10
101.556509838044
20
-13.7137410029883
30
0
41
1
10
101.662922583995
20
-13.579053355091
30
0
41
1
10
101.875748075897
20
-13.1918709409873
30
0
41
1
10
101.982160821848
20
-12.9392922268052
30
0
41
1
10
102.194986313751
20
-12.3136573479696
30
0
41
1
10
102.301399059702
20
-11.9405639948807
30
0
41
1
10
102.514224551604
20
-11.0812057164834
30
0
41
1
10
102.620637297555
20
-10.5949717290304
30
0
41
1
10
102.833462789457
20
-9.52677366745422
30
0
41
1
10
102.939875535409
20
-8.94490736148055
30
0
41
1
10
103.152701027311
20
-7.71105989359458
30
0
41
1
10
103.259113773262
20
-7.05921677424129
30
0
41
1
10
103.471939265164
20
-5.71554379908187
30
0
41
1
10
103.578352011115
20
-5.02385227334253
30
0
41
1
10
103.791177503017
20
-3.63081927913942
30
0
41
1
10
103.897590248968
20
-2.92958164282521
30
0
41
1
10
104.110415740871
20
-1.54424778117021
30
0
41
1
10
104.216828486822
20
-0.860204386720483
30
0
41
1
10
104.336542826017
20
-0.112026627251794
30
0
41
1
10
104.349844419261
20
-0.029366559317566
30
0
41
1
10
104.376447605748
20
0.136217879293128
30
0
41
1
10
104.41635238548
20
0.38550060990525
30
0
41
1
10
104.456257165212
20
0.637351785776787
30
0
41
1
10
104.536066724675
20
1.14404231151465
30
0
41
1
10
104.589273097651
20
1.48583285469357
30
0
41
1
10
104.748892216577
20
2.51923670044019
30
0
41
1
10
104.855304962528
20
3.21904665234368
30
0
41
1
10
105.068130454431
20
4.61483867333018
30
0
41
1
10
105.174543200382
20
5.31072628422382
30
0
41
1
10
105.387368692284
20
6.66885009569603
30
0
41
1
10
105.493781438235
20
7.33095244992754
30
0
41
1
10
105.706606930137
20
8.59101381812894
30
0
41
1
10
105.813019676088
20
9.18883148037008
30
0
41
1
10
106.02584516799
20
10.2934306061551
30
0
41
1
10
106.132257913942
20
10.8001036384513
30
0
41
1
10
106.345083405844
20
11.7030225651071
30
0
41
1
10
106.451496151795
20
12.099223456745
30
0
41
1
10
106.664321643697
20
12.771710251365
30
0
41
1
10
106.770734389648
20
13.0480210995794
30
0
41
1
10
106.98355988155
20
13.4814434379556
30
0
41
1
10
107.089972627501
20
13.6386320522838
30
0
41
1
10
107.302798119404
20
13.8431107123654
30
0
41
1
10
107.409210865355
20
13.8905
30
0
41
1
10
107.515623611306
20
13.8905
30
0
0
SPLINE
5
E0
100
AcDbEntity
8
1
62
256
6
ByLayer
370
13
48
1
60
0
100
AcDbSpline
70
4
71
3
72
42
73
38
40
0
40
0
40
0
40
0
40
0.0624999999999994
40
0.0624999999999994
40
0.124999999999999
40
0.124999999999999
40
0.187499999999998
40
0.187499999999998
40
0.249999999999998
40
0.249999999999998
40
0.312499999999997
40
0.312499999999997
40
0.374999999999996
40
0.374999999999996
40
0.437499999999996
40
0.437499999999996
40
0.499999999999995
40
0.499999999999995
40
0.562499999999994
40
0.562499999999994
40
0.624999999999994
40
0.624999999999994
40
0.640624999999994
40
0.640624999999994
40
0.656249999999994
40
0.656249999999994
40
0.687499999999995
40
0.687499999999995
40
0.749999999999996
40
0.749999999999996
40
0.812499999999997
40
0.812499999999997
40
0.874999999999998
40
0.874999999999998
40
0.937499999999999
40
0.937499999999999
40
1
40
1
40
1
40
1
41
1
10
105.071675774079
20
13.8905
30
0
41
1
10
105.173188184222
20
13.8905
30
0
41
1
10
105.274700594365
20
13.8473902719742
30
0
41
1
10
105.47772541465
20
13.6619071389489
30
0
41
1
10
105.579237824793
20
13.519455011869
30
0
41
1
10
105.782262645078
20
13.1267556186206
30
0
41
1
10
105.88377505522
20
12.8764446657274
30
0
41
1
10
106.086799875506
20
12.2663757196142
30
0
41
1
10
106.188312285648
20
11.9065910684314
30
0
41
1
10
106.391337105933
20
11.0842407349081
30
0
41
1
10
106.492849516076
20
10.6217001792039
30
0
41
1
10
106.695874336361
20
9.60888982428284
30
0
41
1
10
106.797386746504
20
9.05869580105789
30
0
41
1
10
107.000411566789
20
7.89248001825601
30
0
41
1
10
107.101923976932
20
7.27656601950019
30
0
41
1
10
107.304948797217
20
6.00482139537218
30
0
41
1
10
107.40646120736
20
5.34910188521729
30
0
41
1
10
107.609486027645
20
4.02426913374208
30
0
41
1
10
107.710998437788
20
3.3552440791006
30
0
41
1
10
107.914023258073
20
2.0278513356013
30
0
41
1
10
108.015535668216
20
1.36953444781923
30
0
41
1
10
108.142426180894
20
0.565456542316383
30
0
41
1
10
108.16780428343
20
0.405569027441516
30
0
41
1
10
108.218560488501
20
0.0878997848558924
30
0
41
1
10
108.243938591036
20
-0.0692850933124021
30
0
41
1
10
108.320072898643
20
-0.545540669687227
30
0
41
1
10
108.370829103715
20
-0.867285497706547
30
0
41
1
10
108.523097718929
20
-1.8421277150278
30
0
41
1
10
108.624610129071
20
-2.50498582986637
30
0
41
1
10
108.827634949356
20
-3.83606214566487
30
0
41
1
10
108.929147359499
20
-4.50422002773746
30
0
41
1
10
109.132172179784
20
-5.82108432638691
30
0
41
1
10
109.233684589927
20
-6.46969518937436
30
0
41
1
10
109.436709410212
20
-7.7208177868003
30
0
41
1
10
109.538221820355
20
-8.32321652212946
30
0
41
1
10
109.74124664064
20
-9.45664194080868
30
0
41
1
10
109.842759050783
20
-9.98756611429252
30
0
41
1
10
109.944271460925
20
-10.4725283888311
30
0
0
SPLINE
5
E1
100
AcDbEntity
8
1
62
256
6
ByLayer
370
13
48
1
60
0
100
AcDbSpline
70
4
71
3
72
87
73
83
40
0
40
0
40
0
40
0
40
0.0156250000000002
40
0.0156250000000002
40
0.0234375000000003
40
0.0234375000000003
40
0.0273437500000005
40
0.0273437500000005
40
0.0312500000000007
40
0.0312500000000007
40
0.0625000000000011
40
0.0625000000000011
40
0.0937500000000016
40
0.0937500000000016
40
0.125000000000002
40
0.125000000000002
40
0.156250000000003
40
0.156250000000003
40
0.187500000000003
40
0.187500000000003
40
0.218750000000004
40
0.218750000000004
40
0.250000000000004
40
0.250000000000004
40
0.281250000000005
40
0.281250000000005
40
0.312500000000005
40
0.312500000000005
40
0.343750000000006
40
0.343750000000006
40
0.347656250000006
40
0.347656250000006
40
0.351562500000006
40
0.351562500000006
40
0.359375000000006
40
0.359375000000006
40
0.375000000000006
40
0.375000000000006
40
0.406250000000007
40
0.406250000000007
40
0.437500000000008
40
0.437500000000008
40
0.468750000000008
40
0.468750000000008
40
0.500000000000009
40
0.500000000000009
40
0.53125000000001
40
0.53125000000001
40
0.562500000000011
40
0.562500000000011
40
0.593750000000011
40
0.593750000000011
40
0.625000000000012
40
0.625000000000012
40
0.656250000000013
40
0.656250000000013
40
0.671875000000013
40
0.671875000000013
40
0.675781250000013
40
0.675781250000013
40
0.679687500000013
40
0.687500000000013
40
0.687500000000013
40
0.718750000000011
40
0.718750000000011
40
0.75000000000001
40
0.75000000000001
40
0.781250000000009
40
0.781250000000009
40
0.812500000000007
40
0.812500000000007
40
0.843750000000006
40
0.843750000000006
40
0.875000000000005
40
0.875000000000005
40
0.906250000000004
40
0.906250000000004
40
0.937500000000002
40
0.937500000000002
40
0.968750000000001
40
0.968750000000001
40
1
40
1
40
1
40
1
41
1
10
97.3
20
1.5639049634122
30
0
41
1
10
97.3506765308069
20
1.23721407067632
30
0
41
1
10
97.4013530616139
20
0.913277497409382
30
0
41
1
10
97.4773678578244
20
0.433152181106976
30
0
41
1
10
97.502706123228
20
0.274071027314193
30
0
41
1
10
97.5407135213331
20
0.037072099765453
30
0
41
1
10
97.5533826540349
20
-0.0415240185707546
30
0
41
1
10
97.5787209194384
20
-0.199543643838211
30
0
41
1
10
97.5913900521401
20
-0.278823481406874
30
0
41
1
10
97.7054122464558
20
-0.994638774907173
30
0
41
1
10
97.8067653080697
20
-1.6474721515867
30
0
41
1
10
98.0094714312976
20
-2.9679945452742
30
0
41
1
10
98.1108244929116
20
-3.63564076533743
30
0
41
1
10
98.3135306161396
20
-4.96268571459692
30
0
41
1
10
98.4148836777534
20
-5.62200349217508
30
0
41
1
10
98.6175898009813
20
-6.90630973289137
30
0
41
1
10
98.7189428625953
20
-7.53119062971774
30
0
41
1
10
98.9216489858233
20
-8.72044954400312
30
0
41
1
10
99.0230020474372
20
-9.28471762267759
30
0
41
1
10
99.225708170665
20
-10.329851966084
30
0
41
1
10
99.327061232279
20
-10.8106347650409
30
0
41
1
10
99.529767355507
20
-11.6721857194863
30
0
41
1
10
99.6311204171209
20
-12.0529181596087
30
0
41
1
10
99.8338265403489
20
-12.7058989212692
30
0
41
1
10
99.9351796019628
20
-12.9781640576686
30
0
41
1
10
100.137885725191
20
-13.4141685934333
30
0
41
1
10
100.239238786805
20
-13.5779653766973
30
0
41
1
10
100.441944910033
20
-13.804247028043
30
0
41
1
10
100.543297971646
20
-13.8668087248318
30
0
41
1
10
100.657320165962
20
-13.887161038055
30
0
41
1
10
100.669989298664
20
-13.8887299411524
30
0
41
1
10
100.695327564067
20
-13.8905104028708
30
0
41
1
10
100.707996696769
20
-13.890724118234
30
0
41
1
10
100.746004094874
20
-13.8893552952829
30
0
41
1
10
100.771342360278
20
-13.8857456975884
30
0
41
1
10
100.847357156488
20
-13.8664961890748
30
0
41
1
10
100.898033687295
20
-13.8424283897544
30
0
41
1
10
101.050063279716
20
-13.7341054281972
30
0
41
1
10
101.15141634133
20
-13.6135567473829
30
0
41
1
10
101.354122464558
20
-13.2662902036711
30
0
41
1
10
101.455475526172
20
-13.0395041489513
30
0
41
1
10
101.6581816494
20
-12.4765177715993
30
0
41
1
10
101.759534711014
20
-12.1402815903704
30
0
41
1
10
101.962240834242
20
-11.3632102739313
30
0
41
1
10
102.063593895856
20
-10.922388570398
30
0
41
1
10
102.266300019084
20
-9.94941392195048
30
0
41
1
10
102.367653080698
20
-9.41732638055441
30
0
41
1
10
102.570359203926
20
-8.28235068703688
30
0
41
1
10
102.671712265539
20
-7.67956483099928
30
0
41
1
10
102.874418388767
20
-6.42839604995049
30
0
41
1
10
102.975771450381
20
-5.78012514054709
30
0
41
1
10
103.178477573609
20
-4.46453636404016
30
0
41
1
10
103.279830635223
20
-3.79731272207056
30
0
41
1
10
103.482536758451
20
-2.46852050434111
30
0
41
1
10
103.583889820065
20
-1.80701103988594
30
0
41
1
10
103.735919412486
20
-0.834362665217384
30
0
41
1
10
103.786595943293
20
-0.513377652003072
30
0
41
1
10
103.849941606802
20
-0.11747007039304
30
0
41
1
10
103.862610739503
20
-0.0386942482759025
30
0
41
1
10
103.887949004907
20
0.118955317941982
30
0
41
1
10
103.925956403012
20
0.356254049607912
30
0
41
1
10
103.963963801117
20
0.595896900906695
30
0
41
1
10
104.090655128135
20
1.39929128917356
30
0
41
1
10
104.192008189749
20
2.05688214538253
30
0
41
1
10
104.394714312977
20
3.38247841043196
30
0
41
1
10
104.49606737459
20
4.05043285820241
30
0
41
1
10
104.698773497818
20
5.37284328927922
30
0
41
1
10
104.800126559432
20
6.02721136904958
30
0
41
1
10
105.00283268266
20
7.29608420258739
30
0
41
1
10
105.104185744274
20
7.91047858622451
30
0
41
1
10
105.306891867502
20
9.07363170110301
30
0
41
1
10
105.408244929116
20
9.62228368288828
30
0
41
1
10
105.610951052344
20
10.6321380152509
30
0
41
1
10
105.712304113958
20
11.0932655221991
30
0
41
1
10
105.915010237186
20
11.9130447630234
30
0
41
1
10
106.0163632988
20
12.2716719051535
30
0
41
1
10
106.219069422028
20
12.8797601123608
30
0
41
1
10
106.320422483642
20
13.1292478461204
30
0
41
1
10
106.52312860687
20
13.5206582378878
30
0
41
1
10
106.624481668483
20
13.6626441697474
30
0
41
1
10
106.827187791711
20
13.8475259930056
30
0
41
1
10
106.928540853325
20
13.8905
30
0
41
1
10
107.029893914939
20
13.8905
30
0
0
SPLINE
5
E2
100
AcDbEntity
8
1
62
256
6
ByLayer
370
13
48
1
60
0
100
AcDbSpline
70
4
71
3
72
52
73
48
40
0
40
0
40
0
40
0
40
0.0624999999999991
40
0.0624999999999991
40
0.124999999999998
40
0.124999999999998
40
0.187499999999997
40
0.187499999999997
40
0.249999999999996
40
0.249999999999996
40
0.281249999999996
40
0.281249999999996
40
0.312499999999995
40
0.312499999999995
40
0.343749999999995
40
0.343749999999995
40
0.374999999999994
40
0.374999999999994
40
0.437499999999993
40
0.437499999999993
40
0.499999999999992
40
0.499999999999992
40
0.562499999999991
40
0.562499999999991
40
0.578124999999991
40
0.578124999999991
40
0.585937499999991
40
0.585937499999991
40
0.593749999999991
40
0.593749999999991
40
0.624999999999992
40
0.624999999999992
40
0.687499999999993
40
0.687499999999993
40
0.749999999999994
40
0.749999999999994
40
0.812499999999996
40
0.812499999999996
40
0.843749999999996
40
0.843749999999996
40
0.874999999999997
40
0.874999999999997
40
0.906249999999998
40
0.906249999999998
40
0.937499999999999
40
0.937499999999999
40
1
40
1
40
1
40
1
41
1
10
104.585946077713
20
13.8905
30
0
41
1
10
104.69757785653
20
13.8905
30
0
41
1
10
104.809209635347
20
13.8383269883403
30
0
41
1
10
105.032473192981
20
13.6125393556617
30
0
41
1
10
105.144104971797
20
13.4387992958324
30
0
41
1
10
105.367368529431
20
12.9596986339085
30
0
41
1
10
105.479000308248
20
12.6542451466581
30
0
41
1
10
105.702263865882
20
11.9121308133597
30
0
41
1
10
105.813895644699
20
11.4754506526739
30
0
41
1
10
105.981343312924
20
10.7316533187007
30
0
41
1
10
106.037159202333
20
10.4690234158726
30
0
41
1
10
106.14879098115
20
9.91708791897474
30
0
41
1
10
106.204606870558
20
9.62778604969893
30
0
41
1
10
106.316238649375
20
9.02586633183739
30
0
41
1
10
106.372054538784
20
8.71325329863987
30
0
41
1
10
106.483686317601
20
8.06857740812436
30
0
41
1
10
106.539502207009
20
7.7365200596978
30
0
41
1
10
106.706949875235
20
6.71749742037949
30
0
41
1
10
106.818581654051
20
6.0076945577718
30
0
41
1
10
107.041845211685
20
4.56235303381396
30
0
41
1
10
107.153476990502
20
3.82697053706551
30
0
41
1
10
107.376740548136
20
2.36365112778941
30
0
41
1
10
107.488372326953
20
1.63580878726376
30
0
41
1
10
107.627912050474
20
0.747504508246323
30
0
41
1
10
107.655819995178
20
0.570900300351184
30
0
41
1
10
107.697681912235
20
0.307835797159242
30
0
41
1
10
107.711635884587
20
0.220454350057537
30
0
41
1
10
107.739543829291
20
0.046344717327031
30
0
41
1
10
107.753497801643
20
-0.0402076981110326
30
0
41
1
10
107.823267663404
20
-0.475404792437246
30
0
41
1
10
107.879083552812
20
-0.828815722752836
30
0
41
1
10
108.046531221037
20
-1.90070384307583
30
0
41
1
10
108.158162999854
20
-2.63105717748706
30
0
41
1
10
108.381426557488
20
-4.09564016863987
30
0
41
1
10
108.493058336305
20
-4.82976681372364
30
0
41
1
10
108.716321893939
20
-6.26829953006046
30
0
41
1
10
108.827953672756
20
-6.9725438175646
30
0
41
1
10
108.995401340982
20
-7.98004066131827
30
0
41
1
10
109.05121723039
20
-8.3077298925767
30
0
41
1
10
109.162849009207
20
-8.94268690949113
30
0
41
1
10
109.218664898615
20
-9.24994931465997
30
0
41
1
10
109.330296677432
20
-9.84029495121251
30
0
41
1
10
109.386112566841
20
-10.1233736003651
30
0
41
1
10
109.497744345658
20
-10.6621342258014
30
0
41
1
10
109.553560235066
20
-10.9178127917502
30
0
41
1
10
109.721007903291
20
-11.6399194512131
30
0
41
1
10
109.832639682108
20
-12.0610222583329
30
0
41
1
10
109.944271460925
20
-12.4161407517793
30
0
0
SPLINE
5
E3
100
AcDbEntity
8
1
62
256
6
ByLayer
370
13
48
1
60
0
100
AcDbSpline
70
4
71
3
72
79
73
75
40
0
40
0
40
0
40
0
40
0.0312499999999996
40
0.0312499999999996
40
0.0624999999999992
40
0.0624999999999992
40
0.0937499999999988
40
0.0937499999999988
40
0.124999999999998
40
0.124999999999998
40
0.156249999999998
40
0.156249999999998
40
0.187499999999998
40
0.187499999999998
40
0.218749999999997
40
0.218749999999997
40
0.249999999999997
40
0.249999999999997
40
0.281249999999996
40
0.281249999999996
40
0.312499999999996
40
0.312499999999996
40
0.320312499999996
40
0.320312499999996
40
0.328124999999996
40
0.328124999999996
40
0.343749999999996
40
0.343749999999996
40
0.374999999999997
40
0.374999999999997
40
0.406249999999997
40
0.406249999999997
40
0.437499999999997
40
0.437499999999997
40
0.468749999999997
40
0.468749999999997
40
0.499999999999998
40
0.499999999999998
40
0.531249999999998
40
0.531249999999998
40
0.562499999999998
40
0.562499999999998
40
0.593749999999999
40
0.593749999999999
40
0.624999999999999
40
0.624999999999999
40
0.656249999999999
40
0.656249999999999
40
0.660156249999999
40
0.660156249999999
40
0.664062499999999
40
0.671874999999999
40
0.671874999999999
40
0.6875
40
0.6875
40
0.71875
40
0.71875
40
0.75
40
0.75
40
0.78125
40
0.78125
40
0.8125
40
0.8125
40
0.84375
40
0.84375
40
0.875
40
0.875
40
0.90625
40
0.90625
40
0.9375
40
0.9375
40
0.96875
40
0.96875
40
1
40
1
40
1
40
1
41
1
10
97.3
20
-1.51460343594255
30
0
41
1
10
97.3962933772768
20
-2.13483773914413
30
0
41
1
10
97.4925867545536
20
-2.76534498425522
30
0
41
1
10
97.6851735091072
20
-4.02877277928255
30
0
41
1
10
97.7814668863841
20
-4.66164357448491
30
0
41
1
10
97.9740536409377
20
-5.90839276200569
30
0
41
1
10
98.0703470182144
20
-6.52219635869903
30
0
41
1
10
98.262933772768
20
-7.70806602350655
30
0
41
1
10
98.3592271500448
20
-8.28004516192732
30
0
41
1
10
98.5518139045984
20
-9.36066613105697
30
0
41
1
10
98.6481072818752
20
-9.86922834815979
30
0
41
1
10
98.8406940364288
20
-10.8051382634028
30
0
41
1
10
98.9369874137056
20
-11.2324328430164
30
0
41
1
10
99.1295741682591
20
-11.9937139869301
30
0
41
1
10
99.225867545536
20
-12.327685285183
30
0
41
1
10
99.4184543000896
20
-12.8970695220902
30
0
41
1
10
99.5147476773663
20
-13.1325045931842
30
0
41
1
10
99.70733443192
20
-13.5062930267722
30
0
41
1
10
99.8036278091968
20
-13.6446952599078
30
0
41
1
10
99.9962145637504
20
-13.8315079234957
30
0
41
1
10
100.092507941027
20
-13.8799786813674
30
0
41
1
10
100.212874662623
20
-13.8912001351631
30
0
41
1
10
100.236948006942
20
-13.8910090741056
30
0
41
1
10
100.285094695581
20
-13.8857333632437
30
0
41
1
10
100.3091680399
20
-13.8806264811236
30
0
41
1
10
100.381388072858
20
-13.8576205530332
30
0
41
1
10
100.429534761496
20
-13.8320301594565
30
0
41
1
10
100.573974827411
20
-13.7224636968805
30
0
41
1
10
100.670268204688
20
-13.6055495293233
30
0
41
1
10
100.862854959242
20
-13.2759348385751
30
0
41
1
10
100.959148336518
20
-13.0631814201054
30
0
41
1
10
101.151735091072
20
-12.5389460340284
30
0
41
1
10
101.248028468349
20
-12.2274345661927
30
0
41
1
10
101.440615222902
20
-11.5092629322392
30
0
41
1
10
101.536908600179
20
-11.1026089534238
30
0
41
1
10
101.729495354733
20
-10.2046452035337
30
0
41
1
10
101.825788732009
20
-9.71338044533465
30
0
41
1
10
102.018375486563
20
-8.66283397981891
30
0
41
1
10
102.11466886384
20
-8.10362731441069
30
0
41
1
10
102.307255618393
20
-6.93813557480428
30
0
41
1
10
102.40354899567
20
-6.33193758953419
30
0
41
1
10
102.596135750224
20
-5.09519386053688
30
0
41
1
10
102.692429127501
20
-4.46472716390571
30
0
41
1
10
102.885015882054
20
-3.20140066150108
30
0
41
1
10
102.981309259331
20
-2.56859702842186
30
0
41
1
10
103.173896013885
20
-1.31969699283209
30
0
41
1
10
103.270189391161
20
-0.703628161889867
30
0
41
1
10
103.378519440598
20
-0.028372793643257
30
0
41
1
10
103.390556112757
20
0.0463081763262778
30
0
41
1
10
103.414629457077
20
0.196442887251351
30
0
41
1
10
103.450739473555
20
0.422375738116642
30
0
41
1
10
103.486849490034
20
0.650388516696466
30
0
41
1
10
103.559069522992
20
1.10886269770833
30
0
41
1
10
103.60721621163
20
1.41778548264739
30
0
41
1
10
103.751656277546
20
2.35146341643386
30
0
41
1
10
103.847949654822
20
2.98324282256863
30
0
41
1
10
104.040536409376
20
4.24688857640956
30
0
41
1
10
104.136829786653
20
4.87870193044731
30
0
41
1
10
104.329416541206
20
6.12074504170539
30
0
41
1
10
104.425709918483
20
6.73089778382811
30
0
41
1
10
104.618296673037
20
7.90687282716516
30
0
41
1
10
104.714590050314
20
8.47260798381245
30
0
41
1
10
104.907176804867
20
9.53844944191192
30
0
41
1
10
105.003470182144
20
10.0384782880174
30
0
41
1
10
105.196056936698
20
10.9556058011503
30
0
41
1
10
105.292350313974
20
11.3726553336938
30
0
41
1
10
105.484937068528
20
12.112485993704
30
0
41
1
10
105.581230445805
20
12.435256407853
30
0
41
1
10
105.773817200358
20
12.9820797994826
30
0
41
1
10
105.870110577635
20
13.206158672947
30
0
41
1
10
106.062697332189
20
13.5577932265034
30
0
41
1
10
106.158990709465
20
13.6853998947935
30
0
41
1
10
106.351577464019
20
13.8517229421712
30
0
41
1
10
106.447870841296
20
13.8905
30
0
41
1
10
106.544164218573
20
13.8905
30
0
0
SPLINE
5
E4
100
AcDbEntity
8
1
62
256
6
ByLayer
370
13
48
1
60
0
100
AcDbSpline
70
4
71
3
72
74
73
70
40
0
40
0
40
0
40
0
40
0.0312499999999994
40
0.0312499999999994
40
0.0624999999999988
40
0.0624999999999988
40
0.0937499999999982
40
0.0937499999999982
40
0.124999999999998
40
0.124999999999998
40
0.156249999999997
40
0.156249999999997
40
0.187499999999996
40
0.187499999999996
40
0.218749999999996
40
0.218749999999996
40
0.249999999999995
40
0.249999999999995
40
0.281249999999995
40
0.281249999999995
40
0.312499999999994
40
0.312499999999994
40
0.343749999999993
40
0.343749999999993
40
0.374999999999993
40
0.374999999999993
40
0.406249999999992
40
0.406249999999992
40
0.437499999999991
40
0.437499999999991
40
0.468749999999991
40
0.468749999999991
40
0.49999999999999
40
0.49999999999999
40
0.531249999999989
40
0.531249999999989
40
0.539062499999989
40
0.539062499999989
40
0.546874999999989
40
0.546874999999989
40
0.56249999999999
40
0.56249999999999
40
0.59374999999999
40
0.59374999999999
40
0.624999999999991
40
0.624999999999991
40
0.656249999999992
40
0.656249999999992
40
0.687499999999993
40
0.687499999999993
40
0.718749999999993
40
0.718749999999993
40
0.749999999999994
40
0.749999999999994
40
0.781249999999995
40
0.781249999999995
40
0.812499999999996
40
0.812499999999996
40
0.843749999999996
40
0.843749999999996
40
0.874999999999997
40
0.874999999999997
40
0.906249999999998
40
0.906249999999998
40
0.937499999999999
40
0.937499999999999
40
0.968749999999999
40
0.968749999999999
40
1
40
1
40
1
40
1
41
1
10
104.100216381346
20
13.8905
30
0
41
1
10
104.161091955092
20
13.8905
30
0
41
1
10
104.221967528837
20
13.8750299311727
30
0
41
1
10
104.343718676329
20
13.8101882232208
30
0
41
1
10
104.404594250074
20
13.7608104284773
30
0
41
1
10
104.526345397566
20
13.625660750375
30
0
41
1
10
104.587220971311
20
13.5398828068155
30
0
41
1
10
104.708972118802
20
13.3301060234984
30
0
41
1
10
104.769847692548
20
13.2061018145027
30
0
41
1
10
104.891598840039
20
12.918885259646
30
0
41
1
10
104.952474413785
20
12.7556688775841
30
0
41
1
10
105.074225561276
20
12.3900238976493
30
0
41
1
10
105.135101135022
20
12.1875931893176
30
0
41
1
10
105.256852282513
20
11.744593054585
30
0
41
1
10
105.317727856259
20
11.5040238780827
30
0
41
1
10
105.43947900375
20
10.9869272812148
30
0
41
1
10
105.500354577495
20
10.71040265081
30
0
41
1
10
105.622105724987
20
10.1246374144676
30
0
41
1
10
105.682981298732
20
9.81540200526149
30
0
41
1
10
105.804732446223
20
9.16839863650372
30
0
41
1
10
105.865608019969
20
8.83063783464283
30
0
41
1
10
105.98735916746
20
8.13152092145251
30
0
41
1
10
106.048234741206
20
7.77017323420344
30
0
41
1
10
106.169985888697
20
7.02933697395642
30
0
41
1
10
106.230861462443
20
6.64985726168322
30
0
41
1
10
106.352612609934
20
5.87846597733565
30
0
41
1
10
106.41348818368
20
5.48656287333353
30
0
41
1
10
106.535239331171
20
4.69602532493994
30
0
41
1
10
106.596114904917
20
4.29739825208139
30
0
41
1
10
106.717866052408
20
3.49886460205337
30
0
41
1
10
106.778741626153
20
3.098963808847
30
0
41
1
10
106.900492773645
20
2.30288684620262
30
0
41
1
10
106.96136834739
20
1.90671463146583
30
0
41
1
10
107.083119494881
20
1.12250445685342
30
0
41
1
10
107.143995068627
20
0.734468617286694
30
0
41
1
10
107.220089535809
20
0.256835347118852
30
0
41
1
10
107.235308429245
20
0.161677530728753
30
0
41
1
10
107.265746216118
20
-0.0278493096138277
30
0
41
1
10
107.280965109555
20
-0.122397843667358
30
0
41
1
10
107.326621789864
20
-0.407917992852447
30
0
41
1
10
107.357059576737
20
-0.599790396019557
30
0
41
1
10
107.448372937355
20
-1.17933626691169
30
0
41
1
10
107.509248511101
20
-1.57095993355711
30
0
41
1
10
107.630999658592
20
-2.36073898673044
30
0
41
1
10
107.691875232338
20
-2.75889156456094
30
0
41
1
10
107.813626379829
20
-3.55708153709873
30
0
41
1
10
107.874501953574
20
-3.95711426526725
30
0
41
1
10
107.996253101066
20
-4.75387250318607
30
0
41
1
10
108.057128674811
20
-5.15059157991615
30
0
41
1
10
108.178879822303
20
-5.93515243058746
30
0
41
1
10
108.239755396048
20
-6.32298634298999
30
0
41
1
10
108.361506543539
20
-7.08404472142703
30
0
41
1
10
108.422382117285
20
-7.45726047698202
30
0
41
1
10
108.544133264776
20
-8.18343940436463
30
0
41
1
10
108.605008838522
20
-8.53639378141312
30
0
41
1
10
108.726759986013
20
-9.21676152601944
30
0
41
1
10
108.787635559759
20
-9.54416685999755
30
0
41
1
10
108.90938670725
20
-10.1687585512052
30
0
41
1
10
108.970262280995
20
-10.465938429668
30
0
41
1
10
109.092013428487
20
-11.0262323709539
30
0
41
1
10
109.152889002232
20
-11.2893421205129
30
0
41
1
10
109.274640149724
20
-11.7786441288428
30
0
41
1
10
109.335515723469
20
-12.0048345704122
30
0
41
1
10
109.45726687096
20
-12.4185344008924
30
0
41
1
10
109.518142444706
20
-12.6060444789093
30
0
41
1
10
109.639893592197
20
-12.9417247897929
30
0
41
1
10
109.700769165943
20
-13.0898979314244
30
0
41
1
10
109.822520313434
20
-13.3472950045611
30
0
41
1
10
109.88339588718
20
-13.4565235567675
30
0
41
1
10
109.944271460925
20
-13.5469399907743
30
0
0
SPLINE
5
E5
100
AcDbEntity
8
1
62
256
6
ByLayer
370
13
48
1
60
0
100
AcDbSpline
70
4
71
3
72
80
73
76
40
0
40
0
40
0
40
0
40
0.0312500000000025
40
0.0312500000000025
40
0.062500000000005
40
0.062500000000005
40
0.0937500000000074
40
0.0937500000000074
40
0.12500000000001
40
0.12500000000001
40
0.156250000000012
40
0.156250000000012
40
0.187500000000015
40
0.187500000000015
40
0.218750000000017
40
0.218750000000017
40
0.25000000000002
40
0.25000000000002
40
0.265625000000021
40
0.265625000000021
40
0.273437500000021
40
0.277343750000021
40
0.277343750000021
40
0.281250000000021
40
0.281250000000021
40
0.312500000000021
40
0.312500000000021
40
0.343750000000022
40
0.343750000000022
40
0.375000000000022
40
0.375000000000022
40
0.406250000000022
40
0.406250000000022
40
0.437500000000022
40
0.437500000000022
40
0.468750000000022
40
0.468750000000022
40
0.500000000000022
40
0.500000000000022
40
0.531250000000022
40
0.531250000000022
40
0.562500000000022
40
0.562500000000022
40
0.593750000000022
40
0.593750000000022
40
0.625000000000022
40
0.625000000000022
40
0.632812500000022
40
0.636718750000022
40
0.636718750000022
40
0.640625000000022
40
0.640625000000022
40
0.656250000000021
40
0.656250000000021
40
0.687500000000019
40
0.687500000000019
40
0.718750000000017
40
0.718750000000017
40
0.750000000000015
40
0.750000000000015
40
0.781250000000013
40
0.781250000000013
40
0.812500000000011
40
0.812500000000011
40
0.843750000000009
40
0.843750000000009
40
0.875000000000008
40
0.875000000000008
40
0.906250000000006
40
0.906250000000006
40
0.937500000000004
40
0.937500000000004
40
0.968750000000002
40
0.968750000000002
40
1
40
1
40
1
40
1
41
1
10
97.3000000000001
20
-4.68667932124166
30
0
41
1
10
97.3912336929397
20
-5.28202225491913
30
0
41
1
10
97.4824673858793
20
-5.87195063161121
30
0
41
1
10
97.6649347717586
20
-7.02191514626816
30
0
41
1
10
97.7561684646982
20
-7.58188673153563
30
0
41
1
10
97.9386358505775
20
-8.65291872719038
30
0
41
1
10
98.0298695435172
20
-9.16391396838858
30
0
41
1
10
98.2123369293965
20
-10.1201190660904
30
0
41
1
10
98.3035706223362
20
-10.5652771089198
30
0
41
1
10
98.4860380082154
20
-11.376886798893
30
0
41
1
10
98.577271701155
20
-11.7433109357399
30
0
41
1
10
98.7597390870343
20
-12.389712193236
30
0
41
1
10
98.850972779974
20
-12.6696901981129
30
0
41
1
10
99.0334401658533
20
-13.1410466662418
30
0
41
1
10
99.124673858793
20
-13.3324507915671
30
0
41
1
10
99.3071412446723
20
-13.6296761758335
30
0
41
1
10
99.3983749376119
20
-13.7355388352165
30
0
41
1
10
99.5352254770214
20
-13.8355017751358
30
0
41
1
10
99.5808423234911
20
-13.8590456466974
30
0
41
1
10
99.6492675931959
20
-13.880565959191
30
0
41
1
10
99.6834802280484
20
-13.8878790525396
30
0
41
1
10
99.7176928629006
20
-13.8901990097134
30
0
41
1
10
99.7405012861356
20
-13.8906566023115
30
0
41
1
10
99.751905497753
20
-13.8903435445534
30
0
41
1
10
99.8545434023101
20
-13.8825782069709
30
0
41
1
10
99.9457770952497
20
-13.8403546767673
30
0
41
1
10
100.128244481129
20
-13.6758853738542
30
0
41
1
10
100.219478174069
20
-13.5535933019396
30
0
41
1
10
100.401945559948
20
-13.2225428593788
30
0
41
1
10
100.493179252888
20
-13.0137453471924
30
0
41
1
10
100.675646638767
20
-12.5075850279295
30
0
41
1
10
100.766880331707
20
-12.2102008534387
30
0
41
1
10
100.949347717586
20
-11.5300617986853
30
0
41
1
10
101.040581410526
20
-11.1473115799398
30
0
41
1
10
101.223048796405
20
-10.3052069150938
30
0
41
1
10
101.314282489345
20
-9.84588535112789
30
0
41
1
10
101.496749875224
20
-8.86441436480078
30
0
41
1
10
101.587983568163
20
-8.34232042343066
30
0
41
1
10
101.770450954043
20
-7.25273618479204
30
0
41
1
10
101.861684646982
20
-6.68531205072998
30
0
41
1
10
102.044152032862
20
-5.52427877937177
30
0
41
1
10
102.135385725801
20
-4.93073250480455
30
0
41
1
10
102.317853111681
20
-3.73645689471994
30
0
41
1
10
102.40908680462
20
-3.13577582001068
30
0
41
1
10
102.591554190499
20
-1.94431675711993
30
0
41
1
10
102.682787883439
20
-1.35356677779495
30
0
41
1
10
102.796829999614
20
-0.630075095495812
30
0
41
1
10
102.831042634466
20
-0.414135910797938
30
0
41
1
10
102.865255269318
20
-0.200065673836178
30
0
41
1
10
102.888063692553
20
-0.0577887785885025
30
0
41
1
10
102.899467904171
20
0.0129866211031811
30
0
41
1
10
102.956488962258
20
0.368216928934743
30
0
41
1
10
103.002105808728
20
0.655939507474983
30
0
41
1
10
103.138956348137
20
1.52753679505568
30
0
41
1
10
103.230190041077
20
2.11994524814085
30
0
41
1
10
103.412657426956
20
3.31316199210215
30
0
41
1
10
103.503891119896
20
3.91394020003284
30
0
41
1
10
103.686358505775
20
5.10659947629989
30
0
41
1
10
103.777592198715
20
5.69843048878292
30
0
41
1
10
103.960059584594
20
6.85411707665298
30
0
41
1
10
104.051293277534
20
7.41790888580206
30
0
41
1
10
104.233760663413
20
8.49839535223549
30
0
41
1
10
104.324994356353
20
9.01502427306346
30
0
41
1
10
104.507461742232
20
9.98401226591307
30
0
41
1
10
104.598695435172
20
10.4363176330803
30
0
41
1
10
104.781162821051
20
11.2632807974688
30
0
41
1
10
104.872396513991
20
11.6379083742998
30
0
41
1
10
105.05486389987
20
12.3012317767746
30
0
41
1
10
105.14609759281
20
12.589925728872
30
0
41
1
10
105.328564978689
20
13.0786840478507
30
0
41
1
10
105.419798671628
20
13.2787719733204
30
0
41
1
10
105.602266057508
20
13.5928632782585
30
0
41
1
10
105.693499750448
20
13.7069069819926
30
0
41
1
10
105.875967136327
20
13.855702116347
30
0
41
1
10
105.967200829266
20
13.8905
30
0
41
1
10
106.058434522206
20
13.8905
30
0
0
SPLINE
5
E6
100
AcDbEntity
8
1
62
256
6
ByLayer
370
13
48
1
60
0
100
AcDbSpline
70
4
71
3
72
78
73
74
40
0
40
0
40
0
40
0
40
0.0312499999999997
40
0.0312499999999997
40
0.0624999999999994
40
0.0624999999999994
40
0.0937499999999991
40
0.0937499999999991
40
0.124999999999999
40
0.124999999999999
40
0.156249999999998
40
0.156249999999998
40
0.187499999999998
40
0.187499999999998
40
0.218749999999998
40
0.218749999999998
40
0.249999999999998
40
0.249999999999998
40
0.281249999999997
40
0.281249999999997
40
0.312499999999997
40
0.312499999999997
40
0.343749999999997
40
0.343749999999997
40
0.374999999999996
40
0.374999999999996
40
0.406249999999996
40
0.406249999999996
40
0.437499999999996
40
0.437499999999996
40
0.468749999999995
40
0.468749999999995
40
0.484374999999995
40
0.484374999999995
40
0.492187499999995
40
0.492187499999995
40
0.499999999999995
40
0.499999999999995
40
0.531249999999995
40
0.531249999999995
40
0.562499999999996
40
0.562499999999996
40
0.593749999999996
40
0.593749999999996
40
0.624999999999996
40
0.624999999999996
40
0.656249999999997
40
0.656249999999997
40
0.687499999999997
40
0.687499999999997
40
0.718749999999998
40
0.718749999999998
40
0.749999999999998
40
0.749999999999998
40
0.781249999999998
40
0.781249999999998
40
0.812499999999999
40
0.812499999999999
40
0.843749999999999
40
0.843749999999999
40
0.874999999999999
40
0.874999999999999
40
0.90625
40
0.90625
40
0.9375
40
0.9375
40
0.96875
40
0.96875
40
0.984375
40
0.984375
40
0.9921875
40
0.9921875
40
1
40
1
40
1
40
1
41
1
10
103.614486684979
20
13.8905
30
0
41
1
10
103.680421943062
20
13.8905
30
0
41
1
10
103.746357201145
20
13.8723479786747
30
0
41
1
10
103.878227717311
20
13.7959987265744
30
0
41
1
10
103.944162975393
20
13.7377923077303
30
0
41
1
10
104.076033491559
20
13.5782581801685
30
0
41
1
10
104.141968749642
20
13.476921551747
30
0
41
1
10
104.273839265807
20
13.2290084346378
30
0
41
1
10
104.33977452389
20
13.0824243563818
30
0
41
1
10
104.471645040056
20
12.7431072063093
30
0
41
1
10
104.537580298138
20
12.5503689894674
30
0
41
1
10
104.669450814304
20
12.1192391959528
30
0
41
1
10
104.735386072387
20
11.8808458800576
30
0
41
1
10
104.867256588552
20
11.3604130453009
30
0
41
1
10
104.933191846635
20
11.0783757820702
30
0
41
1
10
105.0650623628
20
10.4741678232555
30
0
41
1
10
105.130997620883
20
10.1520034250543
30
0
41
1
10
105.262868137049
20
9.47243088538661
30
0
41
1
10
105.328803395132
20
9.11503252613423
30
0
41
1
10
105.460673911297
20
8.37101472923797
30
0
41
1
10
105.52660916938
20
7.98440747519032
30
0
41
1
10
105.658479685545
20
7.18879338249542
30
0
41
1
10
105.724414943628
20
6.77979972096219
30
0
41
1
10
105.856285459794
20
5.94664704085341
30
0
41
1
10
105.922220717876
20
5.52250073124407
30
0
41
1
10
106.054091234042
20
4.66629579907644
30
0
41
1
10
106.120026492125
20
4.23424816414223
30
0
41
1
10
106.25189700829
20
3.36915240239725
30
0
41
1
10
106.317832266373
20
2.9361126835355
30
0
41
1
10
106.449702782539
20
2.07530949359907
30
0
41
1
10
106.515638040621
20
1.64755146260288
30
0
41
1
10
106.614540927746
20
1.01394624939624
30
0
41
1
10
106.647508556787
20
0.804076067054979
30
0
41
1
10
106.696960000349
20
0.491709855577938
30
0
41
1
10
106.71344381487
20
0.387993818423467
30
0
41
1
10
106.746411443911
20
0.181441653533994
30
0
41
1
10
106.762895258432
20
0.0787338821973833
30
0
41
1
10
106.845314331035
20
-0.433813098363913
30
0
41
1
10
106.911249589118
20
-0.851363153343414
30
0
41
1
10
107.043120105284
20
-1.69698495374638
30
0
41
1
10
107.109055363366
20
-2.12505406983499
30
0
41
1
10
107.240925879532
20
-2.98625157195292
30
0
41
1
10
107.306861137615
20
-3.41937440151221
30
0
41
1
10
107.43873165378
20
-4.28437949474329
30
0
41
1
10
107.504666911863
20
-4.71625324044891
30
0
41
1
10
107.636537428029
20
-5.57183429418498
30
0
41
1
10
107.702472686111
20
-5.99553052914459
30
0
41
1
10
107.834343202277
20
-6.8275005760029
30
0
41
1
10
107.90027846036
20
-7.2357616354785
30
0
41
1
10
108.032148976525
20
-8.02963648076476
30
0
41
1
10
108.098084234608
20
-8.4152371001706
30
0
41
1
10
108.229954750773
20
-9.15699138117373
30
0
41
1
10
108.295890008856
20
-9.51313292714161
30
0
41
1
10
108.427760525022
20
-10.1899795680312
30
0
41
1
10
108.493695783104
20
-10.5106749982423
30
0
41
1
10
108.62556629927
20
-11.1117820783736
30
0
41
1
10
108.691501557353
20
-11.3921875806768
30
0
41
1
10
108.823372073518
20
-11.9092505514052
30
0
41
1
10
108.889307331601
20
-12.1459059234033
30
0
41
1
10
109.021177847767
20
-12.5735126321497
30
0
41
1
10
109.087113105849
20
-12.7644658538065
30
0
41
1
10
109.218983622015
20
-13.1002228460331
30
0
41
1
10
109.284918880098
20
-13.2450318757212
30
0
41
1
10
109.416789396263
20
-13.4894556813502
30
0
41
1
10
109.482724654346
20
-13.5890781192661
30
0
41
1
10
109.614595170512
20
-13.7452866995889
30
0
41
1
10
109.680530428594
20
-13.8018817908948
30
0
41
1
10
109.779433315718
20
-13.8568275795104
30
0
41
1
10
109.81240094476
20
-13.8701582520943
30
0
41
1
10
109.861852388322
20
-13.8830171979005
30
0
41
1
10
109.878336202843
20
-13.8861143039094
30
0
41
1
10
109.911303831884
20
-13.889989991965
30
0
41
1
10
109.927787646405
20
-13.8907698426921
30
0
41
1
10
109.944271460925
20
-13.8904185522168
30
0
0
SPLINE
5
E7
100
AcDbEntity
8
1
62
256
6
ByLayer
370
13
48
1
60
0
100
AcDbSpline
70
4
71
3
72
79
73
75
40
0
40
0
40
0
40
0
40
0.0312500000000018
40
0.0312500000000018
40
0.0625000000000035
40
0.0625000000000035
40
0.0937500000000053
40
0.0937500000000053
40
0.125000000000007
40
0.125000000000007
40
0.156250000000009
40
0.156250000000009
40
0.187500000000011
40
0.187500000000011
40
0.218750000000012
40
0.218750000000012
40
0.234375000000013
40
0.234375000000013
40
0.238281250000013
40
0.238281250000013
40
0.242187500000014
40
0.250000000000014
40
0.250000000000014
40
0.281250000000013
40
0.281250000000013
40
0.312500000000013
40
0.312500000000013
40
0.343750000000012
40
0.343750000000012
40
0.375000000000012
40
0.375000000000012
40
0.406250000000011
40
0.406250000000011
40
0.437500000000011
40
0.437500000000011
40
0.46875000000001
40
0.46875000000001
40
0.50000000000001
40
0.50000000000001
40
0.531250000000009
40
0.531250000000009
40
0.562500000000009
40
0.562500000000009
40
0.593750000000008
40
0.593750000000008
40
0.609375000000008
40
0.609375000000008
40
0.617187500000008
40
0.617187500000008
40
0.625000000000008
40
0.625000000000008
40
0.656250000000007
40
0.656250000000007
40
0.687500000000007
40
0.687500000000007
40
0.718750000000006
40
0.718750000000006
40
0.750000000000005
40
0.750000000000005
40
0.781250000000005
40
0.781250000000005
40
0.812500000000004
40
0.812500000000004
40
0.843750000000003
40
0.843750000000003
40
0.875000000000003
40
0.875000000000003
40
0.906250000000002
40
0.906250000000002
40
0.937500000000001
40
0.937500000000001
40
0.968750000000001
40
0.968750000000001
40
1
40
1
40
1
40
1
41
1
10
97.3
20
-7.75179066518621
30
0
41
1
10
97.3861740086025
20
-8.26755555499443
30
0
41
1
10
97.472348017205
20
-8.76331442659597
30
0
41
1
10
97.64469603441
20
-9.7000941228994
30
0
41
1
10
97.7308700430125
20
-10.1410721291052
30
0
41
1
10
97.9032180602175
20
-10.9562431260417
30
0
41
1
10
97.9893920688201
20
-11.3304086261166
30
0
41
1
10
98.161740086025
20
-12.0037706892433
30
0
41
1
10
98.2479140946275
20
-12.302959578622
30
0
41
1
10
98.4202621118325
20
-12.822587921619
30
0
41
1
10
98.506436120435
20
-13.0430390251514
30
0
41
1
10
98.6787841376399
20
-13.4057484492498
30
0
41
1
10
98.7649581462424
20
-13.5480329829442
30
0
41
1
10
98.9373061634474
20
-13.7587134282973
30
0
41
1
10
99.0234801720499
20
-13.8271431565418
30
0
41
1
10
99.1527411849536
20
-13.8797137076959
30
0
41
1
10
99.1958281892548
20
-13.8889102436649
30
0
41
1
10
99.2496869446313
20
-13.8906609351215
30
0
41
1
10
99.2604586957068
20
-13.8905266115705
30
0
41
1
10
99.2820021978574
20
-13.8892820015939
30
0
41
1
10
99.3143174510833
20
-13.8859468976416
30
0
41
1
10
99.3466327043093
20
-13.8781299217945
30
0
41
1
10
99.4543502150624
20
-13.8417835231486
30
0
41
1
10
99.5405242236649
20
-13.7796960764662
30
0
41
1
10
99.7128722408699
20
-13.5822428721108
30
0
41
1
10
99.7990462494723
20
-13.4468429660416
30
0
41
1
10
99.9713942666774
20
-13.0981511875098
30
0
41
1
10
100.05756827528
20
-12.8848321172197
30
0
41
1
10
100.229916292485
20
-12.3793487650843
30
0
41
1
10
100.316090301087
20
-12.0871712751628
30
0
41
1
10
100.488438318292
20
-11.4273109593374
30
0
41
1
10
100.574612326895
20
-11.0596339706087
30
0
41
1
10
100.7469603441
20
-10.2565347231872
30
0
41
1
10
100.833134352702
20
-9.821138281142
30
0
41
1
10
101.005482369907
20
-8.89430441687111
30
0
41
1
10
101.09165637851
20
-8.4029087302585
30
0
41
1
10
101.264004395715
20
-7.37869111415532
30
0
41
1
10
101.350178404317
20
-6.84591880925546
30
0
41
1
10
101.522526421522
20
-5.75506874461496
30
0
41
1
10
101.608700430125
20
-5.19703906057185
30
0
41
1
10
101.78104844733
20
-4.07179897952943
30
0
41
1
10
101.867222455932
20
-3.50462716296224
30
0
41
1
10
102.039570473137
20
-2.37590334396251
30
0
41
1
10
102.12574448174
20
-1.81437593279361
30
0
41
1
10
102.255005494643
20
-0.985685882282667
30
0
41
1
10
102.298092498945
20
-0.711702628886002
30
0
41
1
10
102.362723005396
20
-0.305074186534057
30
0
41
1
10
102.384266507547
20
-0.170254383303842
30
0
41
1
10
102.427353511848
20
0.0977934015327548
30
0
41
1
10
102.448897013999
20
0.232086592731463
30
0
41
1
10
102.556614524752
20
0.908485556327122
30
0
41
1
10
102.642788533355
20
1.46150036556043
30
0
41
1
10
102.81513655056
20
2.58033120927161
30
0
41
1
10
102.901310559162
20
3.14613076387172
30
0
41
1
10
103.073658576367
20
4.2769147111556
30
0
41
1
10
103.15983258497
20
4.84186784702999
30
0
41
1
10
103.332180602175
20
5.95543647079214
30
0
41
1
10
103.418354610777
20
6.50400826595944
30
0
41
1
10
103.590702627982
20
7.56852290895097
30
0
41
1
10
103.676876636585
20
8.08441584019729
30
0
41
1
10
103.84922465379
20
9.06794452583739
30
0
41
1
10
103.935398662392
20
9.53553308856345
30
0
41
1
10
104.107746679597
20
10.4089809477442
30
0
41
1
10
104.193920688199
20
10.8148049471762
30
0
41
1
10
104.366268705404
20
11.5546794596228
30
0
41
1
10
104.452442714007
20
11.8887130406818
30
0
41
1
10
104.624790731212
20
12.4791951258426
30
0
41
1
10
104.710964739815
20
12.7356468602128
30
0
41
1
10
104.883312757019
20
13.1695939278529
30
0
41
1
10
104.969486765622
20
13.347109636372
30
0
41
1
10
105.141834782827
20
13.6258837398204
30
0
41
1
10
105.228008791429
20
13.727173396737
30
0
41
1
10
105.400356808634
20
13.8594640298791
30
0
41
1
10
105.486530817237
20
13.8905
30
0
41
1
10
105.572704825839
20
13.8905
30
0
0
SPLINE
5
E8
100
AcDbEntity
8
1
62
256
6
ByLayer
370
13
48
1
60
0
100
AcDbSpline
70
4
71
3
72
80
73
76
40
0
40
0
40
0
40
0
40
0.0312499999999999
40
0.0312499999999999
40
0.0624999999999998
40
0.0624999999999998
40
0.0937499999999996
40
0.0937499999999996
40
0.125
40
0.125
40
0.156249999999999
40
0.156249999999999
40
0.187499999999999
40
0.187499999999999
40
0.218749999999999
40
0.218749999999999
40
0.249999999999999
40
0.249999999999999
40
0.281249999999999
40
0.281249999999999
40
0.312499999999999
40
0.312499999999999
40
0.343749999999998
40
0.343749999999998
40
0.374999999999998
40
0.374999999999998
40
0.406249999999998
40
0.406249999999998
40
0.437499999999998
40
0.437499999999998
40
0.453124999999998
40
0.453124999999998
40
0.460937499999998
40
0.460937499999998
40
0.468749999999998
40
0.468749999999998
40
0.499999999999998
40
0.499999999999998
40
0.531249999999998
40
0.531249999999998
40
0.562499999999998
40
0.562499999999998
40
0.593749999999998
40
0.593749999999998
40
0.624999999999998
40
0.624999999999998
40
0.656249999999999
40
0.656249999999999
40
0.687499999999999
40
0.687499999999999
40
0.718749999999999
40
0.718749999999999
40
0.749999999999999
40
0.749999999999999
40
0.781249999999999
40
0.781249999999999
40
0.812499999999999
40
0.812499999999999
40
0.843749999999999
40
0.843749999999999
40
0.874999999999999
40
0.874999999999999
40
0.906249999999999
40
0.906249999999999
40
0.921874999999999
40
0.921874999999999
40
0.925781249999999
40
0.925781249999999
40
0.929687499999999
40
0.929687499999999
40
0.937499999999999
40
0.937499999999999
40
0.96875
40
0.96875
40
1
40
1
40
1
40
1
41
1
10
103.128756988613
20
13.8905
30
0
41
1
10
103.199751931033
20
13.8905
30
0
41
1
10
103.270746873453
20
13.8694507564485
30
0
41
1
10
103.412736758293
20
13.7806113405248
30
0
41
1
10
103.483731700712
20
13.7128078613469
30
0
41
1
10
103.625721585552
20
13.5267380344094
30
0
41
1
10
103.696716527972
20
13.4084589802246
30
0
41
1
10
103.838706412812
20
13.1190578275896
30
0
41
1
10
103.909701355232
20
12.9479254317031
30
0
41
1
10
104.051691240072
20
12.552131509253
30
0
41
1
10
104.122686182492
20
12.3274639302242
30
0
41
1
10
104.264676067332
20
11.825859891945
30
0
41
1
10
104.335671009752
20
11.5489230762701
30
0
41
1
10
104.477660894591
20
10.9460883533433
30
0
41
1
10
104.548655837011
20
10.6201964458536
30
0
41
1
10
104.690645721851
20
9.92472384993187
30
0
41
1
10
104.761640664271
20
9.5551551288184
30
0
41
1
10
104.903630549111
20
8.77929364205593
30
0
41
1
10
104.974625491531
20
8.37301737664021
30
0
41
1
10
105.116615376371
20
7.53196443316259
30
0
41
1
10
105.187610318791
20
7.09720659500823
30
0
41
1
10
105.329600203631
20
6.20813385734479
30
0
41
1
10
105.40059514605
20
5.75383767236187
30
0
41
1
10
105.54258503089
20
4.83477837866187
30
0
41
1
10
105.61357997331
20
4.370031648398
30
0
41
1
10
105.75556985815
20
3.43877363326379
30
0
41
1
10
105.82656480057
20
2.97227483727636
30
0
41
1
10
105.96855468541
20
2.0453889654728
30
0
41
1
10
106.03954962783
20
1.585009774067
30
0
41
1
10
106.14604204146
20
0.904081718874153
30
0
41
1
10
106.18153951267
20
0.678702923279928
30
0
41
1
10
106.234785719485
20
0.34357125112507
30
0
41
1
10
106.25253445509
20
0.232349469464936
30
0
41
1
10
106.288031926299
20
0.0109657747109111
30
0
41
1
10
106.305780661905
20
-0.0991267793091026
30
0
41
1
10
106.394524339929
20
-0.653980821679824
30
0
41
1
10
106.465519282349
20
-1.10622350554402
30
0
41
1
10
106.607509167189
20
-2.02157419441301
30
0
41
1
10
106.678504109609
20
-2.48467745823396
30
0
41
1
10
106.820493994449
20
-3.41463245723443
30
0
41
1
10
106.891488936869
20
-3.8814748245066
30
0
41
1
10
107.033478821708
20
-4.81073935308333
30
0
41
1
10
107.104473764129
20
-5.27314767632043
30
0
41
1
10
107.246463648968
20
-6.18467308388975
30
0
41
1
10
107.317458591388
20
-6.63377284530344
30
0
41
1
10
107.459448476228
20
-7.50957985380521
30
0
41
1
10
107.530443418648
20
-7.93626808572623
30
0
41
1
10
107.672433303488
20
-8.75847329659541
30
0
41
1
10
107.743428245908
20
-9.15397191152212
30
0
41
1
10
107.885418130748
20
-9.90591186141376
30
0
41
1
10
107.956413073168
20
-10.2623379211279
30
0
41
1
10
108.098402958007
20
-10.9296533755956
30
0
41
1
10
108.169397900427
20
-11.2405325829659
30
0
41
1
10
108.311387785267
20
-11.8120706601549
30
0
41
1
10
108.382382727687
20
-12.0727255523433
30
0
41
1
10
108.524372612527
20
-12.5411429015104
30
0
41
1
10
108.595367554947
20
-12.7489076337467
30
0
41
1
10
108.737357439787
20
-13.1109088082935
30
0
41
1
10
108.808352382207
20
-13.2651528305549
30
0
41
1
10
108.950342267046
20
-13.5213606279065
30
0
41
1
10
109.021337209466
20
-13.6233356677735
30
0
41
1
10
109.163327094306
20
-13.7778480108066
30
0
41
1
10
109.234322036726
20
-13.8303983949402
30
0
41
1
10
109.340814450356
20
-13.8751940168406
30
0
41
1
10
109.376311921566
20
-13.8844625118659
30
0
41
1
10
109.420683760578
20
-13.8893359901392
30
0
41
1
10
109.429558128381
20
-13.889975186926
30
0
41
1
10
109.447306863986
20
-13.8905921679059
30
0
41
1
10
109.456181231788
20
-13.8905712401305
30
0
41
1
10
109.482804335196
20
-13.8895188115414
30
0
41
1
10
109.500553070801
20
-13.8874930561929
30
0
41
1
10
109.589296748826
20
-13.8705536054541
30
0
41
1
10
109.660291691246
20
-13.8351748111734
30
0
41
1
10
109.802281576086
20
-13.716376941081
30
0
41
1
10
109.873276518506
20
-13.6329445686276
30
0
41
1
10
109.944271460925
20
-13.5238224797506
30
0
0
SPLINE
5
E9
100
AcDbEntity
8
1
62
256
6
ByLayer
370
13
48
1
60
0
100
AcDbSpline
70
4
71
3
72
76
73
72
40
0
40
0
40
0
40
0
40
0.0312499999999998
40
0.0312499999999998
40
0.0624999999999997
40
0.0624999999999997
40
0.0937499999999996
40
0.0937499999999996
40
0.125
40
0.125
40
0.156249999999999
40
0.156249999999999
40
0.187499999999999
40
0.187499999999999
40
0.195312499999999
40
0.195312499999999
40
0.203125
40
0.203125
40
0.218749999999999
40
0.218749999999999
40
0.249999999999999
40
0.249999999999999
40
0.281249999999999
40
0.281249999999999
40
0.312499999999999
40
0.312499999999999
40
0.343749999999999
40
0.343749999999999
40
0.374999999999999
40
0.374999999999999
40
0.406249999999999
40
0.406249999999999
40
0.437499999999998
40
0.437499999999998
40
0.468749999999998
40
0.468749999999998
40
0.499999999999998
40
0.499999999999998
40
0.531249999999998
40
0.531249999999998
40
0.562499999999998
40
0.562499999999998
40
0.593749999999998
40
0.593749999999998
40
0.609374999999998
40
0.609374999999998
40
0.624999999999998
40
0.624999999999998
40
0.656249999999998
40
0.656249999999998
40
0.687499999999998
40
0.687499999999998
40
0.718749999999998
40
0.718749999999998
40
0.749999999999999
40
0.749999999999999
40
0.781249999999999
40
0.781249999999999
40
0.812499999999999
40
0.812499999999999
40
0.843749999999999
40
0.843749999999999
40
0.874999999999999
40
0.874999999999999
40
0.906249999999999
40
0.906249999999999
40
0.9375
40
0.9375
40
0.96875
40
0.96875
40
1
40
1
40
1
40
1
41
1
10
97.3000000000001
20
-10.3990928255373
30
0
41
1
10
97.3811143242655
20
-10.7902572374914
30
0
41
1
10
97.4622286485307
20
-11.1523894944511
30
0
41
1
10
97.6244572970614
20
-11.8112872472875
30
0
41
1
10
97.7055716213267
20
-12.1080443570796
30
0
41
1
10
97.8678002698575
20
-12.6322616518249
30
0
41
1
10
97.9489145941228
20
-12.8597272769746
30
0
41
1
10
98.1111432426534
20
-13.2448898418486
30
0
41
1
10
98.1922575669187
20
-13.4026034780226
30
0
41
1
10
98.3544862154494
20
-13.6509043852962
30
0
41
1
10
98.4356005397148
20
-13.7415152908614
30
0
41
1
10
98.5978291882454
20
-13.860744371451
30
0
41
1
10
98.6789435125108
20
-13.8893884373455
30
0
41
1
10
98.7803364178425
20
-13.8907381271927
30
0
41
1
10
98.8006149989088
20
-13.8892961580709
30
0
41
1
10
98.8411721610415
20
-13.8828781191473
30
0
41
1
10
98.8614507421079
20
-13.8779013646678
30
0
41
1
10
98.9222864853069
20
-13.8575029034441
30
0
41
1
10
98.9628436474395
20
-13.8366099941282
30
0
41
1
10
99.0845151338375
20
-13.7508255012865
30
0
41
1
10
99.1656294581028
20
-13.6627605914706
30
0
41
1
10
99.3278581066335
20
-13.4197114644915
30
0
41
1
10
99.4089724308989
20
-13.2647034378427
30
0
41
1
10
99.5712010794296
20
-12.8850012240319
30
0
41
1
10
99.6523154036949
20
-12.6602899794457
30
0
41
1
10
99.8145440522256
20
-12.1414997514595
30
0
41
1
10
99.895658376491
20
-11.8474148212905
30
0
41
1
10
100.057887025022
20
-11.1936419640281
30
0
41
1
10
100.139001349287
20
-10.8339618639346
30
0
41
1
10
100.301229997818
20
-10.0561895692586
30
0
41
1
10
100.382344322083
20
-9.63811883812429
30
0
41
1
10
100.544572970614
20
-8.75373939140837
30
0
41
1
10
100.625687294879
20
-8.28746256688214
30
0
41
1
10
100.78791594341
20
-7.31901266337459
30
0
41
1
10
100.869030267675
20
-6.81687641348014
30
0
41
1
10
101.031258916206
20
-5.79016331239586
30
0
41
1
10
101.112373240471
20
-5.26562202683624
30
0
41
1
10
101.274601889002
20
-4.20755853752374
30
0
41
1
10
101.355716213267
20
-3.67406541026881
30
0
41
1
10
101.517944861798
20
-2.61057357177077
30
0
41
1
10
101.599059186063
20
-2.080594346005
30
0
41
1
10
101.761287834594
20
-1.03488306044019
30
0
41
1
10
101.842402158859
20
-0.519160207486209
30
0
41
1
10
101.964073645257
20
0.237289274516655
30
0
41
1
10
102.00463080739
20
0.491855462979316
30
0
41
1
10
102.085745131655
20
1.00613767023475
30
0
41
1
10
102.126302293788
20
1.2656368131484
30
0
41
1
10
102.247973780186
20
2.04950249495289
30
0
41
1
10
102.329088104451
20
2.57929850261647
30
0
41
1
10
102.491316752982
20
3.64265329811744
30
0
41
1
10
102.572431077247
20
4.1761928033572
30
0
41
1
10
102.734659725778
20
5.23460621420782
30
0
41
1
10
102.815774050043
20
5.75945120991503
30
0
41
1
10
102.978002698574
20
6.78703954038224
30
0
41
1
10
103.059117022839
20
7.28974739230148
30
0
41
1
10
103.22134567137
20
8.2595979034522
30
0
41
1
10
103.302459995635
20
8.72670369932052
30
0
41
1
10
103.464688644166
20
9.61296620369529
30
0
41
1
10
103.545802968431
20
10.0320908660475
30
0
41
1
10
103.708031616962
20
10.8121448262604
30
0
41
1
10
103.789145941227
20
11.1730524154468
30
0
41
1
10
103.951374589758
20
11.8293898743491
30
0
41
1
10
104.032488914023
20
12.124811637489
30
0
41
1
10
104.194717562554
20
12.6463162118136
30
0
41
1
10
104.275831886819
20
12.8724047170049
30
0
41
1
10
104.43806053535
20
13.254836643243
30
0
41
1
10
104.519174859615
20
13.411196942088
30
0
41
1
10
104.681403508146
20
13.6568704136982
30
0
41
1
10
104.762517832411
20
13.7462073093605
30
0
41
1
10
104.924746480942
20
13.8630091564302
30
0
41
1
10
105.005860805208
20
13.8905
30
0
41
1
10
105.086975129473
20
13.8905
30
0
0
SPLINE
5
EA
100
AcDbEntity
8
1
62
256
6
ByLayer
370
13
48
1
60
0
100
AcDbSpline
70
4
71
3
72
80
73
76
40
0
40
0
40
0
40
0
40
0.0312499999999996
40
0.0312499999999996
40
0.0624999999999991
40
0.0624999999999991
40
0.0937499999999987
40
0.0937499999999987
40
0.124999999999998
40
0.124999999999998
40
0.156249999999998
40
0.156249999999998
40
0.187499999999997
40
0.187499999999997
40
0.218749999999997
40
0.218749999999997
40
0.249999999999996
40
0.249999999999996
40
0.281249999999996
40
0.281249999999996
40
0.312499999999995
40
0.312499999999995
40
0.343749999999995
40
0.343749999999995
40
0.374999999999994
40
0.374999999999994
40
0.406249999999994
40
0.406249999999994
40
0.421874999999994
40
0.421874999999994
40
0.429687499999994
40
0.429687499999994
40
0.437499999999994
40
0.437499999999994
40
0.468749999999994
40
0.468749999999994
40
0.499999999999994
40
0.499999999999994
40
0.531249999999995
40
0.531249999999995
40
0.562499999999995
40
0.562499999999995
40
0.593749999999995
40
0.593749999999995
40
0.624999999999996
40
0.624999999999996
40
0.656249999999996
40
0.656249999999996
40
0.687499999999996
40
0.687499999999996
40
0.718749999999997
40
0.718749999999997
40
0.749999999999997
40
0.749999999999997
40
0.781249999999997
40
0.781249999999997
40
0.812499999999998
40
0.812499999999998
40
0.843749999999998
40
0.843749999999998
40
0.859374999999998
40
0.859374999999998
40
0.863281249999998
40
0.863281249999998
40
0.867187499999998
40
0.867187499999998
40
0.874999999999998
40
0.874999999999998
40
0.906249999999999
40
0.906249999999999
40
0.937499999999999
40
0.937499999999999
40
0.96875
40
0.96875
40
1
40
1
40
1
40
1
41
1
10
102.643027292246
20
13.8905
30
0
41
1
10
102.719081919003
20
13.8905
30
0
41
1
10
102.79513654576
20
13.8663379388293
30
0
41
1
10
102.947245799275
20
13.7640171340185
30
0
41
1
10
103.023300426032
20
13.6858396152924
30
0
41
1
10
103.175409679546
20
13.4710626022094
30
0
41
1
10
103.251464306303
20
13.3344455210471
30
0
41
1
10
103.403573559817
20
13.0002020780836
30
0
41
1
10
103.479628186574
20
12.8025622778257
30
0
41
1
10
103.631737440088
20
12.3460012785525
30
0
41
1
10
103.707792066845
20
12.0870736744288
30
0
41
1
10
103.859901320359
20
11.5102885894035
30
0
41
1
10
103.935955947117
20
11.1924337697621
30
0
41
1
10
104.088065200631
20
10.5028322718021
30
0
41
1
10
104.164119827388
20
10.1310978079495
30
0
41
1
10
104.316229080902
20
9.34123853504258
30
0
41
1
10
104.392283707659
20
8.92313411574713
30
0
41
1
10
104.544392961173
20
8.05000370478032
30
0
41
1
10
104.62044758793
20
7.59500327203889
30
0
41
1
10
104.772556841444
20
6.6588146362227
30
0
41
1
10
104.848611468201
20
6.17765326896532
30
0
41
1
10
105.000720721716
20
5.20034011481172
30
0
41
1
10
105.076775348473
20
4.70421263810908
30
0
41
1
10
105.228884601987
20
3.70784669449765
30
0
41
1
10
105.304939228744
20
3.20762715168595
30
0
41
1
10
105.457048482258
20
2.21298010535591
30
0
41
1
10
105.533103109015
20
1.71856468348926
30
0
41
1
10
105.647185049151
20
0.987628520121461
30
0
41
1
10
105.685212362529
20
0.745751908768426
30
0
41
1
10
105.742253332597
20
0.386263338946009
30
0
41
1
10
105.761266989286
20
0.266987360887469
30
0
41
1
10
105.799294302665
20
0.0296444409371759
30
0
41
1
10
105.818307959354
20
-0.0882390572534746
30
0
41
1
10
105.913376242801
20
-0.682586627985671
30
0
41
1
10
105.989430869558
20
-1.16767401602169
30
0
41
1
10
106.141540123072
20
-2.14981752795487
30
0
41
1
10
106.217594749829
20
-2.64686652128472
30
0
41
1
10
106.369704003343
20
-3.6440329138504
30
0
41
1
10
106.4457586301
20
-4.14413617517914
30
0
41
1
10
106.597867883614
20
-5.13717919283221
30
0
41
1
10
106.673922510371
20
-5.63009823979274
30
0
41
1
10
106.826031763885
20
-6.59773512091351
30
0
41
1
10
106.902086390642
20
-7.07242755937045
30
0
41
1
10
107.054195644157
20
-7.99246810331493
30
0
41
1
10
107.130250270914
20
-8.43778932982576
30
0
41
1
10
107.282359524428
20
-9.28863661097057
30
0
41
1
10
107.358414151185
20
-9.69413823194648
30
0
41
1
10
107.510523404699
20
-10.456373040885
30
0
41
1
10
107.586578031456
20
-10.8130879717974
30
0
41
1
10
107.73868728497
20
-11.4709079399193
30
0
41
1
10
107.814741911727
20
-11.7720034862868
30
0
41
1
10
107.966851165241
20
-12.314299854028
30
0
41
1
10
108.042905791999
20
-12.5555007840247
30
0
41
1
10
108.195015045513
20
-12.9764218836276
30
0
41
1
10
108.27106967227
20
-13.1561507695852
30
0
41
1
10
108.423178925784
20
-13.4551027104738
30
0
41
1
10
108.499233552541
20
-13.5743407272171
30
0
41
1
10
108.651342806055
20
-13.7554814815015
30
0
41
1
10
108.727397432812
20
-13.8174024430376
30
0
41
1
10
108.841479372948
20
-13.8709248378969
30
0
41
1
10
108.879506686326
20
-13.8822171904319
30
0
41
1
10
108.92704082805
20
-13.8885942521886
30
0
41
1
10
108.936547656394
20
-13.8894828924014
30
0
41
1
10
108.955561313083
20
-13.8904983604276
30
0
41
1
10
108.965068141428
20
-13.8906260608829
30
0
41
1
10
108.993588626462
20
-13.8898778061515
30
0
41
1
10
109.012602283151
20
-13.8878633113345
30
0
41
1
10
109.107670566598
20
-13.8699785696352
30
0
41
1
10
109.183725193355
20
-13.8306274157135
30
0
41
1
10
109.335834446869
20
-13.6964819443322
30
0
41
1
10
109.411889073626
20
-13.601668914875
30
0
41
1
10
109.56399832714
20
-13.352654146758
30
0
41
1
10
109.640052953897
20
-13.1984357135878
30
0
41
1
10
109.792162207411
20
-12.8286536865042
30
0
41
1
10
109.868216834168
20
-12.6130784274708
30
0
41
1
10
109.944271460925
20
-12.367065521673
30
0
0
SPLINE
5
EB
100
AcDbEntity
8
1
62
256
6
ByLayer
370
13
48
1
60
0
100
AcDbSpline
70
4
71
3
72
79
73
75
40
0
40
0
40
0
40
0
40
0.0312499999999997
40
0.0312499999999997
40
0.0624999999999995
40
0.0624999999999995
40
0.0937499999999992
40
0.0937499999999992
40
0.124999999999999
40
0.124999999999999
40
0.132812499999999
40
0.132812499999999
40
0.136718749999999
40
0.136718749999999
40
0.140624999999999
40
0.156249999999999
40
0.156249999999999
40
0.187499999999999
40
0.187499999999999
40
0.218749999999999
40
0.218749999999999
40
0.249999999999999
40
0.249999999999999
40
0.281249999999998
40
0.281249999999998
40
0.312499999999998
40
0.312499999999998
40
0.343749999999998
40
0.343749999999998
40
0.374999999999998
40
0.374999999999998
40
0.406249999999998
40
0.406249999999998
40
0.437499999999997
40
0.437499999999997
40
0.468749999999997
40
0.468749999999997
40
0.499999999999997
40
0.499999999999997
40
0.531249999999996
40
0.531249999999996
40
0.562499999999996
40
0.562499999999996
40
0.570312499999996
40
0.570312499999996
40
0.578124999999996
40
0.578124999999996
40
0.593749999999996
40
0.593749999999996
40
0.624999999999996
40
0.624999999999996
40
0.656249999999997
40
0.656249999999997
40
0.687499999999997
40
0.687499999999997
40
0.718749999999997
40
0.718749999999997
40
0.749999999999998
40
0.749999999999998
40
0.781249999999998
40
0.781249999999998
40
0.812499999999998
40
0.812499999999998
40
0.843749999999998
40
0.843749999999998
40
0.874999999999999
40
0.874999999999999
40
0.906249999999999
40
0.906249999999999
40
0.937499999999999
40
0.937499999999999
40
0.96875
40
0.96875
40
1
40
1
40
1
40
1
41
1
10
97.3
20
-12.3670614316443
30
0
41
1
10
97.3760546399282
20
-12.6130747162022
30
0
41
1
10
97.4521092798564
20
-12.8286503483607
30
0
41
1
10
97.6042185597128
20
-13.1984330961238
30
0
41
1
10
97.680273199641
20
-13.3526518768236
30
0
41
1
10
97.8323824794973
20
-13.6016673036178
30
0
41
1
10
97.9084371194256
20
-13.6964806442188
30
0
41
1
10
98.0605463992819
20
-13.8306266947023
30
0
41
1
10
98.1366010392101
20
-13.8699781165954
30
0
41
1
10
98.2316693391203
20
-13.8878631644212
30
0
41
1
10
98.2506829991024
20
-13.8898777190303
30
0
41
1
10
98.2792034890755
20
-13.89062606129
30
0
41
1
10
98.2887103190665
20
-13.8904983896549
30
0
41
1
10
98.3077239790485
20
-13.8894829797649
30
0
41
1
10
98.3552581290037
20
-13.8850405117405
30
0
41
1
10
98.4027922789588
20
-13.8709252190813
30
0
41
1
10
98.516874238851
20
-13.8174031822403
30
0
41
1
10
98.5929288787792
20
-13.7554824631604
30
0
41
1
10
98.7450381586357
20
-13.5743421924067
30
0
41
1
10
98.8210927985639
20
-13.4551044167146
30
0
41
1
10
98.9732020784202
20
-13.1561529462712
30
0
41
1
10
99.0492567183484
20
-12.9764242896742
30
0
41
1
10
99.2013659982048
20
-12.5555036264136
30
0
41
1
10
99.277420638133
20
-12.3143029033595
30
0
41
1
10
99.4295299179894
20
-11.7720069170676
30
0
41
1
10
99.5055845579175
20
-11.4709115451691
30
0
41
1
10
99.6576938377738
20
-10.8130918853345
30
0
41
1
10
99.7337484777021
20
-10.4563770882123
30
0
41
1
10
99.8858577575585
20
-9.69414250084279
30
0
41
1
10
99.9619123974866
20
-9.28864096763317
30
0
41
1
10
100.114021677343
20
-8.43779381412938
30
0
41
1
10
100.190076317271
20
-7.99247262749898
30
0
41
1
10
100.342185597128
20
-7.07243211712816
30
0
41
1
10
100.418240237056
20
-6.59773967238627
30
0
41
1
10
100.570349516912
20
-5.630102737372
30
0
41
1
10
100.64640415684
20
-5.13718364283503
30
0
41
1
10
100.798513436697
20
-4.14414049589467
30
0
41
1
10
100.874568076625
20
-3.64403715289026
30
0
41
1
10
101.026677356481
20
-2.64687057131494
30
0
41
1
10
101.10273199641
20
-2.14982147068278
30
0
41
1
10
101.254841276266
20
-1.16767772722258
30
0
41
1
10
101.330895916194
20
-0.682590214985623
30
0
41
1
10
101.425964216104
20
-0.0882424835184565
30
0
41
1
10
101.444977876086
20
0.0296410409011969
30
0
41
1
10
101.48300519605
20
0.266983978933524
30
0
41
1
10
101.502018856032
20
0.386259966711663
30
0
41
1
10
101.559059835979
20
0.745748567746745
30
0
41
1
10
101.597087155943
20
0.98762520264944
30
0
41
1
10
101.711169115835
20
1.71856144493682
30
0
41
1
10
101.787223755763
20
2.21297693049687
30
0
41
1
10
101.93933303562
20
3.20762412544934
30
0
41
1
10
102.015387675548
20
3.70784375319434
30
0
41
1
10
102.167496955404
20
4.70420988525123
30
0
41
1
10
102.243551595332
20
5.20033746546176
30
0
41
1
10
102.395660875189
20
6.1776508407917
30
0
41
1
10
102.471715515117
20
6.65881232570379
30
0
41
1
10
102.623824794973
20
7.59500120507863
30
0
41
1
10
102.699879434902
20
8.050001763702
30
0
41
1
10
102.851988714758
20
8.92313242782254
30
0
41
1
10
102.928043354686
20
9.34123697436314
30
0
41
1
10
103.080152634543
20
10.1310964960895
30
0
41
1
10
103.156207274471
20
10.5028310814905
30
0
41
1
10
103.308316554327
20
11.192432810424
30
0
41
1
10
103.384371194255
20
11.5102877394706
30
0
41
1
10
103.536480474111
20
12.0870730260497
30
0
41
1
10
103.61253511404
20
12.3460007223113
30
0
41
1
10
103.764644393896
20
12.8025618852618
30
0
41
1
10
103.840699033824
20
13.0002017570587
30
0
41
1
10
103.992808313681
20
13.3344453211144
30
0
41
1
10
104.068862953609
20
13.4710624518387
30
0
41
1
10
104.220972233465
20
13.685839542493
30
0
41
1
10
104.297026873394
20
13.7640170892428
30
0
41
1
10
104.44913615325
20
13.8663379304453
30
0
41
1
10
104.525190793178
20
13.8905
30
0
41
1
10
104.601245433106
20
13.8905
30
0
0
SPLINE
5
EC
100
AcDbEntity
8
1
62
256
6
ByLayer
370
13
48
1
60
0
100
AcDbSpline
70
4
71
3
72
76
73
72
40
0
40
0
40
0
40
0
40
0.0312500000000001
40
0.0312500000000001
40
0.0625000000000002
40
0.0625000000000002
40
0.0937500000000004
40
0.0937500000000004
40
0.125000000000001
40
0.125000000000001
40
0.156250000000001
40
0.156250000000001
40
0.187500000000001
40
0.187500000000001
40
0.218750000000001
40
0.218750000000001
40
0.250000000000001
40
0.250000000000001
40
0.281250000000001
40
0.281250000000001
40
0.312500000000001
40
0.312500000000001
40
0.343750000000001
40
0.343750000000001
40
0.375000000000001
40
0.375000000000001
40
0.390625000000001
40
0.390625000000001
40
0.406250000000001
40
0.406250000000001
40
0.437500000000001
40
0.437500000000001
40
0.468750000000002
40
0.468750000000002
40
0.500000000000002
40
0.500000000000002
40
0.531250000000002
40
0.531250000000002
40
0.562500000000002
40
0.562500000000002
40
0.593750000000002
40
0.593750000000002
40
0.625000000000002
40
0.625000000000002
40
0.656250000000002
40
0.656250000000002
40
0.687500000000002
40
0.687500000000002
40
0.718750000000003
40
0.718750000000003
40
0.750000000000003
40
0.750000000000003
40
0.781250000000003
40
0.781250000000003
40
0.796875000000003
40
0.796875000000003
40
0.804687500000003
40
0.804687500000003
40
0.812500000000003
40
0.812500000000003
40
0.843750000000002
40
0.843750000000002
40
0.875000000000002
40
0.875000000000002
40
0.906250000000001
40
0.906250000000001
40
0.937500000000001
40
0.937500000000001
40
0.96875
40
0.96875
40
1
40
1
40
1
40
1
41
1
10
102.15729759588
20
13.8905
30
0
41
1
10
102.238411906974
20
13.8905
30
0
41
1
10
102.319526218068
20
13.8630091653769
30
0
41
1
10
102.481754840257
20
13.7462073573117
30
0
41
1
10
102.562869151351
20
13.656870491728
30
0
41
1
10
102.725097773539
20
13.4111971034087
30
0
41
1
10
102.806212084634
20
13.2548368577938
30
0
41
1
10
102.968440706822
20
12.872405061338
30
0
41
1
10
103.049555017916
20
12.6463166327083
30
0
41
1
10
103.211783640105
20
12.1248122327596
30
0
41
1
10
103.292897951199
20
11.8293905674303
30
0
41
1
10
103.455126573387
20
11.1730533209789
30
0
41
1
10
103.536240884482
20
10.8121458464148
30
0
41
1
10
103.69846950667
20
10.0320921258264
30
0
41
1
10
103.779583817764
20
9.61296758844688
30
0
41
1
10
103.941812439953
20
8.72670533665388
30
0
41
1
10
104.022926751047
20
8.25959966835981
30
0
41
1
10
104.185155373235
20
7.28974940695213
30
0
41
1
10
104.26626968433
20
6.78704167716961
30
0
41
1
10
104.428498306518
20
5.75945357826396
30
0
41
1
10
104.509612617612
20
5.23460869195912
30
0
41
1
10
104.671841239801
20
4.17619548147169
30
0
41
1
10
104.752955550895
20
3.6426560671832
30
0
41
1
10
104.915184173083
20
2.57930143148136
30
0
41
1
10
104.996298484178
20
2.04950549266843
30
0
41
1
10
105.117969950819
20
1.26563989643938
30
0
41
1
10
105.158527106366
20
1.00614077911732
30
0
41
1
10
105.23964141746
20
0.491858617174444
30
0
41
1
10
105.280198573007
20
0.237292403242293
30
0
41
1
10
105.401870039649
20
-0.519156884186913
30
0
41
1
10
105.482984350743
20
-1.03487961155383
30
0
41
1
10
105.645212972932
20
-2.08059066330586
30
0
41
1
10
105.726327284026
20
-2.61056978087592
30
0
41
1
10
105.888555906214
20
-3.67406143025701
30
0
41
1
10
105.969670217308
20
-4.20755447663171
30
0
41
1
10
106.131898839497
20
-5.26561784107005
30
0
41
1
10
106.213013150591
20
-5.79015908268127
30
0
41
1
10
106.375241772779
20
-6.81687214074
30
0
41
1
10
106.456356083874
20
-7.31900839159752
30
0
41
1
10
106.618584706062
20
-8.28745834693291
30
0
41
1
10
106.699699017156
20
-8.75373522234844
30
0
41
1
10
106.861927639345
20
-9.63811482180901
30
0
41
1
10
106.943041950439
20
-10.0561856548
30
0
41
1
10
107.105270572627
20
-10.8339582008426
30
0
41
1
10
107.186384883722
20
-11.1936384504226
30
0
41
1
10
107.34861350591
20
-11.8474116469523
30
0
41
1
10
107.429727817004
20
-12.14149676686
30
0
41
1
10
107.591956439193
20
-12.6602874042224
30
0
41
1
10
107.673070750287
20
-12.8849988683955
30
0
41
1
10
107.835299372475
20
-13.2647015392826
30
0
41
1
10
107.91641368357
20
-13.4197098033733
30
0
41
1
10
108.078642305758
20
-13.6627594110602
30
0
41
1
10
108.159756616852
20
-13.7508245641059
30
0
41
1
10
108.281428083494
20
-13.8366094180078
30
0
41
1
10
108.321985239041
20
-13.8575024470592
30
0
41
1
10
108.382820972362
20
-13.8779010860846
30
0
41
1
10
108.403099550135
20
-13.882877899532
30
0
41
1
10
108.443656705682
20
-13.8892960556609
30
0
41
1
10
108.463935283456
20
-13.8907380827483
30
0
41
1
10
108.565328172324
20
-13.8893886834932
30
0
41
1
10
108.646442483418
20
-13.8607448748091
30
0
41
1
10
108.808671105606
20
-13.7415163556664
30
0
41
1
10
108.8897854167
20
-13.6509057543582
30
0
41
1
10
109.052014038889
20
-13.4026054957024
30
0
41
1
10
109.133128349983
20
-13.2448922038875
30
0
41
1
10
109.295356972172
20
-12.8597303560516
30
0
41
1
10
109.376471283266
20
-12.6322651035507
30
0
41
1
10
109.538699905454
20
-12.1080485662327
30
0
41
1
10
109.619814216549
20
-11.8112918411607
30
0
41
1
10
109.782042838737
20
-11.1523948506398
30
0
41
1
10
109.863157149831
20
-10.7902629711972
30
0
41
1
10
109.944271460925
20
-10.399098923088
30
0
0
SPLINE
5
ED
100
AcDbEntity
8
1
62
256
6
ByLayer
370
13
48
1
60
0
100
AcDbSpline
70
4
71
3
72
78
73
74
40
0
40
0
40
0
40
0
40
0.03125
40
0.03125
40
0.0625
40
0.0625
40
0.0703125
40
0.0703125
40
0.07421875
40
0.07421875
40
0.078125
40
0.09375
40
0.09375
40
0.125
40
0.125
40
0.15625
40
0.15625
40
0.1875
40
0.1875
40
0.21875
40
0.21875
40
0.25
40
0.25
40
0.28125
40
0.28125
40
0.3125
40
0.3125
40
0.34375
40
0.34375
40
0.375
40
0.375
40
0.40625
40
0.40625
40
0.4375
40
0.4375
40
0.46875
40
0.46875
40
0.5
40
0.5
40
0.53125
40
0.53125
40
0.5390625
40
0.5390625
40
0.546875
40
0.5625
40
0.5625
40
0.59375
40
0.59375
40
0.625
40
0.625
40
0.65625
40
0.65625
40
0.6875
40
0.6875
40
0.71875
40
0.71875
40
0.75
40
0.75
40
0.78125
40
0.78125
40
0.8125
40
0.8125
40
0.84375
40
0.84375
40
0.875
40
0.875
40
0.90625
40
0.90625
40
0.9375
40
0.9375
40
0.96875
40
0.96875
40
1
40
1
40
1
40
1
41
1
10
97.3
20
-13.5238205362724
30
0
41
1
10
97.3709949555911
20
-13.63294294977
30
0
41
1
10
97.4419899111821
20
-13.7163756293665
30
0
41
1
10
97.5839798223642
20
-13.8351740731997
30
0
41
1
10
97.6549747779553
20
-13.8705531340887
30
0
41
1
10
97.743718472444
20
-13.8874928911942
30
0
41
1
10
97.7614672113418
20
-13.8895187064784
30
0
41
1
10
97.7880903196884
20
-13.8905712229553
30
0
41
1
10
97.7969646891373
20
-13.8905921795721
30
0
41
1
10
97.814713428035
20
-13.8899752566396
30
0
41
1
10
97.8590852752795
20
-13.8867798509012
30
0
41
1
10
97.9034571225238
20
-13.8751943797844
30
0
41
1
10
98.0099495559105
20
-13.8303991150857
30
0
41
1
10
98.0809445115015
20
-13.7778489728701
30
0
41
1
10
98.2229344226835
20
-13.6233371136015
30
0
41
1
10
98.2939293782745
20
-13.5213623155642
30
0
41
1
10
98.4359192894566
20
-13.265154992998
30
0
41
1
10
98.5069142450477
20
-13.1109112036681
30
0
41
1
10
98.6489041562297
20
-12.7489104767816
30
0
41
1
10
98.7198991118208
20
-12.5411459592451
30
0
41
1
10
98.8618890230028
20
-12.0727290122308
30
0
41
1
10
98.9328839785939
20
-11.8120743074659
30
0
41
1
10
99.074873889776
20
-11.2405365700155
30
0
41
1
10
99.145868845367
20
-10.9296575149354
30
0
41
1
10
99.2878587565491
20
-10.2623423240977
30
0
41
1
10
99.3588537121402
20
-9.90591637570799
30
0
41
1
10
99.5008436233222
20
-9.15397660431324
30
0
41
1
10
99.5718385789132
20
-8.75847805655604
30
0
41
1
10
99.7138284900952
20
-7.93627293559936
30
0
41
1
10
99.7848234456864
20
-7.50958472643094
30
0
41
1
10
99.9268133568684
20
-6.63377772155923
30
0
41
1
10
99.9978083124594
20
-6.18467794104271
30
0
41
1
10
100.139798223642
20
-5.27315245831832
30
0
41
1
10
100.210793179232
20
-4.8107440790545
30
0
41
1
10
100.352783090415
20
-3.88147940807661
30
0
41
1
10
100.423778046006
20
-3.41463695445663
30
0
41
1
10
100.565767957188
20
-2.48468175988947
30
0
41
1
10
100.636762912779
20
-2.0215783868731
30
0
41
1
10
100.778752823961
20
-1.10622746432864
30
0
41
1
10
100.849747779552
20
-0.653984656001995
30
0
41
1
10
100.938491474041
20
-0.0991304529195247
30
0
41
1
10
100.956240212938
20
0.0109621309419765
30
0
41
1
10
100.991737690734
20
0.232345843574848
30
0
41
1
10
101.044983907427
20
0.566009928308603
30
0
41
1
10
101.098230124121
20
0.904078156165809
30
0
41
1
10
101.204722557507
20
1.58500628801093
30
0
41
1
10
101.275717513098
20
2.04538554085457
30
0
41
1
10
101.41770742428
20
2.97227155554748
30
0
41
1
10
101.488702379871
20
3.43877043299037
30
0
41
1
10
101.630692291053
20
4.37002862899641
30
0
41
1
10
101.701687246644
20
4.83477545867484
30
0
41
1
10
101.843677157826
20
5.75383496566332
30
0
41
1
10
101.914672113417
20
6.20813126451162
30
0
41
1
10
102.0566620246
20
7.09720423956747
30
0
41
1
10
102.12765698019
20
7.53196220123394
30
0
41
1
10
102.269646891373
20
8.3730153956578
30
0
41
1
10
102.340641846964
20
8.77929178848839
30
0
41
1
10
102.482631758146
20
9.55515352784272
30
0
41
1
10
102.553626713737
20
9.92472237411269
30
0
41
1
10
102.695616624919
20
10.6201952121393
30
0
41
1
10
102.76661158051
20
10.9460872365593
30
0
41
1
10
102.908601491692
20
11.5489221799512
30
0
41
1
10
102.979596447283
20
11.8258590991482
30
0
41
1
10
103.121586358465
20
12.327463327143
30
0
41
1
10
103.192581314056
20
12.5521309923598
30
0
41
1
10
103.334571225238
20
12.947925067455
30
0
41
1
10
103.405566180829
20
13.1190575298001
30
0
41
1
10
103.547556092011
20
13.4084587948017
30
0
41
1
10
103.618551047602
20
13.5267378949021
30
0
41
1
10
103.760540958784
20
13.712807793734
30
0
41
1
10
103.831535914375
20
13.7806112989022
30
0
41
1
10
103.973525825558
20
13.8694507486262
30
0
41
1
10
104.044520781149
20
13.8905
30
0
41
1
10
104.11551573674
20
13.8905
30
0
0
SPLINE
5
EE
100
AcDbEntity
8
1
62
256
6
ByLayer
370
13
48
1
60
0
100
AcDbSpline
70
4
71
3
72
79
73
75
40
0
40
0
40
0
40
0
40
0.03125
40
0.03125
40
0.0625
40
0.0625
40
0.09375
40
0.09375
40
0.125
40
0.125
40
0.15625
40
0.15625
40
0.1875
40
0.1875
40
0.21875
40
0.21875
40
0.25
40
0.25
40
0.28125
40
0.28125
40
0.3125
40
0.3125
40
0.34375
40
0.34375
40
0.375
40
0.375
40
0.3828125
40
0.3828125
40
0.390624999999999
40
0.390624999999999
40
0.406249999999999
40
0.406249999999999
40
0.437499999999999
40
0.437499999999999
40
0.468749999999999
40
0.468749999999999
40
0.499999999999999
40
0.499999999999999
40
0.531249999999998
40
0.531249999999998
40
0.562499999999998
40
0.562499999999998
40
0.593749999999998
40
0.593749999999998
40
0.624999999999998
40
0.624999999999998
40
0.656249999999997
40
0.656249999999997
40
0.687499999999997
40
0.687499999999997
40
0.718749999999997
40
0.718749999999997
40
0.749999999999997
40
0.749999999999997
40
0.757812499999996
40
0.761718749999996
40
0.761718749999996
40
0.765624999999996
40
0.765624999999996
40
0.781249999999996
40
0.781249999999996
40
0.812499999999997
40
0.812499999999997
40
0.843749999999997
40
0.843749999999997
40
0.874999999999998
40
0.874999999999998
40
0.906249999999999
40
0.906249999999999
40
0.937499999999999
40
0.937499999999999
40
0.96875
40
0.96875
40
1
40
1
40
1
40
1
41
1
10
101.671567899513
20
13.8905
30
0
41
1
10
101.757741894945
20
13.8905
30
0
41
1
10
101.843915890376
20
13.8594640393895
30
0
41
1
10
102.016263881239
20
13.7271734478857
30
0
41
1
10
102.10243787667
20
13.6258838231236
30
0
41
1
10
102.274785867533
20
13.3471098087213
30
0
41
1
10
102.360959862964
20
13.1695941571156
30
0
41
1
10
102.533307853827
20
12.735647227883
30
0
41
1
10
102.619481849258
20
12.4791955750159
30
0
41
1
10
102.791829840121
20
11.8887136745228
30
0
41
1
10
102.878003835552
20
11.5546801966191
30
0
41
1
10
103.050351826415
20
10.8148059064523
30
0
41
1
10
103.136525821847
20
10.4089820261166
30
0
41
1
10
103.308873812709
20
9.53553441320207
30
0
41
1
10
103.395047808141
20
9.06794597760467
30
0
41
1
10
103.567395799003
20
8.0844175452701
30
0
41
1
10
103.653569794435
20
7.56852474015665
30
0
41
1
10
103.825917785298
20
6.50401033964684
30
0
41
1
10
103.912091780729
20
5.95543866079285
30
0
41
1
10
104.084439771592
20
4.84187025246845
30
0
41
1
10
104.170613767023
20
4.27691721569883
30
0
41
1
10
104.342961757886
20
3.14613344430947
30
0
41
1
10
104.429135753317
20
2.58033396649702
30
0
41
1
10
104.60148374418
20
1.46150325152485
30
0
41
1
10
104.687657739611
20
0.908488494254925
30
0
41
1
10
104.795375233901
20
0.232089580038377
30
0
41
1
10
104.816918732758
20
0.0977963803766499
30
0
41
1
10
104.860005730474
20
-0.17025133966149
30
0
41
1
10
104.881549229332
20
-0.305071110773724
30
0
41
1
10
104.946179725905
20
-0.711699457844759
30
0
41
1
10
104.989266723621
20
-0.985682649148799
30
0
41
1
10
105.118527716768
20
-1.81437251960622
30
0
41
1
10
105.204701712199
20
-2.37589981902522
30
0
41
1
10
105.377049703062
20
-3.504623442151
30
0
41
1
10
105.463223698494
20
-4.07179517464485
30
0
41
1
10
105.635571689356
20
-5.1970351261152
30
0
41
1
10
105.721745684788
20
-5.75506476471747
30
0
41
1
10
105.894093675651
20
-6.8459147861569
30
0
41
1
10
105.980267671082
20
-7.37868709334779
30
0
41
1
10
106.152615661945
20
-8.40290476728271
30
0
41
1
10
106.238789657376
20
-8.89430050946567
30
0
41
1
10
106.411137648239
20
-9.82113453888971
30
0
41
1
10
106.49731164367
20
-10.2565310905154
30
0
41
1
10
106.669659634533
20
-11.0596306066255
30
0
41
1
10
106.755833629964
20
-11.4273077544274
30
0
41
1
10
106.928181620827
20
-12.0871684287588
30
0
41
1
10
107.014355616258
20
-12.3793461180555
30
0
41
1
10
107.186703607121
20
-12.8848298968836
30
0
41
1
10
107.272877602553
20
-13.0981491944265
30
0
41
1
10
107.445225593415
20
-13.4468414416399
30
0
41
1
10
107.531399588847
20
-13.5822415890815
30
0
41
1
10
107.70374757971
20
-13.7796952771148
30
0
41
1
10
107.789921575141
20
-13.8417829660649
30
0
41
1
10
107.89763906943
20
-13.878129661082
30
0
41
1
10
107.929954317717
20
-13.885946725365
30
0
41
1
10
107.962269566004
20
-13.8892819168719
30
0
41
1
10
107.983813064861
20
-13.8905265850052
30
0
41
1
10
107.99458481429
20
-13.8906609373551
30
0
41
1
10
108.048443561435
20
-13.8889103920617
30
0
41
1
10
108.091530559151
20
-13.8797139795584
30
0
41
1
10
108.220791552298
20
-13.8271438180705
30
0
41
1
10
108.306965547729
20
-13.7587143754712
30
0
41
1
10
108.479313538592
20
-13.5480345474515
30
0
41
1
10
108.565487534023
20
-13.405750345455
30
0
41
1
10
108.737835524886
20
-13.043041619395
30
0
41
1
10
108.824009520318
20
-12.8225908821765
30
0
41
1
10
108.99635751118
20
-12.3029632894819
30
0
41
1
10
109.082531506612
20
-12.0037747840256
30
0
41
1
10
109.254879497474
20
-11.3304134852699
30
0
41
1
10
109.341053492906
20
-10.9562483655475
30
0
41
1
10
109.513401483769
20
-10.1410781030003
30
0
41
1
10
109.5995754792
20
-9.70010045072613
30
0
41
1
10
109.771923470063
20
-8.76332141454824
30
0
41
1
10
109.858097465494
20
-8.26756284905292
30
0
41
1
10
109.944271460925
20
-7.75179823297853
30
0
0
SPLINE
5
EF
100
AcDbEntity
8
1
62
256
6
ByLayer
370
13
48
1
60
0
100
AcDbSpline
70
4
71
3
72
76
73
72
40
0
40
0
40
0
40
0
40
0.0078125000000001
40
0.0078125000000001
40
0.0156250000000001
40
0.0312500000000002
40
0.0312500000000002
40
0.0625000000000004
40
0.0625000000000004
40
0.0937500000000006
40
0.0937500000000006
40
0.125000000000001
40
0.125000000000001
40
0.156250000000001
40
0.156250000000001
40
0.187500000000001
40
0.187500000000001
40
0.218750000000001
40
0.218750000000001
40
0.250000000000001
40
0.250000000000001
40
0.281250000000002
40
0.281250000000002
40
0.312500000000002
40
0.312500000000002
40
0.343750000000002
40
0.343750000000002
40
0.375000000000002
40
0.375000000000002
40
0.406250000000002
40
0.406250000000002
40
0.437500000000002
40
0.437500000000002
40
0.468750000000003
40
0.468750000000003
40
0.500000000000003
40
0.500000000000003
40
0.507812500000003
40
0.507812500000003
40
0.515625000000003
40
0.531250000000003
40
0.531250000000003
40
0.562500000000002
40
0.562500000000002
40
0.593750000000002
40
0.593750000000002
40
0.625000000000002
40
0.625000000000002
40
0.656250000000002
40
0.656250000000002
40
0.687500000000002
40
0.687500000000002
40
0.718750000000001
40
0.718750000000001
40
0.750000000000001
40
0.750000000000001
40
0.781250000000001
40
0.781250000000001
40
0.812500000000001
40
0.812500000000001
40
0.843750000000001
40
0.843750000000001
40
0.875
40
0.875
40
0.90625
40
0.90625
40
0.9375
40
0.9375
40
0.96875
40
0.96875
40
1
40
1
40
1
40
1
41
1
10
97.3
20
-13.890418525268
30
0
41
1
10
97.3164838178135
20
-13.8907698740066
30
0
41
1
10
97.332967635627
20
-13.8899900810198
30
0
41
1
10
97.3659352712539
20
-13.8861145098205
30
0
41
1
10
97.4153867246943
20
-13.8768239705076
30
0
41
1
10
97.4648381781348
20
-13.8568281402426
30
0
41
1
10
97.5637410850155
20
-13.801882710937
30
0
41
1
10
97.6296763562694
20
-13.7452878619871
30
0
41
1
10
97.7615468987772
20
-13.5890797652199
30
0
41
1
10
97.8274821700311
20
-13.48945756849
30
0
41
1
10
97.9593527125388
20
-13.2450342364116
30
0
41
1
10
98.0252879837928
20
-13.1002254390697
30
0
41
1
10
98.1571585263005
20
-12.7644688946667
30
0
41
1
10
98.2230937975544
20
-12.5735158884658
30
0
41
1
10
98.3549643400622
20
-12.1459095859409
30
0
41
1
10
98.4208996113161
20
-11.9092544046864
30
0
41
1
10
98.5527701538238
20
-11.3921917838271
30
0
41
1
10
98.6187054250777
20
-11.1117864406301
30
0
41
1
10
98.7505759675855
20
-10.5106796416931
30
0
41
1
10
98.8165112388394
20
-10.1899843335569
30
0
41
1
10
98.9483817813472
20
-9.51313789642705
30
0
41
1
10
99.0143170526011
20
-9.1569964321389
30
0
41
1
10
99.1461875951089
20
-8.41524227304296
30
0
41
1
10
99.2121228663627
20
-8.02964169386837
30
0
41
1
10
99.3439934088705
20
-7.23576688885828
30
0
41
1
10
99.4099286801244
20
-6.82750582943936
30
0
41
1
10
99.5417992226321
20
-5.99553574586218
30
0
41
1
10
99.607734493886
20
-5.57183947414433
30
0
41
1
10
99.7396050363939
20
-4.71625831505494
30
0
41
1
10
99.8055403076476
20
-4.28438450077405
30
0
41
1
10
99.9374108501555
20
-3.41937924462312
30
0
41
1
10
100.003346121409
20
-2.98625632073856
30
0
41
1
10
100.135216663917
20
-2.12505861074308
30
0
41
1
10
100.201151935171
20
-1.69698938111861
30
0
41
1
10
100.333022477679
20
-0.851367340890846
30
0
41
1
10
100.398957748933
20
-0.433817159634515
30
0
41
1
10
100.481376838
20
0.0787299830097368
30
0
41
1
10
100.497860655813
20
0.181437744854918
30
0
41
1
10
100.53082829144
20
0.387989928866119
30
0
41
1
10
100.580279744881
20
0.699137116780179
30
0
41
1
10
100.629731198321
20
1.01394242609871
30
0
41
1
10
100.728634105202
20
1.64754771808646
30
0
41
1
10
100.794569376456
20
2.07530581119463
30
0
41
1
10
100.926439918964
20
2.93610914393108
30
0
41
1
10
100.992375190218
20
3.36914894348382
30
0
41
1
10
101.124245732725
20
4.23424488346285
30
0
41
1
10
101.190181003979
20
4.66629261593909
30
0
41
1
10
101.322051546487
20
5.52249775715532
30
0
41
1
10
101.387986817741
20
5.94664417826561
30
0
41
1
10
101.519857360249
20
6.77979709138697
30
0
41
1
10
101.585792631503
20
7.1887908744217
30
0
41
1
10
101.71766317401
20
7.98440521534786
30
0
41
1
10
101.783598445264
20
8.37101259611165
30
0
41
1
10
101.915468987772
20
9.1150306464192
30
0
41
1
10
101.981404259026
20
9.47242913235149
30
0
41
1
10
102.113274801534
20
10.1520019200828
30
0
41
1
10
102.179210072788
20
10.4741664396531
30
0
41
1
10
102.311080615295
20
11.0783746310655
30
0
41
1
10
102.377015886549
20
11.360412005513
30
0
41
1
10
102.508886429057
20
11.8808450485511
30
0
41
1
10
102.574821700311
20
12.1192384615036
30
0
41
1
10
102.706692242819
20
12.55036843209
30
0
41
1
10
102.772627514072
20
12.7431067289443
30
0
41
1
10
102.90449805658
20
13.0824240203696
30
0
41
1
10
102.970433327834
20
13.2290081599688
30
0
41
1
10
103.102303870342
20
13.4769213807117
30
0
41
1
10
103.168239141596
20
13.5782580514302
30
0
41
1
10
103.300109684104
20
13.737792245259
30
0
41
1
10
103.366044955357
20
13.7959986880818
30
0
41
1
10
103.497915497865
20
13.8723479714131
30
0
41
1
10
103.563850769119
20
13.8905
30
0
41
1
10
103.629786040373
20
13.8905
30
0
0
SPLINE
5
F0
100
AcDbEntity
8
1
62
256
6
ByLayer
370
13
48
1
60
0
100
AcDbSpline
70
4
71
3
72
80
73
76
40
0
40
0
40
0
40
0
40
0.0312500000000003
40
0.0312500000000003
40
0.0625000000000006
40
0.0625000000000006
40
0.093750000000001
40
0.093750000000001
40
0.125000000000001
40
0.125000000000001
40
0.156250000000002
40
0.156250000000002
40
0.187500000000002
40
0.187500000000002
40
0.218750000000002
40
0.218750000000002
40
0.250000000000003
40
0.250000000000003
40
0.281250000000003
40
0.281250000000003
40
0.312500000000003
40
0.312500000000003
40
0.343750000000004
40
0.343750000000004
40
0.359375000000004
40
0.359375000000004
40
0.363281250000004
40
0.363281250000004
40
0.367187500000004
40
0.375000000000004
40
0.375000000000004
40
0.406250000000004
40
0.406250000000004
40
0.437500000000004
40
0.437500000000004
40
0.468750000000004
40
0.468750000000004
40
0.500000000000005
40
0.500000000000005
40
0.531250000000005
40
0.531250000000005
40
0.562500000000005
40
0.562500000000005
40
0.593750000000005
40
0.593750000000005
40
0.625000000000005
40
0.625000000000005
40
0.656250000000006
40
0.656250000000006
40
0.687500000000006
40
0.687500000000006
40
0.718750000000006
40
0.718750000000006
40
0.722656250000006
40
0.722656250000006
40
0.726562500000006
40
0.734375000000006
40
0.734375000000006
40
0.750000000000005
40
0.750000000000005
40
0.781250000000005
40
0.781250000000005
40
0.812500000000004
40
0.812500000000004
40
0.843750000000003
40
0.843750000000003
40
0.875000000000003
40
0.875000000000003
40
0.906250000000002
40
0.906250000000002
40
0.937500000000001
40
0.937500000000001
40
0.968750000000001
40
0.968750000000001
40
1
40
1
40
1
40
1
41
1
10
101.185838203147
20
13.8905
30
0
41
1
10
101.277071882915
20
13.8905
30
0
41
1
10
101.368305562684
20
13.8557021264223
30
0
41
1
10
101.550772922221
20
13.7069070363605
30
0
41
1
10
101.642006601989
20
13.5928633668766
30
0
41
1
10
101.824473961526
20
13.2787721567683
30
0
41
1
10
101.915707641295
20
13.0786842919039
30
0
41
1
10
102.098175000832
20
12.589926119863
30
0
41
1
10
102.1894086806
20
12.3012322541058
30
0
41
1
10
102.371876040137
20
11.637909046111
30
0
41
1
10
102.463109719906
20
11.2632815774023
30
0
41
1
10
102.645577079443
20
10.436318643937
30
0
41
1
10
102.736810759212
20
9.98401339952912
30
0
41
1
10
102.919278118749
20
9.01502565746173
30
0
41
1
10
103.010511798517
20
8.49839686460189
30
0
41
1
10
103.192979158054
20
7.41791064914932
30
0
41
1
10
103.284212837823
20
6.85411896296065
30
0
41
1
10
103.46668019736
20
5.69843260670169
30
0
41
1
10
103.557913877128
20
5.10660170283336
30
0
41
1
10
103.740381236665
20
3.91394262237014
30
0
41
1
10
103.831614916434
20
3.31316450161574
30
0
41
1
10
104.014082275971
20
2.11994790645369
30
0
41
1
10
104.105315955739
20
1.52753951500006
30
0
41
1
10
104.242166475392
20
0.655942299883321
30
0
41
1
10
104.287783315276
20
0.368219742189837
30
0
41
1
10
104.344804365132
20
0.0129894563484356
30
0
41
1
10
104.356208575103
20
-0.0577859293831011
30
0
41
1
10
104.379016995045
20
-0.200062792365145
30
0
41
1
10
104.413229624958
20
-0.414132981165835
30
0
41
1
10
104.447442254871
20
-0.630072118510185
30
0
41
1
10
104.561484354582
20
-1.35356364520055
30
0
41
1
10
104.652718034351
20
-1.94431350715149
30
0
41
1
10
104.835185393888
20
-3.13577236170121
30
0
41
1
10
104.926419073656
20
-3.73645334550312
30
0
41
1
10
105.108886433193
20
-4.93072881264396
30
0
41
1
10
105.200120112962
20
-5.52427503524683
30
0
41
1
10
105.382587472499
20
-6.68530825219506
30
0
41
1
10
105.473821152267
20
-7.25273238387774
30
0
41
1
10
105.656288511805
20
-8.34231667395446
30
0
41
1
10
105.747522191573
20
-8.86441066918127
30
0
41
1
10
105.92998955111
20
-9.84588182046332
30
0
41
1
10
106.021223230879
20
-10.3052034955247
30
0
41
1
10
106.203690590416
20
-11.1473084346218
30
0
41
1
10
106.294924270184
20
-11.5300588164773
30
0
41
1
10
106.477391629721
20
-12.2101982388434
30
0
41
1
10
106.56862530949
20
-12.5075826177627
30
0
41
1
10
106.751092669027
20
-13.0137433729923
30
0
41
1
10
106.842326348795
20
-13.2225411166364
30
0
41
1
10
107.024793708332
20
-13.5535920337401
30
0
41
1
10
107.116027388101
20
-13.6758843486739
30
0
41
1
10
107.298494747638
20
-13.8403541348474
30
0
41
1
10
107.389728427407
20
-13.8825779052525
30
0
41
1
10
107.492366317146
20
-13.890343504914
30
0
41
1
10
107.503770527117
20
-13.890656591522
30
0
41
1
10
107.526578947059
20
-13.8901990571645
30
0
41
1
10
107.560791576973
20
-13.8878791886465
30
0
41
1
10
107.595004206886
20
-13.8805661878325
30
0
41
1
10
107.663429466712
20
-13.8590460655334
30
0
41
1
10
107.709046306596
20
-13.835502327614
30
0
41
1
10
107.845896826249
20
-13.7355398083671
30
0
41
1
10
107.937130506018
20
-13.6296774559769
30
0
41
1
10
108.119597865555
20
-13.3324527296311
30
0
41
1
10
108.210831545323
20
-13.1410489552261
30
0
41
1
10
108.39329890486
20
-12.6696932168863
30
0
41
1
10
108.484532584629
20
-12.3897155908182
30
0
41
1
10
108.666999944166
20
-11.743315096983
30
0
41
1
10
108.758233623935
20
-11.3768913448805
30
0
41
1
10
108.940700983472
20
-10.5652824051657
30
0
41
1
10
109.03193466324
20
-10.1201247277186
30
0
41
1
10
109.214402022777
20
-9.1639203166082
30
0
41
1
10
109.305635702546
20
-8.65292539649926
30
0
41
1
10
109.488103062083
20
-7.58189397815536
30
0
41
1
10
109.579336741851
20
-7.02192264903465
30
0
41
1
10
109.761804101388
20
-5.87195856839546
30
0
41
1
10
109.853037781157
20
-5.28203036956083
30
0
41
1
10
109.944271460925
20
-4.68668757222557
30
0
0
SPLINE
5
F1
100
AcDbEntity
8
1
62
256
6
ByLayer
370
13
48
1
60
0
100
AcDbSpline
70
4
71
3
72
74
73
70
40
0
40
0
40
0
40
0
40
0.03125
40
0.03125
40
0.0625
40
0.0625
40
0.09375
40
0.09375
40
0.125
40
0.125
40
0.15625
40
0.15625
40
0.1875
40
0.1875
40
0.21875
40
0.21875
40
0.25
40
0.25
40
0.28125
40
0.28125
40
0.3125
40
0.3125
40
0.34375
40
0.34375
40
0.375
40
0.375
40
0.40625
40
0.40625
40
0.4375
40
0.4375
40
0.453125
40
0.453125
40
0.4609375
40
0.4609375
40
0.46875
40
0.46875
40
0.5
40
0.5
40
0.53125
40
0.53125
40
0.5625
40
0.5625
40
0.59375
40
0.59375
40
0.625
40
0.625
40
0.65625
40
0.65625
40
0.6875
40
0.6875
40
0.71875
40
0.71875
40
0.75
40
0.75
40
0.78125
40
0.78125
40
0.8125
40
0.8125
40
0.84375
40
0.84375
40
0.875
40
0.875
40
0.90625
40
0.90625
40
0.9375
40
0.9375
40
0.96875
40
0.96875
40
1
40
1
40
1
40
1
41
1
10
97.3
20
-13.5469418687825
30
0
41
1
10
97.3608755869168
20
-13.4565256752207
30
0
41
1
10
97.4217511738335
20
-13.3472973613344
30
0
41
1
10
97.543502347667
20
-13.0899007538862
30
0
41
1
10
97.6043779345837
20
-12.9417278396087
30
0
41
1
10
97.7261291084171
20
-12.606047965628
30
0
41
1
10
97.787004695334
20
-12.418538097144
30
0
41
1
10
97.9087558691674
20
-12.0048386614059
30
0
41
1
10
97.9696314560841
20
-11.7786484050297
30
0
41
1
10
98.0913826299176
20
-11.2893467370658
30
0
41
1
10
98.1522582168343
20
-11.026237142666
30
0
41
1
10
98.2740093906677
20
-10.4659434772507
30
0
41
1
10
98.3348849775845
20
-10.16876371949
30
0
41
1
10
98.4566361514179
20
-9.5441722324307
30
0
41
1
10
98.5175117383346
20
-9.21676698189512
30
0
41
1
10
98.6392629121682
20
-8.53639936592703
30
0
41
1
10
98.7001384990849
20
-8.18344503407661
30
0
41
1
10
98.8218896729183
20
-7.45726615969167
30
0
41
1
10
98.8827652598351
20
-7.08405041194405
30
0
41
1
10
99.0045164336685
20
-6.32299201425693
30
0
41
1
10
99.0653920205853
20
-5.93515807480878
30
0
41
1
10
99.1871431944188
20
-5.15059713910026
30
0
41
1
10
99.2480187813355
20
-4.75387800439265
30
0
41
1
10
99.369769955169
20
-3.95711962448041
30
0
41
1
10
99.4306455420858
20
-3.55708681231042
30
0
41
1
10
99.5523967159192
20
-2.7588966511928
30
0
41
1
10
99.6132723028359
20
-2.36074396879698
30
0
41
1
10
99.7350234766693
20
-1.57096469151369
30
0
41
1
10
99.795899063586
20
-1.17934090533416
30
0
41
1
10
99.8872124439612
20
-0.59979484793763
30
0
41
1
10
99.9176502374195
20
-0.407922381399146
30
0
41
1
10
99.9633069276071
20
-0.122402135821915
30
0
41
1
10
99.9785258243364
20
-0.0278535624929646
30
0
41
1
10
100.008963617795
20
0.16167329531126
30
0
41
1
10
100.024182514524
20
0.256831120973885
30
0
41
1
10
100.10027699817
20
0.734464440234888
30
0
41
1
10
100.161152585086
20
1.12250032784252
30
0
41
1
10
100.28290375892
20
1.90671061618724
30
0
41
1
10
100.343779345837
20
2.30288289661925
30
0
41
1
10
100.46553051967
20
3.09896000762078
30
0
41
1
10
100.526406106587
20
3.49886088349083
30
0
41
1
10
100.64815728042
20
4.29739471423045
30
0
41
1
10
100.709032867337
20
4.69602188513591
30
0
41
1
10
100.830784041171
20
5.48655964251102
30
0
41
1
10
100.891659628087
20
5.87846285744368
30
0
41
1
10
101.013410801921
20
6.64985437320399
30
0
41
1
10
101.074286388837
20
7.02933420595227
30
0
41
1
10
101.196037562671
20
7.77017071269438
30
0
41
1
10
101.256913149588
20
8.13151852595394
30
0
41
1
10
101.378664323421
20
8.83063569228653
30
0
41
1
10
101.439539910338
20
9.16839662126833
30
0
41
1
10
101.561291084171
20
9.81540024086198
30
0
41
1
10
101.622166671088
20
10.1246357737721
30
0
41
1
10
101.743917844922
20
10.7104012498194
30
0
41
1
10
101.804793431838
20
10.9869259962157
30
0
41
1
10
101.926544605672
20
11.5040228136083
30
0
41
1
10
101.987420192588
20
11.7445920946371
30
0
41
1
10
102.109171366422
20
12.1875924240001
30
0
41
1
10
102.170046953339
20
12.3900232224322
30
0
41
1
10
102.291798127172
20
12.7556683661298
30
0
41
1
10
102.352673714089
20
12.918884821854
30
0
41
1
10
102.474424887922
20
13.2061015065841
30
0
41
1
10
102.535300474839
20
13.3301057717937
30
0
41
1
10
102.657051648673
20
13.539882650032
30
0
41
1
10
102.717927235589
20
13.6256606323038
30
0
41
1
10
102.839678409423
20
13.7608103711015
30
0
41
1
10
102.900553996339
20
13.8101881878348
30
0
41
1
10
103.022305170173
20
13.8750299244711
30
0
41
1
10
103.08318075709
20
13.8905
30
0
41
1
10
103.144056344006
20
13.8905
30
0
0
SPLINE
5
F2
100
AcDbEntity
8
1
62
256
6
ByLayer
370
13
48
1
60
0
100
AcDbSpline
70
4
71
3
72
79
73
75
40
0
40
0
40
0
40
0
40
0.0312499999999999
40
0.0312499999999999
40
0.0624999999999998
40
0.0624999999999998
40
0.0937499999999998
40
0.0937499999999998
40
0.125
40
0.125
40
0.15625
40
0.15625
40
0.1875
40
0.1875
40
0.218749999999999
40
0.218749999999999
40
0.249999999999999
40
0.249999999999999
40
0.281249999999999
40
0.281249999999999
40
0.312499999999999
40
0.312499999999999
40
0.328124999999999
40
0.328124999999999
40
0.335937499999999
40
0.339843749999999
40
0.339843749999999
40
0.343749999999999
40
0.343749999999999
40
0.374999999999999
40
0.374999999999999
40
0.406249999999999
40
0.406249999999999
40
0.437499999999999
40
0.437499999999999
40
0.468749999999998
40
0.468749999999998
40
0.499999999999998
40
0.499999999999998
40
0.531249999999998
40
0.531249999999998
40
0.562499999999998
40
0.562499999999998
40
0.593749999999998
40
0.593749999999998
40
0.624999999999998
40
0.624999999999998
40
0.656249999999998
40
0.656249999999998
40
0.671874999999999
40
0.671874999999999
40
0.679687499999999
40
0.679687499999999
40
0.687499999999999
40
0.687499999999999
40
0.718749999999999
40
0.718749999999999
40
0.749999999999999
40
0.749999999999999
40
0.781249999999999
40
0.781249999999999
40
0.812499999999999
40
0.812499999999999
40
0.843749999999999
40
0.843749999999999
40
0.874999999999999
40
0.874999999999999
40
0.90625
40
0.90625
40
0.9375
40
0.9375
40
0.96875
40
0.96875
40
1
40
1
40
1
40
1
41
1
10
100.70010850678
20
13.8905
30
0
41
1
10
100.796401870886
20
13.8905
30
0
41
1
10
100.892695234991
20
13.8517229528128
30
0
41
1
10
101.085281963203
20
13.6853999524015
30
0
41
1
10
101.181575327308
20
13.5577933204771
30
0
41
1
10
101.37416205552
20
13.2061588675551
30
0
41
1
10
101.470455419625
20
12.9820800583892
30
0
41
1
10
101.663042147837
20
12.4352568221025
30
0
41
1
10
101.759335511942
20
12.1124864990021
30
0
41
1
10
101.951922240154
20
11.372656042734
30
0
41
1
10
102.048215604259
20
10.9556066228549
30
0
41
1
10
102.240802332471
20
10.0384793479986
30
0
41
1
10
102.337095696577
20
9.53845062744765
30
0
41
1
10
102.529682424788
20
8.47260942244242
30
0
41
1
10
102.625975788893
20
7.90687439326578
30
0
41
1
10
102.818562517105
20
6.73089959560227
30
0
41
1
10
102.91485588121
20
6.12074697162376
30
0
41
1
10
103.107442609422
20
4.87870407784206
30
0
41
1
10
103.203735973528
20
4.24689082310431
30
0
41
1
10
103.396322701739
20
2.98324524263174
30
0
41
1
10
103.492616065845
20
2.3514659105636
30
0
41
1
10
103.637056112003
20
1.41778806686804
30
0
41
1
10
103.685202794056
20
1.10886530848603
30
0
41
1
10
103.757422817135
20
0.650391162076318
30
0
41
1
10
103.793532828675
20
0.422378399491492
30
0
41
1
10
103.829642840215
20
0.196445562677297
30
0
41
1
10
103.853716181241
20
0.0463108606905678
30
0
41
1
10
103.865752851754
20
-0.0283701005041621
30
0
41
1
10
103.974082886373
20
-0.703625323386547
30
0
41
1
10
104.070376250479
20
-1.31969403029382
30
0
41
1
10
104.26296297869
20
-2.5685938412262
30
0
41
1
10
104.359256342796
20
-3.20139737374848
30
0
41
1
10
104.551843071007
20
-4.46472371248891
30
0
41
1
10
104.648136435113
20
-5.09519034609974
30
0
41
1
10
104.840723163324
20
-6.33193399911693
30
0
41
1
10
104.93701652743
20
-6.93813197151332
30
0
41
1
10
105.129603255641
20
-8.10362374392409
30
0
41
1
10
105.225896619747
20
-8.66283045506623
30
0
41
1
10
105.418483347958
20
-9.71337707273005
30
0
41
1
10
105.514776712064
20
-10.204641937346
30
0
41
1
10
105.707363440276
20
-11.1026059555613
30
0
41
1
10
105.803656804381
20
-11.5092600962309
30
0
41
1
10
105.996243532592
20
-12.2274320976539
30
0
41
1
10
106.092536896698
20
-12.5389437710126
30
0
41
1
10
106.28512362491
20
-13.0631795959056
30
0
41
1
10
106.381416989015
20
-13.2759332475688
30
0
41
1
10
106.574003717226
20
-13.6055484152235
30
0
41
1
10
106.670297081332
20
-13.7224628264149
30
0
41
1
10
106.814737127491
20
-13.8320296505304
30
0
41
1
10
106.862883809544
20
-13.8576201639876
30
0
41
1
10
106.935103832623
20
-13.8806262697106
30
0
41
1
10
106.959177173649
20
-13.8857332106785
30
0
41
1
10
107.007323855702
20
-13.8910090383264
30
0
41
1
10
107.031397196729
20
-13.8912001566506
30
0
41
1
10
107.151763901861
20
-13.8799790006213
30
0
41
1
10
107.248057265966
20
-13.8315085103755
30
0
41
1
10
107.440643994178
20
-13.6446964361441
30
0
41
1
10
107.536937358283
20
-13.5062945247677
30
0
41
1
10
107.729524086495
20
-13.132506776344
30
0
41
1
10
107.8258174506
20
-12.8970720686247
30
0
41
1
10
108.018404178812
20
-12.3276885797211
30
0
41
1
10
108.114697542917
20
-11.9937176659979
30
0
41
1
10
108.307284271129
20
-11.2324372859984
30
0
41
1
10
108.403577635234
20
-10.8051430856178
30
0
41
1
10
108.596164363446
20
-9.86923389514087
30
0
41
1
10
108.692457727551
20
-9.36067202340928
30
0
41
1
10
108.885044455763
20
-8.28005168549021
30
0
41
1
10
108.981337819869
20
-7.708072832787
30
0
41
1
10
109.17392454808
20
-6.52220366121526
30
0
41
1
10
109.270217912186
20
-5.90840027199297
30
0
41
1
10
109.462804640397
20
-4.66165141235427
30
0
41
1
10
109.559098004503
20
-4.02878073759425
30
0
41
1
10
109.751684732714
20
-2.76535309755914
30
0
41
1
10
109.84797809682
20
-2.1348458870842
30
0
41
1
10
109.944271460925
20
-1.51461158023207
30
0
0
SPLINE
5
F3
100
AcDbEntity
8
1
62
256
6
ByLayer
370
13
48
1
60
0
100
AcDbSpline
70
4
71
3
72
51
73
47
40
0
40
0
40
0
40
0
40
0.0625000000000016
40
0.0625000000000016
40
0.0937500000000024
40
0.0937500000000024
40
0.125000000000003
40
0.125000000000003
40
0.156250000000004
40
0.156250000000004
40
0.187500000000005
40
0.187500000000005
40
0.250000000000007
40
0.250000000000007
40
0.312500000000009
40
0.312500000000009
40
0.37500000000001
40
0.37500000000001
40
0.406250000000011
40
0.406250000000011
40
0.414062500000011
40
0.414062500000011
40
0.421875000000011
40
0.437500000000011
40
0.437500000000011
40
0.50000000000001
40
0.50000000000001
40
0.562500000000009
40
0.562500000000009
40
0.625000000000007
40
0.625000000000007
40
0.656250000000007
40
0.656250000000007
40
0.687500000000006
40
0.687500000000006
40
0.718750000000006
40
0.718750000000006
40
0.750000000000005
40
0.750000000000005
40
0.812500000000004
40
0.812500000000004
40
0.875000000000002
40
0.875000000000002
40
0.937500000000001
40
0.937500000000001
40
1
40
1
40
1
40
1
41
1
10
97.3
20
-12.4161447741209
30
0
41
1
10
97.4116318051591
20
-12.061026691214
30
0
41
1
10
97.5232636103183
20
-11.6399242535281
30
0
41
1
10
97.6907113180571
20
-10.9178180585273
30
0
41
1
10
97.7465272206367
20
-10.6621396325501
30
0
41
1
10
97.8581590257959
20
-10.1233792542417
30
0
41
1
10
97.9139749283754
20
-9.84030071224018
30
0
41
1
10
98.0256067335346
20
-9.24995525536713
30
0
41
1
10
98.0814226361141
20
-8.94269292272543
30
0
41
1
10
98.1930544412733
20
-8.30773601585702
30
0
41
1
10
98.2488703438529
20
-7.9800468221201
30
0
41
1
10
98.4163180515916
20
-6.97255003994127
30
0
41
1
10
98.5279498567509
20
-6.26830572499594
30
0
41
1
10
98.7512134670692
20
-4.829772839231
30
0
41
1
10
98.8628452722284
20
-4.09564605247391
30
0
41
1
10
99.0861088825467
20
-2.63106269858383
30
0
41
1
10
99.1977406877057
20
-1.90070914340822
30
0
41
1
10
99.3651883954444
20
-0.828820660728837
30
0
41
1
10
99.4210042980241
20
-0.475409604417166
30
0
41
1
10
99.4907741762486
20
-0.040212348750515
30
0
41
1
10
99.5047281518935
20
0.0463400862356025
30
0
41
1
10
99.5326361031833
20
0.220449736934455
30
0
41
1
10
99.574498030118
20
0.482593611725662
30
0
41
1
10
99.6163599570526
20
0.747499956526383
30
0
41
1
10
99.7558997135016
20
1.63580435550972
30
0
41
1
10
99.8675315186608
20
2.36364682475184
30
0
41
1
10
100.090795128979
20
3.82696655276422
30
0
41
1
10
100.202426934138
20
4.56234923955233
30
0
41
1
10
100.425690544457
20
6.00769118970035
30
0
41
1
10
100.537322349616
20
6.71749428835506
30
0
41
1
10
100.704770057354
20
7.73651729737276
30
0
41
1
10
100.760585959934
20
8.06857477156939
30
0
41
1
10
100.872217765093
20
8.71325091500515
30
0
41
1
10
100.928033667673
20
9.02586407534514
30
0
41
1
10
101.039665472832
20
9.62778404506307
30
0
41
1
10
101.095481375411
20
9.9170860390449
30
0
41
1
10
101.207113180571
20
10.4690217792519
30
0
41
1
10
101.26292908315
20
10.7316518006761
30
0
41
1
10
101.430376790889
20
11.4754494763131
30
0
41
1
10
101.542008596048
20
11.9121298455806
30
0
41
1
10
101.765272206367
20
12.6542445383577
30
0
41
1
10
101.876904011526
20
12.9596981764643
30
0
41
1
10
102.100167621844
20
13.4387990749438
30
0
41
1
10
102.211799427003
20
13.6125392205556
30
0
41
1
10
102.435063037321
20
13.8383269636062
30
0
41
1
10
102.546694842481
20
13.8905
30
0
41
1
10
102.65832664764
20
13.8905
30
0
0
SPLINE
5
F4
100
AcDbEntity
8
1
62
256
6
ByLayer
370
13
48
1
60
0
100
AcDbSpline
70
4
71
3
72
87
73
83
40
0
40
0
40
0
40
0
40
0.0312499999999999
40
0.0312499999999999
40
0.0624999999999998
40
0.0624999999999998
40
0.0937499999999997
40
0.0937499999999997
40
0.125
40
0.125
40
0.15625
40
0.15625
40
0.1875
40
0.1875
40
0.21875
40
0.21875
40
0.25
40
0.25
40
0.28125
40
0.28125
40
0.3125
40
0.3125
40
0.3203125
40
0.32421875
40
0.32421875
40
0.328125
40
0.328125
40
0.34375
40
0.34375
40
0.375
40
0.375
40
0.40625
40
0.40625
40
0.4375
40
0.4375
40
0.46875
40
0.46875
40
0.5
40
0.5
40
0.53125
40
0.53125
40
0.5625
40
0.5625
40
0.59375
40
0.59375
40
0.625
40
0.625
40
0.640625
40
0.640625
40
0.6484375
40
0.6484375
40
0.65234375
40
0.65234375
40
0.65625
40
0.65625
40
0.6875
40
0.6875
40
0.71875
40
0.71875
40
0.75
40
0.75
40
0.78125
40
0.78125
40
0.8125
40
0.8125
40
0.84375
40
0.84375
40
0.875
40
0.875
40
0.90625
40
0.90625
40
0.9375
40
0.9375
40
0.96875
40
0.96875
40
0.97265625
40
0.97265625
40
0.9765625
40
0.9765625
40
0.984375
40
0.984375
40
1
40
1
40
1
40
1
41
1
10
100.214378810413
20
13.8905
30
0
41
1
10
100.315731858856
20
13.8905
30
0
41
1
10
100.417084907299
20
13.8475260042148
30
0
41
1
10
100.619791004185
20
13.6626442306159
30
0
41
1
10
100.721144052627
20
13.5206583372564
30
0
41
1
10
100.923850149513
20
13.129248051941
30
0
41
1
10
101.025203197956
20
12.8797603861675
30
0
41
1
10
101.227909294842
20
12.2716723425517
30
0
41
1
10
101.329262343284
20
11.9130452960263
30
0
41
1
10
101.53196844017
20
11.0932662675876
30
0
41
1
10
101.633321488613
20
10.6321388773763
30
0
41
1
10
101.836027585499
20
9.62228478926414
30
0
41
1
10
101.937380633942
20
9.07363293491574
30
0
41
1
10
102.140086730827
20
7.91048007320217
30
0
41
1
10
102.24143977927
20
7.29608581520966
30
0
41
1
10
102.444145876156
20
6.0272132191929
30
0
41
1
10
102.545498924598
20
5.37284525123735
30
0
41
1
10
102.748205021484
20
4.05043502066738
30
0
41
1
10
102.849558069927
20
3.38248066156532
30
0
41
1
10
103.052264166813
20
2.05688454540348
30
0
41
1
10
103.153617215255
20
1.39929374942665
30
0
41
1
10
103.280308525809
20
0.59589941794448
30
0
41
1
10
103.318315918975
20
0.356256582307026
30
0
41
1
10
103.356323312141
20
0.118957864259869
30
0
41
1
10
103.381661574252
20
-0.0386916933292127
30
0
41
1
10
103.394330705307
20
-0.1174674934297
30
0
41
1
10
103.457676360584
20
-0.513374994631789
30
0
41
1
10
103.508352884805
20
-0.834359944979013
30
0
41
1
10
103.66038245747
20
-1.80700813806862
30
0
41
1
10
103.761735505912
20
-2.46851749081495
30
0
41
1
10
103.964441602798
20
-3.79730951910614
30
0
41
1
10
104.065794651241
20
-4.46453308344559
30
0
41
1
10
104.268500748127
20
-5.78012175352717
30
0
41
1
10
104.36985379657
20
-6.42839263424491
30
0
41
1
10
104.572559893455
20
-7.67956141780223
30
0
41
1
10
104.673912941898
20
-8.28234730511556
30
0
41
1
10
104.876619038784
20
-9.41732312527682
30
0
41
1
10
104.977972087227
20
-9.94941076205939
30
0
41
1
10
105.180678184112
20
-10.9223856611296
30
0
41
1
10
105.282031232555
20
-11.3632075198433
30
0
41
1
10
105.484737329441
20
-12.1402791943439
30
0
41
1
10
105.586090377883
20
-12.4765155783442
30
0
41
1
10
105.788796474769
20
-13.0395023914746
30
0
41
1
10
105.890149523212
20
-13.2662886790787
30
0
41
1
10
106.092855620098
20
-13.6135556996621
30
0
41
1
10
106.194208668541
20
-13.7341046243668
30
0
41
1
10
106.346238241205
20
-13.8424279470557
30
0
41
1
10
106.396914765426
20
-13.8664958659922
30
0
41
1
10
106.472929551758
20
-13.8857455514403
30
0
41
1
10
106.498267813869
20
-13.8893552077001
30
0
41
1
10
106.536275207035
20
-13.8907241177312
30
0
41
1
10
106.54894433809
20
-13.8905104312578
30
0
41
1
10
106.574282600201
20
-13.8887300286829
30
0
41
1
10
106.586951731256
20
-13.8871611556365
30
0
41
1
10
106.700973910755
20
-13.8668091171705
30
0
41
1
10
106.802326959197
20
-13.8042476955249
30
0
41
1
10
107.005033056083
20
-13.5779666500048
30
0
41
1
10
107.106386104526
20
-13.4141701974492
30
0
41
1
10
107.309092201412
20
-12.9781663631911
30
0
41
1
10
107.410445249855
20
-12.7059015975354
30
0
41
1
10
107.61315134674
20
-12.0529215930211
30
0
41
1
10
107.714504395183
20
-11.6721895391594
30
0
41
1
10
107.917210492069
20
-10.8106393424377
30
0
41
1
10
108.018563540511
20
-10.3298569147475
30
0
41
1
10
108.221269637397
20
-9.28472326782725
30
0
41
1
10
108.32262268584
20
-8.72045551418529
30
0
41
1
10
108.525328782726
20
-7.53119717788474
30
0
41
1
10
108.626681831168
20
-6.90631653389653
30
0
41
1
10
108.829387928054
20
-5.62201071070274
30
0
41
1
10
108.930740976497
20
-4.96269309779817
30
0
41
1
10
109.133447073383
20
-3.63564838556698
30
0
41
1
10
109.234800121826
20
-2.9680022379371
30
0
41
1
10
109.437506218711
20
-1.64747990342914
30
0
41
1
10
109.538859267154
20
-0.994646513620722
30
0
41
1
10
109.652881446652
20
-0.278831165134591
30
0
41
1
10
109.665550577708
20
-0.199551320901151
30
0
41
1
10
109.690888839818
20
-0.0415316812260187
30
0
41
1
10
109.703557970874
20
0.0370644279221608
30
0
41
1
10
109.74156536404
20
0.274063271994322
30
0
41
1
10
109.76690362615
20
0.433144371736091
30
0
41
1
10
109.842918412483
20
0.913269531358196
30
0
41
1
10
109.893594936704
20
1.23720600746808
30
0
41
1
10
109.944271460925
20
1.56389681216751
30
0
0
SPLINE
5
F5
100
AcDbEntity
8
1
62
256
6
ByLayer
370
13
48
1
60
0
100
AcDbSpline
70
4
71
3
72
42
73
38
40
0
40
0
40
0
40
0
40
0.0625
40
0.0625
40
0.125
40
0.125
40
0.1875
40
0.1875
40
0.25
40
0.25
40
0.3125
40
0.3125
40
0.34375
40
0.34375
40
0.359375
40
0.359375
40
0.375
40
0.375
40
0.4375
40
0.4375
40
0.5
40
0.5
40
0.5625
40
0.5625
40
0.625
40
0.625
40
0.6875
40
0.6875
40
0.75
40
0.75
40
0.8125
40
0.8125
40
0.875
40
0.875
40
0.9375
40
0.9375
40
1
40
1
40
1
40
1
41
1
10
97.3
20
-10.4725344294642
30
0
41
1
10
97.4015124364848
20
-9.98757240851933
30
0
41
1
10
97.5030248729697
20
-9.45664842889937
30
0
41
1
10
97.7060497459394
20
-8.32322326949108
30
0
41
1
10
97.8075621824244
20
-7.72082459960274
30
0
41
1
10
98.010587055394
20
-6.46970201243187
30
0
41
1
10
98.1120994918789
20
-5.82109109442069
30
0
41
1
10
98.3151243648486
20
-4.50422658690746
30
0
41
1
10
98.4166368013335
20
-3.83606855121494
30
0
41
1
10
98.6196616743032
20
-2.50499185911883
30
0
41
1
10
98.721174110788
20
-1.84213352180336
30
0
41
1
10
98.8734427655154
20
-0.867290942305004
30
0
41
1
10
98.9241989837577
20
-0.545545988807419
30
0
41
1
10
99.0003333111213
20
-0.0692902197467049
30
0
41
1
10
99.0257114202426
20
0.0878946963070746
30
0
41
1
10
99.076467638485
20
0.405563976557119
30
0
41
1
10
99.1018457476063
20
0.565451512081239
30
0
41
1
10
99.2287362932124
20
1.36952953000201
30
0
41
1
10
99.3302487296971
20
2.02784653736316
30
0
41
1
10
99.5332736026669
20
3.35523957704587
30
0
41
1
10
99.6347860391517
20
4.02426480831863
30
0
41
1
10
99.8378109121214
20
5.34909795965689
30
0
41
1
10
99.9393233486063
20
6.00481769299708
30
0
41
1
10
100.142348221576
20
7.27656279156531
30
0
41
1
10
100.243860658061
20
7.89247704145282
30
0
41
1
10
100.446885531031
20
9.05869333051598
30
0
41
1
10
100.548397967515
20
9.6088876087029
30
0
41
1
10
100.751422840485
20
10.6216984524547
30
0
41
1
10
100.85293527697
20
11.084239241873
30
0
41
1
10
101.05596014994
20
11.9065900006903
30
0
41
1
10
101.157472586425
20
12.2663748433641
30
0
41
1
10
101.360497459394
20
12.8764441171742
30
0
41
1
10
101.462009895879
20
13.1267552062714
30
0
41
1
10
101.665034768849
20
13.5194548127907
30
0
41
1
10
101.766547205334
20
13.6619070170058
30
0
41
1
10
101.969572078303
20
13.84739024952
30
0
41
1
10
102.071084514788
20
13.8905
30
0
41
1
10
102.172596951273
20
13.8905
30
0
0
SPLINE
5
F6
100
AcDbEntity
8
1
62
256
6
ByLayer
370
13
48
1
60
0
100
AcDbSpline
70
4
71
3
72
87
73
83
40
0
40
0
40
0
40
0
40
0.0312499999999998
40
0.0312499999999998
40
0.0624999999999996
40
0.0624999999999996
40
0.0937499999999994
40
0.0937499999999994
40
0.124999999999999
40
0.124999999999999
40
0.156249999999999
40
0.156249999999999
40
0.187499999999999
40
0.187499999999999
40
0.218749999999999
40
0.218749999999999
40
0.249999999999998
40
0.249999999999998
40
0.281249999999998
40
0.281249999999998
40
0.296874999999998
40
0.296874999999998
40
0.304687499999998
40
0.308593749999998
40
0.308593749999998
40
0.312499999999998
40
0.312499999999998
40
0.343749999999999
40
0.343749999999999
40
0.375
40
0.375
40
0.406250000000002
40
0.406250000000002
40
0.437500000000003
40
0.437500000000003
40
0.468750000000004
40
0.468750000000004
40
0.500000000000005
40
0.500000000000005
40
0.531250000000006
40
0.531250000000006
40
0.562500000000007
40
0.562500000000007
40
0.593750000000008
40
0.593750000000008
40
0.609375000000009
40
0.609375000000009
40
0.617187500000009
40
0.617187500000009
40
0.621093750000009
40
0.621093750000009
40
0.625000000000009
40
0.625000000000009
40
0.656250000000008
40
0.656250000000008
40
0.687500000000008
40
0.687500000000008
40
0.718750000000007
40
0.718750000000007
40
0.750000000000006
40
0.750000000000006
40
0.781250000000006
40
0.781250000000006
40
0.812500000000005
40
0.812500000000005
40
0.843750000000005
40
0.843750000000005
40
0.875000000000004
40
0.875000000000004
40
0.906250000000003
40
0.906250000000003
40
0.921875000000003
40
0.921875000000003
40
0.925781250000003
40
0.925781250000003
40
0.929687500000002
40
0.929687500000002
40
0.937500000000002
40
0.937500000000002
40
0.968750000000001
40
0.968750000000001
40
1
40
1
40
1
40
1
41
1
10
99.7286491140467
20
13.8905
30
0
41
1
10
99.8350618468266
20
13.8905
30
0
41
1
10
99.9414745796067
20
13.8431107241437
30
0
41
1
10
100.154300045167
20
13.6386321164328
30
0
41
1
10
100.260712777947
20
13.4814435427573
30
0
41
1
10
100.473538243506
20
13.0480213166559
30
0
41
1
10
100.579950976287
20
12.7717105401017
30
0
41
1
10
100.792776441847
20
12.0992239171348
30
0
41
1
10
100.899189174627
20
11.7030231254809
30
0
41
1
10
101.112014640187
20
10.8001044191706
30
0
41
1
10
101.218427372967
20
10.2934315071727
30
0
41
1
10
101.431252838527
20
9.18883263015977
30
0
41
1
10
101.537665571306
20
8.59101509629375
30
0
41
1
10
101.750491036867
20
7.33095397909042
30
0
41
1
10
101.856903769646
20
6.66885174738545
30
0
41
1
10
102.069729235206
20
5.31072816263904
30
0
41
1
10
102.176141967986
20
4.61484065588496
30
0
41
1
10
102.388967433546
20
3.21904881609041
30
0
41
1
10
102.495380166326
20
2.5192389412297
30
0
41
1
10
102.654999265496
20
1.48583518782516
30
0
41
1
10
102.708205631886
20
1.14404467159517
30
0
41
1
10
102.788015181471
20
0.637354180493986
30
0
41
1
10
102.827919956264
20
0.385503020497254
30
0
41
1
10
102.867824731056
20
0.136220303613925
30
0
41
1
10
102.894427914251
20
-0.0293641263173186
30
0
41
1
10
102.907729505849
20
-0.112024173872015
30
0
41
1
10
103.027443830226
20
-0.860201788596072
30
0
41
1
10
103.133856563006
20
-1.54424506043418
30
0
41
1
10
103.346682028566
20
-2.92957870511347
30
0
41
1
10
103.453094761346
20
-3.63081624716747
30
0
41
1
10
103.665920226906
20
-5.02384909815595
30
0
41
1
10
103.772332959686
20
-5.71554057507365
30
0
41
1
10
103.985158425246
20
-7.0592135120973
30
0
41
1
10
104.091571158026
20
-7.71105664225288
30
0
41
1
10
104.304396623586
20
-8.94490419866304
30
0
41
1
10
104.410809356366
20
-9.52677058240721
30
0
41
1
10
104.623634821926
20
-10.5949688644017
30
0
41
1
10
104.730047554706
20
-11.0812029944563
30
0
41
1
10
104.942873020266
20
-11.9405616113342
30
0
41
1
10
105.049285753046
20
-12.3136551601785
30
0
41
1
10
105.262111218606
20
-12.9392904652953
30
0
41
1
10
105.368523951386
20
-13.1918694098535
30
0
41
1
10
105.581349416946
20
-13.5790522983777
30
0
41
1
10
105.687762149726
20
-13.7137401901971
30
0
41
1
10
105.847381248896
20
-13.8353008417156
30
0
41
1
10
105.900587615286
20
-13.8624638161741
30
0
41
1
10
105.980397164871
20
-13.8845546150111
30
0
41
1
10
106.007000348066
20
-13.8888115082765
30
0
41
1
10
106.046905122858
20
-13.8907267534368
30
0
41
1
10
106.060206714456
20
-13.8906248264516
30
0
41
1
10
106.086809897651
20
-13.8889335606292
30
0
41
1
10
106.100111489248
20
-13.8873407630657
30
0
41
1
10
106.219825813626
20
-13.8661373088149
30
0
41
1
10
106.326238546406
20
-13.7982605995624
30
0
41
1
10
106.539064011966
20
-13.5504242439547
30
0
41
1
10
106.645476744746
20
-13.3703672594957
30
0
41
1
10
106.858302210306
20
-12.8903018341366
30
0
41
1
10
106.964714943086
20
-12.5902242987237
30
0
41
1
10
107.177540408646
20
-11.8712139254948
30
0
41
1
10
107.283953141426
20
-11.4522691110611
30
0
41
1
10
107.496778606986
20
-10.5069052239284
30
0
41
1
10
107.603191339766
20
-9.98054496758166
30
0
41
1
10
107.816016805326
20
-8.8413444111028
30
0
41
1
10
107.922429538106
20
-8.22862198301999
30
0
41
1
10
108.135255003666
20
-6.94458268899822
30
0
41
1
10
108.241667736446
20
-6.27340886535879
30
0
41
1
10
108.454493202006
20
-4.90318385153719
30
0
41
1
10
108.560905934785
20
-4.20426076135408
30
0
41
1
10
108.773731400346
20
-2.80786685441959
30
0
41
1
10
108.880144133125
20
-2.11048064993287
30
0
41
1
10
109.039763232295
20
-1.08398408000886
30
0
41
1
10
109.092969598685
20
-0.745038080933085
30
0
41
1
10
109.159477556673
20
-0.326928757870405
30
0
41
1
10
109.17277914827
20
-0.243584536949356
30
0
41
1
10
109.199382331466
20
-0.0774860140280964
30
0
41
1
10
109.212683923063
20
0.0050653448718379
30
0
41
1
10
109.252588697856
20
0.253692764974602
30
0
41
1
10
109.279191881051
20
0.42064462096991
30
0
41
1
10
109.412207797025
20
1.26070562095219
30
0
41
1
10
109.518620529805
20
1.94996996808794
30
0
41
1
10
109.731445995365
20
3.34092612809087
30
0
41
1
10
109.837858728145
20
4.04255480049093
30
0
41
1
10
109.944271460925
20
4.73658409718627
30
0
0
SPLINE
5
F7
100
AcDbEntity
8
1
62
256
6
ByLayer
370
13
48
1
60
0
100
AcDbSpline
70
4
71
3
72
43
73
39
40
0
40
0
40
0
40
0
40
0.062499999999998
40
0.062499999999998
40
0.124999999999996
40
0.124999999999996
40
0.187499999999994
40
0.187499999999994
40
0.249999999999992
40
0.249999999999992
40
0.265624999999992
40
0.273437499999991
40
0.273437499999991
40
0.281249999999991
40
0.281249999999991
40
0.312499999999992
40
0.312499999999992
40
0.374999999999993
40
0.374999999999993
40
0.437499999999993
40
0.437499999999993
40
0.499999999999994
40
0.499999999999994
40
0.562499999999995
40
0.562499999999995
40
0.624999999999995
40
0.624999999999995
40
0.687499999999996
40
0.687499999999996
40
0.749999999999997
40
0.749999999999997
40
0.812499999999998
40
0.812499999999998
40
0.874999999999998
40
0.874999999999998
40
0.937499999999999
40
0.937499999999999
40
1
40
1
40
1
40
1
41
1
10
97.3
20
-7.84315626461182
30
0
41
1
10
97.3913930678106
20
-7.29868479274125
30
0
41
1
10
97.4827861356211
20
-6.73124066519895
30
0
41
1
10
97.6655722712422
20
-5.56956465809191
30
0
41
1
10
97.7569653390527
20
-4.97539644354555
30
0
41
1
10
97.9397514746739
20
-3.77940267458513
30
0
41
1
10
98.0311445424844
20
-3.17762625717472
30
0
41
1
10
98.2139306781056
20
-1.98365350167416
30
0
41
1
10
98.305323745916
20
-1.39148589927532
30
0
41
1
10
98.4195650806794
20
-0.666113582958644
30
0
41
1
10
98.4538374811082
20
-0.44960201387039
30
0
41
1
10
98.4881098815372
20
-0.234949515497249
30
0
41
1
10
98.5109581484899
20
-0.092282508962569
30
0
41
1
10
98.5223822819662
20
-0.0213032567741891
30
0
41
1
10
98.5795029493477
20
0.334191165591761
30
0
41
1
10
98.625199483253
20
0.622164430230811
30
0
41
1
10
98.7622890849689
20
1.49463394951917
30
0
41
1
10
98.8536821527794
20
2.08778521906891
30
0
41
1
10
99.0364682884005
20
3.28279713214917
30
0
41
1
10
99.127861356211
20
3.88462779948432
30
0
41
1
10
99.3106474918321
20
5.07965232893113
30
0
41
1
10
99.4020405596428
20
5.67279598198527
30
0
41
1
10
99.5848266952639
20
6.83128273893209
30
0
41
1
10
99.6762197630744
20
7.39656164167943
30
0
41
1
10
99.8590058986955
20
8.48008432323101
30
0
41
1
10
99.950398966506
20
8.9982617307935
30
0
41
1
10
100.133185102127
20
9.97028491963979
30
0
41
1
10
100.224578169938
20
10.4240763314584
30
0
41
1
10
100.407364305559
20
11.2538352669267
30
0
41
1
10
100.498757373369
20
11.6297720664252
30
0
41
1
10
100.681543508991
20
12.2954505610891
30
0
41
1
10
100.772936576801
20
12.5851901675573
30
0
41
1
10
100.955722712422
20
13.0757280980393
30
0
41
1
10
101.047115780233
20
13.2765500704294
30
0
41
1
10
101.229901915854
20
13.5917899524611
30
0
41
1
10
101.321294983664
20
13.7062484975661
30
0
41
1
10
101.504081119286
20
13.8555800929921
30
0
41
1
10
101.595474187096
20
13.8905
30
0
41
1
10
101.686867254907
20
13.8905
30
0
0
SPLINE
5
F8
100
AcDbEntity
8
1
62
256
6
ByLayer
370
13
48
1
60
0
100
AcDbSpline
70
4
71
3
72
100
73
96
40
0
40
0
40
0
40
0
40
0.0312500000000011
40
0.0312500000000011
40
0.0625000000000022
40
0.0625000000000022
40
0.0937500000000033
40
0.0937500000000033
40
0.125000000000004
40
0.125000000000004
40
0.140625000000005
40
0.140625000000005
40
0.156250000000005
40
0.156250000000005
40
0.171875000000006
40
0.171875000000006
40
0.187500000000006
40
0.187500000000006
40
0.218750000000007
40
0.218750000000007
40
0.250000000000008
40
0.250000000000008
40
0.281250000000009
40
0.281250000000009
40
0.289062500000009
40
0.289062500000009
40
0.292968750000009
40
0.292968750000009
40
0.296875000000009
40
0.296875000000009
40
0.312500000000009
40
0.312500000000009
40
0.343750000000009
40
0.343750000000009
40
0.375000000000009
40
0.375000000000009
40
0.406250000000009
40
0.406250000000009
40
0.421875000000009
40
0.421875000000009
40
0.437500000000009
40
0.437500000000009
40
0.453125000000009
40
0.453125000000009
40
0.468750000000009
40
0.468750000000009
40
0.500000000000009
40
0.500000000000009
40
0.531250000000009
40
0.531250000000009
40
0.562500000000009
40
0.562500000000009
40
0.578125000000009
40
0.578125000000009
40
0.585937500000009
40
0.585937500000009
40
0.589843750000009
40
0.589843750000009
40
0.593750000000009
40
0.593750000000009
40
0.625000000000009
40
0.625000000000009
40
0.656250000000008
40
0.656250000000008
40
0.687500000000008
40
0.687500000000008
40
0.718750000000008
40
0.718750000000008
40
0.734375000000007
40
0.734375000000007
40
0.750000000000007
40
0.750000000000007
40
0.765625000000007
40
0.765625000000007
40
0.781250000000007
40
0.781250000000007
40
0.812500000000007
40
0.812500000000007
40
0.843750000000006
40
0.843750000000006
40
0.875000000000006
40
0.875000000000006
40
0.882812500000005
40
0.882812500000005
40
0.886718750000005
40
0.886718750000005
40
0.890625000000005
40
0.890625000000005
40
0.906250000000004
40
0.906250000000004
40
0.937500000000003
40
0.937500000000003
40
0.968750000000001
40
0.968750000000001
40
1
40
1
40
1
40
1
41
1
10
99.24291941768
20
13.8905
30
0
41
1
10
99.3543918347972
20
13.8905
30
0
41
1
10
99.4658642519144
20
13.8384765125335
30
0
41
1
10
99.6888090861486
20
13.613356071963
30
0
41
1
10
99.8002815032658
20
13.440134551758
30
0
41
1
10
100.0232263375
20
12.9624638644136
30
0
41
1
10
100.134698754617
20
12.6579223129929
30
0
41
1
10
100.357643588852
20
11.9179812344989
30
0
41
1
10
100.469116005969
20
11.4825621487004
30
0
41
1
10
100.636324631644
20
10.7408307935381
30
0
41
1
10
100.692060840203
20
10.4789180653466
30
0
41
1
10
100.80353325732
20
9.92845403374685
30
0
41
1
10
100.859269465879
20
9.63990641263032
30
0
41
1
10
100.970741882996
20
9.03951013046895
30
0
41
1
10
101.026478091554
20
8.72766623769621
30
0
41
1
10
101.137950508671
20
8.08452055792196
30
0
41
1
10
101.19368671723
20
7.75322423328097
30
0
41
1
10
101.360895342906
20
6.7364389344938
30
0
41
1
10
101.472367760023
20
6.02806502225977
30
0
41
1
10
101.695312594257
20
4.58530453530716
30
0
41
1
10
101.806785011374
20
3.85107349669241
30
0
41
1
10
102.029729845609
20
2.38968650736265
30
0
41
1
10
102.141202262726
20
1.6626252447418
30
0
41
1
10
102.280542784122
20
0.77504985958393
30
0
41
1
10
102.308410888401
20
0.598579210910771
30
0
41
1
10
102.35021304482
20
0.335696851755671
30
0
41
1
10
102.36414709696
20
0.248373088512722
30
0
41
1
10
102.392015201239
20
0.0743728031914372
30
0
41
1
10
102.405949253379
20
-0.0120845841324808
30
0
41
1
10
102.475619514077
20
-0.446304991772735
30
0
41
1
10
102.531355722636
20
-0.798953003666924
30
0
41
1
10
102.698564348311
20
-1.86864629088157
30
0
41
1
10
102.810036765429
20
-2.59766140552497
30
0
41
1
10
103.032981599663
20
-4.06004248279811
30
0
41
1
10
103.14445401678
20
-4.79330723733341
30
0
41
1
10
103.367398851014
20
-6.23080325148592
30
0
41
1
10
103.478871268131
20
-6.93487462165757
30
0
41
1
10
103.646079893807
20
-7.94273256569912
30
0
41
1
10
103.701816102366
20
-8.27064481831565
30
0
41
1
10
103.813288519483
20
-8.9062594409186
30
0
41
1
10
103.869024728041
20
-9.21395644672472
30
0
41
1
10
103.980497145158
20
-9.80538073515075
30
0
41
1
10
104.036233353717
20
-10.0891034286252
30
0
41
1
10
104.147705770834
20
-10.6293508923117
30
0
41
1
10
104.203441979393
20
-10.8858722223749
30
0
41
1
10
104.370650605068
20
-11.6107771971699
30
0
41
1
10
104.482123022186
20
-12.0341079935278
30
0
41
1
10
104.70506785642
20
-12.7493009694803
30
0
41
1
10
104.816540273537
20
-13.0411909917687
30
0
41
1
10
105.039485107771
20
-13.4941071775152
30
0
41
1
10
105.150957524888
20
-13.6552306592256
30
0
41
1
10
105.318166150564
20
-13.8069691874088
30
0
41
1
10
105.373902359123
20
-13.8426280121189
30
0
41
1
10
105.457506671961
20
-13.8752578367447
30
0
41
1
10
105.48537477624
20
-13.8826609780828
30
0
41
1
10
105.527176932659
20
-13.888768479689
30
0
41
1
10
105.541110984798
20
-13.8899715822622
30
0
41
1
10
105.568979089078
20
-13.8907493164447
30
0
41
1
10
105.582913141217
20
-13.8903291627415
30
0
41
1
10
105.708319610474
20
-13.8791471992313
30
0
41
1
10
105.819792027591
20
-13.8162612265373
30
0
41
1
10
106.042736861826
20
-13.5680848763341
30
0
41
1
10
106.154209278943
20
-13.3826711514505
30
0
41
1
10
106.377154113177
20
-12.8801539503913
30
0
41
1
10
106.488626530294
20
-12.5629634094515
30
0
41
1
10
106.711571364528
20
-11.7983929650742
30
0
41
1
10
106.823043781645
20
-11.3510019843589
30
0
41
1
10
106.990252407321
20
-10.5926989940018
30
0
41
1
10
107.04598861588
20
-10.3254929333617
30
0
41
1
10
107.157461032997
20
-9.76503147991977
30
0
41
1
10
107.213197241556
20
-9.47178000140028
30
0
41
1
10
107.324669658673
20
-8.86267222401673
30
0
41
1
10
107.380405867231
20
-8.54682085822202
30
0
41
1
10
107.491878284348
20
-7.89643566286736
30
0
41
1
10
107.547614492907
20
-7.5619073773394
30
0
41
1
10
107.714823118583
20
-6.53666088608139
30
0
41
1
10
107.8262955357
20
-5.82430803602702
30
0
41
1
10
108.049240369934
20
-4.37690842847775
30
0
41
1
10
108.160712787051
20
-3.64201252145236
30
0
41
1
10
108.383657621285
20
-2.18216515971176
30
0
41
1
10
108.495130038402
20
-1.45730181988265
30
0
41
1
10
108.634470559799
20
-0.573821183487667
30
0
41
1
10
108.662338664078
20
-0.398236490195302
30
0
41
1
10
108.704140820497
20
-0.136774565163705
30
0
41
1
10
108.718074872637
20
-0.0500885280121395
30
0
41
1
10
108.745942976916
20
0.12328310986203
30
0
41
1
10
108.759877029056
20
0.210301742751426
30
0
41
1
10
108.829547289754
20
0.646961703454053
30
0
41
1
10
108.885283498313
20
1.00132304763704
30
0
41
1
10
109.052492123988
20
2.07529805657447
30
0
41
1
10
109.163964541105
20
2.80601650234399
30
0
41
1
10
109.38690937534
20
4.2688357521298
30
0
41
1
10
109.498381792457
20
5.00082890675307
30
0
41
1
10
109.721326626691
20
6.43243146392783
30
0
41
1
10
109.832799043808
20
7.13187698058135
30
0
41
1
10
109.944271460925
20
7.79752264131827
30
0
0
SPLINE
5
F9
100
AcDbEntity
8
1
62
256
6
ByLayer
370
13
48
1
60
0
100
AcDbSpline
70
4
71
3
72
10
73
6
40
0
40
0
40
0
40
0
40
0.5
40
0.5
40
1
40
1
40
1
40
1
41
1
10
109.443243041379
20
13.8905
30
0
41
1
10
109.52674777797
20
13.8905
30
0
41
1
10
109.610252514561
20
13.8613612738856
30
0
41
1
10
109.777261987743
20
13.7373679393284
30
0
41
1
10
109.860766724334
20
13.6424834079436
30
0
41
1
10
109.944271460925
20
13.5119653481967
30
0
0
SPLINE
5
FA
100
AcDbEntity
8
1
62
256
6
ByLayer
370
13
48
1
60
0
100
AcDbSpline
70
4
71
3
72
43
73
39
40
0
40
0
40
0
40
0
40
0.0625
40
0.0625
40
0.125
40
0.125
40
0.1875
40
0.1875
40
0.1953125
40
0.1953125
40
0.203125
40
0.21875
40
0.21875
40
0.25
40
0.25
40
0.3125
40
0.3125
40
0.375
40
0.375
40
0.4375
40
0.4375
40
0.5
40
0.5
40
0.5625
40
0.5625
40
0.625
40
0.625
40
0.6875
40
0.6875
40
0.75
40
0.75
40
0.8125
40
0.8125
40
0.875
40
0.875
40
0.9375
40
0.9375
40
1
40
1
40
1
40
1
41
1
10
97.3
20
-4.78647033842449
30
0
41
1
10
97.3812736991363
20
-4.25669010136104
30
0
41
1
10
97.4625473982725
20
-3.72222423467431
30
0
41
1
10
97.625094796545
20
-2.65645378561831
30
0
41
1
10
97.7063684956813
20
-2.12516918759644
30
0
41
1
10
97.8689158939538
20
-1.07663452863889
30
0
41
1
10
97.95018959309
20
-0.559394041290261
30
0
41
1
10
98.0416225046183
20
0.0097074084377482
30
0
41
1
10
98.0517817170103
20
0.0728038073648634
30
0
41
1
10
98.0721001417944
20
0.199574764867236
30
0
41
1
10
98.1025777789704
20
0.390250070299345
30
0
41
1
10
98.1330554161466
20
0.582414244147344
30
0
41
1
10
98.1940106904988
20
0.968534509996147
30
0
41
1
10
98.2346475400669
20
1.22834160441656
30
0
41
1
10
98.3565580887713
20
2.01323776281512
30
0
41
1
10
98.4378317879075
20
2.54386371822551
30
0
41
1
10
98.6003791861799
20
3.60914639729873
30
0
41
1
10
98.6816528853162
20
4.14378387391034
30
0
41
1
10
98.8442002835886
20
5.2046173918306
30
0
41
1
10
98.9254739827251
20
5.73078440810187
30
0
41
1
10
99.0880213809975
20
6.76117200467601
30
0
41
1
10
99.1692950801337
20
7.26535683017934
30
0
41
1
10
99.3318424784062
20
8.23822828408981
30
0
41
1
10
99.4131161775424
20
8.70687766085231
30
0
41
1
10
99.5756635758149
20
9.59619691117797
30
0
41
1
10
99.6569372749511
20
10.016834315279
30
0
41
1
10
99.8194846732237
20
10.7997892697839
30
0
41
1
10
99.90075837236
20
11.1620847500899
30
0
41
1
10
100.063305770632
20
11.8209949127356
30
0
41
1
10
100.144579469769
20
12.1176012674514
30
0
41
1
10
100.307126868041
20
12.6412178499868
30
0
41
1
10
100.388400567177
20
12.8682337250679
30
0
41
1
10
100.55094796545
20
13.2522377119709
30
0
41
1
10
100.632221664586
20
13.4092428124532
30
0
41
1
10
100.794769062859
20
13.6559252259399
30
0
41
1
10
100.876042761995
20
13.7456264771998
30
0
41
1
10
101.038590160268
20
13.8629007908675
30
0
41
1
10
101.119863859404
20
13.8905
30
0
41
1
10
101.20113755854
20
13.8905
30
0
0
SPLINE
5
FB
100
AcDbEntity
8
1
62
256
6
ByLayer
370
13
48
1
60
0
100
AcDbSpline
70
4
71
3
72
132
73
128
40
0
40
0
40
0
40
0
40
0.0312500000000002
40
0.0312500000000002
40
0.0468750000000003
40
0.0468750000000003
40
0.0625000000000004
40
0.0625000000000004
40
0.0781250000000005
40
0.0781250000000005
40
0.0937500000000005
40
0.0937500000000005
40
0.109375000000001
40
0.109375000000001
40
0.125000000000001
40
0.125000000000001
40
0.140625000000001
40
0.140625000000001
40
0.156250000000001
40
0.156250000000001
40
0.171875000000001
40
0.171875000000001
40
0.187500000000001
40
0.187500000000001
40
0.203125000000001
40
0.203125000000001
40
0.218750000000001
40
0.218750000000001
40
0.234375000000001
40
0.234375000000001
40
0.250000000000001
40
0.250000000000001
40
0.281250000000001
40
0.281250000000001
40
0.285156250000001
40
0.285156250000001
40
0.289062500000001
40
0.296875000000001
40
0.296875000000001
40
0.312500000000001
40
0.312500000000001
40
0.328125000000001
40
0.328125000000001
40
0.343750000000001
40
0.343750000000001
40
0.359375000000001
40
0.359375000000001
40
0.375000000000001
40
0.375000000000001
40
0.390625000000001
40
0.390625000000001
40
0.406250000000001
40
0.406250000000001
40
0.421875000000001
40
0.421875000000001
40
0.437500000000001
40
0.437500000000001
40
0.453125000000001
40
0.453125000000001
40
0.46875
40
0.46875
40
0.484375
40
0.484375
40
0.5
40
0.5
40
0.515625
40
0.515625
40
0.53125
40
0.53125
40
0.5625
40
0.5625
40
0.56640625
40
0.56640625
40
0.5703125
40
0.578125
40
0.578125
40
0.59375
40
0.59375
40
0.609375
40
0.609375
40
0.625
40
0.625
40
0.640625
40
0.640625
40
0.65625
40
0.65625
40
0.671875
40
0.671875
40
0.6875
40
0.6875
40
0.703125
40
0.703125
40
0.71875
40
0.71875
40
0.734375
40
0.734375
40
0.75
40
0.75
40
0.765625
40
0.765625
40
0.78125
40
0.78125
40
0.796875
40
0.796875
40
0.8125
40
0.8125
40
0.84375
40
0.84375
40
0.8515625
40
0.8515625
40
0.859375
40
0.859375
40
0.875
40
0.875
40
0.90625
40
0.90625
40
0.921875
40
0.921875
40
0.9375
40
0.9375
40
0.953125
40
0.953125
40
0.96875
40
0.96875
40
0.984375
40
0.984375
40
1
40
1
40
1
40
1
41
1
10
98.7571897213135
20
13.8905
30
0
41
1
10
98.8737218227678
20
13.8905
30
0
41
1
10
98.990253924222
20
13.8336227243091
30
0
41
1
10
99.1650520764035
20
13.6485122674527
30
0
41
1
10
99.2233181271307
20
13.5702223501435
30
0
41
1
10
99.339850228585
20
13.378808054851
30
0
41
1
10
99.3981162793121
20
13.2656792616572
30
0
41
1
10
99.5146483807663
20
13.003602813007
30
0
41
1
10
99.5729144314936
20
12.8546516937783
30
0
41
1
10
99.6894465329478
20
12.5207532190275
30
0
41
1
10
99.747712583675
20
12.3358038000806
30
0
41
1
10
99.8642446851292
20
11.9306229845068
30
0
41
1
10
99.9225107358564
20
11.7103912770147
30
0
41
1
10
100.039042837311
20
11.2362886361966
30
0
41
1
10
100.097308888038
20
10.9824193311855
30
0
41
1
10
100.213840989492
20
10.4435935177753
30
0
41
1
10
100.272107040219
20
10.1586405501642
30
0
41
1
10
100.388639141674
20
9.56103084248701
30
0
41
1
10
100.446905192401
20
9.24837930311855
30
0
41
1
10
100.563437293855
20
8.59945496911865
30
0
41
1
10
100.621703344582
20
8.26318858553034
30
0
41
1
10
100.738235446036
20
7.57164006863096
30
0
41
1
10
100.796501496764
20
7.21636497584979
30
0
41
1
10
100.913033598218
20
6.4917234035737
30
0
41
1
10
100.971299648945
20
6.12236397008303
30
0
41
1
10
101.087831750399
20
5.37458320230391
30
0
41
1
10
101.146097801126
20
4.99616834299965
30
0
41
1
10
101.262629902581
20
4.23520634803566
30
0
41
1
10
101.320895953308
20
3.85266466136469
30
0
41
1
10
101.437428054762
20
3.08809827772271
30
0
41
1
10
101.495694105489
20
2.70607771459993
30
0
41
1
10
101.670492257671
20
1.56712781181659
30
0
41
1
10
101.787024359125
20
0.817612410418946
30
0
41
1
10
101.918122973261
20
0.0007160007416473
30
0
41
1
10
101.932689485943
20
-0.0896865603056085
30
0
41
1
10
101.961822511306
20
-0.271684498990481
30
0
41
1
10
102.005522049352
20
-0.545737119675408
30
0
41
1
10
102.049221587397
20
-0.822755067114315
30
0
41
1
10
102.136620663488
20
-1.38015353217728
30
0
41
1
10
102.194886714215
20
-1.75625372731864
30
0
41
1
10
102.311418815669
20
-2.51386107356535
30
0
41
1
10
102.369684866396
20
-2.89536575828578
30
0
41
1
10
102.486216967851
20
-3.65964352872811
30
0
41
1
10
102.544483018578
20
-4.04241271755754
30
0
41
1
10
102.661015120032
20
-4.8046353915567
30
0
41
1
10
102.719281170759
20
-5.18408363357764
30
0
41
1
10
102.835813272214
20
-5.93477235617453
30
0
41
1
10
102.894079322941
20
-6.30600650666489
30
0
41
1
10
103.010611424395
20
-7.03524182415711
30
0
41
1
10
103.068877475122
20
-7.39323600339884
30
0
41
1
10
103.185409576577
20
-8.09103459277728
30
0
41
1
10
103.243675627304
20
-8.4308319180185
30
0
41
1
10
103.360207728758
20
-9.08756183129373
30
0
41
1
10
103.418473779485
20
-9.40448785942326
30
0
41
1
10
103.535005880939
20
-10.0112891511879
30
0
41
1
10
103.593271931666
20
-10.3011589745229
30
0
41
1
10
103.709804033121
20
-10.8503330262931
30
0
41
1
10
103.768070083848
20
-11.1096334111131
30
0
41
1
10
103.884602185302
20
-11.5949659238026
30
0
41
1
10
103.942868236029
20
-11.8209960935817
30
0
41
1
10
104.059400337484
20
-12.2379856323378
30
0
41
1
10
104.117666388211
20
-12.428944993675
30
0
41
1
10
104.234198489665
20
-12.7749200111003
30
0
41
1
10
104.292464540392
20
-12.9299374567373
30
0
41
1
10
104.408996641847
20
-13.2040578568679
30
0
41
1
10
104.467262692574
20
-13.3231640692878
30
0
41
1
10
104.583794794028
20
-13.5263162001362
30
0
41
1
10
104.642060844755
20
-13.610366407016
30
0
41
1
10
104.816858996937
20
-13.8122728930134
30
0
41
1
10
104.933391098391
20
-13.8796883815654
30
0
41
1
10
105.064489712527
20
-13.8904921545671
30
0
41
1
10
105.079056225209
20
-13.8907964019527
30
0
41
1
10
105.108189250572
20
-13.8896337823478
30
0
41
1
10
105.151888788618
20
-13.8852144023175
30
0
41
1
10
105.195588326663
20
-13.8725767451631
30
0
41
1
10
105.282987402754
20
-13.8358597395827
30
0
41
1
10
105.341253453481
20
-13.7961117362776
30
0
41
1
10
105.457785554935
20
-13.6837914314197
30
0
41
1
10
105.516051605662
20
-13.6112141994761
30
0
41
1
10
105.632583707117
20
-13.4314620173651
30
0
41
1
10
105.690849757844
20
-13.3242825387421
30
0
41
1
10
105.807381859298
20
-13.0742167476638
30
0
41
1
10
105.865647910025
20
-12.9313267784639
30
0
41
1
10
105.98218001148
20
-12.6095198316942
30
0
41
1
10
106.040446062207
20
-12.4306005269521
30
0
41
1
10
106.156978163661
20
-12.0372951788525
30
0
41
1
10
106.215244214388
20
-11.8229085115187
30
0
41
1
10
106.331776315842
20
-11.3601547612635
30
0
41
1
10
106.390042366569
20
-11.1117889761566
30
0
41
1
10
106.506574468024
20
-10.5834799316063
30
0
41
1
10
106.564840518751
20
-10.3035399029105
30
0
41
1
10
106.681372620205
20
-9.71533382721407
30
0
41
1
10
106.739638670932
20
-9.40707272843375
30
0
41
1
10
106.856170772387
20
-8.76620073962317
30
0
41
1
10
106.914436823114
20
-8.43359609513183
30
0
41
1
10
107.030968924568
20
-7.74856828917913
30
0
41
1
10
107.089234975295
20
-7.39615210601272
30
0
41
1
10
107.20576707675
20
-6.67638687868345
30
0
41
1
10
107.264033127477
20
-6.30904492228416
30
0
41
1
10
107.380565228931
20
-5.56445474657184
30
0
41
1
10
107.438831279658
20
-5.187213134166
30
0
41
1
10
107.555363381112
20
-4.42778353061976
30
0
41
1
10
107.613629431839
20
-4.04560118610434
30
0
41
1
10
107.730161533294
20
-3.28099774524148
30
0
41
1
10
107.788427584021
20
-2.89858101655418
30
0
41
1
10
107.963225736203
20
-1.75742881398321
30
0
41
1
10
108.079757837657
20
-1.00509058815862
30
0
41
1
10
108.225422964475
20
-0.0926942681613525
30
0
41
1
10
108.254555989838
20
0.0876610571127117
30
0
41
1
10
108.312822040565
20
0.452568656583367
30
0
41
1
10
108.341955065929
20
0.636402615351528
30
0
41
1
10
108.42935414202
20
1.19147238418671
30
0
41
1
10
108.487620192747
20
1.5662941581175
30
0
41
1
10
108.662418344928
20
2.69983734131148
30
0
41
1
10
108.778950446382
20
3.46786222613878
30
0
41
1
10
108.953748598564
20
4.61268388809825
30
0
41
1
10
109.012014649291
20
4.99302666434258
30
0
41
1
10
109.128546750745
20
5.74634181419032
30
0
41
1
10
109.186812801472
20
6.11930801484141
30
0
41
1
10
109.303344902927
20
6.85285365223896
30
0
41
1
10
109.361610953654
20
7.21342617549237
30
0
41
1
10
109.478143055108
20
7.91720134021782
30
0
41
1
10
109.536409105835
20
8.26039687024107
30
0
41
1
10
109.65294120729
20
8.9246807805751
30
0
41
1
10
109.711207258017
20
9.24576246915655
30
0
41
1
10
109.827739359471
20
9.86153677498496
30
0
41
1
10
109.886005410198
20
10.1562237259946
30
0
41
1
10
109.944271460925
20
10.4358966943042
30
0
0
SPLINE
5
FC
100
AcDbEntity
8
1
62
256
6
ByLayer
370
13
48
1
60
0
100
AcDbSpline
70
4
71
3
72
14
73
10
40
0
40
0
40
0
40
0
40
0.25
40
0.25
40
0.5
40
0.5
40
0.75
40
0.75
40
1
40
1
40
1
40
1
41
1
10
108.957513345012
20
13.8905
30
0
41
1
10
109.039743188005
20
13.8905
30
0
41
1
10
109.121973030998
20
13.862246161495
30
0
41
1
10
109.286432716983
20
13.7421163524342
30
0
41
1
10
109.368662559976
20
13.6502126660441
30
0
41
1
10
109.533122245962
20
13.3974313217191
30
0
41
1
10
109.615352088954
20
13.2365284040098
30
0
41
1
10
109.77981177494
20
12.8430238151591
30
0
41
1
10
109.862041617933
20
12.6104044893537
30
0
41
1
10
109.944271460925
20
12.342218966935
30
0
0
SPLINE
5
FD
100
AcDbEntity
8
1
62
256
6
ByLayer
370
13
48
1
60
0
100
AcDbSpline
70
4
71
3
72
43
73
39
40
0
40
0
40
0
40
0
40
0.0625000000000022
40
0.0625000000000022
40
0.0703125000000023
40
0.0703125000000023
40
0.0781250000000025
40
0.0781250000000025
40
0.0937500000000027
40
0.125000000000003
40
0.125000000000003
40
0.187500000000002
40
0.187500000000002
40
0.250000000000002
40
0.250000000000002
40
0.312500000000002
40
0.312500000000002
40
0.375000000000002
40
0.375000000000002
40
0.437500000000002
40
0.437500000000002
40
0.500000000000001
40
0.500000000000001
40
0.562500000000001
40
0.562500000000001
40
0.625000000000001
40
0.625000000000001
40
0.687500000000001
40
0.687500000000001
40
0.750000000000001
40
0.750000000000001
40
0.812500000000001
40
0.812500000000001
40
0.875
40
0.875
40
0.9375
40
0.9375
40
1
40
1
40
1
40
1
41
1
10
97.3
20
-1.61323997342043
30
0
41
1
10
97.371154330462
20
-1.15415408285034
30
0
41
1
10
97.4423086609238
20
-0.700407674861935
30
0
41
1
10
97.5223572826936
20
-0.199290608224658
30
0
41
1
10
97.5312515740013
20
-0.143739909636878
30
0
41
1
10
97.5490401566167
20
-0.0329065921439735
30
0
41
1
10
97.5579344479245
20
0.0222998110834567
30
0
41
1
10
97.5846173218478
20
0.188498330057257
30
0
41
1
10
97.6379830696942
20
0.522506855090029
30
0
41
1
10
97.6913488175406
20
0.860989146361959
30
0
41
1
10
97.7980803132335
20
1.54283893015804
30
0
41
1
10
97.8692346436955
20
2.00395783155216
30
0
41
1
10
98.0115433046194
20
2.9325658218992
30
0
41
1
10
98.0826976350814
20
3.40004707572524
30
0
41
1
10
98.2250062960053
20
4.33348805699387
30
0
41
1
10
98.2961606264673
20
4.79943527473537
30
0
41
1
10
98.4384692873911
20
5.72107134641476
30
0
41
1
10
98.5096236178531
20
6.17674371909217
30
0
41
1
10
98.6519322787769
20
7.0686866102383
30
0
41
1
10
98.723086609239
20
7.5049382340263
30
0
41
1
10
98.8653952701628
20
8.34902700547585
30
0
41
1
10
98.9365496006247
20
8.75684507923839
30
0
41
1
10
99.0788582615486
20
9.53576374317461
30
0
41
1
10
99.1500125920106
20
9.90684758386232
30
0
41
1
10
99.2923212529345
20
10.6052515181081
30
0
41
1
10
99.3634755833965
20
10.9325594239387
30
0
41
1
10
99.5057842443202
20
11.5380642325498
30
0
41
1
10
99.5769385747822
20
11.816254981588
30
0
41
1
10
99.7192472357061
20
12.3201571669057
30
0
41
1
10
99.790401566168
20
12.5458688932087
30
0
41
1
10
99.9327102270919
20
12.9435121525268
30
0
41
1
10
100.003864557554
20
13.1154497598191
30
0
41
1
10
100.146173218478
20
13.4062123623477
30
0
41
1
10
100.21732754894
20
13.5250477478344
30
0
41
1
10
100.359636209863
20
13.7119886717442
30
0
41
1
10
100.430790540326
20
13.7801070527779
30
0
41
1
10
100.573099201249
20
13.8693559884045
30
0
41
1
10
100.644253531711
20
13.8905
30
0
41
1
10
100.715407862173
20
13.8905
30
0
0
SPLINE
5
FE
100
AcDbEntity
8
1
62
256
6
ByLayer
370
13
48
1
60
0
100
AcDbSpline
70
4
71
3
72
142
73
138
40
0
40
0
40
0
40
0
40
0.0156250000000005
40
0.0156250000000005
40
0.0312500000000009
40
0.0312500000000009
40
0.0468750000000014
40
0.0468750000000014
40
0.0625000000000018
40
0.0625000000000018
40
0.0781250000000022
40
0.0781250000000022
40
0.0937500000000027
40
0.0937500000000027
40
0.109375000000003
40
0.109375000000003
40
0.125000000000004
40
0.125000000000004
40
0.140625000000004
40
0.140625000000004
40
0.156250000000004
40
0.156250000000004
40
0.171875000000005
40
0.171875000000005
40
0.187500000000005
40
0.187500000000005
40
0.203125000000006
40
0.203125000000006
40
0.218750000000006
40
0.218750000000006
40
0.234375000000007
40
0.234375000000007
40
0.250000000000007
40
0.250000000000007
40
0.265625000000008
40
0.265625000000008
40
0.269531250000008
40
0.269531250000008
40
0.273437500000008
40
0.273437500000008
40
0.281250000000007
40
0.281250000000007
40
0.296875000000007
40
0.296875000000007
40
0.312500000000007
40
0.312500000000007
40
0.328125000000007
40
0.328125000000007
40
0.343750000000006
40
0.343750000000006
40
0.359375000000006
40
0.359375000000006
40
0.375000000000006
40
0.375000000000006
40
0.390625000000006
40
0.390625000000006
40
0.406250000000005
40
0.406250000000005
40
0.421875000000005
40
0.421875000000005
40
0.437500000000005
40
0.437500000000005
40
0.453125000000005
40
0.453125000000005
40
0.468750000000004
40
0.468750000000004
40
0.484375000000004
40
0.484375000000004
40
0.500000000000004
40
0.500000000000004
40
0.515625000000003
40
0.515625000000003
40
0.531250000000003
40
0.531250000000003
40
0.539062500000003
40
0.539062500000003
40
0.542968750000003
40
0.542968750000003
40
0.546875000000003
40
0.546875000000003
40
0.562500000000003
40
0.562500000000003
40
0.578125000000003
40
0.578125000000003
40
0.593750000000003
40
0.593750000000003
40
0.609375000000003
40
0.609375000000003
40
0.625000000000002
40
0.625000000000002
40
0.640625000000002
40
0.640625000000002
40
0.656250000000002
40
0.656250000000002
40
0.671875000000002
40
0.671875000000002
40
0.687500000000002
40
0.687500000000002
40
0.703125000000002
40
0.703125000000002
40
0.718750000000002
40
0.718750000000002
40
0.734375000000002
40
0.734375000000002
40
0.750000000000002
40
0.750000000000002
40
0.765625000000002
40
0.765625000000002
40
0.781250000000001
40
0.781250000000001
40
0.796875000000001
40
0.796875000000001
40
0.812500000000001
40
0.812500000000001
40
0.828125000000001
40
0.828125000000001
40
0.843750000000001
40
0.843750000000001
40
0.859375000000001
40
0.859375000000001
40
0.875000000000001
40
0.875000000000001
40
0.890625000000001
40
0.890625000000001
40
0.906250000000001
40
0.906250000000001
40
0.921875000000001
40
0.921875000000001
40
0.9375
40
0.9375
40
0.953125
40
0.953125
40
0.96875
40
0.96875
40
0.984375
40
0.984375
40
1
40
1
40
1
40
1
41
1
10
98.2714600249468
20
13.8905
30
0
41
1
10
98.3322559178425
20
13.8905
30
0
41
1
10
98.3930518107383
20
13.8750704469256
30
0
41
1
10
98.5146435965298
20
13.8104021499301
30
0
41
1
10
98.5754394894254
20
13.7611572907299
30
0
41
1
10
98.6970312752168
20
13.6263745362391
30
0
41
1
10
98.7578271681126
20
13.5408306192481
30
0
41
1
10
98.879418953904
20
13.3316276627641
30
0
41
1
10
98.9402148467997
20
13.2079632850592
30
0
41
1
10
99.0618066325913
20
12.9215318701342
30
0
41
1
10
99.122602525487
20
12.7587608144281
30
0
41
1
10
99.2441943112783
20
12.3941058971425
30
0
41
1
10
99.3049902041741
20
12.1922199246712
30
0
41
1
10
99.4265819899655
20
11.7503965566455
30
0
41
1
10
99.4873778828613
20
11.5104593898412
30
0
41
1
10
99.6089696686527
20
10.9946962613579
30
0
41
1
10
99.6697655615485
20
10.7188730484302
30
0
41
1
10
99.7913573473398
20
10.1345574603495
30
0
41
1
10
99.8521532402356
20
9.82607022481136
30
0
41
1
10
99.973745026027
20
9.18058408571716
30
0
41
1
10
100.034540918923
20
8.84359227389419
30
0
41
1
10
100.156132704714
20
8.14600687280009
30
0
41
1
10
100.21692859761
20
7.78542164143278
30
0
41
1
10
100.338520383401
20
7.04607707168108
30
0
41
1
10
100.399316276297
20
6.66732653604905
30
0
41
1
10
100.520908062089
20
5.89733612150866
30
0
41
1
10
100.581703954984
20
5.50610466748233
30
0
41
1
10
100.703295740776
20
4.71683270515035
30
0
41
1
10
100.764091633671
20
4.31879954361887
30
0
41
1
10
100.885683419463
20
3.52136083415383
30
0
41
1
10
100.946479312359
20
3.1219610642849
30
0
41
1
10
101.06807109815
20
2.32678361883487
30
0
41
1
10
101.128866991046
20
1.93100990857914
30
0
41
1
10
101.250458776837
20
1.1474900046511
30
0
41
1
10
101.311254669733
20
0.759745954273171
30
0
41
1
10
101.387249535853
20
0.282411151799152
30
0
41
1
10
101.402448509077
20
0.187309726424132
30
0
41
1
10
101.432846455524
20
-0.0021108847055302
30
0
41
1
10
101.448045428748
20
-0.0964414811414258
30
0
41
1
10
101.49364234842
20
-0.381378121500831
30
0
41
1
10
101.524040294868
20
-0.572866857491107
30
0
41
1
10
101.615234134212
20
-1.1512834130659
30
0
41
1
10
101.676030027107
20
-1.54218305143635
30
0
41
1
10
101.797621812899
20
-2.33060406588223
30
0
41
1
10
101.858417705794
20
-2.72812269676115
30
0
41
1
10
101.980009491586
20
-3.52516857664722
30
0
41
1
10
102.040805384482
20
-3.92469123774336
30
0
41
1
10
102.162397170273
20
-4.72058615041368
30
0
41
1
10
102.223193063169
20
-5.11695205582384
30
0
41
1
10
102.34478484896
20
-5.90099309197265
30
0
41
1
10
102.405580741856
20
-6.28866044630124
30
0
41
1
10
102.527172527647
20
-7.04959604634203
30
0
41
1
10
102.587968420543
20
-7.42285565334407
30
0
41
1
10
102.709560206335
20
-8.14934812183793
30
0
41
1
10
102.77035609923
20
-8.5025722358003
30
0
41
1
10
102.891947885022
20
-9.18371065655748
30
0
41
1
10
102.952743777917
20
-9.51161694423783
30
0
41
1
10
103.074335563709
20
-10.1374360188819
30
0
41
1
10
103.135131456604
20
-10.4353423053984
30
0
41
1
10
103.256723242396
20
-10.9972978226978
30
0
41
1
10
103.317519135292
20
-11.2613426848723
30
0
41
1
10
103.439110921083
20
-11.7526971431153
30
0
41
1
10
103.499906813979
20
-11.9800048408333
30
0
41
1
10
103.62149859977
20
-12.396087136562
30
0
41
1
10
103.682294492666
20
-12.5848623282178
30
0
41
1
10
103.803886278457
20
-12.9231815074603
30
0
41
1
10
103.864682171353
20
-13.0727283066895
30
0
41
1
10
103.986273957145
20
-13.3329399220944
30
0
41
1
10
104.04706985004
20
-13.4436092715308
30
0
41
1
10
104.168661635832
20
-13.6273502554118
30
0
41
1
10
104.229457528727
20
-13.7004275287687
30
0
41
1
10
104.351049314519
20
-13.8110486237597
30
0
41
1
10
104.411845207415
20
-13.848598559946
30
0
41
1
10
104.503039046758
20
-13.8802725193809
30
0
41
1
10
104.533436993206
20
-13.8867261269229
30
0
41
1
10
104.579033912878
20
-13.8905299434991
30
0
41
1
10
104.594232886102
20
-13.8908224806496
30
0
41
1
10
104.62463083255
20
-13.8894782461476
30
0
41
1
10
104.639829805774
20
-13.8878342439556
30
0
41
1
10
104.715824671893
20
-13.8746353391415
30
0
41
1
10
104.776620564789
20
-13.8481267214716
30
0
41
1
10
104.898212350581
20
-13.7604011167551
30
0
41
1
10
104.959008243476
20
-13.6991779860307
30
0
41
1
10
105.080600029268
20
-13.5397420445151
30
0
41
1
10
105.141395922163
20
-13.4415233723609
30
0
41
1
10
105.262987707955
20
-13.2065371524791
30
0
41
1
10
105.32378360085
20
-13.0697646402338
30
0
41
1
10
105.445375386642
20
-12.7569985118248
30
0
41
1
10
105.506171279538
20
-12.5810014595732
30
0
41
1
10
105.627763065329
20
-12.1901294382247
30
0
41
1
10
105.688558958225
20
-11.9752531088375
30
0
41
1
10
105.810150744016
20
-11.5080550844734
30
0
41
1
10
105.870946636912
20
-11.2557344616113
30
0
41
1
10
105.992538422703
20
-10.7161752468757
30
0
41
1
10
106.053334315599
20
-10.42894023951
30
0
41
1
10
106.174926101391
20
-9.82310466124599
30
0
41
1
10
106.235721994286
20
-9.5045099506543
30
0
41
1
10
106.357313780078
20
-8.84038947463699
30
0
41
1
10
106.418109672974
20
-8.49487131343935
30
0
41
1
10
106.539701458765
20
-7.78201624562334
30
0
41
1
10
106.600497351661
20
-7.41468794135741
30
0
41
1
10
106.722089137452
20
-6.66375653235818
30
0
41
1
10
106.782885030348
20
-6.28016219119229
30
0
41
1
10
106.904476816139
20
-5.50241050690752
30
0
41
1
10
106.965272709035
20
-5.10826129465363
30
0
41
1
10
107.086864494827
20
-4.31502310167394
30
0
41
1
10
107.147660387722
20
-3.9159409821194
30
0
41
1
10
107.269252173514
20
-3.11814446339858
30
0
41
1
10
107.330048066409
20
-2.71943524662638
30
0
41
1
10
107.451639852201
20
-1.92719425784259
30
0
41
1
10
107.512435745096
20
-1.53366582793743
30
0
41
1
10
107.634027530888
20
-0.755970100691229
30
0
41
1
10
107.694823423784
20
-0.371937135938708
30
0
41
1
10
107.816415209575
20
0.383816338216491
30
0
41
1
10
107.877211102471
20
0.768099508590694
30
0
41
1
10
107.998802888262
20
1.54598984112511
30
0
41
1
10
108.059598781158
20
1.93959542344848
30
0
41
1
10
108.181190566949
20
2.73194342115352
30
0
41
1
10
108.241986459845
20
3.13068247510938
30
0
41
1
10
108.363578245637
20
3.92848539234436
30
0
41
1
10
108.424374138532
20
4.3275440543751
30
0
41
1
10
108.545965924324
20
5.12067770876899
30
0
41
1
10
108.60676181722
20
5.51474582410071
30
0
41
1
10
108.728353603011
20
6.29227550645052
30
0
41
1
10
108.789149495907
20
6.67572893231684
30
0
41
1
10
108.910741281698
20
7.42631908328283
30
0
41
1
10
108.971537174594
20
7.7934470422021
30
0
41
1
10
109.093128960385
20
8.50584513870859
30
0
41
1
10
109.153924853281
20
8.85110668010495
30
0
41
1
10
109.275516639073
20
9.51466349875534
30
0
41
1
10
109.336312531968
20
9.83295118646706
30
0
41
1
10
109.45790431776
20
10.4381305650019
30
0
41
1
10
109.518700210655
20
10.7250164170746
30
0
41
1
10
109.640291996447
20
11.2638452806333
30
0
41
1
10
109.701087889343
20
11.515784733271
30
0
41
1
10
109.822679675134
20
11.9821996196807
30
0
41
1
10
109.88347556803
20
12.1966740077812
30
0
41
1
10
109.944271460925
20
12.3917034674532
30
0
0
SPLINE
5
FF
100
AcDbEntity
8
1
62
256
6
ByLayer
370
13
48
1
60
0
100
AcDbSpline
70
4
71
3
72
22
73
18
40
0
40
0
40
0
40
0
40
0.125
40
0.125
40
0.25
40
0.25
40
0.375
40
0.375
40
0.5
40
0.5
40
0.625
40
0.625
40
0.75
40
0.75
40
0.875
40
0.875
40
1
40
1
40
1
40
1
41
1
10
108.471783648646
20
13.8905
30
0
41
1
10
108.533137307491
20
13.8905
30
0
41
1
10
108.594490966336
20
13.874785717005
30
0
41
1
10
108.717198284026
20
13.8088984703202
30
0
41
1
10
108.778551942871
20
13.7587191044897
30
0
41
1
10
108.901259260561
20
13.6213567945378
30
0
41
1
10
108.962612919406
20
13.5341675552138
30
0
41
1
10
109.085320237096
20
13.3209304153218
30
0
41
1
10
109.14667389594
20
13.1948769568192
30
0
41
1
10
109.26938121363
20
12.9029264621177
30
0
41
1
10
109.330734872476
20
12.7370252832844
30
0
41
1
10
109.453442190166
20
12.3654127578207
30
0
41
1
10
109.51479584901
20
12.1596993061892
30
0
41
1
10
109.6375031667
20
11.7096100063465
30
0
41
1
10
109.698856825546
20
11.4652345408076
30
0
41
1
10
109.821564143235
20
10.9401107147229
30
0
41
1
10
109.88291780208
20
10.6593653995913
30
0
41
1
10
109.944271460925
20
10.3621237303146
30
0
0
SPLINE
5
100
100
AcDbEntity
8
1
62
256
6
ByLayer
370
13
48
1
60
0
100
AcDbSpline
70
4
71
3
72
38
73
34
40
0
40
0
40
0
40
0
40
0.0625
40
0.0625
40
0.125
40
0.125
40
0.1875
40
0.1875
40
0.25
40
0.25
40
0.3125
40
0.3125
40
0.375
40
0.375
40
0.4375
40
0.4375
40
0.5
40
0.5
40
0.5625
40
0.5625
40
0.625
40
0.625
40
0.6875
40
0.6875
40
0.75
40
0.75
40
0.8125
40
0.8125
40
0.875
40
0.875
40
0.9375
40
0.9375
40
1
40
1
40
1
40
1
41
1
10
97.3
20
1.46535258726465
30
0
41
1
10
97.3610349617877
20
1.85814137223372
30
0
41
1
10
97.4220699235754
20
2.2551043007976
30
0
41
1
10
97.5441398471505
20
3.05296854682601
30
0
41
1
10
97.6051748089382
20
3.45386593187453
30
0
41
1
10
97.7272447325135
20
4.25457963195532
30
0
41
1
10
97.7882796943011
20
4.6543901521334
30
0
41
1
10
97.9103496178764
20
5.44745136389673
30
0
41
1
10
97.9713845796641
20
5.84069463502129
30
0
41
1
10
98.0934545032394
20
6.61488269941907
30
0
41
1
10
98.154489465027
20
6.99581893836361
30
0
41
1
10
98.2765593886022
20
7.73963618628247
30
0
41
1
10
98.3375943503899
20
8.10250821817942
30
0
41
1
10
98.4596642739651
20
8.80468812877689
30
0
41
1
10
98.5206992357528
20
9.1439874501508
30
0
41
1
10
98.6427691593281
20
9.79402722564635
30
0
41
1
10
98.7038041211157
20
10.1047603889401
30
0
41
1
10
98.825874044691
20
10.6934283109108
30
0
41
1
10
98.8869090064786
20
10.9713577573031
30
0
41
1
10
99.0089789300539
20
11.4911255207133
30
0
41
1
10
99.0700138918415
20
11.732960964176
30
0
41
1
10
99.1920838154168
20
12.1783191106666
30
0
41
1
10
99.2531187772045
20
12.3818415206601
30
0
41
1
10
99.3751887007798
20
12.7494708388073
30
0
41
1
10
99.4362236625674
20
12.9135798561512
30
0
41
1
10
99.5582935861426
20
13.2023702520886
30
0
41
1
10
99.6193285479303
20
13.3270557023417
30
0
41
1
10
99.7413984715055
20
13.537982814521
30
0
41
1
10
99.8024334332933
20
13.62422990811
30
0
41
1
10
99.9245033568686
20
13.7601151391154
30
0
41
1
10
99.9855383186562
20
13.8097594143151
30
0
41
1
10
100.107608242231
20
13.8749487262827
30
0
41
1
10
100.168643204019
20
13.8905
30
0
41
1
10
100.229678165807
20
13.8905
30
0
0
SPLINE
5
101
100
AcDbEntity
8
1
62
256
6
ByLayer
370
13
48
1
60
0
100
AcDbSpline
70
4
71
3
72
146
73
142
40
0
40
0
40
0
40
0
40
0.0156249999999998
40
0.0156249999999998
40
0.0312499999999997
40
0.0312499999999997
40
0.0468749999999995
40
0.0468749999999995
40
0.0624999999999993
40
0.0624999999999993
40
0.0781249999999991
40
0.0781249999999991
40
0.0937499999999989
40
0.0937499999999989
40
0.109374999999999
40
0.109374999999999
40
0.124999999999999
40
0.124999999999999
40
0.140624999999998
40
0.140624999999998
40
0.156249999999998
40
0.156249999999998
40
0.171874999999998
40
0.171874999999998
40
0.187499999999998
40
0.187499999999998
40
0.203124999999998
40
0.203124999999998
40
0.218749999999997
40
0.218749999999997
40
0.234374999999997
40
0.234374999999997
40
0.249999999999997
40
0.249999999999997
40
0.257812499999997
40
0.257812499999997
40
0.261718749999997
40
0.261718749999997
40
0.265624999999997
40
0.265624999999997
40
0.281249999999997
40
0.281249999999997
40
0.296874999999997
40
0.296874999999997
40
0.312499999999997
40
0.312499999999997
40
0.328124999999997
40
0.328124999999997
40
0.343749999999997
40
0.343749999999997
40
0.359374999999997
40
0.359374999999997
40
0.374999999999997
40
0.374999999999997
40
0.390624999999997
40
0.390624999999997
40
0.406249999999997
40
0.406249999999997
40
0.421874999999997
40
0.421874999999997
40
0.437499999999997
40
0.437499999999997
40
0.453124999999997
40
0.453124999999997
40
0.468749999999997
40
0.468749999999997
40
0.484374999999997
40
0.484374999999997
40
0.499999999999997
40
0.499999999999997
40
0.515624999999997
40
0.515624999999997
40
0.519531249999997
40
0.519531249999997
40
0.523437499999997
40
0.523437499999997
40
0.531249999999997
40
0.531249999999997
40
0.546874999999997
40
0.546874999999997
40
0.562499999999997
40
0.562499999999997
40
0.578124999999997
40
0.578124999999997
40
0.593749999999997
40
0.593749999999997
40
0.609374999999997
40
0.609374999999997
40
0.624999999999997
40
0.624999999999997
40
0.640624999999997
40
0.640624999999997
40
0.656249999999997
40
0.656249999999997
40
0.671874999999997
40
0.671874999999997
40
0.687499999999997
40
0.687499999999997
40
0.703124999999998
40
0.703124999999998
40
0.718749999999998
40
0.718749999999998
40
0.734374999999998
40
0.734374999999998
40
0.749999999999998
40
0.749999999999998
40
0.765624999999998
40
0.765624999999998
40
0.773437499999998
40
0.773437499999998
40
0.777343749999998
40
0.777343749999998
40
0.781249999999998
40
0.781249999999998
40
0.796874999999998
40
0.796874999999998
40
0.812499999999998
40
0.812499999999998
40
0.828124999999998
40
0.828124999999998
40
0.843749999999998
40
0.843749999999998
40
0.859374999999999
40
0.859374999999999
40
0.874999999999999
40
0.874999999999999
40
0.890624999999999
40
0.890624999999999
40
0.906249999999999
40
0.906249999999999
40
0.921874999999999
40
0.921874999999999
40
0.937499999999999
40
0.937499999999999
40
0.953125
40
0.953125
40
0.96875
40
0.96875
40
0.984375
40
0.984375
40
1
40
1
40
1
40
1
41
1
10
97.7857303285802
20
13.8905
30
0
41
1
10
97.8490560636445
20
13.8905
30
0
41
1
10
97.9123817987089
20
13.8737580536234
30
0
41
1
10
98.0390332688374
20
13.8034659508423
30
0
41
1
10
98.1023590039017
20
13.7499082907886
30
0
41
1
10
98.2290104740304
20
13.6032176639174
30
0
41
1
10
98.2923362090946
20
13.5100773575351
30
0
41
1
10
98.4189876792232
20
13.2822509557997
30
0
41
1
10
98.4823134142875
20
13.1475584777749
30
0
41
1
10
98.6089648844161
20
12.8356629073369
30
0
41
1
10
98.6722906194804
20
12.6584552335076
30
0
41
1
10
98.798942089609
20
12.2617378514719
30
0
41
1
10
98.8622678246733
20
12.0422261189494
30
0
41
1
10
98.9889192948019
20
11.5623844804059
30
0
41
1
10
99.0522450298662
20
11.3020556202098
30
0
41
1
10
99.1788964999947
20
10.7433552396693
30
0
41
1
10
99.2422222350591
20
10.4449879762711
30
0
41
1
10
99.3688737051878
20
9.81419855460783
30
0
41
1
10
99.4321994402519
20
9.48178356915952
30
0
41
1
10
99.5588509103806
20
8.78792569227122
30
0
41
1
10
99.6221766454449
20
8.42649218458072
30
0
41
1
10
99.7488281155734
20
7.68041201913167
30
0
41
1
10
99.8121538506378
20
7.29577595805623
30
0
41
1
10
99.9388053207664
20
6.50958940015033
30
0
41
1
10
100.002131055831
20
6.10804959976309
30
0
41
1
10
100.128782525959
20
5.29451447375379
30
0
41
1
10
100.192108261024
20
4.88252890796309
30
0
41
1
10
100.318759731152
20
4.05441062219023
30
0
41
1
10
100.382085466216
20
3.63828592361028
30
0
41
1
10
100.508736936345
20
2.80777763021388
30
0
41
1
10
100.572062671409
20
2.3933998415994
30
0
41
1
10
100.698714141538
20
1.5716445608781
30
0
41
1
10
100.762039876602
20
1.16427052201289
30
0
41
1
10
100.857028479199
20
0.561827936463857
30
0
41
1
10
100.888691346731
20
0.362443845259008
30
0
41
1
10
100.936185648029
20
0.0658749641142435
30
0
41
1
10
100.952017081795
20
-0.0323066640562786
30
0
41
1
10
100.983679949327
20
-0.229828944367767
30
0
41
1
10
100.999511383093
20
-0.329010776196725
30
0
41
1
10
101.078668551924
20
-0.82687758611965
30
0
41
1
10
101.141994286988
20
-1.23146795259669
30
0
41
1
10
101.268645757117
20
-2.04898624744945
30
0
41
1
10
101.331971492181
20
-2.46191136109746
30
0
41
1
10
101.45862296231
20
-3.29104756476144
30
0
41
1
10
101.521948697374
20
-3.70725350350745
30
0
41
1
10
101.648600167502
20
-4.53722471625611
30
0
41
1
10
101.711925902567
20
-4.95098255252887
30
0
41
1
10
101.838577372695
20
-5.76984519989696
30
0
41
1
10
101.90190310776
20
-6.17494066748321
30
0
41
1
10
102.028554577888
20
-6.97003404692049
30
0
41
1
10
102.091880312952
20
-7.36002142658626
30
0
41
1
10
102.218531783081
20
-8.11852317887241
30
0
41
1
10
102.281857518145
20
-8.48702681509468
30
0
41
1
10
102.408508988274
20
-9.19657778810998
30
0
41
1
10
102.471834723338
20
-9.53761529471748
30
0
41
1
10
102.598486193467
20
-10.1869557485
30
0
41
1
10
102.661811928531
20
-10.4952508211855
30
0
41
1
10
102.78846339866
20
-11.0748026953891
30
0
41
1
10
102.851789133724
20
-11.3460543797153
30
0
41
1
10
102.978440603853
20
-11.8483880024146
30
0
41
1
10
103.041766338917
20
-12.0794679969823
30
0
41
1
10
103.168417809045
20
-12.4996061308808
30
0
41
1
10
103.23174354411
20
-12.6886654774093
30
0
41
1
10
103.358395014238
20
-13.0242001186
30
0
41
1
10
103.421720749303
20
-13.1706793511277
30
0
41
1
10
103.548372219431
20
-13.4217023289639
30
0
41
1
10
103.611697954496
20
-13.5262520393441
30
0
41
1
10
103.738349424624
20
-13.6951238076595
30
0
41
1
10
103.801675159688
20
-13.7594530228469
30
0
41
1
10
103.928326629817
20
-13.8504507571876
30
0
41
1
10
103.991652364881
20
-13.8771268065783
30
0
41
1
10
104.070809533712
20
-13.8889355827102
30
0
41
1
10
104.086640967478
20
-13.8902217617424
30
0
41
1
10
104.11830383501
20
-13.8906972763799
30
0
41
1
10
104.134135268776
20
-13.8898915393715
30
0
41
1
10
104.181629570074
20
-13.8842678000096
30
0
41
1
10
104.213292437606
20
-13.8762398380664
30
0
41
1
10
104.308281040203
20
-13.8386930278095
30
0
41
1
10
104.371606775267
20
-13.7956911204595
30
0
41
1
10
104.498258245396
20
-13.6708118634788
30
0
41
1
10
104.56158398046
20
-13.5889270540126
30
0
41
1
10
104.688235450589
20
-13.3840676004415
30
0
41
1
10
104.751561185653
20
-13.2610862223603
30
0
41
1
10
104.878212655782
20
-12.9727697506781
30
0
41
1
10
104.941538390846
20
-12.8074294916411
30
0
41
1
10
105.068189860974
20
-12.4342636988445
30
0
41
1
10
105.131515596039
20
-12.2264353642155
30
0
41
1
10
105.258167066167
20
-11.7694166672344
30
0
41
1
10
105.321492801232
20
-11.520226464057
30
0
41
1
10
105.44814427136
20
-10.98290376278
30
0
41
1
10
105.511470006425
20
-10.6947746383404
30
0
41
1
10
105.638121476553
20
-10.0832379256773
30
0
41
1
10
105.701447211617
20
-9.75983675324539
30
0
41
1
10
105.828098681746
20
-9.08251592638945
30
0
41
1
10
105.89142441681
20
-8.72860513083336
30
0
41
1
10
106.018075886939
20
-7.99588934626252
30
0
41
1
10
106.081401622003
20
-7.61709472675952
30
0
41
1
10
106.208053092132
20
-6.84080757021289
30
0
41
1
10
106.271378827196
20
-6.4433258125832
30
0
41
1
10
106.398030297325
20
-5.63611103970456
30
0
41
1
10
106.461356032389
20
-5.22638813792111
30
0
41
1
10
106.588007502518
20
-4.40107063728959
30
0
41
1
10
106.651333237582
20
-3.98548460649363
30
0
41
1
10
106.777984707711
20
-3.15446990131426
30
0
41
1
10
106.841310442775
20
-2.73904767770642
30
0
41
1
10
106.967961912903
20
-1.91381193568202
30
0
41
1
10
107.031287647968
20
-1.5040025213068
30
0
41
1
10
107.126276250564
20
-0.897030983778677
30
0
41
1
10
107.157939118096
20
-0.695991444952227
30
0
41
1
10
107.205433419394
20
-0.396742641120795
30
0
41
1
10
107.221264853161
20
-0.297377716010772
30
0
41
1
10
107.252927720693
20
-0.0994762928112038
30
0
41
1
10
107.268759154459
20
-0.0012283624069482
30
0
41
1
10
107.347916323289
20
0.492097916484653
30
0
41
1
10
107.411242058353
20
0.89357417184479
30
0
41
1
10
107.537893528482
20
1.70613266526135
30
0
41
1
10
107.601219263546
20
2.11721270968425
30
0
41
1
10
107.727870733675
20
2.94413929007891
30
0
41
1
10
107.791196468739
20
3.35998133319498
30
0
41
1
10
107.917847938868
20
4.19087716648039
30
0
41
1
10
107.981173673932
20
4.6059241320458
30
0
41
1
10
108.107825144061
20
5.42912973305519
30
0
41
1
10
108.171150879125
20
5.83727949730181
30
0
41
1
10
108.297802349254
20
6.64028217583029
30
0
41
1
10
108.361128084318
20
7.03512479934633
30
0
41
1
10
108.487779554447
20
7.80508644176896
30
0
41
1
10
108.551105289511
20
8.18019467177305
30
0
41
1
10
108.677756759639
20
8.90456257461148
30
0
41
1
10
108.741082494704
20
9.25381205331547
30
0
41
1
10
108.867733964832
20
9.92095840593416
30
0
41
1
10
108.931059699897
20
10.2388467666613
30
0
41
1
10
109.057711170025
20
10.838672492086
30
0
41
1
10
109.121036905089
20
11.1206039119162
30
0
41
1
10
109.247688375218
20
11.6450430802026
30
0
41
1
10
109.311014110282
20
11.8875479848806
30
0
41
1
10
109.437665580411
20
12.3309206798567
30
0
41
1
10
109.500991315475
20
12.5317888269421
30
0
41
1
10
109.627642785604
20
12.8909710665066
30
0
41
1
10
109.690968520668
20
13.0492883978445
30
0
41
1
10
109.817619990797
20
13.3236930266376
30
0
41
1
10
109.880945725861
20
13.4397858059456
30
0
41
1
10
109.944271460925
20
13.5354792857927
30
0
0
SPLINE
5
102
100
AcDbEntity
8
1
62
256
6
ByLayer
370
13
48
1
60
0
100
AcDbSpline
70
4
71
3
72
22
73
18
40
0
40
0
40
0
40
0
40
0.125
40
0.125
40
0.25
40
0.25
40
0.375
40
0.375
40
0.5
40
0.5
40
0.625
40
0.625
40
0.75
40
0.75
40
0.875
40
0.875
40
1
40
1
40
1
40
1
41
1
10
107.986053952279
20
13.8905
30
0
41
1
10
108.067646348473
20
13.8905
30
0
41
1
10
108.149238744666
20
13.8626834517136
30
0
41
1
10
108.312423537053
20
13.7444613610821
30
0
41
1
10
108.394015933247
20
13.6540291570304
30
0
41
1
10
108.557200725634
20
13.405322631661
30
0
41
1
10
108.638793121828
20
13.2470239372434
30
0
41
1
10
108.801977914215
20
12.8598664493922
30
0
41
1
10
108.883570310409
20
12.6309904454424
30
0
41
1
10
109.046755102796
20
12.1031385528903
30
0
41
1
10
109.128347498989
20
11.8041571157662
30
0
41
1
10
109.291532291377
20
11.1400905779172
30
0
41
1
10
109.37312468757
20
10.7750142569932
30
0
41
1
10
109.536309479957
20
9.98624960316053
30
0
41
1
10
109.617901876151
20
9.56258407538101
30
0
41
1
10
109.781086668538
20
8.66714991659785
30
0
41
1
10
109.862679064732
20
8.19541461201365
30
0
41
1
10
109.944271460925
20
7.70596160157695
30
0
0
SPLINE
5
103
100
AcDbEntity
8
1
62
256
6
ByLayer
370
13
48
1
60
0
100
AcDbSpline
70
4
71
3
72
22
73
18
40
0
40
0
40
0
40
0
40
0.125
40
0.125
40
0.25
40
0.25
40
0.375
40
0.375
40
0.5
40
0.5
40
0.625
40
0.625
40
0.75
40
0.75
40
0.875
40
0.875
40
1
40
1
40
1
40
1
41
1
10
97.3000000000001
20
4.63674898168259
30
0
41
1
10
97.4018311862267
20
5.30157780039491
30
0
41
1
10
97.5036623724534
20
5.9599927346554
30
0
41
1
10
97.7073247449068
20
7.23747135934741
30
0
41
1
10
97.8091559311334
20
7.85642244338257
30
0
41
1
10
98.0128183035868
20
9.02876377014189
30
0
41
1
10
98.1146494898134
20
9.58204421294101
30
0
41
1
10
98.3183118622667
20
10.6007740222975
30
0
41
1
10
98.4201430484935
20
11.0661457240486
30
0
41
1
10
98.6238054209467
20
11.893648990435
30
0
41
1
10
98.7256366071734
20
12.2557543387837
30
0
41
1
10
98.9292989796268
20
12.8697950675775
30
0
41
1
10
99.0311301658533
20
13.1217570770372
30
0
41
1
10
99.2347925383067
20
13.5170417699717
30
0
41
1
10
99.3366237245334
20
13.6604289707909
30
0
41
1
10
99.5402860969867
20
13.8471181126113
30
0
41
1
10
99.6421172832133
20
13.8905
30
0
41
1
10
99.7439484694401
20
13.8905
30
0
0
SPLINE
5
104
100
AcDbEntity
8
1
62
256
6
ByLayer
370
13
48
1
60
0
100
AcDbSpline
70
4
71
3
72
134
73
130
40
0
40
0
40
0
40
0
40
0.015625
40
0.015625
40
0.03125
40
0.03125
40
0.046875
40
0.046875
40
0.0625
40
0.0625
40
0.078125
40
0.078125
40
0.09375
40
0.09375
40
0.109375
40
0.109375
40
0.125
40
0.125
40
0.140625
40
0.140625
40
0.15625
40
0.15625
40
0.171875
40
0.171875
40
0.1875
40
0.1875
40
0.203125
40
0.203125
40
0.21875
40
0.21875
40
0.234375
40
0.234375
40
0.25
40
0.25
40
0.265625
40
0.265625
40
0.28125
40
0.28125
40
0.296875
40
0.296875
40
0.3125
40
0.3125
40
0.328125
40
0.328125
40
0.34375
40
0.34375
40
0.359375
40
0.359375
40
0.375
40
0.375
40
0.390625
40
0.390625
40
0.40625
40
0.40625
40
0.421875
40
0.421875
40
0.4375
40
0.4375
40
0.453125
40
0.453125
40
0.46875
40
0.46875
40
0.484375
40
0.484375
40
0.5
40
0.5
40
0.515625
40
0.515625
40
0.53125
40
0.53125
40
0.546875
40
0.546875
40
0.5625
40
0.5625
40
0.578125
40
0.578125
40
0.59375
40
0.59375
40
0.609375
40
0.609375
40
0.625
40
0.625
40
0.640625
40
0.640625
40
0.65625
40
0.65625
40
0.671875
40
0.671875
40
0.6875
40
0.6875
40
0.703125
40
0.703125
40
0.71875
40
0.71875
40
0.734375
40
0.734375
40
0.75
40
0.75
40
0.765625
40
0.765625
40
0.78125
40
0.78125
40
0.796875
40
0.796875
40
0.8125
40
0.8125
40
0.828125
40
0.828125
40
0.84375
40
0.84375
40
0.859375
40
0.859375
40
0.875
40
0.875
40
0.890625
40
0.890625
40
0.90625
40
0.90625
40
0.921875
40
0.921875
40
0.9375
40
0.9375
40
0.953125
40
0.953125
40
0.96875
40
0.96875
40
0.984375
40
0.984375
40
1
40
1
40
1
40
1
41
1
10
97.3000006322136
20
13.8905
30
0
41
1
10
97.3658562094465
20
13.8905
30
0
41
1
10
97.4317117866793
20
13.8723918821115
30
0
41
1
10
97.5634229411451
20
13.796231445487
30
0
41
1
10
97.629278518378
20
13.7381699942122
30
0
41
1
10
97.7609896728437
20
13.5790364935087
30
0
41
1
10
97.8268452500766
20
13.4779555761588
30
0
41
1
10
97.9585564045423
20
13.2306689925141
30
0
41
1
10
98.0244119817752
20
13.0844557754507
30
0
41
1
10
98.156123136241
20
12.7459932194422
30
0
41
1
10
98.2219787134738
20
12.5537387521163
30
0
41
1
10
98.3536898679396
20
12.1236795641655
30
0
41
1
10
98.4195454451724
20
11.8858730920453
30
0
41
1
10
98.5512565996382
20
11.3666996723761
30
0
41
1
10
98.6171121768711
20
11.0853349371762
30
0
41
1
10
98.7488233313369
20
10.482533599782
30
0
41
1
10
98.8146789085697
20
10.1611032245806
30
0
41
1
10
98.9463900630354
20
9.48303107724951
30
0
41
1
10
99.0122456402683
20
9.12639899944685
30
0
41
1
10
99.143956794734
20
8.38391425240459
30
0
41
1
10
99.209812371967
20
7.99807367469816
30
0
41
1
10
99.3415235264328
20
7.20396167526252
30
0
41
1
10
99.4073791036656
20
6.79570334829938
30
0
41
1
10
99.5390902581313
20
5.96396111376416
30
0
41
1
10
99.6049458353642
20
5.54048985375991
30
0
41
1
10
99.73665698983
20
4.6855508114688
30
0
41
1
10
99.8025125670628
20
4.25409398267757
30
0
41
1
10
99.9342237215286
20
3.39007806877268
30
0
41
1
10
100.000079298761
20
2.95752738546921
30
0
41
1
10
100.131790453227
20
2.09758997946116
30
0
41
1
10
100.19764603046
20
1.67020871464453
30
0
41
1
10
100.329357184926
20
0.826039323972765
30
0
41
1
10
100.395212762159
20
0.409253754733754
30
0
41
1
10
100.526923916624
20
-0.40925179032044
30
0
41
1
10
100.592779493857
20
-0.826037314792927
30
0
41
1
10
100.724490648323
20
-1.67020667181129
30
0
41
1
10
100.790346225556
20
-2.09758792377204
30
0
41
1
10
100.922057380022
20
-2.95752531345875
30
0
41
1
10
100.987912957254
20
-3.39007599330159
30
0
41
1
10
101.11962411172
20
-4.25409191087221
30
0
41
1
10
101.185479688953
20
-4.68554874679424
30
0
41
1
10
101.317190843419
20
-5.54048781472693
30
0
41
1
10
101.383046420652
20
-5.96395909324548
30
0
41
1
10
101.514757575118
20
-6.79570137645518
30
0
41
1
10
101.58061315235
20
-7.20395973358032
30
0
41
1
10
101.712324306816
20
-7.99807180464254
30
0
41
1
10
101.778179884049
20
-8.38391242381314
30
0
41
1
10
101.909891038515
20
-9.12639726411126
30
0
41
1
10
101.975746615748
20
-9.48302939370285
30
0
41
1
10
102.107457770213
20
-10.1611016533806
30
0
41
1
10
102.173313347446
20
-10.4825320891349
30
0
41
1
10
102.305024501912
20
-11.0853335543765
30
0
41
1
10
102.370880079145
20
-11.3666983568648
30
0
41
1
10
102.502591233611
20
-11.8858719155239
30
0
41
1
10
102.568446810843
20
-12.1236784593391
30
0
41
1
10
102.700157965309
20
-12.5537377926582
30
0
41
1
10
102.766013542542
20
-12.7459923336512
30
0
41
1
10
102.897724697008
20
-13.0844550366211
30
0
41
1
10
102.963580274241
20
-13.2306683269742
30
0
41
1
10
103.095291428707
20
-13.4779550547227
30
0
41
1
10
103.161147005939
20
-13.5790360428838
30
0
41
1
10
103.292858160405
20
-13.738169680996
30
0
41
1
10
103.358713737638
20
-13.7962311988671
30
0
41
1
10
103.490424892104
20
-13.8723917631609
30
0
41
1
10
103.556280469337
20
-13.8904999421228
30
0
41
1
10
103.687991623802
20
-13.890500057877
30
0
41
1
10
103.753847201035
20
-13.8723920010617
30
0
41
1
10
103.885558355501
20
-13.7962316921065
30
0
41
1
10
103.951413932734
20
-13.738170307428
30
0
41
1
10
104.0831250872
20
-13.5790369441333
30
0
41
1
10
104.148980664433
20
-13.4779560975945
30
0
41
1
10
104.280691818898
20
-13.2306696580537
30
0
41
1
10
104.346547396131
20
-13.0844565142799
30
0
41
1
10
104.478258550597
20
-12.745994105233
30
0
41
1
10
104.54411412783
20
-12.5537397115741
30
0
41
1
10
104.675825282296
20
-12.1236806689914
30
0
41
1
10
104.741680859528
20
-11.8858742685664
30
0
41
1
10
104.873392013994
20
-11.3667009878872
30
0
41
1
10
104.939247591227
20
-11.0853363199756
30
0
41
1
10
105.070958745693
20
-10.4825351104288
30
0
41
1
10
105.136814322926
20
-10.1611047957803
30
0
41
1
10
105.268525477391
20
-9.48303276079588
30
0
41
1
10
105.334381054624
20
-9.12640073478221
30
0
41
1
10
105.46609220909
20
-8.38391608099587
30
0
41
1
10
105.531947786323
20
-7.99807554475359
30
0
41
1
10
105.663658940788
20
-7.20396361694458
30
0
41
1
10
105.729514518022
20
-6.79570532014344
30
0
41
1
10
105.861225672487
20
-5.96396313428275
30
0
41
1
10
105.92708124972
20
-5.5404918927928
30
0
41
1
10
106.058792404186
20
-4.68555287614331
30
0
41
1
10
106.124647981419
20
-4.25409605448294
30
0
41
1
10
106.256359135884
20
-3.39008014424377
30
0
41
1
10
106.322214713117
20
-2.95752945747967
30
0
41
1
10
106.453925867583
20
-2.09759203515034
30
0
41
1
10
106.519781444816
20
-1.6702107574778
30
0
41
1
10
106.651492599282
20
-0.826041333152688
30
0
41
1
10
106.717348176515
20
-0.409255743120582
30
0
41
1
10
106.84905933098
20
0.409249849880496
30
0
41
1
10
106.914914908213
20
0.826035305613175
30
0
41
1
10
107.046626062679
20
1.67020462897813
30
0
41
1
10
107.112481639912
20
2.09758586808295
30
0
41
1
10
107.244192794378
20
2.95752324144834
30
0
41
1
10
107.31004837161
20
3.39007391783053
30
0
41
1
10
107.441759526076
20
4.25408983906678
30
0
41
1
10
107.507615103309
20
4.68554668211965
30
0
41
1
10
107.639326257775
20
5.54048577569387
30
0
41
1
10
107.705181835008
20
5.96395707272669
30
0
41
1
10
107.836892989473
20
6.79569940461082
30
0
41
1
10
107.902748566706
20
7.20395779189795
30
0
41
1
10
108.034459721172
20
7.99806993458674
30
0
41
1
10
108.100315298405
20
8.38391059522147
30
0
41
1
10
108.232026452871
20
9.12639552877545
30
0
41
1
10
108.297882030104
20
9.48302771015594
30
0
41
1
10
108.429593184569
20
10.1611000821803
30
0
41
1
10
108.495448761802
20
10.4825305784875
30
0
41
1
10
108.627159916268
20
11.0853321715765
30
0
41
1
10
108.693015493501
20
11.3666970413531
30
0
41
1
10
108.824726647967
20
11.8858707390021
30
0
41
1
10
108.890582225199
20
12.1236773545125
30
0
41
1
10
109.022293379665
20
12.5537368331996
30
0
41
1
10
109.088148956898
20
12.7459914478598
30
0
41
1
10
109.219860111364
20
13.0844542977912
30
0
41
1
10
109.285715688597
20
13.230667661434
30
0
41
1
10
109.417426843062
20
13.4779545332863
30
0
41
1
10
109.483282420295
20
13.5790355922585
30
0
41
1
10
109.614993574761
20
13.7381693677794
30
0
41
1
10
109.680849151994
20
13.7962309522469
30
0
41
1
10
109.81256030646
20
13.8723916442101
30
0
41
1
10
109.878415883693
20
13.8904998842453
30
0
41
1
10
109.944271460925
20
13.8904999999994
30
0
0
SPLINE
5
105
100
AcDbEntity
8
1
62
256
6
ByLayer
370
13
48
1
60
0
100
AcDbSpline
70
4
71
3
72
8
73
4
40
0
40
0
40
0
40
0
40
1
40
1
40
1
40
1
41
1
10
109.944271460925
20
8.69026024952325
30
0
41
1
10
111.629514307284
20
5.81176862768859
30
0
41
1
10
113.314757153642
20
2.9149781123883
30
0
41
1
10
115
20
-2.84E-14
30
0
0
SPLINE
5
106
100
AcDbEntity
8
1
62
256
6
ByLayer
370
13
48
1
60
0
100
AcDbSpline
70
4
71
3
72
8
73
4
40
0
40
0
40
0
40
0
40
1
40
1
40
1
40
1
41
1
10
109.944271460925
20
12.0758894766645
30
0
41
1
10
111.629514307284
20
8.03902493893858
30
0
41
1
10
113.314757153642
20
4.01367705203083
30
0
41
1
10
115
20
-4.547E-13
30
0
0
SPLINE
5
107
100
AcDbEntity
8
1
62
256
6
ByLayer
370
13
48
1
60
0
100
AcDbSpline
70
4
71
3
72
8
73
4
40
0
40
0
40
0
40
0
40
1
40
1
40
1
40
1
41
1
10
109.944271460925
20
-10.5256094093636
30
0
41
1
10
111.629514307284
20
-7.03234811467763
30
0
41
1
10
113.314757153642
20
-3.52376674013021
30
0
41
1
10
115
20
-5.684E-13
30
0
0
SPLINE
5
108
100
AcDbEntity
8
1
62
256
6
ByLayer
370
13
48
1
60
0
100
AcDbSpline
70
4
71
3
72
8
73
4
40
0
40
0
40
0
40
0
40
1
40
1
40
1
40
1
41
1
10
109.944271460925
20
13.8035433989037
30
0
41
1
10
111.629514307284
20
9.20497747826187
30
0
41
1
10
113.314757153642
20
4.60373753028372
30
0
41
1
10
115
20
0
30
0
0
SPLINE
5
109
100
AcDbEntity
8
1
62
256
6
ByLayer
370
13
48
1
60
0
100
AcDbSpline
70
4
71
3
72
8
73
4
40
0
40
0
40
0
40
0
40
1
40
1
40
1
40
1
41
1
10
109.944271460925
20
-12.9854888975837
30
0
41
1
10
111.629514307284
20
-8.665303950322
30
0
41
1
10
113.314757153642
20
-4.33675229680918
30
0
41
1
10
115
20
4.832E-13
30
0
0
SPLINE
5
10A
100
AcDbEntity
8
1
62
256
6
ByLayer
370
13
48
1
60
0
100
AcDbSpline
70
4
71
3
72
8
73
4
40
0
40
0
40
0
40
0
40
1
40
1
40
1
40
1
41
1
10
109.944271460925
20
-11.5117935304586
30
0
41
1
10
111.629514307284
20
-7.66142907796186
30
0
41
1
10
113.314757153642
20
-3.82411558272926
30
0
41
1
10
115
20
-8.53E-14
30
0
0
SPLINE
5
10B
100
AcDbEntity
8
1
62
256
6
ByLayer
370
13
48
1
60
0
100
AcDbSpline
70
4
71
3
72
8
73
4
40
0
40
0
40
0
40
0
40
1
40
1
40
1
40
1
41
1
10
109.944271460925
20
8.05913361079581
30
0
41
1
10
111.629514307284
20
5.35368966563905
30
0
41
1
10
113.314757153642
20
2.66727754423496
30
0
41
1
10
115
20
-3.126E-13
30
0
0
SPLINE
5
10C
100
AcDbEntity
8
1
62
256
6
ByLayer
370
13
48
1
60
0
100
AcDbSpline
70
4
71
3
72
8
73
4
40
0
40
0
40
0
40
0
40
1
40
1
40
1
40
1
41
1
10
109.944271460925
20
5.97905428870902
30
0
41
1
10
111.629514307284
20
3.96490692304434
30
0
41
1
10
113.314757153642
20
1.97186344571315
30
0
41
1
10
115
20
-2.274E-13
30
0
0
SPLINE
5
10D
100
AcDbEntity
8
1
62
256
6
ByLayer
370
13
48
1
60
0
100
AcDbSpline
70
4
71
3
72
8
73
4
40
0
40
0
40
0
40
0
40
1
40
1
40
1
40
1
41
1
10
109.944271460925
20
-13.8889354313372
30
0
41
1
10
111.629514307284
20
-9.25964162263699
30
0
41
1
10
113.314757153642
20
-4.62993730971732
30
0
41
1
10
115
20
-7.39E-13
30
0
0
SPLINE
5
10E
100
AcDbEntity
8
1
62
256
6
ByLayer
370
13
48
1
60
0
100
AcDbSpline
70
4
71
3
72
8
73
4
40
0
40
0
40
0
40
0
40
1
40
1
40
1
40
1
41
1
10
109.944271460925
20
2.13061007906475
30
0
41
1
10
111.629514307284
20
1.44353857232349
30
0
41
1
10
113.314757153642
20
0.733326037573732
30
0
41
1
10
115
20
5.68E-14
30
0
0
SPLINE
5
10F
100
AcDbEntity
8
1
62
256
6
ByLayer
370
13
48
1
60
0
100
AcDbSpline
70
4
71
3
72
8
73
4
40
0
40
0
40
0
40
0
40
1
40
1
40
1
40
1
41
1
10
109.944271460925
20
13.4381183533631
30
0
41
1
10
111.629514307284
20
8.95282008506001
30
0
41
1
10
113.314757153642
20
4.47339007871028
30
0
41
1
10
115
20
-5.116E-13
30
0
0
SPLINE
5
110
100
AcDbEntity
8
1
62
256
6
ByLayer
370
13
48
1
60
0
100
AcDbSpline
70
4
71
3
72
8
73
4
40
0
40
0
40
0
40
0
40
1
40
1
40
1
40
1
41
1
10
109.944271460925
20
9.59886122060286
30
0
41
1
10
111.629514307284
20
6.41616117673999
30
0
41
1
10
113.314757153642
20
3.21649980610334
30
0
41
1
10
115
20
8.53E-14
30
0
0
SPLINE
5
111
100
AcDbEntity
8
1
62
256
6
ByLayer
370
13
48
1
60
0
100
AcDbSpline
70
4
71
3
72
8
73
4
40
0
40
0
40
0
40
0
40
1
40
1
40
1
40
1
41
1
10
109.944271460925
20
11.1919671002036
30
0
41
1
10
111.629514307284
20
7.4751761320494
30
0
41
1
10
113.314757153642
20
3.74447269450917
30
0
41
1
10
115
20
-2.84E-14
30
0
0
SPLINE
5
112
100
AcDbEntity
8
1
62
256
6
ByLayer
370
13
48
1
60
0
100
AcDbSpline
70
4
71
3
72
8
73
4
40
0
40
0
40
0
40
0
40
1
40
1
40
1
40
1
41
1
10
109.944271460925
20
-8.79768620873003
30
0
41
1
10
111.629514307284
20
-5.88323926184938
30
0
41
1
10
113.314757153642
20
-2.95063963646442
30
0
41
1
10
115
20
-5.68E-14
30
0
0
SPLINE
5
113
100
AcDbEntity
8
1
62
256
6
ByLayer
370
13
48
1
60
0
100
AcDbSpline
70
4
71
3
72
8
73
4
40
0
40
0
40
0
40
0
40
1
40
1
40
1
40
1
41
1
10
109.944271460925
20
13.6927854906589
30
0
41
1
10
111.629514307284
20
9.12458811654844
30
0
41
1
10
113.314757153642
20
4.56026797105989
30
0
41
1
10
115
20
-5.116E-13
30
0
0
SPLINE
5
114
100
AcDbEntity
8
1
62
256
6
ByLayer
370
13
48
1
60
0
100
AcDbSpline
70
4
71
3
72
8
73
4
40
0
40
0
40
0
40
0
40
1
40
1
40
1
40
1
41
1
10
109.944271460925
20
-13.3648675861198
30
0
41
1
10
111.629514307284
20
-8.91629038598634
30
0
41
1
10
113.314757153642
20
-4.46127756168724
30
0
41
1
10
115
20
-1.137E-13
30
0
0
SPLINE
5
115
100
AcDbEntity
8
1
62
256
6
ByLayer
370
13
48
1
60
0
100
AcDbSpline
70
4
71
3
72
8
73
4
40
0
40
0
40
0
40
0
40
1
40
1
40
1
40
1
41
1
10
109.944271460925
20
-13.8183054115229
30
0
41
1
10
111.629514307284
20
-9.21458715466159
30
0
41
1
10
113.314757153642
20
-4.6084264739103
30
0
41
1
10
115
20
-1.137E-13
30
0
0
SPLINE
5
116
100
AcDbEntity
8
1
62
256
6
ByLayer
370
13
48
1
60
0
100
AcDbSpline
70
4
71
3
72
8
73
4
40
0
40
0
40
0
40
0
40
1
40
1
40
1
40
1
41
1
10
109.944271460925
20
3.71845086654574
30
0
41
1
10
111.629514307284
20
2.45641273117894
30
0
41
1
10
113.314757153642
20
1.21691336427125
30
0
41
1
10
115
20
-1.421E-13
30
0
0
SPLINE
5
117
100
AcDbEntity
8
1
62
256
6
ByLayer
370
13
48
1
60
0
100
AcDbSpline
70
4
71
3
72
8
73
4
40
0
40
0
40
0
40
0
40
1
40
1
40
1
40
1
41
1
10
109.944271460925
20
7.71593930991489
30
0
41
1
10
111.629514307284
20
5.16342466172438
30
0
41
1
10
113.314757153642
20
2.59141193849584
30
0
41
1
10
115
20
5.68E-14
30
0
0
SPLINE
5
118
100
AcDbEntity
8
1
62
256
6
ByLayer
370
13
48
1
60
0
100
AcDbSpline
70
4
71
3
72
8
73
4
40
0
40
0
40
0
40
0
40
1
40
1
40
1
40
1
41
1
10
109.944271460925
20
-9.1163499114667
30
0
41
1
10
111.629514307284
20
-6.05990463913872
30
0
41
1
10
113.314757153642
20
-3.02108257439548
30
0
41
1
10
115
20
-5.68E-14
30
0
0
SPLINE
5
119
100
AcDbEntity
8
1
62
256
6
ByLayer
370
13
48
1
60
0
100
AcDbSpline
70
4
71
3
72
8
73
4
40
0
40
0
40
0
40
0
40
1
40
1
40
1
40
1
41
1
10
109.944271460925
20
-7.16453646278708
30
0
41
1
10
111.629514307284
20
-4.75630286909131
30
0
41
1
10
113.314757153642
20
-2.36809361226958
30
0
41
1
10
115
20
-5.68E-14
30
0
0
SPLINE
5
11A
100
AcDbEntity
8
1
62
256
6
ByLayer
370
13
48
1
60
0
100
AcDbSpline
70
4
71
3
72
8
73
4
40
0
40
0
40
0
40
0
40
1
40
1
40
1
40
1
41
1
10
109.944271460925
20
5.60005196139878
30
0
41
1
10
111.629514307284
20
3.75479014923934
30
0
41
1
10
113.314757153642
20
1.88808221431114
30
0
41
1
10
115
20
5.68E-14
30
0
0
SPLINE
5
11B
100
AcDbEntity
8
1
62
256
6
ByLayer
370
13
48
1
60
0
100
AcDbSpline
70
4
71
3
72
8
73
4
40
0
40
0
40
0
40
0
40
1
40
1
40
1
40
1
41
1
10
109.944271460925
20
-12.5079076354566
30
0
41
1
10
111.629514307284
20
-8.34878627778431
30
0
41
1
10
113.314757153642
20
-4.17943040487165
30
0
41
1
10
115
20
-6.537E-13
30
0
0
SPLINE
5
11C
100
AcDbEntity
8
1
62
256
6
ByLayer
370
13
48
1
60
0
100
AcDbSpline
70
4
71
3
72
8
73
4
40
0
40
0
40
0
40
0
40
1
40
1
40
1
40
1
41
1
10
109.944271460925
20
2.54162452356576
30
0
41
1
10
111.629514307284
20
1.67140268513441
30
0
41
1
10
113.314757153642
20
0.824183781188964
30
0
41
1
10
115
20
-8.53E-14
30
0
0
SPLINE
5
11D
100
AcDbEntity
8
1
62
256
6
ByLayer
370
13
48
1
60
0
100
AcDbSpline
70
4
71
3
72
8
73
4
40
0
40
0
40
0
40
0
40
1
40
1
40
1
40
1
41
1
10
109.944271460925
20
0.139353931433192
30
0
41
1
10
111.629514307284
20
0.0694949332488477
30
0
41
1
10
113.314757153642
20
0.0230431288337059
30
0
41
1
10
115
20
0
30
0
0
SPLINE
5
11E
100
AcDbEntity
8
1
62
256
6
ByLayer
370
13
48
1
60
0
100
AcDbSpline
70
4
71
3
72
8
73
4
40
0
40
0
40
0
40
0
40
1
40
1
40
1
40
1
41
1
10
109.944271460925
20
-11.2732995383306
30
0
41
1
10
111.629514307284
20
-7.52920934054356
30
0
41
1
10
113.314757153642
20
-3.77139474461612
30
0
41
1
10
115
20
4.263E-13
30
0
0
SPLINE
5
11F
100
AcDbEntity
8
1
62
256
6
ByLayer
370
13
48
1
60
0
100
AcDbSpline
70
4
71
3
72
8
73
4
40
0
40
0
40
0
40
0
40
1
40
1
40
1
40
1
41
1
10
109.944271460925
20
13.8439011340204
30
0
41
1
10
111.629514307284
20
9.22735158124149
30
0
41
1
10
113.314757153642
20
4.6126589022673
30
0
41
1
10
115
20
-5.116E-13
30
0
0
SPLINE
5
120
100
AcDbEntity
8
1
62
256
6
ByLayer
370
13
48
1
60
0
100
AcDbSpline
70
4
71
3
72
8
73
4
40
0
40
0
40
0
40
0
40
1
40
1
40
1
40
1
41
1
10
109.944271460925
20
12.9357577852942
30
0
41
1
10
111.629514307284
20
8.63236727780352
30
0
41
1
10
113.314757153642
20
4.32039287265195
30
0
41
1
10
115
20
1.705E-13
30
0
0
SPLINE
5
121
100
AcDbEntity
8
1
62
256
6
ByLayer
370
13
48
1
60
0
100
AcDbSpline
70
4
71
3
72
8
73
4
40
0
40
0
40
0
40
0
40
1
40
1
40
1
40
1
41
1
10
109.944271460925
20
13.8861724162419
30
0
41
1
10
111.629514307284
20
9.25803256330832
30
0
41
1
10
113.314757153642
20
4.62924926619837
30
0
41
1
10
115
20
0
30
0
0
SPLINE
5
122
100
AcDbEntity
8
1
62
256
6
ByLayer
370
13
48
1
60
0
100
AcDbSpline
70
4
71
3
72
8
73
4
40
0
40
0
40
0
40
0
40
1
40
1
40
1
40
1
41
1
10
109.944271460925
20
-13.7153510320453
30
0
41
1
10
111.629514307284
20
-9.13986168374058
30
0
41
1
10
113.314757153642
20
-4.56801959401349
30
0
41
1
10
115
20
5.116E-13
30
0
0
SPLINE
5
123
100
AcDbEntity
8
1
62
256
6
ByLayer
370
13
48
1
60
0
100
AcDbSpline
70
4
71
3
72
8
73
4
40
0
40
0
40
0
40
0
40
1
40
1
40
1
40
1
41
1
10
109.944271460925
20
4.86715647816575
30
0
41
1
10
111.629514307284
20
3.22284619116604
30
0
41
1
10
113.314757153642
20
1.60044005748534
30
0
41
1
10
115
20
-1.705E-13
30
0
0
SPLINE
5
124
100
AcDbEntity
8
1
62
256
6
ByLayer
370
13
48
1
60
0
100
AcDbSpline
70
4
71
3
72
8
73
4
40
0
40
0
40
0
40
0
40
1
40
1
40
1
40
1
41
1
10
109.944271460925
20
-3.85147643290773
30
0
41
1
10
111.629514307284
20
-2.54515993131403
30
0
41
1
10
113.314757153642
20
-1.26131814198556
30
0
41
1
10
115
20
-2.84E-14
30
0
0
SPLINE
5
125
100
AcDbEntity
8
1
62
256
6
ByLayer
370
13
48
1
60
0
100
AcDbSpline
70
4
71
3
72
8
73
4
40
0
40
0
40
0
40
0
40
1
40
1
40
1
40
1
41
1
10
109.944271460925
20
10.4348709413382
30
0
41
1
10
111.629514307284
20
6.97203159889256
30
0
41
1
10
113.314757153642
20
3.49369676615547
30
0
41
1
10
115
20
-2.84E-14
30
0
0
SPLINE
5
126
100
AcDbEntity
8
1
62
256
6
ByLayer
370
13
48
1
60
0
100
AcDbSpline
70
4
71
3
72
8
73
4
40
0
40
0
40
0
40
0
40
1
40
1
40
1
40
1
41
1
10
109.944271460925
20
-3.44918000402313
30
0
41
1
10
111.629514307284
20
-2.32212903767695
30
0
41
1
10
113.314757153642
20
-1.17238757936903
30
0
41
1
10
115
20
1.421E-13
30
0
0
SPLINE
5
127
100
AcDbEntity
8
1
62
256
6
ByLayer
370
13
48
1
60
0
100
AcDbSpline
70
4
71
3
72
8
73
4
40
0
40
0
40
0
40
0
40
1
40
1
40
1
40
1
41
1
10
109.944271460925
20
-13.6431746551726
30
0
41
1
10
111.629514307284
20
-9.09984750345598
30
0
41
1
10
113.314757153642
20
-4.55206447897461
30
0
41
1
10
115
20
-7.105E-13
30
0
0
SPLINE
5
128
100
AcDbEntity
8
1
62
256
6
ByLayer
370
13
48
1
60
0
100
AcDbSpline
70
4
71
3
72
8
73
4
40
0
40
0
40
0
40
0
40
1
40
1
40
1
40
1
41
1
10
109.944271460925
20
13.081825638707
30
0
41
1
10
111.629514307284
20
8.71334648005137
30
0
41
1
10
113.314757153642
20
4.35268223803368
30
0
41
1
10
115
20
-4.832E-13
30
0
0
SPLINE
5
129
100
AcDbEntity
8
1
62
256
6
ByLayer
370
13
48
1
60
0
100
AcDbSpline
70
4
71
3
72
8
73
4
40
0
40
0
40
0
40
0
40
1
40
1
40
1
40
1
41
1
10
109.944271460925
20
-8.17134101174375
30
0
41
1
10
111.629514307284
20
-5.42863072512426
30
0
41
1
10
113.314757153642
20
-2.70481565814794
30
0
41
1
10
115
20
-5.68E-14
30
0
0
SPLINE
5
12A
100
AcDbEntity
8
1
62
256
6
ByLayer
370
13
48
1
60
0
100
AcDbSpline
70
4
71
3
72
8
73
4
40
0
40
0
40
0
40
0
40
1
40
1
40
1
40
1
41
1
10
109.944271460925
20
-12.6835977943458
30
0
41
1
10
111.629514307284
20
-8.44618792076881
30
0
41
1
10
113.314757153642
20
-4.21826799713963
30
0
41
1
10
115
20
4.832E-13
30
0
0
SPLINE
5
12B
100
AcDbEntity
8
1
62
256
6
ByLayer
370
13
48
1
60
0
100
AcDbSpline
70
4
71
3
72
8
73
4
40
0
40
0
40
0
40
0
40
1
40
1
40
1
40
1
41
1
10
109.944271460925
20
1.34557718157029
30
0
41
1
10
111.629514307284
20
0.87375268024951
30
0
41
1
10
113.314757153642
20
0.425221320079288
30
0
41
1
10
115
20
-5.68E-14
30
0
0
SPLINE
5
12C
100
AcDbEntity
8
1
62
256
6
ByLayer
370
13
48
1
60
0
100
AcDbSpline
70
4
71
3
72
8
73
4
40
0
40
0
40
0
40
0
40
1
40
1
40
1
40
1
41
1
10
109.944271460925
20
-0.277595742660679
30
0
41
1
10
111.629514307284
20
-0.161659637704361
30
0
41
1
10
113.314757153642
20
-0.0691266406139448
30
0
41
1
10
115
20
0
30
0
0
SPLINE
5
12D
100
AcDbEntity
8
1
62
256
6
ByLayer
370
13
48
1
60
0
100
AcDbSpline
70
4
71
3
72
8
73
4
40
0
40
0
40
0
40
0
40
1
40
1
40
1
40
1
41
1
10
109.944271460925
20
11.8644241683536
30
0
41
1
10
111.629514307284
20
7.92178975289298
30
0
41
1
10
113.314757153642
20
3.96693110180206
30
0
41
1
10
115
20
-5.68E-14
30
0
0
SPLINE
5
12E
100
AcDbEntity
8
1
62
256
6
ByLayer
370
13
48
1
60
0
100
AcDbSpline
70
4
71
3
72
8
73
4
40
0
40
0
40
0
40
0
40
1
40
1
40
1
40
1
41
1
10
109.944271460925
20
12.4471566988525
30
0
41
1
10
111.629514307284
20
8.30849495231956
30
0
41
1
10
113.314757153642
20
4.1593896495188
30
0
41
1
10
115
20
2.84E-14
30
0
0
SPLINE
5
12F
100
AcDbEntity
8
1
62
256
6
ByLayer
370
13
48
1
60
0
100
AcDbSpline
70
4
71
3
72
8
73
4
40
0
40
0
40
0
40
0
40
1
40
1
40
1
40
1
41
1
10
109.944271460925
20
7.04573558692664
30
0
41
1
10
111.629514307284
20
4.67698310316928
30
0
41
1
10
113.314757153642
20
2.32837464490703
30
0
41
1
10
115
20
-2.558E-13
30
0
0
SPLINE
5
130
100
AcDbEntity
8
1
62
256
6
ByLayer
370
13
48
1
60
0
100
AcDbSpline
70
4
71
3
72
8
73
4
40
0
40
0
40
0
40
0
40
1
40
1
40
1
40
1
41
1
10
109.944271460925
20
-6.80413665501524
30
0
41
1
10
111.629514307284
20
-4.55649922823659
30
0
41
1
10
113.314757153642
20
-2.28842460362102
30
0
41
1
10
115
20
2.558E-13
30
0
0
SPLINE
5
131
100
AcDbEntity
8
1
62
256
6
ByLayer
370
13
48
1
60
0
100
AcDbSpline
70
4
71
3
72
8
73
4
40
0
40
0
40
0
40
0
40
1
40
1
40
1
40
1
41
1
10
109.944271460925
20
-6.10355020956175
30
0
41
1
10
111.629514307284
20
-4.04800554081075
30
0
41
1
10
113.314757153642
20
-2.01346289240411
30
0
41
1
10
115
20
-5.68E-14
30
0
0
SPLINE
5
132
100
AcDbEntity
8
1
62
256
6
ByLayer
370
13
48
1
60
0
100
AcDbSpline
70
4
71
3
72
8
73
4
40
0
40
0
40
0
40
0
40
1
40
1
40
1
40
1
41
1
10
109.944271460925
20
-13.8545305761031
30
0
41
1
10
111.629514307284
20
-9.23467018361333
30
0
41
1
10
113.314757153642
20
-4.61643431100674
30
0
41
1
10
115
20
-1.137E-13
30
0
0
SPLINE
5
133
100
AcDbEntity
8
1
62
256
6
ByLayer
370
13
48
1
60
0
100
AcDbSpline
70
4
71
3
72
8
73
4
40
0
40
0
40
0
40
0
40
1
40
1
40
1
40
1
41
1
10
109.944271460925
20
-1.06792318081221
30
0
41
1
10
111.629514307284
20
-0.735288368188037
30
0
41
1
10
113.314757153642
20
-0.379309325743293
30
0
41
1
10
115
20
2.84E-14
30
0
0
SPLINE
5
134
100
AcDbEntity
8
1
62
256
6
ByLayer
370
13
48
1
60
0
100
AcDbSpline
70
4
71
3
72
8
73
4
40
0
40
0
40
0
40
0
40
1
40
1
40
1
40
1
41
1
10
109.944271460925
20
11.4338534070796
30
0
41
1
10
111.629514307284
20
7.60927654982012
30
0
41
1
10
113.314757153642
20
3.7979434285628
30
0
41
1
10
115
20
-4.263E-13
30
0
0
SPLINE
5
135
100
AcDbEntity
8
1
62
256
6
ByLayer
370
13
48
1
60
0
100
AcDbSpline
70
4
71
3
72
8
73
4
40
0
40
0
40
0
40
0
40
1
40
1
40
1
40
1
41
1
10
109.944271460925
20
13.3265323889684
30
0
41
1
10
111.629514307284
20
8.89095744952712
30
0
41
1
10
113.314757153642
20
4.44872318663491
30
0
41
1
10
115
20
2.84E-14
30
0
0
SPLINE
5
136
100
AcDbEntity
8
1
62
256
6
ByLayer
370
13
48
1
60
0
100
AcDbSpline
70
4
71
3
72
8
73
4
40
0
40
0
40
0
40
0
40
1
40
1
40
1
40
1
41
1
10
109.944271460925
20
-4.99640594539443
30
0
41
1
10
111.629514307284
20
-3.3090952286716
30
0
41
1
10
113.314757153642
20
-1.64360538828575
30
0
41
1
10
115
20
-2.558E-13
30
0
0
SPLINE
5
137
100
AcDbEntity
8
1
62
256
6
ByLayer
370
13
48
1
60
0
100
AcDbSpline
70
4
71
3
72
8
73
4
40
0
40
0
40
0
40
0
40
1
40
1
40
1
40
1
41
1
10
109.944271460925
20
-13.4724493424698
30
0
41
1
10
111.629514307284
20
-8.97593311094016
30
0
41
1
10
113.314757153642
20
-4.48505929434185
30
0
41
1
10
115
20
-7.105E-13
30
0
0
SPLINE
5
138
100
AcDbEntity
8
1
62
256
6
ByLayer
370
13
48
1
60
0
100
AcDbSpline
70
4
71
3
72
8
73
4
40
0
40
0
40
0
40
0
40
1
40
1
40
1
40
1
41
1
10
109.944271460925
20
-10.7929156730902
30
0
41
1
10
111.629514307284
20
-7.18054121457408
30
0
41
1
10
113.314757153642
20
-3.58285674122689
30
0
41
1
10
115
20
-8.53E-14
30
0
0
SPLINE
5
139
100
AcDbEntity
8
1
62
256
6
ByLayer
370
13
48
1
60
0
100
AcDbSpline
70
4
71
3
72
8
73
4
40
0
40
0
40
0
40
0
40
1
40
1
40
1
40
1
41
1
10
109.944271460925
20
-2.67742018512291
30
0
41
1
10
111.629514307284
20
-1.76197689847066
30
0
41
1
10
113.314757153642
20
-0.869492195322607
30
0
41
1
10
115
20
-2.84E-14
30
0
0
SPLINE
5
13A
100
AcDbEntity
8
1
62
256
6
ByLayer
370
13
48
1
60
0
100
AcDbSpline
70
4
71
3
72
8
73
4
40
0
40
0
40
0
40
0
40
1
40
1
40
1
40
1
41
1
10
109.944271460925
20
-2.26712413931548
30
0
41
1
10
111.629514307284
20
-1.53451106188368
30
0
41
1
10
113.314757153642
20
-0.7787932589832
30
0
41
1
10
115
20
8.53E-14
30
0
0
SPLINE
5
13B
100
AcDbEntity
8
1
62
256
6
ByLayer
370
13
48
1
60
0
100
AcDbSpline
70
4
71
3
72
8
73
4
40
0
40
0
40
0
40
0
40
1
40
1
40
1
40
1
41
1
10
109.944271460925
20
-4.60515149440758
30
0
41
1
10
111.629514307284
20
-3.09218594591943
30
0
41
1
10
113.314757153642
20
-1.55711573549658
30
0
41
1
10
115
20
1.705E-13
30
0
0
SPLINE
5
13C
100
AcDbEntity
8
1
62
256
6
ByLayer
370
13
48
1
60
0
100
AcDbSpline
70
4
71
3
72
8
73
4
40
0
40
0
40
0
40
0
40
1
40
1
40
1
40
1
41
1
10
109.944271460925
20
3.31508363587574
30
0
41
1
10
111.629514307284
20
2.23278819101174
30
0
41
1
10
113.314757153642
20
1.1277460931027
30
0
41
1
10
115
20
2.84E-14
30
0
0
SPLINE
5
13D
100
AcDbEntity
8
1
62
256
6
ByLayer
370
13
48
1
60
0
100
AcDbSpline
70
4
71
3
72
8
73
4
40
0
40
0
40
0
40
0
40
1
40
1
40
1
40
1
41
1
10
109.944271460925
20
12.6266018052364
30
0
41
1
10
111.629514307284
20
8.40797831722665
30
0
41
1
10
113.314757153642
20
4.19905730034438
30
0
41
1
10
115
20
-4.832E-13
30
0
0
SPLINE
5
13E
100
AcDbEntity
8
1
62
256
6
ByLayer
370
13
48
1
60
0
100
AcDbSpline
70
4
71
3
72
8
73
4
40
0
40
0
40
0
40
0
40
1
40
1
40
1
40
1
41
1
10
109.944271460925
20
13.616525282538
30
0
41
1
10
111.629514307284
20
9.08230988302481
30
0
41
1
10
113.314757153642
20
4.54341009530862
30
0
41
1
10
115
20
2.84E-14
30
0
0
SPLINE
5
13F
100
AcDbEntity
8
1
62
256
6
ByLayer
370
13
48
1
60
0
100
AcDbSpline
70
4
71
3
72
8
73
4
40
0
40
0
40
0
40
0
40
1
40
1
40
1
40
1
41
1
10
109.944271460925
20
-12.1436136143186
30
0
41
1
10
111.629514307284
20
-8.08437749380354
30
0
41
1
10
113.314757153642
20
-4.03645460497063
30
0
41
1
10
115
20
-8.53E-14
30
0
0
SPLINE
5
140
100
AcDbEntity
8
1
62
256
6
ByLayer
370
13
48
1
60
0
100
AcDbSpline
70
4
71
3
72
8
73
4
40
0
40
0
40
0
40
0
40
1
40
1
40
1
40
1
41
1
10
109.944271460925
20
-9.69831951016329
30
0
41
1
10
111.629514307284
20
-6.4823048570297
30
0
41
1
10
113.314757153642
20
-3.24949030019781
30
0
41
1
10
115
20
-8.53E-14
30
0
0
SPLINE
5
141
100
AcDbEntity
8
1
62
256
6
ByLayer
370
13
48
1
60
0
100
AcDbSpline
70
4
71
3
72
8
73
4
40
0
40
0
40
0
40
0
40
1
40
1
40
1
40
1
41
1
10
109.944271460925
20
0.930023814081295
30
0
41
1
10
111.629514307284
20
0.643372213880696
30
0
41
1
10
113.314757153642
20
0.333360214400557
30
0
41
1
10
115
20
0
30
0
0
SPLINE
5
142
100
AcDbEntity
8
1
62
256
6
ByLayer
370
13
48
1
60
0
100
AcDbSpline
70
4
71
3
72
8
73
4
40
0
40
0
40
0
40
0
40
1
40
1
40
1
40
1
41
1
10
109.944271460925
20
-13.1276624479212
30
0
41
1
10
111.629514307284
20
-8.74412417269215
30
0
41
1
10
113.314757153642
20
-4.36818079806608
30
0
41
1
10
115
20
-1.137E-13
30
0
0
SPLINE
5
143
100
AcDbEntity
8
1
62
256
6
ByLayer
370
13
48
1
60
0
100
AcDbSpline
70
4
71
3
72
8
73
4
40
0
40
0
40
0
40
0
40
1
40
1
40
1
40
1
41
1
10
109.944271460925
20
-7.83052053149225
30
0
41
1
10
111.629514307284
20
-5.23968175411031
30
0
41
1
10
113.314757153642
20
-2.62947480278891
30
0
41
1
10
115
20
2.842E-13
30
0
0
SPLINE
5
144
100
AcDbEntity
8
1
62
256
6
ByLayer
370
13
48
1
60
0
100
AcDbSpline
70
4
71
3
72
8
73
4
40
0
40
0
40
0
40
0
40
1
40
1
40
1
40
1
41
1
10
109.944271460925
20
9.01158455229199
30
0
41
1
10
111.629514307284
20
5.98990902677812
30
0
41
1
10
113.314757153642
20
2.98600919538029
30
0
41
1
10
115
20
-3.411E-13
30
0
0
SPLINE
5
145
100
AcDbEntity
8
1
62
256
6
ByLayer
370
13
48
1
60
0
100
AcDbSpline
70
4
71
3
72
8
73
4
40
0
40
0
40
0
40
0
40
1
40
1
40
1
40
1
41
1
10
109.944271460925
20
9.89588551482717
30
0
41
1
10
111.629514307284
20
6.58082978679053
30
0
41
1
10
113.314757153642
20
3.28215919480149
30
0
41
1
10
115
20
-3.695E-13
30
0
0
SPLINE
5
146
100
AcDbEntity
8
1
62
256
6
ByLayer
370
13
48
1
60
0
100
AcDbSpline
70
4
71
3
72
8
73
4
40
0
40
0
40
0
40
0
40
1
40
1
40
1
40
1
41
1
10
109.944271460925
20
-1.48311598557919
30
0
41
1
10
111.629514307284
20
-0.965468940597304
30
0
41
1
10
113.314757153642
20
-0.471090726400064
30
0
41
1
10
115
20
-2.84E-14
30
0
0
SPLINE
5
147
100
AcDbEntity
8
1
62
256
6
ByLayer
370
13
48
1
60
0
100
AcDbSpline
70
4
71
3
72
8
73
4
40
0
40
0
40
0
40
0
40
1
40
1
40
1
40
1
41
1
10
109.944271460925
20
10.705348985052
30
0
41
1
10
111.629514307284
20
7.12198311590183
30
0
41
1
10
113.314757153642
20
3.55348791237435
30
0
41
1
10
115
20
-3.979E-13
30
0
0
SPLINE
5
148
100
AcDbEntity
8
1
62
256
6
ByLayer
370
13
48
1
60
0
100
AcDbSpline
70
4
71
3
72
8
73
4
40
0
40
0
40
0
40
0
40
1
40
1
40
1
40
1
41
1
10
109.944271460925
20
6.68326668991287
30
0
41
1
10
111.629514307284
20
4.47603237079335
30
0
41
1
10
113.314757153642
20
2.2482482489763
30
0
41
1
10
115
20
5.68E-14
30
0
0
SPLINE
5
149
100
AcDbEntity
8
1
62
256
6
ByLayer
370
13
48
1
60
0
100
AcDbSpline
70
4
71
3
72
8
73
4
40
0
40
0
40
0
40
0
40
1
40
1
40
1
40
1
41
1
10
109.944271460925
20
-9.99241654570207
30
0
41
1
10
111.629514307284
20
-6.64535061121174
30
0
41
1
10
113.314757153642
20
-3.31450259699301
30
0
41
1
10
115
20
-8.53E-14
30
0
0
SPLINE
5
14A
100
AcDbEntity
8
1
62
256
6
ByLayer
370
13
48
1
60
0
100
AcDbSpline
70
4
71
3
72
8
73
4
40
0
40
0
40
0
40
0
40
1
40
1
40
1
40
1
41
1
10
109.944271460925
20
-5.72629659264814
30
0
41
1
10
111.629514307283
20
-3.83885824228443
30
0
41
1
10
113.314757153642
20
-1.930068226202
30
0
41
1
10
115
20
-3.126E-13
30
0
0
SPLINE
5
14B
100
AcDbEntity
8
1
62
256
6
ByLayer
370
13
48
1
60
0
100
AcDbSpline
70
4
71
3
72
8
73
4
40
0
40
0
40
0
40
0
40
1
40
1
40
1
40
1
41
1
10
109.944271460925
20
4.47448692022488
30
0
41
1
10
111.629514307284
20
3.00515238102111
30
0
41
1
10
113.314757153642
20
1.51363758497328
30
0
41
1
10
115
20
1.421E-13
30
0
0
SPLINE
5
14C
100
AcDbEntity
8
1
62
256
6
ByLayer
370
13
48
1
60
0
100
AcDbSpline
70
4
71
3
72
8
73
4
40
0
40
0
40
0
40
0
40
1
40
1
40
1
40
1
41
1
10
109.944271460925
20
-11.9357355011851
30
0
41
1
10
111.629514307284
20
-7.96913102873245
30
0
41
1
10
113.314757153642
20
-3.99050163042469
30
0
41
1
10
115
20
-6.253E-13
30
0
0
LINE
5
7D
100
AcDbEntity
8
80
62
256
6
ByLayer
370
18
48
1
60
0
100
AcDbLine
10
0
20
0
30
0
11
-5
21
0
31
0
39
0
210
0
220
0
230
1
0
LINE
5
7E
100
AcDbEntity
8
4
62
256
6
ByLayer
370
18
48
0.05
60
0
100
AcDbLine
10
-5
20
0
30
0
11
120
21
0
31
0
39
0
210
0
220
0
230
1
0
LINE
5
80
100
AcDbEntity
8
81
62
256
6
ByLayer
370
18
48
1
60
0
100
AcDbLine
10
115
20
0
30
0
11
120
21
0
31
0
39
0
210
0
220
0
230
1
0
LINE
5
81
100
AcDbEntity
8
SK4
62
256
6
ByLayer
370
18
48
0.05
60
0
100
AcDbLine
10
-65
20
0
30
0
11
120
21
0
31
0
39
0
210
0
220
0
230
1
0
LINE
5
83
100
AcDbEntity
8
1
62
256
6
ByLayer
370
18
48
1
60
0
100
AcDbLine
10
10
20
-13.8
30
0
11
44.438191
21
-13.8
31
0
39
0
210
0
220
0
230
1
0
LINE
5
84
100
AcDbEntity
8
1
62
256
6
ByLayer
370
18
48
1
60
0
100
AcDbLine
10
44.438191
20
13.8
30
0
11
10
21
13.8
31
0
39
0
210
0
220
0
230
1
0
LINE
5
85
100
AcDbEntity
8
1
62
256
6
ByLayer
370
18
48
1
60
0
100
AcDbLine
10
115
20
0
30
0
11
109.944271
21
13.8905
31
0
39
0
210
0
220
0
230
1
0
LINE
5
86
100
AcDbEntity
8
1
62
256
6
ByLayer
370
18
48
1
60
0
100
AcDbLine
10
109.944271
20
-13.8905
30
0
11
115
21
0
31
0
39
0
210
0
220
0
230
1
0
LINE
5
87
100
AcDbEntity
8
1
62
256
6
ByLayer
370
18
48
1
60
0
100
AcDbLine
10
10
20
13.8
30
0
11
0
21
15.875
31
0
39
0
210
0
220
0
230
1
0
LINE
5
88
100
AcDbEntity
8
1
62
256
6
ByLayer
370
18
48
1
60
0
100
AcDbLine
10
0
20
-15.875
30
0
11
10
21
-13.8
31
0
39
0
210
0
220
0
230
1
0
LINE
5
89
100
AcDbEntity
8
1
62
256
6
ByLayer
370
18
48
1
60
0
100
AcDbLine
10
109.944271
20
13.8905
30
0
11
97.3
21
13.8905
31
0
39
0
210
0
220
0
230
1
0
LINE
5
8A
100
AcDbEntity
8
1
62
256
6
ByLayer
370
18
48
1
60
0
100
AcDbLine
10
97.3
20
-13.8905
30
0
11
109.944271
21
-13.8905
31
0
39
0
210
0
220
0
230
1
0
LINE
5
8B
100
AcDbEntity
8
1
62
256
6
ByLayer
370
18
48
1
60
0
100
AcDbLine
10
115
20
0
30
0
11
109.944271
21
13.8905
31
0
39
0
210
0
220
0
230
1
0
LINE
5
8C
100
AcDbEntity
8
1
62
256
6
ByLayer
370
18
48
1
60
0
100
AcDbLine
10
109.944271
20
-13.8905
30
0
11
115
21
0
31
0
39
0
210
0
220
0
230
1
0
LINE
5
8D
100
AcDbEntity
8
SK1
62
256
6
ByLayer
370
18
48
1
60
0
100
AcDbLine
10
-60
20
-14.875
30
0
11
-59
21
-15.875
31
0
39
0
210
0
220
0
230
1
0
LINE
5
8F
100
AcDbEntity
8
SK1
62
256
6
ByLayer
370
18
48
1
60
0
100
AcDbLine
10
-59
20
15.875
30
0
11
-60
21
14.875
31
0
39
0
210
0
220
0
230
1
0
LINE
5
90
100
AcDbEntity
8
SK1
62
256
6
ByLayer
370
18
48
1
60
0
100
AcDbLine
10
-59
20
-15.875
30
0
11
0
21
-15.875
31
0
39
0
210
0
220
0
230
1
0
LINE
5
91
100
AcDbEntity
8
SK1
62
256
6
ByLayer
370
18
48
1
60
0
100
AcDbLine
10
0
20
15.875
30
0
11
-59
21
15.875
31
0
39
0
210
0
220
0
230
1
0
LINE
5
92
100
AcDbEntity
8
1
62
256
6
ByLayer
370
18
48
1
60
0
100
AcDbLine
10
0
20
15.875
30
0
11
0
21
-15.875
31
0
39
0
210
0
220
0
230
1
0
LINE
5
93
100
AcDbEntity
8
1
62
256
6
ByLayer
370
18
48
1
60
0
100
AcDbLine
10
109.944271
20
13.8905
30
0
11
109.944271
21
13.44942
31
0
39
0
210
0
220
0
230
1
0
LINE
5
94
100
AcDbEntity
8
1
62
256
6
ByLayer
370
18
48
1
60
0
100
AcDbLine
10
109.944271
20
-13.8905
30
0
11
109.944271
21
-1.982138
31
0
39
0
210
0
220
0
230
1
0
LINE
5
95
100
AcDbEntity
8
1
62
256
6
ByLayer
370
18
48
1
60
0
100
AcDbLine
10
10
20
-13.8
30
0
11
10
21
-8.253083
31
0
39
0
210
0
220
0
230
1
0
LINE
5
96
100
AcDbEntity
8
1
62
256
6
ByLayer
370
18
48
1
60
0
100
AcDbLine
10
10
20
7.449837
30
0
11
10
21
13.8
31
0
39
0
210
0
220
0
230
1
0
LINE
5
97
100
AcDbEntity
8
SK1
62
256
6
ByLayer
370
18
48
1
60
0
100
AcDbLine
10
-51.368099
20
-7.245688
30
0
11
-51.368099
21
7.245688
31
0
39
0
210
0
220
0
230
1
0
LINE
5
98
100
AcDbEntity
8
SK1
62
256
6
ByLayer
370
18
48
1
60
0
100
AcDbLine
10
-60
20
-14.875
30
0
11
-60
21
14.875
31
0
39
0
210
0
220
0
230
1
0
LINE
5
99
100
AcDbEntity
8
SK1
62
256
6
ByLayer
370
18
48
1
60
0
100
AcDbLine
10
0
20
15.875
30
0
11
0
21
-15.875
31
0
39
0
210
0
220
0
230
1
0
LINE
5
9A
100
AcDbEntity
8
SK1
62
256
6
ByLayer
370
18
48
1
60
0
100
AcDbLine
10
-59
20
-15.875
30
0
11
-59
21
15.875
31
0
39
0
210
0
220
0
230
1
0
LINE
5
9B
100
AcDbEntity
8
SK1
62
256
6
ByLayer
370
18
48
1
60
0
100
AcDbLine
10
-8.876645
20
-7.245688
30
0
11
-51.368099
21
-7.245688
31
0
39
0
210
0
220
0
230
1
0
LINE
5
9C
100
AcDbEntity
8
SK1
62
256
6
ByLayer
370
18
48
1
60
0
100
AcDbLine
10
-51.368099
20
7.245688
30
0
11
-8.876645
21
7.245688
31
0
39
0
210
0
220
0
230
1
0
LINE
5
9D
100
AcDbEntity
8
SK1
62
256
6
ByLayer
370
18
48
1
60
0
100
AcDbLine
10
-8.876645
20
-7.245688
30
0
11
-8.876645
21
7.245688
31
0
39
0
210
0
220
0
230
1
0
LINE
5
9E
100
AcDbEntity
8
1
62
256
6
ByLayer
370
18
48
1
60
0
100
AcDbLine
10
109.944271
20
13.8905
30
0
11
109.944271
21
-13.8905
31
0
39
0
210
0
220
0
230
1
0
LINE
5
9F
100
AcDbEntity
8
1
62
256
6
ByLayer
370
18
48
1
60
0
100
AcDbLine
10
109.944271
20
13.8905
30
0
11
109.944271
21
-13.8905
31
0
39
0
210
0
220
0
230
1
0
LINE
5
A0
100
AcDbEntity
8
1
62
256
6
ByLayer
370
18
48
1
60
0
100
AcDbLine
10
109.944271
20
13.8905
30
0
11
109.944271
21
-13.8905
31
0
39
0
210
0
220
0
230
1
0
LINE
5
A1
100
AcDbEntity
8
1
62
256
6
ByLayer
370
18
48
1
60
0
100
AcDbLine
10
97.3
20
13.8905
30
0
11
97.3
21
-13.8905
31
0
39
0
210
0
220
0
230
1
0
LINE
5
A2
100
AcDbEntity
8
1
62
256
6
ByLayer
370
18
48
1
60
0
100
AcDbLine
10
97.3
20
13.8905
30
0
11
97.3
21
-13.8905
31
0
39
0
210
0
220
0
230
1
0
LINE
5
A3
100
AcDbEntity
8
1
62
256
6
ByLayer
370
18
48
1
60
0
100
AcDbLine
10
109.944271
20
13.8905
30
0
11
109.944271
21
-13.8905
31
0
39
0
210
0
220
0
230
1
0
LINE
5
A4
100
AcDbEntity
8
1
62
256
6
ByLayer
370
18
48
1
60
0
100
AcDbLine
10
97.3
20
13.8905
30
0
11
97.3
21
-13.8905
31
0
39
0
210
0
220
0
230
1
0
LINE
5
A5
100
AcDbEntity
8
1
62
256
6
ByLayer
370
18
48
1
60
0
100
AcDbLine
10
109.944271
20
13.8905
30
0
11
109.944271
21
-13.8905
31
0
39
0
210
0
220
0
230
1
0
LINE
5
A6
100
AcDbEntity
8
SK2
62
256
6
ByLayer
370
13
48
1
60
0
100
AcDbLine
10
-66.5
20
-15.875
30
0
11
-66.5
21
44.149683
31
0
39
0
210
0
220
0
230
1
0
LINE
5
A8
100
AcDbEntity
8
SK2
62
256
6
ByLayer
370
13
48
1
60
0
100
AcDbLine
10
-61.5875
20
15.875
30
0
11
-68.5
21
15.875
31
0
39
0
210
0
220
0
230
1
0
LINE
5
A9
100
AcDbEntity
8
SK2
62
256
6
ByLayer
370
13
48
1
60
0
100
AcDbLine
10
-61.5875
20
-15.875
30
0
11
-68.5
21
-15.875
31
0
39
0
210
0
220
0
230
1
0
LINE
5
AA
100
AcDbEntity
8
1
62
256
6
ByLayer
370
18
48
1
60
1
100
AcDbLine
10
-66.5
20
15.875
30
0
11
-66.039216
21
12.375002
31
0
39
0
210
0
220
0
230
1
0
LINE
5
AB
100
AcDbEntity
8
1
62
256
6
ByLayer
370
18
48
1
60
1
100
AcDbLine
10
-66.039216
20
12.375002
30
0
11
-66.960784
21
12.374998
31
0
39
0
210
0
220
0
230
1
0
LINE
5
AC
100
AcDbEntity
8
1
62
256
6
ByLayer
370
18
48
1
60
1
100
AcDbLine
10
-66.960784
20
12.374998
30
0
11
-66.5
21
15.875
31
0
39
0
210
0
220
0
230
1
0
LINE
5
AD
100
AcDbEntity
8
1
62
256
6
ByLayer
370
18
48
1
60
1
100
AcDbLine
10
-66.5
20
-15.875
30
0
11
-66.960784
21
-12.375002
31
0
39
0
210
0
220
0
230
1
0
LINE
5
AE
100
AcDbEntity
8
1
62
256
6
ByLayer
370
18
48
1
60
1
100
AcDbLine
10
-66.960784
20
-12.375002
30
0
11
-66.039216
21
-12.374998
31
0
39
0
210
0
220
0
230
1
0
LINE
5
AF
100
AcDbEntity
8
1
62
256
6
ByLayer
370
18
48
1
60
1
100
AcDbLine
10
-66.039216
20
-12.374998
30
0
11
-66.5
21
-15.875
31
0
39
0
210
0
220
0
230
1
0
LINE
5
B0
100
AcDbEntity
8
2
62
256
6
ByLayer
370
13
48
1
60
0
100
AcDbLine
10
122.5
20
-13.8905
30
0
11
122.5
21
42.165183
31
0
39
0
210
0
220
0
230
1
0
LINE
5
B2
100
AcDbEntity
8
2
62
256
6
ByLayer
370
13
48
1
60
0
100
AcDbLine
10
111.531771
20
13.8905
30
0
11
124.5
21
13.8905
31
0
39
0
210
0
220
0
230
1
0
LINE
5
B3
100
AcDbEntity
8
2
62
256
6
ByLayer
370
13
48
1
60
0
100
AcDbLine
10
111.531771
20
-13.8905
30
0
11
124.5
21
-13.8905
31
0
39
0
210
0
220
0
230
1
0
LINE
5
B4
100
AcDbEntity
8
1
62
256
6
ByLayer
370
18
48
1
60
1
100
AcDbLine
10
122.5
20
13.8905
30
0
11
122.960784
21
10.390502
31
0
39
0
210
0
220
0
230
1
0
LINE
5
B5
100
AcDbEntity
8
1
62
256
6
ByLayer
370
18
48
1
60
1
100
AcDbLine
10
122.960784
20
10.390502
30
0
11
122.039216
21
10.390498
31
0
39
0
210
0
220
0
230
1
0
LINE
5
B6
100
AcDbEntity
8
1
62
256
6
ByLayer
370
18
48
1
60
1
100
AcDbLine
10
122.039216
20
10.390498
30
0
11
122.5
21
13.8905
31
0
39
0
210
0
220
0
230
1
0
LINE
5
B7
100
AcDbEntity
8
1
62
256
6
ByLayer
370
18
48
1
60
1
100
AcDbLine
10
122.5
20
-13.8905
30
0
11
122.039216
21
-10.390502
31
0
39
0
210
0
220
0
230
1
0
LINE
5
B8
100
AcDbEntity
8
1
62
256
6
ByLayer
370
18
48
1
60
1
100
AcDbLine
10
122.039216
20
-10.390502
30
0
11
122.960784
21
-10.390498
31
0
39
0
210
0
220
0
230
1
0
LINE
5
B9
100
AcDbEntity
8
1
62
256
6
ByLayer
370
18
48
1
60
1
100
AcDbLine
10
122.960784
20
-10.390498
30
0
11
122.5
21
-13.8905
31
0
39
0
210
0
220
0
230
1
0
LINE
5
BA
100
AcDbEntity
8
SK2
62
256
6
ByLayer
370
13
48
1
60
0
100
AcDbLine
10
115.542957
20
-1.491762
30
0
11
122.182423
21
-19.733545
31
0
39
0
210
0
220
0
230
1
0
LINE
5
BB
100
AcDbEntity
8
SK2
62
256
6
ByLayer
370
13
48
1
60
0
100
AcDbLine
10
115.542957
20
1.491762
30
0
11
122.182423
21
19.733545
31
0
39
0
210
0
220
0
230
1
0
LINE
5
BC
100
AcDbEntity
8
1
62
256
6
ByLayer
370
18
48
1
60
1
100
AcDbLine
10
121.498383
20
-17.85416
30
0
11
124.551575
21
-16.082064
31
0
39
0
210
0
220
0
230
1
0
LINE
5
BD
100
AcDbEntity
8
1
62
256
6
ByLayer
370
18
48
1
60
1
100
AcDbLine
10
124.551575
20
-16.082064
30
0
11
124.906196
21
-16.93267
31
0
39
0
210
0
220
0
230
1
0
LINE
5
BE
100
AcDbEntity
8
1
62
256
6
ByLayer
370
18
48
1
60
1
100
AcDbLine
10
124.906196
20
-16.93267
30
0
11
121.498383
21
-17.85416
31
0
39
0
210
0
220
0
230
1
0
LINE
5
BF
100
AcDbEntity
8
1
62
256
6
ByLayer
370
18
48
1
60
1
100
AcDbLine
10
121.498383
20
17.85416
30
0
11
124.906193
21
16.932671
31
0
39
0
210
0
220
0
230
1
0
LINE
5
C0
100
AcDbEntity
8
1
62
256
6
ByLayer
370
18
48
1
60
1
100
AcDbLine
10
124.906193
20
16.932671
30
0
11
124.551579
21
16.082063
31
0
39
0
210
0
220
0
230
1
0
LINE
5
C1
100
AcDbEntity
8
1
62
256
6
ByLayer
370
18
48
1
60
1
100
AcDbLine
10
124.551579
20
16.082063
30
0
11
121.498383
21
17.85416
31
0
39
0
210
0
220
0
230
1
0
LINE
5
151
100
AcDbEntity
8
1
62
256
6
ByLayer
370
18
48
1
60
1
100
AcDbLine
10
-66.5
20
15.875
30
0
11
-66.039216
21
12.375002
31
0
39
0
210
0
220
0
230
1
0
LINE
5
152
100
AcDbEntity
8
1
62
256
6
ByLayer
370
18
48
1
60
1
100
AcDbLine
10
-66.039216
20
12.375002
30
0
11
-66.960784
21
12.374998
31
0
39
0
210
0
220
0
230
1
0
LINE
5
153
100
AcDbEntity
8
1
62
256
6
ByLayer
370
18
48
1
60
1
100
AcDbLine
10
-66.960784
20
12.374998
30
0
11
-66.5
21
15.875
31
0
39
0
210
0
220
0
230
1
0
LINE
5
155
100
AcDbEntity
8
1
62
256
6
ByLayer
370
18
48
1
60
1
100
AcDbLine
10
-66.5
20
-15.875
30
0
11
-66.960784
21
-12.375002
31
0
39
0
210
0
220
0
230
1
0
LINE
5
156
100
AcDbEntity
8
1
62
256
6
ByLayer
370
18
48
1
60
1
100
AcDbLine
10
-66.960784
20
-12.375002
30
0
11
-66.039216
21
-12.374998
31
0
39
0
210
0
220
0
230
1
0
LINE
5
157
100
AcDbEntity
8
1
62
256
6
ByLayer
370
18
48
1
60
1
100
AcDbLine
10
-66.039216
20
-12.374998
30
0
11
-66.5
21
-15.875
31
0
39
0
210
0
220
0
230
1
0
LINE
5
15B
100
AcDbEntity
8
1
62
256
6
ByLayer
370
18
48
1
60
1
100
AcDbLine
10
122.5
20
13.8905
30
0
11
122.960784
21
10.390502
31
0
39
0
210
0
220
0
230
1
0
LINE
5
15C
100
AcDbEntity
8
1
62
256
6
ByLayer
370
18
48
1
60
1
100
AcDbLine
10
122.960784
20
10.390502
30
0
11
122.039216
21
10.390498
31
0
39
0
210
0
220
0
230
1
0
LINE
5
15D
100
AcDbEntity
8
1
62
256
6
ByLayer
370
18
48
1
60
1
100
AcDbLine
10
122.039216
20
10.390498
30
0
11
122.5
21
13.8905
31
0
39
0
210
0
220
0
230
1
0
LINE
5
15F
100
AcDbEntity
8
1
62
256
6
ByLayer
370
18
48
1
60
1
100
AcDbLine
10
122.5
20
-13.8905
30
0
11
122.039216
21
-10.390502
31
0
39
0
210
0
220
0
230
1
0
LINE
5
160
100
AcDbEntity
8
1
62
256
6
ByLayer
370
18
48
1
60
1
100
AcDbLine
10
122.039216
20
-10.390502
30
0
11
122.960784
21
-10.390498
31
0
39
0
210
0
220
0
230
1
0
LINE
5
161
100
AcDbEntity
8
1
62
256
6
ByLayer
370
18
48
1
60
1
100
AcDbLine
10
122.960784
20
-10.390498
30
0
11
122.5
21
-13.8905
31
0
39
0
210
0
220
0
230
1
0
LINE
5
164
100
AcDbEntity
8
1
62
256
6
ByLayer
370
18
48
1
60
1
100
AcDbLine
10
121.498383
20
-17.85416
30
0
11
124.551575
21
-16.082064
31
0
39
0
210
0
220
0
230
1
0
LINE
5
165
100
AcDbEntity
8
1
62
256
6
ByLayer
370
18
48
1
60
1
100
AcDbLine
10
124.551575
20
-16.082064
30
0
11
124.906196
21
-16.93267
31
0
39
0
210
0
220
0
230
1
0
LINE
5
166
100
AcDbEntity
8
1
62
256
6
ByLayer
370
18
48
1
60
1
100
AcDbLine
10
124.906196
20
-16.93267
30
0
11
121.498383
21
-17.85416
31
0
39
0
210
0
220
0
230
1
0
LINE
5
168
100
AcDbEntity
8
1
62
256
6
ByLayer
370
18
48
1
60
1
100
AcDbLine
10
121.498383
20
17.85416
30
0
11
124.906193
21
16.932671
31
0
39
0
210
0
220
0
230
1
0
LINE
5
169
100
AcDbEntity
8
1
62
256
6
ByLayer
370
18
48
1
60
1
100
AcDbLine
10
124.906193
20
16.932671
30
0
11
124.551579
21
16.082063
31
0
39
0
210
0
220
0
230
1
0
LINE
5
16A
100
AcDbEntity
8
1
62
256
6
ByLayer
370
18
48
1
60
1
100
AcDbLine
10
124.551579
20
16.082063
30
0
11
121.498383
21
17.85416
31
0
39
0
210
0
220
0
230
1
0
MTEXT
5
14D
100
AcDbEntity
8
SK2
62
256
6
ByLayer
370
18
48
1
60
0
100
AcDbMText
10
-67.841114
20
27.533438
30
0
210
0
220
0
230
1
1
%%c
40
3
41
0
44
1.084337
50
90
71
7
72
5
7
iso_b_vert
0
MTEXT
5
150
100
AcDbEntity
8
SK2
62
256
6
ByLayer
370
18
48
1
60
0
100
AcDbMText
10
-67.841114
20
33.51
30
0
210
0
220
0
230
1
1
\W0.7022;31.750
40
3
41
0
44
1.084337
50
90
71
7
72
5
7
iso_b_vert
0
MTEXT
5
159
100
AcDbEntity
8
2
62
256
6
ByLayer
370
18
48
1
60
0
100
AcDbMText
10
121.158886
20
25.548938
30
0
210
0
220
0
230
1
1
%%c
40
3
41
0
44
1.084337
50
90
71
7
72
5
7
iso_b_vert
0
MTEXT
5
15A
100
AcDbEntity
8
2
62
256
6
ByLayer
370
18
48
1
60
0
100
AcDbMText
10
121.158886
20
31.5255
30
0
210
0
220
0
230
1
1
\W0.7440;27.781
40
3
41
0
44
1.084337
50
90
71
7
72
5
7
iso_b_vert
0
MTEXT
5
163
100
AcDbEntity
8
SK2
62
256
6
ByLayer
370
18
48
1
60
0
100
AcDbMText
10
134.909114
20
3.734657
30
0
210
0
220
0
230
1
1
\W0.7071;140%%d
40
3
41
0
44
1.084337
50
270
71
7
72
5
7
iso_b_vert
0
MTEXT
5
16C
100
AcDbEntity
8
SK6
62
256
6
ByLayer
370
18
48
1
60
0
100
AcDbMText
10
-1.192054
20
-67.114886
30
0
210
0
220
0
230
1
1
\W0.7611;H8531.3/32
40
3
41
0
44
1.084337
50
0
71
7
72
5
7
iso_b_vert
0
HATCH
5
154
100
AcDbEntity
8
SK2
62
256
6
ByLayer
370
13
48
1
60
0
100
AcDbHatch
10
0
20
0
30
0
210
0
220
0
230
1
2
ANSI31
70
0
71
0
91
1
92
5
93
3
72
1
10
-66.5
20
15.875
11
-66.0392162584472
21
12.3750016925532
72
1
10
-66.0392162584472
20
12.3750016925532
11
-66.9607837415528
21
12.3749983074468
72
1
10
-66.9607837415528
20
12.3749983074468
11
-66.5
21
15.875
97
0
75
0
76
1
52
0
41
0.0062
77
0
78
1
53
45
43
0
44
0
45
-0.0139193969876572
46
0.0139193969876572
79
0
47
0
98
1
10
0
20
0
0
HATCH
5
158
100
AcDbEntity
8
SK2
62
256
6
ByLayer
370
13
48
1
60
0
100
AcDbHatch
10
0
20
0
30
0
210
0
220
0
230
1
2
ANSI31
70
0
71
0
91
1
92
5
93
3
72
1
10
-66.5
20
-15.875
11
-66.9607837415528
21
-12.3750016925532
72
1
10
-66.9607837415528
20
-12.3750016925532
11
-66.0392162584472
21
-12.3749983074468
72
1
10
-66.0392162584472
20
-12.3749983074468
11
-66.5
21
-15.875
97
0
75
0
76
1
52
0
41
0.0062
77
0
78
1
53
45
43
0
44
0
45
-0.0139193969876572
46
0.0139193969876572
79
0
47
0
98
1
10
0
20
0
0
HATCH
5
15E
100
AcDbEntity
8
2
62
256
6
ByLayer
370
13
48
1
60
0
100
AcDbHatch
10
0
20
0
30
0
210
0
220
0
230
1
2
ANSI31
70
0
71
0
91
1
92
5
93
3
72
1
10
122.5
20
13.8905
11
122.960783741553
21
10.3905016925532
72
1
10
122.960783741553
20
10.3905016925532
11
122.039216258447
21
10.3904983074468
72
1
10
122.039216258447
20
10.3904983074468
11
122.5
21
13.8905
97
0
75
0
76
1
52
0
41
0.0062
77
0
78
1
53
45
43
0
44
0
45
-0.0139193969876572
46
0.0139193969876572
79
0
47
0
98
1
10
0
20
0
0
HATCH
5
162
100
AcDbEntity
8
2
62
256
6
ByLayer
370
13
48
1
60
0
100
AcDbHatch
10
0
20
0
30
0
210
0
220
0
230
1
2
ANSI31
70
0
71
0
91
1
92
5
93
3
72
1
10
122.5
20
-13.8905
11
122.039216258447
21
-10.3905016925532
72
1
10
122.039216258447
20
-10.3905016925532
11
122.960783741553
21
-10.3904983074468
72
1
10
122.960783741553
20
-10.3904983074468
11
122.5
21
-13.8905
97
0
75
0
76
1
52
0
41
0.0062
77
0
78
1
53
45
43
0
44
0
45
-0.0139193969876572
46
0.0139193969876572
79
0
47
0
98
1
10
0
20
0
0
HATCH
5
167
100
AcDbEntity
8
SK2
62
256
6
ByLayer
370
13
48
1
60
0
100
AcDbHatch
10
0
20
0
30
0
210
0
220
0
230
1
2
ANSI31
70
0
71
0
91
1
92
5
93
3
72
1
10
121.498382723188
20
-17.8541597949322
11
124.551575425693
21
-16.0820638240608
72
1
10
124.551575425693
20
-16.0820638240608
11
124.906195833975
21
-16.9326700737196
72
1
10
124.906195833975
20
-16.9326700737196
11
121.498382723188
21
-17.8541597949322
97
0
75
0
76
1
52
0
41
0.0062
77
0
78
1
53
45
43
0
44
0
45
-0.0139193969876572
46
0.0139193969876572
79
0
47
0
98
1
10
0
20
0
0
HATCH
5
16B
100
AcDbEntity
8
SK2
62
256
6
ByLayer
370
13
48
1
60
0
100
AcDbHatch
10
0
20
0
30
0
210
0
220
0
230
1
2
ANSI31
70
0
71
0
91
1
92
5
93
3
72
1
10
121.498382723188
20
17.8541597949322
11
124.906192709519
21
16.9326713763016
72
1
10
124.906192709519
20
16.9326713763016
11
124.551578550149
21
16.0820625214787
72
1
10
124.551578550149
20
16.0820625214787
11
121.498382723188
21
17.8541597949322
97
0
75
0
76
1
52
0
41
0.0062
77
0
78
1
53
45
43
0
44
0
45
-0.0139193969876572
46
0.0139193969876572
79
0
47
0
98
1
10
0
20
0
0
DIMENSION
5
16F
100
AcDbEntity
8
SK2
62
256
6
ByLayer
370
18
48
1
60
0
100
AcDbDimension
2
_U0
10
115
20
-45.952229
30
0
11
27.5
21
-45.952229
31
0
70
32
71
1
72
1
41
1
210
0
220
0
230
1
3
Standard
100
AcDbAlignedDimension
13
-60
23
-15.875
33
0
14
115
24
0
34
0
50
0
100
AcDbRotatedDimension
1001
ACAD
1000
DSTYLE
1002
{
1070
   371
1070
    13
1070
   372
1070
    13
1070
     3
1000

1070
   170
1070
     0
1070
   144
1040
1.0
1070
   277
1070
     2
1070
   284
1070
     8
1070
   278
1070
    46
1070
   146
1040
1.166667
1070
   345
1005
16
1070
   347
1005
16
1070
   346
1005
16
1070
   344
1005
0
1070
   343
1005
0
1070
   172
1070
     1
1070
    76
1070
     0
1070
    75
1070
     0
1070
   282
1070
     0
1070
   281
1070
     0
1070
    71
1070
     0
1070
    74
1070
     0
1070
   279
1070
     0
1070
   173
1070
     1
1070
   340
1005
14E
1070
   271
1070
     2
1070
   272
1070
     3
1070
    77
1070
     1
1070
    73
1070
     1
1070
   171
1070
     3
1070
   274
1070
     4
1070
   177
1070
     2
1070
   176
1070
     2
1070
   178
1070
     2
1070
    78
1070
     8
1070
    48
1040
-0.1
1070
    41
1040
3.5
1070
   147
1040
1.5
1070
    42
1040
1.5875
1070
    44
1040
2.0
1070
   140
1040
3.0
1002
}
1001
ACAD_DSTYLE_DIM_LINETYPE
1070
   380
1005
16
1001
ACAD_DSTYLE_DIM_EXT1_LINETYPE
1070
   381
1005
16
1001
ACAD_DSTYLE_DIM_EXT2_LINETYPE
1070
   382
1005
16
0
DIMENSION
5
188
100
AcDbEntity
8
SK2
62
256
6
ByLayer
370
18
48
1
60
0
100
AcDbDimension
2
_U1
10
3
20
-35.952229
30
0
11
59
21
-35.952229
31
0
70
32
71
1
72
1
41
1
210
0
220
0
230
1
3
Standard
100
AcDbAlignedDimension
13
115
23
0
33
0
14
3
24
-13.8905
34
0
50
0
100
AcDbRotatedDimension
1001
ACAD
1000
DSTYLE
1002
{
1070
   371
1070
    13
1070
   372
1070
    13
1070
     3
1000

1070
   170
1070
     0
1070
   144
1040
1.0
1070
   277
1070
     2
1070
   284
1070
     8
1070
   278
1070
    46
1070
   146
1040
1.166667
1070
   345
1005
16
1070
   347
1005
16
1070
   346
1005
16
1070
   344
1005
0
1070
   343
1005
0
1070
   172
1070
     1
1070
    76
1070
     0
1070
    75
1070
     0
1070
   282
1070
     0
1070
   281
1070
     0
1070
    71
1070
     0
1070
    74
1070
     0
1070
   279
1070
     0
1070
   173
1070
     1
1070
   340
1005
14E
1070
   271
1070
     2
1070
   272
1070
     3
1070
    77
1070
     1
1070
    73
1070
     1
1070
   171
1070
     3
1070
   274
1070
     4
1070
   177
1070
     2
1070
   176
1070
     2
1070
   178
1070
     2
1070
    78
1070
     8
1070
    48
1040
-0.1
1070
    41
1040
3.5
1070
   147
1040
1.5
1070
    42
1040
1.5875
1070
    44
1040
2.0
1070
   140
1040
3.0
1002
}
1001
ACAD_DSTYLE_DIM_LINETYPE
1070
   380
1005
16
1001
ACAD_DSTYLE_DIM_EXT1_LINETYPE
1070
   381
1005
16
1001
ACAD_DSTYLE_DIM_EXT2_LINETYPE
1070
   382
1005
16
0
DIMENSION
5
1A0
100
AcDbEntity
8
SK2
62
256
6
ByLayer
370
18
48
1
60
0
100
AcDbDimension
2
_U2
10
0
20
-35.952229
30
0
11
-30
21
-35.952229
31
0
70
32
71
1
72
1
41
1
210
0
220
0
230
1
3
Standard
100
AcDbAlignedDimension
13
-60
23
-15.875
33
0
14
0
24
-15.875
34
0
50
0
100
AcDbRotatedDimension
1001
ACAD
1000
DSTYLE
1002
{
1070
   371
1070
    13
1070
   372
1070
    13
1070
     3
1000

1070
   170
1070
     0
1070
   144
1040
1.0
1070
   277
1070
     2
1070
   284
1070
     8
1070
   278
1070
    46
1070
   146
1040
1.166667
1070
   345
1005
16
1070
   347
1005
16
1070
   346
1005
16
1070
   344
1005
0
1070
   343
1005
0
1070
   172
1070
     1
1070
    76
1070
     0
1070
    75
1070
     0
1070
   282
1070
     0
1070
   281
1070
     0
1070
    71
1070
     0
1070
    74
1070
     0
1070
   279
1070
     0
1070
   173
1070
     1
1070
   340
1005
14E
1070
   271
1070
     2
1070
   272
1070
     3
1070
    77
1070
     1
1070
    73
1070
     1
1070
   171
1070
     3
1070
   274
1070
     4
1070
   177
1070
     2
1070
   176
1070
     2
1070
   178
1070
     2
1070
    78
1070
     8
1070
    48
1040
-0.1
1070
    41
1040
3.5
1070
   147
1040
1.5
1070
    42
1040
1.5875
1070
    44
1040
2.0
1070
   140
1040
3.0
1002
}
1001
ACAD_DSTYLE_DIM_LINETYPE
1070
   380
1005
16
1001
ACAD_DSTYLE_DIM_EXT1_LINETYPE
1070
   381
1005
16
1001
ACAD_DSTYLE_DIM_EXT2_LINETYPE
1070
   382
1005
16
0
DIMENSION
5
1B8
100
AcDbEntity
8
SK2
62
256
6
ByLayer
370
18
48
1
60
0
100
AcDbDimension
2
_U3
10
21
20
32.952229
30
0
11
68
21
32.952229
31
0
70
32
71
1
72
1
41
1
210
0
220
0
230
1
3
Standard
100
AcDbAlignedDimension
13
115
23
0
33
0
14
21
24
13.8905
34
0
50
0
100
AcDbRotatedDimension
1001
ACAD
1000
DSTYLE
1002
{
1070
   371
1070
    13
1070
   372
1070
    13
1070
     3
1000

1070
   170
1070
     0
1070
   144
1040
1.0
1070
   277
1070
     2
1070
   284
1070
     8
1070
   278
1070
    46
1070
   146
1040
1.166667
1070
   345
1005
16
1070
   347
1005
16
1070
   346
1005
16
1070
   344
1005
0
1070
   343
1005
0
1070
   172
1070
     1
1070
    76
1070
     0
1070
    75
1070
     0
1070
   282
1070
     0
1070
   281
1070
     0
1070
    71
1070
     0
1070
    74
1070
     0
1070
   279
1070
     0
1070
   173
1070
     1
1070
   340
1005
14E
1070
   271
1070
     2
1070
   272
1070
     3
1070
    77
1070
     1
1070
    73
1070
     1
1070
   171
1070
     3
1070
   274
1070
     4
1070
   177
1070
     2
1070
   176
1070
     2
1070
   178
1070
     2
1070
    78
1070
     8
1070
    48
1040
-0.1
1070
    41
1040
3.5
1070
   147
1040
1.5
1070
    42
1040
1.5875
1070
    44
1040
2.0
1070
   140
1040
3.0
1002
}
1001
ACAD_DSTYLE_DIM_LINETYPE
1070
   380
1005
16
1001
ACAD_DSTYLE_DIM_EXT1_LINETYPE
1070
   381
1005
16
1001
ACAD_DSTYLE_DIM_EXT2_LINETYPE
1070
   382
1005
16
0
ENDSEC
0
SECTION
2
OBJECTS
0
DICTIONARY
5
240
330
0
100
AcDbDictionary
280
0
281
1
3
ACAD_GROUP
350
241
3
ACAD_MLINESTYLE
350
242
0
DICTIONARY
5
241
330
0
100
AcDbDictionary
280
0
281
1
0
DICTIONARY
5
242
330
0
100
AcDbDictionary
280
0
281
1
3
Standard
350
18
0
MLINESTYLE
5
18
330
242
100
AcDbMlineStyle
2
Standard
70
0
3

62
256
51
90
52
90
71
2
49
-0.5
62
256
6
ByLayer
49
0.5
62
256
6
ByLayer
0
RASTERVARIABLES
5
22e
330

100
AcDbRasterVariables
90
0
70
1
71
1
72
1
0
ENDSEC
0
EOF
