0
SECTION
2
HEADER
9
$ACADVER
1
AC1015
9
$DWGCODEPAGE
3
ANSI_1252
9
$HANDSEED
5
241
9
$ANGBASE
50
0
9
$ANGDIR
70
0
9
$ATTMODE
70
1
9
$AUNITS
70
0
9
$AUPREC
70
0
9
$CECOLOR
62
256
9
$CELTSCALE
40
1
9
$CELTYPE
6
ByLayer
9
$CELWEIGHT
370
18
9
$CLAYER
8
0
9
$CMLJUST
70
0
9
$CMLSCALE
40
1
9
$CMLSTYLE
2
Standard
9
$DIMSTYLE
2
Standard
9
$TEXTSIZE
40
0.2
9
$TEXTSTYLE
7
Standard
9
$LUNITS
70
2
9
$LUPREC
70
4
9
$EXTNAMES
290
1
9
$INSUNITS
70
4
9
$LTSCALE
40
1
9
$LWDISPLAY
290
1
9
$PDMODE
70
0
9
$PDSIZE
40
0
9
$PLINEGEN
70
0
0
ENDSEC
0
SECTION
2
CLASSES
0
CLASS
1
RASTERVARIABLES
2
AcDbRasterVariables
3
ISM
90
0
280
0
281
0
0
ENDSEC
0
SECTION
2
TABLES
0
TABLE
2
VPORT
5
237
100
AcDbSymbolTable
0
VPORT
5
1
100
AcDbSymbolTableRecord
100
AcDbViewportTableRecord
2
*Active
70
0
10
0
20
0
11
1
21
1
12
-1
22
1
13
0
23
0
14
0.5
24
0.5
15
10
25
10
16
0
26
0
36
1
17
0
27
0
37
0
0
ENDTAB
0
TABLE
2
LTYPE
5
238
100
AcDbSymbolTable
0
LTYPE
5
14
100
AcDbSymbolTableRecord
100
AcDbLinetypeTableRecord
70
0
2
ByBlock
3

72
65
73
0
40
0
0
LTYPE
5
15
100
AcDbSymbolTableRecord
100
AcDbLinetypeTableRecord
70
0
2
ByLayer
3

72
65
73
0
40
0
0
LTYPE
5
16
100
AcDbSymbolTableRecord
100
AcDbLinetypeTableRecord
70
0
2
Continuous
3
Solid line
72
65
73
0
40
0
0
LTYPE
5
6E
100
AcDbSymbolTableRecord
100
AcDbLinetypeTableRecord
70
0
2
CENTER
3
____ _ ____ _ ____ _ ____
72
65
73
4
40
47.5
49
22
74
0
49
-8.5
74
0
49
8.5
74
0
49
-8.5
74
0
0
LTYPE
5
6F
100
AcDbSymbolTableRecord
100
AcDbLinetypeTableRecord
70
0
2
DASHED
3
__ __ __ __ __ __ __ __ __
72
65
73
2
40
25.72
49
12.86
74
0
49
-12.86
74
0
0
ENDTAB
0
TABLE
2
LAYER
5
239
100
AcDbSymbolTable
0
LAYER
5
10
100
AcDbSymbolTableRecord
100
AcDbLayerTableRecord
2
0
70
0
62
7
6
Continuous
290
1
370
-3
390
0
0
LAYER
5
71
100
AcDbSymbolTableRecord
100
AcDbLayerTableRecord
2
81
70
0
62
-3
6
Continuous
290
1
370
-3
390
0
0
LAYER
5
73
100
AcDbSymbolTableRecord
100
AcDbLayerTableRecord
2
80
70
0
62
-6
6
Continuous
290
1
370
-3
390
0
0
LAYER
5
75
100
AcDbSymbolTableRecord
100
AcDbLayerTableRecord
2
1
70
0
62
4
6
Continuous
290
1
370
-3
390
0
0
LAYER
5
7F
100
AcDbSymbolTableRecord
100
AcDbLayerTableRecord
2
4
70
0
62
-2
6
CENTER
290
1
370
-3
390
0
0
LAYER
5
B1
100
AcDbSymbolTableRecord
100
AcDbLayerTableRecord
2
2
70
0
62
7
6
Continuous
290
1
370
-3
390
0
0
LAYER
5
166
100
AcDbSymbolTableRecord
100
AcDbLayerTableRecord
2
Defpoints
70
0
62
7
6
Continuous
290
0
370
-3
390
0
0
LAYER
5
223
100
AcDbSymbolTableRecord
100
AcDbLayerTableRecord
2
SK4
70
0
62
2
6
CENTER
290
1
370
-3
390
0
0
LAYER
5
224
100
AcDbSymbolTableRecord
100
AcDbLayerTableRecord
2
SK1
70
0
62
4
6
Continuous
290
1
370
-3
390
0
0
LAYER
5
225
100
AcDbSymbolTableRecord
100
AcDbLayerTableRecord
2
SK2
70
0
62
7
6
Continuous
290
1
370
-3
390
0
0
LAYER
5
226
100
AcDbSymbolTableRecord
100
AcDbLayerTableRecord
2
SK6
70
0
62
5
6
Continuous
290
1
370
-3
390
0
0
ENDTAB
0
TABLE
2
STYLE
5
23a
100
AcDbSymbolTable
0
STYLE
5
11
100
AcDbSymbolTableRecord
100
AcDbTextStyleTableRecord
2
Standard
3
txt
70
0
71
0
40
0
41
1
42
0
50
0
0
STYLE
5
142
100
AcDbSymbolTableRecord
100
AcDbTextStyleTableRecord
2
iso_b_vert
3
simplex.shx
70
0
71
0
40
0
41
1
42
0
50
0
0
STYLE
5
143
100
AcDbSymbolTableRecord
100
AcDbTextStyleTableRecord
2
DWGDirectTextStyle
3
simplex
70
0
71
0
40
0
41
1
42
0
50
0
0
ENDTAB
0
TABLE
2
DIMSTYLE
5
23b
100
AcDbSymbolTable
100
AcDbDimStyleTable
0
DIMSTYLE
105
27
100
AcDbSymbolTableRecord
100
AcDbDimStyleTableRecord
2
Standard
70
0
3
<>
41
0.18
42
0.0625
44
0.18
140
0.18
147
0.09
73
0
74
0
77
1
271
2
275
0
278
52
280
0
340
11
0
ENDTAB
0
TABLE
2
VIEW
5
23c
100
AcDbSymbolTable
0
ENDTAB
0
TABLE
2
UCS
5
23d
100
AcDbSymbolTable
0
ENDTAB
0
TABLE
2
APPID
5
23e
100
AcDbSymbolTable
0
APPID
5
12
100
AcDbSymbolTableRecord
100
AcDbRegAppTableRecord
2
ACAD
70
0
0
APPID
5
162
100
AcDbSymbolTableRecord
100
AcDbRegAppTableRecord
2
ACAD_DSTYLE_DIMBREAK
70
0
0
APPID
5
1E2
100
AcDbSymbolTableRecord
100
AcDbRegAppTableRecord
2
ACAD_DSTYLE_DIM_LINETYPE
70
0
0
APPID
5
1E3
100
AcDbSymbolTableRecord
100
AcDbRegAppTableRecord
2
ACAD_DSTYLE_DIM_EXT1_LINETYPE
70
0
0
APPID
5
1E4
100
AcDbSymbolTableRecord
100
AcDbRegAppTableRecord
2
ACAD_DSTYLE_DIM_EXT2_LINETYPE
70
0
0
APPID
5
21F
100
AcDbSymbolTableRecord
100
AcDbRegAppTableRecord
2
ACAD_MLEADERVER
70
0
0
ENDTAB
0
TABLE
2
BLOCK_RECORD
5
23f
100
AcDbSymbolTable
0
BLOCK_RECORD
5
1F
100
AcDbSymbolTableRecord
100
AcDbBlockTableRecord
2
*Model_Space
340
0
70
0
0
BLOCK_RECORD
5
1B
100
AcDbSymbolTableRecord
100
AcDbBlockTableRecord
2
*Paper_Space
340
0
70
0
0
BLOCK_RECORD
5
23
100
AcDbSymbolTableRecord
100
AcDbBlockTableRecord
2
*Paper_Space0
340
0
70
0
0
BLOCK_RECORD
5
167
100
AcDbSymbolTableRecord
100
AcDbBlockTableRecord
2
*D1
340
0
70
0
0
BLOCK_RECORD
5
173
100
AcDbSymbolTableRecord
100
AcDbBlockTableRecord
2
_U0
340
0
70
0
0
BLOCK_RECORD
5
17F
100
AcDbSymbolTableRecord
100
AcDbBlockTableRecord
2
*D3
340
0
70
0
0
BLOCK_RECORD
5
18B
100
AcDbSymbolTableRecord
100
AcDbBlockTableRecord
2
_U1
340
0
70
0
0
BLOCK_RECORD
5
197
100
AcDbSymbolTableRecord
100
AcDbBlockTableRecord
2
*D5
340
0
70
0
0
BLOCK_RECORD
5
1A3
100
AcDbSymbolTableRecord
100
AcDbBlockTableRecord
2
_U2
340
0
70
0
0
BLOCK_RECORD
5
1AF
100
AcDbSymbolTableRecord
100
AcDbBlockTableRecord
2
*D7
340
0
70
0
0
BLOCK_RECORD
5
1BB
100
AcDbSymbolTableRecord
100
AcDbBlockTableRecord
2
_U3
340
0
70
0
0
ENDTAB
0
ENDSEC
0
SECTION
2
BLOCKS
0
BLOCK
5
20
100
AcDbEntity
8
0
100
AcDbBlockBegin
2
*Model_Space
70
0
10
0
20
0
30
0
3
*Model_Space
0
ENDBLK
5
21
100
AcDbEntity
8
0
100
AcDbBlockEnd
0
BLOCK
5
1C
100
AcDbEntity
8
0
100
AcDbBlockBegin
2
*Paper_Space
70
0
10
0
20
0
30
0
3
*Paper_Space
0
ENDBLK
5
1D
100
AcDbEntity
8
0
100
AcDbBlockEnd
0
BLOCK
5
24
100
AcDbEntity
8
0
100
AcDbBlockBegin
2
*Paper_Space0
70
0
10
0
20
0
30
0
3
*Paper_Space0
0
ENDBLK
5
25
100
AcDbEntity
8
0
100
AcDbBlockEnd
0
BLOCK
5
168
100
AcDbEntity
8
0
100
AcDbBlockBegin
2
*D1
70
1
10
0
20
0
30
0
3
*D1
0
LINE
5
16A
100
AcDbEntity
8
0
62
256
6
ByLayer
370
-2
48
1
60
0
100
AcDbLine
10
-60
20
-17.4625
30
0
11
-60
21
-47.952229
31
0
39
0
210
0
220
0
230
1
0
LINE
5
16B
100
AcDbEntity
8
0
62
256
6
ByLayer
370
-2
48
1
60
0
100
AcDbLine
10
110
20
-1.5875
30
0
11
110
21
-47.952229
31
0
39
0
210
0
220
0
230
1
0
LINE
5
16C
100
AcDbEntity
8
0
62
256
6
ByLayer
370
-2
48
1
60
0
100
AcDbLine
10
-56.5
20
-45.952229
30
0
11
106.5
21
-45.952229
31
0
39
0
210
0
220
0
230
1
0
SOLID
5
16D
100
AcDbEntity
8
0
62
256
6
ByLayer
370
-1
48
1
60
0
100
AcDbTrace
10
-56.5
20
-45.368896
30
0
11
-56.5
21
-46.535563
31
0
12
-60
22
-45.952229
32
0
13
-60
23
-45.952229
33
0
39
0
210
0
220
0
230
1
0
SOLID
5
16E
100
AcDbEntity
8
0
62
256
6
ByLayer
370
-1
48
1
60
0
100
AcDbTrace
10
106.5
20
-46.535563
30
0
11
106.5
21
-45.368896
31
0
12
110
22
-45.952229
32
0
13
110
23
-45.952229
33
0
39
0
210
0
220
0
230
1
0
MTEXT
5
16F
100
AcDbEntity
8
0
62
256
6
ByLayer
370
18
48
1
60
0
100
AcDbMText
10
25
20
-39.952229
30
0
210
0
220
0
230
1
1
\A1;170
40
3
41
0
44
1
50
0
71
5
72
5
7
iso_b_vert
0
POINT
5
170
100
AcDbEntity
8
Defpoints
62
0
6
ByLayer
370
-1
48
1
60
0
100
AcDbPoint
10
-60
20
-15.875
30
0
39
0
210
0
220
0
230
1
50
360
0
POINT
5
171
100
AcDbEntity
8
Defpoints
62
0
6
ByLayer
370
-1
48
1
60
0
100
AcDbPoint
10
110
20
0
30
0
39
0
210
0
220
0
230
1
50
360
0
POINT
5
172
100
AcDbEntity
8
Defpoints
62
0
6
ByLayer
370
-1
48
1
60
0
100
AcDbPoint
10
110
20
-45.952229
30
0
39
0
210
0
220
0
230
1
50
360
0
ENDBLK
5
169
100
AcDbEntity
8
0
100
AcDbBlockEnd
0
BLOCK
5
17A
100
AcDbEntity
8
0
100
AcDbBlockBegin
2
_U0
70
0
10
0
20
0
30
0
3
_U0
0
MTEXT
5
174
100
AcDbEntity
8
SK2
62
256
6
ByLayer
370
18
48
1
60
0
100
AcDbMText
10
19.771658
20
-45.067115
30
0
210
0
220
0
230
1
1
\W0.7022;170.00
40
3
41
0
44
1.084337
50
0
71
7
72
5
7
iso_b_vert
0
LINE
5
175
100
AcDbEntity
8
SK2
62
256
6
ByLayer
370
13
48
1
60
0
100
AcDbLine
10
-60
20
-17.4625
30
0
11
-60
21
-47.952229
31
0
39
0
210
0
220
0
230
1
0
LINE
5
176
100
AcDbEntity
8
SK2
62
256
6
ByLayer
370
13
48
1
60
0
100
AcDbLine
10
110
20
-1.5875
30
0
11
110
21
-47.952229
31
0
39
0
210
0
220
0
230
1
0
LINE
5
177
100
AcDbEntity
8
SK2
62
256
6
ByLayer
370
13
48
1
60
0
100
AcDbLine
10
-60
20
-45.952229
30
0
11
110
21
-45.952229
31
0
39
0
210
0
220
0
230
1
0
SOLID
5
178
100
AcDbEntity
8
SK2
62
256
6
ByLayer
370
18
48
1
60
0
100
AcDbTrace
10
-60
20
-45.952229
30
0
11
-56.500002
21
-45.491446
31
0
12
-56.499998
22
-46.413013
32
0
13
-56.499998
23
-46.413013
33
0
39
0
210
0
220
0
230
1
0
SOLID
5
179
100
AcDbEntity
8
SK2
62
256
6
ByLayer
370
18
48
1
60
0
100
AcDbTrace
10
110
20
-45.952229
30
0
11
106.500002
21
-46.413013
31
0
12
106.499998
22
-45.491446
32
0
13
106.499998
23
-45.491446
33
0
39
0
210
0
220
0
230
1
0
ENDBLK
5
17B
100
AcDbEntity
8
0
100
AcDbBlockEnd
0
BLOCK
5
180
100
AcDbEntity
8
0
100
AcDbBlockBegin
2
*D3
70
1
10
0
20
0
30
0
3
*D3
0
LINE
5
182
100
AcDbEntity
8
0
62
256
6
ByLayer
370
-2
48
1
60
0
100
AcDbLine
10
110
20
-1.5875
30
0
11
110
21
-37.952229
31
0
39
0
210
0
220
0
230
1
0
LINE
5
183
100
AcDbEntity
8
0
62
256
6
ByLayer
370
-2
48
1
60
0
100
AcDbLine
10
3
20
-14.486
30
0
11
3
21
-37.952229
31
0
39
0
210
0
220
0
230
1
0
LINE
5
184
100
AcDbEntity
8
0
62
256
6
ByLayer
370
-2
48
1
60
0
100
AcDbLine
10
106.5
20
-35.952229
30
0
11
6.5
21
-35.952229
31
0
39
0
210
0
220
0
230
1
0
SOLID
5
185
100
AcDbEntity
8
0
62
256
6
ByLayer
370
-1
48
1
60
0
100
AcDbTrace
10
106.5
20
-36.535563
30
0
11
106.5
21
-35.368896
31
0
12
110
22
-35.952229
32
0
13
110
23
-35.952229
33
0
39
0
210
0
220
0
230
1
0
SOLID
5
186
100
AcDbEntity
8
0
62
256
6
ByLayer
370
-1
48
1
60
0
100
AcDbTrace
10
6.5
20
-35.368896
30
0
11
6.5
21
-36.535563
31
0
12
3
22
-35.952229
32
0
13
3
23
-35.952229
33
0
39
0
210
0
220
0
230
1
0
MTEXT
5
187
100
AcDbEntity
8
0
62
256
6
ByLayer
370
18
48
1
60
0
100
AcDbMText
10
56.5
20
-29.952229
30
0
210
0
220
0
230
1
1
\A1;107
40
3
41
0
44
1
50
0
71
5
72
5
7
iso_b_vert
0
POINT
5
188
100
AcDbEntity
8
Defpoints
62
0
6
ByLayer
370
-1
48
1
60
0
100
AcDbPoint
10
110
20
0
30
0
39
0
210
0
220
0
230
1
50
360
0
POINT
5
189
100
AcDbEntity
8
Defpoints
62
0
6
ByLayer
370
-1
48
1
60
0
100
AcDbPoint
10
3
20
-12.8985
30
0
39
0
210
0
220
0
230
1
50
360
0
POINT
5
18A
100
AcDbEntity
8
Defpoints
62
0
6
ByLayer
370
-1
48
1
60
0
100
AcDbPoint
10
3
20
-35.952229
30
0
39
0
210
0
220
0
230
1
50
360
0
ENDBLK
5
181
100
AcDbEntity
8
0
100
AcDbBlockEnd
0
BLOCK
5
192
100
AcDbEntity
8
0
100
AcDbBlockBegin
2
_U1
70
0
10
0
20
0
30
0
3
_U1
0
MTEXT
5
18C
100
AcDbEntity
8
SK2
62
256
6
ByLayer
370
18
48
1
60
0
100
AcDbMText
10
51.271658
20
-35.067115
30
0
210
0
220
0
230
1
1
\W0.7022;107.00
40
3
41
0
44
1.084337
50
0
71
7
72
5
7
iso_b_vert
0
LINE
5
18D
100
AcDbEntity
8
SK2
62
256
6
ByLayer
370
13
48
1
60
0
100
AcDbLine
10
110
20
-1.5875
30
0
11
110
21
-37.952229
31
0
39
0
210
0
220
0
230
1
0
LINE
5
18E
100
AcDbEntity
8
SK2
62
256
6
ByLayer
370
13
48
1
60
0
100
AcDbLine
10
3
20
-14.486
30
0
11
3
21
-37.952229
31
0
39
0
210
0
220
0
230
1
0
LINE
5
18F
100
AcDbEntity
8
SK2
62
256
6
ByLayer
370
13
48
1
60
0
100
AcDbLine
10
110
20
-35.952229
30
0
11
3
21
-35.952229
31
0
39
0
210
0
220
0
230
1
0
SOLID
5
190
100
AcDbEntity
8
SK2
62
256
6
ByLayer
370
18
48
1
60
0
100
AcDbTrace
10
110
20
-35.952229
30
0
11
106.500002
21
-36.413013
31
0
12
106.499998
22
-35.491446
32
0
13
106.499998
23
-35.491446
33
0
39
0
210
0
220
0
230
1
0
SOLID
5
191
100
AcDbEntity
8
SK2
62
256
6
ByLayer
370
18
48
1
60
0
100
AcDbTrace
10
3
20
-35.952229
30
0
11
6.499998
21
-35.491446
31
0
12
6.500002
22
-36.413013
32
0
13
6.500002
23
-36.413013
33
0
39
0
210
0
220
0
230
1
0
ENDBLK
5
193
100
AcDbEntity
8
0
100
AcDbBlockEnd
0
BLOCK
5
198
100
AcDbEntity
8
0
100
AcDbBlockBegin
2
*D5
70
1
10
0
20
0
30
0
3
*D5
0
LINE
5
19A
100
AcDbEntity
8
0
62
256
6
ByLayer
370
-2
48
1
60
0
100
AcDbLine
10
-60
20
-17.4625
30
0
11
-60
21
-37.952229
31
0
39
0
210
0
220
0
230
1
0
LINE
5
19B
100
AcDbEntity
8
0
62
256
6
ByLayer
370
-2
48
1
60
0
100
AcDbLine
10
0
20
-17.4625
30
0
11
0
21
-37.952229
31
0
39
0
210
0
220
0
230
1
0
LINE
5
19C
100
AcDbEntity
8
0
62
256
6
ByLayer
370
-2
48
1
60
0
100
AcDbLine
10
-56.5
20
-35.952229
30
0
11
-3.5
21
-35.952229
31
0
39
0
210
0
220
0
230
1
0
SOLID
5
19D
100
AcDbEntity
8
0
62
256
6
ByLayer
370
-1
48
1
60
0
100
AcDbTrace
10
-56.5
20
-35.368896
30
0
11
-56.5
21
-36.535563
31
0
12
-60
22
-35.952229
32
0
13
-60
23
-35.952229
33
0
39
0
210
0
220
0
230
1
0
SOLID
5
19E
100
AcDbEntity
8
0
62
256
6
ByLayer
370
-1
48
1
60
0
100
AcDbTrace
10
-3.5
20
-36.535563
30
0
11
-3.5
21
-35.368896
31
0
12
0
22
-35.952229
32
0
13
0
23
-35.952229
33
0
39
0
210
0
220
0
230
1
0
MTEXT
5
19F
100
AcDbEntity
8
0
62
256
6
ByLayer
370
18
48
1
60
0
100
AcDbMText
10
-30
20
-29.952229
30
0
210
0
220
0
230
1
1
\A1;60
40
3
41
0
44
1
50
0
71
5
72
5
7
iso_b_vert
0
POINT
5
1A0
100
AcDbEntity
8
Defpoints
62
0
6
ByLayer
370
-1
48
1
60
0
100
AcDbPoint
10
-60
20
-15.875
30
0
39
0
210
0
220
0
230
1
50
360
0
POINT
5
1A1
100
AcDbEntity
8
Defpoints
62
0
6
ByLayer
370
-1
48
1
60
0
100
AcDbPoint
10
0
20
-15.875
30
0
39
0
210
0
220
0
230
1
50
360
0
POINT
5
1A2
100
AcDbEntity
8
Defpoints
62
0
6
ByLayer
370
-1
48
1
60
0
100
AcDbPoint
10
0
20
-35.952229
30
0
39
0
210
0
220
0
230
1
50
360
0
ENDBLK
5
199
100
AcDbEntity
8
0
100
AcDbBlockEnd
0
BLOCK
5
1AA
100
AcDbEntity
8
0
100
AcDbBlockBegin
2
_U2
70
0
10
0
20
0
30
0
3
_U2
0
MTEXT
5
1A4
100
AcDbEntity
8
SK2
62
256
6
ByLayer
370
18
48
1
60
0
100
AcDbMText
10
-34.48237
20
-35.067115
30
0
210
0
220
0
230
1
1
\W0.7468;60.00
40
3
41
0
44
1.084337
50
0
71
7
72
5
7
iso_b_vert
0
LINE
5
1A5
100
AcDbEntity
8
SK2
62
256
6
ByLayer
370
13
48
1
60
0
100
AcDbLine
10
-60
20
-17.4625
30
0
11
-60
21
-37.952229
31
0
39
0
210
0
220
0
230
1
0
LINE
5
1A6
100
AcDbEntity
8
SK2
62
256
6
ByLayer
370
13
48
1
60
0
100
AcDbLine
10
0
20
-17.4625
30
0
11
0
21
-37.952229
31
0
39
0
210
0
220
0
230
1
0
LINE
5
1A7
100
AcDbEntity
8
SK2
62
256
6
ByLayer
370
13
48
1
60
0
100
AcDbLine
10
-60
20
-35.952229
30
0
11
0
21
-35.952229
31
0
39
0
210
0
220
0
230
1
0
SOLID
5
1A8
100
AcDbEntity
8
SK2
62
256
6
ByLayer
370
18
48
1
60
0
100
AcDbTrace
10
-60
20
-35.952229
30
0
11
-56.500002
21
-35.491446
31
0
12
-56.499998
22
-36.413013
32
0
13
-56.499998
23
-36.413013
33
0
39
0
210
0
220
0
230
1
0
SOLID
5
1A9
100
AcDbEntity
8
SK2
62
256
6
ByLayer
370
18
48
1
60
0
100
AcDbTrace
10
0
20
-35.952229
30
0
11
-3.499998
21
-36.413013
31
0
12
-3.500002
22
-35.491446
32
0
13
-3.500002
23
-35.491446
33
0
39
0
210
0
220
0
230
1
0
ENDBLK
5
1AB
100
AcDbEntity
8
0
100
AcDbBlockEnd
0
BLOCK
5
1B0
100
AcDbEntity
8
0
100
AcDbBlockBegin
2
*D7
70
1
10
0
20
0
30
0
3
*D7
0
LINE
5
1B2
100
AcDbEntity
8
0
62
256
6
ByLayer
370
-2
48
1
60
0
100
AcDbLine
10
110
20
1.5875
30
0
11
110
21
34.952229
31
0
39
0
210
0
220
0
230
1
0
LINE
5
1B3
100
AcDbEntity
8
0
62
256
6
ByLayer
370
-2
48
1
60
0
100
AcDbLine
10
22
20
14.486
30
0
11
22
21
34.952229
31
0
39
0
210
0
220
0
230
1
0
LINE
5
1B4
100
AcDbEntity
8
0
62
256
6
ByLayer
370
-2
48
1
60
0
100
AcDbLine
10
106.5
20
32.952229
30
0
11
25.5
21
32.952229
31
0
39
0
210
0
220
0
230
1
0
SOLID
5
1B5
100
AcDbEntity
8
0
62
256
6
ByLayer
370
-1
48
1
60
0
100
AcDbTrace
10
106.5
20
32.368896
30
0
11
106.5
21
33.535563
31
0
12
110
22
32.952229
32
0
13
110
23
32.952229
33
0
39
0
210
0
220
0
230
1
0
SOLID
5
1B6
100
AcDbEntity
8
0
62
256
6
ByLayer
370
-1
48
1
60
0
100
AcDbTrace
10
25.5
20
33.535563
30
0
11
25.5
21
32.368896
31
0
12
22
22
32.952229
32
0
13
22
23
32.952229
33
0
39
0
210
0
220
0
230
1
0
MTEXT
5
1B7
100
AcDbEntity
8
0
62
256
6
ByLayer
370
18
48
1
60
0
100
AcDbMText
10
66
20
38.952229
30
0
210
0
220
0
230
1
1
\A1;88
40
3
41
0
44
1
50
0
71
5
72
5
7
iso_b_vert
0
POINT
5
1B8
100
AcDbEntity
8
Defpoints
62
0
6
ByLayer
370
-1
48
1
60
0
100
AcDbPoint
10
110
20
0
30
0
39
0
210
0
220
0
230
1
50
360
0
POINT
5
1B9
100
AcDbEntity
8
Defpoints
62
0
6
ByLayer
370
-1
48
1
60
0
100
AcDbPoint
10
22
20
12.8985
30
0
39
0
210
0
220
0
230
1
50
360
0
POINT
5
1BA
100
AcDbEntity
8
Defpoints
62
0
6
ByLayer
370
-1
48
1
60
0
100
AcDbPoint
10
22
20
32.952229
30
0
39
0
210
0
220
0
230
1
50
360
0
ENDBLK
5
1B1
100
AcDbEntity
8
0
100
AcDbBlockEnd
0
BLOCK
5
1C2
100
AcDbEntity
8
0
100
AcDbBlockBegin
2
_U3
70
0
10
0
20
0
30
0
3
_U3
0
MTEXT
5
1BC
100
AcDbEntity
8
SK2
62
256
6
ByLayer
370
18
48
1
60
0
100
AcDbMText
10
61.51763
20
33.837344
30
0
210
0
220
0
230
1
1
\W0.7468;88.00
40
3
41
0
44
1.084337
50
0
71
7
72
5
7
iso_b_vert
0
LINE
5
1BD
100
AcDbEntity
8
SK2
62
256
6
ByLayer
370
13
48
1
60
0
100
AcDbLine
10
110
20
1.5875
30
0
11
110
21
34.952229
31
0
39
0
210
0
220
0
230
1
0
LINE
5
1BE
100
AcDbEntity
8
SK2
62
256
6
ByLayer
370
13
48
1
60
0
100
AcDbLine
10
22
20
14.486
30
0
11
22
21
34.952229
31
0
39
0
210
0
220
0
230
1
0
LINE
5
1BF
100
AcDbEntity
8
SK2
62
256
6
ByLayer
370
13
48
1
60
0
100
AcDbLine
10
110
20
32.952229
30
0
11
22
21
32.952229
31
0
39
0
210
0
220
0
230
1
0
SOLID
5
1C0
100
AcDbEntity
8
SK2
62
256
6
ByLayer
370
18
48
1
60
0
100
AcDbTrace
10
110
20
32.952229
30
0
11
106.500002
21
32.491446
31
0
12
106.499998
22
33.413013
32
0
13
106.499998
23
33.413013
33
0
39
0
210
0
220
0
230
1
0
SOLID
5
1C1
100
AcDbEntity
8
SK2
62
256
6
ByLayer
370
18
48
1
60
0
100
AcDbTrace
10
22
20
32.952229
30
0
11
25.499998
21
33.413013
31
0
12
25.500002
22
32.491446
32
0
13
25.500002
23
32.491446
33
0
39
0
210
0
220
0
230
1
0
ENDBLK
5
1C3
100
AcDbEntity
8
0
100
AcDbBlockEnd
0
ENDSEC
0
SECTION
2
ENTITIES
0
ARC
5
C2
100
AcDbEntity
8
SK2
62
256
6
ByLayer
370
13
48
1
60
0
100
AcDbCircle
39
0
10
110
20
0
30
0
40
19
210
0
220
0
230
1
100
AcDbArc
50
290
51
70
0
ELLIPSE
5
C3
100
AcDbEntity
8
SK1
62
256
6
ByLayer
370
18
48
1
60
0
100
AcDbEllipse
10
-38.196323
20
0
30
0
11
-2.91609388003954E-15
21
-15.875
31
0
210
0
220
0
230
1
40
0.932515
41
-2.04476529460845
42
-1.09682735898134
0
ELLIPSE
5
C4
100
AcDbEntity
8
SK1
62
256
6
ByLayer
370
18
48
1
60
0
100
AcDbEllipse
10
-24.023853
20
0
30
0
11
17.0238532716365
21
-1.92897228726061E-14
31
0
210
0
220
0
230
1
40
0.932515
41
-0.473968967813626
42
0.473968967813628
0
POINT
5
70
100
AcDbEntity
8
81
62
256
6
ByLayer
370
18
48
1
60
0
100
AcDbPoint
10
110
20
0
30
0
39
0
210
0
220
0
230
1
50
360
0
POINT
5
72
100
AcDbEntity
8
80
62
256
6
ByLayer
370
18
48
1
60
0
100
AcDbPoint
10
0
20
0
30
0
39
0
210
0
220
0
230
1
50
360
0
POINT
5
74
100
AcDbEntity
8
1
62
256
6
ByLayer
370
18
48
1
60
1
100
AcDbPoint
10
-60
20
-15.875
30
0
39
0
210
0
220
0
230
1
50
360
0
POINT
5
76
100
AcDbEntity
8
1
62
256
6
ByLayer
370
18
48
1
60
1
100
AcDbPoint
10
110
20
0
30
0
39
0
210
0
220
0
230
1
50
360
0
POINT
5
77
100
AcDbEntity
8
1
62
256
6
ByLayer
370
18
48
1
60
1
100
AcDbPoint
10
110
20
0
30
0
39
0
210
0
220
0
230
1
50
360
0
POINT
5
78
100
AcDbEntity
8
1
62
256
6
ByLayer
370
18
48
1
60
1
100
AcDbPoint
10
3
20
-12.8985
30
0
39
0
210
0
220
0
230
1
50
360
0
POINT
5
79
100
AcDbEntity
8
1
62
256
6
ByLayer
370
18
48
1
60
1
100
AcDbPoint
10
-60
20
-15.875
30
0
39
0
210
0
220
0
230
1
50
360
0
POINT
5
7A
100
AcDbEntity
8
1
62
256
6
ByLayer
370
18
48
1
60
1
100
AcDbPoint
10
0
20
-15.875
30
0
39
0
210
0
220
0
230
1
50
360
0
POINT
5
7B
100
AcDbEntity
8
1
62
256
6
ByLayer
370
18
48
1
60
1
100
AcDbPoint
10
110
20
0
30
0
39
0
210
0
220
0
230
1
50
360
0
POINT
5
7C
100
AcDbEntity
8
1
62
256
6
ByLayer
370
18
48
1
60
1
100
AcDbPoint
10
22
20
12.8985
30
0
39
0
210
0
220
0
230
1
50
360
0
SPLINE
5
C5
100
AcDbEntity
8
1
62
256
6
ByLayer
370
18
48
1
60
0
100
AcDbSpline
70
4
71
3
72
22
73
18
40
0
40
0
40
0
40
0
40
0.0624999999999971
40
0.0624999999999971
40
0.124999999999994
40
0.124999999999994
40
0.249999999999995
40
0.249999999999995
40
0.49999999999999
40
0.49999999999999
40
0.624999999999988
40
0.624999999999988
40
0.68749999999999
40
0.68749999999999
40
0.749999999999992
40
0.749999999999992
40
1
40
1
40
1
40
1
41
1
10
105.305329933318
20
-1.84054293112865
30
0
41
1
10
105.073762853077
20
-1.7570913122255
30
0
41
1
10
104.842260427545
20
-1.67347259588556
30
0
41
1
10
104.379381577909
20
-1.50591020693639
30
0
41
1
10
104.148001814458
20
-1.42197577780755
30
0
41
1
10
103.45389634831
20
-1.17011400266014
30
0
41
1
10
102.991165592516
20
-1.00223554132955
30
0
41
1
10
101.603045848611
20
-0.498538120221838
30
0
41
1
10
100.677723325548
20
-0.16267350999658
30
0
41
1
10
99.2901371829863
20
0.341945432925229
30
0
41
1
10
98.8276957637618
20
0.510346635462469
30
0
41
1
10
98.1341015712502
20
0.763066365360203
30
0
41
1
10
97.902902359127
20
0.847291529356454
30
0
41
1
10
97.4404023908062
20
1.01543876304422
30
0
41
1
10
97.2091087183929
20
1.09938037535514
30
0
41
1
10
96.0524396212376
20
1.51847746520295
30
0
41
1
10
95.126463114313
20
1.85180353080679
30
0
41
1
10
94.2
20
2.18360395025545
30
0
0
SPLINE
5
C6
100
AcDbEntity
8
1
62
256
6
ByLayer
370
18
48
1
60
0
100
AcDbSpline
70
4
71
3
72
95
73
91
40
0
40
0
40
0
40
0
40
0.0312500000000009
40
0.0312500000000009
40
0.0625000000000017
40
0.0625000000000017
40
0.0937500000000026
40
0.0937500000000026
40
0.125000000000003
40
0.125000000000003
40
0.140625000000004
40
0.140625000000004
40
0.148437500000004
40
0.148437500000004
40
0.156250000000003
40
0.187500000000001
40
0.187500000000001
40
0.218749999999998
40
0.218749999999998
40
0.249999999999995
40
0.249999999999995
40
0.281249999999993
40
0.281249999999993
40
0.296874999999992
40
0.296874999999992
40
0.304687499999991
40
0.304687499999991
40
0.312499999999991
40
0.312499999999991
40
0.343749999999989
40
0.343749999999989
40
0.374999999999988
40
0.374999999999988
40
0.406249999999986
40
0.406249999999986
40
0.437499999999985
40
0.437499999999985
40
0.445312499999984
40
0.445312499999984
40
0.453124999999984
40
0.468749999999983
40
0.468749999999983
40
0.499999999999981
40
0.499999999999981
40
0.531249999999978
40
0.531249999999978
40
0.539062499999978
40
0.539062499999978
40
0.546874999999977
40
0.562499999999975
40
0.562499999999975
40
0.593749999999972
40
0.593749999999972
40
0.624999999999969
40
0.624999999999969
40
0.632812499999969
40
0.632812499999969
40
0.640624999999969
40
0.65624999999997
40
0.65624999999997
40
0.687499999999973
40
0.687499999999973
40
0.718749999999976
40
0.718749999999976
40
0.726562499999977
40
0.726562499999977
40
0.734374999999978
40
0.734374999999978
40
0.749999999999981
40
0.749999999999981
40
0.781249999999986
40
0.781249999999986
40
0.81249999999999
40
0.81249999999999
40
0.843749999999995
40
0.843749999999995
40
0.851562499999995
40
0.851562499999995
40
0.859374999999996
40
0.874999999999997
40
0.874999999999997
40
0.906249999999998
40
0.906249999999998
40
0.9375
40
0.968750000000001
40
0.968750000000001
40
0.9765625
40
0.9765625
40
0.984375
40
1
40
1
40
1
40
1
41
1
10
105.305329933317
20
12.4889293696938
30
0
41
1
10
105.385894827705
20
12.2891548831159
30
0
41
1
10
105.466586128576
20
12.0863843373188
30
0
41
1
10
105.628358288402
20
11.675324068675
30
0
41
1
10
105.709438997026
20
11.4670333833356
30
0
41
1
10
105.872085739662
20
11.045274835275
30
0
41
1
10
105.953651832075
20
10.8318063794921
30
0
41
1
10
106.117326164608
20
10.3999296634259
30
0
41
1
10
106.199434684722
20
10.1815211581685
30
0
41
1
10
106.323013765632
20
9.85031240992379
30
0
41
1
10
106.364275807132
20
9.73930946234555
30
0
41
1
10
106.426269734938
20
9.57191232804078
30
0
41
1
10
106.446965475752
20
9.51592562529251
30
0
41
1
10
106.488316309184
20
9.40385425623947
30
0
41
1
10
106.591541519167
20
9.12356482659993
30
0
41
1
10
106.694017560602
20
8.84272914778376
30
0
41
1
10
106.856953223471
20
8.39268804451808
30
0
41
1
10
106.937909059841
20
8.16731581288161
30
0
41
1
10
107.098610643333
20
7.715815238039
30
0
41
1
10
107.178358229738
20
7.48968753803749
30
0
41
1
10
107.336300191574
20
7.03656243076796
30
0
41
1
10
107.414497762544
20
6.80956617431559
30
0
41
1
10
107.530197793098
20
6.46826869898487
30
0
41
1
10
107.568496311264
20
6.35436823701971
30
0
41
1
10
107.625463712711
20
6.18328773828836
30
0
41
1
10
107.644382032892
20
6.12619385430887
30
0
41
1
10
107.681997305307
20
6.0120613791907
30
0
41
1
10
107.700682273371
20
5.95505947408734
30
0
41
1
10
107.793455319194
20
5.67035853256391
30
0
41
1
10
107.865610498318
20
5.44358832533351
30
0
41
1
10
108.004475389336
20
4.99165210347866
30
0
41
1
10
108.071195040753
20
4.76648652285729
30
0
41
1
10
108.197175282227
20
4.31727777030781
30
0
41
1
10
108.256446525036
20
4.09323550292061
30
0
41
1
10
108.364489821813
20
3.64566186753388
30
0
41
1
10
108.413267089729
20
3.42212864306464
30
0
41
1
10
108.464959639771
20
3.14257217107149
30
0
41
1
10
108.474836956744
20
3.08661771424272
30
0
41
1
10
108.493550806077
20
2.97483942804277
30
0
41
1
10
108.519997415773
20
2.80775882550967
30
0
41
1
10
108.54128686324
20
2.64246196721712
30
0
41
1
10
108.576296167696
20
2.31433984043591
30
0
41
1
10
108.58946837014
20
2.09887602086295
30
0
41
1
10
108.593014505929
20
1.67528792370899
30
0
41
1
10
108.583367786409
20
1.46716718617452
30
0
41
1
10
108.557148669768
20
1.21228273054547
30
0
41
1
10
108.551196984734
20
1.16152003238548
30
0
41
1
10
108.537948728685
20
1.06076079919072
30
0
41
1
10
108.516124447032
20
0.911230161905564
30
0
41
1
10
108.488782881931
20
0.766464622723845
30
0
41
1
10
108.427661832118
20
0.483132515267158
30
0
41
1
10
108.378365887366
20
0.302498234491423
30
0
41
1
10
108.267123885503
20
-0.0429113939390788
30
0
41
1
10
108.205187188151
20
-0.207691430628444
30
0
41
1
10
108.121917974697
20
-0.403907879978703
30
0
41
1
10
108.104955046458
20
-0.442692142548339
30
0
41
1
10
108.070539138396
20
-0.519144884573251
30
0
41
1
10
108.018270950714
20
-0.631951574151742
30
0
41
1
10
107.964269998353
20
-0.739251546125899
30
0
41
1
10
107.85437729848
20
-0.946730364288982
30
0
41
1
10
107.778619460444
20
-1.07557454589994
30
0
41
1
10
107.623582032236
20
-1.31494906013629
30
0
41
1
10
107.544291956496
20
-1.42547594489381
30
0
41
1
10
107.443455511881
20
-1.552208097147
30
0
41
1
10
107.423200748009
20
-1.57698186361401
30
0
41
1
10
107.38252381001
20
-1.62537937470219
30
0
41
1
10
107.362086317028
20
-1.64901910851904
30
0
41
1
10
107.300792673984
20
-1.71791709008812
30
0
41
1
10
107.259881933177
20
-1.7612474653819
30
0
41
1
10
107.137068774228
20
-1.88360960961077
30
0
41
1
10
107.05509151399
20
-1.95502814126013
30
0
41
1
10
106.891082257918
20
-2.07806884945737
30
0
41
1
10
106.809047703891
20
-2.12968897585804
30
0
41
1
10
106.644898577217
20
-2.2131609324199
30
0
41
1
10
106.562782834894
20
-2.2450127751072
30
0
41
1
10
106.460002399484
20
-2.27220861553946
30
0
41
1
10
106.439424804927
20
-2.27701734569007
30
0
41
1
10
106.398436247517
20
-2.28532744531591
30
0
41
1
10
106.337141572532
20
-2.29585023643244
30
0
41
1
10
106.276391274885
20
-2.30061088282903
30
0
41
1
10
106.155563219484
20
-2.30258011236748
30
0
41
1
10
106.0759077117
20
-2.29383634350236
30
0
41
1
10
105.918109608156
20
-2.25660150760947
30
0
41
1
10
105.761824399697
20
-2.19961713682596
30
0
41
1
10
105.608014596505
20
-2.10306254404557
30
0
41
1
10
105.512483988066
20
-2.03007823790358
30
0
41
1
10
105.493420478623
20
-2.01485721659955
30
0
41
1
10
105.455451422993
20
-1.98323077773122
30
0
41
1
10
105.398700698497
20
-1.93398843176772
30
0
41
1
10
105.342534521376
20
-1.87935572501334
30
0
41
1
10
105.305329933317
20
-1.84054293112837
30
0
0
SPLINE
5
C7
100
AcDbEntity
8
1
62
256
6
ByLayer
370
18
48
1
60
0
100
AcDbSpline
70
4
71
3
72
24
73
20
40
0
40
0
40
0
40
0
40
0.0693526348265486
40
0.0693526348265486
40
0.146906581924341
40
0.146906581924341
40
0.224460529022134
40
0.224460529022134
40
0.37956842321771
40
0.37956842321771
40
0.689784211608855
40
0.689784211608855
40
0.767338158706641
40
0.767338158706641
40
0.844892105804428
40
0.844892105804428
40
0.922446052902214
40
0.922446052902214
40
1
40
1
40
1
40
1
41
1
10
96.3571792014683
20
12.8968932001847
30
0
41
1
10
96.5641063836972
20
12.8969300681787
30
0
41
1
10
96.7709965654615
20
12.8963079186173
30
0
41
1
10
97.2091569669258
20
12.8935930893775
30
0
41
1
10
97.4404129685766
20
12.8913323105931
30
0
41
1
10
97.9028275949273
20
12.8851463895803
30
0
41
1
10
98.1339923610824
20
12.8812207244663
30
0
41
1
10
98.8275694262355
20
12.8669764485875
30
0
41
1
10
99.2900955489845
20
12.854204664281
30
0
41
1
10
100.677829648335
20
12.8061222817333
30
0
41
1
10
101.603238793059
20
12.7610795501232
30
0
41
1
10
102.75995429426
20
12.6883434712568
30
0
41
1
10
102.991294547163
20
12.6729719775855
30
0
41
1
10
103.45395829536
20
12.6405644356969
30
0
41
1
10
103.68527270875
20
12.6235227700409
30
0
41
1
10
104.147940390819
20
12.5877947860392
30
0
41
1
10
104.37930286985
20
12.5691134345381
30
0
41
1
10
104.842207483544
20
12.5301982941749
30
0
41
1
10
105.073736678213
20
12.5099575349704
30
0
41
1
10
105.305329933318
20
12.4889293696944
30
0
0
SPLINE
5
C8
100
AcDbEntity
8
1
62
256
6
ByLayer
370
18
48
1
60
0
100
AcDbSpline
70
4
71
3
72
42
73
38
40
0
40
0
40
0
40
0
40
0.0199921780413896
40
0.0199921780413896
40
0.117992960237249
40
0.117992960237249
40
0.166993351335179
40
0.166993351335179
40
0.215993742433109
40
0.215993742433109
40
0.313994524628968
40
0.313994524628968
40
0.362994915726899
40
0.362994915726899
40
0.41199530682483
40
0.41199530682483
40
0.50999608902069
40
0.50999608902069
40
0.60799687121655
40
0.60799687121655
40
0.632497066765516
40
0.632497066765516
40
0.656997262314481
40
0.656997262314481
40
0.705997653412412
40
0.705997653412412
40
0.803998435608275
40
0.803998435608275
40
0.852998826706206
40
0.852998826706206
40
0.901999217804137
40
0.901999217804137
40
0.926499413353103
40
0.926499413353103
40
0.950999608902068
40
0.950999608902068
40
1
40
1
40
1
40
1
41
1
10
70.4732009296591
20
8.92623579002233
30
0
41
1
10
70.631363739567
20
8.96326433748439
30
0
41
1
10
70.7895213913361
20
9.00002223939197
30
0
41
1
10
71.7229200178239
20
9.21539382007151
30
0
41
1
10
72.4980200919061
20
9.3878361085697
30
0
41
1
10
73.6601588716559
20
9.63725906737093
30
0
41
1
10
74.0474253540701
20
9.71889986424731
30
0
41
1
10
74.8222892595749
20
9.87819322570903
30
0
41
1
10
75.2098646613622
20
9.95589217381615
30
0
41
1
10
76.3728688137628
20
10.1834507185153
30
0
41
1
10
77.1487568990863
20
10.3277667758312
30
0
41
1
10
78.311742942691
20
10.5332814870729
30
0
41
1
10
78.69930305446
20
10.5999666981272
30
0
41
1
10
79.4741686910266
20
10.729740984105
30
0
41
1
10
79.8614279015975
20
10.7928882681353
30
0
41
1
10
81.0233804832314
20
10.9761338687581
30
0
41
1
10
81.7984046153521
20
11.089877468522
30
0
41
1
10
83.348684488279
20
11.3014380100156
30
0
41
1
10
84.1239769942346
20
11.3992074527889
30
0
41
1
10
85.0930523253406
20
11.5115480501594
30
0
41
1
10
85.2868683922381
20
11.5335227615573
30
0
41
1
10
85.6744767835399
20
11.5764777066216
30
0
41
1
10
85.8682388344276
20
11.5974507306801
30
0
41
1
10
86.4495024807977
20
11.6587597486061
30
0
41
1
10
86.8370404354298
20
11.6974358302613
30
0
41
1
10
87.999734146209
20
11.8069610011272
30
0
41
1
10
88.7748941586236
20
11.8713836640171
30
0
41
1
10
89.9374467092919
20
11.9553541229542
30
0
41
1
10
90.3249316137604
20
11.9812311027172
30
0
41
1
10
91.0997895344905
20
12.0287566706883
30
0
41
1
10
91.4871337716561
20
12.050417015488
30
0
41
1
10
92.0681409590302
20
12.0796658752983
30
0
41
1
10
92.2618203369742
20
12.0888701181499
30
0
41
1
10
92.6492726943692
20
12.1061631226997
30
0
41
1
10
92.8430393128785
20
12.1142549685445
30
0
41
1
10
93.4244395325253
20
12.1368830461735
30
0
41
1
10
93.8121683572517
20
12.1497743179448
30
0
41
1
10
94.1999999999999
20
12.1604888726661
30
0
0
SPLINE
5
C9
100
AcDbEntity
8
1
62
256
6
ByLayer
370
18
48
1
60
0
100
AcDbSpline
70
4
71
3
72
76
73
72
40
0
40
0
40
0
40
0
40
0.0248212865686739
40
0.0248212865686739
40
0.0496425731373477
40
0.0496425731373477
40
0.0992851462746955
40
0.0992851462746955
40
0.148927719412043
40
0.148927719412043
40
0.173749005980718
40
0.173749005980718
40
0.198570292549392
40
0.198570292549392
40
0.248212865686743
40
0.248212865686743
40
0.273034152255419
40
0.273034152255419
40
0.285444795539756
40
0.285444795539756
40
0.297855438824094
40
0.297855438824094
40
0.347498011961444
40
0.347498011961444
40
0.37231929853012
40
0.37231929853012
40
0.397140585098795
40
0.397140585098795
40
0.421961871667471
40
0.421961871667471
40
0.446783158236146
40
0.446783158236146
40
0.471604444804821
40
0.471604444804821
40
0.496425731373497
40
0.496425731373497
40
0.521247017942172
40
0.521247017942172
40
0.546068304510847
40
0.546068304510847
40
0.595710877648198
40
0.595710877648198
40
0.620532164216874
40
0.620532164216874
40
0.645353450785551
40
0.645353450785551
40
0.694996023922903
40
0.694996023922903
40
0.744638597060255
40
0.744638597060255
40
0.769459883628931
40
0.769459883628931
40
0.794281170197607
40
0.794281170197607
40
0.819102456766283
40
0.819102456766283
40
0.843923743334959
40
0.843923743334959
40
0.868745029903636
40
0.868745029903636
40
0.881155673187974
40
0.881155673187974
40
0.893566316472312
40
0.893566316472312
40
0.943208889609665
40
0.943208889609665
40
0.968030176178342
40
0.968030176178342
40
0.992851462747019
40
0.992851462747019
40
1
40
1
40
1
40
1
41
1
10
94.2
20
1.82826722294254
30
0
41
1
10
93.783308373577
20
1.96995330696754
30
0
41
1
10
93.3667418875248
20
2.11133580466299
30
0
41
1
10
92.5338807467363
20
2.39354823068732
30
0
41
1
10
92.117610989702
20
2.53444752504589
30
0
41
1
10
90.8686250730725
20
2.95464309016779
30
0
41
1
10
90.0358064360107
20
3.23165984249215
30
0
41
1
10
88.370023480265
20
3.78001244579539
30
0
41
1
10
87.5370633928525
20
4.05136021626362
30
0
41
1
10
86.2876590343036
20
4.45447570265929
30
0
41
1
10
85.8711250656224
20
4.58814055852977
30
0
41
1
10
85.0380788896464
20
4.85285111103852
30
0
41
1
10
84.6215642351868
20
4.98402075061674
30
0
41
1
10
83.3720817419163
20
5.37409368528876
30
0
41
1
10
82.5391653962441
20
5.62954162872938
30
0
41
1
10
81.2900568002059
20
6.00620975099648
30
0
41
1
10
80.8737432145305
20
6.13070906870189
30
0
41
1
10
80.2493152817665
20
6.31575403656487
30
0
41
1
10
80.0411738947857
20
6.37713689776766
30
0
41
1
10
79.6248246844738
20
6.49913405494738
30
0
41
1
10
79.4166179050761
20
6.55975123381182
30
0
41
1
10
78.3754326306284
20
6.86095943912753
30
0
41
1
10
77.5418177723112
20
7.09598692601656
30
0
41
1
10
76.2921181277667
20
7.43951053943786
30
0
41
1
10
75.8756313369136
20
7.55252926658699
30
0
41
1
10
75.0428469839583
20
7.77564346035456
30
0
41
1
10
74.6265724267095
20
7.88578887999549
30
0
41
1
10
73.7940920097962
20
8.10286306502545
30
0
41
1
10
73.3778078187086
20
8.20962036611388
30
0
41
1
10
72.5450605382081
20
8.41940300121831
30
0
41
1
10
72.1286161083344
20
8.52246935337132
30
0
41
1
10
71.2956044236244
20
8.72500331598314
30
0
41
1
10
70.8790366708061
20
8.82446997527114
30
0
41
1
10
70.0458024034105
20
9.01984864038667
30
0
41
1
10
69.6290860210078
20
9.11577460298838
30
0
41
1
10
68.7960106600492
20
9.30400640224468
30
0
41
1
10
68.379650173942
20
9.39638242446722
30
0
41
1
10
67.5469719763824
20
9.57705572109916
30
0
41
1
10
67.1306011019952
20
9.66526013625193
30
0
41
1
10
65.8814157733198
20
9.92356841151266
30
0
41
1
10
65.0485325019501
20
10.0873858687193
30
0
41
1
10
63.7992029982145
20
10.3207725158742
30
0
41
1
10
63.3827618787109
20
10.3965130695549
30
0
41
1
10
62.5499046978596
20
10.5438865853421
30
0
41
1
10
62.1335186664623
20
10.6155581501399
30
0
41
1
10
60.8838397326724
20
10.8235698490411
30
0
41
1
10
60.050699695272
20
10.952892308426
30
0
41
1
10
58.3847871732766
20
11.1932317965377
30
0
41
1
10
57.5519773049211
20
11.3042573736774
30
0
41
1
10
56.3031343536024
20
11.4571155437943
30
0
41
1
10
55.8869016494512
20
11.5057638807849
30
0
41
1
10
55.0541295388363
20
11.5980635189668
30
0
41
1
10
54.6376280901357
20
11.6417572460562
30
0
41
1
10
53.8044205863881
20
11.7242799200814
30
0
41
1
10
53.3876590884702
20
11.7631121524357
30
0
41
1
10
52.5543633662111
20
11.8358920723709
30
0
41
1
10
52.1377999511326
20
11.8698436096817
30
0
41
1
10
51.3048733996357
20
11.9328785543378
30
0
41
1
10
50.8885184772301
20
11.9619660712422
30
0
41
1
10
50.2641207289515
20
12.0019092105552
30
0
41
1
10
50.0560053740166
20
12.0146055283117
30
0
41
1
10
49.6397416468959
20
12.0387285612448
30
0
41
1
10
49.4315913405203
20
12.0501549308074
30
0
41
1
10
48.3907561479003
20
12.104128841325
30
0
41
1
10
47.5578262540311
20
12.1372219238112
30
0
41
1
10
46.3081638731055
20
12.1718447548621
30
0
41
1
10
45.8915660883844
20
12.1808799104088
30
0
41
1
10
45.0583123849871
20
12.1939163017312
30
0
41
1
10
44.6417984440321
20
12.1979150545769
30
0
41
1
10
44.1054906071902
20
12.1997924439064
30
0
41
1
10
43.9855725884856
20
12.2000013335612
30
0
41
1
10
43.8656549547621
20
12.1999998322374
30
0
0
SPLINE
5
CA
100
AcDbEntity
8
1
62
256
6
ByLayer
370
18
48
1
60
0
100
AcDbSpline
70
4
71
3
72
114
73
110
40
0
40
0
40
0
40
0
40
0.0312499999999992
40
0.0312499999999992
40
0.0624999999999985
40
0.0624999999999985
40
0.0781249999999983
40
0.0781249999999983
40
0.0859374999999985
40
0.0859374999999985
40
0.0937499999999987
40
0.0937499999999987
40
0.124999999999998
40
0.124999999999998
40
0.156249999999998
40
0.156249999999998
40
0.171874999999998
40
0.171874999999998
40
0.187499999999998
40
0.187499999999998
40
0.218749999999999
40
0.218749999999999
40
0.234374999999999
40
0.234374999999999
40
0.249999999999999
40
0.249999999999999
40
0.265624999999999
40
0.265624999999999
40
0.281249999999999
40
0.281249999999999
40
0.312499999999999
40
0.312499999999999
40
0.328124999999999
40
0.328124999999999
40
0.343749999999999
40
0.343749999999999
40
0.374999999999999
40
0.374999999999999
40
0.390625
40
0.390625
40
0.3984375
40
0.3984375
40
0.406250000000001
40
0.406250000000001
40
0.421875000000001
40
0.421875000000001
40
0.437500000000001
40
0.437500000000001
40
0.468750000000002
40
0.468750000000002
40
0.484375000000002
40
0.484375000000002
40
0.492187500000002
40
0.492187500000002
40
0.500000000000002
40
0.500000000000002
40
0.531250000000003
40
0.531250000000003
40
0.546875000000004
40
0.546875000000004
40
0.562500000000004
40
0.562500000000004
40
0.570312500000004
40
0.570312500000004
40
0.578125000000005
40
0.578125000000005
40
0.593750000000005
40
0.593750000000005
40
0.625000000000006
40
0.625000000000006
40
0.640625000000006
40
0.640625000000006
40
0.656250000000006
40
0.656250000000006
40
0.687500000000005
40
0.687500000000005
40
0.718750000000005
40
0.718750000000005
40
0.734375000000004
40
0.734375000000004
40
0.750000000000004
40
0.750000000000004
40
0.781250000000003
40
0.781250000000003
40
0.796875000000002
40
0.796875000000002
40
0.812500000000001
40
0.812500000000001
40
0.84375
40
0.84375
40
0.874999999999999
40
0.874999999999999
40
0.882812499999999
40
0.882812499999999
40
0.890624999999999
40
0.890624999999999
40
0.90625
40
0.90625
40
0.9375
40
0.9375
40
0.953125
40
0.953125
40
0.96875
40
0.96875
40
0.9765625
40
0.9765625
40
0.984375
40
0.984375
40
1
40
1
40
1
40
1
41
1
10
19.7884209477858
20
6.98394799035401
30
0
41
1
10
20.5635156164624
20
6.76408689121095
30
0
41
1
10
21.3387709073474
20
6.54039785005472
30
0
41
1
10
22.8892121622665
20
6.08457764640639
30
0
41
1
10
23.6644007531701
20
5.85245233663741
30
0
41
1
10
24.8268647035141
20
5.49722403636457
30
0
41
1
10
25.2142868652334
20
5.37760606772491
30
0
41
1
10
25.7953439753298
20
5.19640825676146
30
0
41
1
10
25.9890253349997
20
5.13573549223597
30
0
41
1
10
26.3764577663202
20
5.01405063386457
30
0
41
1
10
26.5702145262852
20
4.95305395987242
30
0
41
1
10
27.5391787657442
20
4.64724836402164
30
0
41
1
10
28.3150284561102
20
4.39979046718958
30
0
41
1
10
29.8658682551123
20
3.89888664887374
30
0
41
1
10
30.6410195017634
20
3.64540989224668
30
0
41
1
10
31.8030620826436
20
3.25982882093584
30
0
41
1
10
32.1903226830309
20
3.13048005963412
30
0
41
1
10
32.9651652907457
20
2.87153681522975
30
0
41
1
10
33.3526936987411
20
2.74179341914973
30
0
41
1
10
34.5154703633472
20
2.3513932757937
30
0
41
1
10
35.2909371096399
20
2.0896449322459
30
0
41
1
10
36.4543074593598
20
1.69407020644172
30
0
41
1
10
36.8419717327232
20
1.56176969535497
30
0
41
1
10
37.6169961862929
20
1.29613094547995
30
0
41
1
10
38.0043282867103
20
1.16271094629011
30
0
41
1
10
38.7791889686021
20
0.896285032129242
30
0
41
1
10
39.1666967412702
20
0.763219085284504
30
0
41
1
10
39.9417662430862
20
0.497089683846781
30
0
41
1
10
40.3293325595694
20
0.364039523818661
30
0
41
1
10
41.4920724090524
20
-0.0352230856774156
30
0
41
1
10
42.2672893294149
20
-0.301539828895414
30
0
41
1
10
43.4299165986877
20
-0.702059332670501
30
0
41
1
10
43.8173798592367
20
-0.835876371494692
30
0
41
1
10
44.5926061361382
20
-1.10278679453495
30
0
41
1
10
44.9802627973549
20
-1.23568696482005
30
0
41
1
10
46.1432165424221
20
-1.63316547714285
30
0
41
1
10
46.9185004764976
20
-1.89651491845567
30
0
41
1
10
48.0811624033494
20
-2.28977411039096
30
0
41
1
10
48.4686710722402
20
-2.42056942890844
30
0
41
1
10
49.0498298425528
20
-2.61642464764128
30
0
41
1
10
49.2435312709478
20
-2.68165562042901
30
0
41
1
10
49.6308956303619
20
-2.81201425140924
30
0
41
1
10
49.8245616603126
20
-2.87713300373031
30
0
41
1
10
50.4056154001834
20
-3.07201205639706
30
0
41
1
10
50.7931180273353
20
-3.20112801654301
30
0
41
1
10
51.5683864835817
20
-3.45777288876982
30
0
41
1
10
51.9561334004321
20
-3.58535691245368
30
0
41
1
10
53.1196465839932
20
-3.96606571382134
30
0
41
1
10
53.8950844099655
20
-4.216930045102
30
0
41
1
10
55.0576099841117
20
-4.58954081124603
30
0
41
1
10
55.4449843013233
20
-4.71320590847944
30
0
41
1
10
56.0259603883044
20
-4.89757095009975
30
0
41
1
10
56.2196166221759
20
-4.95880568798461
30
0
41
1
10
56.6069977402801
20
-5.0806406450406
30
0
41
1
10
56.8007163340671
20
-5.14125784957719
30
0
41
1
10
57.7694147850179
20
-5.44294103614089
30
0
41
1
10
58.5446817159362
20
-5.67988312664636
30
0
41
1
10
59.7077952339858
20
-6.02936361541862
30
0
41
1
10
60.0955357114816
20
-6.14486781549323
30
0
41
1
10
60.8710392322846
20
-6.37399826994823
30
0
41
1
10
61.2586364343334
20
-6.48761146772935
30
0
41
1
10
61.8398236137544
20
-6.65652635344267
30
0
41
1
10
62.0335262851385
20
-6.71255954369525
30
0
41
1
10
62.4209577519653
20
-6.82389111266198
30
0
41
1
10
62.6146920466965
20
-6.87917658202082
30
0
41
1
10
63.1959367613239
20
-7.04393254804464
30
0
41
1
10
63.5834812717957
20
-7.15232189829271
30
0
41
1
10
64.7461571656721
20
-7.47341598976749
30
0
41
1
10
65.5213534533268
20
-7.68200236253574
30
0
41
1
10
66.6840069374943
20
-7.98722948847043
30
0
41
1
10
67.0715324915669
20
-8.08769884101514
30
0
41
1
10
67.8464904923778
20
-8.28615343859877
30
0
41
1
10
68.2339516130139
20
-8.38407356230462
30
0
41
1
10
69.3970097125645
20
-8.67235373540257
30
0
41
1
10
70.1724242032869
20
-8.85763377528724
30
0
41
1
10
71.7229200178239
20
-9.21539382007151
30
0
41
1
10
72.4980200919061
20
-9.3878361085697
30
0
41
1
10
73.6601588716558
20
-9.63725906737091
30
0
41
1
10
74.0474253540701
20
-9.71889986424731
30
0
41
1
10
74.8222892595749
20
-9.87819322570908
30
0
41
1
10
75.2098646613622
20
-9.95589217381615
30
0
41
1
10
76.3728688137628
20
-10.1834507185153
30
0
41
1
10
77.1487568990861
20
-10.3277667758312
30
0
41
1
10
78.3117429426909
20
-10.5332814870729
30
0
41
1
10
78.69930305446
20
-10.5999666981272
30
0
41
1
10
79.4741686910265
20
-10.729740984105
30
0
41
1
10
79.8614279015974
20
-10.7928882681353
30
0
41
1
10
81.0233804832313
20
-10.9761338687581
30
0
41
1
10
81.7984046153519
20
-11.089877468522
30
0
41
1
10
83.3486844882789
20
-11.3014380100156
30
0
41
1
10
84.1239769942346
20
-11.3992074527889
30
0
41
1
10
85.0930523253406
20
-11.5115480501594
30
0
41
1
10
85.286868392238
20
-11.5335227615573
30
0
41
1
10
85.6744767835399
20
-11.5764777066216
30
0
41
1
10
85.8682388344275
20
-11.5974507306801
30
0
41
1
10
86.4495024807976
20
-11.6587597486061
30
0
41
1
10
86.8370404354297
20
-11.6974358302613
30
0
41
1
10
87.9997341462089
20
-11.8069610011272
30
0
41
1
10
88.7748941586235
20
-11.8713836640171
30
0
41
1
10
89.9374467092919
20
-11.9553541229542
30
0
41
1
10
90.3249316137603
20
-11.9812311027172
30
0
41
1
10
91.0997895344905
20
-12.0287566706883
30
0
41
1
10
91.4871337716561
20
-12.050417015488
30
0
41
1
10
92.0681409590302
20
-12.0796658752983
30
0
41
1
10
92.2618203369741
20
-12.0888701181499
30
0
41
1
10
92.6492726943691
20
-12.1061631226997
30
0
41
1
10
92.8430393128784
20
-12.1142549685445
30
0
41
1
10
93.4244395325251
20
-12.1368830461735
30
0
41
1
10
93.8121683572517
20
-12.1497743179448
30
0
41
1
10
94.1999999999999
20
-12.1604888726662
30
0
0
SPLINE
5
CB
100
AcDbEntity
8
1
62
256
6
ByLayer
370
18
48
1
60
0
100
AcDbSpline
70
4
71
3
72
80
73
76
40
0
40
0
40
0
40
0
40
0.0001777482522037
40
0.0001777482522037
40
0.0223960205132653
40
0.0223960205132653
40
0.0446142927743268
40
0.0446142927743268
40
0.0668325650353883
40
0.0668325650353883
40
0.111269109557512
40
0.111269109557512
40
0.133487381818574
40
0.133487381818574
40
0.155705654079636
40
0.155705654079636
40
0.20014219860176
40
0.20014219860176
40
0.244578743123885
40
0.244578743123885
40
0.266797015384947
40
0.266797015384947
40
0.289015287646009
40
0.289015287646009
40
0.311233559907071
40
0.311233559907071
40
0.333451832168133
40
0.333451832168133
40
0.355670104429196
40
0.355670104429196
40
0.366779240559727
40
0.366779240559727
40
0.377888376690258
40
0.377888376690258
40
0.422324921212383
40
0.422324921212383
40
0.444543193473446
40
0.444543193473446
40
0.466761465734508
40
0.466761465734508
40
0.48897973799557
40
0.48897973799557
40
0.511198010256633
40
0.511198010256633
40
0.555634554778757
40
0.555634554778757
40
0.57785282703982
40
0.57785282703982
40
0.600071099300882
40
0.600071099300882
40
0.644507643823005
40
0.644507643823005
40
0.666725916084067
40
0.666725916084067
40
0.688944188345129
40
0.688944188345129
40
0.733380732867253
40
0.733380732867253
40
0.755599005128316
40
0.755599005128316
40
0.777817277389378
40
0.777817277389378
40
0.80003554965044
40
0.80003554965044
40
0.822253821911502
40
0.822253821911502
40
0.866690366433627
40
0.866690366433627
40
0.888908638694689
40
0.888908638694689
40
0.911126910955751
40
0.911126910955751
40
0.955563455477876
40
0.955563455477876
40
1
40
1
40
1
40
1
41
1
10
70.4724184555052
20
-8.91981439522263
30
0
41
1
10
70.4690854858709
20
-8.92059614651745
30
0
41
1
10
70.4657525130698
20
-8.92137778404896
30
0
41
1
10
70.0458024034105
20
-9.01984864038667
30
0
41
1
10
69.6290860210078
20
-9.11577460298835
30
0
41
1
10
68.7960106600491
20
-9.30400640224462
30
0
41
1
10
68.3796501739419
20
-9.39638242446722
30
0
41
1
10
67.5469719763823
20
-9.5770557210991
30
0
41
1
10
67.1306011019952
20
-9.6652601362519
30
0
41
1
10
65.8814157733199
20
-9.92356841151266
30
0
41
1
10
65.0485325019502
20
-10.0873858687193
30
0
41
1
10
63.7992029982145
20
-10.3207725158742
30
0
41
1
10
63.3827618787109
20
-10.3965130695549
30
0
41
1
10
62.5499046978596
20
-10.5438865853421
30
0
41
1
10
62.1335186664623
20
-10.6155581501399
30
0
41
1
10
60.8838397326724
20
-10.8235698490411
30
0
41
1
10
60.050699695272
20
-10.952892308426
30
0
41
1
10
58.3847871732766
20
-11.1932317965377
30
0
41
1
10
57.5519773049211
20
-11.3042573736774
30
0
41
1
10
56.3031343536024
20
-11.4571155437943
30
0
41
1
10
55.8869016494511
20
-11.5057638807849
30
0
41
1
10
55.0541295388362
20
-11.5980635189668
30
0
41
1
10
54.6376280901358
20
-11.6417572460562
30
0
41
1
10
53.8044205863881
20
-11.7242799200814
30
0
41
1
10
53.3876590884701
20
-11.7631121524357
30
0
41
1
10
52.5543633662111
20
-11.8358920723709
30
0
41
1
10
52.1377999511326
20
-11.8698436096817
30
0
41
1
10
51.3048733996357
20
-11.9328785543377
30
0
41
1
10
50.88851847723
20
-11.9619660712422
30
0
41
1
10
50.2641207289514
20
-12.0019092105552
30
0
41
1
10
50.0560053740166
20
-12.0146055283117
30
0
41
1
10
49.6397416468959
20
-12.0387285612448
30
0
41
1
10
49.4315913405202
20
-12.0501549308073
30
0
41
1
10
48.3907561479003
20
-12.104128841325
30
0
41
1
10
47.557826254031
20
-12.1372219238112
30
0
41
1
10
46.3081638731055
20
-12.1718447548621
30
0
41
1
10
45.8915660883844
20
-12.1808799104088
30
0
41
1
10
45.0583123849871
20
-12.1939163017312
30
0
41
1
10
44.6417984440321
20
-12.1979150545769
30
0
41
1
10
43.809022474947
20
-12.2008302547863
30
0
41
1
10
43.3926565967817
20
-12.1997451854569
30
0
41
1
10
42.5598477690869
20
-12.1925322893866
30
0
41
1
10
42.1434274129448
20
-12.1864051843623
30
0
41
1
10
40.8941465747008
20
-12.1604924268995
30
0
41
1
10
40.0612621739954
20
-12.1331916106461
30
0
41
1
10
38.8120540504493
20
-12.0770599207975
30
0
41
1
10
38.3957035964737
20
-12.0557978632448
30
0
41
1
10
37.5628246108683
20
-12.0082631537747
30
0
41
1
10
37.14617727709
20
-11.9820210376231
30
0
41
1
10
35.8963856656119
20
-11.8959747635953
30
0
41
1
10
35.0633174092586
20
-11.8288553743138
30
0
41
1
10
33.8140360280975
20
-11.7135032870199
30
0
41
1
10
33.3976652483783
20
-11.6726015441984
30
0
41
1
10
32.5650588540021
20
-11.5858472714299
30
0
41
1
10
32.1488570175754
20
-11.5399578020014
30
0
41
1
10
30.8999282671306
20
-11.3953207693283
30
0
41
1
10
30.0668717050738
20
-11.2896531935918
30
0
41
1
10
28.8167692807422
20
-11.1172529258515
30
0
41
1
10
28.4001273760291
20
-11.0574875534024
30
0
41
1
10
27.5672891561594
20
-10.9333642722672
30
0
41
1
10
27.1510474416947
20
-10.8689981459342
30
0
41
1
10
26.31893875389
20
-10.7356075031431
30
0
41
1
10
25.9030711977378
20
-10.6665776086146
30
0
41
1
10
25.0712923477729
20
-10.5244528216067
30
0
41
1
10
24.6554153410795
20
-10.4513141645632
30
0
41
1
10
23.4078595691285
20
-10.2256567496779
30
0
41
1
10
22.57624579609
20
-10.0669240949121
30
0
41
1
10
21.3291125536314
20
-9.81612591303943
30
0
41
1
10
20.9134565045658
20
-9.73039424500129
30
0
41
1
10
20.0822357031558
20
-9.55466727528813
30
0
41
1
10
19.6666258171661
20
-9.46474885841457
30
0
41
1
10
18.4193336656165
20
-9.18970539733101
30
0
41
1
10
17.5873543709792
20
-8.99901038113688
30
0
41
1
10
15.9226379696087
20
-8.60273114296538
30
0
41
1
10
15.0898977010249
20
-8.39715623765261
30
0
41
1
10
14.2568835911741
20
-8.18377537200752
30
0
0
SPLINE
5
CC
100
AcDbEntity
8
1
62
256
6
ByLayer
370
18
48
1
60
0
100
AcDbSpline
70
4
71
3
72
101
73
97
40
0
40
0
40
0
40
0
40
0.0625000000000049
40
0.0625000000000049
40
0.0937500000000082
40
0.0937500000000082
40
0.125000000000011
40
0.125000000000011
40
0.156250000000015
40
0.156250000000015
40
0.171875000000017
40
0.171875000000017
40
0.179687500000018
40
0.179687500000018
40
0.187500000000019
40
0.187500000000019
40
0.218750000000022
40
0.218750000000022
40
0.250000000000025
40
0.250000000000025
40
0.281250000000028
40
0.281250000000028
40
0.289062500000028
40
0.289062500000028
40
0.296875000000028
40
0.296875000000028
40
0.312500000000029
40
0.312500000000029
40
0.34375000000003
40
0.34375000000003
40
0.375000000000031
40
0.375000000000031
40
0.382812500000031
40
0.382812500000031
40
0.386718750000032
40
0.386718750000032
40
0.390625000000032
40
0.406250000000032
40
0.406250000000032
40
0.437500000000031
40
0.437500000000031
40
0.453125000000031
40
0.453125000000031
40
0.457031250000031
40
0.457031250000031
40
0.46093750000003
40
0.46093750000003
40
0.46875000000003
40
0.46875000000003
40
0.500000000000028
40
0.500000000000028
40
0.531250000000026
40
0.531250000000026
40
0.535156250000025
40
0.535156250000025
40
0.539062500000025
40
0.546875000000024
40
0.562500000000022
40
0.562500000000022
40
0.59375000000002
40
0.59375000000002
40
0.601562500000019
40
0.601562500000019
40
0.609375000000018
40
0.609375000000018
40
0.625000000000017
40
0.625000000000017
40
0.656250000000014
40
0.656250000000014
40
0.687500000000012
40
0.687500000000012
40
0.695312500000011
40
0.695312500000011
40
0.703125000000011
40
0.703125000000011
40
0.71875000000001
40
0.71875000000001
40
0.75000000000001
40
0.75000000000001
40
0.78125000000001
40
0.78125000000001
40
0.812500000000009
40
0.812500000000009
40
0.828125000000009
40
0.828125000000009
40
0.843750000000008
40
0.843750000000008
40
0.875000000000006
40
0.875000000000006
40
0.906250000000005
40
0.906250000000005
40
0.937500000000003
40
0.937500000000003
40
0.968750000000002
40
0.968750000000002
40
1
40
1
40
1
40
1
41
1
10
10
20
7.32353726870855
30
0
41
1
10
9.55585898707102
20
7.29173516719459
30
0
41
1
10
9.12291381910251
20
7.23667398557913
30
0
41
1
10
8.4898706856581
20
7.11557153955579
30
0
41
1
10
8.28159071086407
20
7.06876542551945
30
0
41
1
10
7.87050359307867
20
6.96136990595784
30
0
41
1
10
7.66769595585095
20
6.90078318758509
30
0
41
1
10
7.26761968113755
20
6.76464651354109
30
0
41
1
10
7.07035022853677
20
6.68910086252595
30
0
41
1
10
6.77871127675354
20
6.56339054088983
30
0
41
1
10
6.68220987668087
20
6.51941844042642
30
0
41
1
10
6.53854678185621
20
6.45017395539347
30
0
41
1
10
6.49084064377723
20
6.42654445168085
30
0
41
1
10
6.39579587280247
20
6.37815508262864
30
0
41
1
10
6.34840667774426
20
6.35336741904618
30
0
41
1
10
6.11322558107903
20
6.22696457846524
30
0
41
1
10
5.93051610153316
20
6.11789371631698
30
0
41
1
10
5.57615085402705
20
5.8827911487212
30
0
41
1
10
5.40449265184151
20
5.75676468857822
30
0
41
1
10
5.07266408122706
20
5.48624023127917
30
0
41
1
10
4.91248930032083
20
5.34175136877084
30
0
41
1
10
4.71994230508881
20
5.14823849591312
30
0
41
1
10
4.68181755522318
20
5.10888877725534
30
0
41
1
10
4.60635450843586
20
5.02885175363136
30
0
41
1
10
4.56897099619931
20
4.98811334099764
30
0
41
1
10
4.45837055250473
20
4.86420516487217
30
0
41
1
10
4.38684931652534
20
4.77952038373144
30
0
41
1
10
4.17899546687343
20
4.5190563159201
30
0
41
1
10
4.04935103109085
20
4.33688830928091
30
0
41
1
10
3.80876052466081
20
3.95414901929826
30
0
41
1
10
3.69780395502781
20
3.75358912002309
30
0
41
1
10
3.5718261370269
20
3.49004886725027
30
0
41
1
10
3.5472689713454
20
3.43669628342928
30
0
41
1
10
3.51141871951887
20
3.35566685005276
30
0
41
1
10
3.49963272191624
20
3.32848843151157
30
0
41
1
10
3.47647772786348
20
3.27399311415729
30
0
41
1
10
3.41957840687732
20
3.13728583423412
30
0
41
1
10
3.36761369027627
20
2.99823062231815
30
0
41
1
10
3.25243848461184
20
2.65991917091486
30
0
41
1
10
3.1883367572367
20
2.42828981323586
30
0
41
1
10
3.11210343674375
20
2.07115586669482
30
0
41
1
10
3.09002128257785
20
1.95049227848188
30
0
41
1
10
3.06675218051416
20
1.79754608778359
30
0
41
1
10
3.06231527626443
20
1.76685090839146
30
0
41
1
10
3.05388059632315
20
1.70524589856527
30
0
41
1
10
3.04988018660083
20
1.67431115440078
30
0
41
1
10
3.03859087065288
20
1.5815668266834
30
0
41
1
10
3.03199793470148
20
1.51971297426081
30
0
41
1
10
3.00364674400711
20
1.21032312256096
30
0
41
1
10
2.9956775532288
20
0.96242612306429
30
0
41
1
10
3.0086575899096
20
0.465872636444829
30
0
41
1
10
3.02960777014167
20
0.217216138159927
30
0
41
1
10
3.06987838692493
20
-0.0629543884741111
30
0
41
1
10
3.07459085303179
20
-0.0941222927507965
30
0
41
1
10
3.08445669900303
20
-0.156298917494468
30
0
41
1
10
3.09990892248189
20
-0.24928575307473
30
0
41
1
10
3.14048350468548
20
-0.464333099945634
30
0
41
1
10
3.18283553665196
20
-0.645443821110433
30
0
41
1
10
3.27728596337292
20
-1.00354376303383
30
0
41
1
10
3.35322022792258
20
-1.23679292981583
30
0
41
1
10
3.46367848097427
20
-1.52184806901582
30
0
41
1
10
3.48654939048532
20
-1.5785328793834
30
0
41
1
10
3.53384138690615
20
-1.69125541873746
30
0
41
1
10
3.55827266042331
20
-1.74730708981446
30
0
41
1
10
3.63334237237652
20
-1.9133521922266
30
0
41
1
10
3.68591684275199
20
-2.02163623429683
30
0
41
1
10
3.85077523579415
20
-2.33973454748724
30
0
41
1
10
3.97017442319881
20
-2.54281500757196
30
0
41
1
10
4.22619524245673
20
-2.93295663145847
30
0
41
1
10
4.36282658193585
20
-3.120008526839
30
0
41
1
10
4.54361962928789
20
-3.34467952082787
30
0
41
1
10
4.58027935780027
20
-3.38915554765686
30
0
41
1
10
4.65458503644629
20
-3.47720972198519
30
0
41
1
10
4.69221532395574
20
-3.52076627081758
30
0
41
1
10
4.80598457078185
20
-3.64948397989625
30
0
41
1
10
4.88318581627371
20
-3.73291622493801
30
0
41
1
10
5.11858538770525
20
-3.97662232324615
30
0
41
1
10
5.28057179907933
20
-4.13032339187905
30
0
41
1
10
5.61346253450398
20
-4.42255896539641
30
0
41
1
10
5.78437052480254
20
-4.56108618851911
30
0
41
1
10
6.13413257554055
20
-4.82483724549394
30
0
41
1
10
6.31298843322756
20
-4.95005719658084
30
0
41
1
10
6.58659701587726
20
-5.12906383961936
30
0
41
1
10
6.67868817382995
20
-5.18725996568779
30
0
41
1
10
6.86454997502247
20
-5.30087612286655
30
0
41
1
10
6.95837718795474
20
-5.35632500492051
30
0
41
1
10
7.24105815891824
20
-5.51808447264554
30
0
41
1
10
7.43147350190776
20
-5.62005365167872
30
0
41
1
10
7.81570158596031
20
-5.81381827403422
30
0
41
1
10
8.00951385229001
20
-5.9056123401927
30
0
41
1
10
8.40012704308199
20
-6.08021578523795
30
0
41
1
10
8.59692712507837
20
-6.16302470154963
30
0
41
1
10
8.99324437055054
20
-6.32049934572871
30
0
41
1
10
9.19276064104099
20
-6.39516480417214
30
0
41
1
10
9.59440312900045
20
-6.5368548111382
30
0
41
1
10
9.79652869902802
20
-6.60387876650111
30
0
41
1
10
10
20
-6.66716936516579
30
0
0
SPLINE
5
CD
100
AcDbEntity
8
1
62
256
6
ByLayer
370
18
48
1
60
0
100
AcDbSpline
70
4
71
3
72
14
73
10
40
0
40
0
40
0
40
0
40
0.25
40
0.25
40
0.5
40
0.5
40
0.75
40
0.75
40
1
40
1
40
1
40
1
41
1
10
14.256883591174
20
-8.18377537200752
30
0
41
1
10
13.8890976016488
20
-8.08663575025653
30
0
41
1
10
13.525051033445
20
-7.98201619817678
30
0
41
1
10
12.8033253070597
20
-7.75873389903037
30
0
41
1
10
12.4456402119143
20
-7.64008595972635
30
0
41
1
10
11.7361999586272
20
-7.38857986435227
30
0
41
1
10
11.3844441393363
20
-7.25573030637455
30
0
41
1
10
10.6872235355507
20
-6.97416836083627
30
0
41
1
10
10.341762360687
20
-6.82545859056233
30
0
41
1
10
10
20
-6.66716936516579
30
0
0
SPLINE
5
CE
100
AcDbEntity
8
1
62
256
6
ByLayer
370
18
48
1
60
0
100
AcDbSpline
70
4
71
4
72
16
73
11
40
0
40
0
40
0
40
0
40
0
40
0.285449681871629
40
0.285449681871629
40
0.285449681871629
40
0.714550318128367
40
0.714550318128367
40
0.714550318128367
40
1
40
1
40
1
40
1
40
1
41
0.996439225845415
10
19.7884209477858
20
6.98394799035402
30
0
41
0.994681794973659
10
19.6112311714398
20
6.58813882961475
30
0
41
0.994704652513878
10
19.315632244479
20
5.86142045799572
30
0
41
1
10
18.9167529794241
20
4.83313529760497
30
0
41
1
10
17.8564159398809
20
2.03814776271929
30
0
41
0.988033871712585
10
17.0226522694799
20
-0.212243601847081
30
0
41
1
10
16.188888599079
20
-2.53428694645351
30
0
41
1
10
15.1285515595357
20
-5.55428278772948
30
0
41
0.994704652513878
10
14.7296722944809
20
-6.71348727345061
30
0
41
0.994681794973659
10
14.4340733675201
20
-7.60785991552343
30
0
41
0.996439225845415
10
14.256883591174
20
-8.18377537200757
30
0
0
SPLINE
5
CF
100
AcDbEntity
8
1
62
256
6
ByLayer
370
18
48
1
60
0
100
AcDbSpline
70
4
71
3
72
26
73
22
40
0
40
0
40
0
40
0
40
0.124999999999989
40
0.124999999999989
40
0.249999999999978
40
0.249999999999978
40
0.374999999999967
40
0.374999999999967
40
0.437499999999962
40
0.437499999999962
40
0.468749999999961
40
0.468749999999961
40
0.499999999999961
40
0.499999999999961
40
0.62499999999997
40
0.62499999999997
40
0.74999999999998
40
0.74999999999998
40
0.87499999999999
40
0.87499999999999
40
1
40
1
40
1
40
1
41
1
10
10
20
7.32353726870855
30
0
41
1
10
10.3981104734629
20
7.43477133640545
30
0
41
1
10
10.799812960706
20
7.52609080291151
30
0
41
1
10
11.6098556926622
20
7.67406011482115
30
0
41
1
10
12.0182001324463
20
7.73067883210112
30
0
41
1
10
12.8412280284975
20
7.81212753832605
30
0
41
1
10
13.2559144942322
20
7.83693829749396
30
0
41
1
10
13.8825732572816
20
7.85137715935662
30
0
41
1
10
14.0922317957229
20
7.85238406254965
30
0
41
1
10
14.4078659781006
20
7.84824924834169
30
0
41
1
10
14.5129241381935
20
7.84593351271496
30
0
41
1
10
14.7224808016586
20
7.83948191228941
30
0
41
1
10
14.8270225923999
20
7.83534547562252
30
0
41
1
10
15.3485830234188
20
7.81022743741056
30
0
41
1
10
15.7621581486799
20
7.7759636594233
30
0
41
1
10
16.582788225846
20
7.6816047003993
30
0
41
1
10
16.9898407698333
20
7.62149345834274
30
0
41
1
10
17.7982429870452
20
7.47756812646938
30
0
41
1
10
18.1995931850179
20
7.39374999328527
30
0
41
1
10
18.9974400787671
20
7.2045282507024
30
0
41
1
10
19.3939410907402
20
7.09913796956386
30
0
41
1
10
19.7884209477857
20
6.98394799035407
30
0
0
SPLINE
5
D0
100
AcDbEntity
8
1
62
256
6
ByLayer
370
13
48
1
60
0
100
AcDbSpline
70
4
71
3
72
85
73
81
40
0
40
0
40
0
40
0
40
0.0312499999999994
40
0.0312499999999994
40
0.0624999999999987
40
0.0624999999999987
40
0.0781249999999985
40
0.0781249999999985
40
0.0859374999999984
40
0.0898437499999983
40
0.0898437499999983
40
0.0937499999999983
40
0.0937499999999983
40
0.124999999999998
40
0.124999999999998
40
0.156249999999998
40
0.156249999999998
40
0.187499999999998
40
0.187499999999998
40
0.218749999999997
40
0.218749999999997
40
0.249999999999997
40
0.249999999999997
40
0.281249999999997
40
0.281249999999997
40
0.312499999999997
40
0.312499999999997
40
0.343749999999996
40
0.343749999999996
40
0.374999999999996
40
0.374999999999996
40
0.390624999999996
40
0.390624999999996
40
0.398437499999996
40
0.398437499999996
40
0.406249999999996
40
0.406249999999996
40
0.437499999999996
40
0.437499999999996
40
0.468749999999996
40
0.468749999999996
40
0.499999999999995
40
0.499999999999995
40
0.531249999999995
40
0.531249999999995
40
0.562499999999995
40
0.562499999999995
40
0.593749999999995
40
0.593749999999995
40
0.624999999999995
40
0.624999999999995
40
0.656249999999995
40
0.656249999999995
40
0.687499999999994
40
0.687499999999994
40
0.695312499999994
40
0.695312499999994
40
0.699218749999994
40
0.699218749999994
40
0.703124999999994
40
0.703124999999994
40
0.718749999999995
40
0.718749999999995
40
0.749999999999995
40
0.749999999999995
40
0.781249999999996
40
0.781249999999996
40
0.812499999999996
40
0.812499999999996
40
0.843749999999997
40
0.843749999999997
40
0.874999999999998
40
0.874999999999998
40
0.906249999999998
40
0.906249999999998
40
0.937499999999999
40
0.937499999999999
40
0.968749999999999
40
0.968749999999999
40
1
40
1
40
1
40
1
41
1
10
94.2
20
5.78455160877368
30
0
41
1
10
94.2955805035439
20
5.14367967521258
30
0
41
1
10
94.3911610070878
20
4.48470287650565
30
0
41
1
10
94.5823220141755
20
3.16021543748201
30
0
41
1
10
94.6779025177194
20
2.49480768590868
30
0
41
1
10
94.8212732730352
20
1.51132871908118
30
0
41
1
10
94.8690635248071
20
1.18590095481329
30
0
41
1
10
94.9407489024651
20
0.703363066959952
30
0
41
1
10
94.9765915912941
20
0.463490303448964
30
0
41
1
10
95.0124342801231
20
0.226043743423276
30
0
41
1
10
95.036329406009
20
0.0683189487426148
30
0
41
1
10
95.048276968952
20
-0.0100623059770157
30
0
41
1
10
95.1558050354388
20
-0.718540487816483
30
0
41
1
10
95.2513855389827
20
-1.36717976344741
30
0
41
1
10
95.4425465460704
20
-2.68186616516863
30
0
41
1
10
95.5381270496143
20
-3.3478598846564
30
0
41
1
10
95.729288056702
20
-4.67082634826025
30
0
41
1
10
95.824868560246
20
-5.32769149606332
30
0
41
1
10
96.0160295673338
20
-6.60232228941146
30
0
41
1
10
96.1116100708775
20
-7.21994396845113
30
0
41
1
10
96.3027710779653
20
-8.38622551646202
30
0
41
1
10
96.3983515815092
20
-8.93474301166486
30
0
41
1
10
96.589512588597
20
-9.93762679681063
30
0
41
1
10
96.6850930921408
20
-10.3918954144147
30
0
41
1
10
96.8762540992286
20
-11.1895268265478
30
0
41
1
10
96.9718346027726
20
-11.5328639183155
30
0
41
1
10
97.1629956098602
20
-12.1022444833183
30
0
41
1
10
97.2585761134042
20
-12.328333201069
30
0
41
1
10
97.4497371204919
20
-12.6668713012084
30
0
41
1
10
97.5453176240358
20
-12.7794118488385
30
0
41
1
10
97.6886883793516
20
-12.8716462833128
30
0
41
1
10
97.7364786311235
20
-12.8896805528715
30
0
41
1
10
97.8081640087814
20
-12.8991012843081
30
0
41
1
10
97.8320591346675
20
-12.8993347451039
30
0
41
1
10
97.8798493864393
20
-12.8940196812863
30
0
41
1
10
97.9037445123254
20
-12.888436117908
30
0
41
1
10
98.0232201417551
20
-12.8452680339514
30
0
41
1
10
98.1188006452991
20
-12.7617252325712
30
0
41
1
10
98.3099616523868
20
-12.4836598779005
30
0
41
1
10
98.4055421559307
20
-12.2890395255826
30
0
41
1
10
98.5967031630185
20
-11.7826883970693
30
0
41
1
10
98.6922836665624
20
-11.4708968110752
30
0
41
1
10
98.8834446736502
20
-10.7336192755191
30
0
41
1
10
98.9790251771939
20
-10.3081385139989
30
0
41
1
10
99.1701861842818
20
-9.35737953088878
30
0
41
1
10
99.2657666878256
20
-8.83218111095883
30
0
41
1
10
99.4569276949134
20
-7.70509604299897
30
0
41
1
10
99.5525081984572
20
-7.10334362906576
30
0
41
1
10
99.743669205545
20
-5.85215645669459
30
0
41
1
10
99.8392497090888
20
-5.20286956494778
30
0
41
1
10
100.030410716177
20
-3.88711569698589
30
0
41
1
10
100.12599121972
20
-3.22076889903718
30
0
41
1
10
100.317152226808
20
-1.89872305328345
30
0
41
1
10
100.412732730352
20
-1.24309250556138
30
0
41
1
10
100.532208359782
20
-0.444116290717318
30
0
41
1
10
100.556103485668
20
-0.285333378841614
30
0
41
1
10
100.591946174497
20
-0.0488881070376408
30
0
41
1
10
100.60389373744
20
0.0294692077977459
30
0
41
1
10
100.627788863326
20
0.187004322136573
30
0
41
1
10
100.639736426269
20
0.266061226306334
30
0
41
1
10
100.699474240984
20
0.662707169550799
30
0
41
1
10
100.747264492756
20
0.984396991574386
30
0
41
1
10
100.890635248072
20
1.9589106930724
30
0
41
1
10
100.986215751615
20
2.62135842744072
30
0
41
1
10
101.177376758703
20
3.9474580246646
30
0
41
1
10
101.272957262247
20
4.61102123190682
30
0
41
1
10
101.464118269335
20
5.91022096105377
30
0
41
1
10
101.559698772879
20
6.54572325276584
30
0
41
1
10
101.750859779966
20
7.75834940606811
30
0
41
1
10
101.84644028351
20
8.33532513749347
30
0
41
1
10
102.037601290598
20
9.40350311735264
30
0
41
1
10
102.133181794142
20
9.89458697776308
30
0
41
1
10
102.32434280123
20
10.7708119200044
30
0
41
1
10
102.419923304774
20
11.1558995958447
30
0
41
1
10
102.611084311861
20
11.809883311414
30
0
41
1
10
102.706664815405
20
12.0788006290902
30
0
41
1
10
102.897825822493
20
12.5006062266233
30
0
41
1
10
102.993406326037
20
12.6535727302347
30
0
41
1
10
103.184567333125
20
12.8524681902791
30
0
41
1
10
103.280147836668
20
12.8985
30
0
41
1
10
103.375728340212
20
12.8985
30
0
0
SPLINE
5
D1
100
AcDbEntity
8
1
62
256
6
ByLayer
370
13
48
1
60
0
100
AcDbSpline
70
4
71
3
72
42
73
38
40
0
40
0
40
0
40
0
40
0.0625000000000001
40
0.0625000000000001
40
0.125
40
0.125
40
0.1875
40
0.1875
40
0.250000000000001
40
0.250000000000001
40
0.312500000000001
40
0.312500000000001
40
0.375000000000001
40
0.375000000000001
40
0.437500000000001
40
0.437500000000001
40
0.500000000000001
40
0.500000000000001
40
0.562500000000001
40
0.562500000000001
40
0.625000000000001
40
0.625000000000001
40
0.687500000000002
40
0.687500000000002
40
0.750000000000002
40
0.750000000000002
40
0.812500000000002
40
0.812500000000002
40
0.875000000000002
40
0.875000000000002
40
0.937500000000002
40
0.937500000000002
40
0.953125000000001
40
0.953125000000001
40
0.968750000000001
40
0.968750000000001
40
1
40
1
40
1
40
1
41
1
10
102.400809685845
20
12.8985
30
0
41
1
10
102.461320524334
20
12.8985
30
0
41
1
10
102.521831362824
20
12.8800941972329
30
0
41
1
10
102.642853039801
20
12.8025213690925
30
0
41
1
10
102.70336387829
20
12.7433437109858
30
0
41
1
10
102.824385555268
20
12.5810265734776
30
0
41
1
10
102.884896393758
20
12.4778768680201
30
0
41
1
10
103.005918070735
20
12.2255014401509
30
0
41
1
10
103.066428909224
20
12.076267251845
30
0
41
1
10
103.187450586202
20
11.7309808956024
30
0
41
1
10
103.247961424691
20
11.5349234162189
30
0
41
1
10
103.368983101669
20
11.0968327579717
30
0
41
1
10
103.429493940158
20
10.8547985679697
30
0
41
1
10
103.550515617136
20
10.327279925307
30
0
41
1
10
103.611026455625
20
10.0417993644768
30
0
41
1
10
103.732048132603
20
9.43155505679104
30
0
41
1
10
103.792558971092
20
9.1067999587118
30
0
41
1
10
103.91358064807
20
8.42362583091784
30
0
41
1
10
103.97409148656
20
8.0652192775604
30
0
41
1
10
104.095113163538
20
7.32149245362513
30
0
41
1
10
104.155624002026
20
6.93618693934877
30
0
41
1
10
104.276645679005
20
6.14612837748672
30
0
41
1
10
104.337156517493
20
5.74139052223217
30
0
41
1
10
104.458178194471
20
4.92019290420831
30
0
41
1
10
104.51868903296
20
4.50374700889606
30
0
41
1
10
104.639710709938
20
3.66667585963106
30
0
41
1
10
104.700221548428
20
3.24606179285413
30
0
41
1
10
104.821243225405
20
2.40763316013138
30
0
41
1
10
104.881754063894
20
1.98982633472784
30
0
41
1
10
105.002775740872
20
1.16314103661185
30
0
41
1
10
105.063286579361
20
0.754266701316396
30
0
41
1
10
105.138925127473
20
0.251941876918238
30
0
41
1
10
105.154052837095
20
0.151912679315302
30
0
41
1
10
105.184308256339
20
-0.0472052626345487
30
0
41
1
10
105.199435965962
20
-0.146666067055008
30
0
41
1
10
105.244819094828
20
-0.447130941832029
30
0
41
1
10
105.275074514073
20
-0.649235410253624
30
0
41
1
10
105.305329933317
20
-0.852839012611867
30
0
0
SPLINE
5
D2
100
AcDbEntity
8
1
62
256
6
ByLayer
370
13
48
1
60
0
100
AcDbSpline
70
4
71
3
72
87
73
83
40
0
40
0
40
0
40
0
40
0.0312500000000024
40
0.0312500000000024
40
0.039062500000003
40
0.039062500000003
40
0.0429687500000032
40
0.0429687500000032
40
0.0468750000000035
40
0.0468750000000035
40
0.062500000000004
40
0.062500000000004
40
0.0937500000000047
40
0.0937500000000047
40
0.125000000000005
40
0.125000000000005
40
0.156250000000006
40
0.156250000000006
40
0.187500000000007
40
0.187500000000007
40
0.218750000000008
40
0.218750000000008
40
0.250000000000008
40
0.250000000000008
40
0.281250000000009
40
0.281250000000009
40
0.31250000000001
40
0.31250000000001
40
0.34375000000001
40
0.34375000000001
40
0.359375000000011
40
0.359375000000011
40
0.363281250000011
40
0.363281250000011
40
0.367187500000011
40
0.375000000000011
40
0.375000000000011
40
0.406250000000012
40
0.406250000000012
40
0.437500000000012
40
0.437500000000012
40
0.468750000000013
40
0.468750000000013
40
0.500000000000014
40
0.500000000000014
40
0.531250000000015
40
0.531250000000015
40
0.562500000000015
40
0.562500000000015
40
0.593750000000016
40
0.593750000000016
40
0.625000000000017
40
0.625000000000017
40
0.656250000000018
40
0.656250000000018
40
0.671875000000018
40
0.671875000000018
40
0.679687500000018
40
0.679687500000018
40
0.683593750000018
40
0.683593750000018
40
0.687500000000018
40
0.687500000000018
40
0.718750000000016
40
0.718750000000016
40
0.750000000000015
40
0.750000000000015
40
0.781250000000013
40
0.781250000000013
40
0.812500000000011
40
0.812500000000011
40
0.843750000000009
40
0.843750000000009
40
0.875000000000007
40
0.875000000000007
40
0.906250000000006
40
0.906250000000006
40
0.937500000000004
40
0.937500000000004
40
0.968750000000002
40
0.968750000000002
40
1
40
1
40
1
40
1
41
1
10
94.2
20
2.46646006739712
30
0
41
1
10
94.2905554979492
20
1.84067341978536
30
0
41
1
10
94.3811109958983
20
1.2202330551529
30
0
41
1
10
94.4943053683347
20
0.463050861382698
30
0
41
1
10
94.5169442428221
20
0.312520090384538
30
0
41
1
10
94.5509025545531
20
0.0882623601493435
30
0
41
1
10
94.5622219917967
20
0.0139374734060596
30
0
41
1
10
94.584860866284
20
-0.135092913163902
30
0
41
1
10
94.5961803035275
20
-0.209870822731574
30
0
41
1
10
94.6527774897459
20
-0.585002213362486
30
0
41
1
10
94.6980552387204
20
-0.889094575352118
30
0
41
1
10
94.8338884856441
20
-1.81025647054429
30
0
41
1
10
94.9244439835934
20
-2.43635961162366
30
0
41
1
10
95.1055549794918
20
-3.69227548716222
30
0
41
1
10
95.1961104774408
20
-4.32202513191726
30
0
41
1
10
95.3772214733391
20
-5.56087187418194
30
0
41
1
10
95.4677769712883
20
-6.16987083825831
30
0
41
1
10
95.6488879671866
20
-7.3412707647874
30
0
41
1
10
95.7394434651358
20
-7.90355805932262
30
0
41
1
10
95.9205544610342
20
-8.95727239091244
30
0
41
1
10
96.0111099589833
20
-9.4485995999662
30
0
41
1
10
96.1922209548816
20
-10.3411355710742
30
0
41
1
10
96.2827764528307
20
-10.7422856694133
30
0
41
1
10
96.4638874487291
20
-11.4426877681016
30
0
41
1
10
96.5544429466783
20
-11.7419353378739
30
0
41
1
10
96.7355539425765
20
-12.2352105669169
30
0
41
1
10
96.8261094405258
20
-12.429282203361
30
0
41
1
10
97.0072204364241
20
-12.7167089744966
30
0
41
1
10
97.0977759343732
20
-12.8101369939315
30
0
41
1
10
97.233609181297
20
-12.8826106699644
30
0
41
1
10
97.2788869302715
20
-12.8955298927911
30
0
41
1
10
97.3354841164897
20
-12.8986712026989
30
0
41
1
10
97.3468035537334
20
-12.8986530775686
30
0
41
1
10
97.3694424282207
20
-12.8973228864823
30
0
41
1
10
97.4034007399516
20
-12.8933768023149
30
0
41
1
10
97.4373590516826
20
-12.8834553007415
30
0
41
1
10
97.550553424119
20
-12.8365843935036
30
0
41
1
10
97.6411089220683
20
-12.7547600969132
30
0
41
1
10
97.8222199179665
20
-12.4915444839411
30
0
41
1
10
97.9127754159155
20
-12.3100783689636
30
0
41
1
10
98.093886411814
20
-11.8421809124114
30
0
41
1
10
98.1844419097632
20
-11.5557008739594
30
0
41
1
10
98.3655529056614
20
-10.879990497277
30
0
41
1
10
98.4561084036106
20
-10.4907580436023
30
0
41
1
10
98.6372193995089
20
-9.62020500149066
30
0
41
1
10
98.7277748974581
20
-9.1389368118713
30
0
41
1
10
98.9088858933565
20
-8.10268124369421
30
0
41
1
10
98.9994413913056
20
-7.54778996373113
30
0
41
1
10
99.1805523872039
20
-6.38807608840509
30
0
41
1
10
99.271107885153
20
-5.78336713589925
30
0
41
1
10
99.4522188810513
20
-4.54996727809115
30
0
41
1
10
99.5427743790005
20
-3.9213777116336
30
0
41
1
10
99.7238853748989
20
-2.66499021705835
30
0
41
1
10
99.814440872848
20
-2.0372601810507
30
0
41
1
10
99.9502741197717
20
-1.11200124499615
30
0
41
1
10
99.9955518687462
20
-0.806268483183885
30
0
41
1
10
100.063468492208
20
-0.353299908754622
30
0
41
1
10
100.086107366696
20
-0.203246181357258
30
0
41
1
10
100.120065678426
20
0.0202547197797287
30
0
41
1
10
100.13138511567
20
0.09460141989058
30
0
41
1
10
100.154023990157
20
0.244135579408862
30
0
41
1
10
100.165343427401
20
0.319158489176971
30
0
41
1
10
100.267218362594
20
0.996535064203243
30
0
41
1
10
100.357773860543
20
1.61429975189719
30
0
41
1
10
100.538884856441
20
2.86306846968429
30
0
41
1
10
100.62944035439
20
3.49402713655792
30
0
41
1
10
100.810551350289
20
4.74635838667712
30
0
41
1
10
100.901106848238
20
5.36764668642948
30
0
41
1
10
101.082217844136
20
6.57501940521738
30
0
41
1
10
101.172773342085
20
7.16099372934491
30
0
41
1
10
101.353884337984
20
8.27231009913922
30
0
41
1
10
101.444439835933
20
8.79754242997862
30
0
41
1
10
101.625550831831
20
9.76554405785294
30
0
41
1
10
101.716106329781
20
10.2082339353467
30
0
41
1
10
101.897217325679
20
10.9958675538092
30
0
41
1
10
101.987772823628
20
11.3407826605495
30
0
41
1
10
102.168883819526
20
11.9258166263059
30
0
41
1
10
102.259439317475
20
12.1659600080396
30
0
41
1
10
102.440550313374
20
12.5426857634433
30
0
41
1
10
102.531105811323
20
12.6793311846965
30
0
41
1
10
102.712216807221
20
12.8571988449312
30
0
41
1
10
102.80277230517
20
12.8985
30
0
41
1
10
102.89332780312
20
12.8985
30
0
0
SPLINE
5
D3
100
AcDbEntity
8
1
62
256
6
ByLayer
370
13
48
1
60
0
100
AcDbSpline
70
4
71
3
72
42
73
38
40
0
40
0
40
0
40
0
40
0.0625
40
0.0625
40
0.125
40
0.125
40
0.1875
40
0.1875
40
0.25
40
0.25
40
0.3125
40
0.3125
40
0.375
40
0.375
40
0.4375
40
0.4375
40
0.5
40
0.5
40
0.5625
40
0.5625
40
0.625
40
0.625
40
0.6875
40
0.6875
40
0.75
40
0.75
40
0.8125
40
0.8125
40
0.828125
40
0.828125
40
0.84375
40
0.84375
40
0.875
40
0.875
40
0.9375
40
0.9375
40
1
40
1
40
1
40
1
41
1
10
101.918409148753
20
12.8985
30
0
41
1
10
101.988969998431
20
12.8985
30
0
41
1
10
102.059530848109
20
12.8734591495498
30
0
41
1
10
102.200652547466
20
12.7671199892462
30
0
41
1
10
102.271213397145
20
12.6857987605039
30
0
41
1
10
102.412335096502
20
12.4621993195003
30
0
41
1
10
102.48289594618
20
12.3199000330471
30
0
41
1
10
102.624017645537
20
11.971838032856
30
0
41
1
10
102.694578495215
20
11.7660601464329
30
0
41
1
10
102.835700194572
20
11.2912873832735
30
0
41
1
10
102.906261044251
20
11.0222870303978
30
0
41
1
10
103.047382743608
20
10.4243923249667
30
0
41
1
10
103.117943593286
20
10.0955045451699
30
0
41
1
10
103.259065292643
20
9.3842252596466
30
0
41
1
10
103.329626142321
20
9.00185233295181
30
0
41
1
10
103.470747841678
20
8.19268024016532
30
0
41
1
10
103.541308691357
20
7.7659089654469
30
0
41
1
10
103.682430390713
20
6.87899491381458
30
0
41
1
10
103.752991240392
20
6.41888463738707
30
0
41
1
10
103.894112939749
20
5.47739900397332
30
0
41
1
10
103.964673789427
20
4.99605536247117
30
0
41
1
10
104.105795488784
20
4.02427692698032
30
0
41
1
10
104.176356338462
20
3.53386842924437
30
0
41
1
10
104.317478037819
20
2.55531480605791
30
0
41
1
10
104.388038887498
20
2.06718770529559
30
0
41
1
10
104.529160586855
20
1.10305801366133
30
0
41
1
10
104.599721436533
20
0.627064408874361
30
0
41
1
10
104.687922498631
20
0.044626137777243
30
0
41
1
10
104.705562711051
20
-0.0709699245272191
30
0
41
1
10
104.74084313589
20
-0.304132896655062
30
0
41
1
10
104.75848334831
20
-0.421333061679576
30
0
41
1
10
104.811403985568
20
-0.774620202333409
30
0
41
1
10
104.846684410408
20
-1.0123977177947
30
0
41
1
10
104.952525684925
20
-1.73099154756645
30
0
41
1
10
105.023086534604
20
-2.21712528644213
30
0
41
1
10
105.16420823396
20
-3.19411880847318
30
0
41
1
10
105.234769083639
20
-3.68496266023118
30
0
41
1
10
105.305329933317
20
-4.17264818937284
30
0
0
SPLINE
5
D4
100
AcDbEntity
8
1
62
256
6
ByLayer
370
13
48
1
60
0
100
AcDbSpline
70
4
71
3
72
80
73
76
40
0
40
0
40
0
40
0
40
0.0312500000000001
40
0.0312500000000001
40
0.0625000000000002
40
0.0625000000000002
40
0.0937500000000003
40
0.0937500000000003
40
0.125
40
0.125
40
0.15625
40
0.15625
40
0.187500000000001
40
0.187500000000001
40
0.218750000000001
40
0.218750000000001
40
0.250000000000001
40
0.250000000000001
40
0.281250000000001
40
0.281250000000001
40
0.312500000000001
40
0.312500000000001
40
0.320312500000001
40
0.320312500000001
40
0.328125000000001
40
0.328125000000001
40
0.343750000000001
40
0.343750000000001
40
0.375000000000001
40
0.375000000000001
40
0.406250000000001
40
0.406250000000001
40
0.437500000000001
40
0.437500000000001
40
0.468750000000001
40
0.468750000000001
40
0.500000000000001
40
0.500000000000001
40
0.531250000000001
40
0.531250000000001
40
0.562500000000001
40
0.562500000000001
40
0.593750000000001
40
0.593750000000001
40
0.625000000000002
40
0.625000000000002
40
0.656250000000002
40
0.656250000000002
40
0.660156250000002
40
0.660156250000002
40
0.664062500000001
40
0.664062500000001
40
0.671875000000001
40
0.671875000000001
40
0.687500000000001
40
0.687500000000001
40
0.718750000000001
40
0.718750000000001
40
0.750000000000001
40
0.750000000000001
40
0.781250000000001
40
0.781250000000001
40
0.812500000000001
40
0.812500000000001
40
0.843750000000001
40
0.843750000000001
40
0.875000000000001
40
0.875000000000001
40
0.90625
40
0.90625
40
0.9375
40
0.9375
40
0.96875
40
0.96875
40
1
40
1
40
1
40
1
41
1
10
94.2
20
-0.784809044112023
30
0
41
1
10
94.2855304923545
20
-1.35943187172225
30
0
41
1
10
94.3710609847089
20
-1.94646098212087
30
0
41
1
10
94.5421219694177
20
-3.12929221230021
30
0
41
1
10
94.6276524617722
20
-3.72505537771843
30
0
41
1
10
94.7987134464811
20
-4.90569906089394
30
0
41
1
10
94.8842439388355
20
-5.4905134928575
30
0
41
1
10
95.0553049235444
20
-6.62759678067576
30
0
41
1
10
95.1408354158989
20
-7.17978227463178
30
0
41
1
10
95.3118964006078
20
-8.23022707519158
30
0
41
1
10
95.3974268929623
20
-8.72840370857821
30
0
41
1
10
95.5684878776711
20
-9.65229856159829
30
0
41
1
10
95.6540183700255
20
-10.0779550038937
30
0
41
1
10
95.8250793547344
20
-10.843369022988
30
0
41
1
10
95.9106098470889
20
-11.1831001752974
30
0
41
1
10
96.0816708317977
20
-11.7696849470223
30
0
41
1
10
96.1672013241522
20
-12.016550614103
30
0
41
1
10
96.3382623088611
20
-12.4171034029207
30
0
41
1
10
96.4237928012155
20
-12.5708327932388
30
0
41
1
10
96.5948537859244
20
-12.790633942029
30
0
41
1
10
96.6803842782789
20
-12.8567634736684
30
0
41
1
10
96.7872973937219
20
-12.8907532275922
30
0
41
1
10
96.8086800168105
20
-12.8951254512036
30
0
41
1
10
96.8514452629878
20
-12.8991973580269
30
0
41
1
10
96.8728278860765
20
-12.8989228212297
30
0
41
1
10
96.9369757553422
20
-12.8911180019032
30
0
41
1
10
96.9797410015195
20
-12.876520722201
30
0
41
1
10
97.1080367400511
20
-12.8024701482496
30
0
41
1
10
97.1935672324055
20
-12.7126320784706
30
0
41
1
10
97.3646282171144
20
-12.4433562107822
30
0
41
1
10
97.4501587094689
20
-12.2638633868029
30
0
41
1
10
97.6212196941777
20
-11.811212977748
30
0
41
1
10
97.7067501865322
20
-11.5380202649099
30
0
41
1
10
97.8778111712411
20
-10.9000300627558
30
0
41
1
10
97.9633416635955
20
-10.5352309033574
30
0
41
1
10
98.1344026483043
20
-9.72281230620922
30
0
41
1
10
98.2199331406589
20
-9.2752300537127
30
0
41
1
10
98.3909941253677
20
-8.3122317255031
30
0
41
1
10
98.4765246177222
20
-7.79688512874739
30
0
41
1
10
98.647585602431
20
-6.71790918437344
30
0
41
1
10
98.7331160947856
20
-6.1543647902931
30
0
41
1
10
98.9041770794944
20
-5.0007199717349
30
0
41
1
10
98.9897075718488
20
-4.41069960401757
30
0
41
1
10
99.1607685565577
20
-3.22545163890695
30
0
41
1
10
99.2462990489122
20
-2.63028309894204
30
0
41
1
10
99.417360033621
20
-1.4535675077118
30
0
41
1
10
99.5028905259755
20
-0.872051357414136
30
0
41
1
10
99.5991123298743
20
-0.233911815122411
30
0
41
1
10
99.6098036414186
20
-0.163227823633775
30
0
41
1
10
99.6311862645072
20
-0.0223249558317491
30
0
41
1
10
99.6418775760515
20
0.047809026601243
30
0
41
1
10
99.6739515106844
20
0.259331321169384
30
0
41
1
10
99.695334133773
20
0.401271192451787
30
0
41
1
10
99.7594820030389
20
0.829566097947435
30
0
41
1
10
99.8022472492161
20
1.11840479076551
30
0
41
1
10
99.9305429877477
20
1.99214350702454
30
0
41
1
10
100.016073480102
20
2.58438145236229
30
0
41
1
10
100.187134464811
20
3.770905376282
30
0
41
1
10
100.272664957165
20
4.36514211625774
30
0
41
1
10
100.443725941874
20
5.53506000297551
30
0
41
1
10
100.529256434229
20
6.11066721121773
30
0
41
1
10
100.700317418938
20
7.22147487775314
30
0
41
1
10
100.785847911292
20
7.75658987034194
30
0
41
1
10
100.956908896001
20
8.76576544129142
30
0
41
1
10
101.042439388356
20
9.23974867187064
30
0
41
1
10
101.213500373064
20
10.109738344984
30
0
41
1
10
101.299030865419
20
10.5056945900775
30
0
41
1
10
101.470091850128
20
11.2084155280231
30
0
41
1
10
101.555622342482
20
11.5151679374688
30
0
41
1
10
101.726683327191
20
12.0349422412673
30
0
41
1
10
101.812213819545
20
12.2479884859448
30
0
41
1
10
101.983274804254
20
12.5822899080406
30
0
41
1
10
102.068805296609
20
12.7035947625586
30
0
41
1
10
102.239866281318
20
12.8616700256904
30
0
41
1
10
102.325396773672
20
12.8985
30
0
41
1
10
102.410927266027
20
12.8985
30
0
0
SPLINE
5
D5
100
AcDbEntity
8
1
62
256
6
ByLayer
370
13
48
1
60
0
100
AcDbSpline
70
4
71
3
72
42
73
38
40
0
40
0
40
0
40
0
40
0.0625
40
0.0625
40
0.125
40
0.125
40
0.1875
40
0.1875
40
0.25
40
0.25
40
0.3125
40
0.3125
40
0.375
40
0.375
40
0.4375
40
0.4375
40
0.5
40
0.5
40
0.5625
40
0.5625
40
0.625
40
0.625
40
0.6875
40
0.6875
40
0.703125
40
0.703125
40
0.71875
40
0.71875
40
0.75
40
0.75
40
0.8125
40
0.8125
40
0.875
40
0.875
40
0.9375
40
0.9375
40
1
40
1
40
1
40
1
41
1
10
101.43600861166
20
12.8985
30
0
41
1
10
101.516619472527
20
12.8985
30
0
41
1
10
101.597230333396
20
12.8657968115578
30
0
41
1
10
101.758452055131
20
12.7259112863028
30
0
41
1
10
101.839062915999
20
12.6186845144462
30
0
41
1
10
102.000284637735
20
12.3233486273921
30
0
41
1
10
102.080895498603
20
12.1352010679472
30
0
41
1
10
102.242117220338
20
11.675653484301
30
0
41
1
10
102.322728081206
20
11.4042313006194
30
0
41
1
10
102.483949802942
20
10.7807464316065
30
0
41
1
10
102.56456066381
20
10.4286861875061
30
0
41
1
10
102.725782385546
20
9.65184338809718
30
0
41
1
10
102.806393246413
20
9.22709052525119
30
0
41
1
10
102.967614968149
20
8.31760816919362
30
0
41
1
10
103.048225829017
20
7.83293068816042
30
0
41
1
10
103.209447550753
20
6.81992016731829
30
0
41
1
10
103.290058411621
20
6.29165020709684
30
0
41
1
10
103.451280133356
20
5.20957663183773
30
0
41
1
10
103.531890994224
20
4.65583361515456
30
0
41
1
10
103.69311271596
20
3.5408290404975
30
0
41
1
10
103.773723576828
20
2.97961443920545
30
0
41
1
10
103.934945298564
20
1.8659224557569
30
0
41
1
10
104.015556159431
20
1.31347264933859
30
0
41
1
10
104.116319735516
20
0.636722270934968
30
0
41
1
10
104.136472450733
20
0.502054831769328
30
0
41
1
10
104.176777881167
20
0.234260537100454
30
0
41
1
10
104.196930596384
20
0.101367476956284
30
0
41
1
10
104.257388742035
20
-0.296254430131626
30
0
41
1
10
104.297694172469
20
-0.564698235423236
30
0
41
1
10
104.418610463771
20
-1.3780692151251
30
0
41
1
10
104.499221324639
20
-1.93113549544185
30
0
41
1
10
104.660443046374
20
-3.04547352939218
30
0
41
1
10
104.741053907242
20
-3.60671691390195
30
0
41
1
10
104.902275628978
20
-4.72109767406894
30
0
41
1
10
104.982886489846
20
-5.27418740987017
30
0
41
1
10
105.144108211582
20
-6.35423429794079
30
0
41
1
10
105.22471907245
20
-6.88113051567996
30
0
41
1
10
105.305329933317
20
-7.38591856528396
30
0
0
SPLINE
5
D6
100
AcDbEntity
8
1
62
256
6
ByLayer
370
13
48
1
60
0
100
AcDbSpline
70
4
71
3
72
76
73
72
40
0
40
0
40
0
40
0
40
0.0312499999999999
40
0.0312499999999999
40
0.0624999999999999
40
0.0624999999999999
40
0.0937499999999998
40
0.0937499999999998
40
0.125
40
0.125
40
0.15625
40
0.15625
40
0.1875
40
0.1875
40
0.21875
40
0.21875
40
0.25
40
0.25
40
0.28125
40
0.28125
40
0.2890625
40
0.2890625
40
0.296875
40
0.296875
40
0.3125
40
0.3125
40
0.34375
40
0.34375
40
0.374999999999999
40
0.374999999999999
40
0.406249999999999
40
0.406249999999999
40
0.437499999999999
40
0.437499999999999
40
0.468749999999999
40
0.468749999999999
40
0.499999999999999
40
0.499999999999999
40
0.531249999999999
40
0.531249999999999
40
0.562499999999999
40
0.562499999999999
40
0.593749999999999
40
0.593749999999999
40
0.625
40
0.625
40
0.640625
40
0.640625
40
0.65625
40
0.65625
40
0.6875
40
0.6875
40
0.71875
40
0.71875
40
0.75
40
0.75
40
0.78125
40
0.78125
40
0.8125
40
0.8125
40
0.84375
40
0.84375
40
0.875
40
0.875
40
0.90625
40
0.90625
40
0.9375
40
0.9375
40
0.96875
40
0.96875
40
1
40
1
40
1
40
1
41
1
10
94.2
20
-4.10269855447035
30
0
41
1
10
94.2805054867597
20
-4.65945216181012
30
0
41
1
10
94.3610109735195
20
-5.21243360462512
30
0
41
1
10
94.5220219470389
20
-6.29302629886527
30
0
41
1
10
94.6025274337986
20
-6.82057733416875
30
0
41
1
10
94.763538407318
20
-7.83226392675994
30
0
41
1
10
94.8440438940779
20
-8.31633681392663
30
0
41
1
10
95.0050548675973
20
-9.22478634722557
30
0
41
1
10
95.085560354357
20
-9.6491112960608
30
0
41
1
10
95.2465713278764
20
-10.4253165261759
30
0
41
1
10
95.3270768146362
20
-10.7771672401817
30
0
41
1
10
95.4880877881556
20
-11.4004657346257
30
0
41
1
10
95.5685932749153
20
-11.6719109843185
30
0
41
1
10
95.7296042484348
20
-12.131723791452
30
0
41
1
10
95.8101097351945
20
-12.3201132551762
30
0
41
1
10
95.971120708714
20
-12.6161158268933
30
0
41
1
10
96.0516261954738
20
-12.7237670572184
30
0
41
1
10
96.2126371689932
20
-12.8646345525983
30
0
41
1
10
96.2931426557529
20
-12.8978949552115
30
0
41
1
10
96.3937745142026
20
-12.898641006684
30
0
41
1
10
96.4139008858925
20
-12.8967588858115
30
0
41
1
10
96.4541536292724
20
-12.8887805252095
30
0
41
1
10
96.4742800009623
20
-12.8826840423018
30
0
41
1
10
96.5346591160321
20
-12.8578538616765
30
0
41
1
10
96.5749118594119
20
-12.8325746206908
30
0
41
1
10
96.6956700895516
20
-12.7289611979461
30
0
41
1
10
96.7761755763112
20
-12.6227411913423
30
0
41
1
10
96.9371865498308
20
-12.3296849376767
30
0
41
1
10
97.0176920365905
20
-12.1428103661286
30
0
41
1
10
97.1787030101099
20
-11.6860275877022
30
0
41
1
10
97.2592084968695
20
-11.4160970913226
30
0
41
1
10
97.420219470389
20
-10.7957322972341
30
0
41
1
10
97.5007249571488
20
-10.445300037231
30
0
41
1
10
97.6617359306683
20
-9.67174092459771
30
0
41
1
10
97.7422414174279
20
-9.24864316468791
30
0
41
1
10
97.9032523909474
20
-8.34237834908254
30
0
41
1
10
97.9837578777072
20
-7.85926267115605
30
0
41
1
10
98.1447688512267
20
-6.84917049909211
30
0
41
1
10
98.2252743379863
20
-6.32225659520387
30
0
41
1
10
98.3862853115057
20
-5.242602604479
30
0
41
1
10
98.4667907982655
20
-4.68992289159203
30
0
41
1
10
98.627801771785
20
-3.57670153044447
30
0
41
1
10
98.7083072585447
20
-3.01620689661721
30
0
41
1
10
98.8693182320641
20
-1.90359945965267
30
0
41
1
10
98.9498237188239
20
-1.35151449914082
30
0
41
1
10
99.0705819489634
20
-0.539711018041885
30
0
41
1
10
99.1108346923434
20
-0.271805686291401
30
0
41
1
10
99.1913401791031
20
0.257259925760451
30
0
41
1
10
99.2315929224829
20
0.524931308699166
30
0
41
1
10
99.3523511526225
20
1.33643853519601
30
0
41
1
10
99.4328566393823
20
1.88837964882586
30
0
41
1
10
99.5938676129017
20
3.00083596012607
30
0
41
1
10
99.6743730996615
20
3.56132349914321
30
0
41
1
10
99.8353840731809
20
4.67468923133578
30
0
41
1
10
99.9158895599406
20
5.22752056867301
30
0
41
1
10
100.07690053346
20
6.30764543568063
30
0
41
1
10
100.15740602022
20
6.83487866983779
30
0
41
1
10
100.318416993739
20
7.84576950600297
30
0
41
1
10
100.398922480499
20
8.32936447724438
30
0
41
1
10
100.559933454018
20
9.23672287825011
30
0
41
1
10
100.640438940778
20
9.66043476999954
30
0
41
1
10
100.801449914298
20
10.4353178117893
30
0
41
1
10
100.881955401057
20
10.7864596316247
30
0
41
1
10
101.042966374577
20
11.4082917166955
30
0
41
1
10
101.123471861336
20
11.6789796978248
30
0
41
1
10
101.284482834856
20
12.1372774957868
30
0
41
1
10
101.364988321616
20
12.3249094108726
30
0
41
1
10
101.525999295135
20
12.6194384480432
30
0
41
1
10
101.606504781895
20
12.7263737939783
30
0
41
1
10
101.767515755414
20
12.865882495995
30
0
41
1
10
101.848021242174
20
12.8985
30
0
41
1
10
101.928526728934
20
12.8985
30
0
0
SPLINE
5
D7
100
AcDbEntity
8
1
62
256
6
ByLayer
370
13
48
1
60
0
100
AcDbSpline
70
4
71
3
72
44
73
40
40
0
40
0
40
0
40
0
40
0.0624999999999987
40
0.0624999999999987
40
0.124999999999997
40
0.124999999999997
40
0.187499999999996
40
0.187499999999996
40
0.249999999999995
40
0.249999999999995
40
0.312499999999993
40
0.312499999999993
40
0.374999999999992
40
0.374999999999992
40
0.43749999999999
40
0.43749999999999
40
0.499999999999989
40
0.499999999999989
40
0.562499999999987
40
0.562499999999987
40
0.624999999999985
40
0.624999999999985
40
0.632812499999986
40
0.632812499999986
40
0.640624999999986
40
0.640624999999986
40
0.656249999999986
40
0.656249999999986
40
0.687499999999987
40
0.687499999999987
40
0.74999999999999
40
0.74999999999999
40
0.812499999999992
40
0.812499999999992
40
0.874999999999995
40
0.874999999999995
40
0.937499999999997
40
0.937499999999997
40
1
40
1
40
1
40
1
41
1
10
100.953608074567
20
12.8985
30
0
41
1
10
101.044268946624
20
12.8985
30
0
41
1
10
101.134929818681
20
12.8571023096573
30
0
41
1
10
101.316251562796
20
12.6788064118089
30
0
41
1
10
101.406912434853
20
12.5418288357083
30
0
41
1
10
101.588234178968
20
12.1641850215508
30
0
41
1
10
101.678895051025
20
11.9234554355574
30
0
41
1
10
101.86021679514
20
11.3370131191473
30
0
41
1
10
101.950877667197
20
10.9912758936797
30
0
41
1
10
102.132199411312
20
10.2018210103521
30
0
41
1
10
102.222860283369
20
9.75813241207084
30
0
41
1
10
102.404182027484
20
8.78804965280796
30
0
41
1
10
102.494842899541
20
8.26173562411398
30
0
41
1
10
102.676164643656
20
7.14828225010649
30
0
41
1
10
102.766825515713
20
6.56125336628392
30
0
41
1
10
102.948147259827
20
5.35190179303737
30
0
41
1
10
103.038808131885
20
4.72968971899195
30
0
41
1
10
103.220129875999
20
3.47571891015517
30
0
41
1
10
103.310790748057
20
2.84404462130442
30
0
41
1
10
103.492112492171
20
1.59409363267218
30
0
41
1
10
103.582773364229
20
0.975862135255767
30
0
41
1
10
103.684766845293
20
0.29810297178571
30
0
41
1
10
103.6960994543
20
0.223039511820474
30
0
41
1
10
103.718764672315
20
0.0734281468368465
30
0
41
1
10
103.730097281322
20
-0.0009417681590378
30
0
41
1
10
103.764095108343
20
-0.224853139123127
30
0
41
1
10
103.786760326357
20
-0.375177602668685
30
0
41
1
10
103.8547559804
20
-0.828946854639753
30
0
41
1
10
103.900086416429
20
-1.1351980612275
30
0
41
1
10
104.036077724515
20
-2.06194243774129
30
0
41
1
10
104.126738596572
20
-2.69056958831339
30
0
41
1
10
104.308060340687
20
-3.94843003418245
30
0
41
1
10
104.398721212744
20
-4.57759449227819
30
0
41
1
10
104.580042956859
20
-5.81169753505327
30
0
41
1
10
104.670703828916
20
-6.41653381277507
30
0
41
1
10
104.852025573031
20
-7.57597122272486
30
0
41
1
10
104.942686445088
20
-8.13045809101033
30
0
41
1
10
105.124008189203
20
-9.16535529903024
30
0
41
1
10
105.21466906126
20
-9.64566955547915
30
0
41
1
10
105.305329933317
20
-10.0797462205548
30
0
0
SPLINE
5
D8
100
AcDbEntity
8
1
62
256
6
ByLayer
370
13
48
1
60
0
100
AcDbSpline
70
4
71
3
72
78
73
74
40
0
40
0
40
0
40
0
40
0.03125
40
0.03125
40
0.0625000000000001
40
0.0625000000000001
40
0.0937500000000001
40
0.0937500000000001
40
0.125
40
0.125
40
0.15625
40
0.15625
40
0.1875
40
0.1875
40
0.21875
40
0.21875
40
0.2265625
40
0.2265625
40
0.234375
40
0.234375
40
0.25
40
0.25
40
0.28125
40
0.28125
40
0.3125
40
0.3125
40
0.34375
40
0.34375
40
0.375
40
0.375
40
0.40625
40
0.40625
40
0.4375
40
0.4375
40
0.46875
40
0.46875
40
0.5
40
0.5
40
0.53125
40
0.53125
40
0.5625
40
0.5625
40
0.59375
40
0.59375
40
0.609375
40
0.609375
40
0.6171875
40
0.6171875
40
0.625
40
0.625
40
0.65625
40
0.65625
40
0.6875
40
0.6875
40
0.71875
40
0.71875
40
0.75
40
0.75
40
0.78125
40
0.78125
40
0.8125
40
0.8125
40
0.84375
40
0.84375
40
0.875
40
0.875
40
0.90625
40
0.90625
40
0.9375
40
0.9375
40
0.96875
40
0.96875
40
1
40
1
40
1
40
1
41
1
10
94.2
20
-7.32244670506668
30
0
41
1
10
94.2754804811651
20
-7.796822505709
30
0
41
1
10
94.3509609623301
20
-8.25209349296213
30
0
41
1
10
94.5019219246601
20
-9.11103194246752
30
0
41
1
10
94.577402405825
20
-9.51466110133768
30
0
41
1
10
94.7283633681551
20
-10.2594826781283
30
0
41
1
10
94.8038438493201
20
-10.6006512942106
30
0
41
1
10
94.9548048116501
20
-11.2133277669082
30
0
41
1
10
95.0302852928152
20
-11.4848300619677
30
0
41
1
10
95.1812462551451
20
-11.9550098515376
30
0
41
1
10
95.2567267363101
20
-12.1536992239589
30
0
41
1
10
95.4076876986402
20
-12.4790470264129
30
0
41
1
10
95.4831681798051
20
-12.605730207652
30
0
41
1
10
95.6341291421352
20
-12.7912474410764
30
0
41
1
10
95.7096096233001
20
-12.8501127150731
30
0
41
1
10
95.8039602247565
20
-12.8854789656216
30
0
41
1
10
95.8228303450477
20
-12.8906462596796
30
0
41
1
10
95.8605705856302
20
-12.8972900046089
30
0
41
1
10
95.8794407059214
20
-12.8987673453723
30
0
41
1
10
95.9360510667952
20
-12.8978471212589
30
0
41
1
10
95.9737913073777
20
-12.8900579631102
30
0
41
1
10
96.0870120291252
20
-12.8436899446907
30
0
41
1
10
96.1624925102902
20
-12.7820426759967
30
0
41
1
10
96.3134534726203
20
-12.5907235510589
30
0
41
1
10
96.3889339537852
20
-12.461020615892
30
0
41
1
10
96.5398949161152
20
-12.1295236275541
30
0
41
1
10
96.6153753972803
20
-11.9277052486727
30
0
41
1
10
96.7663363596103
20
-11.4513179294123
30
0
41
1
10
96.8418168407753
20
-11.1767377855829
30
0
41
1
10
96.9927778031053
20
-10.558131473658
30
0
41
1
10
97.0682582842703
20
-10.2141116639289
30
0
41
1
10
97.2192192466003
20
-9.46398150048674
30
0
41
1
10
97.2946997277654
20
-9.05789567781673
30
0
41
1
10
97.4456606900955
20
-8.19457454999898
30
0
41
1
10
97.5211411712605
20
-7.73737802406603
30
0
41
1
10
97.6721021335904
20
-6.78539299608539
30
0
41
1
10
97.7475826147555
20
-6.290650079138
30
0
41
1
10
97.8985435770854
20
-5.27844941532044
30
0
41
1
10
97.9740240582504
20
-4.76103546593694
30
0
41
1
10
98.1249850205804
20
-3.71831558443654
30
0
41
1
10
98.2004655017456
20
-3.19304452980089
30
0
41
1
10
98.3514264640756
20
-2.14817353704501
30
0
41
1
10
98.4269069452405
20
-1.62859560740765
30
0
41
1
10
98.540127666988
20
-0.862060595101013
30
0
41
1
10
98.5778679075704
20
-0.60866898243745
30
0
41
1
10
98.6344782684442
20
-0.232652316987554
30
0
41
1
10
98.6533483887356
20
-0.108109313295273
30
0
41
1
10
98.6910886293181
20
0.139980606608077
30
0
41
1
10
98.7099587496093
20
0.264763695287257
30
0
41
1
10
98.8043093510655
20
0.892035336095205
30
0
41
1
10
98.8797898322305
20
1.40469362589886
30
0
41
1
10
99.0307507945606
20
2.44148931185572
30
0
41
1
10
99.1062312757256
20
2.96561120977469
30
0
41
1
10
99.2571922380556
20
4.01273171410276
30
0
41
1
10
99.3326727192206
20
4.5357013332065
30
0
41
1
10
99.4836336815506
20
5.56618752476453
30
0
41
1
10
99.5591141627157
20
6.07366385007228
30
0
41
1
10
99.7100751250457
20
7.05815711705944
30
0
41
1
10
99.7855556062107
20
7.53512829149392
30
0
41
1
10
99.9365165685407
20
8.44424410853321
30
0
41
1
10
100.011997049706
20
8.87634565083255
30
0
41
1
10
100.162958012036
20
9.68336054209175
30
0
41
1
10
100.238438493201
20
10.0582417914821
30
0
41
1
10
100.389399455531
20
10.7416191337246
30
0
41
1
10
100.464879936696
20
11.0500999655114
30
0
41
1
10
100.615840899026
20
11.5953738047783
30
0
41
1
10
100.691321380191
20
11.8321699644445
30
0
41
1
10
100.842282342521
20
12.2328494109986
30
0
41
1
10
100.917762823686
20
12.396751471282
30
0
41
1
10
101.068723786016
20
12.6541518935082
30
0
41
1
10
101.144204267181
20
12.7476789310959
30
0
41
1
10
101.295165229511
20
12.8698369548367
30
0
41
1
10
101.370645710676
20
12.8985
30
0
41
1
10
101.446126191841
20
12.8985
30
0
0
SPLINE
5
D9
100
AcDbEntity
8
1
62
256
6
ByLayer
370
13
48
1
60
0
100
AcDbSpline
70
4
71
3
72
58
73
54
40
0
40
0
40
0
40
0
40
0.0625000000000002
40
0.0625000000000002
40
0.125000000000001
40
0.125000000000001
40
0.187500000000001
40
0.187500000000001
40
0.218750000000001
40
0.218750000000001
40
0.250000000000001
40
0.250000000000001
40
0.281250000000001
40
0.281250000000001
40
0.312500000000001
40
0.312500000000001
40
0.343750000000001
40
0.343750000000001
40
0.375000000000001
40
0.375000000000001
40
0.437500000000001
40
0.437500000000001
40
0.500000000000001
40
0.500000000000001
40
0.562500000000002
40
0.562500000000002
40
0.570312500000002
40
0.570312500000002
40
0.578125000000002
40
0.578125000000002
40
0.593750000000002
40
0.593750000000002
40
0.625000000000001
40
0.625000000000001
40
0.687500000000001
40
0.687500000000001
40
0.75
40
0.75
40
0.78125
40
0.78125
40
0.8125
40
0.8125
40
0.84375
40
0.84375
40
0.875
40
0.875
40
0.90625
40
0.90625
40
0.9375
40
0.9375
40
0.96875
40
0.96875
40
1
40
1
40
1
40
1
41
1
10
100.471207537474
20
12.8985
30
0
41
1
10
100.571918420721
20
12.8985
30
0
41
1
10
100.672629303967
20
12.8473697783498
30
0
41
1
10
100.874051070461
20
12.6257215107431
30
0
41
1
10
100.974761953708
20
12.4550707126915
30
0
41
1
10
101.176183720201
20
11.9845015998876
30
0
41
1
10
101.276894603448
20
11.6844879872222
30
0
41
1
10
101.427960928318
20
11.1384349396185
30
0
41
1
10
101.478316369941
20
10.9405080464918
30
0
41
1
10
101.579027253188
20
10.5142045508033
30
0
41
1
10
101.629382694811
20
10.2858291545352
30
0
41
1
10
101.730093578058
20
9.80079251676671
30
0
41
1
10
101.780449019682
20
9.5441341070179
30
0
41
1
10
101.881159902928
20
9.00543054513912
30
0
41
1
10
101.931515344552
20
8.72338966402643
30
0
41
1
10
102.032226227798
20
8.13744805499618
30
0
41
1
10
102.082581669422
20
7.83355268506614
30
0
41
1
10
102.183292552669
20
7.20791083255185
30
0
41
1
10
102.233647994292
20
6.88617032566017
30
0
41
1
10
102.384714319162
20
5.90065011227327
30
0
41
1
10
102.485425202409
20
5.21661553198075
30
0
41
1
10
102.686846968902
20
3.82983962411629
30
0
41
1
10
102.787557852149
20
3.12725359225436
30
0
41
1
10
102.988979618642
20
1.73575566818587
30
0
41
1
10
103.089690501889
20
1.04692804626387
30
0
41
1
10
103.202990245542
20
0.293947046385398
30
0
41
1
10
103.215579105948
20
0.210582163599355
30
0
41
1
10
103.240756826759
20
0.0444918766464184
30
0
41
1
10
103.253345687165
20
-0.038060606942679
30
0
41
1
10
103.291112268383
20
-0.287146355820994
30
0
41
1
10
103.316289989194
20
-0.4544855328202
30
0
41
1
10
103.391823151629
20
-0.959855765655504
30
0
41
1
10
103.442178593253
20
-1.30125543878208
30
0
41
1
10
103.593244918123
20
-2.3343814192807
30
0
41
1
10
103.69395580137
20
-3.03523948475393
30
0
41
1
10
103.895377567863
20
-4.43139817079413
30
0
41
1
10
103.99608845111
20
-5.12656823916004
30
0
41
1
10
104.14715477598
20
-6.13896671956815
30
0
41
1
10
104.197510217603
20
-6.47134725080082
30
0
41
1
10
104.29822110085
20
-7.12151760751124
30
0
41
1
10
104.348576542473
20
-7.43930133383867
30
0
41
1
10
104.44928742572
20
-8.05601776309416
30
0
41
1
10
104.499642867343
20
-8.35494459369093
30
0
41
1
10
104.60035375059
20
-8.93003927504509
30
0
41
1
10
104.650709192214
20
-9.20620199270996
30
0
41
1
10
104.75142007546
20
-9.73237991025053
30
0
41
1
10
104.801775517084
20
-9.98239116288264
30
0
41
1
10
104.90248640033
20
-10.4535348842234
30
0
41
1
10
104.952841841954
20
-10.674664906875
30
0
41
1
10
105.053552725201
20
-11.0860691546913
30
0
41
1
10
105.103908166824
20
-11.2763425765877
30
0
41
1
10
105.204619050071
20
-11.6248599779188
30
0
41
1
10
105.254974491694
20
-11.7831047538357
30
0
41
1
10
105.305329933317
20
-11.9251495514099
30
0
0
SPLINE
5
DA
100
AcDbEntity
8
1
62
256
6
ByLayer
370
13
48
1
60
0
100
AcDbSpline
70
4
71
3
72
78
73
74
40
0
40
0
40
0
40
0
40
0.0312499999999998
40
0.0312499999999998
40
0.0624999999999996
40
0.0624999999999996
40
0.0937499999999994
40
0.0937499999999994
40
0.124999999999999
40
0.124999999999999
40
0.156249999999999
40
0.156249999999999
40
0.171874999999999
40
0.171874999999999
40
0.179687499999999
40
0.179687499999999
40
0.187499999999999
40
0.187499999999999
40
0.218749999999999
40
0.218749999999999
40
0.249999999999999
40
0.249999999999999
40
0.281249999999999
40
0.281249999999999
40
0.312499999999999
40
0.312499999999999
40
0.343749999999999
40
0.343749999999999
40
0.375
40
0.375
40
0.40625
40
0.40625
40
0.4375
40
0.4375
40
0.46875
40
0.46875
40
0.5
40
0.5
40
0.53125
40
0.53125
40
0.5625
40
0.5625
40
0.578125
40
0.578125
40
0.5859375
40
0.5859375
40
0.59375
40
0.59375
40
0.625
40
0.625
40
0.65625
40
0.65625
40
0.6875
40
0.6875
40
0.71875
40
0.71875
40
0.75
40
0.75
40
0.78125
40
0.78125
40
0.8125
40
0.8125
40
0.84375
40
0.84375
40
0.875
40
0.875
40
0.90625
40
0.90625
40
0.9375
40
0.9375
40
0.96875
40
0.96875
40
1
40
1
40
1
40
1
41
1
10
94.2
20
-10.0311137306267
30
0
41
1
10
94.2704554755703
20
-10.3710972557082
30
0
41
1
10
94.3409109511406
20
-10.6833745431928
30
0
41
1
10
94.4818219022811
20
-11.2469881772687
30
0
41
1
10
94.5522773778515
20
-11.4983214265994
30
0
41
1
10
94.6931883289921
20
-11.9375775748304
30
0
41
1
10
94.7636438045624
20
-12.1255088800583
30
0
41
1
10
94.904554755703
20
-12.4384966559633
30
0
41
1
10
94.9750102312732
20
-12.5635702012176
30
0
41
1
10
95.1159211824138
20
-12.7539880481797
30
0
41
1
10
95.1863766579841
20
-12.8193541517983
30
0
41
1
10
95.2920598713396
20
-12.8764738958092
30
0
41
1
10
95.3272876091247
20
-12.8887058151891
30
0
41
1
10
95.3801292158024
20
-12.897421577273
30
0
41
1
10
95.397743084695
20
-12.8987226921167
30
0
41
1
10
95.4329708224801
20
-12.8982154775302
30
0
41
1
10
95.4505846913728
20
-12.8963999942841
30
0
41
1
10
95.5386540358356
20
-12.8792578060278
30
0
41
1
10
95.6091095114059
20
-12.8396856519237
30
0
41
1
10
95.7500204625464
20
-12.7030169303413
30
0
41
1
10
95.8204759381167
20
-12.6058977363731
30
0
41
1
10
95.9613868892573
20
-12.3499776813143
30
0
41
1
10
96.0318423648276
20
-12.1911570625594
30
0
41
1
10
96.1727533159682
20
-11.8100216821869
30
0
41
1
10
96.2432087915385
20
-11.5876940857266
30
0
41
1
10
96.3841197426791
20
-11.0805817489275
30
0
41
1
10
96.4545752182494
20
-10.7957945873536
30
0
41
1
10
96.5954861693899
20
-10.167890881818
30
0
41
1
10
96.6659416449602
20
-9.82478410330046
30
0
41
1
10
96.8068525961008
20
-9.08735423551911
30
0
41
1
10
96.877308071671
20
-8.69305235631387
30
0
41
1
10
97.0182190228117
20
-7.86286051618015
30
0
41
1
10
97.0886744983819
20
-7.42699992914484
30
0
41
1
10
97.2295854495225
20
-6.52506033832324
30
0
41
1
10
97.3000409250928
20
-6.05901389854051
30
0
41
1
10
97.4409518762334
20
-5.10886426372554
30
0
41
1
10
97.5114073518037
20
-4.62479154951083
30
0
41
1
10
97.6523183029443
20
-3.65057724032238
30
0
41
1
10
97.7227737785146
20
-3.1604598387697
30
0
41
1
10
97.8636847296551
20
-2.18513528024749
30
0
41
1
10
97.9341402052255
20
-1.69994373354882
30
0
41
1
10
98.0398234185809
20
-0.982863850281149
30
0
41
1
10
98.075051156366
20
-0.745607782534961
30
0
41
1
10
98.1278927630437
20
-0.393120834479873
30
0
41
1
10
98.1455066319363
20
-0.276190408095459
30
0
41
1
10
98.1807343697215
20
-0.0435717911159941
30
0
41
1
10
98.1983482386141
20
0.0718529284997089
30
0
41
1
10
98.286417583077
20
0.653902414724314
30
0
41
1
10
98.3568730586472
20
1.12948737729104
30
0
41
1
10
98.4977840097878
20
2.09260303539028
30
0
41
1
10
98.5682394853581
20
2.58012465535805
30
0
41
1
10
98.7091504364987
20
3.55728488564077
30
0
41
1
10
98.779605912069
20
4.04690545884469
30
0
41
1
10
98.9205168632095
20
5.01695769392813
30
0
41
1
10
98.9909723387798
20
5.49736314861283
30
0
41
1
10
99.1318832899204
20
6.4368708269869
30
0
41
1
10
99.2023387654907
20
6.89594152655684
30
0
41
1
10
99.3432497166312
20
7.78073607115718
30
0
41
1
10
99.4137051922015
20
8.20642767979911
30
0
41
1
10
99.5546161433421
20
9.01346679656123
30
0
41
1
10
99.6250716189124
20
9.39478669524354
30
0
41
1
10
99.765982570053
20
10.1040500497448
30
0
41
1
10
99.8364380456233
20
10.4319751630848
30
0
41
1
10
99.9773489967639
20
11.0280874686259
30
0
41
1
10
100.047804472334
20
11.2962682294757
30
0
41
1
10
100.188715423475
20
11.769580748605
30
0
41
1
10
100.259170899045
20
11.9747180090169
30
0
41
1
10
100.400081850186
20
12.3216943454391
30
0
41
1
10
100.470537325756
20
12.4635485170002
30
0
41
1
10
100.611448276896
20
12.686451448651
30
0
41
1
10
100.681903752467
20
12.7675211379447
30
0
41
1
10
100.822814703607
20
12.8735340392554
30
0
41
1
10
100.893270179178
20
12.8985
30
0
41
1
10
100.963725654748
20
12.8985
30
0
0
SPLINE
5
DB
100
AcDbEntity
8
1
62
256
6
ByLayer
370
13
48
1
60
0
100
AcDbSpline
70
4
71
3
72
74
73
70
40
0
40
0
40
0
40
0
40
0.03125
40
0.03125
40
0.0624999999999999
40
0.0624999999999999
40
0.0937499999999999
40
0.0937499999999999
40
0.125
40
0.125
40
0.15625
40
0.15625
40
0.1875
40
0.1875
40
0.21875
40
0.21875
40
0.25
40
0.25
40
0.28125
40
0.28125
40
0.3125
40
0.3125
40
0.34375
40
0.34375
40
0.375
40
0.375
40
0.40625
40
0.40625
40
0.4375
40
0.4375
40
0.46875
40
0.46875
40
0.5
40
0.5
40
0.515625
40
0.515625
40
0.5234375
40
0.5234375
40
0.53125
40
0.53125
40
0.5625
40
0.5625
40
0.59375
40
0.59375
40
0.625
40
0.625
40
0.65625
40
0.65625
40
0.6875
40
0.6875
40
0.71875
40
0.71875
40
0.75
40
0.75
40
0.78125
40
0.78125
40
0.8125
40
0.8125
40
0.84375
40
0.84375
40
0.875
40
0.875
40
0.90625
40
0.90625
40
0.9375
40
0.9375
40
0.96875
40
0.96875
40
1
40
1
40
1
40
1
41
1
10
99.988807000381
20
12.8985
30
0
41
1
10
100.044187447599
20
12.8985
30
0
41
1
10
100.099567894817
20
12.8830865464925
30
0
41
1
10
100.210328789253
20
12.8183843170382
30
0
41
1
10
100.265709236471
20
12.7690887215523
30
0
41
1
10
100.376470130908
20
12.6340816028645
30
0
41
1
10
100.431850578126
20
12.5483634042793
30
0
41
1
10
100.542611472562
20
12.3386959047091
30
0
41
1
10
100.59799191978
20
12.2147407861808
30
0
41
1
10
100.708752814216
20
11.9276999856103
30
0
41
1
10
100.764133261434
20
11.764610105039
30
0
41
1
10
100.87489415587
20
11.3994692392198
30
0
41
1
10
100.930274603089
20
11.1974163582794
30
0
41
1
10
101.041035497525
20
10.7556818112422
30
0
41
1
10
101.096415944743
20
10.5160010207916
30
0
41
1
10
101.207176839179
20
10.0015226902931
30
0
41
1
10
101.262557286397
20
9.72672893398507
30
0
41
1
10
101.373318180833
20
9.145646700654
30
0
41
1
10
101.428698628051
20
8.83936466123339
30
0
41
1
10
101.539459522488
20
8.19988318528115
30
0
41
1
10
101.594839969706
20
7.86669221616245
30
0
41
1
10
101.705600864142
20
7.17869916446787
30
0
41
1
10
101.76098131136
20
6.82390668702945
30
0
41
1
10
101.871742205796
20
6.09847110033817
30
0
41
1
10
101.927122653014
20
5.72783773145176
30
0
41
1
10
102.03788354745
20
4.97664092031178
30
0
41
1
10
102.093263994668
20
4.59608641274644
30
0
41
1
10
102.204024889105
20
3.8308442923211
30
0
41
1
10
102.259405336323
20
3.44616407240355
30
0
41
1
10
102.370166230759
20
2.67809635973424
30
0
41
1
10
102.425546677977
20
2.29471427129312
30
0
41
1
10
102.536307572413
20
1.53410410438409
30
0
41
1
10
102.591688019631
20
1.15687930000144
30
0
41
1
10
102.674758690458
20
0.598782309721685
30
0
41
1
10
102.702448914067
20
0.41403429423255
30
0
41
1
10
102.743984249481
20
0.139175727490652
30
0
41
1
10
102.757829361285
20
0.0481247208807076
30
0
41
1
10
102.785519584894
20
-0.134056919231284
30
0
41
1
10
102.799364696699
20
-0.225542463740482
30
0
41
1
10
102.868590255722
20
-0.68481233542073
30
0
41
1
10
102.92397070294
20
-1.0581528361532
30
0
41
1
10
103.034731597376
20
-1.81283804284445
30
0
41
1
10
103.090112044594
20
-2.19418034847516
30
0
41
1
10
103.20087293903
20
-2.96029274714763
30
0
41
1
10
103.256253386248
20
-3.34505833283711
30
0
41
1
10
103.367014280684
20
-4.11281344992292
30
0
41
1
10
103.422394727902
20
-4.49579638976422
30
0
41
1
10
103.533155622339
20
-5.25432179167066
30
0
41
1
10
103.588536069557
20
-5.62985589444361
30
0
41
1
10
103.699296963993
20
-6.36758442349193
30
0
41
1
10
103.754677411211
20
-6.72976934327451
30
0
41
1
10
103.865438305647
20
-7.43493622925553
30
0
41
1
10
103.920818752865
20
-7.77790841089677
30
0
41
1
10
104.031579647301
20
-8.43911542221656
30
0
41
1
10
104.086960094519
20
-8.75734118602577
30
0
41
1
10
104.197720988956
20
-9.3641365419054
30
0
41
1
10
104.253101436174
20
-9.65269874648644
30
0
41
1
10
104.36386233061
20
-10.1961141713274
30
0
41
1
10
104.419242777828
20
-10.4509624359053
30
0
41
1
10
104.530003672264
20
-10.9239509942207
30
0
41
1
10
104.585384119482
20
-11.1420891816553
30
0
41
1
10
104.696145013918
20
-11.5398196221322
30
0
41
1
10
104.751525461136
20
-11.7194126433424
30
0
41
1
10
104.862286355573
20
-12.0393956048862
30
0
41
1
10
104.917666802791
20
-12.1797888475027
30
0
41
1
10
105.028427697227
20
-12.4218332248845
30
0
41
1
10
105.083808144445
20
-12.5234895865096
30
0
41
1
10
105.194569038881
20
-12.6895087810875
30
0
41
1
10
105.249949486099
20
-12.7538780202238
30
0
41
1
10
105.305329933317
20
-12.8007298527762
30
0
0
SPLINE
5
DC
100
AcDbEntity
8
1
62
256
6
ByLayer
370
13
48
1
60
0
100
AcDbSpline
70
4
71
3
72
78
73
74
40
0
40
0
40
0
40
0
40
0.0312499999999991
40
0.0312499999999991
40
0.0624999999999981
40
0.0624999999999981
40
0.0937499999999972
40
0.0937499999999972
40
0.109374999999997
40
0.109374999999997
40
0.117187499999996
40
0.117187499999996
40
0.124999999999996
40
0.124999999999996
40
0.156249999999996
40
0.156249999999996
40
0.187499999999996
40
0.187499999999996
40
0.218749999999995
40
0.218749999999995
40
0.249999999999995
40
0.249999999999995
40
0.281249999999994
40
0.281249999999994
40
0.312499999999994
40
0.312499999999994
40
0.343749999999994
40
0.343749999999994
40
0.374999999999993
40
0.374999999999993
40
0.406249999999993
40
0.406249999999993
40
0.437499999999993
40
0.437499999999993
40
0.468749999999993
40
0.468749999999993
40
0.499999999999992
40
0.499999999999992
40
0.531249999999992
40
0.531249999999992
40
0.546874999999992
40
0.546874999999992
40
0.554687499999992
40
0.554687499999992
40
0.562499999999992
40
0.562499999999992
40
0.593749999999992
40
0.593749999999992
40
0.624999999999993
40
0.624999999999993
40
0.656249999999993
40
0.656249999999993
40
0.687499999999994
40
0.687499999999994
40
0.718749999999994
40
0.718749999999994
40
0.749999999999995
40
0.749999999999995
40
0.781249999999996
40
0.781249999999996
40
0.812499999999996
40
0.812499999999996
40
0.843749999999997
40
0.843749999999997
40
0.874999999999998
40
0.874999999999998
40
0.906249999999998
40
0.906249999999998
40
0.937499999999999
40
0.937499999999999
40
0.968749999999999
40
0.968749999999999
40
1
40
1
40
1
40
1
41
1
10
94.2
20
-11.8963918838652
30
0
41
1
10
94.2654304699756
20
-12.0837749080771
30
0
41
1
10
94.3308609399512
20
-12.2437760300855
30
0
41
1
10
94.4617218799024
20
-12.5099801502669
30
0
41
1
10
94.527152349878
20
-12.6161958872663
30
0
41
1
10
94.6580132898291
20
-12.7776668668967
30
0
41
1
10
94.7234437598047
20
-12.8329374194237
30
0
41
1
10
94.821589464768
20
-12.8808207295444
30
0
41
1
10
94.8543046997557
20
-12.8909543990979
30
0
41
1
10
94.9033775522374
20
-12.8978825608769
30
0
41
1
10
94.9197351697314
20
-12.8988152676344
30
0
41
1
10
94.9524504047191
20
-12.8979995533401
30
0
41
1
10
94.968808022213
20
-12.8962420265344
30
0
41
1
10
95.0505961096825
20
-12.8805016615469
30
0
41
1
10
95.1160265796581
20
-12.8456232686553
30
0
41
1
10
95.2468875196092
20
-12.7265993654465
30
0
41
1
10
95.3123179895848
20
-12.6424381685975
30
0
41
1
10
95.443178929536
20
-12.4213462525212
30
0
41
1
10
95.5086093995116
20
-12.284401404939
30
0
41
1
10
95.6394703394627
20
-11.9559185138931
30
0
41
1
10
95.7049008094382
20
-11.7643703189763
30
0
41
1
10
95.8357617493893
20
-11.3269095180633
30
0
41
1
10
95.901192219365
20
-11.0809929629349
30
0
41
1
10
96.0320531593161
20
-10.5372963807334
30
0
41
1
10
96.0974836292917
20
-10.2395200326776
30
0
41
1
10
96.2283445692428
20
-9.5968854962251
30
0
41
1
10
96.2937750392184
20
-9.25203874501275
30
0
41
1
10
96.4246359791695
20
-8.52209806344126
30
0
41
1
10
96.4900664491452
20
-8.13702198704402
30
0
41
1
10
96.6209273890962
20
-7.33506436585304
30
0
41
1
10
96.6863578590718
20
-6.91820453161077
30
0
41
1
10
96.817218799023
20
-6.06212377968754
30
0
41
1
10
96.8826492689985
20
-5.62292526470429
30
0
41
1
10
97.0135102089498
20
-4.7319399586203
30
0
41
1
10
97.0789406789253
20
-4.28017325138754
30
0
41
1
10
97.2098016188764
20
-3.37350424228782
30
0
41
1
10
97.275232088852
20
-2.91861748421888
30
0
41
1
10
97.4060930288032
20
-2.01429881338873
30
0
41
1
10
97.4715234987788
20
-1.56487680182283
30
0
41
1
10
97.5696692037421
20
-0.900342405911175
30
0
41
1
10
97.6023844387298
20
-0.68042007516317
30
0
41
1
10
97.6514572912116
20
-0.353506257364671
30
0
41
1
10
97.6678149087055
20
-0.245029207448027
30
0
41
1
10
97.7005301436933
20
-0.0291524494079169
30
0
41
1
10
97.7168877611871
20
0.0780726927627882
30
0
41
1
10
97.7986758486566
20
0.618575147538678
30
0
41
1
10
97.8641063186321
20
1.05954917959409
30
0
41
1
10
97.9949672585832
20
1.95233659665121
30
0
41
1
10
98.0603977285589
20
2.40414415486828
30
0
41
1
10
98.1912586685099
20
3.31087852042876
30
0
41
1
10
98.2566891384856
20
3.76579375716199
30
0
41
1
10
98.3875500784367
20
4.6698687519841
30
0
41
1
10
98.4529805484123
20
5.11901149462068
30
0
41
1
10
98.5838414883635
20
6.00194317923666
30
0
41
1
10
98.6492719583391
20
6.43571109812768
30
0
41
1
10
98.7801328982902
20
7.27814855736318
30
0
41
1
10
98.8455633682657
20
7.68679556488837
30
0
41
1
10
98.9764243082169
20
8.46976434356603
30
0
41
1
10
99.0418547781925
20
8.84406520248072
30
0
41
1
10
99.1727157181437
20
9.55029673773532
30
0
41
1
10
99.2381461881192
20
9.88221118939927
30
0
41
1
10
99.3690071280704
20
10.4973754470155
30
0
41
1
10
99.4344375980459
20
10.7806159753612
30
0
41
1
10
99.5652985379969
20
11.2942786558149
30
0
41
1
10
99.6307290079727
20
11.5246994018981
30
0
41
1
10
99.7615899479238
20
11.9308719613874
30
0
41
1
10
99.8270204178993
20
12.1066297018845
30
0
41
1
10
99.9578813578505
20
12.403857634847
30
0
41
1
10
100.023311827826
20
12.5253393714767
30
0
41
1
10
100.154172767777
20
12.7163589847853
30
0
41
1
10
100.219603237753
20
12.785911680331
30
0
41
1
10
100.350464177704
20
12.8769743268552
30
0
41
1
10
100.41589464768
20
12.8985
30
0
41
1
10
100.481325117655
20
12.8985
30
0
0
SPLINE
5
DD
100
AcDbEntity
8
1
62
256
6
ByLayer
370
13
48
1
60
0
100
AcDbSpline
70
4
71
3
72
78
73
74
40
0
40
0
40
0
40
0
40
0.0312500000000004
40
0.0312500000000004
40
0.0625000000000008
40
0.0625000000000008
40
0.0937500000000011
40
0.0937500000000011
40
0.125000000000001
40
0.125000000000001
40
0.156250000000002
40
0.156250000000002
40
0.187500000000002
40
0.187500000000002
40
0.218750000000003
40
0.218750000000003
40
0.250000000000003
40
0.250000000000003
40
0.281250000000004
40
0.281250000000004
40
0.312500000000004
40
0.312500000000004
40
0.343750000000004
40
0.343750000000004
40
0.375000000000005
40
0.375000000000005
40
0.406250000000005
40
0.406250000000005
40
0.437500000000005
40
0.437500000000005
40
0.468750000000006
40
0.468750000000006
40
0.476562500000006
40
0.476562500000006
40
0.484375000000006
40
0.484375000000006
40
0.500000000000005
40
0.500000000000005
40
0.531250000000005
40
0.531250000000005
40
0.562500000000005
40
0.562500000000005
40
0.593750000000004
40
0.593750000000004
40
0.625000000000004
40
0.625000000000004
40
0.656250000000004
40
0.656250000000004
40
0.687500000000004
40
0.687500000000004
40
0.718750000000003
40
0.718750000000003
40
0.750000000000003
40
0.750000000000003
40
0.781250000000003
40
0.781250000000003
40
0.812500000000002
40
0.812500000000002
40
0.843750000000002
40
0.843750000000002
40
0.875000000000002
40
0.875000000000002
40
0.906250000000002
40
0.906250000000002
40
0.937500000000001
40
0.937500000000001
40
0.953125000000001
40
0.953125000000001
40
0.960937500000001
40
0.960937500000001
40
0.968750000000001
40
0.968750000000001
40
1
40
1
40
1
40
1
41
1
10
99.5064064632882
20
12.8985
30
0
41
1
10
99.5668119161011
20
12.8985
30
0
41
1
10
99.6272173689138
20
12.8801583453727
30
0
41
1
10
99.7480282745394
20
12.802862153064
30
0
41
1
10
99.8084337273522
20
12.7438970750785
30
0
41
1
10
99.9292446329778
20
12.5821677614494
30
0
41
1
10
99.9896500857906
20
12.4793933846267
30
0
41
1
10
100.110460991416
20
12.2279369923606
30
0
41
1
10
100.170866444229
20
12.0792465714647
30
0
41
1
10
100.291677349855
20
11.7352109865716
30
0
41
1
10
100.352082802667
20
11.5398605308481
30
0
41
1
10
100.472893708293
20
11.1033298950904
30
0
41
1
10
100.533299161106
20
10.8621486719203
30
0
41
1
10
100.654110066732
20
10.3364527060766
30
0
41
1
10
100.714515519544
20
10.0519417700511
30
0
41
1
10
100.83532642517
20
9.44371401536097
30
0
41
1
10
100.895731877983
20
9.12000571714219
30
0
41
1
10
101.016542783608
20
8.43895609791346
30
0
41
1
10
101.076948236421
20
8.08162710181705
30
0
41
1
10
101.197759142047
20
7.34003723445409
30
0
41
1
10
101.258164594859
20
6.95579097014198
30
0
41
1
10
101.378975500485
20
6.16778562322753
30
0
41
1
10
101.439380953298
20
5.76404160958575
30
0
41
1
10
101.560191858924
20
4.94472538195276
30
0
41
1
10
101.620597311736
20
4.52916695476739
30
0
41
1
10
101.741408217362
20
3.69373267695539
30
0
41
1
10
101.801813670175
20
3.27386798203307
30
0
41
1
10
101.9226245758
20
2.43677918899229
30
0
41
1
10
101.983030028613
20
2.01956284549905
30
0
41
1
10
102.103840934239
20
1.19388993893767
30
0
41
1
10
102.164246387052
20
0.785437562055876
30
0
41
1
10
102.239753203067
20
0.283535148422175
30
0
41
1
10
102.254854566271
20
0.183585203564576
30
0
41
1
10
102.285057292677
20
-0.0153845994276196
30
0
41
1
10
102.30015865588
20
-0.114509219892256
30
0
41
1
10
102.34546274549
20
-0.414159900109496
30
0
41
1
10
102.375665471896
20
-0.615730239450812
30
0
41
1
10
102.466273651116
20
-1.22497489006443
30
0
41
1
10
102.526679103928
20
-1.63721497047058
30
0
41
1
10
102.647490009554
20
-2.4683796235451
30
0
41
1
10
102.707895462367
20
-2.88729874456854
30
0
41
1
10
102.828706367992
20
-3.72538208468717
30
0
41
1
10
102.889111820805
20
-4.14453727898174
30
0
41
1
10
103.009922726431
20
-4.97590450423624
30
0
41
1
10
103.070328179244
20
-5.38810431429269
30
0
41
1
10
103.191139084869
20
-6.19794439876375
30
0
41
1
10
103.251544537682
20
-6.59557024485426
30
0
41
1
10
103.372355443308
20
-7.36862211163916
30
0
41
1
10
103.43276089612
20
-7.74403301673999
30
0
41
1
10
103.553571801746
20
-8.46544031935568
30
0
41
1
10
103.613977254559
20
-8.8114227271889
30
0
41
1
10
103.734788160184
20
-9.46762774492467
30
0
41
1
10
103.795193612997
20
-9.77783924668816
30
0
41
1
10
103.916004518623
20
-10.3574096320475
30
0
41
1
10
103.976409971436
20
-10.6267616212829
30
0
41
1
10
104.097220877061
20
-11.1210473039287
30
0
41
1
10
104.157626329874
20
-11.3459789568787
30
0
41
1
10
104.2784372355
20
-11.7495212102517
30
0
41
1
10
104.338842688312
20
-11.9281344813455
30
0
41
1
10
104.459653593938
20
-12.2387893969756
30
0
41
1
10
104.520059046751
20
-12.3708376005943
30
0
41
1
10
104.640869952377
20
-12.5896217874734
30
0
41
1
10
104.701275405189
20
-12.6763669611002
30
0
41
1
10
104.822086310815
20
-12.8070730561358
30
0
41
1
10
104.882491763628
20
-12.851044406159
30
0
41
1
10
104.973099942847
20
-12.8875358530489
30
0
41
1
10
105.003302669254
20
-12.8947953016676
30
0
41
1
10
105.048606758863
20
-12.8987028898882
30
0
41
1
10
105.063708122066
20
-12.8988491416684
30
0
41
1
10
105.093910848473
20
-12.8968415723996
30
0
41
1
10
105.109012211676
20
-12.8946786330566
30
0
41
1
10
105.184519027692
20
-12.877908501675
30
0
41
1
10
105.244924480505
20
-12.845407729933
30
0
41
1
10
105.305329933317
20
-12.7919765066237
30
0
0
SPLINE
5
DE
100
AcDbEntity
8
1
62
256
6
ByLayer
370
13
48
1
60
0
100
AcDbSpline
70
4
71
3
72
78
73
74
40
0
40
0
40
0
40
0
40
0.0312499999999994
40
0.0312499999999994
40
0.0390624999999994
40
0.0390624999999994
40
0.0468749999999994
40
0.0468749999999994
40
0.0624999999999997
40
0.0624999999999997
40
0.0937500000000004
40
0.0937500000000004
40
0.125000000000001
40
0.125000000000001
40
0.156250000000002
40
0.156250000000002
40
0.187500000000002
40
0.187500000000002
40
0.218750000000003
40
0.218750000000003
40
0.250000000000004
40
0.250000000000004
40
0.281250000000005
40
0.281250000000005
40
0.312500000000005
40
0.312500000000005
40
0.343750000000006
40
0.343750000000006
40
0.375000000000006
40
0.375000000000006
40
0.406250000000007
40
0.406250000000007
40
0.437500000000008
40
0.437500000000008
40
0.468750000000008
40
0.468750000000008
40
0.500000000000009
40
0.500000000000009
40
0.515625000000009
40
0.515625000000009
40
0.523437500000009
40
0.523437500000009
40
0.531250000000009
40
0.531250000000009
40
0.562500000000008
40
0.562500000000008
40
0.593750000000008
40
0.593750000000008
40
0.625000000000007
40
0.625000000000007
40
0.656250000000007
40
0.656250000000007
40
0.687500000000006
40
0.687500000000006
40
0.718750000000005
40
0.718750000000005
40
0.750000000000005
40
0.750000000000005
40
0.781250000000004
40
0.781250000000004
40
0.812500000000004
40
0.812500000000004
40
0.843750000000003
40
0.843750000000003
40
0.875000000000002
40
0.875000000000002
40
0.906250000000002
40
0.906250000000002
40
0.937500000000001
40
0.937500000000001
40
0.96875
40
0.96875
40
1
40
1
40
1
40
1
41
1
10
94.2
20
-12.7919755243071
30
0
41
1
10
94.2604054643809
20
-12.8454070139981
30
0
41
1
10
94.3208109287618
20
-12.8779080339012
30
0
41
1
10
94.3963177592378
20
-12.8946784513194
30
0
41
1
10
94.4114191253331
20
-12.8968414466674
30
0
41
1
10
94.4416218575234
20
-12.8988491255299
30
0
41
1
10
94.4567232236187
20
-12.8987029270768
30
0
41
1
10
94.5020273219044
20
-12.8947955011735
30
0
41
1
10
94.5322300540947
20
-12.8875361620068
30
0
41
1
10
94.622838250666
20
-12.8510450461418
30
0
41
1
10
94.6832437150468
20
-12.8070739203963
30
0
41
1
10
94.8040546438086
20
-12.6763682745413
30
0
41
1
10
94.8644601081894
20
-12.5896233258041
30
0
41
1
10
94.9852710369511
20
-12.370839581746
30
0
41
1
10
95.045676501332
20
-12.2387915960394
30
0
41
1
10
95.1664874300936
20
-11.9281371011715
30
0
41
1
10
95.2268928944745
20
-11.7495240329044
30
0
41
1
10
95.3477038232363
20
-11.3459821621455
30
0
41
1
10
95.4081092876172
20
-11.1210506889585
30
0
41
1
10
95.5289202163789
20
-10.6267653356782
30
0
41
1
10
95.5893256807597
20
-10.3574134960239
30
0
41
1
10
95.7101366095216
20
-9.77784337410716
30
0
41
1
10
95.7705420739023
20
-9.46763198619038
30
0
41
1
10
95.891353002664
20
-8.81142715699156
30
0
41
1
10
95.9517584670449
20
-8.46544482384314
30
0
41
1
10
96.0725693958066
20
-7.74403763043907
30
0
41
1
10
96.1329748601874
20
-7.36862675986975
30
0
41
1
10
96.253785788949
20
-6.59557492343538
30
0
41
1
10
96.31419125333
20
-6.19794907317748
30
0
41
1
10
96.4350021820917
20
-5.3881089452687
30
0
41
1
10
96.4954076464726
20
-4.9759090959615
30
0
41
1
10
96.6162185752343
20
-4.14454176236484
30
0
41
1
10
96.6766240396151
20
-3.72538649900071
30
0
41
1
10
96.7974349683768
20
-2.88730299718012
30
0
41
1
10
96.8578404327577
20
-2.46838378354494
30
0
41
1
10
96.9786513615194
20
-1.63721892832649
30
0
41
1
10
97.0390568259003
20
-1.22497873840501
30
0
41
1
10
97.1296650224715
20
-0.615733915654886
30
0
41
1
10
97.1598677546619
20
-0.414163517620949
30
0
41
1
10
97.2051718529476
20
-0.114512747953626
30
0
41
1
10
97.2202732190428
20
-0.0153880941398654
30
0
41
1
10
97.2504759512333
20
0.183581725234319
30
0
41
1
10
97.2655773173285
20
0.283531678851688
30
0
41
1
10
97.3410841478046
20
0.785434139153011
30
0
41
1
10
97.4014896121855
20
1.1938865625882
30
0
41
1
10
97.5223005409471
20
2.01955958072759
30
0
41
1
10
97.582706005328
20
2.43677598925075
30
0
41
1
10
97.7035169340896
20
3.2738649297568
30
0
41
1
10
97.7639223984705
20
3.69372970711595
30
0
41
1
10
97.8847333272322
20
4.52916416491999
30
0
41
1
10
97.9451387916131
20
4.94472268965708
30
0
41
1
10
98.0659497203749
20
5.76403912402995
30
0
41
1
10
98.1263551847557
20
6.16778324685095
30
0
41
1
10
98.2471661135174
20
6.95578881926812
30
0
41
1
10
98.3075715778982
20
7.3400351998902
30
0
41
1
10
98.4283825066599
20
8.08162530185521
30
0
41
1
10
98.4887879710409
20
8.43895441622735
30
0
41
1
10
98.6095988998026
20
9.12000426861377
30
0
41
1
10
98.6700043641834
20
9.44371268169795
30
0
41
1
10
98.7908152929452
20
10.0519406576398
30
0
41
1
10
98.851220757326
20
10.3364517000377
30
0
41
1
10
98.9720316860877
20
10.8621478658213
30
0
41
1
10
99.0324371504685
20
11.1033291825496
30
0
41
1
10
99.1532480792303
20
11.5398599894103
30
0
41
1
10
99.213653543611
20
11.7352105226751
30
0
41
1
10
99.3344644723728
20
12.0792462447395
30
0
41
1
10
99.3948699367536
20
12.2279367252678
30
0
41
1
10
99.5156808655153
20
12.4793932183191
30
0
41
1
10
99.5760863298962
20
12.5821676363013
30
0
41
1
10
99.6968972586579
20
12.743897014393
30
0
41
1
10
99.7573027230388
20
12.8028621156911
30
0
41
1
10
99.8781136518005
20
12.8801583383375
30
0
41
1
10
99.9385191161813
20
12.8985
30
0
41
1
10
99.9989245805622
20
12.8985
30
0
0
SPLINE
5
DF
100
AcDbEntity
8
1
62
256
6
ByLayer
370
13
48
1
60
0
100
AcDbSpline
70
4
71
3
72
77
73
73
40
0
40
0
40
0
40
0
40
0.0312499999999998
40
0.0312499999999998
40
0.0624999999999995
40
0.0624999999999995
40
0.0937499999999993
40
0.0937499999999993
40
0.124999999999999
40
0.124999999999999
40
0.156249999999999
40
0.156249999999999
40
0.187499999999998
40
0.187499999999998
40
0.218749999999998
40
0.218749999999998
40
0.249999999999998
40
0.249999999999998
40
0.281249999999998
40
0.281249999999998
40
0.312499999999998
40
0.312499999999998
40
0.343749999999997
40
0.343749999999997
40
0.374999999999997
40
0.374999999999997
40
0.406249999999997
40
0.406249999999997
40
0.437499999999997
40
0.437499999999997
40
0.445312499999997
40
0.445312499999997
40
0.453124999999997
40
0.468749999999997
40
0.468749999999997
40
0.499999999999997
40
0.499999999999997
40
0.531249999999997
40
0.531249999999997
40
0.562499999999996
40
0.562499999999996
40
0.593749999999996
40
0.593749999999996
40
0.624999999999996
40
0.624999999999996
40
0.656249999999996
40
0.656249999999996
40
0.687499999999996
40
0.687499999999996
40
0.718749999999996
40
0.718749999999996
40
0.749999999999996
40
0.749999999999996
40
0.781249999999996
40
0.781249999999996
40
0.812499999999995
40
0.812499999999995
40
0.843749999999995
40
0.843749999999995
40
0.874999999999995
40
0.874999999999995
40
0.882812499999995
40
0.882812499999995
40
0.890624999999995
40
0.890624999999995
40
0.906249999999996
40
0.906249999999996
40
0.937499999999997
40
0.937499999999997
40
0.968749999999999
40
0.968749999999999
40
1
40
1
40
1
40
1
41
1
10
99.0240059261953
20
12.8985
30
0
41
1
10
99.0894363846029
20
12.8985
30
0
41
1
10
99.1548668430104
20
12.8769743344799
30
0
41
1
10
99.2857277598254
20
12.7859117210057
30
0
41
1
10
99.3511582182329
20
12.7163590508991
30
0
41
1
10
99.4820191350479
20
12.5253395079954
30
0
41
1
10
99.5474495934554
20
12.4038578163438
30
0
41
1
10
99.6783105102705
20
12.1066299933345
30
0
41
1
10
99.743740968678
20
11.9308723178205
30
0
41
1
10
99.8746018854931
20
11.5246999071966
30
0
41
1
10
99.9400323439006
20
11.2942792449962
30
0
41
1
10
100.070893260716
20
10.7806167484067
30
0
41
1
10
100.136323719123
20
10.4973763200342
30
0
41
1
10
100.267184635938
20
9.88221227406984
30
0
41
1
10
100.332615094346
20
9.55029793406837
30
0
41
1
10
100.463476011161
20
8.84406662823136
30
0
41
1
10
100.528906469568
20
8.46976588704999
30
0
41
1
10
100.659767386383
20
7.68679734368138
30
0
41
1
10
100.725197844791
20
7.27815045370889
30
0
41
1
10
100.856058761606
20
6.43571322322194
30
0
41
1
10
100.921489220013
20
6.0019454155069
30
0
41
1
10
101.052350136828
20
5.1190139413975
30
0
41
1
10
101.117780595236
20
4.66987129807814
30
0
41
1
10
101.248641512051
20
3.76579648577774
30
0
41
1
10
101.314071970459
20
3.31088133224358
30
0
41
1
10
101.444932887274
20
2.40414711420871
30
0
41
1
10
101.510363345681
20
1.95233962032026
30
0
41
1
10
101.641224262496
20
1.05955231184348
30
0
41
1
10
101.706654720904
20
0.618578324047462
30
0
41
1
10
101.788442793913
20
0.0780759121715846
30
0
41
1
10
101.804800408515
20
-0.0291492160797588
30
0
41
1
10
101.837515637719
20
-0.24502591424897
30
0
41
1
10
101.886588481524
20
-0.570455527512195
30
0
41
1
10
101.93566132533
20
-0.900338937217384
30
0
41
1
10
102.033807012941
20
-1.56487316519014
30
0
41
1
10
102.099237471349
20
-2.01429507131226
30
0
41
1
10
102.230098388164
20
-2.91861355192231
30
0
41
1
10
102.295528846571
20
-3.37350022524007
30
0
41
1
10
102.426389763386
20
-4.28016909322128
30
0
41
1
10
102.491820221794
20
-4.7319357441163
30
0
41
1
10
102.622681138609
20
-5.62292097283378
30
0
41
1
10
102.688111597017
20
-6.06211946681748
30
0
41
1
10
102.818972513832
20
-6.91820021728208
30
0
41
1
10
102.884402972239
20
-7.33506007108807
30
0
41
1
10
103.015263889054
20
-8.13701777468216
30
0
41
1
10
103.080694347462
20
-8.52209391392969
30
0
41
1
10
103.211555264277
20
-9.25203476419037
30
0
41
1
10
103.276985722684
20
-9.59688162123766
30
0
41
1
10
103.407846639499
20
-10.2395164089249
30
0
41
1
10
103.473277097907
20
-10.5372929023623
30
0
41
1
10
103.604138014722
20
-11.0809898086719
30
0
41
1
10
103.669568473129
20
-11.3269065424979
30
0
41
1
10
103.800429389944
20
-11.7643677258645
30
0
41
1
10
103.865859848352
20
-11.9559161245037
30
0
41
1
10
103.996720765167
20
-12.284399438663
30
0
41
1
10
104.062151223575
20
-12.4213445056043
30
0
41
1
10
104.193012140389
20
-12.6424368665796
30
0
41
1
10
104.258442598797
20
-12.7265982889432
30
0
41
1
10
104.389303515612
20
-12.8456226406458
30
0
41
1
10
104.45473397402
20
-12.8805012565008
30
0
41
1
10
104.536522047029
20
-12.8962418940317
30
0
41
1
10
104.552879661631
20
-12.897999475042
30
0
41
1
10
104.585594890835
20
-12.8988152970396
30
0
41
1
10
104.601952505437
20
-12.8978826445495
30
0
41
1
10
104.651025349242
20
-12.8909546506612
30
0
41
1
10
104.683740578446
20
-12.8808210982657
30
0
41
1
10
104.781886266057
20
-12.8329381550123
30
0
41
1
10
104.847316724465
20
-12.7776678676932
30
0
41
1
10
104.97817764128
20
-12.6161974557795
30
0
41
1
10
105.043608099687
20
-12.5099820212951
30
0
41
1
10
105.174469016502
20
-12.243778536066
30
0
41
1
10
105.23989947491
20
-12.0837777464853
30
0
41
1
10
105.305329933317
20
-11.8963950642619
30
0
0
SPLINE
5
E0
100
AcDbEntity
8
1
62
256
6
ByLayer
370
13
48
1
60
0
100
AcDbSpline
70
4
71
3
72
74
73
70
40
0
40
0
40
0
40
0
40
0.03125
40
0.03125
40
0.0625000000000001
40
0.0625000000000001
40
0.0937500000000001
40
0.0937500000000001
40
0.125
40
0.125
40
0.15625
40
0.15625
40
0.1875
40
0.1875
40
0.21875
40
0.21875
40
0.25
40
0.25
40
0.28125
40
0.28125
40
0.3125
40
0.3125
40
0.34375
40
0.34375
40
0.375
40
0.375
40
0.40625
40
0.40625
40
0.4375
40
0.4375
40
0.46875
40
0.46875
40
0.4765625
40
0.4765625
40
0.484375
40
0.484375
40
0.5
40
0.5
40
0.53125
40
0.53125
40
0.5625
40
0.5625
40
0.59375
40
0.59375
40
0.625
40
0.625
40
0.65625
40
0.65625
40
0.6875
40
0.6875
40
0.71875
40
0.71875
40
0.75
40
0.75
40
0.78125
40
0.78125
40
0.8125
40
0.8125
40
0.84375
40
0.84375
40
0.875
40
0.875
40
0.90625
40
0.90625
40
0.9375
40
0.9375
40
0.96875
40
0.96875
40
1
40
1
40
1
40
1
41
1
10
94.2
20
-12.8007307922842
30
0
41
1
10
94.2553804587861
20
-12.7538791837431
30
0
41
1
10
94.3107609175723
20
-12.6895101699683
30
0
41
1
10
94.4215218351446
20
-12.5234914227377
30
0
41
1
10
94.4769022939307
20
-12.4218352830865
30
0
41
1
10
94.587663211503
20
-12.1797913396091
30
0
41
1
10
94.6430436702891
20
-12.039398308908
30
0
41
1
10
94.7538045878614
20
-11.7194157543182
30
0
41
1
10
94.8091850466475
20
-11.5398229281295
30
0
41
1
10
94.9199459642198
20
-11.1420928543115
30
0
41
1
10
94.975326423006
20
-10.9239548384974
30
0
41
1
10
95.0860873405783
20
-10.4509665943781
30
0
41
1
10
95.1414677993644
20
-10.1961184723615
30
0
41
1
10
95.2522287169367
20
-9.6527032992619
30
0
41
1
10
95.3076091757228
20
-9.36414120385126
30
0
41
1
10
95.4183700932951
20
-8.75734603028459
30
0
41
1
10
95.4737505520812
20
-8.43912033961459
30
0
41
1
10
95.5845114696535
20
-7.7779134377852
30
0
41
1
10
95.6398919284396
20
-7.43494129249854
30
0
41
1
10
95.7506528460119
20
-6.72977444356459
30
0
41
1
10
95.8060333047981
20
-6.36758952448378
30
0
41
1
10
95.9167942223704
20
-5.62986096399712
30
0
41
1
10
95.9721746811565
20
-5.25432682909744
30
0
41
1
10
96.0829355987288
20
-4.49580133426517
30
0
41
1
10
96.1383160575149
20
-4.11281833364006
30
0
41
1
10
96.2490769750872
20
-3.34506307139412
30
0
41
1
10
96.3044574338733
20
-2.96029740134344
30
0
41
1
10
96.4152183514456
20
-2.19418481588124
30
0
41
1
10
96.4705988102317
20
-1.81284240783521
30
0
41
1
10
96.581359727804
20
-1.05815698378493
30
0
41
1
10
96.6367401865901
20
-0.684816368118959
30
0
41
1
10
96.7059657600728
20
-0.22554634819079
30
0
41
1
10
96.7198108747693
20
-0.134060773801764
30
0
41
1
10
96.7475011041624
20
0.0481209264548568
30
0
41
1
10
96.761346218859
20
0.139171929458399
30
0
41
1
10
96.8028815629486
20
0.414030522450446
30
0
41
1
10
96.8305717923417
20
0.598778557536605
30
0
41
1
10
96.9136424805209
20
1.15687561296551
30
0
41
1
10
96.9690229393069
20
1.53410046928482
30
0
41
1
10
97.0797838568792
20
2.29471075684759
30
0
41
1
10
97.1351643156653
20
2.67809291400891
30
0
41
1
10
97.2459252332377
20
3.4461607797945
30
0
41
1
10
97.3013056920238
20
3.83084108410861
30
0
41
1
10
97.412066609596
20
4.59608338695259
30
0
41
1
10
97.4674470683822
20
4.97663799253721
30
0
41
1
10
97.5782079859545
20
5.72783501037674
30
0
41
1
10
97.6335884447406
20
6.09846848793717
30
0
41
1
10
97.7443493623129
20
6.82390429889423
30
0
41
1
10
97.799729821099
20
7.17869689191511
30
0
41
1
10
97.9104907386713
20
7.86669017740675
30
0
41
1
10
97.9658711974575
20
8.1998812647287
30
0
41
1
10
98.0766321150297
20
8.8393629752062
30
0
41
1
10
98.1320125738159
20
9.14564513093697
30
0
41
1
10
98.2427734913881
20
9.72672759062058
30
0
41
1
10
98.2981539501743
20
10.0015214569602
30
0
41
1
10
98.4089148677465
20
10.5159999973394
30
0
41
1
10
98.4642953265327
20
10.7556808876311
30
0
41
1
10
98.575056244105
20
11.1974156210128
30
0
41
1
10
98.6304367028912
20
11.3994685884521
30
0
41
1
10
98.7411976204634
20
11.7646096117291
30
0
41
1
10
98.7965780792495
20
11.9276995632587
30
0
41
1
10
98.9073389968219
20
12.2147404890359
30
0
41
1
10
98.962719455608
20
12.3386956618154
30
0
41
1
10
99.0734803731802
20
12.5483632530086
30
0
41
1
10
99.1288608319663
20
12.634081488971
30
0
41
1
10
99.2396217495385
20
12.7690886662413
30
0
41
1
10
99.2950022083247
20
12.8183842829394
30
0
41
1
10
99.4057631258971
20
12.8830865400456
30
0
41
1
10
99.4611435846832
20
12.8985
30
0
41
1
10
99.5165240434693
20
12.8985
30
0
0
SPLINE
5
E1
100
AcDbEntity
8
1
62
256
6
ByLayer
370
13
48
1
60
0
100
AcDbSpline
70
4
71
3
72
78
73
74
40
0
40
0
40
0
40
0
40
0.0312499999999998
40
0.0312499999999998
40
0.0624999999999996
40
0.0624999999999996
40
0.0937499999999994
40
0.0937499999999994
40
0.124999999999999
40
0.124999999999999
40
0.156249999999999
40
0.156249999999999
40
0.187499999999999
40
0.187499999999999
40
0.218749999999999
40
0.218749999999999
40
0.249999999999998
40
0.249999999999998
40
0.281249999999998
40
0.281249999999998
40
0.312499999999998
40
0.312499999999998
40
0.343749999999998
40
0.343749999999998
40
0.374999999999998
40
0.374999999999998
40
0.406249999999997
40
0.406249999999997
40
0.414062499999997
40
0.414062499999997
40
0.421874999999997
40
0.421874999999997
40
0.437499999999997
40
0.437499999999997
40
0.468749999999997
40
0.468749999999997
40
0.499999999999997
40
0.499999999999997
40
0.531249999999997
40
0.531249999999997
40
0.562499999999997
40
0.562499999999997
40
0.593749999999997
40
0.593749999999997
40
0.624999999999997
40
0.624999999999997
40
0.656249999999997
40
0.656249999999997
40
0.687499999999998
40
0.687499999999998
40
0.718749999999998
40
0.718749999999998
40
0.749999999999998
40
0.749999999999998
40
0.781249999999998
40
0.781249999999998
40
0.812499999999998
40
0.812499999999998
40
0.820312499999998
40
0.820312499999998
40
0.828124999999998
40
0.828124999999998
40
0.843749999999998
40
0.843749999999998
40
0.874999999999999
40
0.874999999999999
40
0.906249999999999
40
0.906249999999999
40
0.937499999999999
40
0.937499999999999
40
0.96875
40
0.96875
40
1
40
1
40
1
40
1
41
1
10
98.5416053891024
20
12.8985
30
0
41
1
10
98.6120608531047
20
12.8985
30
0
41
1
10
98.6825163171069
20
12.8735340474706
30
0
41
1
10
98.8234272451114
20
12.7675211819481
30
0
41
1
10
98.8938827091136
20
12.6864515202459
30
0
41
1
10
99.0347936371182
20
12.4635486649953
30
0
41
1
10
99.1052491011203
20
12.3216945422588
30
0
41
1
10
99.2461600291248
20
11.9747183249261
30
0
41
1
10
99.3166154931271
20
11.7695811347876
30
0
41
1
10
99.4575264211315
20
11.2962687758486
30
0
41
1
10
99.5279818851337
20
11.0280881049129
30
0
41
1
10
99.6688928131383
20
10.4319759949287
30
0
41
1
10
99.7393482771405
20
10.1040509872162
30
0
41
1
10
99.880259205145
20
9.3947878539372
30
0
41
1
10
99.9507146691471
20
9.01346807082393
30
0
41
1
10
100.091625597152
20
8.20642918819115
30
0
41
1
10
100.162081061154
20
7.78073769807861
30
0
41
1
10
100.302991989158
20
6.89594338621129
30
0
41
1
10
100.373447453161
20
6.43687280081599
30
0
41
1
10
100.514358381165
20
5.49736533973143
30
0
41
1
10
100.584813845167
20
5.01695998814057
30
0
41
1
10
100.725724773172
20
4.04690794280489
30
0
41
1
10
100.796180237174
20
3.55728745624509
30
0
41
1
10
100.937091165179
20
2.58012737925665
30
0
41
1
10
101.007546629181
20
2.09260582594038
30
0
41
1
10
101.148457557185
20
1.12949027954747
30
0
41
1
10
101.218913021188
20
0.653905362045293
30
0
41
1
10
101.30698235119
20
0.0718559187605479
30
0
41
1
10
101.324596217191
20
-0.043568784630537
30
0
41
1
10
101.359823949192
20
-0.276187341807969
30
0
41
1
10
101.377437815193
20
-0.393117738556469
30
0
41
1
10
101.430279413194
20
-0.745604598685986
30
0
41
1
10
101.465507145195
20
-0.98286060912281
30
0
41
1
10
101.571190341199
20
-1.69994032595685
30
0
41
1
10
101.641645805201
20
-2.1851317690157
30
0
41
1
10
101.782556733205
20
-3.16045614378777
30
0
41
1
10
101.853012197208
20
-3.65057346526527
30
0
41
1
10
101.993923125212
20
-4.62478764668975
30
0
41
1
10
102.064378589214
20
-5.108860313256
30
0
41
1
10
102.205289517219
20
-6.05900989277376
30
0
41
1
10
102.275744981221
20
-6.52505632494507
30
0
41
1
10
102.416655909226
20
-7.42699594571403
30
0
41
1
10
102.487111373228
20
-7.86285657033326
30
0
41
1
10
102.628022301232
20
-8.69304853255733
30
0
41
1
10
102.698477765235
20
-9.08735049627475
30
0
41
1
10
102.839388693239
20
-9.82478057784721
30
0
41
1
10
102.909844157241
20
-10.1678874856276
30
0
41
1
10
103.050755085246
20
-10.7957914885432
30
0
41
1
10
103.121210549248
20
-11.0805788181999
30
0
41
1
10
103.262121477252
20
-11.5876915211243
30
0
41
1
10
103.332576941255
20
-11.810019315583
30
0
41
1
10
103.473487869259
20
-12.1911551112482
30
0
41
1
10
103.543943333261
20
-12.3499759472533
30
0
41
1
10
103.684854261266
20
-12.6058964450347
30
0
41
1
10
103.755309725268
20
-12.7030158644398
30
0
41
1
10
103.896220653272
20
-12.8396850348543
30
0
41
1
10
103.966676117275
20
-12.8792574123314
30
0
41
1
10
104.054745447278
20
-12.8963998731702
30
0
41
1
10
104.072359313278
20
-12.8982154106059
30
0
41
1
10
104.107587045279
20
-12.8987227328052
30
0
41
1
10
104.12520091128
20
-12.8974216726305
30
0
41
1
10
104.178042509281
20
-12.8887060795394
30
0
41
1
10
104.213270241283
20
-12.876474278451
30
0
41
1
10
104.318953437286
20
-12.8193549058212
30
0
41
1
10
104.389408901288
20
-12.7539890719319
30
0
41
1
10
104.530319829293
20
-12.5635718036895
30
0
41
1
10
104.600775293295
20
-12.4384985674309
30
0
41
1
10
104.7416862213
20
-12.125511439457
30
0
41
1
10
104.812141685302
20
-11.9375804731459
30
0
41
1
10
104.953052613306
20
-11.4983250191929
30
0
41
1
10
105.023508077309
20
-11.2469921251788
30
0
41
1
10
105.164419005313
20
-10.6833792014477
30
0
41
1
10
105.234874469315
20
-10.3711022689261
30
0
41
1
10
105.305329933317
20
-10.0311190895112
30
0
0
SPLINE
5
E2
100
AcDbEntity
8
1
62
256
6
ByLayer
370
13
48
1
60
0
100
AcDbSpline
70
4
71
3
72
58
73
54
40
0
40
0
40
0
40
0
40
0.031249999999999
40
0.031249999999999
40
0.062499999999998
40
0.062499999999998
40
0.093749999999997
40
0.093749999999997
40
0.124999999999996
40
0.124999999999996
40
0.156249999999995
40
0.156249999999995
40
0.187499999999994
40
0.187499999999994
40
0.218749999999993
40
0.218749999999993
40
0.249999999999992
40
0.249999999999992
40
0.31249999999999
40
0.31249999999999
40
0.374999999999989
40
0.374999999999989
40
0.406249999999988
40
0.406249999999988
40
0.421874999999988
40
0.421874999999988
40
0.429687499999987
40
0.429687499999987
40
0.437499999999987
40
0.437499999999987
40
0.499999999999988
40
0.499999999999988
40
0.56249999999999
40
0.56249999999999
40
0.624999999999991
40
0.624999999999991
40
0.656249999999991
40
0.656249999999991
40
0.687499999999992
40
0.687499999999992
40
0.718749999999993
40
0.718749999999993
40
0.749999999999993
40
0.749999999999993
40
0.781249999999994
40
0.781249999999994
40
0.812499999999995
40
0.812499999999995
40
0.874999999999996
40
0.874999999999996
40
0.937499999999998
40
0.937499999999998
40
1
40
1
40
1
40
1
41
1
10
94.2
20
-11.9251526840464
30
0
41
1
10
94.2503554531914
20
-11.7831080915446
30
0
41
1
10
94.3007109063828
20
-11.6248635133127
30
0
41
1
10
94.4014218127657
20
-11.2763464871581
30
0
41
1
10
94.4517772659572
20
-11.0860732427416
30
0
41
1
10
94.55248817234
20
-10.6746693248147
30
0
41
1
10
94.6028436255314
20
-10.4535394545622
30
0
41
1
10
94.7035545319142
20
-9.98239600897418
30
0
41
1
10
94.7539099851057
20
-9.732384879688
30
0
41
1
10
94.8546208914885
20
-9.20620717700169
30
0
41
1
10
94.9049763446799
20
-8.93004455084085
30
0
41
1
10
95.0056872510629
20
-8.354950019233
30
0
41
1
10
95.0560427042542
20
-8.05602324687834
30
0
41
1
10
95.156753610637
20
-7.4393069008579
30
0
41
1
10
95.2071090638285
20
-7.12152319952728
30
0
41
1
10
95.3078199702113
20
-6.47135286095542
30
0
41
1
10
95.3581754234027
20
-6.13897232287167
30
0
41
1
10
95.5092417829769
20
-5.12657377803896
30
0
41
1
10
95.6099526893598
20
-4.43140360792972
30
0
41
1
10
95.8113745021255
20
-3.03524463192778
30
0
41
1
10
95.9120854085083
20
-2.33438637856324
30
0
41
1
10
96.0631517680825
20
-1.30126007927808
30
0
41
1
10
96.1135072212739
20
-0.959860293741286
30
0
41
1
10
96.1890404010612
20
-0.454489886344334
30
0
41
1
10
96.2142181276568
20
-0.287150650164534
30
0
41
1
10
96.2519847175504
20
-0.0380648114083328
30
0
41
1
10
96.2645735808483
20
0.0444876902543001
30
0
41
1
10
96.289751307444
20
0.210577993920282
30
0
41
1
10
96.3023401707418
20
0.293942885537632
30
0
41
1
10
96.4156399404225
20
1.04692396920163
30
0
41
1
10
96.5163508468054
20
1.73575169660364
30
0
41
1
10
96.717772659571
20
3.12724989185401
30
0
41
1
10
96.8184835659539
20
3.8298360894614
30
0
41
1
10
97.0199053787196
20
5.21661237643099
30
0
41
1
10
97.1206162851024
20
5.90064717000152
30
0
41
1
10
97.2716826446767
20
6.88616772156837
30
0
41
1
10
97.3220380978681
20
7.20790834415581
30
0
41
1
10
97.422749004251
20
7.83355043045725
30
0
41
1
10
97.4731044574423
20
8.13744591847089
30
0
41
1
10
97.5738153638252
20
8.72338776233667
30
0
41
1
10
97.6241708170166
20
9.00542876019324
30
0
41
1
10
97.7248817233994
20
9.5441325505715
30
0
41
1
10
97.775237176591
20
9.80079107206842
30
0
41
1
10
97.8759480829737
20
10.2858279249981
30
0
41
1
10
97.9263035361652
20
10.514203424673
30
0
41
1
10
98.0270144425481
20
10.9405071160116
30
0
41
1
10
98.0773698957395
20
11.1384341013773
30
0
41
1
10
98.2284362553137
20
11.6844874057188
30
0
41
1
10
98.3291471616965
20
11.9845011625108
30
0
41
1
10
98.5305689744622
20
12.4550705014509
30
0
41
1
10
98.6312798808451
20
12.6257213815918
30
0
41
1
10
98.8327016936107
20
12.8473697547446
30
0
41
1
10
98.9334125999936
20
12.8985
30
0
41
1
10
99.0341235063764
20
12.8985
30
0
0
SPLINE
5
E3
100
AcDbEntity
8
1
62
256
6
ByLayer
370
13
48
1
60
0
100
AcDbSpline
70
4
71
3
72
78
73
74
40
0
40
0
40
0
40
0
40
0.0312499999999999
40
0.0312499999999999
40
0.0624999999999998
40
0.0624999999999998
40
0.0937499999999997
40
0.0937499999999997
40
0.125
40
0.125
40
0.15625
40
0.15625
40
0.187499999999999
40
0.187499999999999
40
0.218749999999999
40
0.218749999999999
40
0.249999999999999
40
0.249999999999999
40
0.281249999999999
40
0.281249999999999
40
0.312499999999999
40
0.312499999999999
40
0.343749999999999
40
0.343749999999999
40
0.374999999999999
40
0.374999999999999
40
0.382812499999999
40
0.382812499999999
40
0.390624999999998
40
0.390624999999998
40
0.406249999999998
40
0.406249999999998
40
0.437499999999998
40
0.437499999999998
40
0.468749999999998
40
0.468749999999998
40
0.499999999999998
40
0.499999999999998
40
0.531249999999998
40
0.531249999999998
40
0.562499999999998
40
0.562499999999998
40
0.593749999999997
40
0.593749999999997
40
0.624999999999997
40
0.624999999999997
40
0.656249999999997
40
0.656249999999997
40
0.687499999999997
40
0.687499999999997
40
0.718749999999997
40
0.718749999999997
40
0.749999999999997
40
0.749999999999997
40
0.765624999999997
40
0.765624999999997
40
0.773437499999997
40
0.773437499999997
40
0.781249999999997
40
0.781249999999997
40
0.812499999999997
40
0.812499999999997
40
0.843749999999998
40
0.843749999999998
40
0.874999999999998
40
0.874999999999998
40
0.906249999999999
40
0.906249999999999
40
0.937499999999999
40
0.937499999999999
40
0.96875
40
0.96875
40
1
40
1
40
1
40
1
41
1
10
98.0592048520095
20
12.8985
30
0
41
1
10
98.1346853216065
20
12.8985
30
0
41
1
10
98.2101657912033
20
12.8698369636438
30
0
41
1
10
98.3611267303973
20
12.7476789784542
30
0
41
1
10
98.4366071999943
20
12.6541519706352
30
0
41
1
10
98.5875681391882
20
12.3967516308484
30
0
41
1
10
98.6630486087852
20
12.2328496232556
30
0
41
1
10
98.8140095479791
20
11.8321703048565
30
0
41
1
10
98.8894900175761
20
11.5953742206628
30
0
41
1
10
99.04045095677
20
11.0501005524433
30
0
41
1
10
99.115931426367
20
10.741619816223
30
0
41
1
10
99.2668923655608
20
10.058242679988
30
0
41
1
10
99.3423728351578
20
9.68336154101274
30
0
41
1
10
99.4933337743518
20
8.87634687819053
30
0
41
1
10
99.5688142439487
20
8.44424545387508
30
0
41
1
10
99.7197751831426
20
7.53512987208282
30
0
41
1
10
99.7952556527396
20
7.05815881487098
30
0
41
1
10
99.9462165919334
20
6.07366577343586
30
0
41
1
10
100.02169706153
20
5.56618955642463
30
0
41
1
10
100.172658000724
20
4.53570356568676
30
0
41
1
10
100.248138470321
20
4.01273403908826
30
0
41
1
10
100.399099409515
20
2.96561369920366
30
0
41
1
10
100.474579879112
20
2.44149187322063
30
0
41
1
10
100.625540818306
20
1.40469630817182
30
0
41
1
10
100.701021287903
20
0.892038067351137
30
0
41
1
10
100.795371874899
20
0.264766473330866
30
0
41
1
10
100.814241992298
20
0.139983393292084
30
0
41
1
10
100.851982227097
20
-0.108106510748627
30
0
41
1
10
100.870852344496
20
-0.232649465174546
30
0
41
1
10
100.927462696694
20
-0.608666041881662
30
0
41
1
10
100.965202931492
20
-0.862057596666688
30
0
41
1
10
101.078423635888
20
-1.62859244097126
30
0
41
1
10
101.153904105485
20
-2.1481702661051
30
0
41
1
10
101.304865044679
20
-3.19304107504038
30
0
41
1
10
101.380345514276
20
-3.71831205040516
30
0
41
1
10
101.53130645347
20
-4.761031808696
30
0
41
1
10
101.606786923067
20
-5.27844571419388
30
0
41
1
10
101.75774786226
20
-6.29064633408615
30
0
41
1
10
101.833228331857
20
-6.78538925104149
30
0
41
1
10
101.984189271051
20
-7.73737432820258
30
0
41
1
10
102.059669740648
20
-8.1945709033364
30
0
41
1
10
102.210630679842
20
-9.05789217965162
30
0
41
1
10
102.286111149439
20
-9.46397810161764
30
0
41
1
10
102.437072088633
20
-10.2141085098436
30
0
41
1
10
102.51255255823
20
-10.55812846503
30
0
41
1
10
102.663513497424
20
-11.1767351057956
30
0
41
1
10
102.738993967021
20
-11.4513154329562
30
0
41
1
10
102.889954906215
20
-11.9277031454605
30
0
41
1
10
102.965435375812
20
-12.1295217341949
30
0
41
1
10
103.116396315006
20
-12.461019156129
30
0
41
1
10
103.191876784603
20
-12.5907223149866
30
0
41
1
10
103.342837723797
20
-12.7820418888934
30
0
41
1
10
103.418318193394
20
-12.8436893828295
30
0
41
1
10
103.531538897789
20
-12.8900577323848
30
0
41
1
10
103.569279132587
20
-12.8978469998076
30
0
41
1
10
103.625889484785
20
-12.8987673853643
30
0
41
1
10
103.644759602184
20
-12.8972900993103
30
0
41
1
10
103.682499836983
20
-12.8906464673848
30
0
41
1
10
103.701369954382
20
-12.885479231334
30
0
41
1
10
103.795720541378
20
-12.8501132782739
30
0
41
1
10
103.871201010975
20
-12.7912482663092
30
0
41
1
10
104.022161950169
20
-12.6057316001242
30
0
41
1
10
104.097642419766
20
-12.4790487241035
30
0
41
1
10
104.24860335896
20
-12.1537015651214
30
0
41
1
10
104.324083828557
20
-11.955012530932
30
0
41
1
10
104.475044767751
20
-11.4848334355432
30
0
41
1
10
104.550525237348
20
-11.2133314963749
30
0
41
1
10
104.701486176542
20
-10.6006557338737
30
0
41
1
10
104.776966646139
20
-10.2594874720096
30
0
41
1
10
104.927927585333
20
-9.51466658099719
30
0
41
1
10
105.003408054929
20
-9.11103775358998
30
0
41
1
10
105.154368994124
20
-8.25209992434856
30
0
41
1
10
105.22984946372
20
-7.79682922581353
30
0
41
1
10
105.305329933317
20
-7.32245368448508
30
0
0
SPLINE
5
E4
100
AcDbEntity
8
1
62
256
6
ByLayer
370
13
48
1
60
0
100
AcDbSpline
70
4
71
3
72
44
73
40
40
0
40
0
40
0
40
0
40
0.0625000000000021
40
0.0625000000000021
40
0.125000000000004
40
0.125000000000004
40
0.187500000000006
40
0.187500000000006
40
0.250000000000008
40
0.250000000000008
40
0.31250000000001
40
0.31250000000001
40
0.343750000000011
40
0.343750000000011
40
0.359375000000012
40
0.359375000000012
40
0.367187500000012
40
0.367187500000012
40
0.375000000000012
40
0.375000000000012
40
0.437500000000011
40
0.437500000000011
40
0.50000000000001
40
0.50000000000001
40
0.562500000000009
40
0.562500000000009
40
0.625000000000007
40
0.625000000000007
40
0.687500000000006
40
0.687500000000006
40
0.750000000000005
40
0.750000000000005
40
0.812500000000004
40
0.812500000000004
40
0.875000000000002
40
0.875000000000002
40
0.937500000000001
40
0.937500000000001
40
1
40
1
40
1
40
1
41
1
10
94.2
20
-10.0797515376914
30
0
41
1
10
94.2906608951935
20
-9.64567513705009
30
0
41
1
10
94.3813217903868
20
-9.16536109110433
30
0
41
1
10
94.5626435807736
20
-8.1304641834094
30
0
41
1
10
94.6533044759671
20
-7.57597740494103
30
0
41
1
10
94.834626266354
20
-6.41654005757485
30
0
41
1
10
94.9252871615473
20
-5.81170375275531
30
0
41
1
10
95.1066089519342
20
-4.57760055706351
30
0
41
1
10
95.1972698471275
20
-3.94843597336154
30
0
41
1
10
95.3785916375143
20
-2.69057520507451
30
0
41
1
10
95.4692525327077
20
-2.06194785789893
30
0
41
1
10
95.6052438754979
20
-1.13520315563358
30
0
41
1
10
95.6505743230946
20
-0.828951835320538
30
0
41
1
10
95.7185699944895
20
-0.37518240767551
30
0
41
1
10
95.7412352182879
20
-0.224857884722439
30
0
41
1
10
95.7752330539855
20
-0.0009464236808299
30
0
41
1
10
95.7865656658847
20
0.0734234995426277
30
0
41
1
10
95.809230889683
20
0.223034881397069
30
0
41
1
10
95.8205635015823
20
0.298098350225359
30
0
41
1
10
95.9225570086749
20
0.975857597336869
30
0
41
1
10
96.0132179038682
20
1.5940891969357
30
0
41
1
10
96.1945396942551
20
2.84404044458398
30
0
41
1
10
96.2852005894484
20
3.47571489030406
30
0
41
1
10
96.4665223798353
20
4.72968605870548
30
0
41
1
10
96.5571832750286
20
5.35189833541088
30
0
41
1
10
96.7385050654154
20
6.56125034290753
30
0
41
1
10
96.8291659606089
20
7.14827945820599
30
0
41
1
10
97.0104877509957
20
8.26173330137647
30
0
41
1
10
97.1011486461891
20
8.78804756759328
30
0
41
1
10
97.282470436576
20
9.75813078389677
30
0
41
1
10
97.3731313317693
20
10.2018196015388
30
0
41
1
10
97.5544531221562
20
10.9912748849237
30
0
41
1
10
97.6451140173496
20
11.337012290994
30
0
41
1
10
97.8264358077363
20
11.9234549168019
30
0
41
1
10
97.9170967029297
20
12.1641846315843
30
0
41
1
10
98.0984184933166
20
12.5418286474403
30
0
41
1
10
98.18907938851
20
12.6788062965168
30
0
41
1
10
98.3704011788968
20
12.8571022884493
30
0
41
1
10
98.4610620740901
20
12.8985
30
0
41
1
10
98.5517229692836
20
12.8985
30
0
0
SPLINE
5
E5
100
AcDbEntity
8
1
62
256
6
ByLayer
370
13
48
1
60
0
100
AcDbSpline
70
4
71
3
72
76
73
72
40
0
40
0
40
0
40
0
40
0.0312499999999999
40
0.0312499999999999
40
0.0624999999999999
40
0.0624999999999999
40
0.0937499999999998
40
0.0937499999999998
40
0.125
40
0.125
40
0.15625
40
0.15625
40
0.1875
40
0.1875
40
0.21875
40
0.21875
40
0.25
40
0.25
40
0.28125
40
0.28125
40
0.3125
40
0.3125
40
0.34375
40
0.34375
40
0.359375
40
0.359375
40
0.375
40
0.375
40
0.40625
40
0.40625
40
0.4375
40
0.4375
40
0.46875
40
0.46875
40
0.5
40
0.5
40
0.531249999999999
40
0.531249999999999
40
0.562499999999999
40
0.562499999999999
40
0.593749999999999
40
0.593749999999999
40
0.625
40
0.625
40
0.65625
40
0.65625
40
0.6875
40
0.6875
40
0.703125
40
0.703125
40
0.7109375
40
0.7109375
40
0.71875
40
0.71875
40
0.75
40
0.75
40
0.78125
40
0.78125
40
0.8125
40
0.8125
40
0.84375
40
0.84375
40
0.875
40
0.875
40
0.90625
40
0.90625
40
0.9375
40
0.9375
40
0.96875
40
0.96875
40
1
40
1
40
1
40
1
41
1
10
97.5768043149167
20
12.8985
30
0
41
1
10
97.6573097901083
20
12.8985
30
0
41
1
10
97.7378152653
20
12.8658825053953
30
0
41
1
10
97.8988262156834
20
12.7263738447172
30
0
41
1
10
97.979331690875
20
12.6194385307518
30
0
41
1
10
98.1403426412584
20
12.324909582094
30
0
41
1
10
98.22084811645
20
12.1372777235754
30
0
41
1
10
98.3818590668334
20
11.6789800627226
30
0
41
1
10
98.4623645420251
20
11.4082921621423
30
0
41
1
10
98.6233754924084
20
10.7864602584107
30
0
41
1
10
98.7038809676
20
10.4353185393487
30
0
41
1
10
98.8648919179834
20
9.66043571261571
30
0
41
1
10
98.9453973931751
20
9.23672393511015
30
0
41
1
10
99.1064083435584
20
8.32936576723841
30
0
41
1
10
99.1869138187501
20
7.84577091483524
30
0
41
1
10
99.3479247691334
20
6.83488031141596
30
0
41
1
10
99.4284302443251
20
6.30764719111721
30
0
41
1
10
99.5894411947085
20
5.227522538182
30
0
41
1
10
99.6699466699002
20
4.67469130102546
30
0
41
1
10
99.8309576202836
20
3.56132574898208
30
0
41
1
10
99.9114630954753
20
3.00083828992229
30
0
41
1
10
100.072474045859
20
1.8883821145856
30
0
41
1
10
100.15297952105
20
1.33644105697096
30
0
41
1
10
100.273737733838
20
0.524933895865047
30
0
41
1
10
100.313990471434
20
0.257262488305429
30
0
41
1
10
100.394495946625
20
-0.271803003258412
30
0
41
1
10
100.434748684221
20
-0.539708275851638
30
0
41
1
10
100.555506897009
20
-1.3515115847041
30
0
41
1
10
100.6360123722
20
-1.90359643732788
30
0
41
1
10
100.797023322584
20
-3.01620368387248
30
0
41
1
10
100.877528797775
20
-3.57669823522534
30
0
41
1
10
101.038539748159
20
-4.68991946841564
30
0
41
1
10
101.11904522335
20
-5.24259913588818
30
0
41
1
10
101.280056173734
20
-6.32225308256591
30
0
41
1
10
101.360561648925
20
-6.84916698788302
30
0
41
1
10
101.521572599309
20
-7.85925921550609
30
0
41
1
10
101.6020780745
20
-8.34237494759728
30
0
41
1
10
101.763089024884
20
-9.24863992476602
30
0
41
1
10
101.843594500075
20
-9.67173779206843
30
0
41
1
10
102.004605450459
20
-10.4452971673993
30
0
41
1
10
102.08511092565
20
-10.7957295826612
30
0
41
1
10
102.246121876034
20
-11.4160947248054
30
0
41
1
10
102.326627351225
20
-11.6860254139102
30
0
41
1
10
102.487638301609
20
-12.1428086017372
30
0
41
1
10
102.5681437768
20
-12.329683389885
30
0
41
1
10
102.729154727184
20
-12.6227400861989
30
0
41
1
10
102.809660202375
20
-12.7289603187908
30
0
41
1
10
102.930418415163
20
-12.8325740776262
30
0
41
1
10
102.970671152759
20
-12.8578534301751
30
0
41
1
10
103.031050259153
20
-12.8826837763821
30
0
41
1
10
103.051176627951
20
-12.8887803141912
30
0
41
1
10
103.091429365546
20
-12.8967587838516
30
0
41
1
10
103.111555734344
20
-12.8986409587386
30
0
41
1
10
103.212187578334
20
-12.8978951765755
30
0
41
1
10
103.292693053525
20
-12.8646350154202
30
0
41
1
10
103.453704003909
20
-12.7237680517914
30
0
41
1
10
103.5342094791
20
-12.616117111787
30
0
41
1
10
103.695220429484
20
-12.3201151602852
30
0
41
1
10
103.775725904676
20
-12.1317260264429
30
0
41
1
10
103.936736855059
20
-11.6719139029206
30
0
41
1
10
104.01724233025
20
-11.4004690068946
30
0
41
1
10
104.178253280634
20
-10.7771712225487
30
0
41
1
10
104.258758755826
20
-10.425320864868
30
0
41
1
10
104.419769706209
20
-9.64911632630802
30
0
41
1
10
104.500275181401
20
-9.22479171257774
30
0
41
1
10
104.661286131784
20
-8.31634280534053
30
0
41
1
10
104.741791606976
20
-7.83227020902146
30
0
41
1
10
104.902802557359
20
-6.82058413538388
30
0
41
1
10
104.983308032551
20
-6.2930333281233
30
0
41
1
10
105.144318982934
20
-5.21244101578193
30
0
41
1
10
105.224824458126
20
-4.65945972681854
30
0
41
1
10
105.305329933317
20
-4.10270623460789
30
0
0
SPLINE
5
E6
100
AcDbEntity
8
1
62
256
6
ByLayer
370
13
48
1
60
0
100
AcDbSpline
70
4
71
3
72
42
73
38
40
0
40
0
40
0
40
0
40
0.0625000000000014
40
0.0625000000000014
40
0.125000000000003
40
0.125000000000003
40
0.187500000000004
40
0.187500000000004
40
0.250000000000005
40
0.250000000000005
40
0.281250000000006
40
0.281250000000006
40
0.296875000000006
40
0.296875000000006
40
0.312500000000006
40
0.312500000000006
40
0.375000000000005
40
0.375000000000005
40
0.437500000000005
40
0.437500000000005
40
0.500000000000004
40
0.500000000000004
40
0.562500000000004
40
0.562500000000004
40
0.625000000000003
40
0.625000000000003
40
0.687500000000003
40
0.687500000000003
40
0.750000000000002
40
0.750000000000002
40
0.812500000000002
40
0.812500000000002
40
0.875000000000001
40
0.875000000000001
40
0.937500000000001
40
0.937500000000001
40
1
40
1
40
1
40
1
41
1
10
94.2
20
-7.38592551947909
30
0
41
1
10
94.2806108840041
20
-6.88113752762632
30
0
41
1
10
94.361221768008
20
-6.35424131479681
30
0
41
1
10
94.5224435360159
20
-5.27419434229233
30
0
41
1
10
94.6030544200199
20
-4.72110451727073
30
0
41
1
10
94.7642761880278
20
-3.60672350390197
30
0
41
1
10
94.8448870720318
20
-3.04547995554856
30
0
41
1
10
95.0061088400398
20
-1.93114154249534
30
0
41
1
10
95.0867197240437
20
-1.37807504703557
30
0
41
1
10
95.2076360500497
20
-0.564703723503158
30
0
41
1
10
95.2479414920517
20
-0.296259800070317
30
0
41
1
10
95.3083996550547
20
0.1013622875507
30
0
41
1
10
95.3285523760557
20
0.234255330532591
30
0
41
1
10
95.3688578180576
20
0.502049662295406
30
0
41
1
10
95.3890105390586
20
0.636717121539078
30
0
41
1
10
95.4897741440636
20
1.31346760804109
30
0
41
1
10
95.5703850280676
20
1.86591752580767
30
0
41
1
10
95.7316067960754
20
2.979609779941
30
0
41
1
10
95.8122176800795
20
3.54082454058801
30
0
41
1
10
95.9734394480873
20
4.65582947459978
30
0
41
1
10
96.0540503320914
20
5.20957269126075
30
0
41
1
10
96.2152721000994
20
6.2916466940973
30
0
41
1
10
96.2958829841033
20
6.81991688185195
30
0
41
1
10
96.4571047521113
20
7.83292786800433
30
0
41
1
10
96.5377156361153
20
8.3176055867159
30
0
41
1
10
96.6989374041232
20
9.22708840918284
30
0
41
1
10
96.7795482881272
20
9.65184150065545
30
0
41
1
10
96.9407700561353
20
10.4286847305255
30
0
41
1
10
97.0213809401391
20
10.7807451763805
30
0
41
1
10
97.182602708147
20
11.4042304084902
30
0
41
1
10
97.263213592151
20
11.6756527534795
30
0
41
1
10
97.424435360159
20
12.1352006117168
30
0
41
1
10
97.5050462441629
20
12.3233482844587
30
0
41
1
10
97.6662680121708
20
12.6186843487937
30
0
41
1
10
97.7468788961748
20
12.7259111846827
30
0
41
1
10
97.9081006641827
20
12.8657967927324
30
0
41
1
10
97.9887115481868
20
12.8985
30
0
41
1
10
98.0693224321907
20
12.8985
30
0
0
SPLINE
5
E7
100
AcDbEntity
8
1
62
256
6
ByLayer
370
13
48
1
60
0
100
AcDbSpline
70
4
71
3
72
80
73
76
40
0
40
0
40
0
40
0
40
0.0312500000000012
40
0.0312500000000012
40
0.0625000000000025
40
0.0625000000000025
40
0.0937500000000038
40
0.0937500000000038
40
0.125000000000005
40
0.125000000000005
40
0.156250000000006
40
0.156250000000006
40
0.187500000000008
40
0.187500000000008
40
0.218750000000009
40
0.218750000000009
40
0.25000000000001
40
0.25000000000001
40
0.281250000000011
40
0.281250000000011
40
0.312500000000013
40
0.312500000000013
40
0.328125000000013
40
0.328125000000013
40
0.335937500000014
40
0.335937500000014
40
0.339843750000014
40
0.339843750000014
40
0.343750000000014
40
0.343750000000014
40
0.375000000000013
40
0.375000000000013
40
0.406250000000012
40
0.406250000000012
40
0.437500000000011
40
0.437500000000011
40
0.46875000000001
40
0.46875000000001
40
0.50000000000001
40
0.50000000000001
40
0.531250000000009
40
0.531250000000009
40
0.562500000000008
40
0.562500000000008
40
0.593750000000007
40
0.593750000000007
40
0.625000000000007
40
0.625000000000007
40
0.656250000000006
40
0.656250000000006
40
0.671875000000006
40
0.671875000000006
40
0.679687500000006
40
0.679687500000006
40
0.687500000000005
40
0.687500000000005
40
0.718750000000005
40
0.718750000000005
40
0.750000000000004
40
0.750000000000004
40
0.781250000000004
40
0.781250000000004
40
0.812500000000003
40
0.812500000000003
40
0.843750000000003
40
0.843750000000003
40
0.875000000000002
40
0.875000000000002
40
0.906250000000002
40
0.906250000000002
40
0.937500000000001
40
0.937500000000001
40
0.968750000000001
40
0.968750000000001
40
1
40
1
40
1
40
1
41
1
10
97.0944037778238
20
12.8985
30
0
41
1
10
97.1799342586102
20
12.8985
30
0
41
1
10
97.2654647393966
20
12.8616700356854
30
0
41
1
10
97.4365257009694
20
12.7035948167029
30
0
41
1
10
97.5220561817558
20
12.5822899963789
30
0
41
1
10
97.6931171433286
20
12.2479886688933
30
0
41
1
10
97.7786476241149
20
12.0349424846605
30
0
41
1
10
97.9497085856876
20
11.5151683267737
30
0
41
1
10
98.0352390664741
20
11.2084160027982
30
0
41
1
10
98.2063000280468
20
10.5056952558235
30
0
41
1
10
98.2918305088332
20
10.1097391162011
30
0
41
1
10
98.462891470406
20
9.23974966565302
30
0
41
1
10
98.5484219511925
20
8.76576655211105
30
0
41
1
10
98.7194829127652
20
7.75659121637131
30
0
41
1
10
98.8050133935516
20
7.22147634188806
30
0
41
1
10
98.9760743551244
20
6.11066890206851
30
0
41
1
10
99.0616048359108
20
5.53506180238128
30
0
41
1
10
99.2326657974836
20
4.36514411442263
30
0
41
1
10
99.31819627827
20
3.77090746462241
30
0
41
1
10
99.4892572398428
20
2.58438369693027
30
0
41
1
10
99.5747877206291
20
1.99214581764554
30
0
41
1
10
99.7030834418088
20
1.11840718066603
30
0
41
1
10
99.7458486822019
20
0.829568511001384
30
0
41
1
10
99.8099965427917
20
0.401273635335315
30
0
41
1
10
99.8313791629884
20
0.259333773180828
30
0
41
1
10
99.8634530932833
20
0.0478114910947909
30
0
41
1
10
99.8741444033815
20
-0.0223224838677822
30
0
41
1
10
99.8955270235781
20
-0.163225321668904
30
0
41
1
10
99.9062183336764
20
-0.23390929823401
30
0
41
1
10
100.002440124561
20
-0.872048707008247
30
0
41
1
10
100.087970605347
20
-1.45356474420404
30
0
41
1
10
100.25903156692
20
-2.63028013299567
30
0
41
1
10
100.344562047707
20
-3.2254485836911
30
0
41
1
10
100.515623009279
20
-4.41069640731823
30
0
41
1
10
100.601153490066
20
-5.0007167229075
30
0
41
1
10
100.772214451639
20
-6.15436148581108
30
0
41
1
10
100.857744932425
20
-6.71790587644568
30
0
41
1
10
101.028805893998
20
-7.79688186972737
30
0
41
1
10
101.114336374784
20
-8.31222851888325
30
0
41
1
10
101.285397336357
20
-9.2752270085181
30
0
41
1
10
101.370927817143
20
-9.72280937003208
30
0
41
1
10
101.541988778716
20
-10.5352282356474
30
0
41
1
10
101.627519259503
20
-10.9000275544341
30
0
41
1
10
101.798580221075
20
-11.5380181136474
30
0
41
1
10
101.884110701862
20
-11.8112110240631
30
0
41
1
10
102.055171663435
20
-12.263861850875
30
0
41
1
10
102.140702144221
20
-12.4433548949395
30
0
41
1
10
102.311763105794
20
-12.7126312091278
30
0
41
1
10
102.39729358658
20
-12.8024695052521
30
0
41
1
10
102.52558930776
20
-12.876520412729
30
0
41
1
10
102.568354548153
20
-12.8911178026294
30
0
41
1
10
102.632502408743
20
-12.8989227846919
30
0
41
1
10
102.653885028939
20
-12.8991973746481
30
0
41
1
10
102.696650269332
20
-12.8951255783205
30
0
41
1
10
102.718032889529
20
-12.890753411667
30
0
41
1
10
102.824945990512
20
-12.8567639510076
30
0
41
1
10
102.910476471298
20
-12.7906346813801
30
0
41
1
10
103.081537432871
20
-12.5708341051337
30
0
41
1
10
103.167067913658
20
-12.4171050253626
30
0
41
1
10
103.33812887523
20
-12.0165528922589
30
0
41
1
10
103.423659356017
20
-11.7696875702978
30
0
41
1
10
103.59472031759
20
-11.1831035022151
30
0
41
1
10
103.680250798376
20
-10.8433727083147
30
0
41
1
10
103.851311759949
20
-10.0779593933357
30
0
41
1
10
103.936842240735
20
-9.65230329659153
30
0
41
1
10
104.107903202308
20
-8.72840909512715
30
0
41
1
10
104.193433683094
20
-8.23023276759491
30
0
41
1
10
104.364494644667
20
-7.1797885163837
30
0
41
1
10
104.450025125453
20
-6.62760326582423
30
0
41
1
10
104.621086087026
20
-5.49052038754309
30
0
41
1
10
104.706616567813
20
-4.9057061217004
30
0
41
1
10
104.877677529385
20
-3.72506268836193
30
0
41
1
10
104.963208010172
20
-3.12929960671195
30
0
41
1
10
105.134268971745
20
-1.94646846572408
30
0
41
1
10
105.219799452531
20
-1.3594393608432
30
0
41
1
10
105.305329933317
20
-0.784816505049406
30
0
0
SPLINE
5
E8
100
AcDbEntity
8
1
62
256
6
ByLayer
370
13
48
1
60
0
100
AcDbSpline
70
4
71
3
72
42
73
38
40
0
40
0
40
0
40
0
40
0.0625
40
0.0625
40
0.125
40
0.125
40
0.15625
40
0.15625
40
0.171875
40
0.171875
40
0.1875
40
0.1875
40
0.25
40
0.25
40
0.3125
40
0.3125
40
0.375
40
0.375
40
0.4375
40
0.4375
40
0.5
40
0.5
40
0.5625
40
0.5625
40
0.625
40
0.625
40
0.6875
40
0.6875
40
0.75
40
0.75
40
0.8125
40
0.8125
40
0.875
40
0.875
40
0.9375
40
0.9375
40
1
40
1
40
1
40
1
41
1
10
94.2
20
-4.1726558648875
30
0
41
1
10
94.2705608728146
20
-3.68497020953384
30
0
41
1
10
94.3411217456292
20
-3.19412619892685
30
0
41
1
10
94.4822434912581
20
-2.2171323115187
30
0
41
1
10
94.5528043640727
20
-1.73099836618582
30
0
41
1
10
94.6586456732945
20
-1.01240420447434
30
0
41
1
10
94.6939261097017
20
-0.7746265746527
30
0
41
1
10
94.7468467643127
20
-0.421339258467754
30
0
41
1
10
94.7644869825164
20
-0.304139034266825
30
0
41
1
10
94.7997674189236
20
-0.0709759427047061
30
0
41
1
10
94.8174076371272
20
0.044620162391567
30
0
41
1
10
94.9056087281454
20
0.627058518333513
30
0
41
1
10
94.9761696009599
20
1.10305221243553
30
0
41
1
10
95.117291346589
20
2.06718212594254
30
0
41
1
10
95.1878522194036
20
2.55530935928229
30
0
41
1
10
95.3289739650326
20
3.53386328775065
30
0
41
1
10
95.3995348378472
20
4.02427195819393
30
0
41
1
10
95.5406565834762
20
4.99605077220301
30
0
41
1
10
95.6112174562908
20
5.47739461949661
30
0
41
1
10
95.7523392019198
20
6.41888068689639
30
0
41
1
10
95.8229000747344
20
6.87899119147647
30
0
41
1
10
95.9640218203634
20
7.7659057083666
30
0
41
1
10
96.034582693178
20
8.1926772201322
30
0
41
1
10
96.1757044388071
20
9.00184978129857
30
0
41
1
10
96.2462653116216
20
9.38422293926402
30
0
41
1
10
96.3873870572506
20
10.0955026675842
30
0
41
1
10
96.4579479300653
20
10.4243906588553
30
0
41
1
10
96.5990696756943
20
11.0222857558652
30
0
41
1
10
96.6696305485088
20
11.2912862888145
30
0
41
1
10
96.8107522941378
20
11.7660593728202
30
0
41
1
10
96.8813131669525
20
11.9718374000102
30
0
41
1
10
97.0224349125816
20
12.3198996387624
30
0
41
1
10
97.0929957853961
20
12.4621990230266
30
0
41
1
10
97.234117531025
20
12.6857986170832
30
0
41
1
10
97.3046784038397
20
12.7671199010992
30
0
41
1
10
97.4458001494688
20
12.8734591330945
30
0
41
1
10
97.5163610222833
20
12.8985
30
0
41
1
10
97.5869218950978
20
12.8985
30
0
0
SPLINE
5
E9
100
AcDbEntity
8
1
62
256
6
ByLayer
370
13
48
1
60
0
100
AcDbSpline
70
4
71
3
72
87
73
83
40
0
40
0
40
0
40
0
40
0.0312500000000002
40
0.0312500000000002
40
0.0625000000000004
40
0.0625000000000004
40
0.0937500000000006
40
0.0937500000000006
40
0.125000000000001
40
0.125000000000001
40
0.156250000000001
40
0.156250000000001
40
0.187500000000001
40
0.187500000000001
40
0.218750000000002
40
0.218750000000002
40
0.250000000000002
40
0.250000000000002
40
0.281250000000002
40
0.281250000000002
40
0.312500000000002
40
0.312500000000002
40
0.316406250000002
40
0.316406250000002
40
0.320312500000003
40
0.320312500000003
40
0.328125000000003
40
0.328125000000003
40
0.343750000000003
40
0.343750000000003
40
0.375000000000003
40
0.375000000000003
40
0.406250000000002
40
0.406250000000002
40
0.437500000000002
40
0.437500000000002
40
0.468750000000002
40
0.468750000000002
40
0.500000000000002
40
0.500000000000002
40
0.531250000000002
40
0.531250000000002
40
0.562500000000002
40
0.562500000000002
40
0.593750000000001
40
0.593750000000001
40
0.625000000000001
40
0.625000000000001
40
0.632812500000001
40
0.636718750000001
40
0.636718750000001
40
0.640625000000002
40
0.640625000000002
40
0.656250000000001
40
0.656250000000001
40
0.687500000000001
40
0.687500000000001
40
0.718750000000001
40
0.718750000000001
40
0.75
40
0.75
40
0.78125
40
0.78125
40
0.8125
40
0.8125
40
0.843749999999999
40
0.843749999999999
40
0.874999999999999
40
0.874999999999999
40
0.906249999999999
40
0.906249999999999
40
0.937499999999998
40
0.937499999999998
40
0.953124999999998
40
0.953124999999998
40
0.957031249999998
40
0.957031249999998
40
0.960937499999998
40
0.960937499999998
40
0.968749999999999
40
0.968749999999999
40
1
40
1
40
1
40
1
41
1
10
96.6120032407308
20
12.8985
30
0
41
1
10
96.702558727112
20
12.8985
30
0
41
1
10
96.793114213493
20
12.8571988555226
30
0
41
1
10
96.9742251862554
20
12.6793312422704
30
0
41
1
10
97.0647806726364
20
12.5426858574577
30
0
41
1
10
97.2458916453987
20
12.1659602027751
30
0
41
1
10
97.3364471317798
20
11.9258168853549
30
0
41
1
10
97.517558104542
20
11.3407830741192
30
0
41
1
10
97.6081135909231
20
10.9958680575832
30
0
41
1
10
97.7892245636854
20
10.2082346389719
30
0
41
1
10
97.8797800500664
20
9.7655448710783
30
0
41
1
10
98.0608910228286
20
8.79754347162003
30
0
41
1
10
98.1514465092098
20
8.2723112595184
30
0
41
1
10
98.332557481972
20
7.16099512434636
30
0
41
1
10
98.4231129683532
20
6.57502091602154
30
0
41
1
10
98.6042239411154
20
5.3676484145887
30
0
41
1
10
98.6947794274964
20
4.74636021633157
30
0
41
1
10
98.8758904002585
20
3.49402914641391
30
0
41
1
10
98.9664458866397
20
2.8630705582286
30
0
41
1
10
99.1475568594019
20
1.61430197051459
30
0
41
1
10
99.2381123457831
20
0.996537334222865
30
0
41
1
10
99.3399872679619
20
0.319160801377592
30
0
41
1
10
99.3513067037595
20
0.244137896081213
30
0
41
1
10
99.3739455753547
20
0.0946037450788992
30
0
41
1
10
99.3852650111524
20
0.0202570459515243
30
0
41
1
10
99.4192233185454
20
-0.203243810100929
30
0
41
1
10
99.4418621901406
20
-0.353297507758896
30
0
41
1
10
99.5097788049264
20
-0.806265994227374
30
0
41
1
10
99.5550565481169
20
-1.11199869907193
30
0
41
1
10
99.6908897776886
20
-2.03725747185723
30
0
41
1
10
99.7814452640697
20
-2.66498740919525
30
0
41
1
10
99.9625562368319
20
-3.92137474157701
30
0
41
1
10
100.053111723213
20
-4.5499642446141
30
0
41
1
10
100.234222695975
20
-5.78336402448917
30
0
41
1
10
100.324778182356
20
-6.38807296258861
30
0
41
1
10
100.505889155119
20
-7.54778686732459
30
0
41
1
10
100.5964446415
20
-8.10267819117254
30
0
41
1
10
100.777555614262
20
-9.13893390743073
30
0
41
1
10
100.868111100643
20
-9.62020220124529
30
0
41
1
10
101.049222073405
20
-10.4907555058059
30
0
41
1
10
101.139777559786
20
-10.879988117661
30
0
41
1
10
101.320888532549
20
-11.5556988513093
30
0
41
1
10
101.41144401893
20
-11.8421790884296
30
0
41
1
10
101.592554991692
20
-12.3100769652685
30
0
41
1
10
101.683110478073
20
-12.4915433017472
30
0
41
1
10
101.864221450835
20
-12.7547593625035
30
0
41
1
10
101.954776937216
20
-12.8365838852945
30
0
41
1
10
102.067971295193
20
-12.88345506854
30
0
41
1
10
102.101929602586
20
-12.8933766524237
30
0
41
1
10
102.135887909979
20
-12.8973228179377
30
0
41
1
10
102.158526781574
20
-12.8986530630178
30
0
41
1
10
102.169846217372
20
-12.8986712148728
30
0
41
1
10
102.22644339636
20
-12.8955300415251
30
0
41
1
10
102.27172113955
20
-12.8826109352106
30
0
41
1
10
102.407554369122
20
-12.8101376299671
30
0
41
1
10
102.498109855503
20
-12.7167098863491
30
0
41
1
10
102.679220828265
20
-12.4292837148585
30
0
41
1
10
102.769776314646
20
-12.2352124022403
30
0
41
1
10
102.950887287409
20
-11.7419378504903
30
0
41
1
10
103.04144277379
20
-11.442690634095
30
0
41
1
10
103.222553746552
20
-10.7422892454854
30
0
41
1
10
103.313109232933
20
-10.3411395036785
30
0
41
1
10
103.494220205695
20
-9.44860421866403
30
0
41
1
10
103.584775692076
20
-8.95727733897209
30
0
41
1
10
103.765886664839
20
-7.90356361062203
30
0
41
1
10
103.85644215122
20
-7.34127658980501
30
0
41
1
10
104.037553123982
20
-6.16987713415966
30
0
41
1
10
104.128108610363
20
-5.56087836718234
30
0
41
1
10
104.309219583125
20
-4.32203193250558
30
0
41
1
10
104.399775069506
20
-3.69228239827584
30
0
41
1
10
104.580886042269
20
-2.43636665857463
30
0
41
1
10
104.67144152865
20
-1.8102635429147
30
0
41
1
10
104.807274758221
20
-0.889101629848255
30
0
41
1
10
104.852552501412
20
-0.585009252626747
30
0
41
1
10
104.9091496804
20
-0.2098778325186
30
0
41
1
10
104.920469116198
20
-0.135099916534244
30
0
41
1
10
104.943107987793
20
0.013930483880273
30
0
41
1
10
104.954427423591
20
0.0882553384166727
30
0
41
1
10
104.988385730983
20
0.312512991700686
30
0
41
1
10
105.011024602579
20
0.463043712935843
30
0
41
1
10
105.124218960555
20
1.22022566665973
30
0
41
1
10
105.214774446936
20
1.84066586734048
30
0
41
1
10
105.305329933317
20
2.4664523930241
30
0
0
SPLINE
5
EA
100
AcDbEntity
8
1
62
256
6
ByLayer
370
13
48
1
60
0
100
AcDbSpline
70
4
71
3
72
42
73
38
40
0
40
0
40
0
40
0
40
0.031249999999999
40
0.031249999999999
40
0.0468749999999988
40
0.0468749999999988
40
0.0624999999999987
40
0.0624999999999987
40
0.124999999999999
40
0.124999999999999
40
0.187499999999999
40
0.187499999999999
40
0.249999999999999
40
0.249999999999999
40
0.312499999999999
40
0.312499999999999
40
0.374999999999999
40
0.374999999999999
40
0.437499999999999
40
0.437499999999999
40
0.499999999999999
40
0.499999999999999
40
0.562499999999999
40
0.562499999999999
40
0.624999999999999
40
0.624999999999999
40
0.687499999999999
40
0.687499999999999
40
0.749999999999999
40
0.749999999999999
40
0.8125
40
0.8125
40
0.875
40
0.875
40
0.9375
40
0.9375
40
1
40
1
40
1
40
1
41
1
10
94.2
20
-0.85284648593526
30
0
41
1
10
94.2302554308126
20
-0.649242769115517
30
0
41
1
10
94.2605108616251
20
-0.447138183557286
30
0
41
1
10
94.305894007844
20
-0.146673130189157
30
0
41
1
10
94.3210217232502
20
-0.0472122448550465
30
0
41
1
10
94.3512771540628
20
0.151905729374903
30
0
41
1
10
94.3664048694691
20
0.251934944256163
30
0
41
1
10
94.4420434465005
20
0.754259860789062
30
0
41
1
10
94.5025543081255
20
1.16313428824893
30
0
41
1
10
94.6235760313757
20
1.9898198077241
30
0
41
1
10
94.6840868930009
20
2.40762676233328
30
0
41
1
10
94.8051086162512
20
3.24605568841468
30
0
41
1
10
94.8656194778762
20
3.66666991934787
30
0
41
1
10
94.9866412011263
20
4.50374142733688
30
0
41
1
10
95.0471520627514
20
4.92018751721005
30
0
41
1
10
95.1681737860016
20
5.74138554782439
30
0
41
1
10
95.2286846476267
20
6.14612362109085
30
0
41
1
10
95.349706370877
20
6.93618263346156
30
0
41
1
10
95.410217232502
20
7.32148838020757
30
0
41
1
10
95.5312389557522
20
8.06521567322193
30
0
41
1
10
95.5917498173774
20
8.42362246315588
30
0
41
1
10
95.7127715406276
20
9.10679705745224
30
0
41
1
10
95.7732824022527
20
9.43155238542394
30
0
41
1
10
95.8943041255029
20
10.0417971360237
30
0
41
1
10
95.954814987128
20
10.3272779098469
30
0
41
1
10
96.0758367103781
20
10.8547969529214
30
0
41
1
10
96.1363475720033
20
11.096831330323
30
0
41
1
10
96.2573692952535
20
11.534922331331
30
0
41
1
10
96.3178801568786
20
11.7309799660684
30
0
41
1
10
96.4389018801289
20
12.0762665971506
30
0
41
1
10
96.499412741754
20
12.2255009049464
30
0
41
1
10
96.6204344650042
20
12.4778765347707
30
0
41
1
10
96.6809453266292
20
12.5810263227067
30
0
41
1
10
96.8019670498794
20
12.7433435893883
30
0
41
1
10
96.8624779115045
20
12.8025212942087
30
0
41
1
10
96.9834996347547
20
12.8800941831376
30
0
41
1
10
97.0440104963799
20
12.8985
30
0
41
1
10
97.1045213580049
20
12.8985
30
0
0
SPLINE
5
EB
100
AcDbEntity
8
1
62
256
6
ByLayer
370
13
48
1
60
0
100
AcDbSpline
70
4
71
3
72
85
73
81
40
0
40
0
40
0
40
0
40
0.0312500000000003
40
0.0312500000000003
40
0.0625000000000006
40
0.0625000000000006
40
0.0937500000000009
40
0.0937500000000009
40
0.125000000000001
40
0.125000000000001
40
0.156250000000002
40
0.156250000000002
40
0.187500000000002
40
0.187500000000002
40
0.218750000000002
40
0.218750000000002
40
0.250000000000003
40
0.250000000000003
40
0.281250000000003
40
0.281250000000003
40
0.296875000000003
40
0.296875000000003
40
0.300781250000003
40
0.300781250000003
40
0.304687500000003
40
0.304687500000003
40
0.312500000000003
40
0.312500000000003
40
0.343750000000004
40
0.343750000000004
40
0.375000000000004
40
0.375000000000004
40
0.406250000000004
40
0.406250000000004
40
0.437500000000005
40
0.437500000000005
40
0.468750000000005
40
0.468750000000005
40
0.500000000000005
40
0.500000000000005
40
0.531250000000005
40
0.531250000000005
40
0.562500000000006
40
0.562500000000006
40
0.593750000000006
40
0.593750000000006
40
0.601562500000006
40
0.601562500000006
40
0.609375000000006
40
0.609375000000006
40
0.625000000000006
40
0.625000000000006
40
0.656250000000005
40
0.656250000000005
40
0.687500000000005
40
0.687500000000005
40
0.718750000000004
40
0.718750000000004
40
0.750000000000004
40
0.750000000000004
40
0.781250000000003
40
0.781250000000003
40
0.812500000000003
40
0.812500000000003
40
0.843750000000003
40
0.843750000000003
40
0.875000000000002
40
0.875000000000002
40
0.906250000000002
40
0.906250000000002
40
0.910156250000002
40
0.910156250000002
40
0.914062500000002
40
0.921875000000001
40
0.921875000000001
40
0.937500000000001
40
0.937500000000001
40
0.968750000000001
40
0.968750000000001
40
1
40
1
40
1
40
1
41
1
10
96.1296027036381
20
12.8985
30
0
41
1
10
96.2251831956139
20
12.8985
30
0
41
1
10
96.3207636875897
20
12.8524682014688
30
0
41
1
10
96.5119246715413
20
12.6535727912616
30
0
41
1
10
96.6075051635172
20
12.5006063263585
30
0
41
1
10
96.7986661474689
20
12.0788008356602
30
0
41
1
10
96.8942466394446
20
11.8098835861473
30
0
41
1
10
97.0854076233962
20
11.1559000334727
30
0
41
1
10
97.1809881153721
20
10.7708124523511
30
0
41
1
10
97.3721490993238
20
9.89458771800415
30
0
41
1
10
97.4677295912995
20
9.40350397070085
30
0
41
1
10
97.6588905752511
20
8.3353262233594
30
0
41
1
10
97.7544710672271
20
7.75835061124275
30
0
41
1
10
97.9456320511788
20
6.54572468933273
30
0
41
1
10
98.0412125431545
20
5.91022250960961
30
0
41
1
10
98.2323735271062
20
4.61102298541977
30
0
41
1
10
98.327954019082
20
3.9474598710928
30
0
41
1
10
98.5191150030337
20
2.62136043294168
30
0
41
1
10
98.6146954950095
20
1.95891276472969
30
0
41
1
10
98.7580662329733
20
0.984399140255846
30
0
41
1
10
98.8058564789612
20
0.662709340242913
30
0
41
1
10
98.865594286446
20
0.26606341996532
30
0
41
1
10
98.877541847943
20
0.187006520162214
30
0
41
1
10
98.901436970937
20
0.0294714141063537
30
0
41
1
10
98.913384532434
20
-0.0488858898996227
30
0
41
1
10
98.9492272169249
20
-0.285331116779389
30
0
41
1
10
98.9731223399189
20
-0.444113999057436
30
0
41
1
10
99.0925979548887
20
-1.24309006824708
30
0
41
1
10
99.1881784468645
20
-1.89872050684653
30
0
41
1
10
99.3793394308161
20
-3.22076616526215
30
0
41
1
10
99.4749199227919
20
-3.88711288511124
30
0
41
1
10
99.6660809067436
20
-5.20286664400552
30
0
41
1
10
99.7616613987194
20
-5.85215350491995
30
0
41
1
10
99.9528223826711
20
-7.10334067505283
30
0
41
1
10
100.048402874647
20
-7.70509311768288
30
0
41
1
10
100.239563858599
20
-8.83217830703589
30
0
41
1
10
100.335144350574
20
-9.35737681968192
30
0
41
1
10
100.526305334526
20
-10.3081360470641
30
0
41
1
10
100.621885826502
20
-10.7336169600625
30
0
41
1
10
100.813046810454
20
-11.470894843382
30
0
41
1
10
100.908627302429
20
-11.7826866255193
30
0
41
1
10
101.099788286381
20
-12.2890381716789
30
0
41
1
10
101.195368778357
20
-12.483658745353
30
0
41
1
10
101.386529762308
20
-12.7617245477966
30
0
41
1
10
101.482110254284
20
-12.845267575491
30
0
41
1
10
101.601585869254
20
-12.8884359347195
30
0
41
1
10
101.625480992248
20
-12.8940195527821
30
0
41
1
10
101.673271238236
20
-12.8993347250091
30
0
41
1
10
101.69716636123
20
-12.8991013174297
30
0
41
1
10
101.768851730212
20
-12.8896807534295
30
0
41
1
10
101.8166419762
20
-12.8716466031513
30
0
41
1
10
101.960012714163
20
-12.7794125487282
30
0
41
1
10
102.055593206139
20
-12.6668722844204
30
0
41
1
10
102.246754190091
20
-12.3283347991579
30
0
41
1
10
102.342334682067
20
-12.1022464129423
30
0
41
1
10
102.533495666018
20
-11.5328665368672
30
0
41
1
10
102.629076157994
20
-11.1895298023558
30
0
41
1
10
102.820237141946
20
-10.3918990996472
30
0
41
1
10
102.915817633922
20
-9.93763083398323
30
0
41
1
10
103.106978617873
20
-8.93474771373681
30
0
41
1
10
103.202559109849
20
-8.38623053125283
30
0
41
1
10
103.393720093801
20
-7.21994954023575
30
0
41
1
10
103.489300585777
20
-6.60232810531247
30
0
41
1
10
103.680461569728
20
-5.32769771305024
30
0
41
1
10
103.776042061704
20
-4.67083272219261
30
0
41
1
10
103.967203045656
20
-3.34786648026926
30
0
41
1
10
104.062783537632
20
-2.6818728256124
30
0
41
1
10
104.253944521583
20
-1.3671864687243
30
0
41
1
10
104.349525013559
20
-0.718547173250897
30
0
41
1
10
104.457053067032
20
-0.0100689302608714
30
0
41
1
10
104.469000628529
20
0.0683123027241095
30
0
41
1
10
104.492895751523
20
0.226037045995639
30
0
41
1
10
104.528738436014
20
0.46348353011922
30
0
41
1
10
104.564581120505
20
0.703356221631708
30
0
41
1
10
104.636266489487
20
1.18589397142037
30
0
41
1
10
104.684056735474
20
1.51132165155656
30
0
41
1
10
104.827427473438
20
2.49480039558137
30
0
41
1
10
104.923007965414
20
3.16020803828107
30
0
41
1
10
105.114168949366
20
4.48469536762693
30
0
41
1
10
105.209749441342
20
5.14367216578228
30
0
41
1
10
105.305329933317
20
5.78454416259527
30
0
0
SPLINE
5
EC
100
AcDbEntity
8
1
62
256
6
ByLayer
370
13
48
1
60
0
100
AcDbSpline
70
4
71
3
72
28
73
24
40
0
40
0
40
0
40
0
40
0.125
40
0.125
40
0.25
40
0.25
40
0.3125
40
0.3125
40
0.375
40
0.375
40
0.4375
40
0.4375
40
0.5
40
0.5
40
0.5625
40
0.5625
40
0.625000000000001
40
0.625000000000001
40
0.75
40
0.75
40
0.875
40
0.875
40
1
40
1
40
1
40
1
41
1
10
94.2
20
2.39655645324993
30
0
41
1
10
94.3009217008713
20
3.0935363966324
30
0
41
1
10
94.4018434017427
20
3.79762874284796
30
0
41
1
10
94.6036868034854
20
5.1878528366918
30
0
41
1
10
94.7046085043566
20
5.87382855120211
30
0
41
1
10
94.8559910556637
20
6.86242824166982
30
0
41
1
10
94.9064519060994
20
7.18522251891076
30
0
41
1
10
95.0073736069708
20
7.81299415054394
30
0
41
1
10
95.0578344574064
20
8.11796545828682
30
0
41
1
10
95.1587561582778
20
8.70604715320181
30
0
41
1
10
95.2092170087134
20
8.98915210794428
30
0
41
1
10
95.3101387095847
20
9.52993862093092
30
0
41
1
10
95.3605995600204
20
9.7876158388917
30
0
41
1
10
95.4615212608917
20
10.2746143018049
30
0
41
1
10
95.5119821113274
20
10.5039326588628
30
0
41
1
10
95.6129038121987
20
10.9320204117446
30
0
41
1
10
95.6633646626344
20
11.1307885640643
30
0
41
1
10
95.8147472139414
20
11.6791832965996
30
0
41
1
10
95.9156689148127
20
11.980511653715
30
0
41
1
10
96.1175123165555
20
12.4531436635086
30
0
41
1
10
96.2184340174268
20
12.6245433434225
30
0
41
1
10
96.4202774191694
20
12.8471544567116
30
0
41
1
10
96.5211991200408
20
12.8985
30
0
41
1
10
96.6221208209121
20
12.8985
30
0
0
SPLINE
5
ED
100
AcDbEntity
8
1
62
256
6
ByLayer
370
13
48
1
60
0
100
AcDbSpline
70
4
71
3
72
109
73
105
40
0
40
0
40
0
40
0
40
0.0312499999999994
40
0.0312499999999994
40
0.0624999999999987
40
0.0624999999999987
40
0.0937499999999981
40
0.0937499999999981
40
0.109374999999998
40
0.109374999999998
40
0.124999999999997
40
0.124999999999997
40
0.140624999999997
40
0.140624999999997
40
0.156249999999997
40
0.156249999999997
40
0.171874999999996
40
0.171874999999996
40
0.187499999999996
40
0.187499999999996
40
0.218749999999995
40
0.218749999999995
40
0.249999999999994
40
0.249999999999994
40
0.281249999999993
40
0.281249999999993
40
0.285156249999993
40
0.285156249999993
40
0.289062499999993
40
0.289062499999993
40
0.296874999999993
40
0.296874999999993
40
0.312499999999993
40
0.312499999999993
40
0.343749999999994
40
0.343749999999994
40
0.374999999999994
40
0.374999999999994
40
0.390624999999994
40
0.390624999999994
40
0.406249999999994
40
0.406249999999994
40
0.421874999999994
40
0.421874999999994
40
0.437499999999994
40
0.437499999999994
40
0.453124999999994
40
0.453124999999994
40
0.468749999999994
40
0.468749999999994
40
0.499999999999994
40
0.499999999999994
40
0.531249999999994
40
0.531249999999994
40
0.562499999999994
40
0.562499999999994
40
0.570312499999994
40
0.570312499999994
40
0.574218749999994
40
0.574218749999994
40
0.578124999999994
40
0.578124999999994
40
0.593749999999995
40
0.593749999999995
40
0.624999999999995
40
0.624999999999995
40
0.656249999999996
40
0.656249999999996
40
0.671874999999996
40
0.671874999999996
40
0.687499999999997
40
0.687499999999997
40
0.703124999999997
40
0.703124999999997
40
0.718749999999997
40
0.718749999999997
40
0.734374999999998
40
0.734374999999998
40
0.749999999999998
40
0.749999999999998
40
0.765624999999998
40
0.765624999999998
40
0.781249999999999
40
0.781249999999999
40
0.812499999999999
40
0.812499999999999
40
0.84375
40
0.84375
40
0.859375
40
0.859375
40
0.86328125
40
0.86328125
40
0.8671875
40
0.875
40
0.875
40
0.90625
40
0.90625
40
0.9375
40
0.9375
40
0.96875
40
0.96875
40
0.984375
40
0.984375
40
1
40
1
40
1
40
1
41
1
10
95.6472021665451
20
12.8985
30
0
41
1
10
95.7478076641157
20
12.8985
30
0
41
1
10
95.8484131616863
20
12.8474772431699
30
0
41
1
10
96.0496241568273
20
12.6263094655492
30
0
41
1
10
96.1502296543978
20
12.4560323674346
30
0
41
1
10
96.351440649539
20
11.9864927291856
30
0
41
1
10
96.4520461471095
20
11.6871352550155
30
0
41
1
10
96.6029543934653
20
11.1422510868094
30
0
41
1
10
96.6532571422506
20
10.9447441525546
30
0
41
1
10
96.7538626398212
20
10.5193314778045
30
0
41
1
10
96.8041653886064
20
10.2914269252321
30
0
41
1
10
96.904770886177
20
9.80737003629181
30
0
41
1
10
96.9550736349622
20
9.55122050388854
30
0
41
1
10
97.0556791325327
20
9.01355755067257
30
0
41
1
10
97.105981881318
20
8.73204836653403
30
0
41
1
10
97.2065873788887
20
8.14717637668167
30
0
41
1
10
97.2568901276739
20
7.8438188919817
30
0
41
1
10
97.3574956252444
20
7.21924207094219
30
0
41
1
10
97.4077983740296
20
6.89802867498099
30
0
41
1
10
97.5587066203855
20
5.91404938794804
30
0
41
1
10
97.659312117956
20
5.23098686039009
30
0
41
1
10
97.8605231130971
20
3.84593934439826
30
0
41
1
10
97.9611286106676
20
3.1441092784919
30
0
41
1
10
98.1623396058087
20
1.75384885988058
30
0
41
1
10
98.2629451033793
20
1.06550297354875
30
0
41
1
10
98.3761262881462
20
0.312905096597774
30
0
41
1
10
98.3887019753424
20
0.229580605565388
30
0
41
1
10
98.4138533497351
20
0.063566777571026
30
0
41
1
10
98.4264290369314
20
-0.0189149684876782
30
0
41
1
10
98.4641560985203
20
-0.267591126007261
30
0
41
1
10
98.4893074729131
20
-0.434660580051485
30
0
41
1
10
98.564761596091
20
-0.939235140549556
30
0
41
1
10
98.6150643448762
20
-1.28012231795054
30
0
41
1
10
98.7659725912321
20
-2.31179445821692
30
0
41
1
10
98.8665780888026
20
-3.01179500436192
30
0
41
1
10
99.0677890839437
20
-4.40662841893345
30
0
41
1
10
99.1683945815142
20
-5.10133222054012
30
0
41
1
10
99.31930282787
20
-6.11343224485603
30
0
41
1
10
99.3696055766553
20
-6.44577977767943
30
0
41
1
10
99.4702110742259
20
-7.09602897426078
30
0
41
1
10
99.5205138230111
20
-7.41392457168675
30
0
41
1
10
99.6211193205817
20
-8.03101603332985
30
0
41
1
10
99.6714220693669
20
-8.33020604281231
30
0
41
1
10
99.7720275669375
20
-8.90597855620103
30
0
41
1
10
99.8223303157227
20
-9.18255592641995
30
0
41
1
10
99.9229358132933
20
-9.70970827357246
30
0
41
1
10
99.9732385620786
20
-9.96027928404828
30
0
41
1
10
100.073844059649
20
-10.4326750600917
30
0
41
1
10
100.124146808434
20
-10.654497344035
30
0
41
1
10
100.27505505479
20
-11.2738523259215
30
0
41
1
10
100.375660552361
20
-11.6248703387694
30
0
41
1
10
100.576871547502
20
-12.1967814555153
30
0
41
1
10
100.677477045072
20
-12.417741460361
30
0
41
1
10
100.878688040214
20
-12.7352549050908
30
0
41
1
10
100.979293537784
20
-12.8319314948763
30
0
41
1
10
101.105050409747
20
-12.8842899857217
30
0
41
1
10
101.13020178414
20
-12.891353957851
30
0
41
1
10
101.167928845729
20
-12.8970529197872
30
0
41
1
10
101.180504532925
20
-12.8981365497609
30
0
41
1
10
101.205655907318
20
-12.8987090700181
30
0
41
1
10
101.218231594514
20
-12.8982025498339
30
0
41
1
10
101.281110030496
20
-12.8916281553972
30
0
41
1
10
101.331412779281
20
-12.8734072169793
30
0
41
1
10
101.482321025637
20
-12.7765009409533
30
0
41
1
10
101.582926523207
20
-12.6553123154833
30
0
41
1
10
101.784137518348
20
-12.286721843526
30
0
41
1
10
101.884743015919
20
-12.0392044420416
30
0
41
1
10
102.035651262275
20
-11.5706059678117
30
0
41
1
10
102.08595401106
20
-11.398273905536
30
0
41
1
10
102.18655950863
20
-11.0220654590715
30
0
41
1
10
102.236862257416
20
-10.8181889695159
30
0
41
1
10
102.337467754986
20
-10.3804148246644
30
0
41
1
10
102.387770503772
20
-10.1465186946136
30
0
41
1
10
102.488376001342
20
-9.65101304024881
30
0
41
1
10
102.538678750128
20
-9.38940663447019
30
0
41
1
10
102.639284247698
20
-8.84150283301648
30
0
41
1
10
102.689586996483
20
-8.55520992942087
30
0
41
1
10
102.790192494054
20
-7.96155498061782
30
0
41
1
10
102.840495242839
20
-7.65419842396909
30
0
41
1
10
102.94110074041
20
-7.02248614689637
30
0
41
1
10
102.991403489195
20
-6.69813643066379
30
0
41
1
10
103.092008986765
20
-6.03678160260421
30
0
41
1
10
103.142311735551
20
-5.69978249652473
30
0
41
1
10
103.293219981907
20
-4.67645518912707
30
0
41
1
10
103.393825479477
20
-3.97793248878693
30
0
41
1
10
103.595036474618
20
-2.58211884914363
30
0
41
1
10
103.695641972189
20
-1.88494223882614
30
0
41
1
10
103.846550218544
20
-0.861411105884855
30
0
41
1
10
103.89685296733
20
-0.523884046036301
30
0
41
1
10
103.959731403311
20
-0.10828150097413
30
0
41
1
10
103.972307090508
20
-0.0256732580083394
30
0
41
1
10
103.9974584649
20
0.139878615060923
30
0
41
1
10
104.035185526489
20
0.389179565714699
30
0
41
1
10
104.072912588078
20
0.641226109564144
30
0
41
1
10
104.198669460041
20
1.48663312373722
30
0
41
1
10
104.299274957612
20
2.18006669707199
30
0
41
1
10
104.500485952753
20
3.57438761786693
30
0
41
1
10
104.601091450324
20
4.27517497327847
30
0
41
1
10
104.802302445465
20
5.65096735054726
30
0
41
1
10
104.902907943035
20
6.3258061167696
30
0
41
1
10
105.053816189391
20
7.29202568454494
30
0
41
1
10
105.104118938176
20
7.60642406416767
30
0
41
1
10
105.204724435747
20
8.21568592350218
30
0
41
1
10
105.255027184532
20
8.51054365579168
30
0
41
1
10
105.305329933317
20
8.79372620074668
30
0
0
SPLINE
5
EE
100
AcDbEntity
8
1
62
256
6
ByLayer
370
13
48
1
60
0
100
AcDbSpline
70
4
71
3
72
22
73
18
40
0
40
0
40
0
40
0
40
0.125
40
0.125
40
0.25
40
0.25
40
0.375
40
0.375
40
0.5
40
0.5
40
0.625
40
0.625
40
0.75
40
0.75
40
0.875
40
0.875
40
1
40
1
40
1
40
1
41
1
10
94.2
20
5.71663804590003
30
0
41
1
10
94.2808216784924
20
6.25962028674724
30
0
41
1
10
94.3616433569849
20
6.78996185137296
30
0
41
1
10
94.5232867139698
20
7.80721062140472
30
0
41
1
10
94.6041083924623
20
8.29405384487868
30
0
41
1
10
94.7657517494474
20
9.2077874165717
30
0
41
1
10
94.8465734279397
20
9.63462479548988
30
0
41
1
10
95.0082167849247
20
10.4153931354116
30
0
41
1
10
95.0890384634171
20
10.7692936701667
30
0
41
1
10
95.2506818204021
20
11.3960909057117
30
0
41
1
10
95.3315034988946
20
11.6689848448692
30
0
41
1
10
95.4931468558796
20
12.1310379151574
30
0
41
1
10
95.5739685343719
20
12.3202193268477
30
0
41
1
10
95.7356118913568
20
12.6171729356219
30
0
41
1
10
95.8164335698494
20
12.7249840204192
30
0
41
1
10
95.9780769268343
20
12.8656250456667
30
0
41
1
10
96.0588986053268
20
12.8985
30
0
41
1
10
96.1397202838192
20
12.8985
30
0
0
SPLINE
5
EF
100
AcDbEntity
8
1
62
256
6
ByLayer
370
13
48
1
60
0
100
AcDbSpline
70
4
71
3
72
139
73
135
40
0
40
0
40
0
40
0
40
0.0312500000000001
40
0.0312500000000001
40
0.0468750000000002
40
0.0468750000000002
40
0.0625000000000002
40
0.0625000000000002
40
0.0781250000000002
40
0.0781250000000002
40
0.0937500000000003
40
0.0937500000000003
40
0.109375
40
0.109375
40
0.125
40
0.125
40
0.140625
40
0.140625
40
0.15625
40
0.15625
40
0.171875
40
0.171875
40
0.1875
40
0.1875
40
0.203125
40
0.203125
40
0.21875
40
0.21875
40
0.234375
40
0.234375
40
0.25
40
0.25
40
0.265625
40
0.265625
40
0.2734375
40
0.2734375
40
0.27734375
40
0.27734375
40
0.28125
40
0.28125
40
0.3125
40
0.3125
40
0.328125
40
0.328125
40
0.34375
40
0.34375
40
0.359375
40
0.359375
40
0.375
40
0.375
40
0.390625
40
0.390625
40
0.40625
40
0.40625
40
0.421875
40
0.421875
40
0.4375
40
0.4375
40
0.453125
40
0.453125
40
0.46875
40
0.46875
40
0.484375
40
0.484375
40
0.5
40
0.5
40
0.515625
40
0.515625
40
0.53125
40
0.53125
40
0.546875
40
0.546875
40
0.55078125
40
0.55078125
40
0.5546875
40
0.5625
40
0.5625
40
0.578125
40
0.578125
40
0.59375
40
0.59375
40
0.609375
40
0.609375
40
0.625
40
0.625
40
0.640625
40
0.640625
40
0.65625
40
0.65625
40
0.671875
40
0.671875
40
0.6875
40
0.6875
40
0.703125
40
0.703125
40
0.71875
40
0.71875
40
0.734375
40
0.734375
40
0.75
40
0.75
40
0.765625
40
0.765625
40
0.78125
40
0.78125
40
0.8125
40
0.8125
40
0.8203125
40
0.8203125
40
0.82421875
40
0.82421875
40
0.828125
40
0.828125
40
0.84375
40
0.84375
40
0.859375
40
0.859375
40
0.875
40
0.875
40
0.890625
40
0.890625
40
0.90625
40
0.90625
40
0.921875
40
0.921875
40
0.9375
40
0.9375
40
0.953125
40
0.953125
40
0.96875
40
0.96875
40
0.984375
40
0.984375
40
1
40
1
40
1
40
1
41
1
10
95.1648016294523
20
12.8985
30
0
41
1
10
95.2704321326175
20
12.8985
30
0
41
1
10
95.3760626357828
20
12.842225080916
30
0
41
1
10
95.5345083905307
20
12.6587049770035
30
0
41
1
10
95.5873236421133
20
12.5810626336602
30
0
41
1
10
95.6929541452786
20
12.3911951183295
30
0
41
1
10
95.7457693968612
20
12.2789652242844
30
0
41
1
10
95.8513999000265
20
12.0190042170015
30
0
41
1
10
95.9042151516092
20
11.8712695084927
30
0
41
1
10
96.0098456547744
20
11.5402444776871
30
0
41
1
10
96.062660906357
20
11.3569521965267
30
0
41
1
10
96.1682914095222
20
10.955706844955
30
0
41
1
10
96.2211066611048
20
10.7377538335474
30
0
41
1
10
96.3267371642701
20
10.269060884637
30
0
41
1
10
96.3795524158528
20
10.0183231954057
30
0
41
1
10
96.485182919018
20
9.48687961560961
30
0
41
1
10
96.5379981706006
20
9.20617807249906
30
0
41
1
10
96.643628673766
20
8.61847081728658
30
0
41
1
10
96.6964439253486
20
8.31147119610344
30
0
41
1
10
96.8020744285139
20
7.67551891565452
30
0
41
1
10
96.8548896800964
20
7.34657351762596
30
0
41
1
10
96.9605201832618
20
6.67156521858101
30
0
41
1
10
97.0133354348443
20
6.32551004955019
30
0
41
1
10
97.1189659380095
20
5.62137444602286
30
0
41
1
10
97.1717811895923
20
5.26330150042887
30
0
41
1
10
97.2774116927575
20
4.54024822052671
30
0
41
1
10
97.3302269443401
20
4.17527451066439
30
0
41
1
10
97.4358574475054
20
3.44334922030376
30
0
41
1
10
97.488672699088
20
3.07640294923402
30
0
41
1
10
97.5943032022533
20
2.34509311280755
30
0
41
1
10
97.6471184538359
20
1.9807332993777
30
0
41
1
10
97.7527489570012
20
1.25865134471545
30
0
41
1
10
97.8055642085839
20
0.900931359230782
30
0
41
1
10
97.8847870859578
20
0.371925211485063
30
0
41
1
10
97.9111947117491
20
0.19684730169061
30
0
41
1
10
97.9508061504362
20
-0.0636036689990078
30
0
41
1
10
97.9640099633317
20
-0.15054395034727
30
0
41
1
10
97.9904175891231
20
-0.325332761745528
30
0
41
1
10
98.0036214020187
20
-0.413069291331425
30
0
41
1
10
98.1224557180796
20
-1.20556379057859
30
0
41
1
10
98.2280862212448
20
-1.93077846470453
30
0
41
1
10
98.3865319759927
20
-3.02739004423469
30
0
41
1
10
98.4393472275754
20
-3.39431477617436
30
0
41
1
10
98.5449777307406
20
-4.12640920868839
30
0
41
1
10
98.5977929823232
20
-4.49157366568761
30
0
41
1
10
98.7034234854885
20
-5.21523358974156
30
0
41
1
10
98.7562387370712
20
-5.57372248285185
30
0
41
1
10
98.8618692402364
20
-6.27891921558691
30
0
41
1
10
98.9146844918191
20
-6.62561959265193
30
0
41
1
10
99.0203149949843
20
-7.30214159561498
30
0
41
1
10
99.073130246567
20
-7.63195548548856
30
0
41
1
10
99.1787607497322
20
-8.26985170512216
30
0
41
1
10
99.2315760013149
20
-8.57792673723671
30
0
41
1
10
99.3372065044801
20
-9.16796565510222
30
0
41
1
10
99.3900217560628
20
-9.44992338423791
30
0
41
1
10
99.495652259228
20
-9.98402582840947
30
0
41
1
10
99.5484675108106
20
-10.2361661088294
30
0
41
1
10
99.654098013976
20
-10.7077704776821
30
0
41
1
10
99.7069132655586
20
-10.9272322203096
30
0
41
1
10
99.8125437687237
20
-11.3315579267254
30
0
41
1
10
99.8653590203065
20
-11.5164217357489
30
0
41
1
10
99.9709895234718
20
-11.8506092258116
30
0
41
1
10
100.023804775054
20
-11.9999347825906
30
0
41
1
10
100.12943527822
20
-12.2630559808331
30
0
41
1
10
100.182250529802
20
-12.3768551548503
30
0
41
1
10
100.287881032967
20
-12.569803609615
30
0
41
1
10
100.34069628455
20
-12.6489575738801
30
0
41
1
10
100.446326787715
20
-12.7742401401158
30
0
41
1
10
100.499142039298
20
-12.820374029077
30
0
41
1
10
100.604772542463
20
-12.881833787922
30
0
41
1
10
100.657587794046
20
-12.8971650391019
30
0
41
1
10
100.723606858524
20
-12.8987292204493
30
0
41
1
10
100.73681067142
20
-12.8981681731574
30
0
41
1
10
100.763218297211
20
-12.8952621456458
30
0
41
1
10
100.802829735898
20
-12.8882241243748
30
0
41
1
10
100.842441174585
20
-12.8729558156294
30
0
41
1
10
100.921664051959
20
-12.8309611013099
30
0
41
1
10
100.974479303542
20
-12.7876711230394
30
0
41
1
10
101.080109806707
20
-12.6682524228345
30
0
41
1
10
101.13292505829
20
-12.5921183859062
30
0
41
1
10
101.238555561455
20
-12.4053266500969
30
0
41
1
10
101.291370813038
20
-12.2946641917197
30
0
41
1
10
101.397001316203
20
-12.0378614108353
30
0
41
1
10
101.449816567785
20
-11.8917174313682
30
0
41
1
10
101.555447070951
20
-11.5638565171114
30
0
41
1
10
101.608262322533
20
-11.3821375411067
30
0
41
1
10
101.713892825698
20
-10.9839780554449
30
0
41
1
10
101.766708077281
20
-10.7675375093798
30
0
41
1
10
101.872338580446
20
-10.3017653374636
30
0
41
1
10
101.925153832029
20
-10.052435862172
30
0
41
1
10
102.030784335194
20
-9.52366408208059
30
0
41
1
10
102.083599586777
20
-9.24422603685829
30
0
41
1
10
102.189230089942
20
-8.65886644103705
30
0
41
1
10
102.242045341525
20
-8.35295091450581
30
0
41
1
10
102.34767584469
20
-7.71896090756863
30
0
41
1
10
102.400491096273
20
-7.39089365058214
30
0
41
1
10
102.506121599438
20
-6.717418864546
30
0
41
1
10
102.558936851021
20
-6.37201906200633
30
0
41
1
10
102.664567354186
20
-5.66896495264126
30
0
41
1
10
102.717382605769
20
-5.31131815981303
30
0
41
1
10
102.823013108934
20
-4.58889155456134
30
0
41
1
10
102.875828360516
20
-4.22411841618344
30
0
41
1
10
102.981458863682
20
-3.49238117603488
30
0
41
1
10
103.034274115264
20
-3.12542244906516
30
0
41
1
10
103.192719870012
20
-2.02813024962168
30
0
41
1
10
103.298350373177
20
-1.30168786420228
30
0
41
1
10
103.430388502134
20
-0.418899097465953
30
0
41
1
10
103.456796127925
20
-0.243581222498932
30
0
41
1
10
103.496407566612
20
0.0172534155015569
30
0
41
1
10
103.509611379508
20
0.103946650613523
30
0
41
1
10
103.536019005299
20
0.27849004136786
30
0
41
1
10
103.549222818195
20
0.366107957308998
30
0
41
1
10
103.615241882673
20
0.805811207210013
30
0
41
1
10
103.668057134256
20
1.16276200522043
30
0
41
1
10
103.773687637421
20
1.8836389355948
30
0
41
1
10
103.826502889004
20
2.24756305035493
30
0
41
1
10
103.932133392169
20
2.97838492315088
30
0
41
1
10
103.984948643752
20
3.34527907280412
30
0
41
1
10
104.090579146917
20
4.0775238054722
30
0
41
1
10
104.143394398499
20
4.44286921122719
30
0
41
1
10
104.249024901665
20
5.16711578318851
30
0
41
1
10
104.301840153247
20
5.52601042683551
30
0
41
1
10
104.407470656413
20
6.2322479202893
30
0
41
1
10
104.460285907995
20
6.57958333511459
30
0
41
1
10
104.565916411161
20
7.25759918846779
30
0
41
1
10
104.618731662743
20
7.5882718883652
30
0
41
1
10
104.724362165909
20
8.22809362800709
30
0
41
1
10
104.777177417491
20
8.53723533511351
30
0
41
1
10
104.882807920656
20
9.12958979796036
30
0
41
1
10
104.935623172239
20
9.41279633255945
30
0
41
1
10
105.041253675404
20
9.9495445565596
30
0
41
1
10
105.094068926987
20
10.2030817249206
30
0
41
1
10
105.199699430152
20
10.677587989507
30
0
41
1
10
105.252514681735
20
10.8985546425962
30
0
41
1
10
105.305329933317
20
11.1022548309342
30
0
0
SPLINE
5
F0
100
AcDbEntity
8
1
62
256
6
ByLayer
370
13
48
1
60
0
100
AcDbSpline
70
4
71
3
72
22
73
18
40
0
40
0
40
0
40
0
40
0.125
40
0.125
40
0.25
40
0.25
40
0.375
40
0.375
40
0.5
40
0.5
40
0.625
40
0.625
40
0.75
40
0.75
40
0.875
40
0.875
40
1
40
1
40
1
40
1
41
1
10
94.2
20
8.73661200423206
30
0
41
1
10
94.2607216561136
20
9.08032529776517
30
0
41
1
10
94.3214433122272
20
9.40717664514307
30
0
41
1
10
94.4428866244543
20
10.0214605223872
30
0
41
1
10
94.503608280568
20
10.3088841428028
30
0
41
1
10
94.6250515927951
20
10.8400561910765
30
0
41
1
10
94.6857732489088
20
11.0838005533292
30
0
41
1
10
94.807216561136
20
11.5250195157969
30
0
41
1
10
94.8679382172496
20
11.72249506103
30
0
41
1
10
94.9893815294768
20
12.0702902968997
30
0
41
1
10
95.0501031855903
20
12.2206153378339
30
0
41
1
10
95.1715464978175
20
12.4748344991938
30
0
41
1
10
95.2322681539312
20
12.5787372071596
30
0
41
1
10
95.3537114661584
20
12.7422336417102
30
0
41
1
10
95.4144331222719
20
12.8018377657502
30
0
41
1
10
95.5358764344991
20
12.8799655351107
30
0
41
1
10
95.5965980906127
20
12.8985
30
0
41
1
10
95.6573197467263
20
12.8985
30
0
0
SPLINE
5
F1
100
AcDbEntity
8
1
62
256
6
ByLayer
370
13
48
1
60
0
100
AcDbSpline
70
4
71
3
72
145
73
141
40
0
40
0
40
0
40
0
40
0.0156249999999999
40
0.0156249999999999
40
0.0312499999999998
40
0.0312499999999998
40
0.0468749999999996
40
0.0468749999999996
40
0.0624999999999995
40
0.0624999999999995
40
0.0781249999999994
40
0.0781249999999994
40
0.0937499999999993
40
0.0937499999999993
40
0.109374999999999
40
0.109374999999999
40
0.124999999999999
40
0.124999999999999
40
0.140624999999999
40
0.140624999999999
40
0.156249999999999
40
0.156249999999999
40
0.171874999999999
40
0.171874999999999
40
0.187499999999999
40
0.187499999999999
40
0.203124999999999
40
0.203124999999999
40
0.218749999999999
40
0.218749999999999
40
0.234374999999999
40
0.234374999999999
40
0.249999999999998
40
0.249999999999998
40
0.257812499999998
40
0.257812499999998
40
0.261718749999998
40
0.261718749999998
40
0.265624999999998
40
0.265624999999998
40
0.281249999999998
40
0.281249999999998
40
0.296874999999998
40
0.296874999999998
40
0.312499999999998
40
0.312499999999998
40
0.328124999999998
40
0.328124999999998
40
0.343749999999998
40
0.343749999999998
40
0.359374999999998
40
0.359374999999998
40
0.374999999999998
40
0.374999999999998
40
0.390624999999998
40
0.390624999999998
40
0.406249999999998
40
0.406249999999998
40
0.421874999999998
40
0.421874999999998
40
0.437499999999998
40
0.437499999999998
40
0.453124999999998
40
0.453124999999998
40
0.468749999999998
40
0.468749999999998
40
0.484374999999997
40
0.484374999999997
40
0.499999999999997
40
0.499999999999997
40
0.515624999999997
40
0.515624999999997
40
0.519531249999997
40
0.519531249999997
40
0.523437499999997
40
0.523437499999997
40
0.531249999999997
40
0.531249999999997
40
0.546874999999997
40
0.546874999999997
40
0.562499999999997
40
0.562499999999997
40
0.578124999999997
40
0.578124999999997
40
0.593749999999998
40
0.593749999999998
40
0.609374999999998
40
0.609374999999998
40
0.624999999999998
40
0.624999999999998
40
0.640624999999998
40
0.640624999999998
40
0.656249999999998
40
0.656249999999998
40
0.671874999999998
40
0.671874999999998
40
0.687499999999998
40
0.687499999999998
40
0.703124999999998
40
0.703124999999998
40
0.718749999999998
40
0.718749999999998
40
0.734374999999998
40
0.734374999999998
40
0.749999999999999
40
0.749999999999999
40
0.765624999999999
40
0.765624999999999
40
0.781249999999999
40
0.781249999999999
40
0.785156249999999
40
0.785156249999999
40
0.789062499999999
40
0.796874999999999
40
0.796874999999999
40
0.812499999999999
40
0.812499999999999
40
0.828124999999999
40
0.828124999999999
40
0.843749999999999
40
0.843749999999999
40
0.859374999999999
40
0.859374999999999
40
0.874999999999999
40
0.874999999999999
40
0.890624999999999
40
0.890624999999999
40
0.906249999999999
40
0.906249999999999
40
0.921875
40
0.921875
40
0.9375
40
0.9375
40
0.953125
40
0.953125
40
0.96875
40
0.96875
40
0.984375
40
0.984375
40
1
40
1
40
1
40
1
41
1
10
94.6824010923593
20
12.8985
30
0
41
1
10
94.7377288467394
20
12.8985
30
0
41
1
10
94.7930566011194
20
12.8831158982013
30
0
41
1
10
94.9037121098793
20
12.8185395601346
30
0
41
1
10
94.9590398642594
20
12.76934053682
30
0
41
1
10
95.0696953730194
20
12.634600123987
30
0
41
1
10
95.1250231273993
20
12.5490520898011
30
0
41
1
10
95.2356786361594
20
12.3398017176125
30
0
41
1
10
95.2910063905394
20
12.2160935861008
30
0
41
1
10
95.4016618992993
20
11.9296228177679
30
0
41
1
10
95.4569896536792
20
11.7668559947754
30
0
41
1
10
95.5676451624392
20
11.4024320195532
30
0
41
1
10
95.6229729168192
20
11.2007729683596
30
0
41
1
10
95.7336284255792
20
10.7598868810173
30
0
41
1
10
95.7889561799592
20
10.5206606998558
30
0
41
1
10
95.8996116887192
20
10.0071380751719
30
0
41
1
10
95.9549394430991
20
9.73284537856668
30
0
41
1
10
96.0655949518591
20
9.15279397129714
30
0
41
1
10
96.1209227062391
20
8.84704164954431
30
0
41
1
10
96.2315782149991
20
8.20862836962436
30
0
41
1
10
96.2869059693791
20
7.87597582493575
30
0
41
1
10
96.3975614781391
20
7.18904783834921
30
0
41
1
10
96.4528892325191
20
6.83478194996363
30
0
41
1
10
96.563544741279
20
6.11036822764285
30
0
41
1
10
96.618872495659
20
5.74023009159771
30
0
41
1
10
96.729528004419
20
4.98997535366434
30
0
41
1
10
96.784855758799
20
4.60986765788977
30
0
41
1
10
96.895511267559
20
3.84545722291654
30
0
41
1
10
96.9508390219389
20
3.46116186393027
30
0
41
1
10
97.061494530699
20
2.69379254681479
30
0
41
1
10
97.1168222850789
20
2.31072399528765
30
0
41
1
10
97.2274777938389
20
1.55066449619321
30
0
41
1
10
97.2828055482188
20
1.17367683710165
30
0
41
1
10
97.3657971797888
20
0.615877484453733
30
0
41
1
10
97.3934610569788
20
0.431219031569412
30
0
41
1
10
97.4349568727638
20
0.156480484763108
30
0
41
1
10
97.4487888113589
20
0.0654035755124482
30
0
41
1
10
97.4764526885489
20
-0.116503992640844
30
0
41
1
10
97.4902846271439
20
-0.207853372011527
30
0
41
1
10
97.5594443201189
20
-0.666447631484999
30
0
41
1
10
97.6147720744988
20
-1.0392642371142
30
0
41
1
10
97.7254275832589
20
-1.79295839014819
30
0
41
1
10
97.7807553376388
20
-2.17383358327689
30
0
41
1
10
97.8914108463988
20
-2.93909366477294
30
0
41
1
10
97.9467386007788
20
-3.32347410570989
30
0
41
1
10
98.0573941095387
20
-4.09056597589634
30
0
41
1
10
98.1127218639188
20
-4.47327088237557
30
0
41
1
10
98.2233773726788
20
-5.23137040513092
30
0
41
1
10
98.2787051270587
20
-5.60675673182087
30
0
41
1
10
98.3893606358186
20
-6.34433894050872
30
0
41
1
10
98.4446883901986
20
-6.70652537680652
30
0
41
1
10
98.5553438989587
20
-7.41185747417995
30
0
41
1
10
98.6106716533386
20
-7.75499339269356
30
0
41
1
10
98.7213271620985
20
-8.41669532564714
30
0
41
1
10
98.7766549164786
20
-8.73525228971661
30
0
41
1
10
98.8873104252387
20
-9.34287419726624
30
0
41
1
10
98.9426381796186
20
-9.63193173871252
30
0
41
1
10
99.0532936883786
20
-10.1764901020277
30
0
41
1
10
99.1086214427586
20
-10.4319859252597
30
0
41
1
10
99.2192769515185
20
-10.9064022635273
30
0
41
1
10
99.2746047058985
20
-11.1253206074097
30
0
41
1
10
99.3852602146585
20
-11.5247183522588
30
0
41
1
10
99.4405879690386
20
-11.7051984444995
30
0
41
1
10
99.5512434777986
20
-12.0270329661072
30
0
41
1
10
99.6065712321786
20
-12.1683906197328
30
0
41
1
10
99.7172267409384
20
-12.4124101275707
30
0
41
1
10
99.7725544953184
20
-12.5150771391875
30
0
41
1
10
99.8832100040784
20
-12.6831335445012
30
0
41
1
10
99.9385377584586
20
-12.7485292903359
30
0
41
1
10
100.049193267218
20
-12.8442740698215
30
0
41
1
10
100.104521021598
20
-12.8746299067109
30
0
41
1
10
100.173680714573
20
-12.892447660187
30
0
41
1
10
100.187512653168
20
-12.8950060692574
30
0
41
1
10
100.215176530358
20
-12.8981612519097
30
0
41
1
10
100.229008468953
20
-12.8987594710474
30
0
41
1
10
100.270504284738
20
-12.8976771398503
30
0
41
1
10
100.298168161928
20
-12.8930938881241
30
0
41
1
10
100.381159793498
20
-12.8671732046845
30
0
41
1
10
100.436487547878
20
-12.8336477058223
30
0
41
1
10
100.547143056638
20
-12.7313254075552
30
0
41
1
10
100.602470811018
20
-12.6625218177074
30
0
41
1
10
100.713126319778
20
-12.4874792458933
30
0
41
1
10
100.768454074158
20
-12.3812339913224
30
0
41
1
10
100.879109582918
20
-12.1299730696194
30
0
41
1
10
100.934437337298
20
-11.9849523959411
30
0
41
1
10
101.045092846058
20
-11.6558068427887
30
0
41
1
10
101.100420600438
20
-11.4716789541467
30
0
41
1
10
101.211076109198
20
-11.0651094179108
30
0
41
1
10
101.266403863578
20
-10.8426673383201
30
0
41
1
10
101.377059372338
20
-10.3614377730328
30
0
41
1
10
101.432387126718
20
-10.1026527309316
30
0
41
1
10
101.543042635478
20
-9.55185416183406
30
0
41
1
10
101.598370389858
20
-9.25984588242508
30
0
41
1
10
101.709025898618
20
-8.64675029707638
30
0
41
1
10
101.764353652998
20
-8.32567058388318
30
0
41
1
10
101.875009161758
20
-7.65941937082579
30
0
41
1
10
101.930336916138
20
-7.31425702856262
30
0
41
1
10
102.040992424898
20
-6.60541102035745
30
0
41
1
10
102.096320179278
20
-6.2417371102589
30
0
41
1
10
102.206975688038
20
-5.50173407472619
30
0
41
1
10
102.262303442418
20
-5.12541432001311
30
0
41
1
10
102.372958951178
20
-4.36599067403554
30
0
41
1
10
102.428286705558
20
-3.98289492827757
30
0
41
1
10
102.538942214318
20
-3.21552952351604
30
0
41
1
10
102.594269968698
20
-2.83126620120345
30
0
41
1
10
102.704925477458
20
-2.0666957737636
30
0
41
1
10
102.760253231838
20
-1.68639291661751
30
0
41
1
10
102.870908740598
20
-0.934233880111009
30
0
41
1
10
102.926236494978
20
-0.562379866934549
30
0
41
1
10
102.995396187953
20
-0.105188305093634
30
0
41
1
10
103.009228126548
20
-0.014388108584086
30
0
41
1
10
103.036892003738
20
0.167814041079481
30
0
41
1
10
103.078387819523
20
0.442288967794553
30
0
41
1
10
103.119883635308
20
0.720046572679593
30
0
41
1
10
103.202875266878
20
1.27925147687731
30
0
41
1
10
103.258203021258
20
1.65699688186723
30
0
41
1
10
103.368858530018
20
2.41814513816652
30
0
41
1
10
103.424186284398
20
2.80154450401756
30
0
41
1
10
103.534841793158
20
3.56908968780209
30
0
41
1
10
103.590169547538
20
3.9532299035771
30
0
41
1
10
103.700825056298
20
4.71680072656184
30
0
41
1
10
103.756152810678
20
5.09622378685182
30
0
41
1
10
103.866808319438
20
5.84455737327104
30
0
41
1
10
103.922136073818
20
6.21345888399469
30
0
41
1
10
104.032791582578
20
6.93485017849477
30
0
41
1
10
104.088119336958
20
7.28733023604966
30
0
41
1
10
104.198774845718
20
7.97016749356951
30
0
41
1
10
104.254102600098
20
8.30051520498861
30
0
41
1
10
104.364758108858
20
8.93385675217962
30
0
41
1
10
104.420085863238
20
9.23684232967847
30
0
41
1
10
104.530741371998
20
9.81097874437654
30
0
41
1
10
104.586069126377
20
10.0821234191189
30
0
41
1
10
104.696724635138
20
10.5890668056811
30
0
41
1
10
104.752052389518
20
10.8248620369953
30
0
41
1
10
104.862707898277
20
11.2587115634076
30
0
41
1
10
104.918035652657
20
11.4567652731013
30
0
41
1
10
105.028691161417
20
11.8139144758438
30
0
41
1
10
105.084018915797
20
11.9730121062001
30
0
41
1
10
105.194674424557
20
12.2521852627643
30
0
41
1
10
105.250002178937
20
12.3722651567697
30
0
41
1
10
105.305329933317
20
12.4733288750976
30
0
0
SPLINE
5
F2
100
AcDbEntity
8
1
62
256
6
ByLayer
370
13
48
1
60
0
100
AcDbSpline
70
4
71
3
72
10
73
6
40
0
40
0
40
0
40
0
40
0.5
40
0.5
40
1
40
1
40
1
40
1
41
1
10
104.81281237131
20
12.8985
30
0
41
1
10
104.894898631644
20
12.8985
30
0
41
1
10
104.976984891979
20
12.8645851789309
30
0
41
1
10
105.141157412648
20
12.7193673431591
30
0
41
1
10
105.223243672983
20
12.608015716752
30
0
41
1
10
105.305329933317
20
12.4546381215479
30
0
0
SPLINE
5
F3
100
AcDbEntity
8
1
62
256
6
ByLayer
370
13
48
1
60
0
100
AcDbSpline
70
4
71
3
72
14
73
10
40
0
40
0
40
0
40
0
40
0.25
40
0.25
40
0.5
40
0.5
40
0.75
40
0.75
40
1
40
1
40
1
40
1
41
1
10
94.2
20
11.0630223789787
30
0
41
1
10
94.2812432674695
20
11.3797443815259
30
0
41
1
10
94.3624865349389
20
11.6555929572146
30
0
41
1
10
94.5249730698778
20
12.1226768002896
30
0
41
1
10
94.6062163373473
20
12.313934584479
30
0
41
1
10
94.7687028722862
20
12.6141372452061
30
0
41
1
10
94.8499461397557
20
12.7231219064145
30
0
41
1
10
95.0124326746947
20
12.8652801892011
30
0
41
1
10
95.0936759421639
20
12.8985
30
0
41
1
10
95.1749192096335
20
12.8985
30
0
0
SPLINE
5
F4
100
AcDbEntity
8
1
62
256
6
ByLayer
370
13
48
1
60
0
100
AcDbSpline
70
4
71
3
72
134
73
130
40
0
40
0
40
0
40
0
40
0.0156250000000001
40
0.0156250000000001
40
0.0312500000000001
40
0.0312500000000001
40
0.0468750000000002
40
0.0468750000000002
40
0.0625000000000002
40
0.0625000000000002
40
0.0781250000000003
40
0.0781250000000003
40
0.0937500000000003
40
0.0937500000000003
40
0.109375
40
0.109375
40
0.125
40
0.125
40
0.140625
40
0.140625
40
0.156250000000001
40
0.156250000000001
40
0.171875000000001
40
0.171875000000001
40
0.187500000000001
40
0.187500000000001
40
0.203125000000001
40
0.203125000000001
40
0.218750000000001
40
0.218750000000001
40
0.234375000000001
40
0.234375000000001
40
0.250000000000001
40
0.250000000000001
40
0.265625000000001
40
0.265625000000001
40
0.281250000000001
40
0.281250000000001
40
0.296875000000001
40
0.296875000000001
40
0.312500000000001
40
0.312500000000001
40
0.328125000000001
40
0.328125000000001
40
0.343750000000001
40
0.343750000000001
40
0.359375000000001
40
0.359375000000001
40
0.375000000000001
40
0.375000000000001
40
0.390625000000001
40
0.390625000000001
40
0.406250000000001
40
0.406250000000001
40
0.421875000000001
40
0.421875000000001
40
0.437500000000001
40
0.437500000000001
40
0.453125000000001
40
0.453125000000001
40
0.468750000000001
40
0.468750000000001
40
0.484375000000001
40
0.484375000000001
40
0.500000000000001
40
0.500000000000001
40
0.515625000000001
40
0.515625000000001
40
0.531250000000001
40
0.531250000000001
40
0.546875000000001
40
0.546875000000001
40
0.562500000000001
40
0.562500000000001
40
0.578125000000001
40
0.578125000000001
40
0.593750000000001
40
0.593750000000001
40
0.609375000000001
40
0.609375000000001
40
0.625000000000001
40
0.625000000000001
40
0.640625000000001
40
0.640625000000001
40
0.656250000000001
40
0.656250000000001
40
0.671875000000001
40
0.671875000000001
40
0.687500000000001
40
0.687500000000001
40
0.703125000000001
40
0.703125000000001
40
0.718750000000001
40
0.718750000000001
40
0.734375000000001
40
0.734375000000001
40
0.750000000000001
40
0.750000000000001
40
0.765625000000001
40
0.765625000000001
40
0.781250000000001
40
0.781250000000001
40
0.796875000000001
40
0.796875000000001
40
0.812500000000001
40
0.812500000000001
40
0.828125000000001
40
0.828125000000001
40
0.843750000000001
40
0.843750000000001
40
0.859375
40
0.859375
40
0.875
40
0.875
40
0.890625
40
0.890625
40
0.90625
40
0.90625
40
0.921875
40
0.921875
40
0.9375
40
0.9375
40
0.953125
40
0.953125
40
0.96875
40
0.96875
40
0.984375
40
0.984375
40
1
40
1
40
1
40
1
41
1
10
94.2000005552665
20
12.8985
30
0
41
1
10
94.2578408124439
20
12.8985
30
0
41
1
10
94.3156810696212
20
12.8816850863118
30
0
41
1
10
94.4313615839759
20
12.8109637017828
30
0
41
1
10
94.4892018411533
20
12.7570487506098
30
0
41
1
10
94.6048823555079
20
12.6092798827632
30
0
41
1
10
94.6627226126853
20
12.5154177314772
30
0
41
1
10
94.77840312704
20
12.2857912962056
30
0
41
1
10
94.8362433842174
20
12.1500200006948
30
0
41
1
10
94.951923898572
20
11.8357289903874
30
0
41
1
10
95.0097641557494
20
11.6572045134568
30
0
41
1
10
95.125444670104
20
11.25785831024
30
0
41
1
10
95.1832849272814
20
11.0370349575427
30
0
41
1
10
95.2989654416361
20
10.5549386792516
30
0
41
1
10
95.3568056988134
20
10.2936678080103
30
0
41
1
10
95.4724862131682
20
9.7339159595974
30
0
41
1
10
95.5303264703455
20
9.43544076471349
30
0
41
1
10
95.6460069847002
20
8.80579362513248
30
0
41
1
10
95.7038472418775
20
8.47463068243513
30
0
41
1
10
95.8195277562322
20
7.78517101505639
30
0
41
1
10
95.8773680134096
20
7.42688551838265
30
0
41
1
10
95.9930485277644
20
6.6894855957938
30
0
41
1
10
96.0508887849416
20
6.31038332947264
30
0
41
1
10
96.1665692992963
20
5.5380405619587
30
0
41
1
10
96.2244095564737
20
5.14481180509858
30
0
41
1
10
96.3400900708284
20
4.3509288464584
30
0
41
1
10
96.3979303280057
20
3.95028481592217
30
0
41
1
10
96.5136108423604
20
3.14797321695147
30
0
41
1
10
96.5714510995378
20
2.74631345030593
30
0
41
1
10
96.6871316138925
20
1.94778908967135
30
0
41
1
10
96.7449718710699
20
1.55092956379124
30
0
41
1
10
96.8606523854245
20
0.767047134391305
30
0
41
1
10
96.9184926426019
20
0.380026604905026
30
0
41
1
10
97.0341731569566
20
-0.380024780781696
30
0
41
1
10
97.0920134141339
20
-0.767045268698496
30
0
41
1
10
97.2076939284887
20
-1.55092766684842
30
0
41
1
10
97.265534185666
20
-1.94778718079073
30
0
41
1
10
97.3812147000207
20
-2.74631152626961
30
0
41
1
10
97.439054957198
20
-3.14797128970164
30
0
41
1
10
97.5547354715526
20
-3.95028289207624
30
0
41
1
10
97.6125757287301
20
-4.35092692923405
30
0
41
1
10
97.7282562430848
20
-5.14480991168463
30
0
41
1
10
97.7860965002621
20
-5.53803868573678
30
0
41
1
10
97.9017770146169
20
-6.31038149844909
30
0
41
1
10
97.9596172717942
20
-6.68948379277822
30
0
41
1
10
98.0752977861488
20
-7.42688378187839
30
0
41
1
10
98.1331380433262
20
-7.78516931705508
30
0
41
1
10
98.2488185576809
20
-8.4746290710298
30
0
41
1
10
98.3066588148582
20
-8.80579206181753
30
0
41
1
10
98.4223393292129
20
-9.4354393057219
30
0
41
1
10
98.4801795863902
20
-9.73391455683426
30
0
41
1
10
98.5958601007449
20
-10.2936665239642
30
0
41
1
10
98.6537003579224
20
-10.5549374576884
30
0
41
1
10
98.7693808722771
20
-11.0370338650434
30
0
41
1
10
98.8272211294544
20
-11.2578572843156
30
0
41
1
10
98.942901643809
20
-11.6572036225191
30
0
41
1
10
99.0007419009864
20
-11.8357281678557
30
0
41
1
10
99.1164224153412
20
-12.1500193146292
30
0
41
1
10
99.1742626725185
20
-12.2857906781957
30
0
41
1
10
99.2899431868731
20
-12.5154172472799
30
0
41
1
10
99.3477834440505
20
-12.60927946432
30
0
41
1
10
99.4634639584052
20
-12.7570484597622
30
0
41
1
10
99.5213042155826
20
-12.8109634727755
30
0
41
1
10
99.6369847299373
20
-12.8816849758563
30
0
41
1
10
99.6948249871147
20
-12.8984999462561
30
0
41
1
10
99.8105055014693
20
-12.8985000537436
30
0
41
1
10
99.8683457586467
20
-12.8816851967672
30
0
41
1
10
99.9840262730013
20
-12.8109639307898
30
0
41
1
10
100.041866530179
20
-12.7570490414572
30
0
41
1
10
100.157547044533
20
-12.6092803012061
30
0
41
1
10
100.215387301711
20
-12.5154182156742
30
0
41
1
10
100.331067816065
20
-12.2857919142151
30
0
41
1
10
100.388908073243
20
-12.15002068676
30
0
41
1
10
100.504588587597
20
-11.8357298129187
30
0
41
1
10
100.562428844775
20
-11.6572054043943
30
0
41
1
10
100.678109359129
20
-11.257859336164
30
0
41
1
10
100.735949616307
20
-11.0370360500416
30
0
41
1
10
100.851630130662
20
-10.5549399008144
30
0
41
1
10
100.909470387839
20
-10.2936690920561
30
0
41
1
10
101.025150902194
20
-9.73391736236027
30
0
41
1
10
101.082991159371
20
-9.43544222370485
30
0
41
1
10
101.198671673726
20
-8.80579518844718
30
0
41
1
10
101.256511930903
20
-8.4746322938403
30
0
41
1
10
101.372192445258
20
-7.78517271305751
30
0
41
1
10
101.430032702435
20
-7.42688725488674
30
0
41
1
10
101.54571321679
20
-6.68948739880923
30
0
41
1
10
101.603553473967
20
-6.31038516049605
30
0
41
1
10
101.719233988322
20
-5.5380424381805
30
0
41
1
10
101.777074245499
20
-5.14481369851248
30
0
41
1
10
101.892754759854
20
-4.3509307636827
30
0
41
1
10
101.950595017031
20
-3.95028673976808
30
0
41
1
10
102.066275531386
20
-3.1479751442013
30
0
41
1
10
102.124115788563
20
-2.74631537434229
30
0
41
1
10
102.239796302918
20
-1.94779099855202
30
0
41
1
10
102.297636560095
20
-1.55093146073415
30
0
41
1
10
102.41331707445
20
-0.767049000084228
30
0
41
1
10
102.471157331627
20
-0.380028451289803
30
0
41
1
10
102.586837845982
20
0.380022978919669
30
0
41
1
10
102.644678103159
20
0.767043403005772
30
0
41
1
10
102.760358617514
20
1.55092576990566
30
0
41
1
10
102.818198874692
20
1.94778527191016
30
0
41
1
10
102.933879389046
20
2.74630960223328
30
0
41
1
10
102.991719646224
20
3.14796936245185
30
0
41
1
10
103.107400160578
20
3.95028096823029
30
0
41
1
10
103.165240417755
20
4.35092501200967
30
0
41
1
10
103.28092093211
20
5.14480801827057
30
0
41
1
10
103.338761189287
20
5.53803680951478
30
0
41
1
10
103.454441703642
20
6.31037966742542
30
0
41
1
10
103.51228196082
20
6.6894819897625
30
0
41
1
10
103.627962475174
20
7.42688204537396
30
0
41
1
10
103.685802732352
20
7.78516761905359
30
0
41
1
10
103.801483246706
20
8.4746274596242
30
0
41
1
10
103.859323503884
20
8.80579049850232
30
0
41
1
10
103.975004018238
20
9.43543784673
30
0
41
1
10
104.032844275416
20
9.73391315407088
30
0
41
1
10
104.14852478977
20
10.2936652399179
30
0
41
1
10
104.206365046948
20
10.5549362361249
30
0
41
1
10
104.322045561302
20
11.0370327725437
30
0
41
1
10
104.37988581848
20
11.2578562583909
30
0
41
1
10
104.495566332835
20
11.657202731581
30
0
41
1
10
104.553406590012
20
11.8357273453237
30
0
41
1
10
104.669087104367
20
12.1500186285633
30
0
41
1
10
104.726927361544
20
12.2857900601855
30
0
41
1
10
104.842607875899
20
12.5154167630822
30
0
41
1
10
104.900448133076
20
12.6092790458765
30
0
41
1
10
105.016128647431
20
12.7570481689142
30
0
41
1
10
105.073968904608
20
12.8109632437678
30
0
41
1
10
105.189649418963
20
12.8816848654004
30
0
41
1
10
105.24748967614
20
12.898499892512
30
0
41
1
10
105.305329933317
20
12.8984999999995
30
0
0
SPLINE
5
F5
100
AcDbEntity
8
1
62
256
6
ByLayer
370
13
48
1
60
0
100
AcDbSpline
70
4
71
3
72
14
73
10
40
0
40
0
40
0
40
0
40
0.25
40
0.25
40
0.5
40
0.5
40
0.75
40
0.75
40
1
40
1
40
1
40
1
41
1
10
104.330411834217
20
12.8985
30
0
41
1
10
104.411655009142
20
12.8985
30
0
41
1
10
104.492898184067
20
12.865280265101
30
0
41
1
10
104.655384533917
20
12.7231223163128
30
0
41
1
10
104.736627708842
20
12.6141379134635
30
0
41
1
10
104.899114058692
20
12.31393596799
30
0
41
1
10
104.980357233617
20
12.1226786408934
30
0
41
1
10
105.142843583467
20
11.6555959051154
30
0
41
1
10
105.224086758392
20
11.3797479796816
30
0
41
1
10
105.305329933317
20
11.0630267083223
30
0
0
SPLINE
5
F6
100
AcDbEntity
8
1
62
256
6
ByLayer
370
13
48
1
60
0
100
AcDbSpline
70
4
71
3
72
10
73
6
40
0
40
0
40
0
40
0
40
0.5
40
0.5
40
1
40
1
40
1
40
1
41
1
10
94.2
20
12.4546360465224
30
0
41
1
10
94.2820864454234
20
12.6080143651578
30
0
41
1
10
94.3641728908469
20
12.7193665142379
30
0
41
1
10
94.5283457816938
20
12.8645850255355
30
0
41
1
10
94.6104322271171
20
12.8985
30
0
41
1
10
94.6925186725406
20
12.8985
30
0
0
SPLINE
5
F7
100
AcDbEntity
8
1
62
256
6
ByLayer
370
13
48
1
60
0
100
AcDbSpline
70
4
71
3
72
146
73
142
40
0
40
0
40
0
40
0
40
0.0156249999999993
40
0.0156249999999993
40
0.0312499999999985
40
0.0312499999999985
40
0.0468749999999978
40
0.0468749999999978
40
0.0624999999999971
40
0.0624999999999971
40
0.0781249999999963
40
0.0781249999999963
40
0.0937499999999956
40
0.0937499999999956
40
0.109374999999995
40
0.109374999999995
40
0.124999999999994
40
0.124999999999994
40
0.140624999999993
40
0.140624999999993
40
0.156249999999993
40
0.156249999999993
40
0.171874999999992
40
0.171874999999992
40
0.187499999999991
40
0.187499999999991
40
0.203124999999991
40
0.203124999999991
40
0.21093749999999
40
0.21093749999999
40
0.21484374999999
40
0.21484374999999
40
0.21874999999999
40
0.21874999999999
40
0.23437499999999
40
0.23437499999999
40
0.24999999999999
40
0.24999999999999
40
0.26562499999999
40
0.26562499999999
40
0.28124999999999
40
0.28124999999999
40
0.29687499999999
40
0.29687499999999
40
0.31249999999999
40
0.31249999999999
40
0.32812499999999
40
0.32812499999999
40
0.34374999999999
40
0.34374999999999
40
0.35937499999999
40
0.35937499999999
40
0.37499999999999
40
0.37499999999999
40
0.39062499999999
40
0.39062499999999
40
0.40624999999999
40
0.40624999999999
40
0.42187499999999
40
0.42187499999999
40
0.43749999999999
40
0.43749999999999
40
0.45312499999999
40
0.45312499999999
40
0.46874999999999
40
0.46874999999999
40
0.47656249999999
40
0.47656249999999
40
0.48046874999999
40
0.48046874999999
40
0.48437499999999
40
0.48437499999999
40
0.49999999999999
40
0.49999999999999
40
0.51562499999999
40
0.51562499999999
40
0.531249999999991
40
0.531249999999991
40
0.546874999999991
40
0.546874999999991
40
0.562499999999991
40
0.562499999999991
40
0.578124999999992
40
0.578124999999992
40
0.593749999999992
40
0.593749999999992
40
0.609374999999992
40
0.609374999999992
40
0.624999999999993
40
0.624999999999993
40
0.640624999999993
40
0.640624999999993
40
0.656249999999993
40
0.656249999999993
40
0.671874999999993
40
0.671874999999993
40
0.687499999999994
40
0.687499999999994
40
0.703124999999994
40
0.703124999999994
40
0.718749999999994
40
0.718749999999994
40
0.734374999999995
40
0.734374999999995
40
0.738281249999995
40
0.738281249999995
40
0.742187499999995
40
0.742187499999995
40
0.749999999999995
40
0.749999999999995
40
0.765624999999995
40
0.765624999999995
40
0.781249999999996
40
0.781249999999996
40
0.796874999999996
40
0.796874999999996
40
0.812499999999996
40
0.812499999999996
40
0.828124999999996
40
0.828124999999996
40
0.843749999999997
40
0.843749999999997
40
0.859374999999997
40
0.859374999999997
40
0.874999999999997
40
0.874999999999997
40
0.890624999999997
40
0.890624999999997
40
0.906249999999998
40
0.906249999999998
40
0.921874999999998
40
0.921874999999998
40
0.937499999999998
40
0.937499999999998
40
0.953124999999999
40
0.953124999999999
40
0.968749999999999
40
0.968749999999999
40
0.984375
40
0.984375
40
1
40
1
40
1
40
1
41
1
10
94.2
20
12.4733309036356
30
0
41
1
10
94.2553277601641
20
12.3722674286657
30
0
41
1
10
94.3106555203281
20
12.2521877789444
30
0
41
1
10
94.4213110406561
20
11.9730151059943
30
0
41
1
10
94.4766388008201
20
11.8139177149532
30
0
41
1
10
94.5872943211481
20
11.4567689786281
30
0
41
1
10
94.6426220813122
20
11.2587154960194
30
0
41
1
10
94.7532776016402
20
10.8248664043656
30
0
41
1
10
94.8086053618042
20
10.5890713807071
30
0
41
1
10
94.9192608821322
20
10.0821283834467
30
0
41
1
10
94.9745886422962
20
9.81098389033451
30
0
41
1
10
95.0852441626242
20
9.23684780741053
30
0
41
1
10
95.1405719227883
20
8.93386238004373
30
0
41
1
10
95.2512274431163
20
8.30052109770315
30
0
41
1
10
95.3065552032803
20
7.9701735009964
30
0
41
1
10
95.4172107236084
20
7.287336435383
30
0
41
1
10
95.4725384837723
20
6.93485645502273
30
0
41
1
10
95.5831940041004
20
6.21346527719501
30
0
41
1
10
95.6385217642644
20
5.84456380595569
30
0
41
1
10
95.7491772845924
20
5.0962302623862
30
0
41
1
10
95.8045050447564
20
4.7168072054728
30
0
41
1
10
95.9151605650845
20
3.95323635624354
30
0
41
1
10
95.9704883252485
20
3.56909611086121
30
0
41
1
10
96.0811438455765
20
2.80155083912467
30
0
41
1
10
96.1364716057406
20
2.4181514149434
30
0
41
1
10
96.2471271260687
20
1.65700301821317
30
0
41
1
10
96.3024548862327
20
1.27925753113581
30
0
41
1
10
96.3854465264787
20
0.720052489917379
30
0
41
1
10
96.4131104065607
20
0.534880705339788
30
0
41
1
10
96.4546062266837
20
0.259311726028471
30
0
41
1
10
96.4684381667247
20
0.167819809879631
30
0
41
1
10
96.4961020468068
20
-0.0143823916694714
30
0
41
1
10
96.5099339868477
20
-0.105182575957997
30
0
41
1
10
96.5790936870527
20
-0.562374106286796
30
0
41
1
10
96.6344214472167
20
-0.934228104344385
30
0
41
1
10
96.7450769675447
20
-1.68638713354642
30
0
41
1
10
96.8004047277087
20
-2.06668999851604
30
0
41
1
10
96.9110602480367
20
-2.83126046666746
30
0
41
1
10
96.9663880082008
20
-3.21552382187662
30
0
41
1
10
97.0770435285289
20
-3.98288931872142
30
0
41
1
10
97.1323712886929
20
-4.36598512367266
30
0
41
1
10
97.2430268090208
20
-5.12540891441696
30
0
41
1
10
97.2983545691849
20
-5.50172875470682
30
0
41
1
10
97.4090100895129
20
-6.24173198657596
30
0
41
1
10
97.4643378496769
20
-6.60540600743326
30
0
41
1
10
97.5749933700049
20
-7.31425225981559
30
0
41
1
10
97.630321130169
20
-7.65941473549168
30
0
41
1
10
97.740976650497
20
-8.32566623428161
30
0
41
1
10
97.796304410661
20
-8.64674609978474
30
0
41
1
10
97.9069599309891
20
-9.2598420039084
30
0
41
1
10
97.9622876911531
20
-9.55185044976963
30
0
41
1
10
98.0729432114811
20
-10.1026493605185
30
0
41
1
10
98.1282709716451
20
-10.3614345778047
30
0
41
1
10
98.2389264919731
20
-10.8426644965525
30
0
41
1
10
98.2942542521372
20
-11.0651067544054
30
0
41
1
10
98.4049097724653
20
-11.4716766447714
30
0
41
1
10
98.4602375326293
20
-11.6558047092703
30
0
41
1
10
98.5708930529572
20
-11.9849506068035
30
0
41
1
10
98.6262208131212
20
-12.1299714489981
30
0
41
1
10
98.7368763334492
20
-12.3812326962938
30
0
41
1
10
98.7922040936134
20
-12.4874781079373
30
0
41
1
10
98.9028596139413
20
-12.6625209793537
30
0
41
1
10
98.9581873741054
20
-12.7313247117312
30
0
41
1
10
99.0688428944334
20
-12.8336472784716
30
0
41
1
10
99.1241706545975
20
-12.8671729032803
30
0
41
1
10
99.2071622948434
20
-12.893093762428
30
0
41
1
10
99.2348261749254
20
-12.8976770705292
30
0
41
1
10
99.2763219950485
20
-12.8987594829643
30
0
41
1
10
99.2901539350895
20
-12.8981612906056
30
0
41
1
10
99.3178178151714
20
-12.8950061621691
30
0
41
1
10
99.3316497552125
20
-12.8924477803449
30
0
41
1
10
99.4008094554175
20
-12.8746301637011
30
0
41
1
10
99.4561372155815
20
-12.8442744382213
30
0
41
1
10
99.5667927359095
20
-12.7485298828246
30
0
41
1
10
99.6221204960735
20
-12.6831342496653
30
0
41
1
10
99.7327760164015
20
-12.5150780679212
30
0
41
1
10
99.7881037765656
20
-12.4124111671925
30
0
41
1
10
99.8987592968936
20
-12.1683918760166
30
0
41
1
10
99.9540870570577
20
-12.0270343281572
30
0
41
1
10
100.064742577386
20
-11.7052000095585
30
0
41
1
10
100.12007033755
20
-11.524720014552
30
0
41
1
10
100.230725857878
20
-11.1253224524086
30
0
41
1
10
100.286053618042
20
-10.9064041939893
30
0
41
1
10
100.39670913837
20
-10.4319880120744
30
0
41
1
10
100.452036898534
20
-10.1764922597249
30
0
41
1
10
100.562692418862
20
-9.63193402145669
30
0
41
1
10
100.618020179026
20
-9.34287653417013
30
0
41
1
10
100.728675699354
20
-8.73525471692309
30
0
41
1
10
100.784003459518
20
-8.4166977889949
30
0
41
1
10
100.894658979846
20
-7.75499590995011
30
0
41
1
10
100.94998674001
20
-7.4118600092057
30
0
41
1
10
101.060642260338
20
-6.70652792957912
30
0
41
1
10
101.115970020502
20
-6.34434149326356
30
0
41
1
10
101.22662554083
20
-5.60675926817243
30
0
41
1
10
101.281953300994
20
-5.23137292510367
30
0
41
1
10
101.392608821322
20
-4.47327335531523
30
0
41
1
10
101.447936581486
20
-4.09056841818935
30
0
41
1
10
101.558592101814
20
-3.32347647497582
30
0
41
1
10
101.613919861978
20
-2.93909599166594
30
0
41
1
10
101.724575382306
20
-2.17383581644958
30
0
41
1
10
101.77990314247
20
-1.79296057198002
30
0
41
1
10
101.890558662798
20
-1.03926631005243
30
0
41
1
10
101.945886422962
20
-0.66644964687552
30
0
41
1
10
102.015046123167
20
-0.207855313203993
30
0
41
1
10
102.028878063208
20
-0.116505918879909
30
0
41
1
10
102.05654194329
20
0.0654016793700976
30
0
41
1
10
102.070373883331
20
0.156478584737727
30
0
41
1
10
102.111869703454
20
0.431217144767828
30
0
41
1
10
102.139533583536
20
0.61587560751596
30
0
41
1
10
102.222525223782
20
1.17367499293187
30
0
41
1
10
102.277852983946
20
1.55066267811736
30
0
41
1
10
102.388508504274
20
2.3107222377771
30
0
41
1
10
102.443836264438
20
2.69379082377719
30
0
41
1
10
102.554491784766
20
3.46116021765843
30
0
41
1
10
102.60981954493
20
3.84545561893776
30
0
41
1
10
102.720475065258
20
4.60986614528767
30
0
41
1
10
102.775802825422
20
4.98997389014448
30
0
41
1
10
102.88645834575
20
5.74022873154837
30
0
41
1
10
102.941786105915
20
6.1103669219786
30
0
41
1
10
103.052441626242
20
6.8347807565039
30
0
41
1
10
103.107769386407
20
7.18904670270425
30
0
41
1
10
103.218424906734
20
7.87597480621386
30
0
41
1
10
103.273752666899
20
8.20862741000516
30
0
41
1
10
103.384408187226
20
8.84704080717142
30
0
41
1
10
103.439735947391
20
9.15279318706206
30
0
41
1
10
103.550391467719
20
9.7328447074602
30
0
41
1
10
103.605719227883
20
10.007137459051
30
0
41
1
10
103.716374748211
20
10.5206601886078
30
0
41
1
10
103.771702508375
20
10.7598864196525
30
0
41
1
10
103.882358028703
20
11.2007726000912
30
0
41
1
10
103.937685788867
20
11.4024316944958
30
0
41
1
10
104.048341309195
20
11.7668557483734
30
0
41
1
10
104.103669069359
20
11.92962260681
30
0
41
1
10
104.214324589687
20
12.216093437683
30
0
41
1
10
104.269652349851
20
12.339801596292
30
0
41
1
10
104.380307870179
20
12.5490520142442
30
0
41
1
10
104.435635630343
20
12.6346000670989
30
0
41
1
10
104.546291150671
20
12.7693405091925
30
0
41
1
10
104.601618910835
20
12.8185395431023
30
0
41
1
10
104.712274431163
20
12.883115894981
30
0
41
1
10
104.767602191327
20
12.8985
30
0
41
1
10
104.822929951491
20
12.8985
30
0
0
SPLINE
5
F8
100
AcDbEntity
8
1
62
256
6
ByLayer
370
13
48
1
60
0
100
AcDbSpline
70
4
71
3
72
22
73
18
40
0
40
0
40
0
40
0
40
0.125
40
0.125
40
0.25
40
0.25
40
0.375
40
0.375
40
0.5
40
0.5
40
0.625
40
0.625
40
0.75
40
0.75
40
0.875
40
0.875
40
1
40
1
40
1
40
1
41
1
10
103.848011297124
20
12.8985
30
0
41
1
10
103.908732906965
20
12.8985
30
0
41
1
10
103.969454516807
20
12.8799655634001
30
0
41
1
10
104.09089773649
20
12.8018379160698
30
0
41
1
10
104.151619346331
20
12.7422338858119
30
0
41
1
10
104.273062566014
20
12.5787377106006
30
0
41
1
10
104.333784175855
20
12.4748351682298
30
0
41
1
10
104.455227395538
20
12.220616412319
30
0
41
1
10
104.515949005379
20
12.0702916112657
30
0
41
1
10
104.637392225062
20
11.7224969270608
30
0
41
1
10
104.698113834904
20
11.5250216936199
30
0
41
1
10
104.819557054586
20
11.0838034188881
30
0
41
1
10
104.880278664428
20
10.8400594325641
30
0
41
1
10
105.00172188411
20
10.3088881872312
30
0
41
1
10
105.062443493952
20
10.0214649937893
30
0
41
1
10
105.183886713635
20
9.40718200399783
30
0
41
1
10
105.244608323476
20
9.08033111704108
30
0
41
1
10
105.305329933317
20
8.73661829037201
30
0
0
SPLINE
5
F9
100
AcDbEntity
8
1
62
256
6
ByLayer
370
13
48
1
60
0
100
AcDbSpline
70
4
71
3
72
8
73
4
40
0
40
0
40
0
40
0
40
1
40
1
40
1
40
1
41
1
10
94.2
20
12.8983283190936
30
0
41
1
10
94.2033727118159
20
12.8984428945705
30
0
41
1
10
94.2067454236318
20
12.8985
30
0
41
1
10
94.2101181354477
20
12.8985
30
0
0
SPLINE
5
FA
100
AcDbEntity
8
1
62
256
6
ByLayer
370
13
48
1
60
0
100
AcDbSpline
70
4
71
3
72
140
73
136
40
0
40
0
40
0
40
0
40
0.0156250000000004
40
0.0156250000000004
40
0.0312500000000009
40
0.0312500000000009
40
0.0468750000000013
40
0.0468750000000013
40
0.0625000000000017
40
0.0625000000000017
40
0.0781250000000022
40
0.0781250000000022
40
0.0937500000000026
40
0.0937500000000026
40
0.109375000000003
40
0.109375000000003
40
0.125000000000003
40
0.125000000000003
40
0.140625000000004
40
0.140625000000004
40
0.156250000000004
40
0.156250000000004
40
0.171875000000005
40
0.171875000000005
40
0.175781250000005
40
0.175781250000005
40
0.179687500000005
40
0.179687500000005
40
0.187500000000005
40
0.187500000000005
40
0.218750000000005
40
0.218750000000005
40
0.234375000000006
40
0.234375000000006
40
0.250000000000006
40
0.250000000000006
40
0.265625000000006
40
0.265625000000006
40
0.281250000000006
40
0.281250000000006
40
0.296875000000007
40
0.296875000000007
40
0.312500000000007
40
0.312500000000007
40
0.328125000000007
40
0.328125000000007
40
0.343750000000007
40
0.343750000000007
40
0.359375000000008
40
0.359375000000008
40
0.375000000000008
40
0.375000000000008
40
0.390625000000008
40
0.390625000000008
40
0.406250000000008
40
0.406250000000008
40
0.421875000000009
40
0.421875000000009
40
0.437500000000009
40
0.437500000000009
40
0.445312500000009
40
0.445312500000009
40
0.449218750000009
40
0.449218750000009
40
0.453125000000009
40
0.453125000000009
40
0.468750000000009
40
0.468750000000009
40
0.484375000000009
40
0.484375000000009
40
0.500000000000009
40
0.500000000000009
40
0.515625000000009
40
0.515625000000009
40
0.531250000000009
40
0.531250000000009
40
0.546875000000009
40
0.546875000000009
40
0.562500000000009
40
0.562500000000009
40
0.57812500000001
40
0.57812500000001
40
0.59375000000001
40
0.59375000000001
40
0.60937500000001
40
0.60937500000001
40
0.62500000000001
40
0.62500000000001
40
0.64062500000001
40
0.64062500000001
40
0.65625000000001
40
0.65625000000001
40
0.67187500000001
40
0.67187500000001
40
0.68750000000001
40
0.68750000000001
40
0.71875000000001
40
0.71875000000001
40
0.72265625000001
40
0.72265625000001
40
0.72656250000001
40
0.72656250000001
40
0.73437500000001
40
0.73437500000001
40
0.750000000000009
40
0.750000000000009
40
0.765625000000008
40
0.765625000000008
40
0.781250000000008
40
0.781250000000008
40
0.796875000000007
40
0.796875000000007
40
0.812500000000007
40
0.812500000000007
40
0.828125000000006
40
0.828125000000006
40
0.843750000000006
40
0.843750000000006
40
0.859375000000005
40
0.859375000000005
40
0.875000000000004
40
0.875000000000004
40
0.890625000000004
40
0.890625000000004
40
0.906250000000003
40
0.906250000000003
40
0.921875000000003
40
0.921875000000003
40
0.937500000000002
40
0.937500000000002
40
0.953125000000002
40
0.953125000000002
40
0.968750000000001
40
0.968750000000001
40
1
40
1
40
1
40
1
41
1
10
94.2
20
11.1022591140842
30
0
41
1
10
94.2528152573667
20
10.8985591449102
30
0
41
1
10
94.3056305147333
20
10.6775927020199
30
0
41
1
10
94.4112610294667
20
10.2030868338308
30
0
41
1
10
94.4640762868333
20
9.94954985165458
30
0
41
1
10
94.5697068015667
20
9.41280197084006
30
0
41
1
10
94.6225220589333
20
9.12959559323122
30
0
41
1
10
94.7281525736666
20
8.53724141128529
30
0
41
1
10
94.7809678310332
20
8.22809982808343
30
0
41
1
10
94.8865983457666
20
7.5882783008206
30
0
41
1
10
94.9394136031332
20
7.25760568939666
30
0
41
1
10
95.0450441178666
20
6.57958997686518
30
0
41
1
10
95.0978593752332
20
6.2322546143921
30
0
41
1
10
95.2034898899665
20
5.52601719043273
30
0
41
1
10
95.2563051473332
20
5.16712256393598
30
0
41
1
10
95.3619356620665
20
4.44287599340609
30
0
41
1
10
95.4147509194332
20
4.07753057194313
30
0
41
1
10
95.5203814341664
20
3.34528577846743
30
0
41
1
10
95.5731966915331
20
2.97839158372656
30
0
41
1
10
95.6788272062663
20
2.24756959562927
30
0
41
1
10
95.731642463633
20
1.88364541066713
30
0
41
1
10
95.8372729783664
20
1.16276831945581
30
0
41
1
10
95.890088235733
20
0.805817430820696
30
0
41
1
10
95.9561073074412
20
0.366114057860841
30
0
41
1
10
95.9693111217831
20
0.278496116818871
30
0
41
1
10
95.9957187504663
20
0.103952674957952
30
0
41
1
10
96.0089225648079
20
0.0172594072962511
30
0
41
1
10
96.048534007833
20
-0.243575210061067
30
0
41
1
10
96.0749416365164
20
-0.418893073628823
30
0
41
1
10
96.206979779933
20
-1.30168179601657
30
0
41
1
10
96.3126102946663
20
-2.02812418680512
30
0
41
1
10
96.4710560667663
20
-3.12541646778379
30
0
41
1
10
96.5238713241329
20
-3.49237523410488
30
0
41
1
10
96.6295018388663
20
-4.22411257816555
30
0
41
1
10
96.6823170962329
20
-4.58888578110907
30
0
41
1
10
96.7879476109662
20
-5.31131254055339
30
0
41
1
10
96.8407628683328
20
-5.66895942301076
30
0
41
1
10
96.9463933830662
20
-6.37201373541345
30
0
41
1
10
96.9992086404328
20
-6.71741365136035
30
0
41
1
10
97.1048391551661
20
-7.39088868555908
30
0
41
1
10
97.1576544125329
20
-7.71895607729604
30
0
41
1
10
97.2632849272662
20
-8.35294637159475
30
0
41
1
10
97.3161001846328
20
-8.65886205072889
30
0
41
1
10
97.4217306993662
20
-9.24422196527138
30
0
41
1
10
97.4745459567328
20
-9.52366017660145
30
0
41
1
10
97.5801764714661
20
-10.0524322975072
30
0
41
1
10
97.6329917288326
20
-10.3017619474938
30
0
41
1
10
97.738622243566
20
-10.7675344722491
30
0
41
1
10
97.7914375009327
20
-10.983975196447
30
0
41
1
10
97.897068015666
20
-11.3821350367907
30
0
41
1
10
97.9498832730326
20
-11.5638541893347
30
0
41
1
10
98.0555137877659
20
-11.8917154504874
30
0
41
1
10
98.1083290451327
20
-12.037859600304
30
0
41
1
10
98.2139595598658
20
-12.2946627117902
30
0
41
1
10
98.2667748172327
20
-12.4053253304161
30
0
41
1
10
98.3724053319659
20
-12.5921173735593
30
0
41
1
10
98.4252205893326
20
-12.6682515575723
30
0
41
1
10
98.5308511040658
20
-12.7876705366357
30
0
41
1
10
98.5836663614326
20
-12.8309606466818
30
0
41
1
10
98.6628892474826
20
-12.8729555462479
30
0
41
1
10
98.6892968761659
20
-12.8831344784312
30
0
41
1
10
98.7289083191908
20
-12.8929158903555
30
0
41
1
10
98.7421121335325
20
-12.8952620505952
30
0
41
1
10
98.7685197622159
20
-12.8981681335863
30
0
41
1
10
98.7817235765575
20
-12.8987292079147
30
0
41
1
10
98.8477426482658
20
-12.8971651611831
30
0
41
1
10
98.9005579056325
20
-12.8818340199941
30
0
41
1
10
99.0061884203657
20
-12.8203744835374
30
0
41
1
10
99.0590036777324
20
-12.7742407069712
30
0
41
1
10
99.1646341924658
20
-12.6489583653265
30
0
41
1
10
99.2174494498324
20
-12.5698045132531
30
0
41
1
10
99.3230799645658
20
-12.3768562797501
30
0
41
1
10
99.3758952219324
20
-12.2630572147974
30
0
41
1
10
99.4815257366657
20
-11.99993622847
30
0
41
1
10
99.5343409940325
20
-11.850610774535
30
0
41
1
10
99.6399715087657
20
-11.5164234808725
30
0
41
1
10
99.6927867661323
20
-11.331559765398
30
0
41
1
10
99.7984172808657
20
-10.9272342339481
30
0
41
1
10
99.8512325382323
20
-10.7077725727307
30
0
41
1
10
99.9568630529656
20
-10.2361683521637
30
0
41
1
10
100.009678310332
20
-9.98402813861387
30
0
41
1
10
100.115308825066
20
-9.44992581187344
30
0
41
1
10
100.168124082432
20
-9.16796813329546
30
0
41
1
10
100.273754597166
20
-8.5779292992238
30
0
41
1
10
100.326569854532
20
-8.2698543003446
30
0
41
1
10
100.432200369266
20
-7.63195812967294
30
0
41
1
10
100.485015626632
20
-7.30214425552771
30
0
41
1
10
100.590646141365
20
-6.62562226713536
30
0
41
1
10
100.643461398732
20
-6.2789218889167
30
0
41
1
10
100.749091913465
20
-5.57372513833204
30
0
41
1
10
100.801907170832
20
-5.21523622853135
30
0
41
1
10
100.907537685566
20
-4.49157625747142
30
0
41
1
10
100.960352942932
20
-4.12641177016292
30
0
41
1
10
101.065983457665
20
-3.3943172657132
30
0
41
1
10
101.118798715032
20
-3.02739249215341
30
0
41
1
10
101.277244487132
20
-1.9307807745468
30
0
41
1
10
101.382875001865
20
-1.20556599083082
30
0
41
1
10
101.50170933094
20
-0.41307135961614
30
0
41
1
10
101.514913145282
20
-0.325334815245071
30
0
41
1
10
101.541320773965
20
-0.150545974067427
30
0
41
1
10
101.554524588307
20
-0.0636056695960292
30
0
41
1
10
101.594136031332
20
0.1968453130321
30
0
41
1
10
101.620543660015
20
0.371923231778567
30
0
41
1
10
101.699766546065
20
0.900929409402124
30
0
41
1
10
101.752581803432
20
1.25864941884538
30
0
41
1
10
101.858212318165
20
1.98073142948908
30
0
41
1
10
101.911027575532
20
2.34509127494329
30
0
41
1
10
102.016658090265
20
3.07640118309817
30
0
41
1
10
102.069473347632
20
3.44334749387252
30
0
41
1
10
102.175103862365
20
4.1752728705313
30
0
41
1
10
102.227919119732
20
4.54024662698654
30
0
41
1
10
102.333549634465
20
5.26330000576641
30
0
41
1
10
102.386364891832
20
5.62137300364324
30
0
41
1
10
102.491995406565
20
6.32550871586449
30
0
41
1
10
102.544810663932
20
6.67156394130305
30
0
41
1
10
102.650441178665
20
7.34657235544259
30
0
41
1
10
102.703256436032
20
7.67551781215357
30
0
41
1
10
102.808886950765
20
8.31147021022804
30
0
41
1
10
102.861702208132
20
8.61846989034945
30
0
41
1
10
102.967332722865
20
9.20617726165253
30
0
41
1
10
103.020147980232
20
9.48687886191061
30
0
41
1
10
103.125778494965
20
10.0183225522884
30
0
41
1
10
103.178593752332
20
10.2690602949497
30
0
41
1
10
103.284224267065
20
10.7377533453343
30
0
41
1
10
103.337039524432
20
10.9557064047832
30
0
41
1
10
103.442670039165
20
11.3569518457406
30
0
41
1
10
103.495485296532
20
11.540244168244
30
0
41
1
10
103.601115811265
20
11.8712692741561
30
0
41
1
10
103.653931068632
20
12.0190040164283
30
0
41
1
10
103.759561583365
20
12.2789650832241
30
0
41
1
10
103.812376840732
20
12.39119500302
30
0
41
1
10
103.918007355465
20
12.5810625618308
30
0
41
1
10
103.970822612832
20
12.6587049229054
30
0
41
1
10
104.129268384932
20
12.8422250685236
30
0
41
1
10
104.234898899665
20
12.8985
30
0
41
1
10
104.340529414398
20
12.8985
30
0
0
SPLINE
5
FB
100
AcDbEntity
8
1
62
256
6
ByLayer
370
13
48
1
60
0
100
AcDbSpline
70
4
71
3
72
22
73
18
40
0
40
0
40
0
40
0
40
0.125
40
0.125
40
0.25
40
0.25
40
0.375
40
0.375
40
0.5
40
0.5
40
0.625
40
0.625
40
0.75
40
0.75
40
0.875
40
0.875
40
1
40
1
40
1
40
1
41
1
10
103.365610760031
20
12.8985
30
0
41
1
10
103.446432392251
20
12.8985
30
0
41
1
10
103.527254024472
20
12.8656250834173
30
0
41
1
10
103.688897288912
20
12.7249842242288
30
0
41
1
10
103.769718921133
20
12.6171732678677
30
0
41
1
10
103.931362185573
20
12.3202200146768
30
0
41
1
10
104.012183817793
20
12.1310388302314
30
0
41
1
10
104.173827082234
20
11.6689863106153
30
0
41
1
10
104.254648714454
20
11.3960926949116
30
0
41
1
10
104.416291978895
20
10.7692961872298
30
0
41
1
10
104.497113611115
20
10.4153960568129
30
0
41
1
10
104.658756875555
20
9.63462857919515
30
0
41
1
10
104.739578507776
20
9.20779165808034
30
0
41
1
10
104.901221772216
20
8.29405901975781
30
0
41
1
10
104.982043404436
20
7.80721627163976
30
0
41
1
10
105.143686668877
20
6.78996843148383
30
0
41
1
10
105.224508301097
20
6.25962732117938
30
0
41
1
10
105.305329933317
20
5.71664550676479
30
0
0
SPLINE
5
FC
100
AcDbEntity
8
1
62
256
6
ByLayer
370
13
48
1
60
0
100
AcDbSpline
70
4
71
3
72
109
73
105
40
0
40
0
40
0
40
0
40
0.0156250000000001
40
0.0156250000000001
40
0.0312500000000002
40
0.0312500000000002
40
0.0625000000000003
40
0.0625000000000003
40
0.0937500000000005
40
0.0937500000000005
40
0.125000000000001
40
0.125000000000001
40
0.132812500000001
40
0.132812500000001
40
0.136718750000001
40
0.136718750000001
40
0.140625000000001
40
0.140625000000001
40
0.156250000000001
40
0.156250000000001
40
0.187500000000001
40
0.187500000000001
40
0.218750000000001
40
0.218750000000001
40
0.234375000000001
40
0.234375000000001
40
0.250000000000001
40
0.250000000000001
40
0.265625000000001
40
0.265625000000001
40
0.281250000000001
40
0.281250000000001
40
0.296875000000002
40
0.296875000000002
40
0.312500000000002
40
0.312500000000002
40
0.328125000000002
40
0.328125000000002
40
0.343750000000002
40
0.343750000000002
40
0.375000000000002
40
0.375000000000002
40
0.406250000000002
40
0.406250000000002
40
0.421875000000003
40
0.421875000000003
40
0.425781250000003
40
0.425781250000003
40
0.429687500000003
40
0.437500000000003
40
0.437500000000003
40
0.468750000000002
40
0.468750000000002
40
0.500000000000002
40
0.500000000000002
40
0.531250000000002
40
0.531250000000002
40
0.546875000000002
40
0.546875000000002
40
0.562500000000001
40
0.562500000000001
40
0.578125000000001
40
0.578125000000001
40
0.593750000000001
40
0.593750000000001
40
0.609375000000001
40
0.609375000000001
40
0.625000000000001
40
0.625000000000001
40
0.656250000000001
40
0.656250000000001
40
0.687500000000001
40
0.687500000000001
40
0.703125000000001
40
0.703125000000001
40
0.710937500000001
40
0.710937500000001
40
0.714843750000001
40
0.714843750000001
40
0.718750000000001
40
0.718750000000001
40
0.750000000000001
40
0.750000000000001
40
0.781250000000001
40
0.781250000000001
40
0.812500000000001
40
0.812500000000001
40
0.828125000000001
40
0.828125000000001
40
0.843750000000001
40
0.843750000000001
40
0.859375000000001
40
0.859375000000001
40
0.875000000000001
40
0.875000000000001
40
0.890625000000001
40
0.890625000000001
40
0.906250000000001
40
0.906250000000001
40
0.9375
40
0.9375
40
0.96875
40
0.96875
40
1
40
1
40
1
40
1
41
1
10
94.2
20
8.79373245256119
30
0
41
1
10
94.2503027545692
20
8.51055004658434
30
0
41
1
10
94.3006055091386
20
8.21569243745418
30
0
41
1
10
94.4012110182772
20
7.60643079070999
30
0
41
1
10
94.4515137728466
20
7.29203250051739
30
0
41
1
10
94.6024220365545
20
6.32581314943425
30
0
41
1
10
94.703027545693
20
5.65097445825901
30
0
41
1
10
94.9042385639702
20
4.27518210307156
30
0
41
1
10
95.0048440731088
20
3.57439469496603
30
0
41
1
10
95.206055091386
20
2.18007356824813
30
0
41
1
10
95.3066606005247
20
1.48663984199291
30
0
41
1
10
95.4324174869479
20
0.641232595516925
30
0
41
1
10
95.4575688642325
20
0.473201517770747
30
0
41
1
10
95.4952959301594
20
0.222985464110224
30
0
41
1
10
95.5078716188018
20
0.139884951458839
30
0
41
1
10
95.5330229960864
20
-0.0256669736268407
30
0
41
1
10
95.5455986847288
20
-0.108275199316381
30
0
41
1
10
95.6084771279403
20
-0.523877712746582
30
0
41
1
10
95.6587798825096
20
-0.861404756453993
30
0
41
1
10
95.8096881462176
20
-1.88493587190916
30
0
41
1
10
95.9102936553563
20
-2.58211251216008
30
0
41
1
10
96.1115046736334
20
-3.97792630703265
30
0
41
1
10
96.212110182772
20
-4.67644913282268
30
0
41
1
10
96.3630184464799
20
-5.69977669968407
30
0
41
1
10
96.4133212010492
20
-6.03677590401654
30
0
41
1
10
96.5139267101877
20
-6.69813095057427
30
0
41
1
10
96.564229464757
20
-7.02248078704997
30
0
41
1
10
96.6648349738957
20
-7.65419332408777
30
0
41
1
10
96.715137728465
20
-7.96155002045356
30
0
41
1
10
96.8157432376035
20
-8.55520526478335
30
0
41
1
10
96.8660459921728
20
-8.84149832418134
30
0
41
1
10
96.9666515013114
20
-9.38940244925783
30
0
41
1
10
97.0169542558807
20
-9.65100902284789
30
0
41
1
10
97.1175597650193
20
-10.146515020338
30
0
41
1
10
97.1678625195887
20
-10.380411325693
30
0
41
1
10
97.2684680287272
20
-10.8181858239814
30
0
41
1
10
97.3187707832965
20
-11.0220624916605
30
0
41
1
10
97.4193762924351
20
-11.3982712926548
30
0
41
1
10
97.4696790470044
20
-11.570603531329
30
0
41
1
10
97.6205873107124
20
-12.0392025259394
30
0
41
1
10
97.7211928198509
20
-12.2867202622097
30
0
41
1
10
97.922403838128
20
-12.6553113538707
30
0
41
1
10
98.0230093472667
20
-12.7765002642276
30
0
41
1
10
98.1739176109745
20
-12.8734069202071
30
0
41
1
10
98.2242203655439
20
-12.8916279774802
30
0
41
1
10
98.2870988087556
20
-12.8982025104017
30
0
41
1
10
98.2996744973979
20
-12.8987090576119
30
0
41
1
10
98.3248258746825
20
-12.8981365911971
30
0
41
1
10
98.3625529406094
20
-12.8948860665225
30
0
41
1
10
98.4002800065363
20
-12.8842901905949
30
0
41
1
10
98.5260368929597
20
-12.8319319757875
30
0
41
1
10
98.6266424020983
20
-12.7352556128449
30
0
41
1
10
98.8278534203754
20
-12.4177426145674
30
0
41
1
10
98.928458929514
20
-12.1967828291982
30
0
41
1
10
99.1296699477912
20
-11.6248721216033
30
0
41
1
10
99.2302754569298
20
-11.2738542982463
30
0
41
1
10
99.3811837206378
20
-10.6544995625959
30
0
41
1
10
99.4314864752071
20
-10.4326773544302
30
0
41
1
10
99.5320919843456
20
-9.96028171538291
30
0
41
1
10
99.5823947389149
20
-9.70971076612179
30
0
41
1
10
99.6830002480535
20
-9.18255852546582
30
0
41
1
10
99.7333030026228
20
-8.90598120052661
30
0
41
1
10
99.8339085117614
20
-8.33020876107432
30
0
41
1
10
99.8842112663307
20
-8.03101878024853
30
0
41
1
10
99.9848167754693
20
-7.41392735932178
30
0
41
1
10
100.035119530039
20
-7.09603177395746
30
0
41
1
10
100.135725039177
20
-6.44578258561552
30
0
41
1
10
100.186027793747
20
-6.11343504897349
30
0
41
1
10
100.336936057454
20
-5.10133499134824
30
0
41
1
10
100.437541566593
20
-4.40663113825073
30
0
41
1
10
100.63875258487
20
-3.01179757771428
30
0
41
1
10
100.739358094009
20
-2.31179693725775
30
0
41
1
10
100.890266357717
20
-1.28012463721282
30
0
41
1
10
100.940569112286
20
-0.939237403505103
30
0
41
1
10
101.01602324414
20
-0.434662755608201
30
0
41
1
10
101.041174621425
20
-0.267593271940058
30
0
41
1
10
101.078901687352
20
-0.0189170694388849
30
0
41
1
10
101.091477375994
20
0.063564683113043
30
0
41
1
10
101.116628753279
20
0.22957851953646
30
0
41
1
10
101.129204441921
20
0.31290301502068
30
0
41
1
10
101.242385639702
20
1.06550093418869
30
0
41
1
10
101.34299114884
20
1.75384687353949
30
0
41
1
10
101.544202167118
20
3.14410742823847
30
0
41
1
10
101.644807676256
20
3.84593757723485
30
0
41
1
10
101.846018694533
20
5.23098528312067
30
0
41
1
10
101.946624203672
20
5.91404791744145
30
0
41
1
10
102.09753246738
20
6.89802737367535
30
0
41
1
10
102.147835221949
20
7.2192408275092
30
0
41
1
10
102.248440731088
20
7.84381776546937
30
0
41
1
10
102.298743485657
20
8.14717530921348
30
0
41
1
10
102.399348994796
20
8.73204741646944
30
0
41
1
10
102.449651749365
20
9.01355665896344
30
0
41
1
10
102.550257258503
20
9.55121972638221
30
0
41
1
10
102.600560013073
20
9.80736931462903
30
0
41
1
10
102.701165522211
20
10.2914263110804
30
0
41
1
10
102.751468276781
20
10.5193309153171
30
0
41
1
10
102.852073785919
20
10.9447436878108
30
0
41
1
10
102.902376540489
20
11.1422506681426
30
0
41
1
10
103.053284804196
20
11.6871349645927
30
0
41
1
10
103.153890313335
20
11.9864925107465
30
0
41
1
10
103.355101331612
20
12.4560322619357
30
0
41
1
10
103.455706840751
20
12.6263094010467
30
0
41
1
10
103.656917859028
20
12.8474772313799
30
0
41
1
10
103.757523368167
20
12.8985
30
0
41
1
10
103.858128877305
20
12.8985
30
0
0
SPLINE
5
FD
100
AcDbEntity
8
1
62
256
6
ByLayer
370
13
48
1
60
0
100
AcDbSpline
70
4
71
3
72
28
73
24
40
0
40
0
40
0
40
0
40
0.125
40
0.125
40
0.25
40
0.25
40
0.375
40
0.375
40
0.4375
40
0.4375
40
0.5
40
0.5
40
0.5625
40
0.5625
40
0.625
40
0.625
40
0.6875
40
0.6875
40
0.75
40
0.75
40
0.875
40
0.875
40
1
40
1
40
1
40
1
41
1
10
102.883210222938
20
12.8985
30
0
41
1
10
102.984131877537
20
12.8985
30
0
41
1
10
103.085053532137
20
12.8471545040228
30
0
41
1
10
103.286896841335
20
12.6245436023101
30
0
41
1
10
103.387818495934
20
12.4531440869607
30
0
41
1
10
103.589661805132
20
11.9805125304622
30
0
41
1
10
103.690583459731
20
11.6791844622379
30
0
41
1
10
103.84196594163
20
11.1307902441763
30
0
41
1
10
103.89242676893
20
10.9320222766729
30
0
41
1
10
103.993348423529
20
10.5039349157414
30
0
41
1
10
104.043809250828
20
10.2746167658089
30
0
41
1
10
104.144730905427
20
9.78761873377206
30
0
41
1
10
104.195191732727
20
9.52994173954966
30
0
41
1
10
104.296113387326
20
8.989155683934
30
0
41
1
10
104.346574214626
20
8.70605096280883
30
0
41
1
10
104.447495869225
20
8.11796973767338
30
0
41
1
10
104.497956696524
20
7.81299866607634
30
0
41
1
10
104.598878351124
20
7.18522750179497
30
0
41
1
10
104.649339178423
20
6.86243345574434
30
0
41
1
10
104.800721660322
20
5.87383444073907
30
0
41
1
10
104.901643314921
20
5.18785915178751
30
0
41
1
10
105.103486624119
20
3.79763581341064
30
0
41
1
10
105.204408278718
20
3.09354379694284
30
0
41
1
10
105.305329933317
20
2.39656412275235
30
0
0
SPLINE
5
FE
100
AcDbEntity
8
1
62
256
6
ByLayer
370
13
48
1
60
0
100
AcDbSpline
70
4
71
3
72
8
73
4
40
0
40
0
40
0
40
0
40
1
40
1
40
1
40
1
41
1
10
105.305329933317
20
-11.7194547860349
30
0
41
1
10
106.870219955545
20
-7.82140077867379
30
0
41
1
10
108.435109977772
20
-3.9148727697837
30
0
41
1
10
110
20
5.68E-14
30
0
0
SPLINE
5
FF
100
AcDbEntity
8
1
62
256
6
ByLayer
370
13
48
1
60
0
100
AcDbSpline
70
4
71
3
72
8
73
4
40
0
40
0
40
0
40
0
40
1
40
1
40
1
40
1
41
1
10
105.305329933317
20
-12.5175873557604
30
0
41
1
10
106.870219955545
20
-8.34992736149439
30
0
41
1
10
108.435109977772
20
-4.17735224398754
30
0
41
1
10
110
20
5.68E-14
30
0
0
SPLINE
5
100
100
AcDbEntity
8
1
62
256
6
ByLayer
370
13
48
1
60
0
100
AcDbSpline
70
4
71
3
72
8
73
4
40
0
40
0
40
0
40
0
40
1
40
1
40
1
40
1
41
1
10
105.305329933317
20
-0.456253910748103
30
0
41
1
10
106.870219955545
20
-0.283997171636486
30
0
41
1
10
108.435109977772
20
-0.131910932854879
30
0
41
1
10
110
20
0
30
0
0
SPLINE
5
101
100
AcDbEntity
8
1
62
256
6
ByLayer
370
13
48
1
60
0
100
AcDbSpline
70
4
71
3
72
8
73
4
40
0
40
0
40
0
40
0
40
1
40
1
40
1
40
1
41
1
10
105.305329933317
20
1.95160492109156
30
0
41
1
10
106.870219955545
20
1.3210222976621
30
0
41
1
10
108.435109977772
20
0.670480081815072
30
0
41
1
10
110
20
0
30
0
0
SPLINE
5
102
100
AcDbEntity
8
1
62
256
6
ByLayer
370
13
48
1
60
0
100
AcDbSpline
70
4
71
3
72
8
73
4
40
0
40
0
40
0
40
0
40
1
40
1
40
1
40
1
41
1
10
105.305329933317
20
-12.1718394246944
30
0
41
1
10
106.870219955545
20
-8.12123889765988
30
0
41
1
10
108.435109977772
20
-4.06391435389992
30
0
41
1
10
110
20
5.68E-14
30
0
0
SPLINE
5
103
100
AcDbEntity
8
1
62
256
6
ByLayer
370
13
48
1
60
0
100
AcDbSpline
70
4
71
3
72
8
73
4
40
0
40
0
40
0
40
0
40
1
40
1
40
1
40
1
41
1
10
105.305329933317
20
11.9351632656173
30
0
41
1
10
106.870219955545
20
7.96442959532854
30
0
41
1
10
108.435109977772
20
3.9859979703995
30
0
41
1
10
110
20
-5.68E-14
30
0
0
SPLINE
5
104
100
AcDbEntity
8
1
62
256
6
ByLayer
370
13
48
1
60
0
100
AcDbSpline
70
4
71
3
72
8
73
4
40
0
40
0
40
0
40
0
40
1
40
1
40
1
40
1
41
1
10
105.305329933317
20
-7.25303898801766
30
0
41
1
10
106.870219955545
20
-4.81866812241461
30
0
41
1
10
108.435109977772
20
-2.40096187836136
30
0
41
1
10
110
20
2.84E-14
30
0
0
SPLINE
5
105
100
AcDbEntity
8
1
62
256
6
ByLayer
370
13
48
1
60
0
100
AcDbSpline
70
4
71
3
72
8
73
4
40
0
40
0
40
0
40
0
40
1
40
1
40
1
40
1
41
1
10
105.305329933317
20
-12.251104108932
30
0
41
1
10
106.870219955545
20
-8.16108830617378
30
0
41
1
10
108.435109977772
20
-4.07734195756723
30
0
41
1
10
110
20
5.68E-14
30
0
0
SPLINE
5
106
100
AcDbEntity
8
1
62
256
6
ByLayer
370
13
48
1
60
0
100
AcDbSpline
70
4
71
3
72
8
73
4
40
0
40
0
40
0
40
0
40
1
40
1
40
1
40
1
41
1
10
105.305329933317
20
-12.8780175678886
30
0
41
1
10
106.870219955545
20
-8.58648211395982
30
0
41
1
10
108.435109977772
20
-4.29376228214576
30
0
41
1
10
110
20
5.68E-14
30
0
0
SPLINE
5
107
100
AcDbEntity
8
1
62
256
6
ByLayer
370
13
48
1
60
0
100
AcDbSpline
70
4
71
3
72
8
73
4
40
0
40
0
40
0
40
0
40
1
40
1
40
1
40
1
41
1
10
105.305329933317
20
-12.753669503697
30
0
41
1
10
106.870219955545
20
-8.5054626451556
30
0
41
1
10
108.435109977772
20
-4.25419261793854
30
0
41
1
10
110
20
5.68E-14
30
0
0
SPLINE
5
108
100
AcDbEntity
8
1
62
256
6
ByLayer
370
13
48
1
60
0
100
AcDbSpline
70
4
71
3
72
8
73
4
40
0
40
0
40
0
40
0
40
1
40
1
40
1
40
1
41
1
10
105.305329933317
20
-8.21851476263973
30
0
41
1
10
106.870219955545
20
-5.46345296809724
30
0
41
1
10
108.435109977772
20
-2.72391791517381
30
0
41
1
10
110
20
2.84E-14
30
0
0
SPLINE
5
109
100
AcDbEntity
8
1
62
256
6
ByLayer
370
13
48
1
60
0
100
AcDbSpline
70
4
71
3
72
8
73
4
40
0
40
0
40
0
40
0
40
1
40
1
40
1
40
1
41
1
10
105.305329933318
20
4.52265374527607
30
0
41
1
10
106.870219955545
20
2.99619924037916
30
0
41
1
10
108.435109977772
20
1.48863144826225
30
0
41
1
10
110
20
1.99E-13
30
0
0
SPLINE
5
10A
100
AcDbEntity
8
1
62
256
6
ByLayer
370
13
48
1
60
0
100
AcDbSpline
70
4
71
3
72
8
73
4
40
0
40
0
40
0
40
0
40
1
40
1
40
1
40
1
41
1
10
105.305329933318
20
10.2624779661975
30
0
41
1
10
106.870219955545
20
6.82942450238934
30
0
41
1
10
108.435109977772
20
3.40856086126405
30
0
41
1
10
110
20
4.547E-13
30
0
0
SPLINE
5
10B
100
AcDbEntity
8
1
62
256
6
ByLayer
370
13
48
1
60
0
100
AcDbSpline
70
4
71
3
72
8
73
4
40
0
40
0
40
0
40
0
40
1
40
1
40
1
40
1
41
1
10
105.305329933318
20
12.8475187063441
30
0
41
1
10
106.870219955545
20
8.56321961952554
30
0
41
1
10
108.435109977773
20
4.28066619768717
30
0
41
1
10
110
20
-6.821E-13
30
0
0
SPLINE
5
10C
100
AcDbEntity
8
1
62
256
6
ByLayer
370
13
48
1
60
0
100
AcDbSpline
70
4
71
3
72
8
73
4
40
0
40
0
40
0
40
0
40
1
40
1
40
1
40
1
41
1
10
105.305329933318
20
-2.60747731692251
30
0
41
1
10
106.870219955545
20
-1.75808620804918
30
0
41
1
10
108.435109977772
20
-0.888917451710228
30
0
41
1
10
110
20
-1.137E-13
30
0
0
SPLINE
5
10D
100
AcDbEntity
8
1
62
256
6
ByLayer
370
13
48
1
60
0
100
AcDbSpline
70
4
71
3
72
8
73
4
40
0
40
0
40
0
40
0
40
1
40
1
40
1
40
1
41
1
10
105.305329933317
20
-12.7881422626321
30
0
41
1
10
106.870219955545
20
-8.5227934282984
30
0
41
1
10
108.435109977772
20
-4.26003237556517
30
0
41
1
10
110
20
5.68E-14
30
0
0
SPLINE
5
10E
100
AcDbEntity
8
1
62
256
6
ByLayer
370
13
48
1
60
0
100
AcDbSpline
70
4
71
3
72
8
73
4
40
0
40
0
40
0
40
0
40
1
40
1
40
1
40
1
41
1
10
105.305329933317
20
12.3401894405372
30
0
41
1
10
106.870219955545
20
8.23266724710444
30
0
41
1
10
108.435109977772
20
4.11922541595135
30
0
41
1
10
110
20
2.84E-14
30
0
0
SPLINE
5
10F
100
AcDbEntity
8
1
62
256
6
ByLayer
370
13
48
1
60
0
100
AcDbSpline
70
4
71
3
72
8
73
4
40
0
40
0
40
0
40
0
40
1
40
1
40
1
40
1
41
1
10
105.305329933317
20
7.49509614968838
30
0
41
1
10
106.870219955545
20
5.01315800043218
30
0
41
1
10
108.435109977772
20
2.51476502501544
30
0
41
1
10
110
20
-1.137E-13
30
0
0
SPLINE
5
110
100
AcDbEntity
8
1
62
256
6
ByLayer
370
13
48
1
60
0
100
AcDbSpline
70
4
71
3
72
8
73
4
40
0
40
0
40
0
40
0
40
1
40
1
40
1
40
1
41
1
10
105.305329933317
20
3.13514687241599
30
0
41
1
10
106.870219955545
20
2.1096773193828
30
0
41
1
10
108.435109977772
20
1.06461677360917
30
0
41
1
10
110
20
0
30
0
0
SPLINE
5
111
100
AcDbEntity
8
1
62
256
6
ByLayer
370
13
48
1
60
0
100
AcDbSpline
70
4
71
3
72
8
73
4
40
0
40
0
40
0
40
0
40
1
40
1
40
1
40
1
41
1
10
105.305329933317
20
10.1114404020032
30
0
41
1
10
106.870219955545
20
6.75349210381333
30
0
41
1
10
108.435109977772
20
3.38297478127893
30
0
41
1
10
110
20
-2.84E-14
30
0
0
SPLINE
5
112
100
AcDbEntity
8
1
62
256
6
ByLayer
370
13
48
1
60
0
100
AcDbSpline
70
4
71
3
72
8
73
4
40
0
40
0
40
0
40
0
40
1
40
1
40
1
40
1
41
1
10
105.305329933317
20
-4.01188960071485
30
0
41
1
10
106.870219955545
20
-2.65540952950553
30
0
41
1
10
108.435109977772
20
-1.31809832946919
30
0
41
1
10
110
20
2.84E-14
30
0
0
SPLINE
5
113
100
AcDbEntity
8
1
62
256
6
ByLayer
370
13
48
1
60
0
100
AcDbSpline
70
4
71
3
72
8
73
4
40
0
40
0
40
0
40
0
40
1
40
1
40
1
40
1
41
1
10
105.305329933317
20
12.8971632475426
30
0
41
1
10
106.870219955545
20
8.59839942303427
30
0
41
1
10
108.435109977772
20
4.29929763078351
30
0
41
1
10
110
20
0
30
0
0
SPLINE
5
114
100
AcDbEntity
8
1
62
256
6
ByLayer
370
13
48
1
60
0
100
AcDbSpline
70
4
71
3
72
8
73
4
40
0
40
0
40
0
40
0
40
1
40
1
40
1
40
1
41
1
10
105.305329933318
20
6.69250885778226
30
0
41
1
10
106.870219955545
20
4.44441745925496
30
0
41
1
10
108.435109977772
20
2.21355665302181
30
0
41
1
10
110
20
2.842E-13
30
0
0
SPLINE
5
115
100
AcDbEntity
8
1
62
256
6
ByLayer
370
13
48
1
60
0
100
AcDbSpline
70
4
71
3
72
8
73
4
40
0
40
0
40
0
40
0
40
1
40
1
40
1
40
1
41
1
10
105.305329933317
20
-12.8895421428887
30
0
41
1
10
106.870219955545
20
-8.59227596151686
30
0
41
1
10
108.435109977772
20
-4.29571456930901
30
0
41
1
10
110
20
5.68E-14
30
0
0
SPLINE
5
116
100
AcDbEntity
8
1
62
256
6
ByLayer
370
13
48
1
60
0
100
AcDbSpline
70
4
71
3
72
8
73
4
40
0
40
0
40
0
40
0
40
1
40
1
40
1
40
1
41
1
10
105.305329933318
20
5.63225320679135
30
0
41
1
10
106.870219955545
20
3.7366767429294
30
0
41
1
10
108.435109977772
20
1.85923838499818
30
0
41
1
10
110
20
2.558E-13
30
0
0
SPLINE
5
117
100
AcDbEntity
8
1
62
256
6
ByLayer
370
13
48
1
60
0
100
AcDbSpline
70
4
71
3
72
8
73
4
40
0
40
0
40
0
40
0
40
1
40
1
40
1
40
1
41
1
10
105.305329933317
20
5.40970201033394
30
0
41
1
10
106.870219955545
20
3.62479168808812
30
0
41
1
10
108.435109977772
20
1.82153774579837
30
0
41
1
10
110
20
-2.84E-14
30
0
0
SPLINE
5
118
100
AcDbEntity
8
1
62
256
6
ByLayer
370
13
48
1
60
0
100
AcDbSpline
70
4
71
3
72
8
73
4
40
0
40
0
40
0
40
0
40
1
40
1
40
1
40
1
41
1
10
105.305329933318
20
8.62834707693366
30
0
41
1
10
106.870219955545
20
5.73722777525185
30
0
41
1
10
108.435109977772
20
2.861080443422
30
0
41
1
10
110
20
3.979E-13
30
0
0
SPLINE
5
119
100
AcDbEntity
8
1
62
256
6
ByLayer
370
13
48
1
60
0
100
AcDbSpline
70
4
71
3
72
8
73
4
40
0
40
0
40
0
40
0
40
1
40
1
40
1
40
1
41
1
10
105.305329933317
20
-9.92563299582736
30
0
41
1
10
106.870219955545
20
-6.60419819524856
30
0
41
1
10
108.435109977772
20
-3.295617450686
30
0
41
1
10
110
20
2.84E-14
30
0
0
SPLINE
5
11A
100
AcDbEntity
8
1
62
256
6
ByLayer
370
13
48
1
60
0
100
AcDbSpline
70
4
71
3
72
8
73
4
40
0
40
0
40
0
40
0
40
1
40
1
40
1
40
1
41
1
10
105.305329933318
20
-6.00720945564993
30
0
41
1
10
106.870219955545
20
-4.02266832459586
30
0
41
1
10
108.435109977773
20
-2.02024304073043
30
0
41
1
10
110
20
3.126E-13
30
0
0
SPLINE
5
11B
100
AcDbEntity
8
1
62
256
6
ByLayer
370
13
48
1
60
0
100
AcDbSpline
70
4
71
3
72
8
73
4
40
0
40
0
40
0
40
0
40
1
40
1
40
1
40
1
41
1
10
105.305329933318
20
7.69413186622555
30
0
41
1
10
106.870219955545
20
5.11322091815458
30
0
41
1
10
108.435109977772
20
2.54848209262289
30
0
41
1
10
110
20
3.411E-13
30
0
0
SPLINE
5
11C
100
AcDbEntity
8
1
62
256
6
ByLayer
370
13
48
1
60
0
100
AcDbSpline
70
4
71
3
72
8
73
4
40
0
40
0
40
0
40
0
40
1
40
1
40
1
40
1
41
1
10
105.305329933317
20
4.29122200228215
30
0
41
1
10
106.870219955545
20
2.87984959288653
30
0
41
1
10
108.435109977772
20
1.44942642586346
30
0
41
1
10
110
20
-2.84E-14
30
0
0
SPLINE
5
11D
100
AcDbEntity
8
1
62
256
6
ByLayer
370
13
48
1
60
0
100
AcDbSpline
70
4
71
3
72
8
73
4
40
0
40
0
40
0
40
0
40
1
40
1
40
1
40
1
41
1
10
105.305329933318
20
-3.77713169170519
30
0
41
1
10
106.870219955545
20
-2.53738769029698
30
0
41
1
10
108.435109977773
20
-1.27832984757487
30
0
41
1
10
110
20
1.99E-13
30
0
0
SPLINE
5
11E
100
AcDbEntity
8
1
62
256
6
ByLayer
370
13
48
1
60
0
100
AcDbSpline
70
4
71
3
72
8
73
4
40
0
40
0
40
0
40
0
40
1
40
1
40
1
40
1
41
1
10
105.305329933317
20
6.48078796467564
30
0
41
1
10
106.870219955545
20
4.33797721488267
30
0
41
1
10
108.435109977772
20
2.17769068991245
30
0
41
1
10
110
20
-2.84E-14
30
0
0
SPLINE
5
11F
100
AcDbEntity
8
1
62
256
6
ByLayer
370
13
48
1
60
0
100
AcDbSpline
70
4
71
3
72
8
73
4
40
0
40
0
40
0
40
0
40
1
40
1
40
1
40
1
41
1
10
105.305329933317
20
9.31840933351208
30
0
41
1
10
106.870219955545
20
6.22622926482225
30
0
41
1
10
108.435109977772
20
3.1200585396046
30
0
41
1
10
110
20
-2.84E-14
30
0
0
SPLINE
5
120
100
AcDbEntity
8
1
62
256
6
ByLayer
370
13
48
1
60
0
100
AcDbSpline
70
4
71
3
72
8
73
4
40
0
40
0
40
0
40
0
40
1
40
1
40
1
40
1
41
1
10
105.305329933318
20
-4.91369485704146
30
0
41
1
10
106.870219955545
20
-3.29445928109303
30
0
41
1
10
108.435109977772
20
-1.65654287731235
30
0
41
1
10
110
20
-2.274E-13
30
0
0
SPLINE
5
121
100
AcDbEntity
8
1
62
256
6
ByLayer
370
13
48
1
60
0
100
AcDbSpline
70
4
71
3
72
8
73
4
40
0
40
0
40
0
40
0
40
1
40
1
40
1
40
1
41
1
10
105.305329933318
20
-7.04809527599207
30
0
41
1
10
106.870219955545
20
-4.7156350278982
30
0
41
1
10
108.435109977772
20
-2.36624398393406
30
0
41
1
10
110
20
-3.126E-13
30
0
0
SPLINE
5
122
100
AcDbEntity
8
1
62
256
6
ByLayer
370
13
48
1
60
0
100
AcDbSpline
70
4
71
3
72
8
73
4
40
0
40
0
40
0
40
0
40
1
40
1
40
1
40
1
41
1
10
105.305329933317
20
-5.14047237649484
30
0
41
1
10
106.870219955545
20
-3.40846907122079
30
0
41
1
10
108.435109977772
20
-1.69495946448689
30
0
41
1
10
110
20
-1.137E-13
30
0
0
SPLINE
5
123
100
AcDbEntity
8
1
62
256
6
ByLayer
370
13
48
1
60
0
100
AcDbSpline
70
4
71
3
72
8
73
4
40
0
40
0
40
0
40
0
40
1
40
1
40
1
40
1
41
1
10
105.305329933317
20
-8.02723318389394
30
0
41
1
10
106.870219955545
20
-5.36728835398259
30
0
41
1
10
108.435109977772
20
-2.69151441476299
30
0
41
1
10
110
20
2.84E-14
30
0
0
SPLINE
5
124
100
AcDbEntity
8
1
62
256
6
ByLayer
370
13
48
1
60
0
100
AcDbSpline
70
4
71
3
72
8
73
4
40
0
40
0
40
0
40
0
40
1
40
1
40
1
40
1
41
1
10
105.305329933317
20
12.63710400413
30
0
41
1
10
106.870219955545
20
8.42877902707795
30
0
41
1
10
108.435109977772
20
4.21636459079352
30
0
41
1
10
110
20
0
30
0
0
SPLINE
5
125
100
AcDbEntity
8
1
62
256
6
ByLayer
370
13
48
1
60
0
100
AcDbSpline
70
4
71
3
72
8
73
4
40
0
40
0
40
0
40
0
40
1
40
1
40
1
40
1
41
1
10
105.305329933317
20
12.8233057068725
30
0
41
1
10
106.870219955545
20
8.55104681247346
30
0
41
1
10
108.435109977772
20
4.27656446482106
30
0
41
1
10
110
20
0
30
0
0
SPLINE
5
126
100
AcDbEntity
8
1
62
256
6
ByLayer
370
13
48
1
60
0
100
AcDbSpline
70
4
71
3
72
8
73
4
40
0
40
0
40
0
40
0
40
1
40
1
40
1
40
1
41
1
10
105.305329933318
20
12.684123265841
30
0
41
1
10
106.870219955545
20
8.45241742021577
30
0
41
1
10
108.435109977772
20
4.22432975229111
30
0
41
1
10
110
20
5.684E-13
30
0
0
SPLINE
5
127
100
AcDbEntity
8
1
62
256
6
ByLayer
370
13
48
1
60
0
100
AcDbSpline
70
4
71
3
72
8
73
4
40
0
40
0
40
0
40
0
40
1
40
1
40
1
40
1
41
1
10
105.305329933318
20
9.48696989012853
30
0
41
1
10
106.870219955545
20
6.3109711463365
30
0
41
1
10
108.435109977773
20
3.1486130512377
30
0
41
1
10
110
20
-4.832E-13
30
0
0
SPLINE
5
128
100
AcDbEntity
8
1
62
256
6
ByLayer
370
13
48
1
60
0
100
AcDbSpline
70
4
71
3
72
8
73
4
40
0
40
0
40
0
40
0
40
1
40
1
40
1
40
1
41
1
10
105.305329933318
20
10.9480771284299
30
0
41
1
10
106.870219955545
20
7.28804570667884
30
0
41
1
10
108.435109977772
20
3.63864648734244
30
0
41
1
10
110
20
4.832E-13
30
0
0
SPLINE
5
129
100
AcDbEntity
8
1
62
256
6
ByLayer
370
13
48
1
60
0
100
AcDbSpline
70
4
71
3
72
8
73
4
40
0
40
0
40
0
40
0
40
1
40
1
40
1
40
1
41
1
10
105.305329933317
20
-11.8201707924441
30
0
41
1
10
106.870219955545
20
-7.87203459273476
30
0
41
1
10
108.435109977772
20
-3.9319342723939
30
0
41
1
10
110
20
5.68E-14
30
0
0
SPLINE
5
12A
100
AcDbEntity
8
1
62
256
6
ByLayer
370
13
48
1
60
0
100
AcDbSpline
70
4
71
3
72
8
73
4
40
0
40
0
40
0
40
0
40
1
40
1
40
1
40
1
41
1
10
105.305329933318
20
2.19465504242442
30
0
41
1
10
106.870219955545
20
1.44321295126164
30
0
41
1
10
108.435109977772
20
0.71165328185927
30
0
41
1
10
110
20
8.53E-14
30
0
0
SPLINE
5
12B
100
AcDbEntity
8
1
62
256
6
ByLayer
370
13
48
1
60
0
100
AcDbSpline
70
4
71
3
72
8
73
4
40
0
40
0
40
0
40
0
40
1
40
1
40
1
40
1
41
1
10
105.305329933317
20
-11.2856817147831
30
0
41
1
10
106.870219955545
20
-7.51401448713906
30
0
41
1
10
108.435109977772
20
-3.7520791622544
30
0
41
1
10
110
20
2.84E-14
30
0
0
SPLINE
5
12C
100
AcDbEntity
8
1
62
256
6
ByLayer
370
13
48
1
60
0
100
AcDbSpline
70
4
71
3
72
8
73
4
40
0
40
0
40
0
40
0
40
1
40
1
40
1
40
1
41
1
10
105.305329933318
20
3.37343160323121
30
0
41
1
10
106.870219955545
20
2.22947222769815
30
0
41
1
10
108.435109977772
20
1.10498270651036
30
0
41
1
10
110
20
1.421E-13
30
0
0
SPLINE
5
12D
100
AcDbEntity
8
1
62
256
6
ByLayer
370
13
48
1
60
0
100
AcDbSpline
70
4
71
3
72
8
73
4
40
0
40
0
40
0
40
0
40
1
40
1
40
1
40
1
41
1
10
105.305329933318
20
12.4096030317397
30
0
41
1
10
106.870219955545
20
8.2675641318755
30
0
41
1
10
108.435109977772
20
4.13098422380858
30
0
41
1
10
110
20
5.684E-13
30
0
0
SPLINE
5
12E
100
AcDbEntity
8
1
62
256
6
ByLayer
370
13
48
1
60
0
100
AcDbSpline
70
4
71
3
72
8
73
4
40
0
40
0
40
0
40
0
40
1
40
1
40
1
40
1
41
1
10
105.305329933317
20
-9.1119886544717
30
0
41
1
10
106.870219955545
20
-6.06037285136279
30
0
41
1
10
108.435109977772
20
-3.02300988115078
30
0
41
1
10
110
20
2.84E-14
30
0
0
SPLINE
5
12F
100
AcDbEntity
8
1
62
256
6
ByLayer
370
13
48
1
60
0
100
AcDbSpline
70
4
71
3
72
8
73
4
40
0
40
0
40
0
40
0
40
1
40
1
40
1
40
1
41
1
10
105.305329933318
20
12.0263630582732
30
0
41
1
10
106.870219955545
20
8.01027924235515
30
0
41
1
10
108.435109977772
20
4.00144740645274
30
0
41
1
10
109.999999999999
20
1.7053E-12
30
0
0
SPLINE
5
130
100
AcDbEntity
8
1
62
256
6
ByLayer
370
13
48
1
60
0
100
AcDbSpline
70
4
71
3
72
8
73
4
40
0
40
0
40
0
40
0
40
1
40
1
40
1
40
1
41
1
10
105.305329933317
20
-8.93604501469659
30
0
41
1
10
106.870219955545
20
-5.97191920969044
30
0
41
1
10
108.435109977772
20
-2.99320465975353
30
0
41
1
10
110
20
2.84E-14
30
0
0
SPLINE
5
131
100
AcDbEntity
8
1
62
256
6
ByLayer
370
13
48
1
60
0
100
AcDbSpline
70
4
71
3
72
8
73
4
40
0
40
0
40
0
40
0
40
1
40
1
40
1
40
1
41
1
10
105.305329933318
20
0.996651248997949
30
0
41
1
10
106.870219955545
20
0.644309778359741
30
0
41
1
10
108.435109977772
20
0.312089108270271
30
0
41
1
10
110
20
2.84E-14
30
0
0
SPLINE
5
132
100
AcDbEntity
8
1
62
256
6
ByLayer
370
13
48
1
60
0
100
AcDbSpline
70
4
71
3
72
8
73
4
40
0
40
0
40
0
40
0
40
1
40
1
40
1
40
1
41
1
10
105.305329933317
20
-10.6523195006124
30
0
41
1
10
106.870219955545
20
-7.0901645806594
30
0
41
1
10
108.435109977772
20
-3.5393523262785
30
0
41
1
10
110
20
2.84E-14
30
0
0
SPLINE
5
133
100
AcDbEntity
8
1
62
256
6
ByLayer
370
13
48
1
60
0
100
AcDbSpline
70
4
71
3
72
8
73
4
40
0
40
0
40
0
40
0
40
1
40
1
40
1
40
1
41
1
10
105.305329933318
20
-0.210084142349245
30
0
41
1
10
106.870219955545
20
-0.16023815134821
30
0
41
1
10
108.435109977772
20
-0.0902092580582519
30
0
41
1
10
109.999999999999
20
-2.84E-14
30
0
0
SPLINE
5
134
100
AcDbEntity
8
1
62
256
6
ByLayer
370
13
48
1
60
0
100
AcDbSpline
70
4
71
3
72
8
73
4
40
0
40
0
40
0
40
0
40
1
40
1
40
1
40
1
41
1
10
105.305329933317
20
-2.8481589164453
30
0
41
1
10
106.870219955545
20
-1.87908611454498
30
0
41
1
10
108.435109977772
20
-0.929689419194716
30
0
41
1
10
110
20
0
30
0
0
SPLINE
5
135
100
AcDbEntity
8
1
62
256
6
ByLayer
370
13
48
1
60
0
100
AcDbSpline
70
4
71
3
72
8
73
4
40
0
40
0
40
0
40
0
40
1
40
1
40
1
40
1
41
1
10
105.305329933317
20
-9.76656872601077
30
0
41
1
10
106.870219955545
20
-6.5242304627223
30
0
41
1
10
108.435109977772
20
-3.26867162994284
30
0
41
1
10
110
20
2.84E-14
30
0
0
SPLINE
5
136
100
AcDbEntity
8
1
62
256
6
ByLayer
370
13
48
1
60
0
100
AcDbSpline
70
4
71
3
72
8
73
4
40
0
40
0
40
0
40
0
40
1
40
1
40
1
40
1
41
1
10
105.305329933318
20
-1.4149789999467
30
0
41
1
10
106.870219955545
20
-0.9633822448491
30
0
41
1
10
108.435109977772
20
-0.491717306840002
30
0
41
1
10
110
20
-5.68E-14
30
0
0
SPLINE
5
137
100
AcDbEntity
8
1
62
256
6
ByLayer
370
13
48
1
60
0
100
AcDbSpline
70
4
71
3
72
8
73
4
40
0
40
0
40
0
40
0
40
1
40
1
40
1
40
1
41
1
10
105.305329933317
20
8.44374027616294
30
0
41
1
10
106.870219955545
20
5.64441882900894
30
0
41
1
10
108.435109977772
20
2.82980766439184
30
0
41
1
10
110
20
-2.84E-14
30
0
0
SPLINE
5
138
100
AcDbEntity
8
1
62
256
6
ByLayer
370
13
48
1
60
0
100
AcDbSpline
70
4
71
3
72
8
73
4
40
0
40
0
40
0
40
0
40
1
40
1
40
1
40
1
41
1
10
105.305329933317
20
-11.1643967527002
30
0
41
1
10
106.870219955545
20
-7.45303986714123
30
0
41
1
10
108.435109977772
20
-3.73153323543568
30
0
41
1
10
110
20
2.84E-14
30
0
0
SPLINE
5
139
100
AcDbEntity
8
1
62
256
6
ByLayer
370
13
48
1
60
0
100
AcDbSpline
70
4
71
3
72
8
73
4
40
0
40
0
40
0
40
0
40
1
40
1
40
1
40
1
41
1
10
105.305329933317
20
-1.65947569386532
30
0
41
1
10
106.870219955545
20
-1.08630014618157
30
0
41
1
10
108.435109977772
20
-0.533135559312512
30
0
41
1
10
110
20
0
30
0
0
SPLINE
5
13A
100
AcDbEntity
8
1
62
256
6
ByLayer
370
13
48
1
60
0
100
AcDbSpline
70
4
71
3
72
8
73
4
40
0
40
0
40
0
40
0
40
1
40
1
40
1
40
1
41
1
10
105.305329933317
20
10.8158857871086
30
0
41
1
10
106.870219955545
20
7.22158802993431
30
0
41
1
10
108.435109977772
20
3.61625299701819
30
0
41
1
10
110
20
8.53E-14
30
0
0
SPLINE
5
13B
100
AcDbEntity
8
1
62
256
6
ByLayer
370
13
48
1
60
0
100
AcDbSpline
70
4
71
3
72
8
73
4
40
0
40
0
40
0
40
0
40
1
40
1
40
1
40
1
41
1
10
105.305329933317
20
-10.5115281526602
30
0
41
1
10
106.870219955545
20
-7.01938334947545
30
0
41
1
10
108.435109977772
20
-3.51550197680422
30
0
41
1
10
110
20
-9.948E-13
30
0
0
SPLINE
5
13C
100
AcDbEntity
8
1
62
256
6
ByLayer
370
13
48
1
60
0
100
AcDbSpline
70
4
71
3
72
8
73
4
40
0
40
0
40
0
40
0
40
1
40
1
40
1
40
1
41
1
10
105.305329933318
20
11.5377608863654
30
0
41
1
10
106.870219955545
20
7.68281680813388
30
0
41
1
10
108.435109977772
20
3.8368541640026
30
0
41
1
10
110
20
5.116E-13
30
0
0
SPLINE
5
13D
100
AcDbEntity
8
1
62
256
6
ByLayer
370
13
48
1
60
0
100
AcDbSpline
70
4
71
3
72
8
73
4
40
0
40
0
40
0
40
0
40
1
40
1
40
1
40
1
41
1
10
105.305329933317
20
-6.22401980218689
30
0
41
1
10
106.870219955545
20
-4.13166723315533
30
0
41
1
10
108.435109977772
20
-2.05697116791964
30
0
41
1
10
110
20
2.84E-14
30
0
0
SPLINE
5
13E
100
AcDbEntity
8
1
62
256
6
ByLayer
370
13
48
1
60
0
100
AcDbSpline
70
4
71
3
72
8
73
4
40
0
40
0
40
0
40
0
40
1
40
1
40
1
40
1
41
1
10
105.305329933317
20
0.750965083733064
30
0
41
1
10
106.870219955545
20
0.520793883985959
30
0
41
1
10
108.435109977772
20
0.270469356858257
30
0
41
1
10
110
20
0
30
0
0
SPLINE
5
13F
100
AcDbEntity
8
1
62
256
6
ByLayer
370
13
48
1
60
0
100
AcDbSpline
70
4
71
3
72
8
73
4
40
0
40
0
40
0
40
0
40
1
40
1
40
1
40
1
41
1
10
105.305329933317
20
11.4255738878132
30
0
41
1
10
106.870219955545
20
7.62641608468098
30
0
41
1
10
108.435109977772
20
3.81784945127723
30
0
41
1
10
110
20
2.84E-14
30
0
0
SPLINE
5
140
100
AcDbEntity
8
1
62
256
6
ByLayer
370
13
48
1
60
0
100
AcDbSpline
70
4
71
3
72
8
73
4
40
0
40
0
40
0
40
0
40
1
40
1
40
1
40
1
41
1
10
105.305329933317
20
-12.5747062849916
30
0
41
1
10
106.870219955545
20
-8.37864324633904
30
0
41
1
10
108.435109977772
20
-4.18702831033406
30
0
41
1
10
110
20
5.68E-14
30
0
0
LINE
5
7D
100
AcDbEntity
8
80
62
256
6
ByLayer
370
18
48
1
60
0
100
AcDbLine
10
0
20
0
30
0
11
-5
21
0
31
0
39
0
210
0
220
0
230
1
0
LINE
5
7E
100
AcDbEntity
8
4
62
256
6
ByLayer
370
18
48
0.05
60
0
100
AcDbLine
10
-5
20
0
30
0
11
115
21
0
31
0
39
0
210
0
220
0
230
1
0
LINE
5
80
100
AcDbEntity
8
81
62
256
6
ByLayer
370
18
48
1
60
0
100
AcDbLine
10
110
20
0
30
0
11
115
21
0
31
0
39
0
210
0
220
0
230
1
0
LINE
5
81
100
AcDbEntity
8
SK4
62
256
6
ByLayer
370
18
48
0.05
60
0
100
AcDbLine
10
-65
20
0
30
0
11
115
21
0
31
0
39
0
210
0
220
0
230
1
0
LINE
5
83
100
AcDbEntity
8
1
62
256
6
ByLayer
370
18
48
1
60
0
100
AcDbLine
10
10
20
-12.2
30
0
11
43.865095
21
-12.2
31
0
39
0
210
0
220
0
230
1
0
LINE
5
84
100
AcDbEntity
8
1
62
256
6
ByLayer
370
18
48
1
60
0
100
AcDbLine
10
43.865095
20
12.2
30
0
11
10
21
12.2
31
0
39
0
210
0
220
0
230
1
0
LINE
5
85
100
AcDbEntity
8
1
62
256
6
ByLayer
370
18
48
1
60
0
100
AcDbLine
10
110
20
0
30
0
11
105.30533
21
12.8985
31
0
39
0
210
0
220
0
230
1
0
LINE
5
86
100
AcDbEntity
8
1
62
256
6
ByLayer
370
18
48
1
60
0
100
AcDbLine
10
105.30533
20
-12.8985
30
0
11
110
21
0
31
0
39
0
210
0
220
0
230
1
0
LINE
5
87
100
AcDbEntity
8
1
62
256
6
ByLayer
370
18
48
1
60
0
100
AcDbLine
10
10
20
12.2
30
0
11
0
21
15.875
31
0
39
0
210
0
220
0
230
1
0
LINE
5
88
100
AcDbEntity
8
1
62
256
6
ByLayer
370
18
48
1
60
0
100
AcDbLine
10
0
20
-15.875
30
0
11
10
21
-12.2
31
0
39
0
210
0
220
0
230
1
0
LINE
5
89
100
AcDbEntity
8
1
62
256
6
ByLayer
370
18
48
1
60
0
100
AcDbLine
10
110
20
0
30
0
11
105.30533
21
12.8985
31
0
39
0
210
0
220
0
230
1
0
LINE
5
8A
100
AcDbEntity
8
1
62
256
6
ByLayer
370
18
48
1
60
0
100
AcDbLine
10
105.30533
20
-12.8985
30
0
11
110
21
0
31
0
39
0
210
0
220
0
230
1
0
LINE
5
8B
100
AcDbEntity
8
1
62
256
6
ByLayer
370
18
48
1
60
0
100
AcDbLine
10
105.30533
20
12.8985
30
0
11
94.2
21
12.8985
31
0
39
0
210
0
220
0
230
1
0
LINE
5
8C
100
AcDbEntity
8
1
62
256
6
ByLayer
370
18
48
1
60
0
100
AcDbLine
10
94.2
20
-12.8985
30
0
11
105.30533
21
-12.8985
31
0
39
0
210
0
220
0
230
1
0
LINE
5
8D
100
AcDbEntity
8
SK1
62
256
6
ByLayer
370
18
48
1
60
0
100
AcDbLine
10
-60
20
-14.875
30
0
11
-59
21
-15.875
31
0
39
0
210
0
220
0
230
1
0
LINE
5
8F
100
AcDbEntity
8
SK1
62
256
6
ByLayer
370
18
48
1
60
0
100
AcDbLine
10
-59
20
15.875
30
0
11
-60
21
14.875
31
0
39
0
210
0
220
0
230
1
0
LINE
5
90
100
AcDbEntity
8
SK1
62
256
6
ByLayer
370
18
48
1
60
0
100
AcDbLine
10
-59
20
-15.875
30
0
11
0
21
-15.875
31
0
39
0
210
0
220
0
230
1
0
LINE
5
91
100
AcDbEntity
8
SK1
62
256
6
ByLayer
370
18
48
1
60
0
100
AcDbLine
10
0
20
15.875
30
0
11
-59
21
15.875
31
0
39
0
210
0
220
0
230
1
0
LINE
5
92
100
AcDbEntity
8
1
62
256
6
ByLayer
370
18
48
1
60
0
100
AcDbLine
10
0
20
15.875
30
0
11
0
21
-15.875
31
0
39
0
210
0
220
0
230
1
0
LINE
5
93
100
AcDbEntity
8
1
62
256
6
ByLayer
370
18
48
1
60
0
100
AcDbLine
10
105.30533
20
12.8985
30
0
11
105.30533
21
12.488929
31
0
39
0
210
0
220
0
230
1
0
LINE
5
94
100
AcDbEntity
8
1
62
256
6
ByLayer
370
18
48
1
60
0
100
AcDbLine
10
105.30533
20
-12.8985
30
0
11
105.30533
21
-1.840543
31
0
39
0
210
0
220
0
230
1
0
LINE
5
95
100
AcDbEntity
8
1
62
256
6
ByLayer
370
18
48
1
60
0
100
AcDbLine
10
10
20
-12.2
30
0
11
10
21
-6.667169
31
0
39
0
210
0
220
0
230
1
0
LINE
5
96
100
AcDbEntity
8
1
62
256
6
ByLayer
370
18
48
1
60
0
100
AcDbLine
10
10
20
12.2
30
0
11
10
21
7.323537
31
0
39
0
210
0
220
0
230
1
0
LINE
5
97
100
AcDbEntity
8
SK1
62
256
6
ByLayer
370
18
48
1
60
0
100
AcDbLine
10
-60
20
-14.875
30
0
11
-60
21
14.875
31
0
39
0
210
0
220
0
230
1
0
LINE
5
98
100
AcDbEntity
8
SK1
62
256
6
ByLayer
370
18
48
1
60
0
100
AcDbLine
10
-51.368099
20
-7.245688
30
0
11
-51.368099
21
7.245688
31
0
39
0
210
0
220
0
230
1
0
LINE
5
99
100
AcDbEntity
8
SK1
62
256
6
ByLayer
370
18
48
1
60
0
100
AcDbLine
10
0
20
15.875
30
0
11
0
21
-15.875
31
0
39
0
210
0
220
0
230
1
0
LINE
5
9A
100
AcDbEntity
8
SK1
62
256
6
ByLayer
370
18
48
1
60
0
100
AcDbLine
10
-59
20
-15.875
30
0
11
-59
21
15.875
31
0
39
0
210
0
220
0
230
1
0
LINE
5
9B
100
AcDbEntity
8
SK1
62
256
6
ByLayer
370
18
48
1
60
0
100
AcDbLine
10
-8.876645
20
-7.245688
30
0
11
-51.368099
21
-7.245688
31
0
39
0
210
0
220
0
230
1
0
LINE
5
9C
100
AcDbEntity
8
SK1
62
256
6
ByLayer
370
18
48
1
60
0
100
AcDbLine
10
-51.368099
20
7.245688
30
0
11
-8.876645
21
7.245688
31
0
39
0
210
0
220
0
230
1
0
LINE
5
9D
100
AcDbEntity
8
SK1
62
256
6
ByLayer
370
18
48
1
60
0
100
AcDbLine
10
-8.876645
20
-7.245688
30
0
11
-8.876645
21
7.245688
31
0
39
0
210
0
220
0
230
1
0
LINE
5
9E
100
AcDbEntity
8
1
62
256
6
ByLayer
370
18
48
1
60
0
100
AcDbLine
10
105.30533
20
12.8985
30
0
11
105.30533
21
-12.8985
31
0
39
0
210
0
220
0
230
1
0
LINE
5
9F
100
AcDbEntity
8
1
62
256
6
ByLayer
370
18
48
1
60
0
100
AcDbLine
10
105.30533
20
12.8985
30
0
11
105.30533
21
-12.8985
31
0
39
0
210
0
220
0
230
1
0
LINE
5
A0
100
AcDbEntity
8
1
62
256
6
ByLayer
370
18
48
1
60
0
100
AcDbLine
10
105.30533
20
12.8985
30
0
11
105.30533
21
-12.8985
31
0
39
0
210
0
220
0
230
1
0
LINE
5
A1
100
AcDbEntity
8
1
62
256
6
ByLayer
370
18
48
1
60
0
100
AcDbLine
10
94.2
20
12.8985
30
0
11
94.2
21
-12.8985
31
0
39
0
210
0
220
0
230
1
0
LINE
5
A2
100
AcDbEntity
8
1
62
256
6
ByLayer
370
18
48
1
60
0
100
AcDbLine
10
94.2
20
12.8985
30
0
11
94.2
21
-12.8985
31
0
39
0
210
0
220
0
230
1
0
LINE
5
A3
100
AcDbEntity
8
1
62
256
6
ByLayer
370
18
48
1
60
0
100
AcDbLine
10
105.30533
20
12.8985
30
0
11
105.30533
21
-12.8985
31
0
39
0
210
0
220
0
230
1
0
LINE
5
A4
100
AcDbEntity
8
1
62
256
6
ByLayer
370
18
48
1
60
0
100
AcDbLine
10
94.2
20
12.8985
30
0
11
94.2
21
-12.8985
31
0
39
0
210
0
220
0
230
1
0
LINE
5
A5
100
AcDbEntity
8
1
62
256
6
ByLayer
370
18
48
1
60
0
100
AcDbLine
10
105.30533
20
12.8985
30
0
11
105.30533
21
-12.8985
31
0
39
0
210
0
220
0
230
1
0
LINE
5
A6
100
AcDbEntity
8
SK2
62
256
6
ByLayer
370
13
48
1
60
0
100
AcDbLine
10
-66.5
20
-15.875
30
0
11
-66.5
21
44.149683
31
0
39
0
210
0
220
0
230
1
0
LINE
5
A8
100
AcDbEntity
8
SK2
62
256
6
ByLayer
370
13
48
1
60
0
100
AcDbLine
10
-61.5875
20
15.875
30
0
11
-68.5
21
15.875
31
0
39
0
210
0
220
0
230
1
0
LINE
5
A9
100
AcDbEntity
8
SK2
62
256
6
ByLayer
370
13
48
1
60
0
100
AcDbLine
10
-61.5875
20
-15.875
30
0
11
-68.5
21
-15.875
31
0
39
0
210
0
220
0
230
1
0
LINE
5
AA
100
AcDbEntity
8
1
62
256
6
ByLayer
370
18
48
1
60
1
100
AcDbLine
10
-66.5
20
15.875
30
0
11
-66.039216
21
12.375002
31
0
39
0
210
0
220
0
230
1
0
LINE
5
AB
100
AcDbEntity
8
1
62
256
6
ByLayer
370
18
48
1
60
1
100
AcDbLine
10
-66.039216
20
12.375002
30
0
11
-66.960784
21
12.374998
31
0
39
0
210
0
220
0
230
1
0
LINE
5
AC
100
AcDbEntity
8
1
62
256
6
ByLayer
370
18
48
1
60
1
100
AcDbLine
10
-66.960784
20
12.374998
30
0
11
-66.5
21
15.875
31
0
39
0
210
0
220
0
230
1
0
LINE
5
AD
100
AcDbEntity
8
1
62
256
6
ByLayer
370
18
48
1
60
1
100
AcDbLine
10
-66.5
20
-15.875
30
0
11
-66.960784
21
-12.375002
31
0
39
0
210
0
220
0
230
1
0
LINE
5
AE
100
AcDbEntity
8
1
62
256
6
ByLayer
370
18
48
1
60
1
100
AcDbLine
10
-66.960784
20
-12.375002
30
0
11
-66.039216
21
-12.374998
31
0
39
0
210
0
220
0
230
1
0
LINE
5
AF
100
AcDbEntity
8
1
62
256
6
ByLayer
370
18
48
1
60
1
100
AcDbLine
10
-66.039216
20
-12.374998
30
0
11
-66.5
21
-15.875
31
0
39
0
210
0
220
0
230
1
0
LINE
5
B0
100
AcDbEntity
8
2
62
256
6
ByLayer
370
13
48
1
60
0
100
AcDbLine
10
117.5
20
-12.8985
30
0
11
117.5
21
41.923069
31
0
39
0
210
0
220
0
230
1
0
LINE
5
B2
100
AcDbEntity
8
2
62
256
6
ByLayer
370
13
48
1
60
0
100
AcDbLine
10
106.89283
20
12.8985
30
0
11
119.5
21
12.8985
31
0
39
0
210
0
220
0
230
1
0
LINE
5
B3
100
AcDbEntity
8
2
62
256
6
ByLayer
370
13
48
1
60
0
100
AcDbLine
10
106.89283
20
-12.8985
30
0
11
119.5
21
-12.8985
31
0
39
0
210
0
220
0
230
1
0
LINE
5
B4
100
AcDbEntity
8
1
62
256
6
ByLayer
370
18
48
1
60
1
100
AcDbLine
10
117.5
20
12.8985
30
0
11
117.960784
21
9.398502
31
0
39
0
210
0
220
0
230
1
0
LINE
5
B5
100
AcDbEntity
8
1
62
256
6
ByLayer
370
18
48
1
60
1
100
AcDbLine
10
117.960784
20
9.398502
30
0
11
117.039216
21
9.398498
31
0
39
0
210
0
220
0
230
1
0
LINE
5
B6
100
AcDbEntity
8
1
62
256
6
ByLayer
370
18
48
1
60
1
100
AcDbLine
10
117.039216
20
9.398498
30
0
11
117.5
21
12.8985
31
0
39
0
210
0
220
0
230
1
0
LINE
5
B7
100
AcDbEntity
8
1
62
256
6
ByLayer
370
18
48
1
60
1
100
AcDbLine
10
117.5
20
-12.8985
30
0
11
117.039216
21
-9.398502
31
0
39
0
210
0
220
0
230
1
0
LINE
5
B8
100
AcDbEntity
8
1
62
256
6
ByLayer
370
18
48
1
60
1
100
AcDbLine
10
117.039216
20
-9.398502
30
0
11
117.960784
21
-9.398498
31
0
39
0
210
0
220
0
230
1
0
LINE
5
B9
100
AcDbEntity
8
1
62
256
6
ByLayer
370
18
48
1
60
1
100
AcDbLine
10
117.960784
20
-9.398498
30
0
11
117.5
21
-12.8985
31
0
39
0
210
0
220
0
230
1
0
LINE
5
BA
100
AcDbEntity
8
SK2
62
256
6
ByLayer
370
13
48
1
60
0
100
AcDbLine
10
110.542957
20
-1.491762
30
0
11
117.182423
21
-19.733545
31
0
39
0
210
0
220
0
230
1
0
LINE
5
BB
100
AcDbEntity
8
SK2
62
256
6
ByLayer
370
13
48
1
60
0
100
AcDbLine
10
110.542957
20
1.491762
30
0
11
117.182423
21
19.733545
31
0
39
0
210
0
220
0
230
1
0
LINE
5
BC
100
AcDbEntity
8
1
62
256
6
ByLayer
370
18
48
1
60
1
100
AcDbLine
10
116.498383
20
-17.85416
30
0
11
119.551575
21
-16.082064
31
0
39
0
210
0
220
0
230
1
0
LINE
5
BD
100
AcDbEntity
8
1
62
256
6
ByLayer
370
18
48
1
60
1
100
AcDbLine
10
119.551575
20
-16.082064
30
0
11
119.906196
21
-16.93267
31
0
39
0
210
0
220
0
230
1
0
LINE
5
BE
100
AcDbEntity
8
1
62
256
6
ByLayer
370
18
48
1
60
1
100
AcDbLine
10
119.906196
20
-16.93267
30
0
11
116.498383
21
-17.85416
31
0
39
0
210
0
220
0
230
1
0
LINE
5
BF
100
AcDbEntity
8
1
62
256
6
ByLayer
370
18
48
1
60
1
100
AcDbLine
10
116.498383
20
17.85416
30
0
11
119.906193
21
16.932671
31
0
39
0
210
0
220
0
230
1
0
LINE
5
C0
100
AcDbEntity
8
1
62
256
6
ByLayer
370
18
48
1
60
1
100
AcDbLine
10
119.906193
20
16.932671
30
0
11
119.551579
21
16.082063
31
0
39
0
210
0
220
0
230
1
0
LINE
5
C1
100
AcDbEntity
8
1
62
256
6
ByLayer
370
18
48
1
60
1
100
AcDbLine
10
119.551579
20
16.082063
30
0
11
116.498383
21
17.85416
31
0
39
0
210
0
220
0
230
1
0
LINE
5
145
100
AcDbEntity
8
1
62
256
6
ByLayer
370
18
48
1
60
1
100
AcDbLine
10
-66.5
20
15.875
30
0
11
-66.039216
21
12.375002
31
0
39
0
210
0
220
0
230
1
0
LINE
5
146
100
AcDbEntity
8
1
62
256
6
ByLayer
370
18
48
1
60
1
100
AcDbLine
10
-66.039216
20
12.375002
30
0
11
-66.960784
21
12.374998
31
0
39
0
210
0
220
0
230
1
0
LINE
5
147
100
AcDbEntity
8
1
62
256
6
ByLayer
370
18
48
1
60
1
100
AcDbLine
10
-66.960784
20
12.374998
30
0
11
-66.5
21
15.875
31
0
39
0
210
0
220
0
230
1
0
LINE
5
149
100
AcDbEntity
8
1
62
256
6
ByLayer
370
18
48
1
60
1
100
AcDbLine
10
-66.5
20
-15.875
30
0
11
-66.960784
21
-12.375002
31
0
39
0
210
0
220
0
230
1
0
LINE
5
14A
100
AcDbEntity
8
1
62
256
6
ByLayer
370
18
48
1
60
1
100
AcDbLine
10
-66.960784
20
-12.375002
30
0
11
-66.039216
21
-12.374998
31
0
39
0
210
0
220
0
230
1
0
LINE
5
14B
100
AcDbEntity
8
1
62
256
6
ByLayer
370
18
48
1
60
1
100
AcDbLine
10
-66.039216
20
-12.374998
30
0
11
-66.5
21
-15.875
31
0
39
0
210
0
220
0
230
1
0
LINE
5
14F
100
AcDbEntity
8
1
62
256
6
ByLayer
370
18
48
1
60
1
100
AcDbLine
10
117.5
20
12.8985
30
0
11
117.960784
21
9.398502
31
0
39
0
210
0
220
0
230
1
0
LINE
5
150
100
AcDbEntity
8
1
62
256
6
ByLayer
370
18
48
1
60
1
100
AcDbLine
10
117.960784
20
9.398502
30
0
11
117.039216
21
9.398498
31
0
39
0
210
0
220
0
230
1
0
LINE
5
151
100
AcDbEntity
8
1
62
256
6
ByLayer
370
18
48
1
60
1
100
AcDbLine
10
117.039216
20
9.398498
30
0
11
117.5
21
12.8985
31
0
39
0
210
0
220
0
230
1
0
LINE
5
153
100
AcDbEntity
8
1
62
256
6
ByLayer
370
18
48
1
60
1
100
AcDbLine
10
117.5
20
-12.8985
30
0
11
117.039216
21
-9.398502
31
0
39
0
210
0
220
0
230
1
0
LINE
5
154
100
AcDbEntity
8
1
62
256
6
ByLayer
370
18
48
1
60
1
100
AcDbLine
10
117.039216
20
-9.398502
30
0
11
117.960784
21
-9.398498
31
0
39
0
210
0
220
0
230
1
0
LINE
5
155
100
AcDbEntity
8
1
62
256
6
ByLayer
370
18
48
1
60
1
100
AcDbLine
10
117.960784
20
-9.398498
30
0
11
117.5
21
-12.8985
31
0
39
0
210
0
220
0
230
1
0
LINE
5
158
100
AcDbEntity
8
1
62
256
6
ByLayer
370
18
48
1
60
1
100
AcDbLine
10
116.498383
20
-17.85416
30
0
11
119.551575
21
-16.082064
31
0
39
0
210
0
220
0
230
1
0
LINE
5
159
100
AcDbEntity
8
1
62
256
6
ByLayer
370
18
48
1
60
1
100
AcDbLine
10
119.551575
20
-16.082064
30
0
11
119.906196
21
-16.93267
31
0
39
0
210
0
220
0
230
1
0
LINE
5
15A
100
AcDbEntity
8
1
62
256
6
ByLayer
370
18
48
1
60
1
100
AcDbLine
10
119.906196
20
-16.93267
30
0
11
116.498383
21
-17.85416
31
0
39
0
210
0
220
0
230
1
0
LINE
5
15C
100
AcDbEntity
8
1
62
256
6
ByLayer
370
18
48
1
60
1
100
AcDbLine
10
116.498383
20
17.85416
30
0
11
119.906193
21
16.932671
31
0
39
0
210
0
220
0
230
1
0
LINE
5
15D
100
AcDbEntity
8
1
62
256
6
ByLayer
370
18
48
1
60
1
100
AcDbLine
10
119.906193
20
16.932671
30
0
11
119.551579
21
16.082063
31
0
39
0
210
0
220
0
230
1
0
LINE
5
15E
100
AcDbEntity
8
1
62
256
6
ByLayer
370
18
48
1
60
1
100
AcDbLine
10
119.551579
20
16.082063
30
0
11
116.498383
21
17.85416
31
0
39
0
210
0
220
0
230
1
0
MTEXT
5
141
100
AcDbEntity
8
SK2
62
256
6
ByLayer
370
18
48
1
60
0
100
AcDbMText
10
-67.841114
20
27.533438
30
0
210
0
220
0
230
1
1
%%c
40
3
41
0
44
1.084337
50
90
71
7
72
5
7
iso_b_vert
0
MTEXT
5
144
100
AcDbEntity
8
SK2
62
256
6
ByLayer
370
18
48
1
60
0
100
AcDbMText
10
-67.841114
20
33.51
30
0
210
0
220
0
230
1
1
\W0.7022;31.750
40
3
41
0
44
1.084337
50
90
71
7
72
5
7
iso_b_vert
0
MTEXT
5
14D
100
AcDbEntity
8
2
62
256
6
ByLayer
370
18
48
1
60
0
100
AcDbMText
10
116.158886
20
24.556938
30
0
210
0
220
0
230
1
1
%%c
40
3
41
0
44
1.084337
50
90
71
7
72
5
7
iso_b_vert
0
MTEXT
5
14E
100
AcDbEntity
8
2
62
256
6
ByLayer
370
18
48
1
60
0
100
AcDbMText
10
116.158886
20
30.5335
30
0
210
0
220
0
230
1
1
\W0.7513;25.797
40
3
41
0
44
1.084337
50
90
71
7
72
5
7
iso_b_vert
0
MTEXT
5
157
100
AcDbEntity
8
SK2
62
256
6
ByLayer
370
18
48
1
60
0
100
AcDbMText
10
129.909114
20
3.734657
30
0
210
0
220
0
230
1
1
\W0.7071;140%%d
40
3
41
0
44
1.084337
50
270
71
7
72
5
7
iso_b_vert
0
MTEXT
5
160
100
AcDbEntity
8
SK6
62
256
6
ByLayer
370
18
48
1
60
0
100
AcDbMText
10
-3.258054
20
-67.114886
30
0
210
0
220
0
230
1
1
\W0.7441;H8531.1/64
40
3
41
0
44
1.084337
50
0
71
7
72
5
7
iso_b_vert
0
HATCH
5
148
100
AcDbEntity
8
SK2
62
256
6
ByLayer
370
13
48
1
60
0
100
AcDbHatch
10
0
20
0
30
0
210
0
220
0
230
1
2
ANSI31
70
0
71
0
91
1
92
5
93
3
72
1
10
-66.5
20
15.875
11
-66.0392162584472
21
12.3750016925532
72
1
10
-66.0392162584472
20
12.3750016925532
11
-66.9607837415528
21
12.3749983074468
72
1
10
-66.9607837415528
20
12.3749983074468
11
-66.5
21
15.875
97
0
75
0
76
1
52
0
41
0.0062
77
0
78
1
53
45
43
0
44
0
45
-0.0139193969876572
46
0.0139193969876572
79
0
47
0
98
1
10
0
20
0
0
HATCH
5
14C
100
AcDbEntity
8
SK2
62
256
6
ByLayer
370
13
48
1
60
0
100
AcDbHatch
10
0
20
0
30
0
210
0
220
0
230
1
2
ANSI31
70
0
71
0
91
1
92
5
93
3
72
1
10
-66.5
20
-15.875
11
-66.9607837415528
21
-12.3750016925532
72
1
10
-66.9607837415528
20
-12.3750016925532
11
-66.0392162584472
21
-12.3749983074468
72
1
10
-66.0392162584472
20
-12.3749983074468
11
-66.5
21
-15.875
97
0
75
0
76
1
52
0
41
0.0062
77
0
78
1
53
45
43
0
44
0
45
-0.0139193969876572
46
0.0139193969876572
79
0
47
0
98
1
10
0
20
0
0
HATCH
5
152
100
AcDbEntity
8
2
62
256
6
ByLayer
370
13
48
1
60
0
100
AcDbHatch
10
0
20
0
30
0
210
0
220
0
230
1
2
ANSI31
70
0
71
0
91
1
92
5
93
3
72
1
10
117.5
20
12.8985
11
117.960783741553
21
9.3985016925532
72
1
10
117.960783741553
20
9.3985016925532
11
117.039216258447
21
9.39849830744683
72
1
10
117.039216258447
20
9.39849830744683
11
117.5
21
12.8985
97
0
75
0
76
1
52
0
41
0.0062
77
0
78
1
53
45
43
0
44
0
45
-0.0139193969876572
46
0.0139193969876572
79
0
47
0
98
1
10
0
20
0
0
HATCH
5
156
100
AcDbEntity
8
2
62
256
6
ByLayer
370
13
48
1
60
0
100
AcDbHatch
10
0
20
0
30
0
210
0
220
0
230
1
2
ANSI31
70
0
71
0
91
1
92
5
93
3
72
1
10
117.5
20
-12.8985
11
117.039216258447
21
-9.39850169255317
72
1
10
117.039216258447
20
-9.39850169255317
11
117.960783741553
21
-9.3984983074468
72
1
10
117.960783741553
20
-9.3984983074468
11
117.5
21
-12.8985
97
0
75
0
76
1
52
0
41
0.0062
77
0
78
1
53
45
43
0
44
0
45
-0.0139193969876572
46
0.0139193969876572
79
0
47
0
98
1
10
0
20
0
0
HATCH
5
15B
100
AcDbEntity
8
SK2
62
256
6
ByLayer
370
13
48
1
60
0
100
AcDbHatch
10
0
20
0
30
0
210
0
220
0
230
1
2
ANSI31
70
0
71
0
91
1
92
5
93
3
72
1
10
116.498382723188
20
-17.8541597949322
11
119.551575425693
21
-16.0820638240608
72
1
10
119.551575425693
20
-16.0820638240608
11
119.906195833975
21
-16.9326700737196
72
1
10
119.906195833975
20
-16.9326700737196
11
116.498382723188
21
-17.8541597949322
97
0
75
0
76
1
52
0
41
0.0062
77
0
78
1
53
45
43
0
44
0
45
-0.0139193969876572
46
0.0139193969876572
79
0
47
0
98
1
10
0
20
0
0
HATCH
5
15F
100
AcDbEntity
8
SK2
62
256
6
ByLayer
370
13
48
1
60
0
100
AcDbHatch
10
0
20
0
30
0
210
0
220
0
230
1
2
ANSI31
70
0
71
0
91
1
92
5
93
3
72
1
10
116.498382723188
20
17.8541597949322
11
119.906192709519
21
16.9326713763016
72
1
10
119.906192709519
20
16.9326713763016
11
119.551578550149
21
16.0820625214787
72
1
10
119.551578550149
20
16.0820625214787
11
116.498382723188
21
17.8541597949322
97
0
75
0
76
1
52
0
41
0.0062
77
0
78
1
53
45
43
0
44
0
45
-0.0139193969876572
46
0.0139193969876572
79
0
47
0
98
1
10
0
20
0
0
DIMENSION
5
163
100
AcDbEntity
8
SK2
62
256
6
ByLayer
370
18
48
1
60
0
100
AcDbDimension
2
_U0
10
110
20
-45.952229
30
0
11
25
21
-45.952229
31
0
70
32
71
1
72
1
41
1
210
0
220
0
230
1
3
Standard
100
AcDbAlignedDimension
13
-60
23
-15.875
33
0
14
110
24
0
34
0
50
0
100
AcDbRotatedDimension
1001
ACAD
1000
DSTYLE
1002
{
1070
   371
1070
    13
1070
   372
1070
    13
1070
     3
1000

1070
   170
1070
     0
1070
   144
1040
1.0
1070
   277
1070
     2
1070
   284
1070
     8
1070
   278
1070
    46
1070
   146
1040
1.166667
1070
   345
1005
16
1070
   347
1005
16
1070
   346
1005
16
1070
   344
1005
0
1070
   343
1005
0
1070
   172
1070
     1
1070
    76
1070
     0
1070
    75
1070
     0
1070
   282
1070
     0
1070
   281
1070
     0
1070
    71
1070
     0
1070
    74
1070
     0
1070
   279
1070
     0
1070
   173
1070
     1
1070
   340
1005
142
1070
   271
1070
     2
1070
   272
1070
     3
1070
    77
1070
     1
1070
    73
1070
     1
1070
   171
1070
     3
1070
   274
1070
     4
1070
   177
1070
     2
1070
   176
1070
     2
1070
   178
1070
     2
1070
    78
1070
     8
1070
    48
1040
-0.1
1070
    41
1040
3.5
1070
   147
1040
1.5
1070
    42
1040
1.5875
1070
    44
1040
2.0
1070
   140
1040
3.0
1002
}
1001
ACAD_DSTYLE_DIM_LINETYPE
1070
   380
1005
16
1001
ACAD_DSTYLE_DIM_EXT1_LINETYPE
1070
   381
1005
16
1001
ACAD_DSTYLE_DIM_EXT2_LINETYPE
1070
   382
1005
16
0
DIMENSION
5
17C
100
AcDbEntity
8
SK2
62
256
6
ByLayer
370
18
48
1
60
0
100
AcDbDimension
2
_U1
10
3
20
-35.952229
30
0
11
56.5
21
-35.952229
31
0
70
32
71
1
72
1
41
1
210
0
220
0
230
1
3
Standard
100
AcDbAlignedDimension
13
110
23
0
33
0
14
3
24
-12.8985
34
0
50
0
100
AcDbRotatedDimension
1001
ACAD
1000
DSTYLE
1002
{
1070
   371
1070
    13
1070
   372
1070
    13
1070
     3
1000

1070
   170
1070
     0
1070
   144
1040
1.0
1070
   277
1070
     2
1070
   284
1070
     8
1070
   278
1070
    46
1070
   146
1040
1.166667
1070
   345
1005
16
1070
   347
1005
16
1070
   346
1005
16
1070
   344
1005
0
1070
   343
1005
0
1070
   172
1070
     1
1070
    76
1070
     0
1070
    75
1070
     0
1070
   282
1070
     0
1070
   281
1070
     0
1070
    71
1070
     0
1070
    74
1070
     0
1070
   279
1070
     0
1070
   173
1070
     1
1070
   340
1005
142
1070
   271
1070
     2
1070
   272
1070
     3
1070
    77
1070
     1
1070
    73
1070
     1
1070
   171
1070
     3
1070
   274
1070
     4
1070
   177
1070
     2
1070
   176
1070
     2
1070
   178
1070
     2
1070
    78
1070
     8
1070
    48
1040
-0.1
1070
    41
1040
3.5
1070
   147
1040
1.5
1070
    42
1040
1.5875
1070
    44
1040
2.0
1070
   140
1040
3.0
1002
}
1001
ACAD_DSTYLE_DIM_LINETYPE
1070
   380
1005
16
1001
ACAD_DSTYLE_DIM_EXT1_LINETYPE
1070
   381
1005
16
1001
ACAD_DSTYLE_DIM_EXT2_LINETYPE
1070
   382
1005
16
0
DIMENSION
5
194
100
AcDbEntity
8
SK2
62
256
6
ByLayer
370
18
48
1
60
0
100
AcDbDimension
2
_U2
10
0
20
-35.952229
30
0
11
-30
21
-35.952229
31
0
70
32
71
1
72
1
41
1
210
0
220
0
230
1
3
Standard
100
AcDbAlignedDimension
13
-60
23
-15.875
33
0
14
0
24
-15.875
34
0
50
0
100
AcDbRotatedDimension
1001
ACAD
1000
DSTYLE
1002
{
1070
   371
1070
    13
1070
   372
1070
    13
1070
     3
1000

1070
   170
1070
     0
1070
   144
1040
1.0
1070
   277
1070
     2
1070
   284
1070
     8
1070
   278
1070
    46
1070
   146
1040
1.166667
1070
   345
1005
16
1070
   347
1005
16
1070
   346
1005
16
1070
   344
1005
0
1070
   343
1005
0
1070
   172
1070
     1
1070
    76
1070
     0
1070
    75
1070
     0
1070
   282
1070
     0
1070
   281
1070
     0
1070
    71
1070
     0
1070
    74
1070
     0
1070
   279
1070
     0
1070
   173
1070
     1
1070
   340
1005
142
1070
   271
1070
     2
1070
   272
1070
     3
1070
    77
1070
     1
1070
    73
1070
     1
1070
   171
1070
     3
1070
   274
1070
     4
1070
   177
1070
     2
1070
   176
1070
     2
1070
   178
1070
     2
1070
    78
1070
     8
1070
    48
1040
-0.1
1070
    41
1040
3.5
1070
   147
1040
1.5
1070
    42
1040
1.5875
1070
    44
1040
2.0
1070
   140
1040
3.0
1002
}
1001
ACAD_DSTYLE_DIM_LINETYPE
1070
   380
1005
16
1001
ACAD_DSTYLE_DIM_EXT1_LINETYPE
1070
   381
1005
16
1001
ACAD_DSTYLE_DIM_EXT2_LINETYPE
1070
   382
1005
16
0
DIMENSION
5
1AC
100
AcDbEntity
8
SK2
62
256
6
ByLayer
370
18
48
1
60
0
100
AcDbDimension
2
_U3
10
22
20
32.952229
30
0
11
66
21
32.952229
31
0
70
32
71
1
72
1
41
1
210
0
220
0
230
1
3
Standard
100
AcDbAlignedDimension
13
110
23
0
33
0
14
22
24
12.8985
34
0
50
0
100
AcDbRotatedDimension
1001
ACAD
1000
DSTYLE
1002
{
1070
   371
1070
    13
1070
   372
1070
    13
1070
     3
1000

1070
   170
1070
     0
1070
   144
1040
1.0
1070
   277
1070
     2
1070
   284
1070
     8
1070
   278
1070
    46
1070
   146
1040
1.166667
1070
   345
1005
16
1070
   347
1005
16
1070
   346
1005
16
1070
   344
1005
0
1070
   343
1005
0
1070
   172
1070
     1
1070
    76
1070
     0
1070
    75
1070
     0
1070
   282
1070
     0
1070
   281
1070
     0
1070
    71
1070
     0
1070
    74
1070
     0
1070
   279
1070
     0
1070
   173
1070
     1
1070
   340
1005
142
1070
   271
1070
     2
1070
   272
1070
     3
1070
    77
1070
     1
1070
    73
1070
     1
1070
   171
1070
     3
1070
   274
1070
     4
1070
   177
1070
     2
1070
   176
1070
     2
1070
   178
1070
     2
1070
    78
1070
     8
1070
    48
1040
-0.1
1070
    41
1040
3.5
1070
   147
1040
1.5
1070
    42
1040
1.5875
1070
    44
1040
2.0
1070
   140
1040
3.0
1002
}
1001
ACAD_DSTYLE_DIM_LINETYPE
1070
   380
1005
16
1001
ACAD_DSTYLE_DIM_EXT1_LINETYPE
1070
   381
1005
16
1001
ACAD_DSTYLE_DIM_EXT2_LINETYPE
1070
   382
1005
16
0
ENDSEC
0
SECTION
2
OBJECTS
0
DICTIONARY
5
234
330
0
100
AcDbDictionary
280
0
281
1
3
ACAD_GROUP
350
235
3
ACAD_MLINESTYLE
350
236
0
DICTIONARY
5
235
330
0
100
AcDbDictionary
280
0
281
1
0
DICTIONARY
5
236
330
0
100
AcDbDictionary
280
0
281
1
3
Standard
350
18
0
MLINESTYLE
5
18
330
236
100
AcDbMlineStyle
2
Standard
70
0
3

62
256
51
90
52
90
71
2
49
-0.5
62
256
6
ByLayer
49
0.5
62
256
6
ByLayer
0
RASTERVARIABLES
5
222
330

100
AcDbRasterVariables
90
0
70
1
71
1
72
1
0
ENDSEC
0
EOF
