0
SECTION
2
HEADER
9
$ACADVER
1
AC1015
9
$DWGCODEPAGE
3
ANSI_1252
9
$HANDSEED
5
230
9
$ANGBASE
50
0
9
$ANGDIR
70
0
9
$ATTMODE
70
1
9
$AUNITS
70
0
9
$AUPREC
70
0
9
$CECOLOR
62
256
9
$CELTSCALE
40
1
9
$CELTYPE
6
ByLayer
9
$CELWEIGHT
370
18
9
$CLAYER
8
0
9
$CMLJUST
70
0
9
$CMLSCALE
40
1
9
$CMLSTYLE
2
Standard
9
$DIMSTYLE
2
Standard
9
$TEXTSIZE
40
0.2
9
$TEXTSTYLE
7
Standard
9
$LUNITS
70
2
9
$LUPREC
70
4
9
$EXTNAMES
290
1
9
$INSUNITS
70
4
9
$LTSCALE
40
1
9
$LWDISPLAY
290
1
9
$PDMODE
70
0
9
$PDSIZE
40
0
9
$PLINEGEN
70
0
0
ENDSEC
0
SECTION
2
CLASSES
0
CLASS
1
RASTERVARIABLES
2
AcDbRasterVariables
3
ISM
90
0
280
0
281
0
0
ENDSEC
0
SECTION
2
TABLES
0
TABLE
2
VPORT
5
226
100
AcDbSymbolTable
0
VPORT
5
1
100
AcDbSymbolTableRecord
100
AcDbViewportTableRecord
2
*Active
70
0
10
0
20
0
11
1
21
1
12
-1
22
1
13
0
23
0
14
0.5
24
0.5
15
10
25
10
16
0
26
0
36
1
17
0
27
0
37
0
0
ENDTAB
0
TABLE
2
LTYPE
5
227
100
AcDbSymbolTable
0
LTYPE
5
14
100
AcDbSymbolTableRecord
100
AcDbLinetypeTableRecord
70
0
2
ByBlock
3

72
65
73
0
40
0
0
LTYPE
5
15
100
AcDbSymbolTableRecord
100
AcDbLinetypeTableRecord
70
0
2
ByLayer
3

72
65
73
0
40
0
0
LTYPE
5
16
100
AcDbSymbolTableRecord
100
AcDbLinetypeTableRecord
70
0
2
Continuous
3
Solid line
72
65
73
0
40
0
0
LTYPE
5
6E
100
AcDbSymbolTableRecord
100
AcDbLinetypeTableRecord
70
0
2
CENTER
3
____ _ ____ _ ____ _ ____
72
65
73
4
40
47.5
49
22
74
0
49
-8.5
74
0
49
8.5
74
0
49
-8.5
74
0
0
LTYPE
5
6F
100
AcDbSymbolTableRecord
100
AcDbLinetypeTableRecord
70
0
2
DASHED
3
__ __ __ __ __ __ __ __ __
72
65
73
2
40
25.72
49
12.86
74
0
49
-12.86
74
0
0
ENDTAB
0
TABLE
2
LAYER
5
228
100
AcDbSymbolTable
0
LAYER
5
10
100
AcDbSymbolTableRecord
100
AcDbLayerTableRecord
2
0
70
0
62
7
6
Continuous
290
1
370
-3
390
0
0
LAYER
5
71
100
AcDbSymbolTableRecord
100
AcDbLayerTableRecord
2
81
70
0
62
-3
6
Continuous
290
1
370
-3
390
0
0
LAYER
5
73
100
AcDbSymbolTableRecord
100
AcDbLayerTableRecord
2
80
70
0
62
-6
6
Continuous
290
1
370
-3
390
0
0
LAYER
5
75
100
AcDbSymbolTableRecord
100
AcDbLayerTableRecord
2
1
70
0
62
4
6
Continuous
290
1
370
-3
390
0
0
LAYER
5
7E
100
AcDbSymbolTableRecord
100
AcDbLayerTableRecord
2
4
70
0
62
-2
6
CENTER
290
1
370
-3
390
0
0
LAYER
5
B0
100
AcDbSymbolTableRecord
100
AcDbLayerTableRecord
2
2
70
0
62
7
6
Continuous
290
1
370
-3
390
0
0
LAYER
5
155
100
AcDbSymbolTableRecord
100
AcDbLayerTableRecord
2
Defpoints
70
0
62
7
6
Continuous
290
0
370
-3
390
0
0
LAYER
5
212
100
AcDbSymbolTableRecord
100
AcDbLayerTableRecord
2
SK4
70
0
62
2
6
CENTER
290
1
370
-3
390
0
0
LAYER
5
213
100
AcDbSymbolTableRecord
100
AcDbLayerTableRecord
2
SK1
70
0
62
4
6
Continuous
290
1
370
-3
390
0
0
LAYER
5
214
100
AcDbSymbolTableRecord
100
AcDbLayerTableRecord
2
SK2
70
0
62
7
6
Continuous
290
1
370
-3
390
0
0
LAYER
5
215
100
AcDbSymbolTableRecord
100
AcDbLayerTableRecord
2
SK6
70
0
62
5
6
Continuous
290
1
370
-3
390
0
0
ENDTAB
0
TABLE
2
STYLE
5
229
100
AcDbSymbolTable
0
STYLE
5
11
100
AcDbSymbolTableRecord
100
AcDbTextStyleTableRecord
2
Standard
3
txt
70
0
71
0
40
0
41
1
42
0
50
0
0
STYLE
5
131
100
AcDbSymbolTableRecord
100
AcDbTextStyleTableRecord
2
iso_b_vert
3
simplex.shx
70
0
71
0
40
0
41
1
42
0
50
0
0
STYLE
5
132
100
AcDbSymbolTableRecord
100
AcDbTextStyleTableRecord
2
DWGDirectTextStyle
3
simplex
70
0
71
0
40
0
41
1
42
0
50
0
0
ENDTAB
0
TABLE
2
DIMSTYLE
5
22a
100
AcDbSymbolTable
100
AcDbDimStyleTable
0
DIMSTYLE
105
27
100
AcDbSymbolTableRecord
100
AcDbDimStyleTableRecord
2
Standard
70
0
3
<>
41
0.18
42
0.0625
44
0.18
140
0.18
147
0.09
73
0
74
0
77
1
271
2
275
0
278
52
280
0
340
11
0
ENDTAB
0
TABLE
2
VIEW
5
22b
100
AcDbSymbolTable
0
ENDTAB
0
TABLE
2
UCS
5
22c
100
AcDbSymbolTable
0
ENDTAB
0
TABLE
2
APPID
5
22d
100
AcDbSymbolTable
0
APPID
5
12
100
AcDbSymbolTableRecord
100
AcDbRegAppTableRecord
2
ACAD
70
0
0
APPID
5
151
100
AcDbSymbolTableRecord
100
AcDbRegAppTableRecord
2
ACAD_DSTYLE_DIMBREAK
70
0
0
APPID
5
1D1
100
AcDbSymbolTableRecord
100
AcDbRegAppTableRecord
2
ACAD_DSTYLE_DIM_LINETYPE
70
0
0
APPID
5
1D2
100
AcDbSymbolTableRecord
100
AcDbRegAppTableRecord
2
ACAD_DSTYLE_DIM_EXT1_LINETYPE
70
0
0
APPID
5
1D3
100
AcDbSymbolTableRecord
100
AcDbRegAppTableRecord
2
ACAD_DSTYLE_DIM_EXT2_LINETYPE
70
0
0
APPID
5
20E
100
AcDbSymbolTableRecord
100
AcDbRegAppTableRecord
2
ACAD_MLEADERVER
70
0
0
ENDTAB
0
TABLE
2
BLOCK_RECORD
5
22e
100
AcDbSymbolTable
0
BLOCK_RECORD
5
1F
100
AcDbSymbolTableRecord
100
AcDbBlockTableRecord
2
*Model_Space
340
0
70
0
0
BLOCK_RECORD
5
1B
100
AcDbSymbolTableRecord
100
AcDbBlockTableRecord
2
*Paper_Space
340
0
70
0
0
BLOCK_RECORD
5
23
100
AcDbSymbolTableRecord
100
AcDbBlockTableRecord
2
*Paper_Space0
340
0
70
0
0
BLOCK_RECORD
5
156
100
AcDbSymbolTableRecord
100
AcDbBlockTableRecord
2
*D1
340
0
70
0
0
BLOCK_RECORD
5
162
100
AcDbSymbolTableRecord
100
AcDbBlockTableRecord
2
_U0
340
0
70
0
0
BLOCK_RECORD
5
16E
100
AcDbSymbolTableRecord
100
AcDbBlockTableRecord
2
*D3
340
0
70
0
0
BLOCK_RECORD
5
17A
100
AcDbSymbolTableRecord
100
AcDbBlockTableRecord
2
_U1
340
0
70
0
0
BLOCK_RECORD
5
186
100
AcDbSymbolTableRecord
100
AcDbBlockTableRecord
2
*D5
340
0
70
0
0
BLOCK_RECORD
5
192
100
AcDbSymbolTableRecord
100
AcDbBlockTableRecord
2
_U2
340
0
70
0
0
BLOCK_RECORD
5
19E
100
AcDbSymbolTableRecord
100
AcDbBlockTableRecord
2
*D7
340
0
70
0
0
BLOCK_RECORD
5
1AA
100
AcDbSymbolTableRecord
100
AcDbBlockTableRecord
2
_U3
340
0
70
0
0
ENDTAB
0
ENDSEC
0
SECTION
2
BLOCKS
0
BLOCK
5
20
100
AcDbEntity
8
0
100
AcDbBlockBegin
2
*Model_Space
70
0
10
0
20
0
30
0
3
*Model_Space
0
ENDBLK
5
21
100
AcDbEntity
8
0
100
AcDbBlockEnd
0
BLOCK
5
1C
100
AcDbEntity
8
0
100
AcDbBlockBegin
2
*Paper_Space
70
0
10
0
20
0
30
0
3
*Paper_Space
0
ENDBLK
5
1D
100
AcDbEntity
8
0
100
AcDbBlockEnd
0
BLOCK
5
24
100
AcDbEntity
8
0
100
AcDbBlockBegin
2
*Paper_Space0
70
0
10
0
20
0
30
0
3
*Paper_Space0
0
ENDBLK
5
25
100
AcDbEntity
8
0
100
AcDbBlockEnd
0
BLOCK
5
157
100
AcDbEntity
8
0
100
AcDbBlockBegin
2
*D1
70
1
10
0
20
0
30
0
3
*D1
0
LINE
5
159
100
AcDbEntity
8
0
62
256
6
ByLayer
370
-2
48
1
60
0
100
AcDbLine
10
-56
20
-14.0875
30
0
11
-56
21
-48.190499
31
0
39
0
210
0
220
0
230
1
0
LINE
5
15A
100
AcDbEntity
8
0
62
256
6
ByLayer
370
-2
48
1
60
0
100
AcDbLine
10
100.5
20
-1.5875
30
0
11
100.5
21
-48.190499
31
0
39
0
210
0
220
0
230
1
0
LINE
5
15B
100
AcDbEntity
8
0
62
256
6
ByLayer
370
-2
48
1
60
0
100
AcDbLine
10
-52.5
20
-46.190499
30
0
11
97
21
-46.190499
31
0
39
0
210
0
220
0
230
1
0
SOLID
5
15C
100
AcDbEntity
8
0
62
256
6
ByLayer
370
-1
48
1
60
0
100
AcDbTrace
10
-52.5
20
-45.607166
30
0
11
-52.5
21
-46.773833
31
0
12
-56
22
-46.190499
32
0
13
-56
23
-46.190499
33
0
39
0
210
0
220
0
230
1
0
SOLID
5
15D
100
AcDbEntity
8
0
62
256
6
ByLayer
370
-1
48
1
60
0
100
AcDbTrace
10
97
20
-46.773833
30
0
11
97
21
-45.607166
31
0
12
100.5
22
-46.190499
32
0
13
100.5
23
-46.190499
33
0
39
0
210
0
220
0
230
1
0
MTEXT
5
15E
100
AcDbEntity
8
0
62
256
6
ByLayer
370
18
48
1
60
0
100
AcDbMText
10
22.25
20
-40.190499
30
0
210
0
220
0
230
1
1
\A1;156.5
40
3
41
0
44
1
50
0
71
5
72
5
7
iso_b_vert
0
POINT
5
15F
100
AcDbEntity
8
Defpoints
62
0
6
ByLayer
370
-1
48
1
60
0
100
AcDbPoint
10
-56
20
-12.5
30
0
39
0
210
0
220
0
230
1
50
360
0
POINT
5
160
100
AcDbEntity
8
Defpoints
62
0
6
ByLayer
370
-1
48
1
60
0
100
AcDbPoint
10
100.5
20
0
30
0
39
0
210
0
220
0
230
1
50
360
0
POINT
5
161
100
AcDbEntity
8
Defpoints
62
0
6
ByLayer
370
-1
48
1
60
0
100
AcDbPoint
10
100.5
20
-46.190499
30
0
39
0
210
0
220
0
230
1
50
360
0
ENDBLK
5
158
100
AcDbEntity
8
0
100
AcDbBlockEnd
0
BLOCK
5
169
100
AcDbEntity
8
0
100
AcDbBlockBegin
2
_U0
70
0
10
0
20
0
30
0
3
_U0
0
MTEXT
5
163
100
AcDbEntity
8
SK2
62
256
6
ByLayer
370
18
48
1
60
0
100
AcDbMText
10
17.021658
20
-45.305385
30
0
210
0
220
0
230
1
1
\W0.7022;156.50
40
3
41
0
44
1.084337
50
0
71
7
72
5
7
iso_b_vert
0
LINE
5
164
100
AcDbEntity
8
SK2
62
256
6
ByLayer
370
13
48
1
60
0
100
AcDbLine
10
-56
20
-14.0875
30
0
11
-56
21
-48.190499
31
0
39
0
210
0
220
0
230
1
0
LINE
5
165
100
AcDbEntity
8
SK2
62
256
6
ByLayer
370
13
48
1
60
0
100
AcDbLine
10
100.5
20
-1.5875
30
0
11
100.5
21
-48.190499
31
0
39
0
210
0
220
0
230
1
0
LINE
5
166
100
AcDbEntity
8
SK2
62
256
6
ByLayer
370
13
48
1
60
0
100
AcDbLine
10
-56
20
-46.190499
30
0
11
100.5
21
-46.190499
31
0
39
0
210
0
220
0
230
1
0
SOLID
5
167
100
AcDbEntity
8
SK2
62
256
6
ByLayer
370
18
48
1
60
0
100
AcDbTrace
10
-56
20
-46.190499
30
0
11
-52.500002
21
-45.729716
31
0
12
-52.499998
22
-46.651283
32
0
13
-52.499998
23
-46.651283
33
0
39
0
210
0
220
0
230
1
0
SOLID
5
168
100
AcDbEntity
8
SK2
62
256
6
ByLayer
370
18
48
1
60
0
100
AcDbTrace
10
100.5
20
-46.190499
30
0
11
97.000002
21
-46.651283
31
0
12
96.999998
22
-45.729716
32
0
13
96.999998
23
-45.729716
33
0
39
0
210
0
220
0
230
1
0
ENDBLK
5
16A
100
AcDbEntity
8
0
100
AcDbBlockEnd
0
BLOCK
5
16F
100
AcDbEntity
8
0
100
AcDbBlockBegin
2
*D3
70
1
10
0
20
0
30
0
3
*D3
0
LINE
5
171
100
AcDbEntity
8
0
62
256
6
ByLayer
370
-2
48
1
60
0
100
AcDbLine
10
100.5
20
-1.5875
30
0
11
100.5
21
-38.190499
31
0
39
0
210
0
220
0
230
1
0
LINE
5
172
100
AcDbEntity
8
0
62
256
6
ByLayer
370
-2
48
1
60
0
100
AcDbLine
10
3
20
-11.0875
30
0
11
3
21
-38.190499
31
0
39
0
210
0
220
0
230
1
0
LINE
5
173
100
AcDbEntity
8
0
62
256
6
ByLayer
370
-2
48
1
60
0
100
AcDbLine
10
97
20
-36.190499
30
0
11
6.5
21
-36.190499
31
0
39
0
210
0
220
0
230
1
0
SOLID
5
174
100
AcDbEntity
8
0
62
256
6
ByLayer
370
-1
48
1
60
0
100
AcDbTrace
10
97
20
-36.773833
30
0
11
97
21
-35.607166
31
0
12
100.5
22
-36.190499
32
0
13
100.5
23
-36.190499
33
0
39
0
210
0
220
0
230
1
0
SOLID
5
175
100
AcDbEntity
8
0
62
256
6
ByLayer
370
-1
48
1
60
0
100
AcDbTrace
10
6.5
20
-35.607166
30
0
11
6.5
21
-36.773833
31
0
12
3
22
-36.190499
32
0
13
3
23
-36.190499
33
0
39
0
210
0
220
0
230
1
0
MTEXT
5
176
100
AcDbEntity
8
0
62
256
6
ByLayer
370
18
48
1
60
0
100
AcDbMText
10
51.75
20
-30.190499
30
0
210
0
220
0
230
1
1
\A1;97.5
40
3
41
0
44
1
50
0
71
5
72
5
7
iso_b_vert
0
POINT
5
177
100
AcDbEntity
8
Defpoints
62
0
6
ByLayer
370
-1
48
1
60
0
100
AcDbPoint
10
100.5
20
0
30
0
39
0
210
0
220
0
230
1
50
360
0
POINT
5
178
100
AcDbEntity
8
Defpoints
62
0
6
ByLayer
370
-1
48
1
60
0
100
AcDbPoint
10
3
20
-9.5
30
0
39
0
210
0
220
0
230
1
50
360
0
POINT
5
179
100
AcDbEntity
8
Defpoints
62
0
6
ByLayer
370
-1
48
1
60
0
100
AcDbPoint
10
3
20
-36.190499
30
0
39
0
210
0
220
0
230
1
50
360
0
ENDBLK
5
170
100
AcDbEntity
8
0
100
AcDbBlockEnd
0
BLOCK
5
181
100
AcDbEntity
8
0
100
AcDbBlockBegin
2
_U1
70
0
10
0
20
0
30
0
3
_U1
0
MTEXT
5
17B
100
AcDbEntity
8
SK2
62
256
6
ByLayer
370
18
48
1
60
0
100
AcDbMText
10
47.26763
20
-35.305385
30
0
210
0
220
0
230
1
1
\W0.7468;97.50
40
3
41
0
44
1.084337
50
0
71
7
72
5
7
iso_b_vert
0
LINE
5
17C
100
AcDbEntity
8
SK2
62
256
6
ByLayer
370
13
48
1
60
0
100
AcDbLine
10
100.5
20
-1.5875
30
0
11
100.5
21
-38.190499
31
0
39
0
210
0
220
0
230
1
0
LINE
5
17D
100
AcDbEntity
8
SK2
62
256
6
ByLayer
370
13
48
1
60
0
100
AcDbLine
10
3
20
-11.0875
30
0
11
3
21
-38.190499
31
0
39
0
210
0
220
0
230
1
0
LINE
5
17E
100
AcDbEntity
8
SK2
62
256
6
ByLayer
370
13
48
1
60
0
100
AcDbLine
10
100.5
20
-36.190499
30
0
11
3
21
-36.190499
31
0
39
0
210
0
220
0
230
1
0
SOLID
5
17F
100
AcDbEntity
8
SK2
62
256
6
ByLayer
370
18
48
1
60
0
100
AcDbTrace
10
100.5
20
-36.190499
30
0
11
97.000002
21
-36.651283
31
0
12
96.999998
22
-35.729716
32
0
13
96.999998
23
-35.729716
33
0
39
0
210
0
220
0
230
1
0
SOLID
5
180
100
AcDbEntity
8
SK2
62
256
6
ByLayer
370
18
48
1
60
0
100
AcDbTrace
10
3
20
-36.190499
30
0
11
6.499998
21
-35.729716
31
0
12
6.500002
22
-36.651283
32
0
13
6.500002
23
-36.651283
33
0
39
0
210
0
220
0
230
1
0
ENDBLK
5
182
100
AcDbEntity
8
0
100
AcDbBlockEnd
0
BLOCK
5
187
100
AcDbEntity
8
0
100
AcDbBlockBegin
2
*D5
70
1
10
0
20
0
30
0
3
*D5
0
LINE
5
189
100
AcDbEntity
8
0
62
256
6
ByLayer
370
-2
48
1
60
0
100
AcDbLine
10
-56
20
-14.0875
30
0
11
-56
21
-38.190499
31
0
39
0
210
0
220
0
230
1
0
LINE
5
18A
100
AcDbEntity
8
0
62
256
6
ByLayer
370
-2
48
1
60
0
100
AcDbLine
10
0
20
-14.0875
30
0
11
0
21
-38.190499
31
0
39
0
210
0
220
0
230
1
0
LINE
5
18B
100
AcDbEntity
8
0
62
256
6
ByLayer
370
-2
48
1
60
0
100
AcDbLine
10
-52.5
20
-36.190499
30
0
11
-3.5
21
-36.190499
31
0
39
0
210
0
220
0
230
1
0
SOLID
5
18C
100
AcDbEntity
8
0
62
256
6
ByLayer
370
-1
48
1
60
0
100
AcDbTrace
10
-52.5
20
-35.607166
30
0
11
-52.5
21
-36.773833
31
0
12
-56
22
-36.190499
32
0
13
-56
23
-36.190499
33
0
39
0
210
0
220
0
230
1
0
SOLID
5
18D
100
AcDbEntity
8
0
62
256
6
ByLayer
370
-1
48
1
60
0
100
AcDbTrace
10
-3.5
20
-36.773833
30
0
11
-3.5
21
-35.607166
31
0
12
0
22
-36.190499
32
0
13
0
23
-36.190499
33
0
39
0
210
0
220
0
230
1
0
MTEXT
5
18E
100
AcDbEntity
8
0
62
256
6
ByLayer
370
18
48
1
60
0
100
AcDbMText
10
-28
20
-30.190499
30
0
210
0
220
0
230
1
1
\A1;56
40
3
41
0
44
1
50
0
71
5
72
5
7
iso_b_vert
0
POINT
5
18F
100
AcDbEntity
8
Defpoints
62
0
6
ByLayer
370
-1
48
1
60
0
100
AcDbPoint
10
-56
20
-12.5
30
0
39
0
210
0
220
0
230
1
50
360
0
POINT
5
190
100
AcDbEntity
8
Defpoints
62
0
6
ByLayer
370
-1
48
1
60
0
100
AcDbPoint
10
0
20
-12.5
30
0
39
0
210
0
220
0
230
1
50
360
0
POINT
5
191
100
AcDbEntity
8
Defpoints
62
0
6
ByLayer
370
-1
48
1
60
0
100
AcDbPoint
10
0
20
-36.190499
30
0
39
0
210
0
220
0
230
1
50
360
0
ENDBLK
5
188
100
AcDbEntity
8
0
100
AcDbBlockEnd
0
BLOCK
5
199
100
AcDbEntity
8
0
100
AcDbBlockBegin
2
_U2
70
0
10
0
20
0
30
0
3
_U2
0
MTEXT
5
193
100
AcDbEntity
8
SK2
62
256
6
ByLayer
370
18
48
1
60
0
100
AcDbMText
10
-32.48237
20
-35.305385
30
0
210
0
220
0
230
1
1
\W0.7468;56.00
40
3
41
0
44
1.084337
50
0
71
7
72
5
7
iso_b_vert
0
LINE
5
194
100
AcDbEntity
8
SK2
62
256
6
ByLayer
370
13
48
1
60
0
100
AcDbLine
10
-56
20
-14.0875
30
0
11
-56
21
-38.190499
31
0
39
0
210
0
220
0
230
1
0
LINE
5
195
100
AcDbEntity
8
SK2
62
256
6
ByLayer
370
13
48
1
60
0
100
AcDbLine
10
0
20
-14.0875
30
0
11
0
21
-38.190499
31
0
39
0
210
0
220
0
230
1
0
LINE
5
196
100
AcDbEntity
8
SK2
62
256
6
ByLayer
370
13
48
1
60
0
100
AcDbLine
10
-56
20
-36.190499
30
0
11
0
21
-36.190499
31
0
39
0
210
0
220
0
230
1
0
SOLID
5
197
100
AcDbEntity
8
SK2
62
256
6
ByLayer
370
18
48
1
60
0
100
AcDbTrace
10
-56
20
-36.190499
30
0
11
-52.500002
21
-35.729716
31
0
12
-52.499998
22
-36.651283
32
0
13
-52.499998
23
-36.651283
33
0
39
0
210
0
220
0
230
1
0
SOLID
5
198
100
AcDbEntity
8
SK2
62
256
6
ByLayer
370
18
48
1
60
0
100
AcDbTrace
10
0
20
-36.190499
30
0
11
-3.499998
21
-36.651283
31
0
12
-3.500002
22
-35.729716
32
0
13
-3.500002
23
-35.729716
33
0
39
0
210
0
220
0
230
1
0
ENDBLK
5
19A
100
AcDbEntity
8
0
100
AcDbBlockEnd
0
BLOCK
5
19F
100
AcDbEntity
8
0
100
AcDbBlockBegin
2
*D7
70
1
10
0
20
0
30
0
3
*D7
0
LINE
5
1A1
100
AcDbEntity
8
0
62
256
6
ByLayer
370
-2
48
1
60
0
100
AcDbLine
10
100.5
20
1.5875
30
0
11
100.5
21
35.190499
31
0
39
0
210
0
220
0
230
1
0
LINE
5
1A2
100
AcDbEntity
8
0
62
256
6
ByLayer
370
-2
48
1
60
0
100
AcDbLine
10
31
20
11.0875
30
0
11
31
21
35.190499
31
0
39
0
210
0
220
0
230
1
0
LINE
5
1A3
100
AcDbEntity
8
0
62
256
6
ByLayer
370
-2
48
1
60
0
100
AcDbLine
10
97
20
33.190499
30
0
11
34.5
21
33.190499
31
0
39
0
210
0
220
0
230
1
0
SOLID
5
1A4
100
AcDbEntity
8
0
62
256
6
ByLayer
370
-1
48
1
60
0
100
AcDbTrace
10
97
20
32.607166
30
0
11
97
21
33.773833
31
0
12
100.5
22
33.190499
32
0
13
100.5
23
33.190499
33
0
39
0
210
0
220
0
230
1
0
SOLID
5
1A5
100
AcDbEntity
8
0
62
256
6
ByLayer
370
-1
48
1
60
0
100
AcDbTrace
10
34.5
20
33.773833
30
0
11
34.5
21
32.607166
31
0
12
31
22
33.190499
32
0
13
31
23
33.190499
33
0
39
0
210
0
220
0
230
1
0
MTEXT
5
1A6
100
AcDbEntity
8
0
62
256
6
ByLayer
370
18
48
1
60
0
100
AcDbMText
10
65.75
20
39.190499
30
0
210
0
220
0
230
1
1
\A1;69.5
40
3
41
0
44
1
50
0
71
5
72
5
7
iso_b_vert
0
POINT
5
1A7
100
AcDbEntity
8
Defpoints
62
0
6
ByLayer
370
-1
48
1
60
0
100
AcDbPoint
10
100.5
20
0
30
0
39
0
210
0
220
0
230
1
50
360
0
POINT
5
1A8
100
AcDbEntity
8
Defpoints
62
0
6
ByLayer
370
-1
48
1
60
0
100
AcDbPoint
10
31
20
9.5
30
0
39
0
210
0
220
0
230
1
50
360
0
POINT
5
1A9
100
AcDbEntity
8
Defpoints
62
0
6
ByLayer
370
-1
48
1
60
0
100
AcDbPoint
10
31
20
33.190499
30
0
39
0
210
0
220
0
230
1
50
360
0
ENDBLK
5
1A0
100
AcDbEntity
8
0
100
AcDbBlockEnd
0
BLOCK
5
1B1
100
AcDbEntity
8
0
100
AcDbBlockBegin
2
_U3
70
0
10
0
20
0
30
0
3
_U3
0
MTEXT
5
1AB
100
AcDbEntity
8
SK2
62
256
6
ByLayer
370
18
48
1
60
0
100
AcDbMText
10
61.26763
20
34.075614
30
0
210
0
220
0
230
1
1
\W0.7468;69.50
40
3
41
0
44
1.084337
50
0
71
7
72
5
7
iso_b_vert
0
LINE
5
1AC
100
AcDbEntity
8
SK2
62
256
6
ByLayer
370
13
48
1
60
0
100
AcDbLine
10
100.5
20
1.5875
30
0
11
100.5
21
35.190499
31
0
39
0
210
0
220
0
230
1
0
LINE
5
1AD
100
AcDbEntity
8
SK2
62
256
6
ByLayer
370
13
48
1
60
0
100
AcDbLine
10
31
20
11.0875
30
0
11
31
21
35.190499
31
0
39
0
210
0
220
0
230
1
0
LINE
5
1AE
100
AcDbEntity
8
SK2
62
256
6
ByLayer
370
13
48
1
60
0
100
AcDbLine
10
100.5
20
33.190499
30
0
11
31
21
33.190499
31
0
39
0
210
0
220
0
230
1
0
SOLID
5
1AF
100
AcDbEntity
8
SK2
62
256
6
ByLayer
370
18
48
1
60
0
100
AcDbTrace
10
100.5
20
33.190499
30
0
11
97.000002
21
32.729716
31
0
12
96.999998
22
33.651283
32
0
13
96.999998
23
33.651283
33
0
39
0
210
0
220
0
230
1
0
SOLID
5
1B0
100
AcDbEntity
8
SK2
62
256
6
ByLayer
370
18
48
1
60
0
100
AcDbTrace
10
31
20
33.190499
30
0
11
34.499998
21
33.651283
31
0
12
34.500002
22
32.729716
32
0
13
34.500002
23
32.729716
33
0
39
0
210
0
220
0
230
1
0
ENDBLK
5
1B2
100
AcDbEntity
8
0
100
AcDbBlockEnd
0
ENDSEC
0
SECTION
2
ENTITIES
0
ARC
5
C1
100
AcDbEntity
8
SK2
62
256
6
ByLayer
370
13
48
1
60
0
100
AcDbCircle
39
0
10
100.5
20
0
30
0
40
18.9999999999999
210
0
220
0
230
1
100
AcDbArc
50
290
51
70
0
ELLIPSE
5
C2
100
AcDbEntity
8
SK1
62
256
6
ByLayer
370
18
48
1
60
0
100
AcDbEllipse
10
-41.343561
20
0
30
0
11
-2.29613691341699E-15
21
-12.5000000000002
31
0
210
0
220
0
230
1
40
0.932515
41
-1.86465462472194
42
-1.27693802886786
0
ELLIPSE
5
C3
100
AcDbEntity
8
SK1
62
256
6
ByLayer
370
18
48
1
60
0
100
AcDbEllipse
10
276.680659
20
0
30
0
11
357.953166043254
21
-4.05596621644435E-13
31
0
210
0
220
0
230
1
40
0.034921
41
2.52406396812455
42
2.73005601344533
0
ELLIPSE
5
C4
100
AcDbEntity
8
SK1
62
256
6
ByLayer
370
18
48
1
60
0
100
AcDbEllipse
10
276.680659
20
0
30
0
11
357.953166032003
21
-4.05596621631686E-13
31
0
210
0
220
0
230
1
40
0.034921
41
-2.73005601344242
42
-2.52406396811705
0
ELLIPSE
5
C5
100
AcDbEntity
8
SK1
62
256
6
ByLayer
370
18
48
1
60
0
100
AcDbEllipse
10
-25.404609
20
0
30
0
11
13.4046088753088
21
-1.51887581674114E-14
31
0
210
0
220
0
230
1
40
0.932515
41
-0.555530755442636
42
0.555530755442635
0
POINT
5
70
100
AcDbEntity
8
81
62
256
6
ByLayer
370
18
48
1
60
0
100
AcDbPoint
10
100.5
20
0
30
0
39
0
210
0
220
0
230
1
50
360
0
POINT
5
72
100
AcDbEntity
8
80
62
256
6
ByLayer
370
18
48
1
60
0
100
AcDbPoint
10
0
20
0
30
0
39
0
210
0
220
0
230
1
50
360
0
POINT
5
74
100
AcDbEntity
8
1
62
256
6
ByLayer
370
18
48
1
60
1
100
AcDbPoint
10
-56
20
-12.5
30
0
39
0
210
0
220
0
230
1
50
360
0
POINT
5
76
100
AcDbEntity
8
1
62
256
6
ByLayer
370
18
48
1
60
1
100
AcDbPoint
10
100.5
20
0
30
0
39
0
210
0
220
0
230
1
50
360
0
POINT
5
77
100
AcDbEntity
8
1
62
256
6
ByLayer
370
18
48
1
60
1
100
AcDbPoint
10
100.5
20
0
30
0
39
0
210
0
220
0
230
1
50
360
0
POINT
5
78
100
AcDbEntity
8
1
62
256
6
ByLayer
370
18
48
1
60
1
100
AcDbPoint
10
3
20
-9.5
30
0
39
0
210
0
220
0
230
1
50
360
0
POINT
5
79
100
AcDbEntity
8
1
62
256
6
ByLayer
370
18
48
1
60
1
100
AcDbPoint
10
-56
20
-12.5
30
0
39
0
210
0
220
0
230
1
50
360
0
POINT
5
7A
100
AcDbEntity
8
1
62
256
6
ByLayer
370
18
48
1
60
1
100
AcDbPoint
10
0
20
-12.5
30
0
39
0
210
0
220
0
230
1
50
360
0
POINT
5
7B
100
AcDbEntity
8
1
62
256
6
ByLayer
370
18
48
1
60
1
100
AcDbPoint
10
100.5
20
0
30
0
39
0
210
0
220
0
230
1
50
360
0
POINT
5
7C
100
AcDbEntity
8
1
62
256
6
ByLayer
370
18
48
1
60
1
100
AcDbPoint
10
31
20
9.5
30
0
39
0
210
0
220
0
230
1
50
360
0
SPLINE
5
C6
100
AcDbEntity
8
1
62
256
6
ByLayer
370
18
48
1
60
0
100
AcDbSpline
70
4
71
3
72
14
73
10
40
0
40
0
40
0
40
0
40
0.364398240831881
40
0.364398240831881
40
0.546597361247811
40
0.546597361247811
40
0.728796481663741
40
0.728796481663741
40
1
40
1
40
1
40
1
41
1
10
87
20
-9.41537410871425
30
0
41
1
10
87.4191326089618
20
-9.43550888836972
30
0
41
1
10
87.837972114388
20
-9.45203481294726
30
0
41
1
10
88.4657164210703
20
-9.47137432536823
30
0
41
1
10
88.6748632500085
20
-9.47691359628013
30
0
41
1
10
89.093101776195
20
-9.48613985952176
30
0
41
1
10
89.3022257166095
20
-9.48982274932126
30
0
41
1
10
89.8226887500799
20
-9.49669166069643
30
0
41
1
10
90.134025066531
20
-9.4987696728231
30
0
41
1
10
90.4453602873874
20
-9.49882419148199
30
0
0
SPLINE
5
C7
100
AcDbEntity
8
1
62
256
6
ByLayer
370
18
48
1
60
0
100
AcDbSpline
70
4
71
3
72
140
73
136
40
0
40
0
40
0
40
0
40
0.0312500000000046
40
0.0312500000000046
40
0.0625000000000092
40
0.0625000000000092
40
0.07031250000001
40
0.07031250000001
40
0.0781250000000107
40
0.0781250000000107
40
0.0937500000000117
40
0.0937500000000117
40
0.125000000000014
40
0.125000000000014
40
0.140625000000015
40
0.140625000000015
40
0.148437500000016
40
0.148437500000016
40
0.156250000000017
40
0.156250000000017
40
0.171875000000018
40
0.171875000000018
40
0.187500000000019
40
0.187500000000019
40
0.20312500000002
40
0.20312500000002
40
0.218750000000021
40
0.218750000000021
40
0.226562500000022
40
0.226562500000022
40
0.234375000000022
40
0.234375000000022
40
0.250000000000023
40
0.250000000000023
40
0.257812500000023
40
0.257812500000023
40
0.265625000000023
40
0.265625000000023
40
0.281250000000023
40
0.281250000000023
40
0.289062500000024
40
0.289062500000024
40
0.296875000000025
40
0.296875000000025
40
0.312500000000025
40
0.312500000000025
40
0.343750000000027
40
0.343750000000027
40
0.359375000000027
40
0.359375000000027
40
0.375000000000028
40
0.375000000000028
40
0.406250000000029
40
0.406250000000029
40
0.42187500000003
40
0.42187500000003
40
0.42968750000003
40
0.42968750000003
40
0.43750000000003
40
0.43750000000003
40
0.44531250000003
40
0.44531250000003
40
0.45312500000003
40
0.45312500000003
40
0.468750000000031
40
0.468750000000031
40
0.500000000000032
40
0.500000000000032
40
0.507812500000031
40
0.507812500000031
40
0.515625000000031
40
0.515625000000031
40
0.531250000000031
40
0.531250000000031
40
0.56250000000003
40
0.56250000000003
40
0.57812500000003
40
0.57812500000003
40
0.59375000000003
40
0.59375000000003
40
0.60937500000003
40
0.60937500000003
40
0.625000000000029
40
0.625000000000029
40
0.656250000000029
40
0.656250000000029
40
0.664062500000028
40
0.664062500000028
40
0.671875000000028
40
0.671875000000028
40
0.687500000000027
40
0.687500000000027
40
0.703125000000027
40
0.703125000000027
40
0.718750000000026
40
0.718750000000026
40
0.726562500000025
40
0.726562500000025
40
0.734375000000025
40
0.734375000000025
40
0.750000000000022
40
0.750000000000022
40
0.781250000000018
40
0.781250000000018
40
0.796875000000016
40
0.796875000000016
40
0.804687500000015
40
0.804687500000015
40
0.812500000000014
40
0.812500000000014
40
0.828125000000012
40
0.828125000000012
40
0.843750000000011
40
0.843750000000011
40
0.859375000000009
40
0.859375000000009
40
0.875000000000007
40
0.875000000000007
40
0.882812500000006
40
0.882812500000006
40
0.890625000000005
40
0.890625000000005
40
0.906250000000005
40
0.906250000000005
40
0.937500000000004
40
0.937500000000004
40
0.945312500000004
40
0.945312500000004
40
0.953125000000003
40
0.953125000000003
40
0.960937500000003
40
0.960937500000003
40
0.968750000000003
40
0.968750000000003
40
1
40
1
40
1
40
1
41
1
10
18.0694929669956
20
8.62072522967517
30
0
41
1
10
18.7879832453615
20
8.53173287800274
30
0
41
1
10
19.5063477491306
20
8.4335915314746
30
0
41
1
10
20.9422818877538
20
8.21891644834813
30
0
41
1
10
21.6598563633021
20
8.10238550436006
30
0
41
1
10
22.556013708624
20
7.94470308034323
30
0
41
1
10
22.7352026189555
20
7.91256080742602
30
0
41
1
10
23.093501984641
20
7.84706594566549
30
0
41
1
10
23.2726175798942
20
7.8137198560384
30
0
41
1
10
23.8100728000884
20
7.71220624097944
30
0
41
1
10
24.1685151192051
20
7.64256217369379
30
0
41
1
10
25.244053025833
20
7.427495630723
30
0
41
1
10
25.9613823497522
20
7.27599343811329
30
0
41
1
10
27.0374742265891
20
7.03591041789008
30
0
41
1
10
27.3961863567208
20
6.95373610261501
30
0
41
1
10
27.9342335656284
20
6.82712456482952
30
0
41
1
10
28.113571240543
20
6.78434583466927
30
0
41
1
10
28.4723339416299
20
6.69784753468866
30
0
41
1
10
28.6517759760305
20
6.65416220433931
30
0
41
1
10
29.1903275215675
20
6.52189746432953
30
0
41
1
10
29.5496306309962
20
6.43204830613922
30
0
41
1
10
30.2686687537887
20
6.24882127346112
30
0
41
1
10
30.6282731542974
20
6.15548929983905
30
0
41
1
10
31.3471914978928
20
5.96538438068535
30
0
41
1
10
31.7065657570548
20
5.86859202359796
30
0
41
1
10
32.4250788426291
20
5.67136423234996
30
0
41
1
10
32.7841976416795
20
5.57088279388094
30
0
41
1
10
33.3227234212483
20
5.41744854478344
30
0
41
1
10
33.5022265388418
20
5.36589674761106
30
0
41
1
10
33.8613413476694
20
5.26225905802363
30
0
41
1
10
34.0409405106013
20
5.2101448732391
30
0
41
1
10
34.5798359792237
20
5.05286167565612
30
0
41
1
10
34.9392246120216
20
4.94673955929511
30
0
41
1
10
35.4784435624738
20
4.78554836133432
30
0
41
1
10
35.6582063996702
20
4.73148426941086
30
0
41
1
10
36.0177718478585
20
4.62267245421506
30
0
41
1
10
36.1975800169948
20
4.56792243369435
30
0
41
1
10
36.7367743612912
20
4.4026962790773
30
0
41
1
10
37.096021265518
20
4.29121695443294
30
0
41
1
10
37.6345199668467
20
4.12187383437296
30
0
41
1
10
37.8139571217034
20
4.06507074884141
30
0
41
1
10
38.1727019501813
20
3.95073896579436
30
0
41
1
10
38.352011687009
20
3.89321524079219
30
0
41
1
10
38.8899541774384
20
3.72009792478283
30
0
41
1
10
39.2486351897713
20
3.60405263445168
30
0
41
1
10
40.3246398688385
20
3.25353520380975
30
0
41
1
10
41.0419383988338
20
3.0167228362736
30
0
41
1
10
42.1174742144586
20
2.6558560967448
30
0
41
1
10
42.4759156316696
20
2.5346187855848
30
0
41
1
10
43.192596827889
20
2.29006142336607
30
0
41
1
10
43.5507994552066
20
2.166633725927
30
0
41
1
10
44.626199088235
20
1.79626118995444
30
0
41
1
10
45.3438433127873
20
1.54829211305622
30
0
41
1
10
46.4209306525117
20
1.17354271996015
30
0
41
1
10
46.7800675616976
20
1.04817031328952
30
0
41
1
10
47.3188881041599
20
0.859283076716594
30
0
41
1
10
47.4985142445646
20
0.796182705104229
30
0
41
1
10
47.857798200246
20
0.669682771403672
30
0
41
1
10
48.0374752945507
20
0.60626189174107
30
0
41
1
10
48.3967331666038
20
0.47921437918734
30
0
41
1
10
48.5763227254225
20
0.415610568158684
30
0
41
1
10
48.9355610392978
20
0.288635894060633
30
0
41
1
10
49.1152008741572
20
0.225239533157122
30
0
41
1
10
49.6541554610288
20
0.0352457315969161
30
0
41
1
10
50.0134992754214
20
-0.0911736441854316
30
0
41
1
10
51.0915420200967
20
-0.470021207257986
30
0
41
1
10
51.8102697456741
20
-0.721990458955872
30
0
41
1
10
52.7083985140562
20
-1.03711259684465
30
0
41
1
10
52.8880102995175
20
-1.10014472901796
30
0
41
1
10
53.247198797881
20
-1.22624404762314
30
0
41
1
10
53.4267718033774
20
-1.28932165063014
30
0
41
1
10
53.9656195288693
20
-1.47809424472828
30
0
41
1
10
54.3251146426747
20
-1.60314129254277
30
0
41
1
10
55.4030425765212
20
-1.97592263670506
30
0
41
1
10
56.1212758190416
20
-2.22148394994309
30
0
41
1
10
57.1977018783532
20
-2.5864000114116
30
0
41
1
10
57.5563544016794
20
-2.70747120984882
30
0
41
1
10
58.273284701935
20
-2.94862874990065
30
0
41
1
10
58.6315036304976
20
-3.06886927237815
30
0
41
1
10
59.348265117956
20
-3.30646544545948
30
0
41
1
10
59.7067499012355
20
-3.42398344500597
30
0
41
1
10
60.4238088239002
20
-3.65680035038972
30
0
41
1
10
60.7823890464668
20
-3.77208268073466
30
0
41
1
10
61.8582019287977
20
-4.11476790737029
30
0
41
1
10
62.5754873010676
20
-4.33906982135119
30
0
41
1
10
63.4719249782843
20
-4.61481501521794
30
0
41
1
10
63.6512129173132
20
-4.66970888596185
30
0
41
1
10
64.0099296474199
20
-4.77863751272059
30
0
41
1
10
64.1893573719723
20
-4.83267552704069
30
0
41
1
10
64.7278209975693
20
-4.99358502020257
30
0
41
1
10
65.0870312883111
20
-5.09926752486646
30
0
41
1
10
65.8058394714844
20
-5.3076625106589
30
0
41
1
10
66.1655165403419
20
-5.41038452667993
30
0
41
1
10
66.8845244352187
20
-5.61277642661639
30
0
41
1
10
67.2439176513353
20
-5.71246903168463
30
0
41
1
10
67.7827930386386
20
-5.85984054747169
30
0
41
1
10
67.9623824436668
20
-5.90860281915295
30
0
41
1
10
68.3214822742742
20
-6.00541413279018
30
0
41
1
10
68.5009848012623
20
-6.05347950373471
30
0
41
1
10
69.0395209100915
20
-6.19628303804944
30
0
41
1
10
69.398680568347
20
-6.28942507723278
30
0
41
1
10
70.4765024263933
20
-6.56288693772865
30
0
41
1
10
71.1954409878263
20
-6.73739795370207
30
0
41
1
10
72.27408010087
20
-6.98817826472566
30
0
41
1
10
72.6335232169138
20
-7.06990693178022
30
0
41
1
10
73.1723824017513
20
-7.18973259418971
30
0
41
1
10
73.3519495045605
20
-7.22922670433746
30
0
41
1
10
73.7110278831378
20
-7.30722455169487
30
0
41
1
10
73.8905509464673
20
-7.34570716828506
30
0
41
1
10
74.4292467022688
20
-7.45931516786257
30
0
41
1
10
74.7884926754182
20
-7.53269765083763
30
0
41
1
10
75.5070890126864
20
-7.67501489202215
30
0
41
1
10
75.8664452826479
20
-7.74393900387327
30
0
41
1
10
76.5852202863522
20
-7.87741296790477
30
0
41
1
10
76.9446379872554
20
-7.94196459389039
30
0
41
1
10
77.6634676837516
20
-8.06676479459441
30
0
41
1
10
78.02295477279
20
-8.12702681550758
30
0
41
1
10
78.5617547691661
20
-8.21413166451845
30
0
41
1
10
78.7412920949829
20
-8.24261369605165
30
0
41
1
10
79.1003776073877
20
-8.29829809988453
30
0
41
1
10
79.279932974616
20
-8.32549287812188
30
0
41
1
10
79.8186131820855
20
-8.40518343574473
30
0
41
1
10
80.177745002637
20
-8.45579583447199
30
0
41
1
10
81.2550472274734
20
-8.60031441411181
30
0
41
1
10
81.9731487410089
20
-8.68690035372529
30
0
41
1
10
82.8703323514725
20
-8.7831557489084
30
0
41
1
10
83.0497468721146
20
-8.80180591285597
30
0
41
1
10
83.4085241202367
20
-8.83790112441017
30
0
41
1
10
83.5878777835992
20
-8.85535255500193
30
0
41
1
10
83.9466117278789
20
-8.8889807577805
30
0
41
1
10
84.1260094185736
20
-8.90514479893079
30
0
41
1
10
84.4849178844287
20
-8.93614529688483
30
0
41
1
10
84.6644193153552
20
-8.95098893679381
30
0
41
1
10
85.5621176457798
20
-9.02197468689374
30
0
41
1
10
86.280876102605
20
-9.06845796007923
30
0
41
1
10
87.0000000000001
20
-9.10476141113762
30
0
0
SPLINE
5
C8
100
AcDbEntity
8
1
62
256
6
ByLayer
370
18
48
1
60
0
100
AcDbSpline
70
4
71
3
72
109
73
105
40
0
40
0
40
0
40
0
40
0.0060432515781382
40
0.0060432515781382
40
0.0259223865465759
40
0.0259223865465759
40
0.0358619540307948
40
0.0358619540307948
40
0.0458015215150137
40
0.0458015215150137
40
0.0855597914518898
40
0.0855597914518898
40
0.105438926420328
40
0.105438926420328
40
0.115378493904547
40
0.115378493904547
40
0.125318061388766
40
0.125318061388766
40
0.165076331325643
40
0.165076331325643
40
0.204834601262521
40
0.204834601262521
40
0.21477416874674
40
0.21477416874674
40
0.224713736230959
40
0.244592871199397
40
0.244592871199397
40
0.254532438683616
40
0.254532438683616
40
0.264472006167835
40
0.284351141136273
40
0.284351141136273
40
0.294290708620492
40
0.294290708620492
40
0.304230276104711
40
0.304230276104711
40
0.324109411073148
40
0.324109411073148
40
0.343988546041585
40
0.343988546041585
40
0.363867681010022
40
0.363867681010022
40
0.383746815978459
40
0.383746815978459
40
0.393686383462677
40
0.393686383462677
40
0.403625950946896
40
0.403625950946896
40
0.443384220883769
40
0.443384220883769
40
0.463263355852206
40
0.463263355852206
40
0.483142490820642
40
0.483142490820642
40
0.522900760757515
40
0.522900760757515
40
0.542779895725951
40
0.542779895725951
40
0.55271946321017
40
0.55271946321017
40
0.562659030694388
40
0.562659030694388
40
0.582538165662825
40
0.582538165662825
40
0.602417300631261
40
0.602417300631261
40
0.642175570568136
40
0.642175570568136
40
0.652115138052354
40
0.652115138052354
40
0.662054705536573
40
0.662054705536573
40
0.681933840505009
40
0.681933840505009
40
0.721692110441883
40
0.721692110441883
40
0.731631677926102
40
0.731631677926102
40
0.74157124541032
40
0.74157124541032
40
0.751510812894539
40
0.751510812894539
40
0.761450380378758
40
0.761450380378758
40
0.801208650315632
40
0.801208650315632
40
0.821087785284069
40
0.821087785284069
40
0.831027352768287
40
0.831027352768287
40
0.840966920252505
40
0.860846055220942
40
0.860846055220942
40
0.880725190189378
40
0.880725190189378
40
0.900604325157815
40
0.900604325157815
40
0.910543892642033
40
0.910543892642033
40
0.920483460126252
40
0.920483460126252
40
0.960241730063126
40
0.960241730063126
40
1
40
1
40
1
40
1
41
1
10
71.3729760166507
20
-6.7778220400543
30
0
41
1
10
71.2572277515629
20
-6.80535892864881
30
0
41
1
10
71.1414799050136
20
-6.83270204587689
30
0
41
1
10
70.6449858373541
20
-6.94916253272922
30
0
41
1
10
70.2642517891105
20
-7.03638909063002
30
0
41
1
10
69.6931907437491
20
-7.16410835459556
30
0
41
1
10
69.5028501453417
20
-7.20617198288195
30
0
41
1
10
69.1221100162379
20
-7.28912431343511
30
0
41
1
10
68.9316763137077
20
-7.32999185465712
30
0
41
1
10
67.9797281907298
20
-7.53107902627599
30
0
41
1
10
67.2186186056499
20
-7.68176367402137
30
0
41
1
10
66.0777836697575
20
-7.89299240766209
30
0
41
1
10
65.6976450614409
20
-7.96093252065947
30
0
41
1
10
65.1276767583659
20
-8.05916262301182
30
0
41
1
10
64.9377268796292
20
-8.09129171803585
30
0
41
1
10
64.557909629773
20
-8.15431888231475
30
0
41
1
10
64.3680457627354
20
-8.18522067290507
30
0
41
1
10
63.4186972621494
20
-8.33633259401364
30
0
41
1
10
62.6589391825639
20
-8.44615452559555
30
0
41
1
10
61.1390748850199
20
-8.64422219920237
30
0
41
1
10
60.3789757831248
20
-8.73247758242525
30
0
41
1
10
59.4288009095999
20
-8.82925652704125
30
0
41
1
10
59.2387613376953
20
-8.84793067323298
30
0
41
1
10
58.858561940517
20
-8.88382515578539
30
0
41
1
10
58.288076677959
20
-8.93548440829139
30
0
41
1
10
57.7170566974518
20
-8.9806485984023
30
0
41
1
10
57.145702077974
20
-9.02151359373781
30
0
41
1
10
56.9551731899215
20
-9.03441954710419
30
0
41
1
10
56.5741978562639
20
-9.05878664540748
30
0
41
1
10
56.0028059837738
20
-9.0931732090813
30
0
41
1
10
55.4316522581413
20
-9.12108327231005
30
0
41
1
10
54.8606849273295
20
-9.14465728510683
30
0
41
1
10
54.6703956344239
20
-9.15179272399908
30
0
41
1
10
54.2898702558324
20
-9.16460603649003
30
0
41
1
10
54.099629697214
20
-9.17028166264939
30
0
41
1
10
53.5288048692315
20
-9.18507906050496
30
0
41
1
10
53.1481443677529
20
-9.19198343246504
30
0
41
1
10
52.3866372762057
20
-9.19993118544309
30
0
41
1
10
52.0057897110905
20
-9.20097431745927
30
0
41
1
10
51.2439339224455
20
-9.19721034670877
30
0
41
1
10
50.8628733090447
20
-9.19240169809976
30
0
41
1
10
50.1011577145795
20
-9.17690884154462
30
0
41
1
10
49.7204629288372
20
-9.16622091168077
30
0
41
1
10
49.1496206111836
20
-9.14574508277988
30
0
41
1
10
48.9593585587121
20
-9.13818243315987
30
0
41
1
10
48.5787767235558
20
-9.12161831674467
30
0
41
1
10
48.388466738864
20
-9.11261443985219
30
0
41
1
10
47.4368324884731
20
-9.06400214704917
30
0
41
1
10
46.6752554616403
20
-9.0136445535164
30
0
41
1
10
45.5326621742756
20
-8.92086843586861
30
0
41
1
10
45.1516956948743
20
-8.88705479799984
30
0
41
1
10
44.3900843738215
20
-8.81361896157048
30
0
41
1
10
44.009514174789
20
-8.77395349244833
30
0
41
1
10
42.8675501136982
20
-8.646928230203
30
0
41
1
10
42.106076883897
20
-8.55145767276653
30
0
41
1
10
40.9637934381474
20
-8.39207300292324
30
0
41
1
10
40.5830202611876
20
-8.33624272624098
30
0
41
1
10
40.011873337455
20
-8.2483815133287
30
0
41
1
10
39.8214928407435
20
-8.2184084700593
30
0
41
1
10
39.4407384483537
20
-8.15707824481788
30
0
41
1
10
39.2503627283317
20
-8.12570990110044
30
0
41
1
10
38.6792051485098
20
-8.02965341410894
30
0
41
1
10
38.2985266039932
20
-7.96316851534399
30
0
41
1
10
37.537303211417
20
-7.82544035729472
30
0
41
1
10
37.1567715823241
20
-7.75417867015079
30
0
41
1
10
36.0154530691009
20
-7.53318935037615
30
0
41
1
10
35.2549429841521
20
-7.37627707707665
30
0
41
1
10
34.3049458550573
20
-7.16773570113907
30
0
41
1
10
34.1149829718774
20
-7.12539700920982
30
0
41
1
10
33.7350339239817
20
-7.03962952036602
30
0
41
1
10
33.5450354887305
20
-6.9962237939136
30
0
41
1
10
32.9749557399186
20
-6.86447443340049
30
0
41
1
10
32.5947986739763
20
-6.77458391224727
30
0
41
1
10
31.4540611991258
20
-6.49869896542938
30
0
41
1
10
30.6932058985141
20
-6.30652834529334
30
0
41
1
10
29.7418579619418
20
-6.05553882727079
30
0
41
1
10
29.5515743477615
20
-6.0048007089031
30
0
41
1
10
29.1709806036478
20
-5.90223245100637
30
0
41
1
10
28.9806709467357
20
-5.85040035634023
30
0
41
1
10
28.5999182600127
20
-5.74587894465569
30
0
41
1
10
28.4094794175503
20
-5.69320423977959
30
0
41
1
10
28.0286680014939
20
-5.58707643100661
30
0
41
1
10
27.8382703040771
20
-5.53361607321636
30
0
41
1
10
26.8863323648576
20
-5.26431776855827
30
0
41
1
10
26.1249337542058
20
-5.04252922040087
30
0
41
1
10
24.9832587492826
20
-4.69987402039166
30
0
41
1
10
24.602778086224
20
-4.58397260260759
30
0
41
1
10
24.0321732265662
20
-4.40757262073598
30
0
41
1
10
23.8419858098249
20
-4.34836006796192
30
0
41
1
10
23.4615245140791
20
-4.22939851018535
30
0
41
1
10
22.8907167461753
20
-4.05011806950921
30
0
41
1
10
22.3195851861076
20
-3.86828419663769
30
0
41
1
10
21.5578170110217
20
-3.62351131475356
30
0
41
1
10
21.1767286552687
20
-3.4999387558324
30
0
41
1
10
20.4149414314039
20
-3.25058159454261
30
0
41
1
10
20.0341924613516
20
-3.12477525413158
30
0
41
1
10
19.4633123795372
20
-2.93429594763052
30
0
41
1
10
19.2730633231153
20
-2.87049759928053
30
0
41
1
10
18.8926278659351
20
-2.7423587169568
30
0
41
1
10
18.7024339467796
20
-2.67803839734208
30
0
41
1
10
17.7513294486098
20
-2.35587697680253
30
0
41
1
10
16.9901727019301
20
-2.09593531031771
30
0
41
1
10
15.4675295988162
20
-1.57109520654998
30
0
41
1
10
14.7060333883655
20
-1.3062256903913
30
0
41
1
10
13.944526604193
20
-1.03838438421593
30
0
0
SPLINE
5
C9
100
AcDbEntity
8
1
62
256
6
ByLayer
370
18
48
1
60
0
100
AcDbSpline
70
4
71
3
72
25
73
21
40
0
40
0
40
0
40
0
40
0.125000000000004
40
0.125000000000004
40
0.187500000000002
40
0.187500000000002
40
0.25
40
0.25
40
0.374999999999996
40
0.374999999999996
40
0.499999999999993
40
0.624999999999989
40
0.624999999999989
40
0.687499999999991
40
0.687499999999991
40
0.749999999999993
40
0.749999999999993
40
0.874999999999996
40
0.874999999999996
40
1
40
1
40
1
40
1
41
1
10
97.0422827744786
20
-1.3565688547742
30
0
41
1
10
96.6231528554935
20
-1.2059353440969
30
0
41
1
10
96.2042502707624
20
-1.05485220695542
30
0
41
1
10
95.5762864893999
20
-0.827416996825832
30
0
41
1
10
95.3670300640512
20
-0.751470714110638
30
0
41
1
10
94.9486525553164
20
-0.599293741633346
30
0
41
1
10
94.73954217215
20
-0.523033385404375
30
0
41
1
10
94.1122822435347
20
-0.294192261696992
30
0
41
1
10
93.6940920327563
20
-0.141861643679789
30
0
41
1
10
92.8576501597469
20
0.162267564181576
30
0
41
1
10
92.0211713663526
20
0.465932772606351
30
0
41
1
10
91.184698889328
20
0.76889493045843
30
0
41
1
10
90.5573955367097
20
0.995985624236653
30
0
41
1
10
90.348302764583
20
1.07166023865088
30
0
41
1
10
89.9301390581683
20
1.22297848923896
30
0
41
1
10
89.7210786129081
20
1.2986509341743
30
0
41
1
10
89.0938125449138
20
1.52529780552695
30
0
41
1
10
88.6754002799642
20
1.67556690935155
30
0
41
1
10
87.838055439907
20
1.97431229620997
30
0
41
1
10
87.4191394002164
20
2.12283402410907
30
0
41
1
10
87
20
2.27056051296668
30
0
0
SPLINE
5
CA
100
AcDbEntity
8
1
62
256
6
ByLayer
370
18
48
1
60
0
100
AcDbSpline
70
4
71
3
72
89
73
85
40
0
40
0
40
0
40
0
40
0.0312499999999961
40
0.0312499999999961
40
0.0624999999999923
40
0.0624999999999923
40
0.124999999999986
40
0.124999999999986
40
0.140624999999985
40
0.140624999999985
40
0.148437499999984
40
0.148437499999984
40
0.156249999999983
40
0.187499999999982
40
0.187499999999982
40
0.218749999999981
40
0.218749999999981
40
0.24999999999998
40
0.24999999999998
40
0.281249999999979
40
0.281249999999979
40
0.296874999999979
40
0.296874999999979
40
0.312499999999979
40
0.312499999999979
40
0.343749999999978
40
0.343749999999978
40
0.374999999999977
40
0.374999999999977
40
0.406249999999975
40
0.406249999999975
40
0.437499999999974
40
0.437499999999974
40
0.445312499999974
40
0.445312499999974
40
0.453124999999974
40
0.468749999999973
40
0.468749999999973
40
0.49999999999997
40
0.49999999999997
40
0.531249999999967
40
0.531249999999967
40
0.539062499999966
40
0.539062499999966
40
0.546874999999966
40
0.562499999999965
40
0.562499999999965
40
0.593749999999963
40
0.593749999999963
40
0.624999999999962
40
0.624999999999962
40
0.632812499999962
40
0.632812499999962
40
0.640624999999963
40
0.656249999999965
40
0.656249999999965
40
0.687499999999972
40
0.687499999999972
40
0.718749999999978
40
0.718749999999978
40
0.726562499999979
40
0.726562499999979
40
0.73437499999998
40
0.73437499999998
40
0.749999999999981
40
0.749999999999981
40
0.781249999999982
40
0.781249999999982
40
0.812499999999983
40
0.812499999999983
40
0.843749999999984
40
0.843749999999984
40
0.851562499999985
40
0.851562499999985
40
0.859374999999986
40
0.874999999999987
40
0.874999999999987
40
0.90624999999999
40
0.937499999999993
40
0.968749999999996
40
0.968749999999996
40
0.984374999999998
40
0.984374999999998
40
1
40
1
40
1
40
1
41
1
10
97.0422827744711
20
9.19835016567777
30
0
41
1
10
97.1016160444688
20
9.05123965275175
30
0
41
1
10
97.1610421985165
20
8.90191842800635
30
0
41
1
10
97.2801816731675
20
8.59920167104883
30
0
41
1
10
97.3398948913687
20
8.44580535932286
30
0
41
1
10
97.519571985382
20
7.97988017934205
30
0
41
1
10
97.640089796494
20
7.6616476184337
30
0
41
1
10
97.7917828403665
20
7.25503677185682
30
0
41
1
10
97.8221724170901
20
7.17327096185449
30
0
41
1
10
97.8678312346678
20
7.04996209636727
30
0
41
1
10
97.8830737613206
20
7.00872050957554
30
0
41
1
10
97.9135291950528
20
6.9261635647411
30
0
41
1
10
97.9895553045911
20
6.71968934470331
30
0
41
1
10
98.0650261208373
20
6.51281200697861
30
0
41
1
10
98.1850191527969
20
6.18128902856165
30
0
41
1
10
98.2446365251964
20
6.01526836455392
30
0
41
1
10
98.3629794920777
20
5.68267273631454
30
0
41
1
10
98.421706552809
20
5.51609833959006
30
0
41
1
10
98.5380209870361
20
5.18231479678985
30
0
41
1
10
98.595610342462
20
5.01510623052255
30
0
41
1
10
98.6808219516813
20
4.76370588187805
30
0
41
1
10
98.7090288775031
20
4.67980727261417
30
0
41
1
10
98.7649723327529
20
4.5117857689774
30
0
41
1
10
98.7927150750605
20
4.42764146949438
30
0
41
1
10
98.8746993165747
20
4.17604393617503
30
0
41
1
10
98.9278459292477
20
4.00902578568792
30
0
41
1
10
99.0301478839198
20
3.67614434790764
30
0
41
1
10
99.0793099781131
20
3.51028213130019
30
0
41
1
10
99.1721489780373
20
3.17936933798185
30
0
41
1
10
99.2158337548088
20
3.0143194827221
30
0
41
1
10
99.2954674069841
20
2.68458561346995
30
0
41
1
10
99.3314199015256
20
2.51990027614431
30
0
41
1
10
99.3695204617233
20
2.31392994992942
30
0
41
1
10
99.3768025886753
20
2.27269134702982
30
0
41
1
10
99.3905887550495
20
2.1903747139157
30
0
41
1
10
99.4100717178762
20
2.06733041484219
30
0
41
1
10
99.4257559565629
20
1.94559458322385
30
0
41
1
10
99.4515478849981
20
1.70393471442031
30
0
41
1
10
99.461252252773
20
1.54523552176093
30
0
41
1
10
99.4638589574974
20
1.23321338724196
30
0
41
1
10
99.4567459549111
20
1.07989299105282
30
0
41
1
10
99.437413273626
20
0.892102108810263
30
0
41
1
10
99.4330226355376
20
0.854685257875758
30
0
41
1
10
99.4232615411539
20
0.780501320654082
30
0
41
1
10
99.4071827663346
20
0.670406413813851
30
0
41
1
10
99.3870412139546
20
0.563811102606365
30
0
41
1
10
99.3420160760276
20
0.355174206343719
30
0
41
1
10
99.3057025216459
20
0.222146121096301
30
0
41
1
10
99.2237515732853
20
-0.0322536529104411
30
0
41
1
10
99.1781211167895
20
-0.153628779726518
30
0
41
1
10
99.1167693945366
20
-0.298170778921701
30
0
41
1
10
99.1042678862888
20
-0.326748586332428
30
0
41
1
10
99.0789234922335
20
-0.383039110763462
30
0
41
1
10
99.0404319546816
20
-0.466098597527321
30
0
41
1
10
99.0006627321429
20
-0.545109879644286
30
0
41
1
10
98.9197291312585
20
-0.697896022205185
30
0
41
1
10
98.8639315897676
20
-0.792786100319319
30
0
41
1
10
98.7497339018669
20
-0.969092477004523
30
0
41
1
10
98.6913260617162
20
-1.05050627086291
30
0
41
1
10
98.6170403729834
20
-1.14386273555746
30
0
41
1
10
98.6021184967469
20
-1.16211250257032
30
0
41
1
10
98.5721508012977
20
-1.19776542367995
30
0
41
1
10
98.5571006656802
20
-1.21517216202849
30
0
41
1
10
98.5119712962626
20
-1.26589717007678
30
0
41
1
10
98.4818481392415
20
-1.29780081845089
30
0
41
1
10
98.3914150533045
20
-1.38790041769164
30
0
41
1
10
98.3310459992997
20
-1.44049657752114
30
0
41
1
10
98.2102569224121
20
-1.53112038331969
30
0
41
1
10
98.149835023145
20
-1.56914654964328
30
0
41
1
10
98.0289215600386
20
-1.63064392471091
30
0
41
1
10
97.9684291393865
20
-1.65411516729014
30
0
41
1
10
97.8927066898303
20
-1.67415875578433
30
0
41
1
10
97.8775545881711
20
-1.67770093454237
30
0
41
1
10
97.8473770635026
20
-1.68382279748519
30
0
41
1
10
97.8022481248498
20
-1.69157668190422
30
0
41
1
10
97.7575165295588
20
-1.69509104382243
30
0
41
1
10
97.6685441141639
20
-1.6965619369881
30
0
41
1
10
97.5512227077014
20
-1.6837210807831
30
0
41
1
10
97.3785499187445
20
-1.62084063504855
30
0
41
1
10
97.2652360750149
20
-1.54977291864915
30
0
41
1
10
97.1807735693414
20
-1.48529792593013
30
0
41
1
10
97.1528030913192
20
-1.46201369248706
30
0
41
1
10
97.0972646985073
20
-1.411934805214
30
0
41
1
10
97.0696859568168
20
-1.38513190151278
30
0
41
1
10
97.0422827744712
20
-1.3565688547715
30
0
0
SPLINE
5
CB
100
AcDbEntity
8
1
62
256
6
ByLayer
370
18
48
1
60
0
100
AcDbSpline
70
4
71
3
72
16
73
12
40
0
40
0
40
0
40
0
40
0.238928802046681
40
0.238928802046681
40
0.429196601535011
40
0.429196601535011
40
0.524330501279176
40
0.524330501279176
40
0.619464401023341
40
0.619464401023341
40
1
40
1
40
1
40
1
41
1
10
90.4453597632677
20
9.49882419139021
30
0
41
1
10
90.970665830665
20
9.4989161828301
30
0
41
1
10
91.4959687790765
20
9.49324754226882
30
0
41
1
10
92.4393977281889
20
9.47277836891837
30
0
41
1
10
92.857563439969
20
9.46005947971744
30
0
41
1
10
93.4846382639855
20
9.43542348564557
30
0
41
1
10
93.6936192581643
20
9.42627829730779
30
0
41
1
10
94.111626842113
20
9.40615368924304
30
0
41
1
10
94.3206864148823
20
9.39518722731162
30
0
41
1
10
95.3663980382685
20
9.3359294907653
30
0
41
1
10
96.2040250444645
20
9.27432610288321
30
0
41
1
10
97.0422827744786
20
9.19835016567708
30
0
0
SPLINE
5
CC
100
AcDbEntity
8
1
62
256
6
ByLayer
370
18
48
1
60
0
100
AcDbSpline
70
4
71
3
72
40
73
36
40
0
40
0
40
0
40
0
40
0.0346159412456225
40
0.0346159412456225
40
0.103571945442358
40
0.103571945442358
40
0.138049947540725
40
0.138049947540725
40
0.172527949639093
40
0.172527949639093
40
0.241483953835833
40
0.241483953835833
40
0.310439958032573
40
0.310439958032573
40
0.379395962229313
40
0.379395962229313
40
0.448351966426053
40
0.448351966426053
40
0.482829968524425
40
0.482829968524425
40
0.517307970622798
40
0.517307970622798
40
0.586263974819542
40
0.586263974819542
40
0.724175983213035
40
0.724175983213035
40
0.758653985311407
40
0.758653985311407
40
0.793131987409778
40
0.793131987409778
40
0.827609989508149
40
0.827609989508149
40
0.86208799160652
40
0.86208799160652
40
1
40
1
40
1
40
1
41
1
10
71.3730893506855
20
6.77730125019465
30
0
41
1
10
71.5535586038919
20
6.82019552217153
30
0
41
1
10
71.7340413101001
20
6.86262088944017
30
0
41
1
10
72.2740801008699
20
6.98817826472563
30
0
41
1
10
72.6335232169136
20
7.06990693178014
30
0
41
1
10
73.1723824017511
20
7.18973259418968
30
0
41
1
10
73.3519495045603
20
7.22922670433744
30
0
41
1
10
73.7110278831377
20
7.30722455169482
30
0
41
1
10
73.8905509464672
20
7.345707168285
30
0
41
1
10
74.4292467022686
20
7.45931516786251
30
0
41
1
10
74.7884926754181
20
7.53269765083758
30
0
41
1
10
75.5070890126863
20
7.67501489202209
30
0
41
1
10
75.8664452826478
20
7.74393900387324
30
0
41
1
10
76.5852202863522
20
7.87741296790475
30
0
41
1
10
76.9446379872552
20
7.94196459389033
30
0
41
1
10
77.6634676837514
20
8.06676479459438
30
0
41
1
10
78.0229547727898
20
8.12702681550755
30
0
41
1
10
78.561754769166
20
8.21413166451842
30
0
41
1
10
78.7412920949828
20
8.24261369605162
30
0
41
1
10
79.1003776073876
20
8.29829809988448
30
0
41
1
10
79.2799329746159
20
8.32549287812185
30
0
41
1
10
79.8186131820854
20
8.4051834357447
30
0
41
1
10
80.1777450026369
20
8.45579583447199
30
0
41
1
10
81.2550472274734
20
8.60031441411181
30
0
41
1
10
81.9731487410087
20
8.68690035372526
30
0
41
1
10
82.8703323514725
20
8.78315574890837
30
0
41
1
10
83.0497468721145
20
8.80180591285594
30
0
41
1
10
83.4085241202366
20
8.83790112441017
30
0
41
1
10
83.5878777835991
20
8.85535255500187
30
0
41
1
10
83.9466117278787
20
8.8889807577805
30
0
41
1
10
84.1260094185735
20
8.90514479893079
30
0
41
1
10
84.4849178844286
20
8.93614529688483
30
0
41
1
10
84.6644193153551
20
8.95098893679381
30
0
41
1
10
85.5621176457796
20
9.02197468689374
30
0
41
1
10
86.2808761026048
20
9.0684579600792
30
0
41
1
10
86.9999999999999
20
9.10476141113759
30
0
0
SPLINE
5
CD
100
AcDbEntity
8
1
62
256
6
ByLayer
370
18
48
1
60
0
100
AcDbSpline
70
4
71
3
72
65
73
61
40
0
40
0
40
0
40
0
40
0.0325945237266509
40
0.0325945237266509
40
0.0651890474533019
40
0.0651890474533019
40
0.0814863093166284
40
0.0814863093166284
40
0.097783571179955
40
0.13037809490661
40
0.13037809490661
40
0.195567142359923
40
0.195567142359923
40
0.228161666086579
40
0.228161666086579
40
0.260756189813235
40
0.260756189813235
40
0.325945237266548
40
0.325945237266548
40
0.358539760993205
40
0.358539760993205
40
0.391134284719862
40
0.391134284719862
40
0.456323332173175
40
0.456323332173175
40
0.488917855899832
40
0.488917855899832
40
0.505215117763161
40
0.505215117763161
40
0.521512379626489
40
0.521512379626489
40
0.586701427079805
40
0.586701427079805
40
0.619295950806463
40
0.619295950806463
40
0.635593212669791
40
0.635593212669791
40
0.65189047453312
40
0.65189047453312
40
0.717079521986436
40
0.717079521986436
40
0.782268569439752
40
0.782268569439752
40
0.798565831303081
40
0.798565831303081
40
0.814863093166409
40
0.847457616893066
40
0.847457616893066
40
0.863754878756394
40
0.863754878756394
40
0.880052140619722
40
0.912646664346377
40
0.912646664346377
40
0.928943926209704
40
0.928943926209704
40
0.945241188073031
40
0.945241188073031
40
0.977835711799687
40
0.977835711799687
40
1
40
1
40
1
40
1
41
1
10
87.0000000000001
20
2.09318570372076
30
0
41
1
10
86.6189770237137
20
2.22368438377586
30
0
41
1
10
86.2381641534399
20
2.35345255038178
30
0
41
1
10
85.4769994808308
20
2.61164042758961
30
0
41
1
10
85.0966572651968
20
2.74008630740295
30
0
41
1
10
84.5264798410624
20
2.93169911264045
30
0
41
1
10
84.3364660140355
20
2.99536420462286
30
0
41
1
10
83.9564247599875
20
3.12200024214624
30
0
41
1
10
83.3863683287822
20
3.31098460175528
30
0
41
1
10
82.8163496787726
20
3.4971389523742
30
0
41
1
10
81.6764011979124
20
3.86580440544529
30
0
41
1
10
80.9165496377922
20
4.10672400838419
30
0
41
1
10
79.7771602198409
20
4.46130659635443
30
0
41
1
10
79.3974803555556
20
4.5784901952191
30
0
41
1
10
78.6377294332493
20
4.80927166981033
30
0
41
1
10
78.2576869194762
20
4.92294612941367
30
0
41
1
10
77.1171094444322
20
5.25897516978967
30
0
41
1
10
76.3561143075884
20
5.47632215677478
30
0
41
1
10
75.213906794428
20
5.79274390052922
30
0
41
1
10
74.832993779579
20
5.89669352859246
30
0
41
1
10
74.0716083266338
20
6.10090455154088
30
0
41
1
10
73.690926906384
20
6.2008961750939
30
0
41
1
10
72.5487576632113
20
6.49426493704624
30
0
41
1
10
71.7872270308066
20
6.6812319084635
30
0
41
1
10
70.6449858373541
20
6.94916253272925
30
0
41
1
10
70.2642517891105
20
7.03638909063002
30
0
41
1
10
69.6931907437491
20
7.16410835459558
30
0
41
1
10
69.5028501453418
20
7.20617198288201
30
0
41
1
10
69.1221100162378
20
7.28912431343508
30
0
41
1
10
68.9316763137077
20
7.32999185465712
30
0
41
1
10
67.9797281907299
20
7.53107902627599
30
0
41
1
10
67.21861860565
20
7.6817636740214
30
0
41
1
10
66.0777836697575
20
7.89299240766209
30
0
41
1
10
65.6976450614409
20
7.96093252065947
30
0
41
1
10
65.1276767583659
20
8.05916262301182
30
0
41
1
10
64.9377268796292
20
8.09129171803585
30
0
41
1
10
64.557909629773
20
8.15431888231478
30
0
41
1
10
64.3680457627354
20
8.1852206729051
30
0
41
1
10
63.4186972621494
20
8.33633259401367
30
0
41
1
10
62.6589391825639
20
8.44615452559557
30
0
41
1
10
61.1390748850199
20
8.64422219920237
30
0
41
1
10
60.3789757831248
20
8.73247758242525
30
0
41
1
10
59.4288009095999
20
8.82925652704125
30
0
41
1
10
59.2387613376953
20
8.84793067323301
30
0
41
1
10
58.858561940517
20
8.88382515578539
30
0
41
1
10
58.2880766779591
20
8.93548440829142
30
0
41
1
10
57.7170566974518
20
8.9806485984023
30
0
41
1
10
57.145702077974
20
9.02151359373781
30
0
41
1
10
56.9551731899214
20
9.03441954710419
30
0
41
1
10
56.5741978562639
20
9.05878664540748
30
0
41
1
10
56.0028059837738
20
9.09317320908133
30
0
41
1
10
55.4316522581413
20
9.12108327231005
30
0
41
1
10
54.8606849273295
20
9.14465728510683
30
0
41
1
10
54.6703956344239
20
9.15179272399908
30
0
41
1
10
54.2898702558323
20
9.16460603649003
30
0
41
1
10
54.099629697214
20
9.17028166264939
30
0
41
1
10
53.5288048692315
20
9.18507906050496
30
0
41
1
10
53.148144367753
20
9.19198343246504
30
0
41
1
10
52.5084782699019
20
9.19865954643774
30
0
41
1
10
52.2495222432335
20
9.20000660620161
30
0
41
1
10
51.9905270465976
20
9.20000025758307
30
0
0
SPLINE
5
CE
100
AcDbEntity
8
1
62
256
6
ByLayer
370
18
48
1
60
0
100
AcDbSpline
70
4
71
3
72
107
73
103
40
0
40
0
40
0
40
0
40
0.0624999999999935
40
0.0624999999999935
40
0.0937499999999902
40
0.0937499999999902
40
0.124999999999987
40
0.124999999999987
40
0.156249999999984
40
0.156249999999984
40
0.18749999999998
40
0.18749999999998
40
0.19531249999998
40
0.19531249999998
40
0.20312499999998
40
0.20312499999998
40
0.218749999999981
40
0.218749999999981
40
0.249999999999981
40
0.249999999999981
40
0.281249999999982
40
0.281249999999982
40
0.296874999999983
40
0.296874999999983
40
0.304687499999983
40
0.304687499999983
40
0.312499999999983
40
0.312499999999983
40
0.343749999999985
40
0.343749999999985
40
0.374999999999986
40
0.374999999999986
40
0.378906249999986
40
0.378906249999986
40
0.382812499999986
40
0.382812499999986
40
0.390624999999986
40
0.390624999999986
40
0.406249999999985
40
0.406249999999985
40
0.421874999999985
40
0.421874999999985
40
0.437499999999984
40
0.437499999999984
40
0.445312499999984
40
0.445312499999984
40
0.453124999999984
40
0.453124999999984
40
0.468749999999984
40
0.468749999999984
40
0.499999999999983
40
0.499999999999983
40
0.503906249999983
40
0.503906249999983
40
0.507812499999983
40
0.515624999999982
40
0.515624999999982
40
0.531249999999982
40
0.531249999999982
40
0.546874999999982
40
0.546874999999982
40
0.554687499999982
40
0.554687499999982
40
0.558593749999982
40
0.558593749999982
40
0.562499999999982
40
0.562499999999982
40
0.59374999999998
40
0.59374999999998
40
0.60937499999998
40
0.60937499999998
40
0.61718749999998
40
0.62109374999998
40
0.62109374999998
40
0.62499999999998
40
0.62499999999998
40
0.656249999999983
40
0.656249999999983
40
0.687499999999985
40
0.687499999999985
40
0.718749999999988
40
0.718749999999988
40
0.726562499999988
40
0.726562499999988
40
0.734374999999989
40
0.74999999999999
40
0.74999999999999
40
0.781249999999992
40
0.781249999999992
40
0.812499999999995
40
0.812499999999995
40
0.843749999999996
40
0.843749999999996
40
0.874999999999997
40
0.874999999999997
40
0.906249999999997
40
0.906249999999997
40
0.937499999999998
40
0.937499999999998
40
0.968749999999999
40
0.968749999999999
40
1
40
1
40
1
40
1
41
1
10
10
20
8.89317639324605
30
0
41
1
10
9.59083554660214
20
8.99952600794737
30
0
41
1
10
9.18845659987022
20
9.09751247126457
30
0
41
1
10
8.59501617189892
20
9.22878140004889
30
0
41
1
10
8.39889265384392
20
9.2699064567563
30
0
41
1
10
8.01004837710914
20
9.34617363919347
30
0
41
1
10
7.8173273044759
20
9.38131751920847
30
0
41
1
10
7.43534038672684
20
9.44472620945155
30
0
41
1
10
7.24607405238049
20
9.47299383855454
30
0
41
1
10
6.87109083830379
20
9.52150930054057
30
0
41
1
10
6.68537315009871
20
9.5417618502359
30
0
41
1
10
6.45554118619305
20
9.56113112874314
30
0
41
1
10
6.4096907371985
20
9.56470657459741
30
0
41
1
10
6.31822499070751
20
9.57123235567323
30
0
41
1
10
6.27256953946423
20
9.5741849127927
30
0
41
1
10
6.13626737199797
20
9.58204193315825
30
0
41
1
10
6.04640557632112
20
9.58594200825488
30
0
41
1
10
5.77989957017158
20
9.59336351752782
30
0
41
1
10
5.60632669230685
20
9.59262327016444
30
0
41
1
10
5.26786353811926
20
9.57801079446219
30
0
41
1
10
5.10296853873629
20
9.56414927510608
30
0
41
1
10
4.86273257686855
20
9.53170010082573
30
0
41
1
10
4.78384118077403
20
9.51893476504748
30
0
41
1
10
4.66739351241549
20
9.4965626591804
30
0
41
1
10
4.62885532618606
20
9.48855772290719
30
0
41
1
10
4.55279818444865
20
9.47150067907023
30
0
41
1
10
4.51524235085836
20
9.46244268157085
30
0
41
1
10
4.32986619159794
20
9.41441905594607
30
0
41
1
10
4.18922228288909
20
9.36729507760654
30
0
41
1
10
3.92473015744844
20
9.25281431154048
30
0
41
1
10
3.80086045174068
20
9.18548754608176
30
0
41
1
10
3.67241085123891
20
9.09594822872776
30
0
41
1
10
3.65829114512673
20
9.08580640572083
30
0
41
1
10
3.63036376376272
20
9.0651256022222
30
0
41
1
10
3.61654316634497
20
9.0545763340385
30
0
41
1
10
3.57566056759566
20
9.02239414217686
30
0
41
1
10
3.54921134889446
20
9.00025643587776
30
0
41
1
10
3.47231858742782
20
8.93174226184027
30
0
41
1
10
3.42432646212296
20
8.88326755079302
30
0
41
1
10
3.33515723427959
20
8.78038105047804
30
0
41
1
10
3.29397913652696
20
8.72597016709688
30
0
41
1
10
3.21883505032122
20
8.61077216964401
30
0
41
1
10
3.18486753126211
20
8.54998641830463
30
0
41
1
10
3.13974300995636
20
8.45359592703335
30
0
41
1
10
3.12564236821564
20
8.42050285536291
30
0
41
1
10
3.09972220880553
20
8.35317282046853
30
0
41
1
10
3.08787705349931
20
8.31889815038485
30
0
41
1
10
3.05567814029703
20
8.21424130787793
30
0
41
1
10
3.03865657229414
20
8.1420281399021
30
0
41
1
10
3.00101553364144
20
7.91796687631231
30
0
41
1
10
2.99374058520706
20
7.75873159629089
30
0
41
1
10
3.00686948558194
20
7.56778402532996
30
0
41
1
10
3.00862931146278
20
7.54636977921388
30
0
41
1
10
3.0127331390423
20
7.50339232503001
30
0
41
1
10
3.01975939486749
20
7.43872994658824
30
0
41
1
10
3.02935795511132
20
7.37348901241739
30
0
41
1
10
3.05189612262626
20
7.24225990553134
30
0
41
1
10
3.0713718933595
20
7.15377821869978
30
0
41
1
10
3.11887059823397
20
6.97493325368274
30
0
41
1
10
3.14689448153555
20
6.88456980698635
30
0
41
1
10
3.19517470161878
20
6.74767998540321
30
0
41
1
10
3.21230976795428
20
6.70182579162082
30
0
41
1
10
3.23956161358154
20
6.63271528792473
30
0
41
1
10
3.24889976312448
20
6.60963560411435
30
0
41
1
10
3.26799268764091
20
6.56359553216495
30
0
41
1
10
3.27775836457909
20
6.54060717077857
30
0
41
1
10
3.36757501105652
20
6.33399257797885
30
0
41
1
10
3.46101591757147
20
6.15231954937548
30
0
41
1
10
3.6185581672998
20
5.88254246383437
30
0
41
1
10
3.67398555130839
20
5.79307428978464
30
0
41
1
10
3.76123217824704
20
5.65954169774551
30
0
41
1
10
3.8058827963406
20
5.59294292431468
30
0
41
1
10
3.85203202343058
20
5.52659310914967
30
0
41
1
10
3.88312691333272
20
5.48241500685151
30
0
41
1
10
3.89884485763795
20
5.46034542202275
30
0
41
1
10
4.04127379969486
20
5.26264227133058
30
0
41
1
10
4.17552484105448
20
5.09226194255467
30
0
41
1
10
4.45657676373264
20
4.76037301199671
30
0
41
1
10
4.6033954825096
20
4.59887654247228
30
0
41
1
10
4.90769215037346
20
4.28347715335369
30
0
41
1
10
5.06517879331676
20
4.12958015291107
30
0
41
1
10
5.26777840070469
20
3.9413211587474
30
0
41
1
10
5.30861685031041
20
3.9038482203039
30
0
41
1
10
5.39055150388964
20
3.82956700814455
30
0
41
1
10
5.51392829627136
20
3.71905877993925
30
0
41
1
10
5.63865587845024
20
3.61114672577634
30
0
41
1
10
5.88973709230407
20
3.39844462702183
30
0
41
1
10
6.05928791180054
20
3.26079564506486
30
0
41
1
10
6.40192575932298
20
2.99230074148451
30
0
41
1
10
6.57501424365853
20
2.86145810450708
30
0
41
1
10
6.92407671151219
20
2.6053761781487
30
0
41
1
10
7.10005114541477
20
2.48013822524911
30
0
41
1
10
7.45434205846072
20
2.23429034098774
30
0
41
1
10
7.63265837791243
20
2.11368061633777
30
0
41
1
10
7.99119386782104
20
1.87631790230827
30
0
41
1
10
8.17141252334167
20
1.75956449233237
30
0
41
1
10
8.53342881195255
20
1.52935219253229
30
0
41
1
10
8.71522578765024
20
1.41589264102643
30
0
41
1
10
9.08020856853534
20
1.19193260445084
30
0
41
1
10
9.2634027988415
20
1.08142618866694
30
0
41
1
10
9.63110679186167
20
0.863305194619016
30
0
41
1
10
9.81533608902967
20
0.755856598589446
30
0
41
1
10
10
20
0.650091630620722
30
0
0
SPLINE
5
CF
100
AcDbEntity
8
1
62
256
6
ByLayer
370
18
48
1
60
0
100
AcDbSpline
70
4
71
3
72
14
73
10
40
0
40
0
40
0
40
0
40
0.25
40
0.25
40
0.5
40
0.5
40
0.75
40
0.75
40
1
40
1
40
1
40
1
41
1
10
13.944526604193
20
-1.0383843842159
30
0
41
1
10
13.607891573844
20
-0.91642124046075
30
0
41
1
10
13.2738021517407
20
-0.788472873828738
30
0
41
1
10
12.6095001028929
20
-0.523410275085638
30
0
41
1
10
12.2792808651763
20
-0.386311662278928
30
0
41
1
10
11.62212459809
20
-0.104313304102646
30
0
41
1
10
11.2951859137244
20
0.0405822810604661
30
0
41
1
10
10.6447661263364
20
0.33860769900437
30
0
41
1
10
10.3212876286951
20
0.491743271666564
30
0
41
1
10
10
20
0.650091630620722
30
0
0
SPLINE
5
D0
100
AcDbEntity
8
1
62
256
6
ByLayer
370
18
48
1
60
0
100
AcDbSpline
70
4
71
4
72
16
73
11
40
0
40
0
40
0
40
0
40
0
40
0.345114102483049
40
0.345114102483049
40
0.345114102483049
40
0.838492959168894
40
0.838492959168894
40
0.838492959168894
40
1
40
1
40
1
40
1
40
1
41
0.996827628610383
10
18.0694929669956
20
8.62072522967515
30
0
41
0.994721668755302
10
17.9465540361696
20
7.74707667824096
30
0
41
0.994145119994475
10
17.7262276337071
20
6.67900782086636
30
0
41
1
10
17.4181211565787
20
5.52858716963453
30
0
41
1
10
16.621093195976
20
2.95847490135947
30
0
41
0.988033871712585
10
16.0070097855943
20
1.30093130131695
30
0
41
1
10
15.3929263752125
20
0.082573159984122
30
0
41
1
10
14.7704257738447
20
-0.825420468305424
30
0
41
0.998717741738181
10
14.6217009439045
20
-1.00815030773465
30
0
41
0.997412462824594
10
14.4840669896255
20
-1.13585882254076
30
0
41
0.996518980700705
10
14.3616500577231
20
-1.20386083793657
30
0
0
SPLINE
5
D1
100
AcDbEntity
8
1
62
256
6
ByLayer
370
18
48
1
60
0
100
AcDbSpline
70
4
71
3
72
25
73
21
40
0
40
0
40
0
40
0
40
0.125
40
0.125
40
0.25
40
0.25
40
0.375
40
0.375
40
0.406249999999999
40
0.406249999999999
40
0.437499999999998
40
0.5
40
0.5
40
0.625
40
0.625
40
0.75
40
0.75
40
0.875
40
0.875
40
1
40
1
40
1
40
1
41
1
10
10
20
8.89317639324605
30
0
41
1
10
10.3384089249044
20
8.91200822721831
30
0
41
1
10
10.6780247159693
20
8.92565958220868
30
0
41
1
10
11.359481473813
20
8.9450339177516
30
0
41
1
10
11.7013239153993
20
8.95074261722127
30
0
41
1
10
12.3871113099236
20
8.95535270623506
30
0
41
1
10
12.7310574113304
20
8.95424520273076
30
0
41
1
10
13.1622422886134
20
8.94872174817064
30
0
41
1
10
13.2485901042406
20
8.94740690516653
30
0
41
1
10
13.4207387739706
20
8.94436858055977
30
0
41
1
10
13.6783747137916
20
8.93919541146522
30
0
41
1
10
13.934303047355
20
8.9321809229578
30
0
41
1
10
14.4440218771836
20
8.91566541576015
30
0
41
1
10
14.7809829733578
20
8.90134619373953
30
0
41
1
10
15.4499430341399
20
8.86565610558782
30
0
41
1
10
15.7819410616647
20
8.84427627887405
30
0
41
1
10
16.4417555643335
20
8.79391105158098
30
0
41
1
10
16.7695732735561
20
8.7649202526672
30
0
41
1
10
17.4218501114673
20
8.69890408986143
30
0
41
1
10
17.7463127526387
20
8.66187953528211
30
0
41
1
10
18.0694929669955
20
8.6207252296752
30
0
0
SPLINE
5
D2
100
AcDbEntity
8
SK1
62
256
6
ByLayer
370
18
48
1
60
0
100
AcDbSpline
70
4
71
3
72
34
73
30
40
0
40
0
40
0
40
0
40
0.125000000000001
40
0.125000000000001
40
0.250000000000002
40
0.250000000000002
40
0.375000000000003
40
0.375000000000003
40
0.437500000000004
40
0.437500000000004
40
0.500000000000005
40
0.500000000000005
40
0.625000000000005
40
0.625000000000005
40
0.656250000000005
40
0.656250000000005
40
0.687500000000005
40
0.687500000000005
40
0.750000000000005
40
0.750000000000005
40
0.812500000000005
40
0.812500000000005
40
0.843750000000004
40
0.843750000000004
40
0.875000000000004
40
0.875000000000004
40
0.937500000000002
40
0.937500000000002
40
1
40
1
40
1
40
1
41
1
10
-52.5003287739481
20
-3.62059097355461
30
0
41
1
10
-52.4791023107682
20
-3.69580949914169
30
0
41
1
10
-52.456173666836
20
-3.7701328086529
30
0
41
1
10
-52.4062202513365
20
-3.91675156331095
30
0
41
1
10
-52.3792000011184
20
-3.98904864238443
30
0
41
1
10
-52.3201140822394
20
-4.13128549106548
30
0
41
1
10
-52.2880578558644
20
-4.20122868864783
30
0
41
1
10
-52.2351342019209
20
-4.30400502578081
30
0
41
1
10
-52.2166821098451
20
-4.33790583931534
30
0
41
1
10
-52.1779019271959
20
-4.40490146665846
30
0
41
1
10
-52.1575385793023
20
-4.43805147836142
30
0
41
1
10
-52.093380094742
20
-4.53574061166557
30
0
41
1
10
-52.0468993353633
20
-4.59806703723407
30
0
41
1
10
-51.9825062567773
20
-4.67139689881651
30
0
41
1
10
-51.9693089720826
20
-4.68583123022111
30
0
41
1
10
-51.9422155209833
20
-4.71419608571787
30
0
41
1
10
-51.9282893124732
20
-4.72815494045494
30
0
41
1
10
-51.8855899983215
20
-4.7689776324583
30
0
41
1
10
-51.8559681934236
20
-4.79473829352929
30
0
41
1
10
-51.7940523105194
20
-4.84293492664423
30
0
41
1
10
-51.7617609635258
20
-4.86537421079322
30
0
41
1
10
-51.710934585781
20
-4.89608972183805
30
0
41
1
10
-51.6935927882519
20
-4.9058359097269
30
0
41
1
10
-51.6580214478988
20
-4.92423937407065
30
0
41
1
10
-51.6397301965266
20
-4.93292309713041
30
0
41
1
10
-51.583780125377
20
-4.9569645106269
30
0
41
1
10
-51.5455987975117
20
-4.97010157811332
30
0
41
1
10
-51.4673083175319
20
-4.99008231274206
30
0
41
1
10
-51.4272005227822
20
-4.99693051090844
30
0
41
1
10
-51.3860020460814
20
-5.00022676868039
30
0
0
SPLINE
5
D3
100
AcDbEntity
8
SK1
62
256
6
ByLayer
370
18
48
1
60
0
100
AcDbSpline
70
4
71
3
72
34
73
30
40
0
40
0
40
0
40
0
40
0.0625000000000001
40
0.0625000000000001
40
0.125
40
0.125
40
0.1875
40
0.1875
40
0.25
40
0.25
40
0.28125
40
0.28125
40
0.312499999999999
40
0.312499999999999
40
0.374999999999998
40
0.374999999999998
40
0.499999999999995
40
0.499999999999995
40
0.531249999999995
40
0.531249999999995
40
0.562499999999995
40
0.562499999999995
40
0.624999999999996
40
0.624999999999996
40
0.749999999999997
40
0.749999999999997
40
0.874999999999999
40
0.874999999999999
40
1
40
1
40
1
40
1
41
1
10
-51.3860020460814
20
5.00022676868039
30
0
41
1
10
-51.4271597094618
20
4.99693377635018
30
0
41
1
10
-51.4672462826171
20
4.9900941818546
30
0
41
1
10
-51.5455242136708
20
4.97012456894885
30
0
41
1
10
-51.5837142752675
20
4.95699014998107
30
0
41
1
10
-51.658355568598
20
4.92492253812571
30
0
41
1
10
-51.6938849422845
20
4.90639169663621
30
0
41
1
10
-51.7618166387264
20
4.86534206803361
30
0
41
1
10
-51.7942559781117
20
4.84279931421437
30
0
41
1
10
-51.8409760500773
20
4.80639681369991
30
0
41
1
10
-51.8562248159031
20
4.79382938651
30
0
41
1
10
-51.8861176712827
20
4.76788296468004
30
0
41
1
10
-51.9007110618413
20
4.75454548912128
30
0
41
1
10
-51.9432559764382
20
4.71379512925466
30
0
41
1
10
-51.9701014783725
20
4.68554212638855
30
0
41
1
10
-52.0468805903312
20
4.59805033156974
30
0
41
1
10
-52.0930959781036
20
4.5361050376323
30
0
41
1
10
-52.146279276313
20
4.45521167958731
30
0
41
1
10
-52.1566830990007
20
4.43885754119347
30
0
41
1
10
-52.1770537162702
20
4.4058167491863
30
0
41
1
10
-52.1870311208955
20
4.38911114781021
30
0
41
1
10
-52.2162315231511
20
4.33872068618709
30
0
41
1
10
-52.2347469485042
20
4.30473232112985
30
0
41
1
10
-52.2878314108395
20
4.20171722667834
30
0
41
1
10
-52.3199565384223
20
4.13164670884206
30
0
41
1
10
-52.3791390929746
20
3.98921323503126
30
0
41
1
10
-52.4061866509714
20
3.91684682729945
30
0
41
1
10
-52.4561716481468
20
3.77014208810513
30
0
41
1
10
-52.4791043925606
20
3.69580212206003
30
0
41
1
10
-52.5003287739482
20
3.62059097355464
30
0
0
SPLINE
5
D4
100
AcDbEntity
8
SK1
62
256
6
ByLayer
370
18
48
1
60
0
100
AcDbSpline
70
4
71
3
72
32
73
28
40
0
40
0
40
0
40
0
40
0.124999999999982
40
0.124999999999982
40
0.249999999999963
40
0.249999999999963
40
0.374999999999945
40
0.374999999999945
40
0.406249999999941
40
0.406249999999941
40
0.437499999999938
40
0.499999999999932
40
0.499999999999932
40
0.624999999999931
40
0.624999999999931
40
0.656249999999931
40
0.656249999999931
40
0.68749999999993
40
0.68749999999993
40
0.749999999999941
40
0.749999999999941
40
0.874999999999977
40
0.874999999999977
40
0.906249999999979
40
0.906249999999979
40
0.937499999999981
40
1
40
1
40
1
40
1
41
1
10
-14.0157764695459
20
6.59242894057729
30
0
41
1
10
-14.0458287908144
20
6.6375753796253
30
0
41
1
10
-14.0777095790597
20
6.68135165141678
30
0
41
1
10
-14.1456160664485
20
6.76590887596987
30
0
41
1
10
-14.1816386907667
20
6.80669170869109
30
0
41
1
10
-14.2584995514322
20
6.88489663469755
30
0
41
1
10
-14.2993317458756
20
6.92232243783545
30
0
41
1
10
-14.35399779722
20
6.96665617585003
30
0
41
1
10
-14.3651284778382
20
6.97541075031074
30
0
41
1
10
-14.3876400333972
20
6.9925614515505
30
0
41
1
10
-14.4218166346372
20
7.01777898878851
30
0
41
1
10
-14.4572545898122
20
7.04143848131534
30
0
41
1
10
-14.529923003083
20
7.08656817107874
30
0
41
1
10
-14.5807455844469
20
7.11375097789289
30
0
41
1
10
-14.6477689594914
20
7.14354340177493
30
0
41
1
10
-14.6613494138678
20
7.1492913738704
30
0
41
1
10
-14.6888796972728
20
7.1603468035685
30
0
41
1
10
-14.7028224503024
20
7.16564964334611
30
0
41
1
10
-14.7448319317882
20
7.18073146134719
30
0
41
1
10
-14.7732044950192
20
7.1897362156873
30
0
41
1
10
-14.8594560991353
20
7.21351895535656
30
0
41
1
10
-14.9184624466539
20
7.22508541231923
30
0
41
1
10
-14.9943023139084
20
7.23365556703433
30
0
41
1
10
-15.009604540326
20
7.23507501753883
30
0
41
1
10
-15.0401948935638
20
7.23728819114979
30
0
41
1
10
-15.0861089470591
20
7.23967813447453
30
0
41
1
10
-15.1321084232236
20
7.23928527151031
30
0
41
1
10
-15.1628130403699
20
7.23777548279986
30
0
0
SPLINE
5
D5
100
AcDbEntity
8
SK1
62
256
6
ByLayer
370
18
48
1
60
0
100
AcDbSpline
70
4
71
3
72
24
73
20
40
0
40
0
40
0
40
0
40
0.124999999999998
40
0.124999999999998
40
0.249999999999995
40
0.249999999999995
40
0.374999999999993
40
0.374999999999993
40
0.49999999999999
40
0.49999999999999
40
0.624999999999988
40
0.624999999999988
40
0.749999999999985
40
0.749999999999985
40
0.812499999999989
40
0.812499999999989
40
0.874999999999992
40
0.874999999999992
40
1
40
1
40
1
40
1
41
1
10
-15.1628130403699
20
-7.23777548279986
30
0
41
1
10
-15.1013368482927
20
-7.2407983526281
30
0
41
1
10
-15.0406973758297
20
-7.23880609117487
30
0
41
1
10
-14.920978556398
20
-7.22545942224767
30
0
41
1
10
-14.8618998887329
20
-7.21410077871741
30
0
41
1
10
-14.7452745335612
20
-7.18212437688828
30
0
41
1
10
-14.6895699451789
20
-7.16201960319464
30
0
41
1
10
-14.5827589175342
20
-7.11474711952985
30
0
41
1
10
-14.5316211412475
20
-7.08755690757022
30
0
41
1
10
-14.4334554488588
20
-7.02672282100497
30
0
41
1
10
-14.38751619038
20
-6.99376703919228
30
0
41
1
10
-14.3007925764322
20
-6.92357765523022
30
0
41
1
10
-14.2600161652162
20
-6.88633798514746
30
0
41
1
10
-14.2021759714483
20
-6.82763631844753
30
0
41
1
10
-14.1834523029509
20
-6.80759363972547
30
0
41
1
10
-14.1470479748901
20
-6.76660288333122
30
0
41
1
10
-14.1293429656042
20
-6.74562348347595
30
0
41
1
10
-14.0779142754528
20
-6.68164973874727
30
0
41
1
10
-14.0458764161971
20
-6.63764692539442
30
0
41
1
10
-14.0157764695459
20
-6.59242894057729
30
0
0
SPLINE
5
D6
100
AcDbEntity
8
1
62
256
6
ByLayer
370
13
48
1
60
0
100
AcDbSpline
70
4
71
3
72
82
73
78
40
0
40
0
40
0
40
0
40
0.0312499999999996
40
0.0312499999999996
40
0.0624999999999992
40
0.0624999999999992
40
0.0937499999999988
40
0.0937499999999988
40
0.124999999999998
40
0.124999999999998
40
0.156249999999998
40
0.156249999999998
40
0.164062499999998
40
0.164062499999998
40
0.171874999999998
40
0.171874999999998
40
0.187499999999997
40
0.187499999999997
40
0.218749999999997
40
0.218749999999997
40
0.249999999999997
40
0.249999999999997
40
0.281249999999996
40
0.281249999999996
40
0.312499999999996
40
0.312499999999996
40
0.343749999999995
40
0.343749999999995
40
0.374999999999995
40
0.374999999999995
40
0.406249999999995
40
0.406249999999995
40
0.437499999999994
40
0.437499999999994
40
0.445312499999994
40
0.445312499999994
40
0.453124999999995
40
0.453124999999995
40
0.468749999999994
40
0.468749999999994
40
0.499999999999994
40
0.499999999999994
40
0.531249999999994
40
0.531249999999994
40
0.562499999999993
40
0.562499999999993
40
0.593749999999993
40
0.593749999999993
40
0.624999999999993
40
0.624999999999993
40
0.656249999999992
40
0.656249999999992
40
0.687499999999992
40
0.687499999999992
40
0.718749999999992
40
0.718749999999992
40
0.726562499999992
40
0.726562499999992
40
0.734374999999992
40
0.734374999999992
40
0.749999999999992
40
0.749999999999992
40
0.781249999999993
40
0.781249999999993
40
0.812499999999994
40
0.812499999999994
40
0.843749999999995
40
0.843749999999995
40
0.874999999999996
40
0.874999999999996
40
0.906249999999997
40
0.906249999999997
40
0.937499999999998
40
0.937499999999998
40
0.968749999999999
40
0.968749999999999
40
1
40
1
40
1
40
1
41
1
10
87
20
7.77789047912049
30
0
41
1
10
87.0942812381073
20
7.44104593674879
30
0
41
1
10
87.1885624762147
20
7.05658528360087
30
0
41
1
10
87.3771249524294
20
6.21034690537402
30
0
41
1
10
87.4714061905366
20
5.74869837988379
30
0
41
1
10
87.6599686667514
20
4.77402094397686
30
0
41
1
10
87.7542499048587
20
4.26116010528133
30
0
41
1
10
87.9428123810734
20
3.21326460851179
30
0
41
1
10
88.0370936191807
20
2.67837856793636
30
0
41
1
10
88.2256560953954
20
1.61393775057044
30
0
41
1
10
88.3199373335027
20
1.0844721512527
30
0
41
1
10
88.4377888811369
20
0.439791218465359
30
0
41
1
10
88.4613591906638
20
0.311696544211145
30
0
41
1
10
88.5084998097175
20
0.0574664434823831
30
0
41
1
10
88.5320701192443
20
-0.0681801119754368
30
0
41
1
10
88.6027810478248
20
-0.449690698288919
30
0
41
1
10
88.6499216668784
20
-0.707948528789501
30
0
41
1
10
88.7913435240395
20
-1.49098477673203
30
0
41
1
10
88.8856247621468
20
-2.02420997836029
30
0
41
1
10
89.0741872383616
20
-3.08953472707469
30
0
41
1
10
89.1684684764688
20
-3.62152780011925
30
0
41
1
10
89.3570309526835
20
-4.65612513007119
30
0
41
1
10
89.4513121907908
20
-5.15857077138736
30
0
41
1
10
89.6398746670054
20
-6.10522314307929
30
0
41
1
10
89.7341559051129
20
-6.54926615542612
30
0
41
1
10
89.9227183813275
20
-7.3547179921872
30
0
41
1
10
90.0169996194348
20
-7.71601613638768
30
0
41
1
10
90.2055620956496
20
-8.34037262228631
30
0
41
1
10
90.2998433337568
20
-8.6034097232353
30
0
41
1
10
90.4884058099715
20
-9.02651230678535
30
0
41
1
10
90.5826870480789
20
-9.18664122344822
30
0
41
1
10
90.7712495242936
20
-9.40937869798211
30
0
41
1
10
90.8655307624009
20
-9.47209824052365
30
0
41
1
10
90.983382310035
20
-9.49758244445812
30
0
41
1
10
91.006952619562
20
-9.50004662532447
30
0
41
1
10
91.0540932386156
20
-9.49995203956431
30
0
41
1
10
91.0776635481424
20
-9.49739097388138
30
0
41
1
10
91.148374476723
20
-9.48180307734071
30
0
41
1
10
91.1955150957766
20
-9.46086199197524
30
0
41
1
10
91.3369369529376
20
-9.36377256707902
30
0
41
1
10
91.4312181910449
20
-9.25311660717509
30
0
41
1
10
91.6197806672596
20
-8.93058420098268
30
0
41
1
10
91.714061905367
20
-8.71861507607039
30
0
41
1
10
91.9026243815816
20
-8.19276286121266
30
0
41
1
10
91.996905619689
20
-7.87885594696854
30
0
41
1
10
92.1854680959036
20
-7.15924778738096
30
0
41
1
10
92.2797493340111
20
-6.75361504037497
30
0
41
1
10
92.4683118102256
20
-5.87087484779252
30
0
41
1
10
92.562593048333
20
-5.39391150847544
30
0
41
1
10
92.7511555245477
20
-4.39573415183887
30
0
41
1
10
92.845436762655
20
-3.87468858080396
30
0
41
1
10
93.0339992388697
20
-2.81756780883495
30
0
41
1
10
93.128280476977
20
-2.28162901646093
30
0
41
1
10
93.3168429531918
20
-1.22116126517616
30
0
41
1
10
93.4111241912991
20
-0.696704400554722
30
0
41
1
10
93.5289757389333
20
-0.061037123975126
30
0
41
1
10
93.55254604846
20
0.0646083470172982
30
0
41
1
10
93.5996866675137
20
0.31891202104697
30
0
41
1
10
93.6232569770406
20
0.447041010861568
30
0
41
1
10
93.6939679056212
20
0.833944318937682
30
0
41
1
10
93.7411085246748
20
1.09524825237744
30
0
41
1
10
93.8825303818358
20
1.88545348676331
30
0
41
1
10
93.9768116199431
20
2.4208118842823
30
0
41
1
10
94.1653740961579
20
3.48370886816556
30
0
41
1
10
94.2596553342652
20
4.0111252720769
30
0
41
1
10
94.4482178104798
20
5.02928913915392
30
0
41
1
10
94.5424990485871
20
5.51987139454423
30
0
41
1
10
94.7310615248018
20
6.43614664281341
30
0
41
1
10
94.8253427629091
20
6.86168392684843
30
0
41
1
10
95.0139052391238
20
7.62531324484357
30
0
41
1
10
95.1081864772312
20
7.96331482852676
30
0
41
1
10
95.296748953446
20
8.53887454236184
30
0
41
1
10
95.3910301915532
20
8.77643445492967
30
0
41
1
10
95.5795926677679
20
9.14906543691217
30
0
41
1
10
95.6738739058752
20
9.28421590031215
30
0
41
1
10
95.86243638209
20
9.45962533401655
30
0
41
1
10
95.9567176201973
20
9.5
30
0
41
1
10
96.0509988583046
20
9.5
30
0
0
SPLINE
5
D7
100
AcDbEntity
8
1
62
256
6
ByLayer
370
13
48
1
60
0
100
AcDbSpline
70
4
71
3
72
12
73
8
40
0
40
0
40
0
40
0
40
0.5
40
0.5
40
0.75
40
0.75
40
1
40
1
40
1
40
1
41
1
10
96.41720247578
20
9.5
30
0
41
1
10
96.5213825255618
20
9.5
30
0
41
1
10
96.6255625753436
20
9.450643905634
30
0
41
1
10
96.7818326500164
20
9.28877459041223
30
0
41
1
10
96.8339226749074
20
9.2202316210676
30
0
41
1
10
96.9381027246893
20
9.05254883774469
30
0
41
1
10
96.9901927495802
20
8.95340394855833
30
0
41
1
10
97.0422827744711
20
8.83864648917489
30
0
0
SPLINE
5
D8
100
AcDbEntity
8
1
62
256
6
ByLayer
370
13
48
1
60
0
100
AcDbSpline
70
4
71
3
72
86
73
82
40
0
40
0
40
0
40
0
40
0.0312499999999989
40
0.0312499999999989
40
0.0624999999999978
40
0.0624999999999978
40
0.0937499999999967
40
0.0937499999999967
40
0.109374999999996
40
0.109374999999996
40
0.117187499999996
40
0.117187499999996
40
0.121093749999996
40
0.121093749999996
40
0.124999999999996
40
0.124999999999996
40
0.156249999999997
40
0.156249999999997
40
0.187499999999999
40
0.187499999999999
40
0.21875
40
0.21875
40
0.250000000000001
40
0.250000000000001
40
0.281250000000003
40
0.281250000000003
40
0.312500000000004
40
0.312500000000004
40
0.343750000000006
40
0.343750000000006
40
0.375000000000007
40
0.375000000000007
40
0.406250000000009
40
0.406250000000009
40
0.410156250000008
40
0.410156250000008
40
0.414062500000008
40
0.414062500000008
40
0.421875000000008
40
0.421875000000008
40
0.437500000000008
40
0.437500000000008
40
0.468750000000009
40
0.468750000000009
40
0.500000000000009
40
0.500000000000009
40
0.531250000000009
40
0.531250000000009
40
0.562500000000009
40
0.562500000000009
40
0.593750000000009
40
0.593750000000009
40
0.62500000000001
40
0.62500000000001
40
0.65625000000001
40
0.65625000000001
40
0.68750000000001
40
0.68750000000001
40
0.70312500000001
40
0.70312500000001
40
0.71093750000001
40
0.71093750000001
40
0.71875000000001
40
0.71875000000001
40
0.750000000000008
40
0.750000000000008
40
0.781250000000007
40
0.781250000000007
40
0.812500000000006
40
0.812500000000006
40
0.843750000000005
40
0.843750000000005
40
0.875000000000004
40
0.875000000000004
40
0.906250000000003
40
0.906250000000003
40
0.937500000000002
40
0.937500000000002
40
0.968750000000001
40
0.968750000000001
40
1
40
1
40
1
40
1
41
1
10
87
20
5.61852462964464
30
0
41
1
10
87.0891182984288
20
5.17060313154346
30
0
41
1
10
87.1782365968575
20
4.69678555323907
30
0
41
1
10
87.3564731937153
20
3.72143662353105
30
0
41
1
10
87.445591492144
20
3.22002624200079
30
0
41
1
10
87.6238280890016
20
2.21359356222416
30
0
41
1
10
87.7129463874304
20
1.70865658010015
30
0
41
1
10
87.8466238350736
20
0.964045942096249
30
0
41
1
10
87.891182984288
20
0.717940115214532
30
0
41
1
10
87.9580217081096
20
0.353494648767253
30
0
41
1
10
87.9803012827168
20
0.232795687198461
30
0
41
1
10
88.0137206446276
20
0.0530926999633152
30
0
41
1
10
88.0248604319311
20
-0.0064311417750105
30
0
41
1
10
88.0471400065383
20
-0.12599781834038
30
0
41
1
10
88.058279793842
20
-0.186008736516925
30
0
41
1
10
88.1585378795744
20
-0.728031614957928
30
0
41
1
10
88.2476561780031
20
-1.22374120158324
30
0
41
1
10
88.4258927748607
20
-2.22578220728798
30
0
41
1
10
88.5150110732895
20
-2.73206010587094
30
0
41
1
10
88.6932476701471
20
-3.73319946762823
30
0
41
1
10
88.782365968576
20
-4.22796084321456
30
0
41
1
10
88.9606025654335
20
-5.18152763202011
30
0
41
1
10
89.0497208638623
20
-5.64020663409167
30
0
41
1
10
89.2279574607198
20
-6.49806520306313
30
0
41
1
10
89.3170757591487
20
-6.89712914810042
30
0
41
1
10
89.4953123560063
20
-7.61699425918417
30
0
41
1
10
89.584430654435
20
-7.93772783393905
30
0
41
1
10
89.7626672512927
20
-8.4898306949338
30
0
41
1
10
89.8517855497213
20
-8.72119841196712
30
0
41
1
10
90.030022146579
20
-9.09221161594581
30
0
41
1
10
90.1191404450078
20
-9.23191265811204
30
0
41
1
10
90.2973770418655
20
-9.42511033436838
30
0
41
1
10
90.3864953402942
20
-9.47869249888444
30
0
41
1
10
90.4867534260266
20
-9.49676157287942
30
0
41
1
10
90.4978932133301
20
-9.49818556472133
30
0
41
1
10
90.5201727879374
20
-9.49989164588135
30
0
41
1
10
90.531312575241
20
-9.50017493955446
30
0
41
1
10
90.5647319371517
20
-9.49934273676078
30
0
41
1
10
90.587011511759
20
-9.49653011906867
30
0
41
1
10
90.6538502355805
20
-9.48101326966034
30
0
41
1
10
90.698409384795
20
-9.46122243154554
30
0
41
1
10
90.8320868324382
20
-9.37129864388419
30
0
41
1
10
90.921205130867
20
-9.27042567271235
30
0
41
1
10
91.0994417277246
20
-8.97866211469238
30
0
41
1
10
91.1885600261534
20
-8.78769899652295
30
0
41
1
10
91.3667966230109
20
-8.31436050409087
30
0
41
1
10
91.4559149214397
20
-8.03195913667008
30
0
41
1
10
91.6341515182974
20
-7.38289411325192
30
0
41
1
10
91.7232698167261
20
-7.01626971146447
30
0
41
1
10
91.9015064135837
20
-6.21430693965902
30
0
41
1
10
91.9906247120126
20
-5.7790669573651
30
0
41
1
10
92.1688613088702
20
-4.86170397606452
30
0
41
1
10
92.2579796072989
20
-4.37970772412422
30
0
41
1
10
92.4362162041564
20
-3.39343164052423
30
0
41
1
10
92.5253345025852
20
-2.88926717825302
30
0
41
1
10
92.7035710994429
20
-1.88223899873245
30
0
41
1
10
92.7926893978716
20
-1.37945030033876
30
0
41
1
10
92.9263668455148
20
-0.640956781185508
30
0
41
1
10
92.9709259947293
20
-0.397369332365173
30
0
41
1
10
93.0377647185508
20
-0.0373057633530607
30
0
41
1
10
93.060044293158
20
0.0815035861127456
30
0
41
1
10
93.1046034423724
20
0.321977684685095
30
0
41
1
10
93.1268830169796
20
0.443084611269114
30
0
41
1
10
93.2382808900156
20
1.05238438511785
30
0
41
1
10
93.3273991884444
20
1.55207882962335
30
0
41
1
10
93.505635785302
20
2.55761354735935
30
0
41
1
10
93.5947540837309
20
3.06338947535994
30
0
41
1
10
93.7729906805884
20
4.05825237502407
30
0
41
1
10
93.8621089790172
20
4.54723100969204
30
0
41
1
10
94.0403455758748
20
5.483851423293
30
0
41
1
10
94.1294638743036
20
5.93136564979542
30
0
41
1
10
94.3077004711612
20
6.76225067198681
30
0
41
1
10
94.39681876959
20
7.14551359680434
30
0
41
1
10
94.5750553664475
20
7.83061842294126
30
0
41
1
10
94.6641736648763
20
8.13240660184903
30
0
41
1
10
94.8424102617339
20
8.64535572632215
30
0
41
1
10
94.9315285601627
20
8.8565292474766
30
0
41
1
10
95.1097651570203
20
9.18775202570743
30
0
41
1
10
95.1988834554491
20
9.30786605634751
30
0
41
1
10
95.3771200523067
20
9.46394605487632
30
0
41
1
10
95.4662383507355
20
9.5
30
0
41
1
10
95.5553566491643
20
9.5
30
0
0
SPLINE
5
D9
100
AcDbEntity
8
1
62
256
6
ByLayer
370
13
48
1
60
0
100
AcDbSpline
70
4
71
3
72
14
73
10
40
0
40
0
40
0
40
0
40
0.25
40
0.25
40
0.5
40
0.5
40
0.75
40
0.75
40
1
40
1
40
1
40
1
41
1
10
95.9215602666396
20
9.5
30
0
41
1
10
96.0149538089589
20
9.5
30
0
41
1
10
96.1083473512782
20
9.4603859199477
30
0
41
1
10
96.2951344359168
20
9.28838491248277
30
0
41
1
10
96.3885279782361
20
9.1558874776612
30
0
41
1
10
96.5753150628747
20
8.79055515142639
30
0
41
1
10
96.668708605194
20
8.55764344078773
30
0
41
1
10
96.8554956898324
20
7.99307961883937
30
0
41
1
10
96.9488892321518
20
7.6614233366509
30
0
41
1
10
97.042282774471
20
7.2864527882837
30
0
0
SPLINE
5
DA
100
AcDbEntity
8
1
62
256
6
ByLayer
370
13
48
1
60
0
100
AcDbSpline
70
4
71
3
72
85
73
81
40
0
40
0
40
0
40
0
40
0.0312499999999972
40
0.0312499999999972
40
0.0624999999999943
40
0.0624999999999943
40
0.0664062499999942
40
0.0664062499999942
40
0.070312499999994
40
0.0781249999999941
40
0.0781249999999941
40
0.0937499999999945
40
0.0937499999999945
40
0.124999999999995
40
0.124999999999995
40
0.156249999999996
40
0.156249999999996
40
0.187499999999996
40
0.187499999999996
40
0.218749999999997
40
0.218749999999997
40
0.249999999999997
40
0.249999999999997
40
0.281249999999998
40
0.281249999999998
40
0.312499999999999
40
0.312499999999999
40
0.343749999999999
40
0.343749999999999
40
0.375
40
0.375
40
0.37890625
40
0.37890625
40
0.3828125
40
0.390625000000001
40
0.390625000000001
40
0.406250000000001
40
0.406250000000001
40
0.437500000000001
40
0.437500000000001
40
0.468750000000001
40
0.468750000000001
40
0.500000000000001
40
0.500000000000001
40
0.53125
40
0.53125
40
0.5625
40
0.5625
40
0.59375
40
0.59375
40
0.625000000000001
40
0.625000000000001
40
0.656250000000001
40
0.656250000000001
40
0.687500000000001
40
0.687500000000001
40
0.69140625
40
0.69140625
40
0.6953125
40
0.703125
40
0.703125
40
0.718750000000001
40
0.718750000000001
40
0.75
40
0.75
40
0.78125
40
0.78125
40
0.8125
40
0.8125
40
0.84375
40
0.84375
40
0.875
40
0.875
40
0.90625
40
0.90625
40
0.9375
40
0.9375
40
0.96875
40
0.96875
40
1
40
1
40
1
40
1
41
1
10
87.0000000000001
20
2.93725213351527
30
0
41
1
10
87.0839553587503
20
2.46394098181537
30
0
41
1
10
87.1679107175005
20
1.98759417671832
30
0
41
1
10
87.335821435001
20
1.04661168983074
30
0
41
1
10
87.4197767937512
20
0.5820106477764
30
0
41
1
10
87.5142265723453
20
0.0737707803880028
30
0
41
1
10
87.5247209921891
20
0.0176214454198487
30
0
41
1
10
87.5457098318767
20
-0.0948857815891699
30
0
41
1
10
87.577193091408
20
-0.264257717404604
30
0
41
1
10
87.6086763509394
20
-0.435362469126488
30
0
41
1
10
87.671642870002
20
-0.779589815207004
30
0
41
1
10
87.713620549377
20
-1.01177358249765
30
0
41
1
10
87.8395535875025
20
-1.71376979208293
30
0
41
1
10
87.9235089462527
20
-2.189137008816
30
0
41
1
10
88.0914196637532
20
-3.13749068758776
30
0
41
1
10
88.1753750225035
20
-3.61041500612856
30
0
41
1
10
88.343285740004
20
-4.53391407591388
30
0
41
1
10
88.4272410987542
20
-4.98440056893895
30
0
41
1
10
88.5951518162548
20
-5.84256332297991
30
0
41
1
10
88.679107175005
20
-6.25014585495512
30
0
41
1
10
88.8470178925054
20
-7.00436847987206
30
0
41
1
10
88.9309732512558
20
-7.35093578861219
30
0
41
1
10
89.0988839687562
20
-7.9699242493632
30
0
41
1
10
89.1828393275065
20
-8.24231386838281
30
0
41
1
10
89.350750045007
20
-8.70630342225826
30
0
41
1
10
89.4347054037572
20
-8.89791798353397
30
0
41
1
10
89.6026161212577
20
-9.2005299955849
30
0
41
1
10
89.686571480008
20
-9.31157718945457
30
0
41
1
10
89.8544821975085
20
-9.45902248207565
30
0
41
1
10
89.9384375562588
20
-9.49548595947888
30
0
41
1
10
90.0328873348528
20
-9.50011867297354
30
0
41
1
10
90.0433817546966
20
-9.50013246959767
30
0
41
1
10
90.0643705943841
20
-9.49915907460354
30
0
41
1
10
90.0958538539154
20
-9.4961891944335
30
0
41
1
10
90.1273371134469
20
-9.48859226337524
30
0
41
1
10
90.1903036325095
20
-9.46698134308929
30
0
41
1
10
90.2322813118847
20
-9.44401152140378
30
0
41
1
10
90.3582143500099
20
-9.34763518224804
30
0
41
1
10
90.4421697087602
20
-9.24660898589457
30
0
41
1
10
90.6100804262608
20
-8.96452047972736
30
0
41
1
10
90.694035785011
20
-8.78340526307844
30
0
41
1
10
90.8619465025115
20
-8.34007617721946
30
0
41
1
10
90.9459018612617
20
-8.07784227689342
30
0
41
1
10
91.1138125787622
20
-7.47793688741237
30
0
41
1
10
91.1977679375125
20
-7.14029090273365
30
0
41
1
10
91.3656786550129
20
-6.40190083493877
30
0
41
1
10
91.4496340137632
20
-6.00122511095779
30
0
41
1
10
91.6175447312637
20
-5.15435799050496
30
0
41
1
10
91.701500090014
20
-4.70825910583304
30
0
41
1
10
91.8694108075144
20
-3.79087284570909
30
0
41
1
10
91.9533661662647
20
-3.3196758092059
30
0
41
1
10
92.1212768837653
20
-2.37231915814362
30
0
41
1
10
92.2052322425154
20
-1.89622577764891
30
0
41
1
10
92.373142960016
20
-0.956776675025736
30
0
41
1
10
92.4570983187662
20
-0.493453391197335
30
0
41
1
10
92.5515480973603
20
0.0129312135995008
30
0
41
1
10
92.5620425172041
20
0.0690629859054184
30
0
41
1
10
92.5830313568916
20
0.181983137706169
30
0
41
1
10
92.6145146164229
20
0.351957128842599
30
0
41
1
10
92.6459978759543
20
0.52360938999459
30
0
41
1
10
92.708964395017
20
0.868852299122381
30
0
41
1
10
92.7509420743921
20
1.10160708421796
30
0
41
1
10
92.8768751125176
20
1.80494648755862
30
0
41
1
10
92.9608304712678
20
2.28071302106096
30
0
41
1
10
93.1287411887682
20
3.22864633703065
30
0
41
1
10
93.2126965475185
20
3.70074891264474
30
0
41
1
10
93.380607265019
20
4.62127612278283
30
0
41
1
10
93.4645626237692
20
5.06961141342362
30
0
41
1
10
93.6324733412697
20
5.92220632647769
30
0
41
1
10
93.7164287000201
20
6.32637277174817
30
0
41
1
10
93.8843394175206
20
7.0727431110968
30
0
41
1
10
93.9682947762708
20
7.41487639154772
30
0
41
1
10
94.1362054937712
20
8.02436267502836
30
0
41
1
10
94.2201608525215
20
8.29168715154222
30
0
41
1
10
94.388071570022
20
8.74535768019476
30
0
41
1
10
94.4720269287723
20
8.93172108710561
30
0
41
1
10
94.6399376462728
20
9.22405649790628
30
0
41
1
10
94.723893005023
20
9.3300798691204
30
0
41
1
10
94.8918037225235
20
9.4680187709167
30
0
41
1
10
94.9757590812737
20
9.5
30
0
41
1
10
95.059714440024
20
9.5
30
0
0
SPLINE
5
DB
100
AcDbEntity
8
1
62
256
6
ByLayer
370
13
48
1
60
0
100
AcDbSpline
70
4
71
3
72
22
73
18
40
0
40
0
40
0
40
0
40
0.125
40
0.125
40
0.25
40
0.25
40
0.375
40
0.375
40
0.500000000000001
40
0.500000000000001
40
0.625
40
0.625
40
0.75
40
0.75
40
0.875
40
0.875
40
1
40
1
40
1
40
1
41
1
10
95.4259180574994
20
9.5
30
0
41
1
10
95.4932665873731
20
9.5
30
0
41
1
10
95.560615117247
20
9.47944753508563
30
0
41
1
10
95.6953121769945
20
9.39191902637404
30
0
41
1
10
95.7626607068684
20
9.32492088988948
30
0
41
1
10
95.8973577666161
20
9.14056442273417
30
0
41
1
10
95.9647062964899
20
9.02318621288907
30
0
41
1
10
96.0994033562376
20
8.73620129769239
30
0
41
1
10
96.1667518861113
20
8.5665812986837
30
0
41
1
10
96.3014489458591
20
8.17582762610124
30
0
41
1
10
96.3687974757328
20
7.95469113461584
30
0
41
1
10
96.5034945354805
20
7.46445804518763
30
0
41
1
10
96.5708430653543
20
7.1953711171079
30
0
41
1
10
96.7055401251019
20
6.61553204410725
30
0
41
1
10
96.7728886549758
20
6.30480120633754
30
0
41
1
10
96.9075857147235
20
5.65023955233616
30
0
41
1
10
96.9749342445973
20
5.30643795831926
30
0
41
1
10
97.0422827744711
20
4.95111674611925
30
0
0
SPLINE
5
DC
100
AcDbEntity
8
1
62
256
6
ByLayer
370
13
48
1
60
0
100
AcDbSpline
70
4
71
3
72
82
73
78
40
0
40
0
40
0
40
0
40
0.0078125
40
0.0078125
40
0.015625
40
0.015625
40
0.03125
40
0.03125
40
0.0625
40
0.0625
40
0.09375
40
0.09375
40
0.125
40
0.125
40
0.15625
40
0.15625
40
0.1875
40
0.1875
40
0.21875
40
0.21875
40
0.25
40
0.25
40
0.28125
40
0.28125
40
0.3125
40
0.3125
40
0.328125
40
0.328125
40
0.3359375
40
0.3359375
40
0.34375
40
0.34375
40
0.375
40
0.375
40
0.40625
40
0.40625
40
0.4375
40
0.4375
40
0.46875
40
0.46875
40
0.5
40
0.5
40
0.53125
40
0.53125
40
0.5625
40
0.5625
40
0.59375
40
0.59375
40
0.625
40
0.625
40
0.65625
40
0.65625
40
0.6640625
40
0.6640625
40
0.671875
40
0.671875
40
0.6875
40
0.6875
40
0.71875
40
0.71875
40
0.75
40
0.75
40
0.78125
40
0.78125
40
0.8125
40
0.8125
40
0.84375
40
0.84375
40
0.875
40
0.875
40
0.90625
40
0.90625
40
0.9375
40
0.9375
40
0.96875
40
0.96875
40
1
40
1
40
1
40
1
41
1
10
87.0000000000001
20
0.173813299758137
30
0
41
1
10
87.0196981047679
20
0.067627388492383
30
0
41
1
10
87.039396209536
20
-0.0374495961089281
30
0
41
1
10
87.0787924190718
20
-0.249558814462034
30
0
41
1
10
87.0984905238397
20
-0.356307189381397
30
0
41
1
10
87.1575848381434
20
-0.678396399516942
30
0
41
1
10
87.1969810476792
20
-0.895587917407767
30
0
41
1
10
87.3151696762868
20
-1.55241922583204
30
0
41
1
10
87.3939620953586
20
-1.99740524337244
30
0
41
1
10
87.551546933502
20
-2.88779496059729
30
0
41
1
10
87.6303393525736
20
-3.33315711064492
30
0
41
1
10
87.7879241907171
20
-4.20810236630629
30
0
41
1
10
87.8667166097888
20
-4.63762425820215
30
0
41
1
10
88.0243014479321
20
-5.46387524531795
30
0
41
1
10
88.1030938670039
20
-5.86053519705462
30
0
41
1
10
88.2606787051473
20
-6.60523966017195
30
0
41
1
10
88.339471124219
20
-6.95322383088546
30
0
41
1
10
88.4970559623623
20
-7.58795447435779
30
0
41
1
10
88.5758483814341
20
-7.87466474525888
30
0
41
1
10
88.7334332195775
20
-8.37892843328484
30
0
41
1
10
88.8122256386492
20
-8.59647734385422
30
0
41
1
10
88.9698104767926
20
-8.95983257838083
30
0
41
1
10
89.0486028958644
20
-9.10566334051634
30
0
41
1
10
89.2061877340078
20
-9.32801099586757
30
0
41
1
10
89.2849801530795
20
-9.40457072809232
30
0
41
1
10
89.4031687816871
20
-9.47221606207353
30
0
41
1
10
89.4425649912228
20
-9.48692537939374
30
0
41
1
10
89.5016593055266
20
-9.49801479702825
30
0
41
1
10
89.5213574102945
20
-9.49988326871946
30
0
41
1
10
89.5607536198303
20
-9.50010612523783
30
0
41
1
10
89.5804517245983
20
-9.4984648321396
30
0
41
1
10
89.678942248438
20
-9.48114111385303
30
0
41
1
10
89.7577346675096
20
-9.43801051949004
30
0
41
1
10
89.915319505653
20
-9.28541653938791
30
0
41
1
10
89.9941119247248
20
-9.17590595597801
30
0
41
1
10
90.1516967628681
20
-8.88589337940138
30
0
41
1
10
90.2304891819399
20
-8.70535585153644
30
0
41
1
10
90.3880740200833
20
-8.273145997071
30
0
41
1
10
90.466866439155
20
-8.02146230074476
30
0
41
1
10
90.6244512772985
20
-7.45208171188557
30
0
41
1
10
90.70324369637
20
-7.13440496007567
30
0
41
1
10
90.8608285345135
20
-6.44331392983864
30
0
41
1
10
90.9396209535852
20
-6.06994908273242
30
0
41
1
10
91.0972057917287
20
-5.28184900017891
30
0
41
1
10
91.1759982108003
20
-4.86718053948954
30
0
41
1
10
91.3335830489439
20
-4.01313460961529
30
0
41
1
10
91.4123754680156
20
-3.57382434674224
30
0
41
1
10
91.5699603061589
20
-2.68737374001708
30
0
41
1
10
91.6487527252306
20
-2.24028608003044
30
0
41
1
10
91.806337563374
20
-1.35352567126694
30
0
41
1
10
91.8851299824458
20
-0.913883115212286
30
0
41
1
10
91.9836205062854
20
-0.376679647262961
30
0
41
1
10
92.0033186110533
20
-0.269848400912537
30
0
41
1
10
92.0427148205891
20
-0.0575638068526132
30
0
41
1
10
92.0624129253571
20
0.0475045380131007
30
0
41
1
10
92.1215072396609
20
0.365800126577568
30
0
41
1
10
92.1609034491967
20
0.580769387945452
30
0
41
1
10
92.2790920778043
20
1.23200976224379
30
0
41
1
10
92.3578844968759
20
1.67470954447833
30
0
41
1
10
92.5154693350194
20
2.56413524973777
30
0
41
1
10
92.5942617540911
20
3.01082525251036
30
0
41
1
10
92.7518465922345
20
3.8924912586647
30
0
41
1
10
92.8306390113062
20
4.32741001856382
30
0
41
1
10
92.9882238494496
20
5.16854407490402
30
0
41
1
10
93.0670162685212
20
5.57469071278919
30
0
41
1
10
93.2246011066647
20
6.34197658990064
30
0
41
1
10
93.3033935257364
20
6.70305177588841
30
0
41
1
10
93.4609783638798
20
7.36663283135905
30
0
41
1
10
93.5397707829515
20
7.66909558598863
30
0
41
1
10
93.697355621095
20
8.20629949248746
30
0
41
1
10
93.7761480401666
20
8.44102833353409
30
0
41
1
10
93.93373287831
20
8.83888252352696
30
0
41
1
10
94.0125252973818
20
9.0020260556945
30
0
41
1
10
94.1701101355251
20
9.2579989790477
30
0
41
1
10
94.2489025545968
20
9.35086794767324
30
0
41
1
10
94.4064873927404
20
9.47184441818305
30
0
41
1
10
94.4852798118119
20
9.5
30
0
41
1
10
94.5640722308837
20
9.5
30
0
0
SPLINE
5
DD
100
AcDbEntity
8
1
62
256
6
ByLayer
370
13
48
1
60
0
100
AcDbSpline
70
4
71
3
72
22
73
18
40
0
40
0
40
0
40
0
40
0.125
40
0.125
40
0.25
40
0.25
40
0.375
40
0.375
40
0.5
40
0.5
40
0.625
40
0.625
40
0.75
40
0.75
40
0.875
40
0.875
40
1
40
1
40
1
40
1
41
1
10
94.930275848359
20
9.5
30
0
41
1
10
95.0182761369471
20
9.5
30
0
41
1
10
95.106276425535
20
9.46484898593351
30
0
41
1
10
95.282277002711
20
9.31279783279527
30
0
41
1
10
95.3702772912991
20
9.19581497471788
30
0
41
1
10
95.546277868475
20
8.87322713499873
30
0
41
1
10
95.634278157063
20
8.66756040349767
30
0
41
1
10
95.810278734239
20
8.16773523571371
30
0
41
1
10
95.8982790228271
20
7.87356275723923
30
0
41
1
10
96.0742796000031
20
7.20509467097449
30
0
41
1
10
96.1622798885911
20
6.83084644125915
30
0
41
1
10
96.3382804657671
20
6.01836654669142
30
0
41
1
10
96.426280754355
20
5.58023380473011
30
0
41
1
10
96.602281331531
20
4.66163844677754
30
0
41
1
10
96.690281620119
20
4.18129557604195
30
0
41
1
10
96.8662821972952
20
3.20203461821447
30
0
41
1
10
96.954282485883
20
2.70322106534701
30
0
41
1
10
97.0422827744711
20
2.20629809614584
30
0
0
SPLINE
5
DE
100
AcDbEntity
8
1
62
256
6
ByLayer
370
13
48
1
60
0
100
AcDbSpline
70
4
71
3
72
78
73
74
40
0
40
0
40
0
40
0
40
0.03125
40
0.03125
40
0.0625
40
0.0625
40
0.09375
40
0.09375
40
0.125
40
0.125
40
0.15625
40
0.15625
40
0.1875
40
0.1875
40
0.21875
40
0.21875
40
0.25
40
0.25
40
0.28125
40
0.28125
40
0.2890625
40
0.2890625
40
0.296875
40
0.296875
40
0.3125
40
0.3125
40
0.34375
40
0.34375
40
0.375
40
0.375
40
0.40625
40
0.40625
40
0.4375
40
0.4375
40
0.46875
40
0.46875
40
0.5
40
0.5
40
0.53125
40
0.53125
40
0.5625
40
0.5625
40
0.59375
40
0.59375
40
0.625
40
0.625
40
0.640625
40
0.640625
40
0.6484375
40
0.6484375
40
0.65625
40
0.65625
40
0.6875
40
0.6875
40
0.71875
40
0.71875
40
0.75
40
0.75
40
0.78125
40
0.78125
40
0.8125
40
0.8125
40
0.84375
40
0.84375
40
0.875
40
0.875
40
0.90625
40
0.90625
40
0.9375
40
0.9375
40
0.96875
40
0.96875
40
1
40
1
40
1
40
1
41
1
10
87.0000000000001
20
-2.57191640183453
30
0
41
1
10
87.0736294793932
20
-2.98788947158718
30
0
41
1
10
87.1472589587863
20
-3.40335228070632
30
0
41
1
10
87.2945179175727
20
-4.22002026592529
30
0
41
1
10
87.3681473969658
20
-4.62118143841479
30
0
41
1
10
87.5154063557521
20
-5.39536900355759
30
0
41
1
10
87.5890358351452
20
-5.76834605691985
30
0
41
1
10
87.7362947939316
20
-6.47314396500502
30
0
41
1
10
87.8099242733247
20
-6.80492057774009
30
0
41
1
10
87.9571832321111
20
-7.41659754756103
30
0
41
1
10
88.0308127115042
20
-7.69646866213071
30
0
41
1
10
88.1780716702905
20
-8.19705420024781
30
0
41
1
10
88.2517011496837
20
-8.41776011382197
30
0
41
1
10
88.39896010847
20
-8.79675763394735
30
0
41
1
10
88.4725895878632
20
-8.95506118108992
30
0
41
1
10
88.6198485466496
20
-9.20996084178697
30
0
41
1
10
88.6934780260427
20
-9.30658385809539
30
0
41
1
10
88.8407369848289
20
-9.44218604960068
30
0
41
1
10
88.9143664642222
20
-9.48119910326162
30
0
41
1
10
89.0064033134636
20
-9.49798597551572
30
0
41
1
10
89.0248106833119
20
-9.49974881147276
30
0
41
1
10
89.0616254230085
20
-9.50020119272074
30
0
41
1
10
89.0800327928567
20
-9.49889823503264
30
0
41
1
10
89.1352549024017
20
-9.49023268438765
30
0
41
1
10
89.1720696420982
20
-9.4781078298895
30
0
41
1
10
89.282513861188
20
-9.42139105929556
30
0
41
1
10
89.3561433405811
20
-9.35637974756253
30
0
41
1
10
89.5034022993674
20
-9.16653252085774
30
0
41
1
10
89.5770317787606
20
-9.0416649344439
30
0
41
1
10
89.7242907375469
20
-8.72947191348254
30
0
41
1
10
89.79792021694
20
-8.54212558987805
30
0
41
1
10
89.9451791757264
20
-8.10602209464247
30
0
41
1
10
90.0188086551195
20
-7.8572620388808
30
0
41
1
10
90.1660676139059
20
-7.30344058920414
30
0
41
1
10
90.2396970932991
20
-6.9983976487228
30
0
41
1
10
90.3869560520853
20
-6.34095666792717
30
0
41
1
10
90.4605855314785
20
-5.98859585419748
30
0
41
1
10
90.6078444902648
20
-5.2484508813931
30
0
41
1
10
90.681473969658
20
-4.86071468161722
30
0
41
1
10
90.8287329284443
20
-4.06342296422415
30
0
41
1
10
90.9023624078375
20
-3.65391549850713
30
0
41
1
10
91.0496213666238
20
-2.82687543933892
30
0
41
1
10
91.123250846017
20
-2.4093815764447
30
0
41
1
10
91.2705098048033
20
-1.57901758309475
30
0
41
1
10
91.3441392841964
20
-1.16617147349868
30
0
41
1
10
91.4545835032862
20
-0.558279444531223
30
0
41
1
10
91.4913982429828
20
-0.357526361268498
30
0
41
1
10
91.5466203525277
20
-0.0600194673276349
30
0
41
1
10
91.5650277223759
20
0.0381883094399313
30
0
41
1
10
91.6018424620725
20
0.236348045859984
30
0
41
1
10
91.6202498319209
20
0.336034970874749
30
0
41
1
10
91.7122866811623
20
0.837183715604937
30
0
41
1
10
91.7859161605554
20
1.24688695406809
30
0
41
1
10
91.9331751193417
20
2.07402281025418
30
0
41
1
10
92.0068045987349
20
2.49143565045603
30
0
41
1
10
92.1540635575212
20
3.32186203632048
30
0
41
1
10
92.2276930369144
20
3.73484047220242
30
0
41
1
10
92.3749519957007
20
4.54281521296849
30
0
41
1
10
92.4485814750939
20
4.93776517622425
30
0
41
1
10
92.5958404338802
20
5.69588855033368
30
0
41
1
10
92.6694699132733
20
6.05901291610704
30
0
41
1
10
92.8167288720597
20
6.74094665509261
30
0
41
1
10
92.8903583514528
20
7.05971495629717
30
0
41
1
10
93.0376173102391
20
7.64304771313348
30
0
41
1
10
93.1112467896323
20
7.90758816641997
30
0
41
1
10
93.2585057484186
20
8.37623398522371
30
0
41
1
10
93.3321352278117
20
8.58033660945554
30
0
41
1
10
93.479394186598
20
8.92594483249229
30
0
41
1
10
93.5530236659912
20
9.06746708798718
30
0
41
1
10
93.7002826247775
20
9.28960053487006
30
0
41
1
10
93.7739121041707
20
9.37024131420728
30
0
41
1
10
93.921171062957
20
9.4754238492153
30
0
41
1
10
93.9948005423502
20
9.5
30
0
41
1
10
94.0684300217433
20
9.5
30
0
0
SPLINE
5
DF
100
AcDbEntity
8
1
62
256
6
ByLayer
370
13
48
1
60
0
100
AcDbSpline
70
4
71
3
72
42
73
38
40
0
40
0
40
0
40
0
40
0.0625000000000002
40
0.0625000000000002
40
0.125
40
0.125
40
0.1875
40
0.1875
40
0.250000000000001
40
0.250000000000001
40
0.312500000000001
40
0.312500000000001
40
0.375000000000001
40
0.375000000000001
40
0.437500000000001
40
0.437500000000001
40
0.500000000000001
40
0.500000000000001
40
0.562500000000001
40
0.562500000000001
40
0.625000000000001
40
0.625000000000001
40
0.687500000000001
40
0.687500000000001
40
0.750000000000001
40
0.750000000000001
40
0.812500000000001
40
0.812500000000001
40
0.875000000000001
40
0.875000000000001
40
0.937500000000001
40
0.937500000000001
40
0.953125000000001
40
0.953125000000001
40
0.96875
40
0.96875
40
1
40
1
40
1
40
1
41
1
10
94.4346336392188
20
9.5
30
0
41
1
10
94.4889596628699
20
9.5
30
0
41
1
10
94.5432856865209
20
9.48663780916121
30
0
41
1
10
94.6519377338231
20
9.43034056125825
30
0
41
1
10
94.7062637574742
20
9.38739795032009
30
0
41
1
10
94.8149158047764
20
9.26962585855179
30
0
41
1
10
94.8692418284274
20
9.19478910096959
30
0
41
1
10
94.9778938757296
20
9.01168900844092
30
0
41
1
10
95.0322198993807
20
8.90341962036572
30
0
41
1
10
95.1408719466829
20
8.65289261739315
30
0
41
1
10
95.195197970334
20
8.51063115122719
30
0
41
1
10
95.3038500176361
20
8.19268872539141
30
0
41
1
10
95.3581760412873
20
8.01700692719129
30
0
41
1
10
95.4668280885895
20
7.63399619531879
30
0
41
1
10
95.5211541122405
20
7.42666987490085
30
0
41
1
10
95.6298061595427
20
6.9833207213951
30
0
41
1
10
95.6841321831938
20
6.7473038752041
30
0
41
1
10
95.792784230496
20
6.25057270690741
30
0
41
1
10
95.8471102541471
20
5.98986712018984
30
0
41
1
10
95.9557623014493
20
5.44858214509776
30
0
41
1
10
96.0100883251004
20
5.16801317584944
30
0
41
1
10
96.1187403724025
20
4.592357940711
30
0
41
1
10
96.1730663960536
20
4.29728249120416
30
0
41
1
10
96.2817184433558
20
3.69817998978371
30
0
41
1
10
96.3360444670068
20
3.39416290528234
30
0
41
1
10
96.444696514309
20
2.78263555466813
30
0
41
1
10
96.4990225379602
20
2.47513342893998
30
0
41
1
10
96.6076745852623
20
1.86171204469218
30
0
41
1
10
96.6620006089134
20
1.55579852514603
30
0
41
1
10
96.7706526562156
20
0.950038006080234
30
0
41
1
10
96.8249786798668
20
0.650194196986803
30
0
41
1
10
96.8928862094307
20
0.281529210939794
30
0
41
1
10
96.9064677153434
20
0.208101328054425
30
0
41
1
10
96.933630727169
20
0.0619068135894736
30
0
41
1
10
96.9472122330817
20
-0.0106345743308793
30
0
41
1
10
96.98795675082
20
-0.229456724282755
30
0
41
1
10
97.0151197626456
20
-0.376685261860103
30
0
41
1
10
97.0422827744711
20
-0.525053555359847
30
0
0
SPLINE
5
E0
100
AcDbEntity
8
1
62
256
6
ByLayer
370
13
48
1
60
0
100
AcDbSpline
70
4
71
3
72
79
73
75
40
0
40
0
40
0
40
0
40
0.031250000000001
40
0.031250000000001
40
0.0625000000000019
40
0.0625000000000019
40
0.0937500000000029
40
0.0937500000000029
40
0.125000000000004
40
0.125000000000004
40
0.156250000000005
40
0.156250000000005
40
0.187500000000006
40
0.187500000000006
40
0.218750000000007
40
0.218750000000007
40
0.234375000000007
40
0.234375000000007
40
0.238281250000007
40
0.238281250000007
40
0.242187500000007
40
0.250000000000007
40
0.250000000000007
40
0.281250000000008
40
0.281250000000008
40
0.312500000000008
40
0.312500000000008
40
0.343750000000009
40
0.343750000000009
40
0.375000000000009
40
0.375000000000009
40
0.40625000000001
40
0.40625000000001
40
0.43750000000001
40
0.43750000000001
40
0.468750000000011
40
0.468750000000011
40
0.500000000000012
40
0.500000000000012
40
0.531250000000012
40
0.531250000000012
40
0.562500000000013
40
0.562500000000013
40
0.593750000000013
40
0.593750000000013
40
0.609375000000013
40
0.609375000000013
40
0.617187500000013
40
0.617187500000013
40
0.625000000000013
40
0.625000000000013
40
0.656250000000012
40
0.656250000000012
40
0.687500000000011
40
0.687500000000011
40
0.71875000000001
40
0.71875000000001
40
0.750000000000009
40
0.750000000000009
40
0.781250000000008
40
0.781250000000008
40
0.812500000000007
40
0.812500000000007
40
0.843750000000006
40
0.843750000000006
40
0.875000000000005
40
0.875000000000005
40
0.906250000000003
40
0.906250000000003
40
0.937500000000002
40
0.937500000000002
40
0.968750000000001
40
0.968750000000001
40
1
40
1
40
1
40
1
41
1
10
87
20
-5.28885693456928
30
0
41
1
10
87.0684665397146
20
-5.64205961767712
30
0
41
1
10
87.1369330794292
20
-5.98163437987785
30
0
41
1
10
87.2738661588585
20
-6.6234283344572
30
0
41
1
10
87.342332698573
20
-6.9256180948322
30
0
41
1
10
87.4792657780023
20
-7.48436686712139
30
0
41
1
10
87.5477323177169
20
-7.7409069003885
30
0
41
1
10
87.6846653971461
20
-8.20272054528951
30
0
41
1
10
87.7531319368608
20
-8.40798874621444
30
0
41
1
10
87.89006501629
20
-8.76463740116861
30
0
41
1
10
87.9585315560046
20
-8.9160257110546
30
0
41
1
10
88.0954646354339
20
-9.16526652141292
30
0
41
1
10
88.1639311751484
20
-9.26313690460455
30
0
41
1
10
88.3008642545777
20
-9.40826618444257
30
0
41
1
10
88.3693307942922
20
-9.45554822533134
30
0
41
1
10
88.4720306038641
20
-9.49215926372136
30
0
41
1
10
88.5062638737215
20
-9.49865713097478
30
0
41
1
10
88.5490554610431
20
-9.50010091150779
30
0
41
1
10
88.5576137785074
20
-9.50005754897768
30
0
41
1
10
88.5747304134361
20
-9.49930426548235
30
0
41
1
10
88.6004053658291
20
-9.49717075561753
30
0
41
1
10
88.6260803182221
20
-9.49197349028515
30
0
41
1
10
88.7116634928653
20
-9.4676145395228
30
0
41
1
10
88.78013003258
20
-9.42555968255576
30
0
41
1
10
88.9170631120092
20
-9.29133206356278
30
0
41
1
10
88.9855296517238
20
-9.19913588311229
30
0
41
1
10
89.1224627311531
20
-8.96144800059909
30
0
41
1
10
89.1909292708677
20
-8.81593760256266
30
0
41
1
10
89.327862350297
20
-8.47094617034452
30
0
41
1
10
89.3963288900114
20
-8.27145599375993
30
0
41
1
10
89.5332619694407
20
-7.82076825232389
30
0
41
1
10
89.6017285091554
20
-7.56957458232398
30
0
41
1
10
89.7386615885846
20
-7.02077157359739
30
0
41
1
10
89.8071281282993
20
-6.72317983254968
30
0
41
1
10
89.9440612077285
20
-6.08957779044459
30
0
41
1
10
90.0125277474431
20
-5.75359602915614
30
0
41
1
10
90.1494608268724
20
-5.05321041630171
30
0
41
1
10
90.2179273665869
20
-4.68884055375653
30
0
41
1
10
90.3548604460161
20
-3.94271336688004
30
0
41
1
10
90.4233269857308
20
-3.56098900882867
30
0
41
1
10
90.56026006516
20
-2.79119618294698
30
0
41
1
10
90.6287266048746
20
-2.40315419860329
30
0
41
1
10
90.7656596843039
20
-1.63086697491676
30
0
41
1
10
90.8341262240184
20
-1.24663863953342
30
0
41
1
10
90.9368260335903
20
-0.679577214957078
30
0
41
1
10
90.9710593034478
20
-0.492089847174952
30
0
41
1
10
91.0224092082337
20
-0.213827798062283
30
0
41
1
10
91.0395258431623
20
-0.121567660010783
30
0
41
1
10
91.0737591130196
20
0.0618648863733426
30
0
41
1
10
91.0908757479483
20
0.153697601248268
30
0
41
1
10
91.1764589225916
20
0.616383885366929
30
0
41
1
10
91.2449254623061
20
0.994689575211879
30
0
41
1
10
91.3818585417354
20
1.76009778248121
30
0
41
1
10
91.4503250814499
20
2.14718904938795
30
0
41
1
10
91.5872581608792
20
2.92085169015775
30
0
41
1
10
91.6557247005938
20
3.30740168343794
30
0
41
1
10
91.792657780023
20
4.06935705719201
30
0
41
1
10
91.8611243197378
20
4.44473252226953
30
0
41
1
10
91.9980573991669
20
5.17318446488409
30
0
41
1
10
92.0665239388816
20
5.52622674358489
30
0
41
1
10
92.2034570183108
20
6.19930899257736
30
0
41
1
10
92.2719235580254
20
6.51931661338753
30
0
41
1
10
92.4088566374546
20
7.11710048824204
30
0
41
1
10
92.4773231771692
20
7.39485253218243
30
0
41
1
10
92.6142562565984
20
7.90124245245011
30
0
41
1
10
92.6827227963131
20
8.12986870094917
30
0
41
1
10
92.8196558757423
20
8.5340227047279
30
0
41
1
10
92.8881224154569
20
8.70955265335141
30
0
41
1
10
93.0250554948861
20
9.00657119653548
30
0
41
1
10
93.0935220346007
20
9.12807374111853
30
0
41
1
10
93.23045511403
20
9.31888312936806
30
0
41
1
10
93.2989216537446
20
9.3882113900959
30
0
41
1
10
93.4358547331739
20
9.47875783647598
30
0
41
1
10
93.5043212728884
20
9.5
30
0
41
1
10
93.5727878126031
20
9.5
30
0
0
SPLINE
5
E1
100
AcDbEntity
8
1
62
256
6
ByLayer
370
13
48
1
60
0
100
AcDbSpline
70
4
71
3
72
42
73
38
40
0
40
0
40
0
40
0
40
0.0625000000000002
40
0.0625000000000002
40
0.125000000000001
40
0.125000000000001
40
0.187500000000001
40
0.187500000000001
40
0.250000000000001
40
0.250000000000001
40
0.312500000000001
40
0.312500000000001
40
0.375000000000001
40
0.375000000000001
40
0.437500000000002
40
0.437500000000002
40
0.500000000000002
40
0.500000000000002
40
0.562500000000002
40
0.562500000000002
40
0.625000000000002
40
0.625000000000002
40
0.687500000000002
40
0.687500000000002
40
0.750000000000003
40
0.750000000000003
40
0.781250000000002
40
0.781250000000002
40
0.796875000000002
40
0.796875000000002
40
0.812500000000002
40
0.812500000000002
40
0.875000000000001
40
0.875000000000001
40
0.937500000000001
40
0.937500000000001
40
1
40
1
40
1
40
1
41
1
10
93.9389914300784
20
9.5
30
0
41
1
10
94.0036433330866
20
9.5
30
0
41
1
10
94.0682952360947
20
9.48106389627745
30
0
41
1
10
94.1975990421112
20
9.40059404794391
30
0
41
1
10
94.2622509451193
20
9.33904227833753
30
0
41
1
10
94.3915547511357
20
9.16976830709069
30
0
41
1
10
94.4562066541439
20
9.06202961298902
30
0
41
1
10
94.5855104601602
20
8.79852453600935
30
0
41
1
10
94.6501623631684
20
8.64274647248951
30
0
41
1
10
94.7794661691847
20
8.28345652054563
30
0
41
1
10
94.844118072193
20
8.07994079674663
30
0
41
1
10
94.9734218782093
20
7.6278643332131
30
0
41
1
10
95.0380737812175
20
7.37930941367051
30
0
41
1
10
95.1673775872338
20
6.84221392577146
30
0
41
1
10
95.232029490242
20
6.5536886548777
30
0
41
1
10
95.3613332962584
20
5.94376277035323
30
0
41
1
10
95.4259851992666
20
5.6223846006732
30
0
41
1
10
95.5552890052829
20
4.95533703932847
30
0
41
1
10
95.6199409082911
20
4.60969334186996
30
0
41
1
10
95.7492447143075
20
3.90343439931703
30
0
41
1
10
95.8138966173156
20
3.54284375884114
30
0
41
1
10
95.943200423332
20
2.81597495770825
30
0
41
1
10
96.0078523263402
20
2.44971671082033
30
0
41
1
10
96.1371561323566
20
1.72008044496249
30
0
41
1
10
96.2018080353647
20
1.3567155680513
30
0
41
1
10
96.298785889877
20
0.819340275700881
30
0
41
1
10
96.3311118413811
20
0.64148313342551
30
0
41
1
10
96.3796007686373
20
0.377182672913079
30
0
41
1
10
96.3957637443893
20
0.289495976722037
30
0
41
1
10
96.4280896958934
20
0.115037575760311
30
0
41
1
10
96.4442526716454
20
0.0285568473977662
30
0
41
1
10
96.5250675504057
20
-0.404999736455181
30
0
41
1
10
96.5897194534138
20
-0.759593990233412
30
0
41
1
10
96.7190232594302
20
-1.47827430161817
30
0
41
1
10
96.7836751624384
20
-1.84235360389007
30
0
41
1
10
96.9129789684548
20
-2.57251458941678
30
0
41
1
10
96.9776308714629
20
-2.93858232376834
30
0
41
1
10
97.0422827744711
20
-3.3013195355185
30
0
0
SPLINE
5
E2
100
AcDbEntity
8
1
62
256
6
ByLayer
370
13
48
1
60
0
100
AcDbSpline
70
4
71
3
72
78
73
74
40
0
40
0
40
0
40
0
40
0.0312500000000006
40
0.0312500000000006
40
0.0625000000000012
40
0.0625000000000012
40
0.0937500000000018
40
0.0937500000000018
40
0.125000000000002
40
0.125000000000002
40
0.156250000000003
40
0.156250000000003
40
0.171875000000003
40
0.171875000000003
40
0.179687500000003
40
0.179687500000003
40
0.187500000000003
40
0.187500000000003
40
0.218750000000003
40
0.218750000000003
40
0.250000000000002
40
0.250000000000002
40
0.281250000000001
40
0.281250000000001
40
0.3125
40
0.3125
40
0.343749999999999
40
0.343749999999999
40
0.374999999999999
40
0.374999999999999
40
0.406249999999998
40
0.406249999999998
40
0.437499999999997
40
0.437499999999997
40
0.468749999999996
40
0.468749999999996
40
0.499999999999995
40
0.499999999999995
40
0.531249999999995
40
0.531249999999995
40
0.562499999999994
40
0.562499999999994
40
0.578124999999993
40
0.578124999999993
40
0.585937499999993
40
0.585937499999993
40
0.593749999999993
40
0.593749999999993
40
0.624999999999994
40
0.624999999999994
40
0.656249999999994
40
0.656249999999994
40
0.687499999999995
40
0.687499999999995
40
0.718749999999995
40
0.718749999999995
40
0.749999999999996
40
0.749999999999996
40
0.781249999999996
40
0.781249999999996
40
0.812499999999997
40
0.812499999999997
40
0.843749999999997
40
0.843749999999997
40
0.874999999999998
40
0.874999999999998
40
0.906249999999998
40
0.906249999999998
40
0.937499999999999
40
0.937499999999999
40
0.968749999999999
40
0.968749999999999
40
1
40
1
40
1
40
1
41
1
10
87
20
-7.53932585348508
30
0
41
1
10
87.0633036000361
20
-7.77975952559956
30
0
41
1
10
87.1266072000722
20
-7.99954801282982
30
0
41
1
10
87.2532144001442
20
-8.39427913838955
30
0
41
1
10
87.3165180001803
20
-8.56922129100946
30
0
41
1
10
87.4431252002524
20
-8.87291205087277
30
0
41
1
10
87.5064288002885
20
-9.0016680350152
30
0
41
1
10
87.6330360003607
20
-9.21375670445886
30
0
41
1
10
87.6963396003969
20
-9.2971024176419
30
0
41
1
10
87.8229468004689
20
-9.42094307759322
30
0
41
1
10
87.886250400505
20
-9.46145387442576
30
0
41
1
10
87.9812058005591
20
-9.49302982450286
30
0
41
1
10
88.0128576005771
20
-9.49869916101153
30
0
41
1
10
88.0603353006042
20
-9.50035089317021
30
0
41
1
10
88.0761612006132
20
-9.49977026318305
30
0
41
1
10
88.1078130006313
20
-9.49629414918118
30
0
41
1
10
88.1236389006402
20
-9.49339530599457
30
0
41
1
10
88.2027684006854
20
-9.47291731394824
30
0
41
1
10
88.2660720007215
20
-9.43734699705786
30
0
41
1
10
88.3926792007935
20
-9.32380077026187
30
0
41
1
10
88.4559828008296
20
-9.2458088599976
30
0
41
1
10
88.5825900009019
20
-9.04465230139198
30
0
41
1
10
88.6458936009379
20
-8.92147412954719
30
0
41
1
10
88.77250080101
20
-8.62892581616788
30
0
41
1
10
88.8358044010461
20
-8.45954747589622
30
0
41
1
10
88.9624116011182
20
-8.07566433068359
30
0
41
1
10
89.0257152011542
20
-7.8611589822284
30
0
41
1
10
89.1523224012263
20
-7.39031134798265
30
0
41
1
10
89.2156260012625
20
-7.13397719792459
30
0
41
1
10
89.3422332013346
20
-6.58487400388998
30
0
41
1
10
89.4055368013707
20
-6.29212099896037
30
0
41
1
10
89.5321440014428
20
-5.67732717466708
30
0
41
1
10
89.595447601479
20
-5.3553077891097
30
0
41
1
10
89.7220548015511
20
-4.6903000086852
30
0
41
1
10
89.7853584015871
20
-4.34733485661144
30
0
41
1
10
89.9119656016592
20
-3.64924137883119
30
0
41
1
10
89.9752692016953
20
-3.29413443212388
30
0
41
1
10
90.1018764017675
20
-2.58036700416147
30
0
41
1
10
90.1651800018035
20
-2.22172320316216
30
0
41
1
10
90.2917872018757
20
-1.50871470347309
30
0
41
1
10
90.3550908019117
20
-1.15436052023611
30
0
41
1
10
90.4500462019658
20
-0.631021094046531
30
0
41
1
10
90.4816980019839
20
-0.457929688127422
30
0
41
1
10
90.529175702011
20
-0.200848887208082
30
0
41
1
10
90.54500160202
20
-0.115580638122537
30
0
41
1
10
90.576653402038
20
0.0540263493748796
30
0
41
1
10
90.5924793020471
20
0.138890672593391
30
0
41
1
10
90.6716088020921
20
0.566317532651112
30
0
41
1
10
90.7349124021281
20
0.915277012493362
30
0
41
1
10
90.8615196022003
20
1.62137779299766
30
0
41
1
10
90.9248232022364
20
1.97851214074748
30
0
41
1
10
91.0514304023085
20
2.69377080833206
30
0
41
1
10
91.1147340023446
20
3.05188181737634
30
0
41
1
10
91.2413412024167
20
3.76086935051907
30
0
41
1
10
91.3046448024528
20
4.11172686169195
30
0
41
1
10
91.4312520025248
20
4.7974391556379
30
0
41
1
10
91.4945556025609
20
5.13227132384546
30
0
41
1
10
91.6211628026331
20
5.77725490314597
30
0
41
1
10
91.6844664026692
20
6.08738339518544
30
0
41
1
10
91.8110736027413
20
6.67506855049768
30
0
41
1
10
91.8743772027774
20
6.95260575196144
30
0
41
1
10
92.0009844028496
20
7.46865455534873
30
0
41
1
10
92.0642880028856
20
7.70715337583189
30
0
41
1
10
92.1908952029578
20
8.14060413741302
30
0
41
1
10
92.2541988029939
20
8.33555177346216
30
0
41
1
10
92.380806003066
20
8.67957299356445
30
0
41
1
10
92.444109603102
20
8.82865070507509
30
0
41
1
10
92.5707168031742
20
9.08079974457448
30
0
41
1
10
92.6340204032102
20
9.18388194827628
30
0
41
1
10
92.7606276032824
20
9.34586958491806
30
0
41
1
10
92.8239312033185
20
9.40478998182664
30
0
41
1
10
92.9505384033907
20
9.48184707582146
30
0
41
1
10
93.0138420034267
20
9.5
30
0
41
1
10
93.0771456034627
20
9.5
30
0
0
SPLINE
5
E3
100
AcDbEntity
8
1
62
256
6
ByLayer
370
13
48
1
60
0
100
AcDbSpline
70
4
71
3
72
44
73
40
40
0
40
0
40
0
40
0
40
0.062500000000001
40
0.062500000000001
40
0.125000000000002
40
0.125000000000002
40
0.187500000000003
40
0.187500000000003
40
0.250000000000004
40
0.250000000000004
40
0.312500000000005
40
0.312500000000005
40
0.375000000000006
40
0.375000000000006
40
0.437500000000007
40
0.437500000000007
40
0.500000000000008
40
0.500000000000008
40
0.562500000000009
40
0.562500000000009
40
0.62500000000001
40
0.62500000000001
40
0.687500000000011
40
0.687500000000011
40
0.695312500000011
40
0.695312500000011
40
0.703125000000011
40
0.703125000000011
40
0.71875000000001
40
0.71875000000001
40
0.750000000000009
40
0.750000000000009
40
0.812500000000007
40
0.812500000000007
40
0.875000000000004
40
0.875000000000004
40
0.937500000000002
40
0.937500000000002
40
1
40
1
40
1
40
1
41
1
10
93.4433492209381
20
9.5
30
0
41
1
10
93.5183270033034
20
9.5
30
0
41
1
10
93.5933047856687
20
9.47451278915281
30
0
41
1
10
93.7432603503992
20
9.36531780789034
30
0
41
1
10
93.8182381327645
20
9.28157240970924
30
0
41
1
10
93.9681936974951
20
9.05084485806466
30
0
41
1
10
94.0431714798603
20
8.90383068505602
30
0
41
1
10
94.1931270445908
20
8.54492806265915
30
0
41
1
10
94.268104826956
20
8.3330224033121
30
0
41
1
10
94.4180603916866
20
7.84685189540716
30
0
41
1
10
94.493038174052
20
7.57259176488731
30
0
41
1
10
94.6429937387825
20
6.96859109086418
30
0
41
1
10
94.7179715211477
20
6.63887882165599
30
0
41
1
10
94.8679270858783
20
5.93472111115781
30
0
41
1
10
94.9429048682435
20
5.56032213821609
30
0
41
1
10
95.092860432974
20
4.78025819809287
30
0
41
1
10
95.1678382153393
20
4.37464717418578
30
0
41
1
10
95.3177937800698
20
3.54679502627309
30
0
41
1
10
95.3927715624351
20
3.12460331224199
30
0
41
1
10
95.5427271271656
20
2.27779848453696
30
0
41
1
10
95.6177049095309
20
1.85322120760372
30
0
41
1
10
95.7676604742615
20
1.01411729278135
30
0
41
1
10
95.8426382566267
20
0.59960916403989
30
0
41
1
10
95.9269882617878
20
0.144515824337986
30
0
41
1
10
95.9363604845833
20
0.0941040584125119
30
0
41
1
10
95.9551049301746
20
-0.0063949641773036
30
0
41
1
10
95.9644771529703
20
-0.0565117482608457
30
0
41
1
10
95.9925938213573
20
-0.207662610709178
30
0
41
1
10
96.0113382669485
20
-0.309065869125277
30
0
41
1
10
96.0675716037225
20
-0.614981745688283
30
0
41
1
10
96.1050604949053
20
-0.821205907387906
30
0
41
1
10
96.2175271684531
20
-1.44490469779868
30
0
41
1
10
96.2925049508184
20
-1.86748114272277
30
0
41
1
10
96.442460515549
20
-2.71453967328097
30
0
41
1
10
96.5174382979142
20
-3.13899137445964
30
0
41
1
10
96.6673938626448
20
-3.97606091215855
30
0
41
1
10
96.74237164501
20
-4.38863296507458
30
0
41
1
10
96.8923272097405
20
-5.18729470054046
30
0
41
1
10
96.9673049921058
20
-5.57333065921188
30
0
41
1
10
97.0422827744711
20
-5.9391100740805
30
0
0
SPLINE
5
E4
100
AcDbEntity
8
1
62
256
6
ByLayer
370
13
48
1
60
0
100
AcDbSpline
70
4
71
3
72
77
73
73
40
0
40
0
40
0
40
0
40
0.0312500000000004
40
0.0312500000000004
40
0.0625000000000008
40
0.0625000000000008
40
0.0937500000000012
40
0.0937500000000012
40
0.101562500000001
40
0.101562500000001
40
0.109375000000001
40
0.125000000000001
40
0.125000000000001
40
0.15625
40
0.15625
40
0.187499999999999
40
0.187499999999999
40
0.218749999999998
40
0.218749999999998
40
0.249999999999997
40
0.249999999999997
40
0.281249999999995
40
0.281249999999995
40
0.312499999999994
40
0.312499999999994
40
0.343749999999993
40
0.343749999999993
40
0.374999999999992
40
0.374999999999992
40
0.406249999999991
40
0.406249999999991
40
0.43749999999999
40
0.43749999999999
40
0.468749999999989
40
0.468749999999989
40
0.499999999999988
40
0.499999999999988
40
0.531249999999987
40
0.531249999999987
40
0.546874999999987
40
0.546874999999987
40
0.554687499999987
40
0.554687499999987
40
0.562499999999987
40
0.562499999999987
40
0.593749999999988
40
0.593749999999988
40
0.624999999999989
40
0.624999999999989
40
0.656249999999989
40
0.656249999999989
40
0.68749999999999
40
0.68749999999999
40
0.718749999999991
40
0.718749999999991
40
0.749999999999992
40
0.749999999999992
40
0.781249999999993
40
0.781249999999993
40
0.812499999999994
40
0.812499999999994
40
0.843749999999995
40
0.843749999999995
40
0.874999999999996
40
0.874999999999996
40
0.906249999999997
40
0.906249999999997
40
0.937499999999998
40
0.937499999999998
40
0.968749999999999
40
0.968749999999999
40
1
40
1
40
1
40
1
41
1
10
86.9999999999999
20
-8.97321984143341
30
0
41
1
10
87.0581406603575
20
-9.08693591495478
30
0
41
1
10
87.116281320715
20
-9.18128668556918
30
0
41
1
10
87.2325626414301
20
-9.33267120279066
30
0
41
1
10
87.2907033017876
20
-9.38971468616512
30
0
41
1
10
87.4069846225028
20
-9.4690351791829
30
0
41
1
10
87.4651252828601
20
-9.49132279731055
30
0
41
1
10
87.537801108307
20
-9.49955434840766
30
0
41
1
10
87.5523362733965
20
-9.50022190125432
30
0
41
1
10
87.5814066035753
20
-9.49965017439857
30
0
41
1
10
87.6250120988434
20
-9.49591401888532
30
0
41
1
10
87.6686175941115
20
-9.48328078424024
30
0
41
1
10
87.7558285846479
20
-9.44550322544717
30
0
41
1
10
87.8139692450053
20
-9.40360969582261
30
0
41
1
10
87.9302505657204
20
-9.28349139285294
30
0
41
1
10
87.9883912260779
20
-9.20525632799442
30
0
41
1
10
88.104672546793
20
-9.01050989461208
30
0
41
1
10
88.1628132071505
20
-8.89398999649296
30
0
41
1
10
88.2790945278656
20
-8.62200753907513
30
0
41
1
10
88.3372351882231
20
-8.46653978060709
30
0
41
1
10
88.4535165089381
20
-8.1174858978346
30
0
41
1
10
88.5116571692956
20
-7.92389917840435
30
0
41
1
10
88.6279384900107
20
-7.50101371916705
30
0
41
1
10
88.6860791503682
20
-7.27171959695468
30
0
41
1
10
88.8023604710833
20
-6.78134895704235
30
0
41
1
10
88.8605011314408
20
-6.52028197039638
30
0
41
1
10
88.9767824521558
20
-5.97160417210449
30
0
41
1
10
89.0349231125134
20
-5.68400659211804
30
0
41
1
10
89.1512044332285
20
-5.08846814996707
30
0
41
1
10
89.209345093586
20
-4.78054235123849
30
0
41
1
10
89.325626414301
20
-4.15107783394049
30
0
41
1
10
89.3837670746586
20
-3.8295539257461
30
0
41
1
10
89.5000483953737
20
-3.17969716161241
30
0
41
1
10
89.5581890557311
20
-2.85137703138986
30
0
41
1
10
89.6744703764462
20
-2.19438565611225
30
0
41
1
10
89.7326110368037
20
-1.86572381978183
30
0
41
1
10
89.8488923575187
20
-1.21382456909723
30
0
41
1
10
89.9070330178763
20
-0.890592750397587
30
0
41
1
10
89.9942440084127
20
-0.413463533381759
30
0
41
1
10
90.0233143385913
20
-0.255699283351191
30
0
41
1
10
90.0669198338595
20
-0.021355614014567
30
0
41
1
10
90.0814549989489
20
0.0562502549925057
30
0
41
1
10
90.1105253291277
20
0.212706789414739
30
0
41
1
10
90.125060494217
20
0.291313833085269
30
0
41
1
10
90.1977363196639
20
0.686086267627246
30
0
41
1
10
90.2558769800215
20
1.00750250880091
30
0
41
1
10
90.3721583007365
20
1.65688563595566
30
0
41
1
10
90.430298961094
20
1.98484773442195
30
0
41
1
10
90.5465802818091
20
2.64173292521286
30
0
41
1
10
90.6047209421666
20
2.97064740307016
30
0
41
1
10
90.7210022628817
20
3.62310692805789
30
0
41
1
10
90.7791429232391
20
3.94663987610625
30
0
41
1
10
90.8954242439542
20
4.58157789543648
30
0
41
1
10
90.9535649043117
20
4.89296846267058
30
0
41
1
10
91.0698462250268
20
5.49683923795058
30
0
41
1
10
91.1279868853843
20
5.78930426371676
30
0
41
1
10
91.2442682060994
20
6.34896999012969
30
0
41
1
10
91.302408866457
20
6.61615689838052
30
0
41
1
10
91.4186901871719
20
7.11978375332635
30
0
41
1
10
91.4768308475295
20
7.35621325266604
30
0
41
1
10
91.5931121682445
20
7.79408485619194
30
0
41
1
10
91.651252828602
20
7.99552124006408
30
0
41
1
10
91.7675341493171
20
8.36065554639427
30
0
41
1
10
91.8256748096747
20
8.52435297791308
30
0
41
1
10
91.9419561303896
20
8.81284189366588
30
0
41
1
10
92.0000967907472
20
8.93763768718458
30
0
41
1
10
92.1163781114622
20
9.14867964520812
30
0
41
1
10
92.1745187718197
20
9.23493375825942
30
0
41
1
10
92.2908000925348
20
9.37058354434234
30
0
41
1
10
92.3489407528924
20
9.41998926689081
30
0
41
1
10
92.4652220736075
20
9.48469219000748
30
0
41
1
10
92.523362733965
20
9.5
30
0
41
1
10
92.5815033943225
20
9.5
30
0
0
SPLINE
5
E5
100
AcDbEntity
8
1
62
256
6
ByLayer
370
13
48
1
60
0
100
AcDbSpline
70
4
71
3
72
44
73
40
40
0
40
0
40
0
40
0
40
0.062499999999999
40
0.062499999999999
40
0.124999999999998
40
0.124999999999998
40
0.187499999999997
40
0.187499999999997
40
0.249999999999996
40
0.249999999999996
40
0.312499999999995
40
0.312499999999995
40
0.374999999999994
40
0.374999999999994
40
0.437499999999993
40
0.437499999999993
40
0.499999999999992
40
0.499999999999992
40
0.562499999999991
40
0.562499999999991
40
0.59374999999999
40
0.59374999999999
40
0.60937499999999
40
0.60937499999999
40
0.61718749999999
40
0.61718749999999
40
0.62499999999999
40
0.62499999999999
40
0.687499999999992
40
0.687499999999992
40
0.749999999999993
40
0.749999999999993
40
0.812499999999995
40
0.812499999999995
40
0.874999999999997
40
0.874999999999997
40
0.937499999999998
40
0.937499999999998
40
1
40
1
40
1
40
1
41
1
10
92.9477070117978
20
9.5
30
0
41
1
10
93.0330106735202
20
9.5
30
0
41
1
10
93.1183143352426
20
9.46697905263866
30
0
41
1
10
93.2889216586872
20
9.32441671236734
30
0
41
1
10
93.3742253204096
20
9.2148042831968
30
0
41
1
10
93.5448326438543
20
8.91255695725496
30
0
41
1
10
93.6301363055767
20
8.71986733602853
30
0
41
1
10
93.8007436290214
20
8.25104531612422
30
0
41
1
10
93.8860472907438
20
7.97489635447712
30
0
41
1
10
94.0566546141885
20
7.34596738549879
30
0
41
1
10
94.1419582759108
20
6.99322151750843
30
0
41
1
10
94.3125655993556
20
6.22491260329207
30
0
41
1
10
94.3978692610779
20
5.80942891367178
30
0
41
1
10
94.5684765845227
20
4.93471725810286
30
0
41
1
10
94.653780246245
20
4.47559099988399
30
0
41
1
10
94.8243875696897
20
3.53510884326218
30
0
41
1
10
94.9096912314121
20
3.05384754260609
30
0
41
1
10
95.0802985548568
20
2.08999377121242
30
0
41
1
10
95.1656022165792
20
1.60746631593176
30
0
41
1
10
95.2935577091628
20
0.896036366239429
30
0
41
1
10
95.3362095400238
20
0.660923129541516
30
0
41
1
10
95.4001872863157
20
0.31265314108802
30
0
41
1
10
95.4215132017463
20
0.197294188548256
30
0
41
1
10
95.4535020748921
20
0.025500890839794
30
0
41
1
10
95.4641650326075
20
-0.0314575100915135
30
0
41
1
10
95.485490948038
20
-0.146015167308292
30
0
41
1
10
95.4961539057533
20
-0.203500961283709
30
0
41
1
10
95.5921205251909
20
-0.72262682023262
30
0
41
1
10
95.6774241869133
20
-1.19673228294735
30
0
41
1
10
95.8480315103581
20
-2.15522921021395
30
0
41
1
10
95.9333351720803
20
-2.63957896363334
30
0
41
1
10
96.1039424955251
20
-3.59942571148568
30
0
41
1
10
96.1892461572475
20
-4.07484469041464
30
0
41
1
10
96.3598534806922
20
-4.99540502978789
30
0
41
1
10
96.4451571424146
20
-5.44044581221161
30
0
41
1
10
96.6157644658593
20
-6.27928636004867
30
0
41
1
10
96.7010681275816
20
-6.67298947004522
30
0
41
1
10
96.8716754510264
20
-7.39172240682197
30
0
41
1
10
96.9569791127487
20
-7.7166881292253
30
0
41
1
10
97.0422827744711
20
-8.00162524027482
30
0
0
SPLINE
5
E6
100
AcDbEntity
8
1
62
256
6
ByLayer
370
13
48
1
60
0
100
AcDbSpline
70
4
71
3
72
77
73
73
40
0
40
0
40
0
40
0
40
0.0078124999999997
40
0.0078124999999997
40
0.0156249999999994
40
0.0156249999999994
40
0.0312499999999994
40
0.0312499999999994
40
0.0624999999999993
40
0.0624999999999993
40
0.0937499999999993
40
0.0937499999999993
40
0.124999999999999
40
0.124999999999999
40
0.156249999999999
40
0.156249999999999
40
0.187499999999999
40
0.187499999999999
40
0.218749999999999
40
0.218749999999999
40
0.249999999999999
40
0.249999999999999
40
0.281249999999999
40
0.281249999999999
40
0.312499999999999
40
0.312499999999999
40
0.343749999999999
40
0.343749999999999
40
0.374999999999999
40
0.374999999999999
40
0.406249999999999
40
0.406249999999999
40
0.437499999999999
40
0.437499999999999
40
0.468749999999999
40
0.468749999999999
40
0.499999999999999
40
0.499999999999999
40
0.507812499999999
40
0.507812499999999
40
0.515624999999999
40
0.531249999999999
40
0.531249999999999
40
0.562499999999999
40
0.562499999999999
40
0.593749999999999
40
0.593749999999999
40
0.624999999999999
40
0.624999999999999
40
0.656249999999999
40
0.656249999999999
40
0.687499999999999
40
0.687499999999999
40
0.718749999999999
40
0.718749999999999
40
0.75
40
0.75
40
0.78125
40
0.78125
40
0.8125
40
0.8125
40
0.84375
40
0.84375
40
0.875
40
0.875
40
0.90625
40
0.90625
40
0.9375
40
0.9375
40
0.96875
40
0.96875
40
1
40
1
40
1
40
1
41
1
10
87.0000000000001
20
-9.49359248464731
30
0
41
1
10
87.0132444301697
20
-9.49623404696641
30
0
41
1
10
87.0264888603394
20
-9.49804728230865
30
0
41
1
10
87.052977720679
20
-9.50005979087072
30
0
41
1
10
87.0662221508488
20
-9.50026289193684
30
0
41
1
10
87.105955441358
20
-9.49848752178085
30
0
41
1
10
87.1324443016974
20
-9.49409775583251
30
0
41
1
10
87.2119108827159
20
-9.47080180906809
30
0
41
1
10
87.2648886033949
20
-9.44175241932831
30
0
41
1
10
87.3708440447529
20
-9.35423672044618
30
0
41
1
10
87.4238217654319
20
-9.29576378671035
30
0
41
1
10
87.5297772067897
20
-9.14761853626132
30
0
41
1
10
87.5827549274688
20
-9.05794026077305
30
0
41
1
10
87.6887103688267
20
-8.84640368755035
30
0
41
1
10
87.7416880895057
20
-8.72454092446716
30
0
41
1
10
87.8476435308637
20
-8.44861618039749
30
0
41
1
10
87.9006212515427
20
-8.29455200072971
30
0
41
1
10
88.0065766929006
20
-7.95526951622088
30
0
41
1
10
88.0595544135797
20
-7.77005183080402
30
0
41
1
10
88.1655098549377
20
-7.37059725904328
30
0
41
1
10
88.2184875756166
20
-7.15636399223789
30
0
41
1
10
88.3244430169746
20
-6.70203972328042
30
0
41
1
10
88.3774207376535
20
-6.46195507453001
30
0
41
1
10
88.4833761790114
20
-5.95996497042421
30
0
41
1
10
88.5363538996904
20
-5.6980679110641
30
0
41
1
10
88.6423093410484
20
-5.15714107145396
30
0
41
1
10
88.6952870617274
20
-4.87812073990145
30
0
41
1
10
88.8012425030853
20
-4.30801486258582
30
0
41
1
10
88.8542202237643
20
-4.01693872481258
30
0
41
1
10
88.9601756651222
20
-3.42788104642372
30
0
41
1
10
89.0131533858012
20
-3.12990788292561
30
0
41
1
10
89.1191088271592
20
-2.53203781285197
30
0
41
1
10
89.1720865478381
20
-2.23214752725948
30
0
41
1
10
89.2780419891961
20
-1.63501922100349
30
0
41
1
10
89.3310197098751
20
-1.33778568581684
30
0
41
1
10
89.436975151233
20
-0.749973493928422
30
0
41
1
10
89.489952871912
20
-0.459397148856908
30
0
41
1
10
89.5561750227608
20
-0.102415645777341
30
0
41
1
10
89.5694194529304
20
-0.0315055577258363
30
0
41
1
10
89.59590831327
20
0.110488863838327
30
0
41
1
10
89.6356416037792
20
0.324453427616078
30
0
41
1
10
89.6753748942884
20
0.541134459961654
30
0
41
1
10
89.7548414753069
20
0.977516544850602
30
0
41
1
10
89.8078191959859
20
1.27248537653884
30
0
41
1
10
89.913774637344
20
1.86678886004162
30
0
41
1
10
89.9667523580229
20
2.16611992440397
30
0
41
1
10
90.0727077993809
20
2.76479319834897
30
0
41
1
10
90.1256855200599
20
3.06412963103418
30
0
41
1
10
90.2316409614178
20
3.65797673896412
30
0
41
1
10
90.2846186820968
20
3.95247968341184
30
0
41
1
10
90.3905741234547
20
4.53154456646786
30
0
41
1
10
90.4435518441338
20
4.81609740949284
30
0
41
1
10
90.5495072854917
20
5.37012353551876
30
0
41
1
10
90.6024850061707
20
5.63958725586795
30
0
41
1
10
90.7084404475287
20
6.15855690923081
30
0
41
1
10
90.7614181682076
20
6.40805388742092
30
0
41
1
10
90.8673736095656
20
6.88275420106683
30
0
41
1
10
90.9203513302446
20
7.1079502471799
30
0
41
1
10
91.0263067716024
20
7.53050288469157
30
0
41
1
10
91.0792844922815
20
7.72785468536219
30
0
41
1
10
91.1852399336395
20
8.09214720983221
30
0
41
1
10
91.2382176543184
20
8.25908608987257
30
0
41
1
10
91.3441730956763
20
8.56105618814644
30
0
41
1
10
91.3971508163554
20
8.69608850592687
30
0
41
1
10
91.5031062577133
20
8.93383465075351
30
0
41
1
10
91.5560839783923
20
9.03655210469739
30
0
41
1
10
91.6620394197503
20
9.21027058512291
30
0
41
1
10
91.7150171404293
20
9.2812770627045
30
0
41
1
10
91.8209725817873
20
9.39304943477029
30
0
41
1
10
91.8739503024663
20
9.43382177963898
30
0
41
1
10
91.9799057438241
20
9.48729373222153
30
0
41
1
10
92.0328834645031
20
9.5
30
0
41
1
10
92.0858611851821
20
9.5
30
0
0
SPLINE
5
E7
100
AcDbEntity
8
1
62
256
6
ByLayer
370
13
48
1
60
0
100
AcDbSpline
70
4
71
3
72
42
73
38
40
0
40
0
40
0
40
0
40
0.0625
40
0.0625
40
0.125
40
0.125
40
0.1875
40
0.1875
40
0.25
40
0.25
40
0.3125
40
0.3125
40
0.375
40
0.375
40
0.4375
40
0.4375
40
0.5
40
0.5
40
0.53125
40
0.53125
40
0.546875
40
0.546875
40
0.5625
40
0.5625
40
0.625
40
0.625
40
0.6875
40
0.6875
40
0.75
40
0.75
40
0.8125
40
0.8125
40
0.875
40
0.875
40
0.9375
40
0.9375
40
1
40
1
40
1
40
1
41
1
10
92.4520648026576
20
9.5
30
0
41
1
10
92.547694343737
20
9.5
30
0
41
1
10
92.6433238848164
20
9.45845601161844
30
0
41
1
10
92.8345829669753
20
9.27780185284527
30
0
41
1
10
92.9302125080548
20
9.13856775097904
30
0
41
1
10
93.1214715902137
20
8.754709003004
30
0
41
1
10
93.2171011312931
20
8.5100010216895
30
0
41
1
10
93.4083602134521
20
7.91756022902908
30
0
41
1
10
93.5039897545314
20
7.5698297503485
30
0
41
1
10
93.6952488366903
20
6.78527244480324
30
0
41
1
10
93.7908783777698
20
6.34854788441513
30
0
41
1
10
93.9821374599287
20
5.40993618972661
30
0
41
1
10
94.0777670010082
20
4.9082190216931
30
0
41
1
10
94.269026083167
20
3.86931031276796
30
0
41
1
10
94.3646556242464
20
3.33229399504077
30
0
41
1
10
94.5559147064054
20
2.25279904174238
30
0
41
1
10
94.6515442474848
20
1.71044489020787
30
0
41
1
10
94.794988559104
20
0.912052367427378
30
0
41
1
10
94.8428033296437
20
0.648398874326119
30
0
41
1
10
94.9145254854533
20
0.258544041863871
30
0
41
1
10
94.9384328707232
20
0.12952641835048
30
0
41
1
10
94.9862476412629
20
-0.126366421049198
30
0
41
1
10
95.0101550265329
20
-0.255349968301772
30
0
41
1
10
95.1296919528822
20
-0.905031180692419
30
0
41
1
10
95.2253214939615
20
-1.44001705207177
30
0
41
1
10
95.4165805761205
20
-2.51834659291481
30
0
41
1
10
95.5122101171999
20
-3.06160225492926
30
0
41
1
10
95.7034691993588
20
-4.12830740614785
30
0
41
1
10
95.7990987404382
20
-4.65160189433337
30
0
41
1
10
95.9903578225972
20
-5.64791171402163
30
0
41
1
10
96.0859873636766
20
-6.12074614955537
30
0
41
1
10
96.2772464458355
20
-6.98858584640485
30
0
41
1
10
96.3728759869149
20
-7.38344817518473
30
0
41
1
10
96.5641350690738
20
-8.07582712716263
30
0
41
1
10
96.6597646101533
20
-8.37329013778773
30
0
41
1
10
96.8510236923122
20
-8.86250278213907
30
0
41
1
10
96.9466532333917
20
-9.05429711739222
30
0
41
1
10
97.0422827744711
20
-9.1946864182074
30
0
0
SPLINE
5
E8
100
AcDbEntity
8
1
62
256
6
ByLayer
370
13
48
1
60
0
100
AcDbSpline
70
4
71
3
72
42
73
38
40
0
40
0
40
0
40
0
40
0.0625000000000013
40
0.0625000000000013
40
0.125000000000003
40
0.125000000000003
40
0.187500000000004
40
0.187500000000004
40
0.250000000000005
40
0.250000000000005
40
0.312500000000007
40
0.312500000000007
40
0.375000000000008
40
0.375000000000008
40
0.437500000000009
40
0.437500000000009
40
0.453125000000009
40
0.453125000000009
40
0.468750000000009
40
0.468750000000009
40
0.500000000000009
40
0.500000000000009
40
0.562500000000008
40
0.562500000000008
40
0.625000000000007
40
0.625000000000007
40
0.687500000000006
40
0.687500000000006
40
0.750000000000005
40
0.750000000000005
40
0.812500000000003
40
0.812500000000003
40
0.875000000000002
40
0.875000000000002
40
0.937500000000001
40
0.937500000000001
40
1
40
1
40
1
40
1
41
1
10
87
20
-9.19468789246653
30
0
41
1
10
87.0956295620009
20
-9.05429891791491
30
0
41
1
10
87.1912591240017
20
-8.86250490001632
30
0
41
1
10
87.3825182480035
20
-8.3732928361604
30
0
41
1
10
87.4781478100043
20
-8.0758300883422
30
0
41
1
10
87.669406934006
20
-7.38345157598215
30
0
41
1
10
87.7650364960069
20
-6.98858942375924
30
0
41
1
10
87.9562956200087
20
-6.1207499768272
30
0
41
1
10
88.0519251820096
20
-5.647915614613
30
0
41
1
10
88.2431843060114
20
-4.65160584060348
30
0
41
1
10
88.3388138680123
20
-4.12831132496103
30
0
41
1
10
88.530072992014
20
-3.0616060372991
30
0
41
1
10
88.6257025540149
20
-2.51835026659288
30
0
41
1
10
88.8169616780166
20
-1.44002045576363
30
0
41
1
10
88.9125912400174
20
-0.905034423350372
30
0
41
1
10
89.0321281925185
20
-0.255352995268424
30
0
41
1
10
89.0560355830188
20
-0.126369371769641
30
0
41
1
10
89.1038503640192
20
0.12952349084145
30
0
41
1
10
89.1277577545194
20
0.258541127423825
30
0
41
1
10
89.19947992602
20
0.648396003547731
30
0
41
1
10
89.2472947070205
20
0.91204953171254
30
0
41
1
10
89.3907390500218
20
1.71044217753044
30
0
41
1
10
89.4863686120227
20
2.25279643519238
30
0
41
1
10
89.6776277360244
20
3.33229164207759
30
0
41
1
10
89.7732572980252
20
3.86930810723348
30
0
41
1
10
89.964516422027
20
4.90821713604325
30
0
41
1
10
90.0601459840278
20
5.40993447637752
30
0
41
1
10
90.2514051080296
20
6.34854651758218
30
0
41
1
10
90.3470346700305
20
6.7852712519589
30
0
41
1
10
90.5382937940323
20
7.5698288834875
30
0
41
1
10
90.6339233560331
20
7.91755951397173
30
0
41
1
10
90.8251824800349
20
8.51000057024172
30
0
41
1
10
90.9208120420357
20
8.75470866329349
30
0
41
1
10
91.1120711660375
20
9.13856758681561
30
0
41
1
10
91.2077007280384
20
9.2778017525531
30
0
41
1
10
91.3989598520401
20
9.45845599334237
30
0
41
1
10
91.494589414041
20
9.5
30
0
41
1
10
91.5902189760419
20
9.5
30
0
0
SPLINE
5
E9
100
AcDbEntity
8
1
62
256
6
ByLayer
370
13
48
1
60
0
100
AcDbSpline
70
4
71
3
72
78
73
74
40
0
40
0
40
0
40
0
40
0.0312499999999995
40
0.0312499999999995
40
0.062499999999999
40
0.062499999999999
40
0.0937499999999984
40
0.0937499999999984
40
0.124999999999998
40
0.124999999999998
40
0.156249999999997
40
0.156249999999997
40
0.187499999999997
40
0.187499999999997
40
0.218749999999996
40
0.218749999999996
40
0.249999999999996
40
0.249999999999996
40
0.281249999999995
40
0.281249999999995
40
0.312499999999995
40
0.312499999999995
40
0.343749999999994
40
0.343749999999994
40
0.374999999999994
40
0.374999999999994
40
0.406249999999994
40
0.406249999999994
40
0.437499999999993
40
0.437499999999993
40
0.468749999999993
40
0.468749999999993
40
0.484374999999992
40
0.484374999999992
40
0.492187499999992
40
0.492187499999992
40
0.499999999999992
40
0.499999999999992
40
0.531249999999992
40
0.531249999999992
40
0.562499999999993
40
0.562499999999993
40
0.593749999999994
40
0.593749999999994
40
0.624999999999994
40
0.624999999999994
40
0.656249999999995
40
0.656249999999995
40
0.687499999999995
40
0.687499999999995
40
0.718749999999996
40
0.718749999999996
40
0.749999999999996
40
0.749999999999996
40
0.781249999999997
40
0.781249999999997
40
0.812499999999998
40
0.812499999999998
40
0.843749999999998
40
0.843749999999998
40
0.874999999999999
40
0.874999999999999
40
0.906249999999999
40
0.906249999999999
40
0.9375
40
0.9375
40
0.96875
40
0.96875
40
0.984375
40
0.984375
40
0.9921875
40
0.9921875
40
1
40
1
40
1
40
1
41
1
10
91.9564225935172
20
9.5
30
0
41
1
10
92.0094003037354
20
9.5
30
0
41
1
10
92.0623780139538
20
9.48729373724615
30
0
41
1
10
92.1683334343903
20
9.43382180628927
30
0
41
1
10
92.2213111446085
20
9.39304947802825
30
0
41
1
10
92.3272665650451
20
9.28127715186659
30
0
41
1
10
92.3802442752634
20
9.21027070358758
30
0
41
1
10
92.4861996957
20
9.03655229494677
30
0
41
1
10
92.5391774059183
20
8.93383488348957
30
0
41
1
10
92.6451328263547
20
8.69608883652052
30
0
41
1
10
92.698110536573
20
8.56105657411283
30
0
41
1
10
92.8040659570095
20
8.25908659828826
30
0
41
1
10
92.8570436672277
20
8.09214778532277
30
0
41
1
10
92.9629990876643
20
7.72785540463576
30
0
41
1
10
93.0159767978826
20
7.53050368066786
30
0
41
1
10
93.1219322183191
20
7.10795120334043
30
0
41
1
10
93.1749099285374
20
6.88275524070028
30
0
41
1
10
93.280865348974
20
6.40805509735313
30
0
41
1
10
93.3338430591922
20
6.1585582059783
30
0
41
1
10
93.4397984796287
20
5.63958872589418
30
0
41
1
10
93.492776189847
20
5.37012509199752
30
0
41
1
10
93.5987316102836
20
4.81609913486929
30
0
41
1
10
93.6517093205018
20
4.53154637427986
30
0
41
1
10
93.7576647409384
20
3.95248164879345
30
0
41
1
10
93.8106424511566
20
3.65797877947296
30
0
41
1
10
93.9165978715932
20
3.06413181181429
30
0
41
1
10
93.9695755818116
20
2.76479544426957
30
0
41
1
10
94.0755310022481
20
2.16612228871153
30
0
41
1
10
94.1285087124662
20
1.86679127759544
30
0
41
1
10
94.2344641329028
20
1.27248788760707
30
0
41
1
10
94.2874418431211
20
0.977519096189582
30
0
41
1
10
94.3669084084485
20
0.541137061752664
30
0
41
1
10
94.3933972635576
20
0.396683055353179
30
0
41
1
10
94.4331305462214
20
0.181813252282637
30
0
41
1
10
94.4463749737759
20
0.110491507434517
30
0
41
1
10
94.472863828885
20
-0.0315029022350473
30
0
41
1
10
94.4861082564396
20
-0.102412960983259
30
0
41
1
10
94.5523303942124
20
-0.459394354385807
30
0
41
1
10
94.6053081044307
20
-0.749970614427781
30
0
41
1
10
94.7112635248672
20
-1.3377826459311
30
0
41
1
10
94.7642412350855
20
-1.63501610577146
30
0
41
1
10
94.870196655522
20
-2.23214427557213
30
0
41
1
10
94.9231743657402
20
-2.53203450006782
30
0
41
1
10
95.0291297861768
20
-3.12990446672393
30
0
41
1
10
95.0821074963951
20
-3.42787758791533
30
0
41
1
10
95.1880629168316
20
-4.01693520458076
30
0
41
1
10
95.2410406270499
20
-4.30801132295127
30
0
41
1
10
95.3469960474864
20
-4.87811718761245
30
0
41
1
10
95.3999737577047
20
-5.15713752592484
30
0
41
1
10
95.5059291781413
20
-5.69806440722064
30
0
41
1
10
95.5589068883596
20
-5.95996150151365
30
0
41
1
10
95.6648623087961
20
-6.46195170413085
30
0
41
1
10
95.7178400190143
20
-6.70203641646086
30
0
41
1
10
95.8237954394509
20
-7.15636084003958
30
0
41
1
10
95.8767731496691
20
-7.3705941978813
30
0
41
1
10
95.9827285701057
20
-7.77004897639389
30
0
41
1
10
96.035706280324
20
-7.95526677751533
30
0
41
1
10
96.1416617007604
20
-8.29454951397938
30
0
41
1
10
96.1946394109788
20
-8.44861382988313
30
0
41
1
10
96.3005948314154
20
-8.7245388618804
30
0
41
1
10
96.3535725416336
20
-8.84640177663923
30
0
41
1
10
96.4595279620701
20
-9.05793866309068
30
0
41
1
10
96.5125056722884
20
-9.14761710011717
30
0
41
1
10
96.6184610927248
20
-9.29576267792683
30
0
41
1
10
96.6714388029431
20
-9.35423577747301
30
0
41
1
10
96.7773942233797
20
-9.44175180706199
30
0
41
1
10
96.830371933598
20
-9.47080136169009
30
0
41
1
10
96.9098384989254
20
-9.4940975517286
30
0
41
1
10
96.9363273540345
20
-9.49848739809812
30
0
41
1
10
96.9760606366982
20
-9.50026288752096
30
0
41
1
10
96.9893050642528
20
-9.50005982590122
30
0
41
1
10
97.015793919362
20
-9.49804739867679
30
0
41
1
10
97.0290383469165
20
-9.49623420486586
30
0
41
1
10
97.042282774471
20
-9.49359268493606
30
0
0
SPLINE
5
EA
100
AcDbEntity
8
1
62
256
6
ByLayer
370
13
48
1
60
0
100
AcDbSpline
70
4
71
3
72
44
73
40
40
0
40
0
40
0
40
0
40
0.0624999999999992
40
0.0624999999999992
40
0.124999999999998
40
0.124999999999998
40
0.187499999999998
40
0.187499999999998
40
0.249999999999997
40
0.249999999999997
40
0.312499999999996
40
0.312499999999996
40
0.374999999999995
40
0.374999999999995
40
0.382812499999995
40
0.382812499999995
40
0.390624999999995
40
0.390624999999995
40
0.406249999999995
40
0.406249999999995
40
0.437499999999995
40
0.437499999999995
40
0.499999999999996
40
0.499999999999996
40
0.562499999999997
40
0.562499999999997
40
0.624999999999997
40
0.624999999999997
40
0.687499999999998
40
0.687499999999998
40
0.749999999999998
40
0.749999999999998
40
0.812499999999999
40
0.812499999999999
40
0.874999999999999
40
0.874999999999999
40
0.937499999999999
40
0.937499999999999
40
1
40
1
40
1
40
1
41
1
10
87
20
-8.00162859466477
30
0
41
1
10
87.0853036826438
20
-7.71669172561406
30
0
41
1
10
87.1706073652875
20
-7.39172621009337
30
0
41
1
10
87.3412147305751
20
-6.67299359915253
30
0
41
1
10
87.4265184132189
20
-6.27929060802566
30
0
41
1
10
87.5971257785064
20
-5.44045020499863
30
0
41
1
10
87.6824294611503
20
-4.99540944856764
30
0
41
1
10
87.8530368264378
20
-4.07484907685773
30
0
41
1
10
87.9383405090815
20
-3.59943003975655
30
0
41
1
10
88.1089478743691
20
-2.63958311013238
30
0
41
1
10
88.194251557013
20
-2.15523323330294
30
0
41
1
10
88.3648589223005
20
-1.19673601747306
30
0
41
1
10
88.4501626049444
20
-0.722630389758876
30
0
41
1
10
88.5461292479185
20
-0.203504334689313
30
0
41
1
10
88.556792208249
20
-0.146018518775008
30
0
41
1
10
88.57811812891
20
-0.0314608174256819
30
0
41
1
10
88.5887810892405
20
0.0254975982981307
30
0
41
1
10
88.6207699702319
20
0.197290914343142
30
0
41
1
10
88.6420958908928
20
0.31264988041741
30
0
41
1
10
88.7060736528757
20
0.66091991345138
30
0
41
1
10
88.7487254941975
20
0.896033185183597
30
0
41
1
10
88.8766810181633
20
1.60746325590637
30
0
41
1
10
88.961984700807
20
2.0899908133263
30
0
41
1
10
89.1325920660946
20
3.05384482705932
30
0
41
1
10
89.2178957487383
20
3.5351062679068
30
0
41
1
10
89.388503114026
20
4.4755887313591
30
0
41
1
10
89.4738067966697
20
4.93471515613666
30
0
41
1
10
89.6444141619571
20
5.80942715409407
30
0
41
1
10
89.7297178446011
20
6.22491101940912
30
0
41
1
10
89.9003252098885
20
6.99322027488023
30
0
41
1
10
89.9856288925324
20
7.34596630828966
30
0
41
1
10
90.15623625782
20
7.97489558068625
30
0
41
1
10
90.2415399404637
20
8.25104468024051
30
0
41
1
10
90.4121473057513
20
8.71986693707012
30
0
41
1
10
90.497450988395
20
8.91255665730009
30
0
41
1
10
90.6680583536827
20
9.2148041383798
30
0
41
1
10
90.7533620363264
20
9.32441662373753
30
0
41
1
10
90.9239694016139
20
9.46697903637471
30
0
41
1
10
91.0092730842576
20
9.5
30
0
41
1
10
91.0945767669015
20
9.5
30
0
0
SPLINE
5
EB
100
AcDbEntity
8
1
62
256
6
ByLayer
370
13
48
1
60
0
100
AcDbSpline
70
4
71
3
72
78
73
74
40
0
40
0
40
0
40
0
40
0.0312499999999999
40
0.0312499999999999
40
0.0624999999999998
40
0.0624999999999998
40
0.0937499999999996
40
0.0937499999999996
40
0.125
40
0.125
40
0.156249999999999
40
0.156249999999999
40
0.187499999999999
40
0.187499999999999
40
0.218749999999999
40
0.218749999999999
40
0.249999999999999
40
0.249999999999999
40
0.281249999999999
40
0.281249999999999
40
0.312499999999999
40
0.312499999999999
40
0.343749999999999
40
0.343749999999999
40
0.374999999999999
40
0.374999999999999
40
0.406249999999998
40
0.406249999999998
40
0.437499999999998
40
0.437499999999998
40
0.445312499999998
40
0.445312499999998
40
0.453124999999998
40
0.453124999999998
40
0.468749999999998
40
0.468749999999998
40
0.499999999999998
40
0.499999999999998
40
0.531249999999998
40
0.531249999999998
40
0.562499999999998
40
0.562499999999998
40
0.593749999999998
40
0.593749999999998
40
0.624999999999998
40
0.624999999999998
40
0.656249999999997
40
0.656249999999997
40
0.687499999999997
40
0.687499999999997
40
0.718749999999997
40
0.718749999999997
40
0.749999999999997
40
0.749999999999997
40
0.781249999999997
40
0.781249999999997
40
0.812499999999997
40
0.812499999999997
40
0.843749999999997
40
0.843749999999997
40
0.874999999999996
40
0.874999999999996
40
0.890624999999997
40
0.890624999999997
40
0.898437499999997
40
0.898437499999997
40
0.906249999999997
40
0.906249999999997
40
0.937499999999998
40
0.937499999999998
40
0.968749999999999
40
0.968749999999999
40
1
40
1
40
1
40
1
41
1
10
91.4607803843769
20
9.5
30
0
41
1
10
91.5189210342737
20
9.5
30
0
41
1
10
91.5770616841705
20
9.48469219552507
30
0
41
1
10
91.6933429839641
20
9.41998929629739
30
0
41
1
10
91.7514836338609
20
9.37058359212986
30
0
41
1
10
91.8677649336545
20
9.23493385690915
30
0
41
1
10
91.9259055835514
20
9.14867977634765
30
0
41
1
10
92.042186883345
20
8.93763789778245
30
0
41
1
10
92.1003275332419
20
8.81284215123785
30
0
41
1
10
92.2166088330355
20
8.52435334320276
30
0
41
1
10
92.2747494829323
20
8.36065597242833
30
0
41
1
10
92.3910307827259
20
7.99552179945849
30
0
41
1
10
92.4491714326227
20
7.79408548819723
30
0
41
1
10
92.5654527324164
20
7.35621403873998
30
0
41
1
10
92.6235933823132
20
7.11978462084744
30
0
41
1
10
92.7398746821069
20
6.61615793373062
30
0
41
1
10
92.7980153320036
20
6.34897111184702
30
0
41
1
10
92.9142966317972
20
5.7893055586907
30
0
41
1
10
92.9724372816941
20
5.49684061979804
30
0
41
1
10
93.0887185814878
20
4.89297001434275
30
0
41
1
10
93.1468592313846
20
4.5815795300457
30
0
41
1
10
93.2631405311781
20
3.9466416686526
30
0
41
1
10
93.3212811810749
20
3.62310879559425
30
0
41
1
10
93.4375624808686
20
2.97064940943693
30
0
41
1
10
93.4957031307654
20
2.64173499541519
30
0
41
1
10
93.611984430559
20
1.98484991896154
30
0
41
1
10
93.6701250804558
20
1.65688787099739
30
0
41
1
10
93.7864063802494
20
1.00750483042174
30
0
41
1
10
93.8445470301463
20
0.686088625329518
30
0
41
1
10
93.9172228425173
20
0.291316226825416
30
0
41
1
10
93.9317580049915
20
0.212709189911493
30
0
41
1
10
93.96082832994
20
0.0562526681078168
30
0
41
1
10
93.9753634924143
20
-0.0213531905942546
30
0
41
1
10
94.0189689798367
20
-0.255696793780004
30
0
41
1
10
94.0480393047852
20
-0.413461000409939
30
0
41
1
10
94.1352502796304
20
-0.890590090251493
30
0
41
1
10
94.1933909295272
20
-1.21382182819394
30
0
41
1
10
94.3096722293208
20
-1.8657209307556
30
0
41
1
10
94.3678128792176
20
-2.19438269973634
30
0
41
1
10
94.4840941790113
20
-2.85137395924039
30
0
41
1
10
94.542234828908
20
-3.17969404105878
30
0
41
1
10
94.6585161287016
20
-3.82955073247288
30
0
41
1
10
94.7166567785985
20
-4.15107461637237
30
0
41
1
10
94.8329380783921
20
-4.78053911334374
30
0
41
1
10
94.8910787282889
20
-5.08846491605809
30
0
41
1
10
95.0073600280825
20
-5.68400339704289
30
0
41
1
10
95.0655006779793
20
-5.97160101188803
30
0
41
1
10
95.1817819777731
20
-6.52027891134495
30
0
41
1
10
95.2399226276699
20
-6.7813459642984
30
0
41
1
10
95.3562039274635
20
-7.27171676665893
30
0
41
1
10
95.4143445773603
20
-7.50101098500301
30
0
41
1
10
95.530625877154
20
-7.92389666264165
30
0
41
1
10
95.5887665270508
20
-8.11748350432407
30
0
41
1
10
95.7050478268444
20
-8.46653765236894
30
0
41
1
10
95.7631884767412
20
-8.62200555383487
30
0
41
1
10
95.8794697765348
20
-8.89398831158431
30
0
41
1
10
95.9376104264317
20
-9.01050836701424
30
0
41
1
10
96.0538917262253
20
-9.20525512255369
30
0
41
1
10
96.112032376122
20
-9.28349035223886
30
0
41
1
10
96.2283136759156
20
-9.40360898588037
30
0
41
1
10
96.2864543258124
20
-9.44550268133611
30
0
41
1
10
96.3736653006577
20
-9.48328048534864
30
0
41
1
10
96.4027356256062
20
-9.49170272293816
30
0
41
1
10
96.4463411130287
20
-9.49840449335551
30
0
41
1
10
96.460876275503
20
-9.49965011699268
30
0
41
1
10
96.4899466004514
20
-9.50022192316911
30
0
41
1
10
96.5044817629257
20
-9.49955441029178
30
0
41
1
10
96.5771575752966
20
-9.49132306516512
30
0
41
1
10
96.6352982251934
20
-9.46903562702383
30
0
41
1
10
96.7515795249871
20
-9.38971552274737
30
0
41
1
10
96.8097201748839
20
-9.33267224813656
30
0
41
1
10
96.9260014746774
20
-9.18128817328088
30
0
41
1
10
96.9841421245742
20
-9.08693763626823
30
0
41
1
10
97.0422827744711
20
-8.9732218055801
30
0
0
SPLINE
5
EC
100
AcDbEntity
8
1
62
256
6
ByLayer
370
13
48
1
60
0
100
AcDbSpline
70
4
71
3
72
44
73
40
40
0
40
0
40
0
40
0
40
0.0625
40
0.0625
40
0.125
40
0.125
40
0.1875
40
0.1875
40
0.25
40
0.25
40
0.28125
40
0.28125
40
0.296875
40
0.296875
40
0.3046875
40
0.3046875
40
0.3125
40
0.3125
40
0.375
40
0.375
40
0.4375
40
0.4375
40
0.5
40
0.5
40
0.5625
40
0.5625
40
0.625
40
0.625
40
0.6875
40
0.6875
40
0.75
40
0.75
40
0.8125
40
0.8125
40
0.875
40
0.875
40
0.9375
40
0.9375
40
1
40
1
40
1
40
1
41
1
10
87.0000000000001
20
-5.93911497321093
30
0
41
1
10
87.0749778032867
20
-5.57333563655345
30
0
41
1
10
87.1499556065734
20
-5.18729971534856
30
0
41
1
10
87.2999112131467
20
-4.38863797871949
30
0
41
1
10
87.3748890164335
20
-3.97606588725935
30
0
41
1
10
87.5248446230069
20
-3.13899620936803
30
0
41
1
10
87.5998224262936
20
-2.71454440665374
30
0
41
1
10
87.749778032867
20
-1.86748562734869
30
0
41
1
10
87.8247558361536
20
-1.4449090353184
30
0
41
1
10
87.9372225410837
20
-0.821210003843902
30
0
41
1
10
87.974711442727
20
-0.614985758386894
30
0
41
1
10
88.030944795192
20
-0.309069752700793
30
0
41
1
10
88.0496892460137
20
-0.207666450661435
30
0
41
1
10
88.0778059222462
20
-0.0565155220956797
30
0
41
1
10
88.087178147657
20
-0.0063987138467212
30
0
41
1
10
88.1059225984787
20
0.0941003206708899
30
0
41
1
10
88.1152948238896
20
0.144512092847521
30
0
41
1
10
88.1996448525871
20
0.599605491411467
30
0
41
1
10
88.2746226558738
20
1.01411369113501
30
0
41
1
10
88.4245782624472
20
1.8532177850706
30
0
41
1
10
88.4995560657338
20
2.2777951701577
30
0
41
1
10
88.6495116723073
20
3.12460024684125
30
0
41
1
10
88.7244894755939
20
3.54679210168823
30
0
41
1
10
88.8744450821672
20
4.37464455477789
30
0
41
1
10
88.949422885454
20
4.78025574299934
30
0
41
1
10
89.0993784920274
20
5.56032002234201
30
0
41
1
10
89.1743562953141
20
5.93471917011138
30
0
41
1
10
89.3243119018873
20
6.63887722597894
30
0
41
1
10
89.3992897051742
20
6.96858966564187
30
0
41
1
10
89.5492453117476
20
7.57259066204975
30
0
41
1
10
89.6242231150342
20
7.8468509444296
30
0
41
1
10
89.7741787216077
20
8.33302172638665
30
0
41
1
10
89.8491565248943
20
8.54492750789248
30
0
41
1
10
89.9991121314677
20
8.90383033850514
30
0
41
1
10
90.0740899347543
20
9.05084459757867
30
0
41
1
10
90.2240455413277
20
9.28157228390884
30
0
41
1
10
90.2990233446145
20
9.36531773074941
30
0
41
1
10
90.4489789511879
20
9.47451277488608
30
0
41
1
10
90.5239567544745
20
9.5
30
0
41
1
10
90.5989345577613
20
9.5
30
0
0
SPLINE
5
ED
100
AcDbEntity
8
1
62
256
6
ByLayer
370
13
48
1
60
0
100
AcDbSpline
70
4
71
3
72
77
73
73
40
0
40
0
40
0
40
0
40
0.03125
40
0.03125
40
0.0625
40
0.0625
40
0.0937500000000001
40
0.0937500000000001
40
0.125
40
0.125
40
0.15625
40
0.15625
40
0.1875
40
0.1875
40
0.21875
40
0.21875
40
0.25
40
0.25
40
0.28125
40
0.28125
40
0.3125
40
0.3125
40
0.34375
40
0.34375
40
0.375000000000001
40
0.375000000000001
40
0.406250000000001
40
0.406250000000001
40
0.414062500000001
40
0.414062500000001
40
0.421875000000001
40
0.437500000000001
40
0.437500000000001
40
0.468750000000001
40
0.468750000000001
40
0.500000000000001
40
0.500000000000001
40
0.531250000000001
40
0.531250000000001
40
0.562500000000001
40
0.562500000000001
40
0.593750000000002
40
0.593750000000002
40
0.625000000000002
40
0.625000000000002
40
0.656250000000002
40
0.656250000000002
40
0.687500000000002
40
0.687500000000002
40
0.718750000000002
40
0.718750000000002
40
0.750000000000002
40
0.750000000000002
40
0.781250000000002
40
0.781250000000002
40
0.812500000000002
40
0.812500000000002
40
0.820312500000002
40
0.820312500000002
40
0.828125000000002
40
0.828125000000002
40
0.843750000000002
40
0.843750000000002
40
0.875000000000002
40
0.875000000000002
40
0.906250000000001
40
0.906250000000001
40
0.937500000000001
40
0.937500000000001
40
0.968750000000001
40
0.968750000000001
40
1
40
1
40
1
40
1
41
1
10
90.9651381752366
20
9.5
30
0
41
1
10
91.028441764812
20
9.5
30
0
41
1
10
91.0917453543873
20
9.48184708183311
30
0
41
1
10
91.218352533538
20
9.40479001401528
30
0
41
1
10
91.2816561231134
20
9.34586963728546
30
0
41
1
10
91.4082633022641
20
9.18388205651644
30
0
41
1
10
91.4715668918395
20
9.08079988852009
30
0
41
1
10
91.5981740709901
20
8.82865093613063
30
0
41
1
10
91.6614776605657
20
8.6795732760306
30
0
41
1
10
91.7880848397163
20
8.33555217317641
30
0
41
1
10
91.8513884292917
20
8.14060460296301
30
0
41
1
10
91.9779956084424
20
7.70715398467647
30
0
41
1
10
92.0412991980177
20
7.46865524164139
30
0
41
1
10
92.1679063771685
20
6.95260660062519
30
0
41
1
10
92.2312099667438
20
6.67506948406611
30
0
41
1
10
92.3578171458945
20
6.08738450099059
30
0
41
1
10
92.4211207354699
20
5.77725609626108
30
0
41
1
10
92.5477279146206
20
5.13227268868405
30
0
41
1
10
92.6110315041959
20
4.797440604869
30
0
41
1
10
92.7376386833466
20
4.11172847187652
30
0
41
1
10
92.8009422729219
20
3.76087103724907
30
0
41
1
10
92.9275494520726
20
3.05188364538182
30
0
41
1
10
92.9908530416481
20
2.69377270106
30
0
41
1
10
93.1174602207988
20
1.97851414842606
30
0
41
1
10
93.1807638103742
20
1.62137985090487
30
0
41
1
10
93.307370989525
20
0.915279155095959
30
0
41
1
10
93.3706745791003
20
0.566319709727139
30
0
41
1
10
93.4498040660695
20
0.138892882928786
30
0
41
1
10
93.4656299634634
20
0.0540285553708202
30
0
41
1
10
93.497281758251
20
-0.115578387826417
30
0
41
1
10
93.5447594504324
20
-0.371381668959202
30
0
41
1
10
93.5922371426141
20
-0.631018713935219
30
0
41
1
10
93.6871925269771
20
-1.15435801612941
30
0
41
1
10
93.7504961165524
20
-1.50871212177338
30
0
41
1
10
93.8771032957031
20
-2.22172048285833
30
0
41
1
10
93.9404068852785
20
-2.58036422287108
30
0
41
1
10
94.0670140644292
20
-3.29413155192398
30
0
41
1
10
94.1303176540046
20
-3.64923846073705
30
0
41
1
10
94.2569248331553
20
-4.34733189146542
30
0
41
1
10
94.3202284227306
20
-4.69029703440881
30
0
41
1
10
94.4468356018813
20
-5.35530482930704
30
0
41
1
10
94.5101391914566
20
-5.67732423848793
30
0
41
1
10
94.6367463706073
20
-6.29211814435749
30
0
41
1
10
94.7000499601828
20
-6.58487120724587
30
0
41
1
10
94.8266571393335
20
-7.13397455031802
30
0
41
1
10
94.8899607289089
20
-7.39030879144525
30
0
41
1
10
95.0165679080595
20
-7.86115663698513
30
0
41
1
10
95.0798714976349
20
-8.0756621056421
30
0
41
1
10
95.2064786767855
20
-8.45954551419797
30
0
41
1
10
95.269782266361
20
-8.62892399758002
30
0
41
1
10
95.3963894455117
20
-8.92147261249062
30
0
41
1
10
95.459693035087
20
-9.04465094272427
30
0
41
1
10
95.5863002142378
20
-9.2458078253502
30
0
41
1
10
95.6496038038131
20
-9.32379990121922
30
0
41
1
10
95.7762109829639
20
-9.43734645886286
30
0
41
1
10
95.8395145725394
20
-9.47291694097851
30
0
41
1
10
95.9186440595086
20
-9.49339513528986
30
0
41
1
10
95.9344699569023
20
-9.49629401871954
30
0
41
1
10
95.96612175169
20
-9.49977021270144
30
0
41
1
10
95.9819476490838
20
-9.50035088201824
30
0
41
1
10
96.0294253412653
20
-9.49869927010829
30
0
41
1
10
96.061077136053
20
-9.49303001789778
30
0
41
1
10
96.1560325204161
20
-9.46145433291957
30
0
41
1
10
96.2193361099913
20
-9.42094372918638
30
0
41
1
10
96.3459432891422
20
-9.29710348504386
30
0
41
1
10
96.4092468787175
20
-9.21375799457681
30
0
41
1
10
96.5358540578683
20
-9.00166979397903
30
0
41
1
10
96.5991576474435
20
-8.87291405595673
30
0
41
1
10
96.7257648265943
20
-8.56922380247278
30
0
41
1
10
96.7890684161696
20
-8.39428191008381
30
0
41
1
10
96.9156755953204
20
-7.99955130733758
30
0
41
1
10
96.9789791848957
20
-7.77976308264564
30
0
41
1
10
97.042282774471
20
-7.53932966764702
30
0
0
SPLINE
5
EE
100
AcDbEntity
8
1
62
256
6
ByLayer
370
13
48
1
60
0
100
AcDbSpline
70
4
71
3
72
41
73
37
40
0
40
0
40
0
40
0
40
0.0624999999999978
40
0.0624999999999978
40
0.124999999999996
40
0.124999999999996
40
0.187499999999994
40
0.187499999999994
40
0.203124999999994
40
0.203124999999994
40
0.218749999999994
40
0.249999999999994
40
0.249999999999994
40
0.312499999999995
40
0.312499999999995
40
0.374999999999995
40
0.374999999999995
40
0.437499999999996
40
0.437499999999996
40
0.499999999999996
40
0.499999999999996
40
0.562499999999997
40
0.562499999999997
40
0.624999999999997
40
0.624999999999997
40
0.687499999999998
40
0.687499999999998
40
0.749999999999998
40
0.749999999999998
40
0.812499999999999
40
0.812499999999999
40
0.874999999999999
40
0.874999999999999
40
0.9375
40
0.9375
40
1
40
1
40
1
40
1
41
1
10
87
20
-3.30132516986063
30
0
41
1
10
87.0646519239295
20
-2.9385878755966
30
0
41
1
10
87.1293038478592
20
-2.57252003306186
30
0
41
1
10
87.2586076957184
20
-1.84235879288306
30
0
41
1
10
87.323259619648
20
-1.47827934419959
30
0
41
1
10
87.4525634675072
20
-0.759598715411357
30
0
41
1
10
87.5172153914368
20
-0.405004290683706
30
0
41
1
10
87.5980302963488
20
0.0285525142795393
30
0
41
1
10
87.6141932773312
20
0.115033243824286
30
0
41
1
10
87.646519239296
20
0.289491671056425
30
0
41
1
10
87.6950081822432
20
0.552550299018321
30
0
41
1
10
87.7434971251904
20
0.819336063884236
30
0
41
1
10
87.8404750110849
20
1.35671147123119
30
0
41
1
10
87.9051269350144
20
1.72007644101882
30
0
41
1
10
88.0344307828736
20
2.44971292309967
30
0
41
1
10
88.0990827068032
20
2.81597129333869
30
0
41
1
10
88.2283865546625
20
3.54284036674585
30
0
41
1
10
88.2930384785921
20
3.90343115613223
30
0
41
1
10
88.4223423264513
20
4.60969041430917
30
0
41
1
10
88.4869942503808
20
4.95533427845055
30
0
41
1
10
88.61629809824
20
5.62238218097602
30
0
41
1
10
88.6809500221697
20
5.94376052510978
30
0
41
1
10
88.8102538700289
20
6.55368675529516
30
0
41
1
10
88.8749057939584
20
6.84221219734772
30
0
41
1
10
89.0042096418177
20
7.37930801361008
30
0
41
1
10
89.0688615657473
20
7.62786309031566
30
0
41
1
10
89.1981654136064
20
8.0799398452576
30
0
41
1
10
89.2628173375361
20
8.28345570327645
30
0
41
1
10
89.3921211853954
20
8.64274589455928
30
0
41
1
10
89.4567731093249
20
8.79852406319267
30
0
41
1
10
89.5860769571841
20
9.06202931837095
30
0
41
1
10
89.6507288811137
20
9.16976808557027
30
0
41
1
10
89.780032728973
20
9.33904217119454
30
0
41
1
10
89.8446846529025
20
9.40059398210525
30
0
41
1
10
89.9739885007618
20
9.48106388399574
30
0
41
1
10
90.0386404246913
20
9.5
30
0
41
1
10
90.1032923486209
20
9.5
30
0
0
SPLINE
5
EF
100
AcDbEntity
8
1
62
256
6
ByLayer
370
13
48
1
60
0
100
AcDbSpline
70
4
71
3
72
79
73
75
40
0
40
0
40
0
40
0
40
0.0312500000000007
40
0.0312500000000007
40
0.0625000000000014
40
0.0625000000000014
40
0.0937500000000021
40
0.0937500000000021
40
0.125000000000003
40
0.125000000000003
40
0.156250000000004
40
0.156250000000004
40
0.187500000000004
40
0.187500000000004
40
0.218750000000005
40
0.218750000000005
40
0.250000000000006
40
0.250000000000006
40
0.281250000000007
40
0.281250000000007
40
0.312500000000007
40
0.312500000000007
40
0.343750000000008
40
0.343750000000008
40
0.375000000000009
40
0.375000000000009
40
0.382812500000009
40
0.382812500000009
40
0.390625000000009
40
0.390625000000009
40
0.406250000000008
40
0.406250000000008
40
0.437500000000007
40
0.437500000000007
40
0.468750000000006
40
0.468750000000006
40
0.500000000000005
40
0.500000000000005
40
0.531250000000004
40
0.531250000000004
40
0.562500000000004
40
0.562500000000004
40
0.593750000000003
40
0.593750000000003
40
0.625000000000002
40
0.625000000000002
40
0.656250000000001
40
0.656250000000001
40
0.6875
40
0.6875
40
0.718749999999999
40
0.718749999999999
40
0.749999999999998
40
0.749999999999998
40
0.757812499999998
40
0.761718749999998
40
0.761718749999998
40
0.765624999999998
40
0.765624999999998
40
0.781249999999998
40
0.781249999999998
40
0.812499999999998
40
0.812499999999998
40
0.843749999999998
40
0.843749999999998
40
0.874999999999998
40
0.874999999999998
40
0.906249999999999
40
0.906249999999999
40
0.937499999999999
40
0.937499999999999
40
0.96875
40
0.96875
40
1
40
1
40
1
40
1
41
1
10
90.4694959660964
20
9.5
30
0
41
1
10
90.5379624953501
20
9.5
30
0
41
1
10
90.6064290246041
20
9.47875784298284
30
0
41
1
10
90.7433620831119
20
9.38821142509164
30
0
41
1
10
90.8118286123658
20
9.31888318636399
30
0
41
1
10
90.9487616708736
20
9.12807385904028
30
0
41
1
10
91.0172282001275
20
9.00657135339765
30
0
41
1
10
91.1541612586353
20
8.70955290491099
30
0
41
1
10
91.2226277878892
20
8.5340230120506
30
0
41
1
10
91.359560846397
20
8.12986913461407
30
0
41
1
10
91.428027375651
20
7.90124295668761
30
0
41
1
10
91.5649604341588
20
7.39485318848222
30
0
41
1
10
91.6334269634127
20
7.11710122601212
30
0
41
1
10
91.7703600219205
20
6.51931751960871
30
0
41
1
10
91.8388265511744
20
6.19930998575106
30
0
41
1
10
91.9757596096822
20
5.52622790999587
30
0
41
1
10
92.0442261389361
20
5.17318571754976
30
0
41
1
10
92.1811591974438
20
4.44473394073347
30
0
41
1
10
92.2496257266978
20
4.06935855517517
30
0
41
1
10
92.3865587852056
20
3.3074033286845
30
0
41
1
10
92.4550253144595
20
2.92085340313505
30
0
41
1
10
92.5919583729674
20
2.1471908825493
30
0
41
1
10
92.6604249022213
20
1.76009966809445
30
0
41
1
10
92.797357960729
20
0.994691548732931
30
0
41
1
10
92.865824489983
20
0.616385894352106
30
0
41
1
10
92.9514076515503
20
0.153699643909306
30
0
41
1
10
92.9685242838638
20
0.0618669241239047
30
0
41
1
10
93.0027575484907
20
-0.121565577957483
30
0
41
1
10
93.0198741808042
20
-0.213825694050996
30
0
41
1
10
93.0712240777447
20
-0.492087678026735
30
0
41
1
10
93.1054573423716
20
-0.679575003365301
30
0
41
1
10
93.2081571362524
20
-1.24663630488291
30
0
41
1
10
93.2766236655063
20
-1.63086456391409
30
0
41
1
10
93.4135567240141
20
-2.403151653838
30
0
41
1
10
93.482023253268
20
-2.79119358080592
30
0
41
1
10
93.6189563117759
20
-3.56098631836804
30
0
41
1
10
93.6874228410297
20
-3.94271064551512
30
0
41
1
10
93.8243558995375
20
-4.68883780323651
30
0
41
1
10
93.8928224287914
20
-5.05320766756589
30
0
41
1
10
94.0297554872993
20
-5.75359332043564
30
0
41
1
10
94.0982220165531
20
-6.08957511997539
30
0
41
1
10
94.235155075061
20
-6.72317727552866
30
0
41
1
10
94.3036216043149
20
-7.02076909177154
30
0
41
1
10
94.4405546628226
20
-7.56957228473996
30
0
41
1
10
94.5090211920766
20
-7.82076606376253
30
0
41
1
10
94.6459542505844
20
-8.27145405080014
30
0
41
1
10
94.7144207798383
20
-8.47094436392402
30
0
41
1
10
94.8513538383461
20
-8.81593608826583
30
0
41
1
10
94.9198203676001
20
-8.96144664184226
30
0
41
1
10
95.0567534261079
20
-9.19913484505622
30
0
41
1
10
95.1252199553617
20
-9.29133119062897
30
0
41
1
10
95.2621530138696
20
-9.42555914043115
30
0
41
1
10
95.3306195431235
20
-9.4676141630593
30
0
41
1
10
95.4162027046909
20
-9.49197331643745
30
0
41
1
10
95.441877653161
20
-9.49717064222634
30
0
41
1
10
95.4675526016314
20
-9.49930421194082
30
0
41
1
10
95.4846692339448
20
-9.50005753518923
30
0
41
1
10
95.4932275501014
20
-9.50010091741424
30
0
41
1
10
95.5360191308853
20
-9.49865723705094
30
0
41
1
10
95.5702523955122
20
-9.49215945440403
30
0
41
1
10
95.672952189393
20
-9.45554868300968
30
0
41
1
10
95.7414187186469
20
-9.40826683780676
30
0
41
1
10
95.8783517771547
20
-9.26313798078536
30
0
41
1
10
95.9468183064086
20
-9.16526782473105
30
0
41
1
10
96.0837513649165
20
-8.91602749224955
30
0
41
1
10
96.1522178941703
20
-8.7646394330846
30
0
41
1
10
96.2891509526781
20
-8.40799129152521
30
0
41
1
10
96.357617481932
20
-8.20272335322849
30
0
41
1
10
96.4945505404398
20
-7.74091023103955
30
0
41
1
10
96.5630170696938
20
-7.48437045779016
30
0
41
1
10
96.6999501282015
20
-6.92562218735674
30
0
41
1
10
96.7684166574555
20
-6.6234326687478
30
0
41
1
10
96.9053497159634
20
-5.98163916488255
30
0
41
1
10
96.9738162452172
20
-5.64206461157008
30
0
41
1
10
97.0422827744711
20
-5.28886211514441
30
0
0
SPLINE
5
F0
100
AcDbEntity
8
1
62
256
6
ByLayer
370
13
48
1
60
0
100
AcDbSpline
70
4
71
3
72
42
73
38
40
0
40
0
40
0
40
0
40
0.0312500000000001
40
0.0312500000000001
40
0.0468749999999996
40
0.0468749999999996
40
0.0624999999999991
40
0.0624999999999991
40
0.124999999999999
40
0.124999999999999
40
0.187499999999999
40
0.187499999999999
40
0.25
40
0.25
40
0.3125
40
0.3125
40
0.375
40
0.375
40
0.4375
40
0.4375
40
0.5
40
0.5
40
0.5625
40
0.5625
40
0.625
40
0.625
40
0.6875
40
0.6875
40
0.749999999999999
40
0.749999999999999
40
0.8125
40
0.8125
40
0.875
40
0.875
40
0.9375
40
0.9375
40
1
40
1
40
1
40
1
41
1
10
87
20
-0.525059040600155
30
0
41
1
10
87.0271630222862
20
-0.37669066192143
30
0
41
1
10
87.0543260445725
20
-0.229462037337896
30
0
41
1
10
87.0950705780018
20
-0.010639754942531
30
0
41
1
10
87.1086520891449
20
0.0619016494467246
30
0
41
1
10
87.1358151114312
20
0.208096189156748
30
0
41
1
10
87.1493966225744
20
0.281524085500592
30
0
41
1
10
87.2173041782901
20
0.650189143051932
30
0
41
1
10
87.2716302228625
20
0.950033022884668
30
0
41
1
10
87.3802823120076
20
1.55579371043004
30
0
41
1
10
87.4346083565802
20
1.86170732772371
30
0
41
1
10
87.5432604457251
20
2.47512893278702
30
0
41
1
10
87.5975864902977
20
2.78263118158478
30
0
41
1
10
87.7062385794426
20
3.39415880020425
30
0
41
1
10
87.7605646240152
20
3.69817602963567
30
0
41
1
10
87.8692167131602
20
4.2972788376062
30
0
41
1
10
87.9235427577327
20
4.59235444871979
30
0
41
1
10
88.0321948468778
20
5.16801001714549
30
0
41
1
10
88.0865208914503
20
5.44857915805454
30
0
41
1
10
88.1951729805953
20
5.98986447898702
30
0
41
1
10
88.2494990251678
20
6.25057023986056
30
0
41
1
10
88.3581511143128
20
6.74730175115886
30
0
41
1
10
88.4124771588853
20
6.98331876617172
30
0
41
1
10
88.5211292480303
20
7.42666824463407
30
0
41
1
10
88.5754552926028
20
7.6339947211668
30
0
41
1
10
88.6841073817479
20
8.01700574632929
30
0
41
1
10
88.7384334263204
20
8.1926876816915
30
0
41
1
10
88.8470855154653
20
8.510630358291
30
0
41
1
10
88.9014115600378
20
8.65289193805387
30
0
41
1
10
89.0100636491829
20
8.90341914194335
30
0
41
1
10
89.0643896937554
20
9.01168861734186
30
0
41
1
10
89.1730417829004
20
9.19478885744763
30
0
41
1
10
89.227367827473
20
9.26962567529324
30
0
41
1
10
89.3360199166181
20
9.38739786144825
30
0
41
1
10
89.3903459611906
20
9.43034050652309
30
0
41
1
10
89.4989980503356
20
9.48663779885467
30
0
41
1
10
89.5533240949081
20
9.5
30
0
41
1
10
89.6076501394806
20
9.5
30
0
0
SPLINE
5
F1
100
AcDbEntity
8
1
62
256
6
ByLayer
370
13
48
1
60
0
100
AcDbSpline
70
4
71
3
72
78
73
74
40
0
40
0
40
0
40
0
40
0.0312500000000007
40
0.0312500000000007
40
0.0625000000000014
40
0.0625000000000014
40
0.0937500000000022
40
0.0937500000000022
40
0.125000000000003
40
0.125000000000003
40
0.156250000000004
40
0.156250000000004
40
0.187500000000004
40
0.187500000000004
40
0.218750000000005
40
0.218750000000005
40
0.250000000000006
40
0.250000000000006
40
0.281250000000007
40
0.281250000000007
40
0.312500000000007
40
0.312500000000007
40
0.343750000000008
40
0.343750000000008
40
0.351562500000008
40
0.351562500000008
40
0.359375000000008
40
0.359375000000008
40
0.375000000000008
40
0.375000000000008
40
0.406250000000007
40
0.406250000000007
40
0.437500000000006
40
0.437500000000006
40
0.468750000000004
40
0.468750000000004
40
0.500000000000003
40
0.500000000000003
40
0.531250000000002
40
0.531250000000002
40
0.562500000000001
40
0.562500000000001
40
0.59375
40
0.59375
40
0.624999999999999
40
0.624999999999999
40
0.656249999999998
40
0.656249999999998
40
0.687499999999997
40
0.687499999999997
40
0.703124999999997
40
0.703124999999997
40
0.710937499999997
40
0.710937499999997
40
0.718749999999996
40
0.718749999999996
40
0.749999999999997
40
0.749999999999997
40
0.781249999999997
40
0.781249999999997
40
0.812499999999998
40
0.812499999999998
40
0.843749999999998
40
0.843749999999998
40
0.874999999999998
40
0.874999999999998
40
0.906249999999999
40
0.906249999999999
40
0.937499999999999
40
0.937499999999999
40
0.96875
40
0.96875
40
1
40
1
40
1
40
1
41
1
10
89.9738537569559
20
9.5
30
0
41
1
10
90.0474832258884
20
9.5
30
0
41
1
10
90.1211126948209
20
9.47542385621873
30
0
41
1
10
90.2683716326858
20
9.37024135203441
30
0
41
1
10
90.3420011016182
20
9.28960059654162
30
0
41
1
10
90.4892600394832
20
9.06746721566967
30
0
41
1
10
90.5628895084155
20
8.92594500235961
30
0
41
1
10
90.7101484462805
20
8.58033688150044
30
0
41
1
10
90.7837779152129
20
8.37623431726598
30
0
41
1
10
90.9310368530778
20
7.90758863335682
30
0
41
1
10
91.0046663220103
20
7.64304825495341
30
0
41
1
10
91.1519252598752
20
7.05971565760873
30
0
41
1
10
91.2255547288076
20
6.74094744098133
30
0
41
1
10
91.3728136666725
20
6.05901387412859
30
0
41
1
10
91.446443135605
20
5.69588959587068
30
0
41
1
10
91.5937020734698
20
4.93776639256245
30
0
41
1
10
91.6673315424023
20
4.54281651255525
30
0
41
1
10
91.8145904802672
20
3.73484192759594
30
0
41
1
10
91.8882199491995
20
3.32186356424811
30
0
41
1
10
92.0354788870645
20
2.49143730800472
30
0
41
1
10
92.1091083559969
20
2.07402452488301
30
0
41
1
10
92.2563672938619
20
1.24688876483265
30
0
41
1
10
92.3299967627943
20
0.837185565433458
30
0
41
1
10
92.42203359896
20
0.33603685799676
30
0
41
1
10
92.440440966193
20
0.236349939868575
30
0
41
1
10
92.4772557006592
20
0.0381902160883669
30
0
41
1
10
92.4956630678923
20
-0.0600175449815197
30
0
41
1
10
92.5508851695918
20
-0.35752437304663
30
0
41
1
10
92.5876999040579
20
-0.558277413325811
30
0
41
1
10
92.6981441074566
20
-1.16616931765617
30
0
41
1
10
92.771773576389
20
-1.57901534989912
30
0
41
1
10
92.919032514254
20
-2.40937920874251
30
0
41
1
10
92.9926619831864
20
-2.82687301452947
30
0
41
1
10
93.1399209210513
20
-3.65391298833745
30
0
41
1
10
93.2135503899838
20
-4.06342042585439
30
0
41
1
10
93.3608093278486
20
-4.86071212269783
30
0
41
1
10
93.4344387967811
20
-5.248448330169
30
0
41
1
10
93.581697734646
20
-5.98859335802351
30
0
41
1
10
93.6553272035784
20
-6.34095421912932
30
0
41
1
10
93.8025861414433
20
-6.99839533390733
30
0
41
1
10
93.8762156103758
20
-7.30343836098379
30
0
41
1
10
94.0234745482406
20
-7.85726001823426
30
0
41
1
10
94.0971040171731
20
-8.10602019493368
30
0
41
1
10
94.244362955038
20
-8.54212395796603
30
0
41
1
10
94.3179924239705
20
-8.72947042837203
30
0
41
1
10
94.4652513618354
20
-9.04166375831369
30
0
41
1
10
94.5388808307679
20
-9.16653150684954
30
0
41
1
10
94.6861397686328
20
-9.35637906233083
30
0
41
1
10
94.7597692375651
20
-9.42139054067613
30
0
41
1
10
94.8702134409639
20
-9.47810755737771
30
0
41
1
10
94.9070281754301
20
-9.49023249329019
30
0
41
1
10
94.9622502771294
20
-9.49889816437698
30
0
41
1
10
94.9806576443625
20
-9.50020116173266
30
0
41
1
10
95.0174723788287
20
-9.49974886000521
30
0
41
1
10
95.0358797460618
20
-9.49798606500923
30
0
41
1
10
95.1279165822274
20
-9.48119940352956
30
0
41
1
10
95.2015460511599
20
-9.44218653776466
30
0
41
1
10
95.3488049890249
20
-9.30658475703231
30
0
41
1
10
95.4224344579573
20
-9.20996196361475
30
0
41
1
10
95.5696933958221
20
-8.9550627753238
30
0
41
1
10
95.6433228647546
20
-8.79675947767603
30
0
41
1
10
95.7905818026195
20
-8.41776247000524
30
0
41
1
10
95.8642112715519
20
-8.19705681933135
30
0
41
1
10
96.0114702094168
20
-7.69647180371192
30
0
41
1
10
96.0850996783493
20
-7.41660094865068
30
0
41
1
10
96.2323586162141
20
-6.80492447644684
30
0
41
1
10
96.3059880851466
20
-6.47314810172497
30
0
41
1
10
96.4532470230114
20
-5.7683506317058
30
0
41
1
10
96.526876491944
20
-5.3953737783219
30
0
41
1
10
96.6741354298089
20
-4.62118656280521
30
0
41
1
10
96.7477648987413
20
-4.22002553993008
30
0
41
1
10
96.8950238366062
20
-3.403357797111
30
0
41
1
10
96.9686533055386
20
-2.98789508078932
30
0
41
1
10
97.0422827744711
20
-2.57192207526745
30
0
0
SPLINE
5
F2
100
AcDbEntity
8
1
62
256
6
ByLayer
370
13
48
1
60
0
100
AcDbSpline
70
4
71
3
72
22
73
18
40
0
40
0
40
0
40
0
40
0.125
40
0.125
40
0.25
40
0.25
40
0.375
40
0.375
40
0.5
40
0.5
40
0.625
40
0.625
40
0.75
40
0.75
40
0.875
40
0.875
40
1
40
1
40
1
40
1
41
1
10
86.9999999999999
20
2.20629242543623
30
0
41
1
10
87.0880003304308
20
2.7032156175209
30
0
41
1
10
87.1760006608617
20
3.20202943449942
30
0
41
1
10
87.3520013217234
20
4.18129098164826
30
0
41
1
10
87.4400016521543
20
4.66163417744778
30
0
41
1
10
87.6160023130159
20
5.58023021204411
30
0
41
1
10
87.7040026434468
20
6.01836330529642
30
0
41
1
10
87.8800033043084
20
6.83084388781933
30
0
41
1
10
87.9680036347393
20
7.20509245387328
30
0
41
1
10
88.144004295601
20
7.87356116017855
30
0
41
1
10
88.2320046260318
20
8.16773392212724
30
0
41
1
10
88.4080052868935
20
8.66755957814792
30
0
41
1
10
88.4960056173243
20
8.87322651436148
30
0
41
1
10
88.6720062781861
20
9.19581467504025
30
0
41
1
10
88.7600066086169
20
9.31279764947672
30
0
41
1
10
88.9360072694785
20
9.46484895235773
30
0
41
1
10
89.0240075999095
20
9.5
30
0
41
1
10
89.1120079303403
20
9.5
30
0
0
SPLINE
5
F3
100
AcDbEntity
8
1
62
256
6
ByLayer
370
13
48
1
60
0
100
AcDbSpline
70
4
71
3
72
82
73
78
40
0
40
0
40
0
40
0
40
0.0312500000000003
40
0.0312500000000003
40
0.0625000000000005
40
0.0625000000000005
40
0.0937500000000008
40
0.0937500000000008
40
0.125000000000001
40
0.125000000000001
40
0.156250000000001
40
0.156250000000001
40
0.187500000000001
40
0.187500000000001
40
0.218750000000002
40
0.218750000000002
40
0.250000000000002
40
0.250000000000002
40
0.281250000000002
40
0.281250000000002
40
0.312500000000002
40
0.312500000000002
40
0.328125000000002
40
0.328125000000002
40
0.335937500000002
40
0.335937500000002
40
0.343750000000003
40
0.343750000000003
40
0.375000000000002
40
0.375000000000002
40
0.406250000000001
40
0.406250000000001
40
0.4375
40
0.4375
40
0.468749999999999
40
0.468749999999999
40
0.499999999999998
40
0.499999999999998
40
0.531249999999997
40
0.531249999999997
40
0.562499999999996
40
0.562499999999996
40
0.593749999999995
40
0.593749999999995
40
0.624999999999995
40
0.624999999999995
40
0.656249999999994
40
0.656249999999994
40
0.664062499999994
40
0.664062499999994
40
0.671874999999994
40
0.671874999999994
40
0.687499999999994
40
0.687499999999994
40
0.718749999999995
40
0.718749999999995
40
0.749999999999995
40
0.749999999999995
40
0.781249999999996
40
0.781249999999996
40
0.812499999999996
40
0.812499999999996
40
0.843749999999997
40
0.843749999999997
40
0.874999999999998
40
0.874999999999998
40
0.906249999999998
40
0.906249999999998
40
0.937499999999999
40
0.937499999999999
40
0.968749999999999
40
0.968749999999999
40
0.984375
40
0.984375
40
0.9921875
40
0.9921875
40
1
40
1
40
1
40
1
41
1
10
89.4782115478157
20
9.5
30
0
41
1
10
89.5570039564267
20
9.5
30
0
41
1
10
89.6357963650377
20
9.47184442568457
30
0
41
1
10
89.7933811822596
20
9.3508679883553
30
0
41
1
10
89.8721735908706
20
9.25799904544033
30
0
41
1
10
90.0297584080926
20
9.00202619320413
30
0
41
1
10
90.1085508167036
20
8.83888270646517
30
0
41
1
10
90.2661356339256
20
8.44102862597839
30
0
41
1
10
90.3449280425366
20
8.20629984901046
30
0
41
1
10
90.5025128597587
20
7.66909608531464
30
0
41
1
10
90.5813052683696
20
7.36663340938401
30
0
41
1
10
90.7388900855916
20
6.70305251934769
30
0
41
1
10
90.8176824942026
20
6.34197742004864
30
0
41
1
10
90.9752673114246
20
5.57469171624908
30
0
41
1
10
91.0540597200356
20
5.16854516493413
30
0
41
1
10
91.2116445372575
20
4.3274112736332
30
0
41
1
10
91.2904369458685
20
3.89249259216149
30
0
41
1
10
91.4480217630906
20
3.01082672827471
30
0
41
1
10
91.5268141717015
20
2.56413678932321
30
0
41
1
10
91.6843989889235
20
1.67471119312711
30
0
41
1
10
91.7631913975345
20
1.2320114561391
30
0
41
1
10
91.8813800104509
20
0.580771134814938
30
0
41
1
10
91.9207762147565
20
0.365801888643006
30
0
41
1
10
91.9798705212148
20
0.0475063192250218
30
0
41
1
10
91.9995686233675
20
-0.0575620109670183
30
0
41
1
10
92.038964827673
20
-0.269846561124041
30
0
41
1
10
92.0586629298257
20
-0.376677785774405
30
0
41
1
10
92.1571534405894
20
-0.913881146834768
30
0
41
1
10
92.2359458492004
20
-1.35352362249657
30
0
41
1
10
92.3935306664224
20
-2.24028389056062
30
0
41
1
10
92.4723230750334
20
-2.6873714902984
30
0
41
1
10
92.6299078922554
20
-3.57382200663795
30
0
41
1
10
92.7087003008664
20
-4.01313223944342
30
0
41
1
10
92.8662851180885
20
-4.86717814746487
30
0
41
1
10
92.9450775266994
20
-5.28184661642814
30
0
41
1
10
93.1026623439214
20
-6.06994675811185
30
0
41
1
10
93.1814547525324
20
-6.44331165610021
30
0
41
1
10
93.3390395697543
20
-7.13440282975293
30
0
41
1
10
93.4178319783654
20
-7.4520796740766
30
0
41
1
10
93.5754167955873
20
-8.02146048332881
30
0
41
1
10
93.6542092041983
20
-8.27314430747501
30
0
41
1
10
93.8117940214203
20
-8.70535444253346
30
0
41
1
10
93.8905864300313
20
-8.88589212309435
30
0
41
1
10
94.0481712472534
20
-9.17590501761757
30
0
41
1
10
94.1269636558643
20
-9.28541576620853
30
0
41
1
10
94.2845484730863
20
-9.43801007713873
30
0
41
1
10
94.3633408816973
20
-9.48114083710402
30
0
41
1
10
94.4618313924611
20
-9.49846475642934
30
0
41
1
10
94.4815294946137
20
-9.50010608934468
30
0
41
1
10
94.5209256989192
20
-9.49988331215599
30
0
41
1
10
94.5406238010721
20
-9.49801488141486
30
0
41
1
10
94.5997181075303
20
-9.48692559046236
30
0
41
1
10
94.6391143118358
20
-9.47221636271652
30
0
41
1
10
94.7573029247523
20
-9.40457131226842
30
0
41
1
10
94.8360953333632
20
-9.32801178900323
30
0
41
1
10
94.9936801505853
20
-9.10566458422582
30
0
41
1
10
95.0724725591963
20
-8.9598340636966
30
0
41
1
10
95.2300573764182
20
-8.59647933182342
30
0
41
1
10
95.3088497850292
20
-8.37893068223897
30
0
41
1
10
95.4664346022512
20
-7.87466751736622
30
0
41
1
10
95.5452270108622
20
-7.5879575085242
30
0
41
1
10
95.7028118280841
20
-6.95322736967466
30
0
41
1
10
95.7816042366952
20
-6.60524344139876
30
0
41
1
10
95.9391890539172
20
-5.86053942422583
30
0
41
1
10
96.0179814625282
20
-5.46387967589413
30
0
41
1
10
96.1755662797501
20
-4.63762904204566
30
0
41
1
10
96.2543586883612
20
-4.20810729996629
30
0
41
1
10
96.4119435055832
20
-3.3331622829287
30
0
41
1
10
96.4907359141941
20
-2.88780022170573
30
0
41
1
10
96.6483207314161
20
-1.99741062122999
30
0
41
1
10
96.7271131400271
20
-1.5524246316777
30
0
41
1
10
96.8453017529436
20
-0.89559332434942
30
0
41
1
10
96.8846979572492
20
-0.678401800051915
30
0
41
1
10
96.9437922637073
20
-0.356312571038586
30
0
41
1
10
96.9634903658601
20
-0.249564188283671
30
0
41
1
10
97.0028865701656
20
-0.0374549513390718
30
0
41
1
10
97.0225846723183
20
0.0676220124450424
30
0
41
1
10
97.0422827744711
20
0.173807886299159
30
0
0
SPLINE
5
F4
100
AcDbEntity
8
1
62
256
6
ByLayer
370
13
48
1
60
0
100
AcDbSpline
70
4
71
3
72
22
73
18
40
0
40
0
40
0
40
0
40
0.125
40
0.125
40
0.25
40
0.25
40
0.375
40
0.375
40
0.5
40
0.5
40
0.625
40
0.625
40
0.75
40
0.75
40
0.875
40
0.875
40
1
40
1
40
1
40
1
41
1
10
87
20
4.95111144795371
30
0
41
1
10
87.0673485717167
20
5.30643299503501
30
0
41
1
10
87.1346971434333
20
5.6502349356588
30
0
41
1
10
87.2693942868666
20
6.30479728291348
30
0
41
1
10
87.3367428585833
20
6.61552846721605
30
0
41
1
10
87.4714400020166
20
7.19536820954863
30
0
41
1
10
87.5387885737334
20
7.46445546032348
30
0
41
1
10
87.6734857171667
20
7.95468915083839
30
0
41
1
10
87.7408342888833
20
8.17582592064633
30
0
41
1
10
87.8755314323166
20
8.56658009089008
30
0
41
1
10
87.9428800040333
20
8.7362003092166
30
0
41
1
10
88.0775771474666
20
9.02318559666134
30
0
41
1
10
88.1449257191833
20
9.14056395946147
30
0
41
1
10
88.2796228626167
20
9.32492066593102
30
0
41
1
10
88.3469714343333
20
9.39191888883084
30
0
41
1
10
88.4816685777667
20
9.47944750948753
30
0
41
1
10
88.5490171494833
20
9.5
30
0
41
1
10
88.6163657212001
20
9.5
30
0
0
SPLINE
5
F5
100
AcDbEntity
8
1
62
256
6
ByLayer
370
13
48
1
60
0
100
AcDbSpline
70
4
71
3
72
85
73
81
40
0
40
0
40
0
40
0
40
0.0312500000000002
40
0.0312500000000002
40
0.0625000000000003
40
0.0625000000000003
40
0.0937500000000005
40
0.0937500000000005
40
0.125000000000001
40
0.125000000000001
40
0.156250000000001
40
0.156250000000001
40
0.187500000000001
40
0.187500000000001
40
0.218750000000001
40
0.218750000000001
40
0.250000000000001
40
0.250000000000001
40
0.281250000000002
40
0.281250000000002
40
0.296875000000002
40
0.296875000000002
40
0.304687500000002
40
0.308593750000002
40
0.308593750000002
40
0.312500000000001
40
0.312500000000001
40
0.343750000000002
40
0.343750000000002
40
0.375000000000002
40
0.375000000000002
40
0.406250000000002
40
0.406250000000002
40
0.437500000000002
40
0.437500000000002
40
0.468750000000002
40
0.468750000000002
40
0.500000000000003
40
0.500000000000003
40
0.531250000000003
40
0.531250000000003
40
0.562500000000003
40
0.562500000000003
40
0.593750000000003
40
0.593750000000003
40
0.609375000000003
40
0.609375000000003
40
0.617187500000003
40
0.621093750000003
40
0.621093750000003
40
0.625000000000003
40
0.625000000000003
40
0.656250000000003
40
0.656250000000003
40
0.687500000000004
40
0.687500000000004
40
0.718750000000004
40
0.718750000000004
40
0.750000000000004
40
0.750000000000004
40
0.781250000000004
40
0.781250000000004
40
0.812500000000005
40
0.812500000000005
40
0.843750000000005
40
0.843750000000005
40
0.875000000000005
40
0.875000000000005
40
0.906250000000005
40
0.906250000000005
40
0.921875000000005
40
0.921875000000005
40
0.929687500000005
40
0.933593750000005
40
0.933593750000005
40
0.937500000000005
40
0.937500000000005
40
0.968750000000003
40
0.968750000000003
40
1
40
1
40
1
40
1
41
1
10
88.9825693386754
20
9.5
30
0
41
1
10
89.066524686965
20
9.5
30
0
41
1
10
89.1504800352544
20
9.46801877891787
30
0
41
1
10
89.3183907318335
20
9.33007991268011
30
0
41
1
10
89.402346080123
20
9.22405656906352
30
0
41
1
10
89.5702567767021
20
8.93172123449565
30
0
41
1
10
89.6542121249917
20
8.74535787624569
30
0
41
1
10
89.8221228215708
20
8.29168746423122
30
0
41
1
10
89.9060781698604
20
8.02436305568946
30
0
41
1
10
90.0739888664394
20
7.41487692217945
30
0
41
1
10
90.1579442147289
20
7.07274372368593
30
0
41
1
10
90.325854911308
20
6.32637355410824
30
0
41
1
10
90.4098102595975
20
5.92220719658607
30
0
41
1
10
90.5777209561766
20
5.06961245549189
30
0
41
1
10
90.6616763044661
20
4.62127724899787
30
0
41
1
10
90.8295870010452
20
3.70075019505202
30
0
41
1
10
90.9135423493346
20
3.22864769144212
30
0
41
1
10
91.0814530459138
20
2.28071450131498
30
0
41
1
10
91.1654083942034
20
1.80494802164284
30
0
41
1
10
91.2913414166377
20
1.1016086833217
30
0
41
1
10
91.3333190907824
20
0.868853917304222
30
0
41
1
10
91.3962856019996
20
0.523611032858241
30
0
41
1
10
91.4277688576082
20
0.35195878306547
30
0
41
1
10
91.4592521132168
20
0.18198480182582
30
0
41
1
10
91.4802409502892
20
0.0690646563002133
30
0
41
1
10
91.4907353688253
20
0.0129328850601667
30
0
41
1
10
91.5851851356512
20
-0.493451620141371
30
0
41
1
10
91.6691404839406
20
-0.956774819216463
30
0
41
1
10
91.8370511805197
20
-1.89622377067815
30
0
41
1
10
91.9210065288091
20
-2.37231708483176
30
0
41
1
10
92.0889172253883
20
-3.31967363310616
30
0
41
1
10
92.1728725736779
20
-3.79087063325051
30
0
41
1
10
92.340783270257
20
-4.70825686039859
30
0
41
1
10
92.4247386185465
20
-5.15435574853342
30
0
41
1
10
92.5926493151255
20
-6.00122292115756
30
0
41
1
10
92.6766046634151
20
-6.40189869388459
30
0
41
1
10
92.8445153599941
20
-7.14028890368417
30
0
41
1
10
92.9284707082837
20
-7.47793498159703
30
0
41
1
10
93.0963814048628
20
-8.07784059483714
30
0
41
1
10
93.1803367531522
20
-8.34007462560993
30
0
41
1
10
93.3482474497314
20
-8.78340399754197
30
0
41
1
10
93.432202798021
20
-8.96451936971749
30
0
41
1
10
93.6001134945999
20
-9.24660819792189
30
0
41
1
10
93.6840688428895
20
-9.34763456070104
30
0
41
1
10
93.8100018653239
20
-9.44401114770062
30
0
41
1
10
93.8519795394687
20
-9.46698105171623
30
0
41
1
10
93.9149460506858
20
-9.48859209401635
30
0
41
1
10
93.9464293062942
20
-9.49618908571375
30
0
41
1
10
93.9779125619029
20
-9.49915902579585
30
0
41
1
10
93.9989013989752
20
-9.50013246055192
30
0
41
1
10
94.0093958175115
20
-9.50011868361526
30
0
41
1
10
94.1038455843373
20
-9.49548615140964
30
0
41
1
10
94.1878009326268
20
-9.45902285729886
30
0
41
1
10
94.3557116292059
20
-9.31157797163189
30
0
41
1
10
94.4396669774954
20
-9.20053100144986
30
0
41
1
10
94.6075776740745
20
-8.89791946619727
30
0
41
1
10
94.6915330223641
20
-8.70630515799195
30
0
41
1
10
94.8594437189431
20
-8.24231612170269
30
0
41
1
10
94.9433990672326
20
-7.96992676708498
30
0
41
1
10
95.1113097638117
20
-7.35093882389052
30
0
41
1
10
95.1952651121013
20
-7.00437176814589
30
0
41
1
10
95.3631758086804
20
-6.25014961480466
30
0
41
1
10
95.4471311569699
20
-5.84256730126137
30
0
41
1
10
95.615041853549
20
-4.98440493086741
30
0
41
1
10
95.6989972018384
20
-4.53391860297438
30
0
41
1
10
95.8669078984176
20
-3.61041979946123
30
0
41
1
10
95.9508632467071
20
-3.13749558206504
30
0
41
1
10
96.1187739432862
20
-2.18914204006745
30
0
41
1
10
96.2027292915757
20
-1.7137748590383
30
0
41
1
10
96.32866231401
20
-1.01177865870764
30
0
41
1
10
96.3706399881547
20
-0.779594887172493
30
0
41
1
10
96.4336064993719
20
-0.435367524711296
30
0
41
1
10
96.4650897549805
20
-0.264262762298813
30
0
41
1
10
96.496573010589
20
-0.0948908122509238
30
0
41
1
10
96.5175618476615
20
0.0176164250089812
30
0
41
1
10
96.5280562661977
20
0.0737657331719106
30
0
41
1
10
96.6225060330234
20
0.582005430846806
30
0
41
1
10
96.7064613813129
20
1.04660634068611
30
0
41
1
10
96.874372077892
20
1.98758862207856
30
0
41
1
10
96.9583274261814
20
2.46393535404982
30
0
41
1
10
97.042282774471
20
2.93724647202495
30
0
0
SPLINE
5
F6
100
AcDbEntity
8
1
62
256
6
ByLayer
370
13
48
1
60
0
100
AcDbSpline
70
4
71
3
72
14
73
10
40
0
40
0
40
0
40
0
40
0.25
40
0.25
40
0.5
40
0.5
40
0.75
40
0.75
40
1
40
1
40
1
40
1
41
1
10
87
20
7.28644875635422
30
0
41
1
10
87.093393626005
20
7.6614199481966
30
0
41
1
10
87.1867872520099
20
7.99307682630086
30
0
41
1
10
87.3735745040199
20
8.55764168040537
30
0
41
1
10
87.4669681300248
20
8.79055382707068
30
0
41
1
10
87.6537553820348
20
9.15588683787021
30
0
41
1
10
87.7471490080397
20
9.28838452147167
30
0
41
1
10
87.9339362600497
20
9.46038584859184
30
0
41
1
10
88.0273298860548
20
9.5
30
0
41
1
10
88.1207235120597
20
9.5
30
0
0
SPLINE
5
F7
100
AcDbEntity
8
1
62
256
6
ByLayer
370
13
48
1
60
0
100
AcDbSpline
70
4
71
3
72
86
73
82
40
0
40
0
40
0
40
0
40
0.0312499999999999
40
0.0312499999999999
40
0.0624999999999999
40
0.0624999999999999
40
0.0937499999999998
40
0.0937499999999998
40
0.125
40
0.125
40
0.15625
40
0.15625
40
0.1875
40
0.1875
40
0.21875
40
0.21875
40
0.249999999999999
40
0.249999999999999
40
0.281249999999999
40
0.281249999999999
40
0.289062499999999
40
0.289062499999999
40
0.296874999999999
40
0.296874999999999
40
0.312499999999999
40
0.312499999999999
40
0.343749999999999
40
0.343749999999999
40
0.374999999999999
40
0.374999999999999
40
0.406249999999999
40
0.406249999999999
40
0.437499999999999
40
0.437499999999999
40
0.468749999999999
40
0.468749999999999
40
0.499999999999999
40
0.499999999999999
40
0.531249999999999
40
0.531249999999999
40
0.562499999999999
40
0.562499999999999
40
0.578124999999999
40
0.578124999999999
40
0.585937499999999
40
0.585937499999999
40
0.589843749999999
40
0.589843749999999
40
0.593749999999999
40
0.593749999999999
40
0.624999999999999
40
0.624999999999999
40
0.656249999999999
40
0.656249999999999
40
0.687499999999998
40
0.687499999999998
40
0.718749999999998
40
0.718749999999998
40
0.749999999999998
40
0.749999999999998
40
0.781249999999998
40
0.781249999999998
40
0.812499999999998
40
0.812499999999998
40
0.843749999999998
40
0.843749999999998
40
0.874999999999998
40
0.874999999999998
40
0.878906249999998
40
0.878906249999998
40
0.882812499999998
40
0.882812499999998
40
0.890624999999998
40
0.890624999999998
40
0.906249999999998
40
0.906249999999998
40
0.937499999999999
40
0.937499999999999
40
0.96875
40
0.96875
40
1
40
1
40
1
40
1
41
1
10
88.4869271295351
20
9.5
30
0
41
1
10
88.5760454175031
20
9.5
30
0
41
1
10
88.6651637054713
20
9.46394606337904
30
0
41
1
10
88.8434002814074
20
9.30786610280683
30
0
41
1
10
88.9325185693755
20
9.18775210167104
30
0
41
1
10
89.1107551453117
20
8.85652940478664
30
0
41
1
10
89.1998734332797
20
8.64535593550289
30
0
41
1
10
89.3781100092159
20
8.13240693455825
30
0
41
1
10
89.467228297184
20
7.83061882729325
30
0
41
1
10
89.6454648731201
20
7.14551415746402
30
0
41
1
10
89.7345831610883
20
6.76225131724956
30
0
41
1
10
89.9128197370244
20
5.9313664674726
30
0
41
1
10
90.0019380249925
20
5.48385232869552
30
0
41
1
10
90.1801746009286
20
4.54723208321954
30
0
41
1
10
90.2692928888968
20
4.05825352887732
30
0
41
1
10
90.4475294648329
20
3.06339077382503
30
0
41
1
10
90.5366477528009
20
2.55761491007601
30
0
41
1
10
90.7148843287371
20
1.55208029962014
30
0
41
1
10
90.8040026167052
20
1.0523858981517
30
0
41
1
10
90.9154004766654
20
0.443086164041091
30
0
41
1
10
90.9376800486574
20
0.321979244710491
30
0
41
1
10
90.9822391926415
20
0.0815051592693692
30
0
41
1
10
91.0045187646334
20
-0.0373041792718425
30
0
41
1
10
91.0713574806095
20
-0.397367682399448
30
0
41
1
10
91.1159166245935
20
-0.640955088423226
30
0
41
1
10
91.2495940565456
20
-1.37944848479867
30
0
41
1
10
91.3387123445137
20
-1.88223710881556
30
0
41
1
10
91.51694892045
20
-2.889265167404
30
0
41
1
10
91.6060672084179
20
-3.39342958322584
30
0
41
1
10
91.7843037843541
20
-4.37970561373328
30
0
41
1
10
91.8734220723222
20
-4.86170185913858
30
0
41
1
10
92.0516586482584
20
-5.77906487476599
30
0
41
1
10
92.1407769362265
20
-6.21430489798311
30
0
41
1
10
92.3190135121626
20
-7.01626779949345
30
0
41
1
10
92.4081318001307
20
-7.38289229004283
30
0
41
1
10
92.586368376067
20
-8.0319575314503
30
0
41
1
10
92.675486664035
20
-8.31435902800365
30
0
41
1
10
92.8537232399712
20
-8.78769780570519
30
0
41
1
10
92.9428415279393
20
-8.97866107988537
30
0
41
1
10
93.1210781038754
20
-9.27042496090991
30
0
41
1
10
93.2101963918435
20
-9.37129809896953
30
0
41
1
10
93.3438738237956
20
-9.46122213401804
30
0
41
1
10
93.3884329677796
20
-9.48101305412339
30
0
41
1
10
93.4552716837557
20
-9.49653002466439
30
0
41
1
10
93.4775512557478
20
-9.49934268242714
30
0
41
1
10
93.5109706137358
20
-9.50017494474159
30
0
41
1
10
93.5221103997317
20
-9.49989167090101
30
0
41
1
10
93.5443899717237
20
-9.49818563041833
30
0
41
1
10
93.5555297577198
20
-9.49676165927778
30
0
41
1
10
93.6557878316839
20
-9.4786927748454
30
0
41
1
10
93.744906119652
20
-9.42511080227263
30
0
41
1
10
93.9231426955882
20
-9.23191355085967
30
0
41
1
10
94.0122609835563
20
-9.0922127416095
30
0
41
1
10
94.1904975594924
20
-8.72120002992355
30
0
41
1
10
94.2796158474605
20
-8.48983257218759
30
0
41
1
10
94.4578524233967
20
-7.93773023387067
30
0
41
1
10
94.5469707113647
20
-7.61699692232528
30
0
41
1
10
94.7252072873009
20
-6.89713231530644
30
0
41
1
10
94.814325575269
20
-6.49806861091915
30
0
41
1
10
94.9925621512051
20
-5.64021047630948
30
0
41
1
10
95.0816804391732
20
-5.18153166779442
30
0
41
1
10
95.2599170151094
20
-4.22796520216875
30
0
41
1
10
95.3490353030775
20
-3.73320395615991
30
0
41
1
10
95.5272718790137
20
-2.73206478341513
30
0
41
1
10
95.6163901669818
20
-2.22578694433094
30
0
41
1
10
95.794626742918
20
-1.22374599173082
30
0
41
1
10
95.8837450308861
20
-0.728036398836537
30
0
41
1
10
95.9840031048501
20
-0.186013482837524
30
0
41
1
10
95.9951428908461
20
-0.126002560067349
30
0
41
1
10
96.0174224628381
20
-0.0064358735009193
30
0
41
1
10
96.0285622488342
20
0.0530879517383482
30
0
41
1
10
96.0619816068222
20
0.232790882224776
30
0
41
1
10
96.0842611788141
20
0.353489807190016
30
0
41
1
10
96.1510998947903
20
0.717935168078697
30
0
41
1
10
96.1956590387742
20
0.964040930257795
30
0
41
1
10
96.3293364707264
20
1.70865139575324
30
0
41
1
10
96.4184547586946
20
2.21358829182032
30
0
41
1
10
96.5966913346307
20
3.22002088024297
30
0
41
1
10
96.6858096225988
20
3.72143125668725
30
0
41
1
10
96.8640461985349
20
4.69678027283584
30
0
41
1
10
96.9531644865029
20
5.17059794281741
30
0
41
1
10
97.042282774471
20
5.61851958224656
30
0
0
SPLINE
5
F8
100
AcDbEntity
8
1
62
256
6
ByLayer
370
13
48
1
60
0
100
AcDbSpline
70
4
71
3
72
12
73
8
40
0
40
0
40
0
40
0
40
0.250000000000001
40
0.250000000000001
40
0.500000000000002
40
0.500000000000002
40
1
40
1
40
1
40
1
41
1
10
87.0000000000001
20
8.83864427679768
30
0
41
1
10
87.0520901085766
20
8.9534021207287
30
0
41
1
10
87.1041802171532
20
9.05254734361384
30
0
41
1
10
87.2083604343064
20
9.22023069066606
30
0
41
1
10
87.260450542883
20
9.28877389007585
30
0
41
1
10
87.4167208686129
20
9.45064374598996
30
0
41
1
10
87.5209010857661
20
9.5
30
0
41
1
10
87.6250813029194
20
9.5
30
0
0
SPLINE
5
F9
100
AcDbEntity
8
1
62
256
6
ByLayer
370
13
48
1
60
0
100
AcDbSpline
70
4
71
3
72
82
73
78
40
0
40
0
40
0
40
0
40
0.0312500000000008
40
0.0312500000000008
40
0.0625000000000016
40
0.0625000000000016
40
0.0937500000000023
40
0.0937500000000023
40
0.125000000000003
40
0.125000000000003
40
0.156250000000004
40
0.156250000000004
40
0.187500000000005
40
0.187500000000005
40
0.218750000000005
40
0.218750000000005
40
0.250000000000006
40
0.250000000000006
40
0.265625000000006
40
0.265625000000006
40
0.273437500000007
40
0.273437500000007
40
0.281250000000007
40
0.281250000000007
40
0.312500000000007
40
0.312500000000007
40
0.343750000000007
40
0.343750000000007
40
0.375000000000007
40
0.375000000000007
40
0.406250000000008
40
0.406250000000008
40
0.437500000000008
40
0.437500000000008
40
0.468750000000008
40
0.468750000000008
40
0.500000000000008
40
0.500000000000008
40
0.531250000000008
40
0.531250000000008
40
0.546875000000008
40
0.546875000000008
40
0.554687500000008
40
0.554687500000008
40
0.562500000000008
40
0.562500000000008
40
0.593750000000008
40
0.593750000000008
40
0.625000000000008
40
0.625000000000008
40
0.656250000000007
40
0.656250000000007
40
0.687500000000007
40
0.687500000000007
40
0.718750000000007
40
0.718750000000007
40
0.750000000000006
40
0.750000000000006
40
0.781250000000006
40
0.781250000000006
40
0.812500000000005
40
0.812500000000005
40
0.828125000000005
40
0.828125000000005
40
0.835937500000005
40
0.835937500000005
40
0.843750000000005
40
0.843750000000005
40
0.875000000000004
40
0.875000000000004
40
0.906250000000003
40
0.906250000000003
40
0.937500000000002
40
0.937500000000002
40
0.968750000000001
40
0.968750000000001
40
1
40
1
40
1
40
1
41
1
10
87.9912849203947
20
9.5
30
0
41
1
10
88.0855661480414
20
9.5
30
0
41
1
10
88.179847375688
20
9.45962534302274
30
0
41
1
10
88.3684098309814
20
9.28421594969214
30
0
41
1
10
88.4626910586279
20
9.14906551772197
30
0
41
1
10
88.6512535139212
20
8.77643462218524
30
0
41
1
10
88.7455347415678
20
8.53887476466377
30
0
41
1
10
88.934097196861
20
7.96331518096136
30
0
41
1
10
89.0283784245077
20
7.62531367233487
30
0
41
1
10
89.2169408798009
20
6.86168451607332
30
0
41
1
10
89.3112221074475
20
6.43614731862743
30
0
41
1
10
89.4997845627407
20
5.51987224367153
30
0
41
1
10
89.5940657903874
20
5.02929007489763
30
0
41
1
10
89.7826282456807
20
4.01112636974858
30
0
41
1
10
89.8769094733274
20
3.48371004107099
30
0
41
1
10
90.0654719286207
20
2.42081318792287
30
0
41
1
10
90.1597531562671
20
1.88545484588491
30
0
41
1
10
90.3011749977371
20
1.09524967701697
30
0
41
1
10
90.3483156115605
20
0.83394576250285
30
0
41
1
10
90.4190265322954
20
0.447042478395531
30
0
41
1
10
90.4425968392071
20
0.318913495835972
30
0
41
1
10
90.4897374530304
20
0.0646098348614714
30
0
41
1
10
90.513307759942
20
-0.0610356224679549
30
0
41
1
10
90.6311592945003
20
-0.696702789485613
30
0
41
1
10
90.725440522147
20
-1.22115957129103
30
0
41
1
10
90.9140029774402
20
-2.28162718050908
30
0
41
1
10
91.0082842050869
20
-2.81756591374921
30
0
41
1
10
91.1968466603801
20
-3.87468660532363
30
0
41
1
10
91.2911278880267
20
-4.39573215523879
30
0
41
1
10
91.4796903433199
20
-5.3939095180761
30
0
41
1
10
91.5739715709667
20
-5.87087288481442
30
0
41
1
10
91.76253402626
20
-6.75361318361584
30
0
41
1
10
91.8568152539066
20
-7.15924600942137
30
0
41
1
10
92.0453777091998
20
-7.87885437155879
30
0
41
1
10
92.1396589368464
20
-8.19276140944933
30
0
41
1
10
92.3282213921396
20
-8.71861390233209
30
0
41
1
10
92.4225026197863
20
-8.93058318146657
30
0
41
1
10
92.6110650750795
20
-9.25311590897755
30
0
41
1
10
92.7053463027262
20
-9.36377203584172
30
0
41
1
10
92.8467681441961
20
-9.46086170820658
30
0
41
1
10
92.8939087580195
20
-9.48180287558765
30
0
41
1
10
92.9646196787544
20
-9.4973908931585
30
0
41
1
10
92.9881899856661
20
-9.4999519988549
30
0
41
1
10
93.0353305994894
20
-9.50004666379763
30
0
41
1
10
93.0589009064011
20
-9.49758252398772
30
0
41
1
10
93.1767524409594
20
-9.47209853314891
30
0
41
1
10
93.2710336686059
20
-9.40937918588341
30
0
41
1
10
93.4595961238991
20
-9.18664214419883
30
0
41
1
10
93.5538773515458
20
-9.02651346511851
30
0
41
1
10
93.7424398068391
20
-8.6034113815505
30
0
41
1
10
93.8367210344857
20
-8.34037454288145
30
0
41
1
10
94.025283489779
20
-7.71601858003581
30
0
41
1
10
94.1195647174255
20
-7.35472069637731
30
0
41
1
10
94.3081271727189
20
-6.54926934943384
30
0
41
1
10
94.4024084003655
20
-6.10522656611283
30
0
41
1
10
94.5909708556587
20
-5.1585745956412
30
0
41
1
10
94.6852520833054
20
-4.65612912636587
30
0
41
1
10
94.8738145385986
20
-3.62153206876536
30
0
41
1
10
94.9680957662453
20
-3.08953909603153
30
0
41
1
10
95.1566582215385
20
-2.02421447441304
30
0
41
1
10
95.2509394491852
20
-1.49098929969324
30
0
41
1
10
95.3923612906552
20
-0.707953043917883
30
0
41
1
10
95.4395019044784
20
-0.449695202846442
30
0
41
1
10
95.5102128252134
20
-0.0681845900782605
30
0
41
1
10
95.5337831321251
20
0.0574619535328509
30
0
41
1
10
95.5809237459484
20
0.311691979589369
30
0
41
1
10
95.60449405286
20
0.439786617846892
30
0
41
1
10
95.7223455874183
20
1.08446737840694
30
0
41
1
10
95.816626815065
20
1.61393286482686
30
0
41
1
10
96.0051892703582
20
2.67837353310756
30
0
41
1
10
96.0994704980048
20
3.21325953775775
30
0
41
1
10
96.2880329532981
20
4.26115506086535
30
0
41
1
10
96.3823141809447
20
4.77401596204948
30
0
41
1
10
96.5708766362379
20
5.74869362897468
30
0
41
1
10
96.6651578638845
20
6.21034232305715
30
0
41
1
10
96.8537203191778
20
7.05658113395788
30
0
41
1
10
96.9480015468245
20
7.44104205103039
30
0
41
1
10
97.0422827744711
20
7.77788689124887
30
0
0
SPLINE
5
FA
100
AcDbEntity
8
1
62
256
6
ByLayer
370
13
48
1
60
0
100
AcDbSpline
70
4
71
3
72
8
73
4
40
0
40
0
40
0
40
0
40
1
40
1
40
1
40
1
41
1
10
87.0000000000001
20
9.47400250646547
30
0
41
1
10
87.043146364593
20
9.49157582673951
30
0
41
1
10
87.0862927291861
20
9.5
30
0
41
1
10
87.1294390937791
20
9.5
30
0
0
SPLINE
5
FB
100
AcDbEntity
8
1
62
256
6
ByLayer
370
13
48
1
60
0
100
AcDbSpline
70
4
71
3
72
120
73
116
40
0
40
0
40
0
40
0
40
0.0312500000000013
40
0.0312500000000013
40
0.0625000000000025
40
0.0625000000000025
40
0.0781250000000031
40
0.0781250000000031
40
0.0937500000000037
40
0.0937500000000037
40
0.109375000000004
40
0.109375000000004
40
0.125000000000005
40
0.125000000000005
40
0.140625000000006
40
0.140625000000006
40
0.156250000000006
40
0.156250000000006
40
0.171875000000007
40
0.171875000000007
40
0.187500000000007
40
0.187500000000007
40
0.218750000000009
40
0.218750000000009
40
0.25000000000001
40
0.25000000000001
40
0.25781250000001
40
0.25781250000001
40
0.26171875000001
40
0.26171875000001
40
0.26562500000001
40
0.26562500000001
40
0.28125000000001
40
0.28125000000001
40
0.31250000000001
40
0.31250000000001
40
0.343750000000009
40
0.343750000000009
40
0.359375000000009
40
0.359375000000009
40
0.375000000000008
40
0.375000000000008
40
0.390625000000008
40
0.390625000000008
40
0.406250000000008
40
0.406250000000008
40
0.421875000000007
40
0.421875000000007
40
0.437500000000007
40
0.437500000000007
40
0.453125000000007
40
0.453125000000007
40
0.468750000000006
40
0.468750000000006
40
0.500000000000005
40
0.500000000000005
40
0.515625000000005
40
0.515625000000005
40
0.523437500000004
40
0.523437500000004
40
0.527343750000004
40
0.527343750000004
40
0.531250000000004
40
0.531250000000004
40
0.562500000000004
40
0.562500000000004
40
0.593750000000004
40
0.593750000000004
40
0.609375000000005
40
0.609375000000005
40
0.625000000000005
40
0.625000000000005
40
0.640625000000005
40
0.640625000000005
40
0.656250000000005
40
0.656250000000005
40
0.671875000000005
40
0.671875000000005
40
0.687500000000005
40
0.687500000000005
40
0.703125000000005
40
0.703125000000005
40
0.718750000000005
40
0.718750000000005
40
0.750000000000005
40
0.750000000000005
40
0.781250000000006
40
0.781250000000006
40
0.789062500000005
40
0.789062500000005
40
0.796875000000005
40
0.796875000000005
40
0.812500000000005
40
0.812500000000005
40
0.843750000000004
40
0.843750000000004
40
0.859375000000003
40
0.859375000000003
40
0.875000000000003
40
0.875000000000003
40
0.890625000000003
40
0.890625000000003
40
0.906250000000002
40
0.906250000000002
40
0.921875000000002
40
0.921875000000002
40
0.937500000000002
40
0.937500000000002
40
0.953125000000001
40
0.953125000000001
40
0.968750000000001
40
0.968750000000001
40
0.984375
40
0.984375
40
1
40
1
40
1
40
1
41
1
10
87.4956427112544
20
9.5
30
0
41
1
10
87.5950868785797
20
9.5
30
0
41
1
10
87.6945310459048
20
9.4550555949202
30
0
41
1
10
87.8934193805552
20
9.25911927134752
30
0
41
1
10
87.9928635478803
20
9.10797767599664
30
0
41
1
10
88.1420297988681
20
8.79556532191046
30
0
41
1
10
88.1917518825306
20
8.6772239996528
30
0
41
1
10
88.2911960498558
20
8.41223584580206
30
0
41
1
10
88.3409181335184
20
8.26558760158019
30
0
41
1
10
88.4403623008435
20
7.94491258672144
30
0
41
1
10
88.4900843845062
20
7.77088635011617
30
0
41
1
10
88.5895285518314
20
7.39722743203205
30
0
41
1
10
88.639250635494
20
7.19759733828514
30
0
41
1
10
88.7386948028191
20
6.77530122487195
30
0
41
1
10
88.7884168864817
20
6.55263968233882
30
0
41
1
10
88.8878610538068
20
6.08754274407625
30
0
41
1
10
88.9375831374695
20
5.84511329093019
30
0
41
1
10
89.0370273047946
20
5.34427597815056
30
0
41
1
10
89.0867493884572
20
5.08587491042573
30
0
41
1
10
89.1861935557823
20
4.55722962635878
30
0
41
1
10
89.2359156394449
20
4.28699235020272
30
0
41
1
10
89.3850818904327
20
3.46491528601129
30
0
41
1
10
89.4845260577579
20
2.90185487619118
30
0
41
1
10
89.6834143924084
20
1.77823886877283
30
0
41
1
10
89.7828585597334
20
1.21781039472199
30
0
41
1
10
89.9071637688899
20
0.535518963597923
30
0
41
1
10
89.9320248107213
20
0.399953474079865
30
0
41
1
10
89.9693163734682
20
0.198193373138651
30
0
41
1
10
89.9817468943838
20
0.131204427397648
30
0
41
1
10
90.006607936215
20
-0.0022063634665699
30
0
41
1
10
90.0190384571306
20
-0.068640760375672
30
0
41
1
10
90.0811910617089
20
-0.403160823127195
30
0
41
1
10
90.1309131453716
20
-0.675228560574567
30
0
41
1
10
90.2800793963594
20
-1.50073174045406
30
0
41
1
10
90.3795235636845
20
-2.06369345531408
30
0
41
1
10
90.5784118983348
20
-3.187160131583
30
0
41
1
10
90.67785606566
20
-3.74752255068111
30
0
41
1
10
90.8270223166477
20
-4.56117176464826
30
0
41
1
10
90.8767444003104
20
-4.82787654406937
30
0
41
1
10
90.9761885676355
20
-5.34803141251385
30
0
41
1
10
91.0259106512982
20
-5.60147453278907
30
0
41
1
10
91.1253548186233
20
-6.09106205764252
30
0
41
1
10
91.1750769022859
20
-6.3271998811617
30
0
41
1
10
91.2745210696111
20
-6.7785395329559
30
0
41
1
10
91.3242431532736
20
-6.9937358535488
30
0
41
1
10
91.4236873205988
20
-7.40014591182563
30
0
41
1
10
91.4734094042614
20
-7.59135577677699
30
0
41
1
10
91.5728535715865
20
-7.94747975535878
30
0
41
1
10
91.6225756552491
20
-8.11239197217714
30
0
41
1
10
91.7220198225743
20
-8.41442853514337
30
0
41
1
10
91.7717419062369
20
-8.5515530311977
30
0
41
1
10
91.8711860735621
20
-8.797369298056
30
0
41
1
10
91.9209081572246
20
-8.90606307395052
30
0
41
1
10
92.0700744082123
20
-9.18974897551738
30
0
41
1
10
92.1695185755376
20
-9.32205108689888
30
0
41
1
10
92.3186848265253
20
-9.44248980031247
30
0
41
1
10
92.3684069101879
20
-9.46971336760018
30
0
41
1
10
92.4429900356818
20
-9.4926413199874
30
0
41
1
10
92.4678510775132
20
-9.49730260627163
30
0
41
1
10
92.50514264026
20
-9.50003130130548
30
0
41
1
10
92.5175731611757
20
-9.50023342952503
30
0
41
1
10
92.542434203007
20
-9.49923815099638
30
0
41
1
10
92.5548647239227
20
-9.49803535307854
30
0
41
1
10
92.6667394121635
20
-9.48070328969263
30
0
41
1
10
92.7661835794886
20
-9.41876704677836
30
0
41
1
10
92.965071914139
20
-9.18675098800935
30
0
41
1
10
93.0645160814641
20
-9.01652614977752
30
0
41
1
10
93.2136823324519
20
-8.67528737000151
30
0
41
1
10
93.2634044161144
20
-8.54730912401567
30
0
41
1
10
93.3628485834396
20
-8.26326605599419
30
0
41
1
10
93.4125706671023
20
-8.10720045295722
30
0
41
1
10
93.5120148344274
20
-7.76819719306553
30
0
41
1
10
93.56173691809
20
-7.5852607668381
30
0
41
1
10
93.6611810854151
20
-7.19456664167393
30
0
41
1
10
93.7109031690778
20
-6.98681220245214
30
0
41
1
10
93.810347336403
20
-6.54930153988477
30
0
41
1
10
93.8600694200655
20
-6.31955034887082
30
0
41
1
10
93.9595135873907
20
-5.84150873490859
30
0
41
1
10
94.0092356710534
20
-5.59322461785698
30
0
41
1
10
94.1086798383784
20
-5.08205054252136
30
0
41
1
10
94.1584019220411
20
-4.81916750556692
30
0
41
1
10
94.2578460893662
20
-4.28299873908497
30
0
41
1
10
94.3075681730288
20
-4.00971984384285
30
0
41
1
10
94.4567344240166
20
-3.18067488398094
30
0
41
1
10
94.5561785913418
20
-2.6158705320658
30
0
41
1
10
94.755066925992
20
-1.49382751034375
30
0
41
1
10
94.8545110933172
20
-0.936700099228773
30
0
41
1
10
94.9788163024737
20
-0.260836802845574
30
0
41
1
10
95.0036773443051
20
-0.126742955347368
30
0
41
1
10
95.0533994279676
20
0.139412436615515
30
0
41
1
10
95.0782604697989
20
0.273646869091095
30
0
41
1
10
95.1528435952928
20
0.679355861185826
30
0
41
1
10
95.2025656789555
20
0.953852805956103
30
0
41
1
10
95.3517319299432
20
1.78508674906999
30
0
41
1
10
95.4511760972683
20
2.34977520184964
30
0
41
1
10
95.600342348256
20
3.19092827284604
30
0
41
1
10
95.6500644319186
20
3.4702754015585
30
0
41
1
10
95.7495085992438
20
4.02277598150857
30
0
41
1
10
95.7992306829064
20
4.29592330047109
30
0
41
1
10
95.8986748502315
20
4.83176120535654
30
0
41
1
10
95.9483969338941
20
5.09444495036084
30
0
41
1
10
96.0478411012193
20
5.60515535253305
30
0
41
1
10
96.0975631848819
20
5.85317509260986
30
0
41
1
10
96.1970073522071
20
6.3306287925395
30
0
41
1
10
96.2467294358697
20
6.5600564618465
30
0
41
1
10
96.3461736031949
20
6.99686986475311
30
0
41
1
10
96.3958956868574
20
7.20425059081009
30
0
41
1
10
96.4953398541826
20
7.59415842144585
30
0
41
1
10
96.5450619378452
20
7.77668229722164
30
0
41
1
10
96.6445061051703
20
8.11483449051511
30
0
41
1
10
96.6942281888329
20
8.27046161018416
30
0
41
1
10
96.7936723561581
20
8.55361523029117
30
0
41
1
10
96.8433944398208
20
8.68114254209283
30
0
41
1
10
96.9428386071459
20
8.90773381551335
30
0
41
1
10
96.9925606908084
20
9.00680032856644
30
0
41
1
10
97.0422827744711
20
9.09184911579331
30
0
0
SPLINE
5
FC
100
AcDbEntity
8
1
62
256
6
ByLayer
370
13
48
1
60
0
100
AcDbSpline
70
4
71
3
72
118
73
114
40
0
40
0
40
0
40
0
40
0.03125
40
0.03125
40
0.046875
40
0.046875
40
0.0625
40
0.0625
40
0.0781250000000001
40
0.0781250000000001
40
0.0937500000000001
40
0.0937500000000001
40
0.109375
40
0.109375
40
0.125
40
0.125
40
0.140625
40
0.140625
40
0.15625
40
0.15625
40
0.171875
40
0.171875
40
0.1875
40
0.1875
40
0.203125
40
0.203125
40
0.21875
40
0.21875
40
0.25
40
0.25
40
0.28125
40
0.28125
40
0.296875
40
0.296875
40
0.312500000000001
40
0.312500000000001
40
0.328125000000001
40
0.328125000000001
40
0.343750000000001
40
0.343750000000001
40
0.359375000000001
40
0.359375000000001
40
0.375000000000001
40
0.375000000000001
40
0.390625000000001
40
0.390625000000001
40
0.406250000000001
40
0.406250000000001
40
0.421875000000001
40
0.421875000000001
40
0.437500000000001
40
0.437500000000001
40
0.453125000000001
40
0.453125000000001
40
0.468750000000001
40
0.468750000000001
40
0.500000000000001
40
0.500000000000001
40
0.531250000000001
40
0.531250000000001
40
0.546875000000001
40
0.546875000000001
40
0.562500000000001
40
0.562500000000001
40
0.578125000000001
40
0.578125000000001
40
0.593750000000001
40
0.593750000000001
40
0.609375000000001
40
0.609375000000001
40
0.625000000000001
40
0.625000000000001
40
0.640625000000001
40
0.640625000000001
40
0.656250000000001
40
0.656250000000001
40
0.671875000000001
40
0.671875000000001
40
0.687500000000001
40
0.687500000000001
40
0.703125000000001
40
0.703125000000001
40
0.718750000000001
40
0.718750000000001
40
0.750000000000001
40
0.750000000000001
40
0.78125
40
0.78125
40
0.796875
40
0.796875
40
0.8125
40
0.8125
40
0.828125
40
0.828125
40
0.84375
40
0.84375
40
0.859375
40
0.859375
40
0.875000000000001
40
0.875000000000001
40
0.890625000000001
40
0.890625000000001
40
0.906250000000001
40
0.906250000000001
40
0.921875
40
0.921875
40
0.9375
40
0.9375
40
0.953125
40
0.953125
40
0.96875
40
0.96875
40
1
40
1
40
1
40
1
41
1
10
87.0000005021141
20
9.5
30
0
41
1
10
87.1046076091179
20
9.5
30
0
41
1
10
87.2092147161217
20
9.4502357059398
30
0
41
1
10
87.3661253766273
20
9.2869836714541
30
0
41
1
10
87.4184289301289
20
9.21785234322078
30
0
41
1
10
87.5230360371327
20
9.04872793843882
30
0
41
1
10
87.5753395906346
20
8.94872969776333
30
0
41
1
10
87.6799466976383
20
8.71724816131177
30
0
41
1
10
87.7322502511401
20
8.58576135813001
30
0
41
1
10
87.8368573581438
20
8.29163499223009
30
0
41
1
10
87.8891609116457
20
8.12899423162813
30
0
41
1
10
87.9937680186495
20
7.77392080109237
30
0
41
1
10
88.0460715721514
20
7.58148964422978
30
0
41
1
10
88.1506786791551
20
7.16922135257397
30
0
41
1
10
88.2029822326568
20
6.94938847654984
30
0
41
1
10
88.3075893396606
20
6.48564092249165
30
0
41
1
10
88.3598928931625
20
6.2417328746082
30
0
41
1
10
88.4645000001662
20
5.73393221250811
30
0
41
1
10
88.5168035536681
20
5.47004786794085
30
0
41
1
10
88.6214106606718
20
4.92693826104127
30
0
41
1
10
88.6737142141736
20
4.64772195449007
30
0
41
1
10
88.7783213211773
20
4.07887625216944
30
0
41
1
10
88.8306248746792
20
3.78925550633303
30
0
41
1
10
88.9352319816829
20
3.20454502782144
30
0
41
1
10
88.9875355351847
20
2.90946278646825
30
0
41
1
10
89.0921426421884
20
2.31854444788456
30
0
41
1
10
89.1444461956903
20
2.0227140968257
30
0
41
1
10
89.301356856196
20
1.14052065270099
30
0
41
1
10
89.4059639631997
20
0.559793528597083
30
0
41
1
10
89.6151781772072
20
-0.559792185094238
30
0
41
1
10
89.7197852842108
20
-1.14051925235395
30
0
41
1
10
89.8766959447164
20
-2.02271267973495
30
0
41
1
10
89.9289994982182
20
-2.318543028427
30
0
41
1
10
90.0336066052218
20
-2.90946136951771
30
0
41
1
10
90.0859101587238
20
-3.20454361574784
30
0
41
1
10
90.1905172657275
20
-3.78925411179625
30
0
41
1
10
90.2428208192293
20
-4.07887487029495
30
0
41
1
10
90.3474279262331
20
-4.64772060590505
30
0
41
1
10
90.3997314797349
20
-4.9269369330847
30
0
41
1
10
90.5043385867386
20
-5.47004658897117
30
0
41
1
10
90.5566421402406
20
-5.73393096189659
30
0
41
1
10
90.6612492472443
20
-6.24173168777634
30
0
41
1
10
90.7135528007461
20
-6.48563977107929
30
0
41
1
10
90.8181599077498
20
-6.94938740197372
30
0
41
1
10
90.8704634612517
20
-7.16922031941121
30
0
41
1
10
90.9750705682554
20
-7.58148869850447
30
0
41
1
10
91.0273741217574
20
-7.77391990138696
30
0
41
1
10
91.131981228761
20
-8.1289934269808
30
0
41
1
10
91.1842847822628
20
-8.29163423661652
30
0
41
1
10
91.2888918892666
20
-8.58576070193675
30
0
41
1
10
91.3411954427685
20
-8.71724755550096
30
0
41
1
10
91.4458025497722
20
-8.94872919246251
30
0
41
1
10
91.498106103274
20
-9.04872748326233
30
0
41
1
10
91.6027132102777
20
-9.21785198659987
30
0
41
1
10
91.6550167637796
20
-9.28698336326238
30
0
41
1
10
91.8119274242852
20
-9.45023553871312
30
0
41
1
10
91.916534531289
20
-9.49999992083323
30
0
41
1
10
92.1257487452964
20
-9.50000007916657
30
0
41
1
10
92.2303558523001
20
-9.45023587316632
30
0
41
1
10
92.3872665128057
20
-9.28698397964556
30
0
41
1
10
92.4395700663075
20
-9.21785269984144
30
0
41
1
10
92.5441771733112
20
-9.04872839361505
30
0
41
1
10
92.5964807268131
20
-8.94873020306389
30
0
41
1
10
92.7010878338168
20
-8.71724876712236
30
0
41
1
10
92.7533913873186
20
-8.58576201432302
30
0
41
1
10
92.8579984943224
20
-8.2916357478434
30
0
41
1
10
92.9103020478242
20
-8.1289950362752
30
0
41
1
10
93.0149091548279
20
-7.77392170079756
30
0
41
1
10
93.0672127083298
20
-7.58149058995485
30
0
41
1
10
93.1718198153335
20
-7.16922238573653
30
0
41
1
10
93.2241233688354
20
-6.94938955112579
30
0
41
1
10
93.3287304758391
20
-6.48564207390382
30
0
41
1
10
93.3810340293409
20
-6.2417340614399
30
0
41
1
10
93.4856411363446
20
-5.73393346311946
30
0
41
1
10
93.5379446898465
20
-5.47004914691041
30
0
41
1
10
93.6425517968502
20
-4.92693958899776
30
0
41
1
10
93.6948553503521
20
-4.64772330307497
30
0
41
1
10
93.7994624573558
20
-4.07887763404386
30
0
41
1
10
93.8517660108577
20
-3.78925690086976
30
0
41
1
10
93.9563731178614
20
-3.20454643989501
30
0
41
1
10
94.0086766713632
20
-2.90946420341874
30
0
41
1
10
94.113283778367
20
-2.31854586734212
30
0
41
1
10
94.1655873318689
20
-2.02271551391647
30
0
41
1
10
94.3224979923745
20
-1.14052205304805
30
0
41
1
10
94.4271050993782
20
-0.559794904891902
30
0
41
1
10
94.6363193133857
20
0.559790874383197
30
0
41
1
10
94.7409264203894
20
1.14051785200695
30
0
41
1
10
94.8978370808949
20
2.02271126264421
30
0
41
1
10
94.9501406343967
20
2.31854160896944
30
0
41
1
10
95.0547477414004
20
2.90945995256717
30
0
41
1
10
95.1070512949023
20
3.20454220367421
30
0
41
1
10
95.2116584019061
20
3.78925271725942
30
0
41
1
10
95.2639619554078
20
4.07887348842038
30
0
41
1
10
95.3685690624116
20
4.64771925731995
30
0
41
1
10
95.4208726159135
20
4.92693560512799
30
0
41
1
10
95.5254797229171
20
5.47004531000135
30
0
41
1
10
95.577783276419
20
5.73392971128496
30
0
41
1
10
95.6823903834227
20
6.2417305009443
30
0
41
1
10
95.7346939369246
20
6.48563861966679
30
0
41
1
10
95.8393010439283
20
6.94938632739738
30
0
41
1
10
95.8916045974302
20
7.16921928624825
30
0
41
1
10
95.9962117044339
20
7.58148775277897
30
0
41
1
10
96.0485152579358
20
7.77391900168132
30
0
41
1
10
96.1531223649395
20
8.12899262233327
30
0
41
1
10
96.2054259184413
20
8.29163348100272
30
0
41
1
10
96.3100330254451
20
8.58576004574326
30
0
41
1
10
96.362336578947
20
8.71724694968992
30
0
41
1
10
96.4669436859506
20
8.94872868716143
30
0
41
1
10
96.5192472394525
20
9.04872702808558
30
0
41
1
10
96.6238543464563
20
9.21785162997872
30
0
41
1
10
96.6761578999581
20
9.28698305507046
30
0
41
1
10
96.8330685604636
20
9.45023537148617
30
0
41
1
10
96.9376756674674
20
9.49999984166627
30
0
41
1
10
97.0422827744711
20
9.49999999999963
30
0
0
SPLINE
5
FD
100
AcDbEntity
8
1
62
256
6
ByLayer
370
13
48
1
60
0
100
AcDbSpline
70
4
71
3
72
119
73
115
40
0
40
0
40
0
40
0
40
0.0156250000000001
40
0.0156250000000001
40
0.0312500000000001
40
0.0312500000000001
40
0.0468750000000002
40
0.0468750000000002
40
0.0625000000000003
40
0.0625000000000003
40
0.0781250000000004
40
0.0781250000000004
40
0.0937500000000005
40
0.0937500000000005
40
0.109375000000001
40
0.109375000000001
40
0.125000000000001
40
0.125000000000001
40
0.140625000000001
40
0.140625000000001
40
0.156250000000001
40
0.156250000000001
40
0.187500000000001
40
0.187500000000001
40
0.203125000000001
40
0.203125000000001
40
0.210937500000001
40
0.210937500000001
40
0.218750000000001
40
0.218750000000001
40
0.250000000000001
40
0.250000000000001
40
0.281250000000001
40
0.281250000000001
40
0.296875000000001
40
0.296875000000001
40
0.3125
40
0.3125
40
0.328125
40
0.328125
40
0.34375
40
0.34375
40
0.359375
40
0.359375
40
0.375
40
0.375
40
0.390625
40
0.390625
40
0.40625
40
0.40625
40
0.4375
40
0.4375
40
0.46875
40
0.46875
40
0.47265625
40
0.47265625
40
0.4765625
40
0.4765625
40
0.484375
40
0.484375
40
0.5
40
0.5
40
0.531249999999998
40
0.531249999999998
40
0.546874999999998
40
0.546874999999998
40
0.562499999999998
40
0.562499999999998
40
0.578124999999997
40
0.578124999999997
40
0.593749999999997
40
0.593749999999997
40
0.609374999999996
40
0.609374999999996
40
0.624999999999996
40
0.624999999999996
40
0.640624999999995
40
0.640624999999995
40
0.656249999999995
40
0.656249999999995
40
0.687499999999994
40
0.687499999999994
40
0.718749999999993
40
0.718749999999993
40
0.734374999999992
40
0.734374999999992
40
0.738281249999992
40
0.738281249999992
40
0.742187499999992
40
0.749999999999993
40
0.749999999999993
40
0.781249999999994
40
0.781249999999994
40
0.812499999999995
40
0.812499999999995
40
0.828124999999995
40
0.828124999999995
40
0.843749999999996
40
0.843749999999996
40
0.859374999999996
40
0.859374999999996
40
0.874999999999997
40
0.874999999999997
40
0.890624999999997
40
0.890624999999997
40
0.906249999999997
40
0.906249999999997
40
0.921874999999998
40
0.921874999999998
40
0.937499999999998
40
0.937499999999998
40
0.968749999999999
40
0.968749999999999
40
1
40
1
40
1
40
1
41
1
10
87
20
9.09185083350695
30
0
41
1
10
87.049722088893
20
9.00680222566351
30
0
41
1
10
87.0994441777859
20
8.90773589170996
30
0
41
1
10
87.1988883555717
20
8.68114497081038
30
0
41
1
10
87.2486104444647
20
8.55361783241861
30
0
41
1
10
87.3480546222506
20
8.27046454814487
30
0
41
1
10
87.3977767111436
20
8.11483759088637
30
0
41
1
10
87.4972208889295
20
7.77668570631053
30
0
41
1
10
87.5469429778224
20
7.59416197682924
30
0
41
1
10
87.6463871556082
20
7.20425441814302
30
0
41
1
10
87.6961092445011
20
6.99687381773046
30
0
41
1
10
87.795553422287
20
6.56006064187306
30
0
41
1
10
87.84527551118
20
6.33063307396378
30
0
41
1
10
87.9447196889658
20
5.85317955019693
30
0
41
1
10
87.9944417778589
20
5.60515988488254
30
0
41
1
10
88.0938859556447
20
5.09444960456537
30
0
41
1
10
88.1436080445377
20
4.83176590665568
30
0
41
1
10
88.2430522223236
20
4.29592806861766
30
0
41
1
10
88.2927743112165
20
4.02278076941403
30
0
41
1
10
88.3922184890024
20
3.47028020321014
30
0
41
1
10
88.4419405778953
20
3.19093306849379
30
0
41
1
10
88.5911068445741
20
2.34977994470381
30
0
41
1
10
88.6905510223601
20
1.78509141017926
30
0
41
1
10
88.8397172890389
20
0.95385729564353
30
0
41
1
10
88.8894393779318
20
0.679360285656088
30
0
41
1
10
88.9640225112712
20
0.273651186477252
30
0
41
1
10
88.9888835557177
20
0.139416716763947
30
0
41
1
10
89.0386056446106
20
-0.126738752293335
30
0
41
1
10
89.0634666890571
20
-0.260832544067142
30
0
41
1
10
89.1877719112895
20
-0.936695805760678
30
0
41
1
10
89.2872160890754
20
-1.49382322025141
30
0
41
1
10
89.4861044446471
20
-2.61586632401787
30
0
41
1
10
89.585548622433
20
-3.18067075478189
30
0
41
1
10
89.7347148891118
20
-4.00971589103946
30
0
41
1
10
89.7844369780048
20
-4.2829948546607
30
0
41
1
10
89.8838811557906
20
-4.81916377591509
30
0
41
1
10
89.9336032446836
20
-5.08204689926126
30
0
41
1
10
90.0330474224695
20
-5.59322116330162
30
0
41
1
10
90.0827695113624
20
-5.84150538266138
30
0
41
1
10
90.1822136891483
20
-6.31954721421531
30
0
41
1
10
90.2319357780412
20
-6.54929852050518
30
0
41
1
10
90.3313799558271
20
-6.98680942299103
30
0
41
1
10
90.38110204472
20
-7.19456398684588
30
0
41
1
10
90.4805462225059
20
-7.58525836663301
30
0
41
1
10
90.5302683113989
20
-7.76819492284028
30
0
41
1
10
90.6297124891848
20
-8.10719844393739
30
0
41
1
10
90.6794345780777
20
-8.26326417819061
30
0
41
1
10
90.7788787558636
20
-8.5473075059746
30
0
41
1
10
90.8286008447566
20
-8.6752858804993
30
0
41
1
10
90.9777671114354
20
-9.01652503669041
30
0
41
1
10
91.0772112892213
20
-9.18675011321133
30
0
41
1
10
91.276099644793
20
-9.41876660364113
30
0
41
1
10
91.3755438225788
20
-9.48070303994021
30
0
41
1
10
91.4874185225881
20
-9.49803529131435
30
0
41
1
10
91.4998490448112
20
-9.49923810971626
30
0
41
1
10
91.5247100892578
20
-9.50023342840277
30
0
41
1
10
91.5371406114809
20
-9.50003131983766
30
0
41
1
10
91.5744321781506
20
-9.49730268459462
30
0
41
1
10
91.5992932225972
20
-9.49264143858531
30
0
41
1
10
91.6738763559366
20
-9.46971360794592
30
0
41
1
10
91.7235984448295
20
-9.44249012306446
30
0
41
1
10
91.8727647115084
20
-9.32205165763347
30
0
41
1
10
91.9722088892942
20
-9.18974971267187
30
0
41
1
10
92.1213751559731
20
-8.90606404823706
30
0
41
1
10
92.171097244866
20
-8.79737034927712
30
0
41
1
10
92.2705414226519
20
-8.55155422960925
30
0
41
1
10
92.3202635115448
20
-8.41442980380455
30
0
41
1
10
92.4197076893307
20
-8.11239337234395
30
0
41
1
10
92.4694297782237
20
-7.9474812167756
30
0
41
1
10
92.5688739560095
20
-7.59135734972671
30
0
41
1
10
92.6185960449025
20
-7.40014753505343
30
0
41
1
10
92.7180402226883
20
-6.99373756489894
30
0
41
1
10
92.7677623115812
20
-6.77854128214727
30
0
41
1
10
92.8672064893673
20
-6.32720169276226
30
0
41
1
10
92.9169285782601
20
-6.09106389381026
30
0
41
1
10
93.0163727560459
20
-5.60147640466377
30
0
41
1
10
93.0660948449388
20
-5.34803329552986
30
0
41
1
10
93.1655390227248
20
-4.82787843645903
30
0
41
1
10
93.2152611116178
20
-4.56117365527382
30
0
41
1
10
93.3644273782966
20
-3.74752441831873
30
0
41
1
10
93.4638715560825
20
-3.18716196016456
30
0
41
1
10
93.6627599116542
20
-2.06369517211704
30
0
41
1
10
93.7622040894401
20
-1.50073338470315
30
0
41
1
10
93.9113703561189
20
-0.675230083026577
30
0
41
1
10
93.9610924450119
20
-0.403162302819851
30
0
41
1
10
94.0232450561281
20
-0.0686421850797387
30
0
41
1
10
94.0356755783513
20
-0.002207776876844
30
0
41
1
10
94.0605366227978
20
0.131203020029972
30
0
41
1
10
94.0978281894675
20
0.332169331588801
30
0
41
1
10
94.1351197561372
20
0.535517577232469
30
0
41
1
10
94.2594249783696
20
1.21780905012324
30
0
41
1
10
94.3588691561555
20
1.77823757019567
30
0
41
1
10
94.5577575117272
20
2.90185369266931
30
0
41
1
10
94.6572016895132
20
3.46491417152455
30
0
41
1
10
94.8063679561919
20
4.28699135088226
30
0
41
1
10
94.8560900450848
20
4.55722866732003
30
0
41
1
10
94.9555342228707
20
5.08587403436246
30
0
41
1
10
95.0052563117636
20
5.34427514477761
30
0
41
1
10
95.1047004895496
20
5.8451125437837
30
0
41
1
10
95.1544225784426
20
6.08754204046176
30
0
41
1
10
95.2538667562285
20
6.55263906499482
30
0
41
1
10
95.3035888451213
20
6.77530065026215
30
0
41
1
10
95.4030330229072
20
7.19759684676472
30
0
41
1
10
95.4527551118001
20
7.39722698086302
30
0
41
1
10
95.552199289586
20
7.7708859758622
30
0
41
1
10
95.601921378479
20
7.94491224902828
30
0
41
1
10
95.7013655562649
20
8.26558733209043
30
0
41
1
10
95.7510876451578
20
8.41223560795331
30
0
41
1
10
95.8505318229437
20
8.67722381938282
30
0
41
1
10
95.9002539118367
20
8.79556516757799
30
0
41
1
10
96.0494201785155
20
9.10797759030291
30
0
41
1
10
96.1488643563014
20
9.25911921902667
30
0
41
1
10
96.3477527118731
20
9.45505558540833
30
0
41
1
10
96.447196889659
20
9.5
30
0
41
1
10
96.5466410674449
20
9.5
30
0
0
SPLINE
5
FE
100
AcDbEntity
8
1
62
256
6
ByLayer
370
13
48
1
60
0
100
AcDbSpline
70
4
71
3
72
8
73
4
40
0
40
0
40
0
40
0
40
1
40
1
40
1
40
1
41
1
10
96.9128446849203
20
9.5
30
0
41
1
10
96.9559907147706
20
9.5
30
0
41
1
10
96.9991367446208
20
9.49157595756463
30
0
41
1
10
97.0422827744711
20
9.47400291548146
30
0
0
SPLINE
5
FF
100
AcDbEntity
8
1
62
256
6
ByLayer
370
13
48
1
60
0
100
AcDbSpline
70
4
71
3
72
8
73
4
40
0
40
0
40
0
40
0
40
1
40
1
40
1
40
1
41
1
10
97.042282774471
20
1.01411989506767
30
0
41
1
10
98.1948551829807
20
0.686966802300674
30
0
41
1
10
99.3474275914904
20
0.348924794816042
30
0
41
1
10
100.5
20
0
30
0
0
SPLINE
5
100
100
AcDbEntity
8
1
62
256
6
ByLayer
370
13
48
1
60
0
100
AcDbSpline
70
4
71
3
72
8
73
4
40
0
40
0
40
0
40
0
40
1
40
1
40
1
40
1
41
1
10
97.0422827744711
20
9.32053191447829
30
0
41
1
10
98.1948551829807
20
6.21580619574343
30
0
41
1
10
99.3474275914904
20
3.1089436476326
30
0
41
1
10
100.5
20
-2.84E-14
30
0
0
SPLINE
5
101
100
AcDbEntity
8
1
62
256
6
ByLayer
370
13
48
1
60
0
100
AcDbSpline
70
4
71
3
72
8
73
4
40
0
40
0
40
0
40
0
40
1
40
1
40
1
40
1
41
1
10
97.0422827744712
20
-4.18682228637476
30
0
41
1
10
98.1948551829808
20
-2.80104357172129
30
0
41
1
10
99.3474275914903
20
-1.40542778054555
30
0
41
1
10
100.5
20
-2.274E-13
30
0
0
SPLINE
5
102
100
AcDbEntity
8
1
62
256
6
ByLayer
370
13
48
1
60
0
100
AcDbSpline
70
4
71
3
72
8
73
4
40
0
40
0
40
0
40
0
40
1
40
1
40
1
40
1
41
1
10
97.042282774471
20
-1.39033249499604
30
0
41
1
10
98.1948551829807
20
-0.916056787380143
30
0
41
1
10
99.3474275914904
20
-0.452609873542684
30
0
41
1
10
100.5
20
2.84E-14
30
0
0
SPLINE
5
103
100
AcDbEntity
8
1
62
256
6
ByLayer
370
13
48
1
60
0
100
AcDbSpline
70
4
71
3
72
8
73
4
40
0
40
0
40
0
40
0
40
1
40
1
40
1
40
1
41
1
10
97.042282774471
20
2.20155815637426
30
0
41
1
10
98.1948551829807
20
1.47835679951837
30
0
41
1
10
99.3474275914903
20
0.744499672605826
30
0
41
1
10
100.5
20
5.68E-14
30
0
0
SPLINE
5
104
100
AcDbEntity
8
1
62
256
6
ByLayer
370
13
48
1
60
0
100
AcDbSpline
70
4
71
3
72
8
73
4
40
0
40
0
40
0
40
0
40
1
40
1
40
1
40
1
41
1
10
97.0422827744712
20
-1.91125240638931
30
0
41
1
10
98.1948551829808
20
-1.28489382974024
30
0
41
1
10
99.3474275914903
20
-0.647805864480915
30
0
41
1
10
100.5
20
-1.137E-13
30
0
0
SPLINE
5
105
100
AcDbEntity
8
1
62
256
6
ByLayer
370
13
48
1
60
0
100
AcDbSpline
70
4
71
3
72
8
73
4
40
0
40
0
40
0
40
0
40
1
40
1
40
1
40
1
41
1
10
97.0422827744712
20
8.31780704197882
30
0
41
1
10
98.1948551829808
20
5.53991489128802
30
0
41
1
10
99.3474275914903
20
2.76729598016783
30
0
41
1
10
100.5
20
4.547E-13
30
0
0
SPLINE
5
106
100
AcDbEntity
8
1
62
256
6
ByLayer
370
13
48
1
60
0
100
AcDbSpline
70
4
71
3
72
8
73
4
40
0
40
0
40
0
40
0
40
1
40
1
40
1
40
1
41
1
10
97.042282774471
20
-2.56866858350438
30
0
41
1
10
98.1948551829807
20
-1.70190412964436
30
0
41
1
10
99.3474275914904
20
-0.845676171068618
30
0
41
1
10
100.5
20
2.84E-14
30
0
0
SPLINE
5
107
100
AcDbEntity
8
1
62
256
6
ByLayer
370
13
48
1
60
0
100
AcDbSpline
70
4
71
3
72
8
73
4
40
0
40
0
40
0
40
0
40
1
40
1
40
1
40
1
41
1
10
97.042282774471
20
-8.91454640287287
30
0
41
1
10
98.1948551829808
20
-5.94681531727244
30
0
41
1
10
99.3474275914905
20
-2.97528207868993
30
0
41
1
10
100.5
20
6.821E-13
30
0
0
SPLINE
5
108
100
AcDbEntity
8
1
62
256
6
ByLayer
370
13
48
1
60
0
100
AcDbSpline
70
4
71
3
72
8
73
4
40
0
40
0
40
0
40
0
40
1
40
1
40
1
40
1
41
1
10
97.042282774471
20
-9.49631753473784
30
0
41
1
10
98.1948551829807
20
-6.3305735162775
30
0
41
1
10
99.3474275914904
20
-3.16511541596563
30
0
41
1
10
100.5
20
1.137E-13
30
0
0
SPLINE
5
109
100
AcDbEntity
8
1
62
256
6
ByLayer
370
13
48
1
60
0
100
AcDbSpline
70
4
71
3
72
8
73
4
40
0
40
0
40
0
40
0
40
1
40
1
40
1
40
1
41
1
10
97.042282774471
20
-8.42724635113032
30
0
41
1
10
98.1948551829808
20
-5.62321869697584
30
0
41
1
10
99.3474275914905
20
-2.81411977745341
30
0
41
1
10
100.5
20
6.537E-13
30
0
0
SPLINE
5
10A
100
AcDbEntity
8
1
62
256
6
ByLayer
370
13
48
1
60
0
100
AcDbSpline
70
4
71
3
72
8
73
4
40
0
40
0
40
0
40
0
40
1
40
1
40
1
40
1
41
1
10
97.0422827744712
20
-5.23253570907679
30
0
41
1
10
98.1948551829808
20
-3.49749599714386
30
0
41
1
10
99.3474275914903
20
-1.7533069827193
30
0
41
1
10
100.5
20
-2.842E-13
30
0
0
SPLINE
5
10B
100
AcDbEntity
8
1
62
256
6
ByLayer
370
13
48
1
60
0
100
AcDbSpline
70
4
71
3
72
8
73
4
40
0
40
0
40
0
40
0
40
1
40
1
40
1
40
1
41
1
10
97.0422827744711
20
6.41647670989315
30
0
41
1
10
98.1948551829807
20
4.28572563370909
30
0
41
1
10
99.3474275914904
20
2.1468872619736
30
0
41
1
10
100.5
20
2.84E-14
30
0
0
SPLINE
5
10C
100
AcDbEntity
8
1
62
256
6
ByLayer
370
13
48
1
60
0
100
AcDbSpline
70
4
71
3
72
8
73
4
40
0
40
0
40
0
40
0
40
1
40
1
40
1
40
1
41
1
10
97.042282774471
20
-7.49078961338387
30
0
41
1
10
98.1948551829807
20
-4.98712551594514
30
0
41
1
10
99.3474275914904
20
-2.49018073184328
30
0
41
1
10
100.5
20
8.53E-14
30
0
0
SPLINE
5
10D
100
AcDbEntity
8
1
62
256
6
ByLayer
370
13
48
1
60
0
100
AcDbSpline
70
4
71
3
72
8
73
4
40
0
40
0
40
0
40
0
40
1
40
1
40
1
40
1
41
1
10
97.042282774471
20
-7.80438554763305
30
0
41
1
10
98.1948551829806
20
-5.20916693604622
30
0
41
1
10
99.3474275914903
20
-2.60768952312063
30
0
41
1
10
100.5
20
-4.263E-13
30
0
0
SPLINE
5
10E
100
AcDbEntity
8
1
62
256
6
ByLayer
370
13
48
1
60
0
100
AcDbSpline
70
4
71
3
72
8
73
4
40
0
40
0
40
0
40
0
40
1
40
1
40
1
40
1
41
1
10
97.042282774471
20
-4.78309183490441
30
0
41
1
10
98.1948551829807
20
-3.17926752165081
30
0
41
1
10
99.3474275914904
20
-1.58489406458827
30
0
41
1
10
100.5
20
5.68E-14
30
0
0
SPLINE
5
10F
100
AcDbEntity
8
1
62
256
6
ByLayer
370
13
48
1
60
0
100
AcDbSpline
70
4
71
3
72
8
73
4
40
0
40
0
40
0
40
0
40
1
40
1
40
1
40
1
41
1
10
97.0422827744712
20
-0.718000784273642
30
0
41
1
10
98.1948551829808
20
-0.48958530997632
30
0
41
1
10
99.3474275914903
20
-0.25025026275074
30
0
41
1
10
100.5
20
-2.84E-14
30
0
0
SPLINE
5
110
100
AcDbEntity
8
1
62
256
6
ByLayer
370
13
48
1
60
0
100
AcDbSpline
70
4
71
3
72
8
73
4
40
0
40
0
40
0
40
0
40
1
40
1
40
1
40
1
41
1
10
97.042282774471
20
-5.78355776778153
30
0
41
1
10
98.1948551829807
20
-3.84701869213225
30
0
41
1
10
99.3474275914904
20
-1.91915459567409
30
0
41
1
10
100.5
20
5.68E-14
30
0
0
SPLINE
5
111
100
AcDbEntity
8
1
62
256
6
ByLayer
370
13
48
1
60
0
100
AcDbSpline
70
4
71
3
72
8
73
4
40
0
40
0
40
0
40
0
40
1
40
1
40
1
40
1
41
1
10
97.0422827744712
20
1.68377131421175
30
0
41
1
10
98.1948551829808
20
1.11173812501741
30
0
41
1
10
99.3474275914903
20
0.550477686615125
30
0
41
1
10
100.5
20
8.53E-14
30
0
0
SPLINE
5
112
100
AcDbEntity
8
1
62
256
6
ByLayer
370
13
48
1
60
0
100
AcDbSpline
70
4
71
3
72
8
73
4
40
0
40
0
40
0
40
0
40
1
40
1
40
1
40
1
41
1
10
97.0422827744711
20
7.97009139761687
30
0
41
1
10
98.1948551829807
20
5.31935292432649
30
0
41
1
10
99.3474275914904
20
2.66263989844899
30
0
41
1
10
100.5
20
5.68E-14
30
0
0
SPLINE
5
113
100
AcDbEntity
8
1
62
256
6
ByLayer
370
13
48
1
60
0
100
AcDbSpline
70
4
71
3
72
8
73
4
40
0
40
0
40
0
40
0
40
1
40
1
40
1
40
1
41
1
10
97.0422827744711
20
5.47812915254229
30
0
41
1
10
98.1948551829807
20
3.66103173443511
30
0
41
1
10
99.3474275914904
20
1.83497774986276
30
0
41
1
10
100.5
20
-5.68E-14
30
0
0
SPLINE
5
114
100
AcDbEntity
8
1
62
256
6
ByLayer
370
13
48
1
60
0
100
AcDbSpline
70
4
71
3
72
8
73
4
40
0
40
0
40
0
40
0
40
1
40
1
40
1
40
1
41
1
10
97.042282774471
20
-6.69098934445853
30
0
41
1
10
98.1948551829807
20
-4.45288668936931
30
0
41
1
10
99.3474275914904
20
-2.22254359068711
30
0
41
1
10
100.5
20
8.53E-14
30
0
0
SPLINE
5
115
100
AcDbEntity
8
1
62
256
6
ByLayer
370
13
48
1
60
0
100
AcDbSpline
70
4
71
3
72
8
73
4
40
0
40
0
40
0
40
0
40
1
40
1
40
1
40
1
41
1
10
97.0422827744711
20
9.01294060925133
30
0
41
1
10
98.1948551829807
20
6.01208803525154
30
0
41
1
10
99.3474275914904
20
3.00775653245736
30
0
41
1
10
100.5
20
-2.84E-14
30
0
0
SPLINE
5
116
100
AcDbEntity
8
1
62
256
6
ByLayer
370
13
48
1
60
0
100
AcDbSpline
70
4
71
3
72
8
73
4
40
0
40
0
40
0
40
0
40
1
40
1
40
1
40
1
41
1
10
97.042282774471
20
4.45166036612261
30
0
41
1
10
98.1948551829807
20
2.97744644959596
30
0
41
1
10
99.3474275914904
20
1.49355077108967
30
0
41
1
10
100.5
20
-5.68E-14
30
0
0
SPLINE
5
117
100
AcDbEntity
8
1
62
256
6
ByLayer
370
13
48
1
60
0
100
AcDbSpline
70
4
71
3
72
8
73
4
40
0
40
0
40
0
40
0
40
1
40
1
40
1
40
1
41
1
10
97.042282774471
20
-9.12561398570534
30
0
41
1
10
98.1948551829806
20
-6.0806990869167
30
0
41
1
10
99.3474275914903
20
-3.03880958041586
30
0
41
1
10
100.5
20
-5.116E-13
30
0
0
SPLINE
5
118
100
AcDbEntity
8
1
62
256
6
ByLayer
370
13
48
1
60
0
100
AcDbSpline
70
4
71
3
72
8
73
4
40
0
40
0
40
0
40
0
40
1
40
1
40
1
40
1
41
1
10
97.042282774471
20
-0.189631506927668
30
0
41
1
10
98.1948551829807
20
-0.115473748356464
30
0
41
1
10
99.3474275914904
20
-0.0522628899951485
30
0
41
1
10
100.5
20
0
30
0
0
SPLINE
5
119
100
AcDbEntity
8
1
62
256
6
ByLayer
370
13
48
1
60
0
100
AcDbSpline
70
4
71
3
72
8
73
4
40
0
40
0
40
0
40
0
40
1
40
1
40
1
40
1
41
1
10
97.0422827744712
20
5.03763575010379
30
0
41
1
10
98.1948551829808
20
3.34914063528339
30
0
41
1
10
99.3474275914903
20
1.66991869892226
30
0
41
1
10
100.5
20
2.842E-13
30
0
0
SPLINE
5
11A
100
AcDbEntity
8
1
62
256
6
ByLayer
370
13
48
1
60
0
100
AcDbSpline
70
4
71
3
72
8
73
4
40
0
40
0
40
0
40
0
40
1
40
1
40
1
40
1
41
1
10
97.0422827744712
20
6.01659758168273
30
0
41
1
10
98.1948551829808
20
4.00259144796431
30
0
41
1
10
99.3474275914903
20
1.99704694875226
30
0
41
1
10
100.5
20
3.411E-13
30
0
0
SPLINE
5
11B
100
AcDbEntity
8
1
62
256
6
ByLayer
370
13
48
1
60
0
100
AcDbSpline
70
4
71
3
72
8
73
4
40
0
40
0
40
0
40
0
40
1
40
1
40
1
40
1
41
1
10
97.0422827744712
20
8.8318323735588
30
0
41
1
10
98.1948551829808
20
5.88385445358424
30
0
41
1
10
99.3474275914903
20
2.93989273850423
30
0
41
1
10
100.5
20
4.832E-13
30
0
0
SPLINE
5
11C
100
AcDbEntity
8
1
62
256
6
ByLayer
370
13
48
1
60
0
100
AcDbSpline
70
4
71
3
72
8
73
4
40
0
40
0
40
0
40
0
40
1
40
1
40
1
40
1
41
1
10
97.042282774471
20
-9.45341612600029
30
0
41
1
10
98.1948551829806
20
-6.303360420606
30
0
41
1
10
99.3474275914903
20
-3.15220287259481
30
0
41
1
10
100.5
20
-5.116E-13
30
0
0
SPLINE
5
11D
100
AcDbEntity
8
1
62
256
6
ByLayer
370
13
48
1
60
0
100
AcDbSpline
70
4
71
3
72
8
73
4
40
0
40
0
40
0
40
0
40
1
40
1
40
1
40
1
41
1
10
97.042282774471
20
-3.70568504877161
30
0
41
1
10
98.1948551829807
20
-2.46037462855836
30
0
41
1
10
99.3474275914904
20
-1.22513891498826
30
0
41
1
10
100.5
20
2.84E-14
30
0
0
SPLINE
5
11E
100
AcDbEntity
8
1
62
256
6
ByLayer
370
13
48
1
60
0
100
AcDbSpline
70
4
71
3
72
8
73
4
40
0
40
0
40
0
40
0
40
1
40
1
40
1
40
1
41
1
10
97.0422827744712
20
3.9776384698271
30
0
41
1
10
98.1948551829808
20
2.64181551973601
30
0
41
1
10
99.3474275914903
20
1.31592812363471
30
0
41
1
10
100.5
20
2.274E-13
30
0
0
SPLINE
5
11F
100
AcDbEntity
8
1
62
256
6
ByLayer
370
13
48
1
60
0
100
AcDbSpline
70
4
71
3
72
8
73
4
40
0
40
0
40
0
40
0
40
1
40
1
40
1
40
1
41
1
10
97.042282774471
20
-8.17009298107754
30
0
41
1
10
98.1948551829807
20
-5.44114140185113
30
0
41
1
10
99.3474275914904
20
-2.71776080596374
30
0
41
1
10
100.5
20
8.53E-14
30
0
0
SPLINE
5
120
100
AcDbEntity
8
1
62
256
6
ByLayer
370
13
48
1
60
0
100
AcDbSpline
70
4
71
3
72
8
73
4
40
0
40
0
40
0
40
0
40
1
40
1
40
1
40
1
41
1
10
97.042282774471
20
-7.05598333621441
30
0
41
1
10
98.1948551829806
20
-4.71132047439866
30
0
41
1
10
99.3474275914903
20
-2.35931195440133
30
0
41
1
10
100.5
20
-3.979E-13
30
0
0
SPLINE
5
121
100
AcDbEntity
8
1
62
256
6
ByLayer
370
13
48
1
60
0
100
AcDbSpline
70
4
71
3
72
8
73
4
40
0
40
0
40
0
40
0
40
1
40
1
40
1
40
1
41
1
10
97.0422827744712
20
2.8536568655243
30
0
41
1
10
98.1948551829808
20
1.89199413875019
30
0
41
1
10
99.3474275914903
20
0.940769518095948
30
0
41
1
10
100.5
20
1.421E-13
30
0
0
SPLINE
5
122
100
AcDbEntity
8
1
62
256
6
ByLayer
370
13
48
1
60
0
100
AcDbSpline
70
4
71
3
72
8
73
4
40
0
40
0
40
0
40
0
40
1
40
1
40
1
40
1
41
1
10
97.0422827744711
20
9.47819306928184
30
0
41
1
10
98.1948551829807
20
6.31953684838899
30
0
41
1
10
99.3474275914904
20
3.16012027059298
30
0
41
1
10
100.5
20
0
30
0
0
SPLINE
5
123
100
AcDbEntity
8
1
62
256
6
ByLayer
370
13
48
1
60
0
100
AcDbSpline
70
4
71
3
72
8
73
4
40
0
40
0
40
0
40
0
40
1
40
1
40
1
40
1
41
1
10
97.0422827744712
20
9.42769296584189
30
0
41
1
10
98.1948551829808
20
6.28378027931919
30
0
41
1
10
99.3474275914903
20
3.1411971741291
30
0
41
1
10
100.5
20
5.116E-13
30
0
0
SPLINE
5
124
100
AcDbEntity
8
1
62
256
6
ByLayer
370
13
48
1
60
0
100
AcDbSpline
70
4
71
3
72
8
73
4
40
0
40
0
40
0
40
0
40
1
40
1
40
1
40
1
41
1
10
97.0422827744712
20
0.486800604162028
30
0
41
1
10
98.1948551829808
20
0.313598682973406
30
0
41
1
10
99.3474275914903
20
0.151330866694138
30
0
41
1
10
100.5
20
2.84E-14
30
0
0
SPLINE
5
125
100
AcDbEntity
8
1
62
256
6
ByLayer
370
13
48
1
60
0
100
AcDbSpline
70
4
71
3
72
8
73
4
40
0
40
0
40
0
40
0
40
1
40
1
40
1
40
1
41
1
10
97.042282774471
20
-6.19407852079303
30
0
41
1
10
98.1948551829807
20
-4.13768767417056
30
0
41
1
10
99.3474275914904
20
-2.07298247483965
30
0
41
1
10
100.5
20
5.68E-14
30
0
0
SPLINE
5
126
100
AcDbEntity
8
1
62
256
6
ByLayer
370
13
48
1
60
0
100
AcDbSpline
70
4
71
3
72
8
73
4
40
0
40
0
40
0
40
0
40
1
40
1
40
1
40
1
41
1
10
97.0422827744712
20
7.66998140024057
30
0
41
1
10
98.1948551829808
20
5.10686021403859
30
0
41
1
10
99.3474275914903
20
2.5501844767096
30
0
41
1
10
100.5
20
4.263E-13
30
0
0
SPLINE
5
127
100
AcDbEntity
8
1
62
256
6
ByLayer
370
13
48
1
60
0
100
AcDbSpline
70
4
71
3
72
8
73
4
40
0
40
0
40
0
40
0
40
1
40
1
40
1
40
1
41
1
10
97.0422827744712
20
6.89877637676372
30
0
41
1
10
98.1948551829808
20
4.59165654281458
30
0
41
1
10
99.3474275914903
20
2.29205068549902
30
0
41
1
10
100.5
20
3.695E-13
30
0
0
SPLINE
5
128
100
AcDbEntity
8
1
62
256
6
ByLayer
370
13
48
1
60
0
100
AcDbSpline
70
4
71
3
72
8
73
4
40
0
40
0
40
0
40
0
40
1
40
1
40
1
40
1
41
1
10
97.0422827744711
20
7.25160877191277
30
0
41
1
10
98.1948551829807
20
4.84147931639114
30
0
41
1
10
99.3474275914904
20
2.42426192853228
30
0
41
1
10
100.5
20
2.84E-14
30
0
0
SPLINE
5
129
100
AcDbEntity
8
1
62
256
6
ByLayer
370
13
48
1
60
0
100
AcDbSpline
70
4
71
3
72
8
73
4
40
0
40
0
40
0
40
0
40
1
40
1
40
1
40
1
41
1
10
97.042282774471
20
-9.38646110416789
30
0
41
1
10
98.1948551829807
20
-6.25595295607297
30
0
41
1
10
99.3474275914904
20
-3.12711388761031
30
0
41
1
10
100.5
20
1.137E-13
30
0
0
SPLINE
5
12A
100
AcDbEntity
8
1
62
256
6
ByLayer
370
13
48
1
60
0
100
AcDbSpline
70
4
71
3
72
8
73
4
40
0
40
0
40
0
40
0
40
1
40
1
40
1
40
1
41
1
10
97.042282774471
20
-8.71797216817009
30
0
41
1
10
98.1948551829807
20
-5.80763104393964
30
0
41
1
10
99.3474275914904
20
-2.90162295816816
30
0
41
1
10
100.5
20
8.53E-14
30
0
0
SPLINE
5
12B
100
AcDbEntity
8
1
62
256
6
ByLayer
370
13
48
1
60
0
100
AcDbSpline
70
4
71
3
72
8
73
4
40
0
40
0
40
0
40
0
40
1
40
1
40
1
40
1
41
1
10
97.0422827744711
20
8.5603670697804
30
0
41
1
10
98.1948551829807
20
5.71165937886138
30
0
41
1
10
99.3474275914904
20
2.85818662180577
30
0
41
1
10
100.5
20
-8.53E-14
30
0
0
SPLINE
5
12C
100
AcDbEntity
8
1
62
256
6
ByLayer
370
13
48
1
60
0
100
AcDbSpline
70
4
71
3
72
8
73
4
40
0
40
0
40
0
40
0
40
1
40
1
40
1
40
1
41
1
10
97.0422827744712
20
9.203788779413
30
0
41
1
10
98.1948551829808
20
6.13314628639566
30
0
41
1
10
99.3474275914903
20
3.06519835889301
30
0
41
1
10
100.5
20
5.116E-13
30
0
0
SPLINE
5
12D
100
AcDbEntity
8
1
62
256
6
ByLayer
370
13
48
1
60
0
100
AcDbSpline
70
4
71
3
72
8
73
4
40
0
40
0
40
0
40
0
40
1
40
1
40
1
40
1
41
1
10
97.0422827744712
20
-3.07375960711184
30
0
41
1
10
98.1948551829808
20
-2.05953353715108
30
0
41
1
10
99.3474275914903
20
-1.03494085592851
30
0
41
1
10
100.5
20
-1.705E-13
30
0
0
SPLINE
5
12E
100
AcDbEntity
8
1
62
256
6
ByLayer
370
13
48
1
60
0
100
AcDbSpline
70
4
71
3
72
8
73
4
40
0
40
0
40
0
40
0
40
1
40
1
40
1
40
1
41
1
10
97.042282774471
20
-9.25844699035699
30
0
41
1
10
98.1948551829806
20
-6.17475141913121
30
0
41
1
10
99.3474275914903
20
-3.08858396877227
30
0
41
1
10
100.5
20
-5.116E-13
30
0
0
SPLINE
5
12F
100
AcDbEntity
8
1
62
256
6
ByLayer
370
13
48
1
60
0
100
AcDbSpline
70
4
71
3
72
8
73
4
40
0
40
0
40
0
40
0
40
1
40
1
40
1
40
1
41
1
10
97.042282774471
20
3.35358213568708
30
0
41
1
10
98.1948551829807
20
2.24596593751414
30
0
41
1
10
99.3474275914904
20
1.12809852274728
30
0
41
1
10
100.5
20
-2.84E-14
30
0
0
LINE
5
7D
100
AcDbEntity
8
4
62
256
6
ByLayer
370
18
48
0.05
60
0
100
AcDbLine
10
-5
20
0
30
0
11
105.5
21
0
31
0
39
0
210
0
220
0
230
1
0
LINE
5
7F
100
AcDbEntity
8
81
62
256
6
ByLayer
370
18
48
1
60
0
100
AcDbLine
10
100.5
20
0
30
0
11
105.5
21
0
31
0
39
0
210
0
220
0
230
1
0
LINE
5
80
100
AcDbEntity
8
SK4
62
256
6
ByLayer
370
18
48
0.05
60
0
100
AcDbLine
10
-61
20
0
30
0
11
105.5
21
0
31
0
39
0
210
0
220
0
230
1
0
LINE
5
82
100
AcDbEntity
8
80
62
256
6
ByLayer
370
18
48
1
60
0
100
AcDbLine
10
0
20
0
30
0
11
-5
21
0
31
0
39
0
210
0
220
0
230
1
0
LINE
5
83
100
AcDbEntity
8
1
62
256
6
ByLayer
370
18
48
1
60
0
100
AcDbLine
10
10
20
-9.2
30
0
11
51.990811
21
-9.2
31
0
39
0
210
0
220
0
230
1
0
LINE
5
84
100
AcDbEntity
8
1
62
256
6
ByLayer
370
18
48
1
60
0
100
AcDbLine
10
51.990811
20
9.2
30
0
11
10
21
9.2
31
0
39
0
210
0
220
0
230
1
0
LINE
5
85
100
AcDbEntity
8
1
62
256
6
ByLayer
370
18
48
1
60
0
100
AcDbLine
10
100.5
20
0
30
0
11
97.042283
21
9.5
31
0
39
0
210
0
220
0
230
1
0
LINE
5
86
100
AcDbEntity
8
1
62
256
6
ByLayer
370
18
48
1
60
0
100
AcDbLine
10
97.042283
20
-9.5
30
0
11
100.5
21
0
31
0
39
0
210
0
220
0
230
1
0
LINE
5
87
100
AcDbEntity
8
1
62
256
6
ByLayer
370
18
48
1
60
0
100
AcDbLine
10
10
20
9.2
30
0
11
0
21
12.5
31
0
39
0
210
0
220
0
230
1
0
LINE
5
88
100
AcDbEntity
8
1
62
256
6
ByLayer
370
18
48
1
60
0
100
AcDbLine
10
0
20
-12.5
30
0
11
10
21
-9.2
31
0
39
0
210
0
220
0
230
1
0
LINE
5
89
100
AcDbEntity
8
1
62
256
6
ByLayer
370
18
48
1
60
0
100
AcDbLine
10
87
20
-9.5
30
0
11
97.042283
21
-9.5
31
0
39
0
210
0
220
0
230
1
0
LINE
5
8A
100
AcDbEntity
8
1
62
256
6
ByLayer
370
18
48
1
60
0
100
AcDbLine
10
100.5
20
0
30
0
11
97.042283
21
9.5
31
0
39
0
210
0
220
0
230
1
0
LINE
5
8B
100
AcDbEntity
8
1
62
256
6
ByLayer
370
18
48
1
60
0
100
AcDbLine
10
97.042283
20
-9.5
30
0
11
100.5
21
0
31
0
39
0
210
0
220
0
230
1
0
LINE
5
8C
100
AcDbEntity
8
SK1
62
256
6
ByLayer
370
18
48
1
60
0
100
AcDbLine
10
-56
20
-11.5
30
0
11
-55
21
-12.5
31
0
39
0
210
0
220
0
230
1
0
LINE
5
8E
100
AcDbEntity
8
SK1
62
256
6
ByLayer
370
18
48
1
60
0
100
AcDbLine
10
-55
20
12.5
30
0
11
-56
21
11.5
31
0
39
0
210
0
220
0
230
1
0
LINE
5
8F
100
AcDbEntity
8
SK1
62
256
6
ByLayer
370
18
48
1
60
0
100
AcDbLine
10
-55
20
-12.5
30
0
11
0
21
-12.5
31
0
39
0
210
0
220
0
230
1
0
LINE
5
90
100
AcDbEntity
8
SK1
62
256
6
ByLayer
370
18
48
1
60
0
100
AcDbLine
10
0
20
12.5
30
0
11
-55
21
12.5
31
0
39
0
210
0
220
0
230
1
0
LINE
5
91
100
AcDbEntity
8
1
62
256
6
ByLayer
370
18
48
1
60
0
100
AcDbLine
10
0
20
12.5
30
0
11
0
21
-12.5
31
0
39
0
210
0
220
0
230
1
0
LINE
5
92
100
AcDbEntity
8
1
62
256
6
ByLayer
370
18
48
1
60
0
100
AcDbLine
10
97.042283
20
9.5
30
0
11
97.042283
21
9.19835
31
0
39
0
210
0
220
0
230
1
0
LINE
5
93
100
AcDbEntity
8
1
62
256
6
ByLayer
370
18
48
1
60
0
100
AcDbLine
10
97.042283
20
-9.5
30
0
11
97.042283
21
-1.356569
31
0
39
0
210
0
220
0
230
1
0
LINE
5
94
100
AcDbEntity
8
1
62
256
6
ByLayer
370
18
48
1
60
0
100
AcDbLine
10
10
20
-9.2
30
0
11
10
21
0.650092
31
0
39
0
210
0
220
0
230
1
0
LINE
5
95
100
AcDbEntity
8
1
62
256
6
ByLayer
370
18
48
1
60
0
100
AcDbLine
10
10
20
9.2
30
0
11
10
21
8.893176
31
0
39
0
210
0
220
0
230
1
0
LINE
5
96
100
AcDbEntity
8
SK1
62
256
6
ByLayer
370
13
48
1
60
0
100
AcDbLine
10
-15.162813
20
-7.237775
30
0
11
-15.162813
21
7.237775
31
0
39
0
210
0
220
0
230
1
0
LINE
5
97
100
AcDbEntity
8
SK1
62
256
6
ByLayer
370
13
48
1
60
0
100
AcDbLine
10
-51.386002
20
5.000227
30
0
11
-51.386002
21
-5.000227
31
0
39
0
210
0
220
0
230
1
0
LINE
5
98
100
AcDbEntity
8
SK1
62
256
6
ByLayer
370
18
48
1
60
0
100
AcDbLine
10
-56
20
-11.5
30
0
11
-56
21
11.5
31
0
39
0
210
0
220
0
230
1
0
LINE
5
99
100
AcDbEntity
8
SK1
62
256
6
ByLayer
370
13
48
1
60
0
100
AcDbLine
10
-52.500329
20
-3.620591
30
0
11
-52.500329
21
3.620591
31
0
39
0
210
0
220
0
230
1
0
LINE
5
9A
100
AcDbEntity
8
SK1
62
256
6
ByLayer
370
18
48
1
60
0
100
AcDbLine
10
-55
20
-12.5
30
0
11
-55
21
12.5
31
0
39
0
210
0
220
0
230
1
0
LINE
5
9B
100
AcDbEntity
8
SK1
62
256
6
ByLayer
370
18
48
1
60
0
100
AcDbLine
10
0
20
12.5
30
0
11
0
21
-12.5
31
0
39
0
210
0
220
0
230
1
0
LINE
5
9C
100
AcDbEntity
8
SK1
62
256
6
ByLayer
370
13
48
1
60
0
100
AcDbLine
10
-14.015776
20
6.592429
30
0
11
-14.015776
21
-6.592429
31
0
39
0
210
0
220
0
230
1
0
LINE
5
9D
100
AcDbEntity
8
1
62
256
6
ByLayer
370
18
48
1
60
0
100
AcDbLine
10
97.042283
20
9.5
30
0
11
97.042283
21
-9.5
31
0
39
0
210
0
220
0
230
1
0
LINE
5
9E
100
AcDbEntity
8
1
62
256
6
ByLayer
370
18
48
1
60
0
100
AcDbLine
10
97.042283
20
9.5
30
0
11
97.042283
21
-9.5
31
0
39
0
210
0
220
0
230
1
0
LINE
5
9F
100
AcDbEntity
8
1
62
256
6
ByLayer
370
18
48
1
60
0
100
AcDbLine
10
97.042283
20
9.5
30
0
11
97.042283
21
-9.5
31
0
39
0
210
0
220
0
230
1
0
LINE
5
A0
100
AcDbEntity
8
1
62
256
6
ByLayer
370
18
48
1
60
0
100
AcDbLine
10
87
20
9.5
30
0
11
87
21
-9.5
31
0
39
0
210
0
220
0
230
1
0
LINE
5
A1
100
AcDbEntity
8
1
62
256
6
ByLayer
370
18
48
1
60
0
100
AcDbLine
10
87
20
9.5
30
0
11
87
21
-9.5
31
0
39
0
210
0
220
0
230
1
0
LINE
5
A2
100
AcDbEntity
8
1
62
256
6
ByLayer
370
18
48
1
60
0
100
AcDbLine
10
97.042283
20
9.5
30
0
11
97.042283
21
-9.5
31
0
39
0
210
0
220
0
230
1
0
LINE
5
A3
100
AcDbEntity
8
1
62
256
6
ByLayer
370
18
48
1
60
0
100
AcDbLine
10
87
20
9.5
30
0
11
87
21
-9.5
31
0
39
0
210
0
220
0
230
1
0
LINE
5
A4
100
AcDbEntity
8
1
62
256
6
ByLayer
370
18
48
1
60
0
100
AcDbLine
10
97.042283
20
9.5
30
0
11
97.042283
21
-9.5
31
0
39
0
210
0
220
0
230
1
0
LINE
5
A5
100
AcDbEntity
8
SK2
62
256
6
ByLayer
370
13
48
1
60
0
100
AcDbLine
10
-62.5
20
-12.5
30
0
11
-62.5
21
41.524569
31
0
39
0
210
0
220
0
230
1
0
LINE
5
A7
100
AcDbEntity
8
SK2
62
256
6
ByLayer
370
13
48
1
60
0
100
AcDbLine
10
-57.5875
20
12.5
30
0
11
-64.5
21
12.5
31
0
39
0
210
0
220
0
230
1
0
LINE
5
A8
100
AcDbEntity
8
SK2
62
256
6
ByLayer
370
13
48
1
60
0
100
AcDbLine
10
-57.5875
20
-12.5
30
0
11
-64.5
21
-12.5
31
0
39
0
210
0
220
0
230
1
0
LINE
5
A9
100
AcDbEntity
8
1
62
256
6
ByLayer
370
18
48
1
60
1
100
AcDbLine
10
-62.5
20
12.5
30
0
11
-62.039216
21
9.000002
31
0
39
0
210
0
220
0
230
1
0
LINE
5
AA
100
AcDbEntity
8
1
62
256
6
ByLayer
370
18
48
1
60
1
100
AcDbLine
10
-62.039216
20
9.000002
30
0
11
-62.960784
21
8.999998
31
0
39
0
210
0
220
0
230
1
0
LINE
5
AB
100
AcDbEntity
8
1
62
256
6
ByLayer
370
18
48
1
60
1
100
AcDbLine
10
-62.960784
20
8.999998
30
0
11
-62.5
21
12.5
31
0
39
0
210
0
220
0
230
1
0
LINE
5
AC
100
AcDbEntity
8
1
62
256
6
ByLayer
370
18
48
1
60
1
100
AcDbLine
10
-62.5
20
-12.5
30
0
11
-62.960784
21
-9.000002
31
0
39
0
210
0
220
0
230
1
0
LINE
5
AD
100
AcDbEntity
8
1
62
256
6
ByLayer
370
18
48
1
60
1
100
AcDbLine
10
-62.960784
20
-9.000002
30
0
11
-62.039216
21
-8.999998
31
0
39
0
210
0
220
0
230
1
0
LINE
5
AE
100
AcDbEntity
8
1
62
256
6
ByLayer
370
18
48
1
60
1
100
AcDbLine
10
-62.039216
20
-8.999998
30
0
11
-62.5
21
-12.5
31
0
39
0
210
0
220
0
230
1
0
LINE
5
AF
100
AcDbEntity
8
2
62
256
6
ByLayer
370
13
48
1
60
0
100
AcDbLine
10
108
20
-9.5
30
0
11
108
21
37.774683
31
0
39
0
210
0
220
0
230
1
0
LINE
5
B1
100
AcDbEntity
8
2
62
256
6
ByLayer
370
13
48
1
60
0
100
AcDbLine
10
98.629783
20
9.5
30
0
11
110
21
9.5
31
0
39
0
210
0
220
0
230
1
0
LINE
5
B2
100
AcDbEntity
8
2
62
256
6
ByLayer
370
13
48
1
60
0
100
AcDbLine
10
98.629783
20
-9.5
30
0
11
110
21
-9.5
31
0
39
0
210
0
220
0
230
1
0
LINE
5
B3
100
AcDbEntity
8
1
62
256
6
ByLayer
370
18
48
1
60
1
100
AcDbLine
10
108
20
9.5
30
0
11
108.460784
21
6.000002
31
0
39
0
210
0
220
0
230
1
0
LINE
5
B4
100
AcDbEntity
8
1
62
256
6
ByLayer
370
18
48
1
60
1
100
AcDbLine
10
108.460784
20
6.000002
30
0
11
107.539216
21
5.999998
31
0
39
0
210
0
220
0
230
1
0
LINE
5
B5
100
AcDbEntity
8
1
62
256
6
ByLayer
370
18
48
1
60
1
100
AcDbLine
10
107.539216
20
5.999998
30
0
11
108
21
9.5
31
0
39
0
210
0
220
0
230
1
0
LINE
5
B6
100
AcDbEntity
8
1
62
256
6
ByLayer
370
18
48
1
60
1
100
AcDbLine
10
108
20
-9.5
30
0
11
107.539216
21
-6.000002
31
0
39
0
210
0
220
0
230
1
0
LINE
5
B7
100
AcDbEntity
8
1
62
256
6
ByLayer
370
18
48
1
60
1
100
AcDbLine
10
107.539216
20
-6.000002
30
0
11
108.460784
21
-5.999998
31
0
39
0
210
0
220
0
230
1
0
LINE
5
B8
100
AcDbEntity
8
1
62
256
6
ByLayer
370
18
48
1
60
1
100
AcDbLine
10
108.460784
20
-5.999998
30
0
11
108
21
-9.5
31
0
39
0
210
0
220
0
230
1
0
LINE
5
B9
100
AcDbEntity
8
SK2
62
256
6
ByLayer
370
13
48
1
60
0
100
AcDbLine
10
101.042957
20
-1.491762
30
0
11
107.682423
21
-19.733545
31
0
39
0
210
0
220
0
230
1
0
LINE
5
BA
100
AcDbEntity
8
SK2
62
256
6
ByLayer
370
13
48
1
60
0
100
AcDbLine
10
101.042957
20
1.491762
30
0
11
107.682423
21
19.733545
31
0
39
0
210
0
220
0
230
1
0
LINE
5
BB
100
AcDbEntity
8
1
62
256
6
ByLayer
370
18
48
1
60
1
100
AcDbLine
10
106.998383
20
-17.85416
30
0
11
110.051575
21
-16.082064
31
0
39
0
210
0
220
0
230
1
0
LINE
5
BC
100
AcDbEntity
8
1
62
256
6
ByLayer
370
18
48
1
60
1
100
AcDbLine
10
110.051575
20
-16.082064
30
0
11
110.406196
21
-16.93267
31
0
39
0
210
0
220
0
230
1
0
LINE
5
BD
100
AcDbEntity
8
1
62
256
6
ByLayer
370
18
48
1
60
1
100
AcDbLine
10
110.406196
20
-16.93267
30
0
11
106.998383
21
-17.85416
31
0
39
0
210
0
220
0
230
1
0
LINE
5
BE
100
AcDbEntity
8
1
62
256
6
ByLayer
370
18
48
1
60
1
100
AcDbLine
10
106.998383
20
17.85416
30
0
11
110.406193
21
16.932671
31
0
39
0
210
0
220
0
230
1
0
LINE
5
BF
100
AcDbEntity
8
1
62
256
6
ByLayer
370
18
48
1
60
1
100
AcDbLine
10
110.406193
20
16.932671
30
0
11
110.051579
21
16.082063
31
0
39
0
210
0
220
0
230
1
0
LINE
5
C0
100
AcDbEntity
8
1
62
256
6
ByLayer
370
18
48
1
60
1
100
AcDbLine
10
110.051579
20
16.082063
30
0
11
106.998383
21
17.85416
31
0
39
0
210
0
220
0
230
1
0
LINE
5
134
100
AcDbEntity
8
1
62
256
6
ByLayer
370
18
48
1
60
1
100
AcDbLine
10
-62.5
20
12.5
30
0
11
-62.039216
21
9.000002
31
0
39
0
210
0
220
0
230
1
0
LINE
5
135
100
AcDbEntity
8
1
62
256
6
ByLayer
370
18
48
1
60
1
100
AcDbLine
10
-62.039216
20
9.000002
30
0
11
-62.960784
21
8.999998
31
0
39
0
210
0
220
0
230
1
0
LINE
5
136
100
AcDbEntity
8
1
62
256
6
ByLayer
370
18
48
1
60
1
100
AcDbLine
10
-62.960784
20
8.999998
30
0
11
-62.5
21
12.5
31
0
39
0
210
0
220
0
230
1
0
LINE
5
138
100
AcDbEntity
8
1
62
256
6
ByLayer
370
18
48
1
60
1
100
AcDbLine
10
-62.5
20
-12.5
30
0
11
-62.960784
21
-9.000002
31
0
39
0
210
0
220
0
230
1
0
LINE
5
139
100
AcDbEntity
8
1
62
256
6
ByLayer
370
18
48
1
60
1
100
AcDbLine
10
-62.960784
20
-9.000002
30
0
11
-62.039216
21
-8.999998
31
0
39
0
210
0
220
0
230
1
0
LINE
5
13A
100
AcDbEntity
8
1
62
256
6
ByLayer
370
18
48
1
60
1
100
AcDbLine
10
-62.039216
20
-8.999998
30
0
11
-62.5
21
-12.5
31
0
39
0
210
0
220
0
230
1
0
LINE
5
13E
100
AcDbEntity
8
1
62
256
6
ByLayer
370
18
48
1
60
1
100
AcDbLine
10
108
20
9.5
30
0
11
108.460784
21
6.000002
31
0
39
0
210
0
220
0
230
1
0
LINE
5
13F
100
AcDbEntity
8
1
62
256
6
ByLayer
370
18
48
1
60
1
100
AcDbLine
10
108.460784
20
6.000002
30
0
11
107.539216
21
5.999998
31
0
39
0
210
0
220
0
230
1
0
LINE
5
140
100
AcDbEntity
8
1
62
256
6
ByLayer
370
18
48
1
60
1
100
AcDbLine
10
107.539216
20
5.999998
30
0
11
108
21
9.5
31
0
39
0
210
0
220
0
230
1
0
LINE
5
142
100
AcDbEntity
8
1
62
256
6
ByLayer
370
18
48
1
60
1
100
AcDbLine
10
108
20
-9.5
30
0
11
107.539216
21
-6.000002
31
0
39
0
210
0
220
0
230
1
0
LINE
5
143
100
AcDbEntity
8
1
62
256
6
ByLayer
370
18
48
1
60
1
100
AcDbLine
10
107.539216
20
-6.000002
30
0
11
108.460784
21
-5.999998
31
0
39
0
210
0
220
0
230
1
0
LINE
5
144
100
AcDbEntity
8
1
62
256
6
ByLayer
370
18
48
1
60
1
100
AcDbLine
10
108.460784
20
-5.999998
30
0
11
108
21
-9.5
31
0
39
0
210
0
220
0
230
1
0
LINE
5
147
100
AcDbEntity
8
1
62
256
6
ByLayer
370
18
48
1
60
1
100
AcDbLine
10
106.998383
20
-17.85416
30
0
11
110.051575
21
-16.082064
31
0
39
0
210
0
220
0
230
1
0
LINE
5
148
100
AcDbEntity
8
1
62
256
6
ByLayer
370
18
48
1
60
1
100
AcDbLine
10
110.051575
20
-16.082064
30
0
11
110.406196
21
-16.93267
31
0
39
0
210
0
220
0
230
1
0
LINE
5
149
100
AcDbEntity
8
1
62
256
6
ByLayer
370
18
48
1
60
1
100
AcDbLine
10
110.406196
20
-16.93267
30
0
11
106.998383
21
-17.85416
31
0
39
0
210
0
220
0
230
1
0
LINE
5
14B
100
AcDbEntity
8
1
62
256
6
ByLayer
370
18
48
1
60
1
100
AcDbLine
10
106.998383
20
17.85416
30
0
11
110.406193
21
16.932671
31
0
39
0
210
0
220
0
230
1
0
LINE
5
14C
100
AcDbEntity
8
1
62
256
6
ByLayer
370
18
48
1
60
1
100
AcDbLine
10
110.406193
20
16.932671
30
0
11
110.051579
21
16.082063
31
0
39
0
210
0
220
0
230
1
0
LINE
5
14D
100
AcDbEntity
8
1
62
256
6
ByLayer
370
18
48
1
60
1
100
AcDbLine
10
110.051579
20
16.082063
30
0
11
106.998383
21
17.85416
31
0
39
0
210
0
220
0
230
1
0
MTEXT
5
130
100
AcDbEntity
8
SK2
62
256
6
ByLayer
370
18
48
1
60
0
100
AcDbMText
10
-63.841114
20
24.158437
30
0
210
0
220
0
230
1
1
%%c
40
3
41
0
44
1.084337
50
90
71
7
72
5
7
iso_b_vert
0
MTEXT
5
133
100
AcDbEntity
8
SK2
62
256
6
ByLayer
370
18
48
1
60
0
100
AcDbMText
10
-63.841114
20
30.135
30
0
210
0
220
0
230
1
1
\W0.7513;25.000
40
3
41
0
44
1.084337
50
90
71
7
72
5
7
iso_b_vert
0
MTEXT
5
13C
100
AcDbEntity
8
2
62
256
6
ByLayer
370
18
48
1
60
0
100
AcDbMText
10
106.658886
20
21.158437
30
0
210
0
220
0
230
1
1
%%c
40
3
41
0
44
1.084337
50
90
71
7
72
5
7
iso_b_vert
0
MTEXT
5
13D
100
AcDbEntity
8
2
62
256
6
ByLayer
370
18
48
1
60
0
100
AcDbMText
10
106.658886
20
27.135
30
0
210
0
220
0
230
1
1
\W0.7022;19.000
40
3
41
0
44
1.084337
50
90
71
7
72
5
7
iso_b_vert
0
MTEXT
5
146
100
AcDbEntity
8
SK2
62
256
6
ByLayer
370
18
48
1
60
0
100
AcDbMText
10
120.409114
20
3.734657
30
0
210
0
220
0
230
1
1
\W0.7071;140%%d
40
3
41
0
44
1.084337
50
270
71
7
72
5
7
iso_b_vert
0
MTEXT
5
14F
100
AcDbEntity
8
SK6
62
256
6
ByLayer
370
18
48
1
60
0
100
AcDbMText
10
-1.287254
20
-67.114886
30
0
210
0
220
0
230
1
1
\W0.7358;H85319.0
40
3
41
0
44
1.084337
50
0
71
7
72
5
7
iso_b_vert
0
HATCH
5
137
100
AcDbEntity
8
SK2
62
256
6
ByLayer
370
13
48
1
60
0
100
AcDbHatch
10
0
20
0
30
0
210
0
220
0
230
1
2
ANSI31
70
0
71
0
91
1
92
5
93
3
72
1
10
-62.5
20
12.5
11
-62.0392162584472
21
9.00000169255316
72
1
10
-62.0392162584472
20
9.00000169255316
11
-62.9607837415528
21
8.99999830744679
72
1
10
-62.9607837415528
20
8.99999830744679
11
-62.5
21
12.5
97
0
75
0
76
1
52
0
41
0.0062
77
0
78
1
53
45
43
0
44
0
45
-0.0139193969876572
46
0.0139193969876572
79
0
47
0
98
1
10
0
20
0
0
HATCH
5
13B
100
AcDbEntity
8
SK2
62
256
6
ByLayer
370
13
48
1
60
0
100
AcDbHatch
10
0
20
0
30
0
210
0
220
0
230
1
2
ANSI31
70
0
71
0
91
1
92
5
93
3
72
1
10
-62.5
20
-12.5
11
-62.9607837415528
21
-9.00000169255321
72
1
10
-62.9607837415528
20
-9.00000169255321
11
-62.0392162584472
21
-8.99999830744684
72
1
10
-62.0392162584472
20
-8.99999830744684
11
-62.5
21
-12.5
97
0
75
0
76
1
52
0
41
0.0062
77
0
78
1
53
45
43
0
44
0
45
-0.0139193969876572
46
0.0139193969876572
79
0
47
0
98
1
10
0
20
0
0
HATCH
5
141
100
AcDbEntity
8
2
62
256
6
ByLayer
370
13
48
1
60
0
100
AcDbHatch
10
0
20
0
30
0
210
0
220
0
230
1
2
ANSI31
70
0
71
0
91
1
92
5
93
3
72
1
10
108
20
9.49999999999997
11
108.460783741553
21
6.00000169255316
72
1
10
108.460783741553
20
6.00000169255316
11
107.539216258447
21
5.99999830744679
72
1
10
107.539216258447
20
5.99999830744679
11
108
21
9.49999999999997
97
0
75
0
76
1
52
0
41
0.0062
77
0
78
1
53
45
43
0
44
0
45
-0.0139193969876572
46
0.0139193969876572
79
0
47
0
98
1
10
0
20
0
0
HATCH
5
145
100
AcDbEntity
8
2
62
256
6
ByLayer
370
13
48
1
60
0
100
AcDbHatch
10
0
20
0
30
0
210
0
220
0
230
1
2
ANSI31
70
0
71
0
91
1
92
5
93
3
72
1
10
108
20
-9.50000000000003
11
107.539216258447
21
-6.00000169255321
72
1
10
107.539216258447
20
-6.00000169255321
11
108.460783741553
21
-5.99999830744684
72
1
10
108.460783741553
20
-5.99999830744684
11
108
21
-9.50000000000003
97
0
75
0
76
1
52
0
41
0.0062
77
0
78
1
53
45
43
0
44
0
45
-0.0139193969876572
46
0.0139193969876572
79
0
47
0
98
1
10
0
20
0
0
HATCH
5
14A
100
AcDbEntity
8
SK2
62
256
6
ByLayer
370
13
48
1
60
0
100
AcDbHatch
10
0
20
0
30
0
210
0
220
0
230
1
2
ANSI31
70
0
71
0
91
1
92
5
93
3
72
1
10
106.998382723188
20
-17.8541597949323
11
110.051575425693
21
-16.0820638240608
72
1
10
110.051575425693
20
-16.0820638240608
11
110.406195833975
21
-16.9326700737197
72
1
10
110.406195833975
20
-16.9326700737197
11
106.998382723188
21
-17.8541597949323
97
0
75
0
76
1
52
0
41
0.0062
77
0
78
1
53
45
43
0
44
0
45
-0.0139193969876572
46
0.0139193969876572
79
0
47
0
98
1
10
0
20
0
0
HATCH
5
14E
100
AcDbEntity
8
SK2
62
256
6
ByLayer
370
13
48
1
60
0
100
AcDbHatch
10
0
20
0
30
0
210
0
220
0
230
1
2
ANSI31
70
0
71
0
91
1
92
5
93
3
72
1
10
106.998382723188
20
17.8541597949322
11
110.406192709519
21
16.9326713763016
72
1
10
110.406192709519
20
16.9326713763016
11
110.051578550149
21
16.0820625214787
72
1
10
110.051578550149
20
16.0820625214787
11
106.998382723188
21
17.8541597949322
97
0
75
0
76
1
52
0
41
0.0062
77
0
78
1
53
45
43
0
44
0
45
-0.0139193969876572
46
0.0139193969876572
79
0
47
0
98
1
10
0
20
0
0
DIMENSION
5
152
100
AcDbEntity
8
SK2
62
256
6
ByLayer
370
18
48
1
60
0
100
AcDbDimension
2
_U0
10
100.5
20
-46.190499
30
0
11
22.25
21
-46.190499
31
0
70
32
71
1
72
1
41
1
210
0
220
0
230
1
3
Standard
100
AcDbAlignedDimension
13
-56
23
-12.5
33
0
14
100.5
24
0
34
0
50
0
100
AcDbRotatedDimension
1001
ACAD
1000
DSTYLE
1002
{
1070
   371
1070
    13
1070
   372
1070
    13
1070
     3
1000

1070
   170
1070
     0
1070
   144
1040
1.0
1070
   277
1070
     2
1070
   284
1070
     8
1070
   278
1070
    46
1070
   146
1040
1.166667
1070
   345
1005
16
1070
   347
1005
16
1070
   346
1005
16
1070
   344
1005
0
1070
   343
1005
0
1070
   172
1070
     1
1070
    76
1070
     0
1070
    75
1070
     0
1070
   282
1070
     0
1070
   281
1070
     0
1070
    71
1070
     0
1070
    74
1070
     0
1070
   279
1070
     0
1070
   173
1070
     1
1070
   340
1005
131
1070
   271
1070
     2
1070
   272
1070
     3
1070
    77
1070
     1
1070
    73
1070
     1
1070
   171
1070
     3
1070
   274
1070
     4
1070
   177
1070
     2
1070
   176
1070
     2
1070
   178
1070
     2
1070
    78
1070
     8
1070
    48
1040
-0.1
1070
    41
1040
3.5
1070
   147
1040
1.5
1070
    42
1040
1.5875
1070
    44
1040
2.0
1070
   140
1040
3.0
1002
}
1001
ACAD_DSTYLE_DIM_LINETYPE
1070
   380
1005
16
1001
ACAD_DSTYLE_DIM_EXT1_LINETYPE
1070
   381
1005
16
1001
ACAD_DSTYLE_DIM_EXT2_LINETYPE
1070
   382
1005
16
0
DIMENSION
5
16B
100
AcDbEntity
8
SK2
62
256
6
ByLayer
370
18
48
1
60
0
100
AcDbDimension
2
_U1
10
3
20
-36.190499
30
0
11
51.75
21
-36.190499
31
0
70
32
71
1
72
1
41
1
210
0
220
0
230
1
3
Standard
100
AcDbAlignedDimension
13
100.5
23
0
33
0
14
3
24
-9.5
34
0
50
0
100
AcDbRotatedDimension
1001
ACAD
1000
DSTYLE
1002
{
1070
   371
1070
    13
1070
   372
1070
    13
1070
     3
1000

1070
   170
1070
     0
1070
   144
1040
1.0
1070
   277
1070
     2
1070
   284
1070
     8
1070
   278
1070
    46
1070
   146
1040
1.166667
1070
   345
1005
16
1070
   347
1005
16
1070
   346
1005
16
1070
   344
1005
0
1070
   343
1005
0
1070
   172
1070
     1
1070
    76
1070
     0
1070
    75
1070
     0
1070
   282
1070
     0
1070
   281
1070
     0
1070
    71
1070
     0
1070
    74
1070
     0
1070
   279
1070
     0
1070
   173
1070
     1
1070
   340
1005
131
1070
   271
1070
     2
1070
   272
1070
     3
1070
    77
1070
     1
1070
    73
1070
     1
1070
   171
1070
     3
1070
   274
1070
     4
1070
   177
1070
     2
1070
   176
1070
     2
1070
   178
1070
     2
1070
    78
1070
     8
1070
    48
1040
-0.1
1070
    41
1040
3.5
1070
   147
1040
1.5
1070
    42
1040
1.5875
1070
    44
1040
2.0
1070
   140
1040
3.0
1002
}
1001
ACAD_DSTYLE_DIM_LINETYPE
1070
   380
1005
16
1001
ACAD_DSTYLE_DIM_EXT1_LINETYPE
1070
   381
1005
16
1001
ACAD_DSTYLE_DIM_EXT2_LINETYPE
1070
   382
1005
16
0
DIMENSION
5
183
100
AcDbEntity
8
SK2
62
256
6
ByLayer
370
18
48
1
60
0
100
AcDbDimension
2
_U2
10
0
20
-36.190499
30
0
11
-28
21
-36.190499
31
0
70
32
71
1
72
1
41
1
210
0
220
0
230
1
3
Standard
100
AcDbAlignedDimension
13
-56
23
-12.5
33
0
14
0
24
-12.5
34
0
50
0
100
AcDbRotatedDimension
1001
ACAD
1000
DSTYLE
1002
{
1070
   371
1070
    13
1070
   372
1070
    13
1070
     3
1000

1070
   170
1070
     0
1070
   144
1040
1.0
1070
   277
1070
     2
1070
   284
1070
     8
1070
   278
1070
    46
1070
   146
1040
1.166667
1070
   345
1005
16
1070
   347
1005
16
1070
   346
1005
16
1070
   344
1005
0
1070
   343
1005
0
1070
   172
1070
     1
1070
    76
1070
     0
1070
    75
1070
     0
1070
   282
1070
     0
1070
   281
1070
     0
1070
    71
1070
     0
1070
    74
1070
     0
1070
   279
1070
     0
1070
   173
1070
     1
1070
   340
1005
131
1070
   271
1070
     2
1070
   272
1070
     3
1070
    77
1070
     1
1070
    73
1070
     1
1070
   171
1070
     3
1070
   274
1070
     4
1070
   177
1070
     2
1070
   176
1070
     2
1070
   178
1070
     2
1070
    78
1070
     8
1070
    48
1040
-0.1
1070
    41
1040
3.5
1070
   147
1040
1.5
1070
    42
1040
1.5875
1070
    44
1040
2.0
1070
   140
1040
3.0
1002
}
1001
ACAD_DSTYLE_DIM_LINETYPE
1070
   380
1005
16
1001
ACAD_DSTYLE_DIM_EXT1_LINETYPE
1070
   381
1005
16
1001
ACAD_DSTYLE_DIM_EXT2_LINETYPE
1070
   382
1005
16
0
DIMENSION
5
19B
100
AcDbEntity
8
SK2
62
256
6
ByLayer
370
18
48
1
60
0
100
AcDbDimension
2
_U3
10
31
20
33.190499
30
0
11
65.75
21
33.190499
31
0
70
32
71
1
72
1
41
1
210
0
220
0
230
1
3
Standard
100
AcDbAlignedDimension
13
100.5
23
0
33
0
14
31
24
9.5
34
0
50
0
100
AcDbRotatedDimension
1001
ACAD
1000
DSTYLE
1002
{
1070
   371
1070
    13
1070
   372
1070
    13
1070
     3
1000

1070
   170
1070
     0
1070
   144
1040
1.0
1070
   277
1070
     2
1070
   284
1070
     8
1070
   278
1070
    46
1070
   146
1040
1.166667
1070
   345
1005
16
1070
   347
1005
16
1070
   346
1005
16
1070
   344
1005
0
1070
   343
1005
0
1070
   172
1070
     1
1070
    76
1070
     0
1070
    75
1070
     0
1070
   282
1070
     0
1070
   281
1070
     0
1070
    71
1070
     0
1070
    74
1070
     0
1070
   279
1070
     0
1070
   173
1070
     1
1070
   340
1005
131
1070
   271
1070
     2
1070
   272
1070
     3
1070
    77
1070
     1
1070
    73
1070
     1
1070
   171
1070
     3
1070
   274
1070
     4
1070
   177
1070
     2
1070
   176
1070
     2
1070
   178
1070
     2
1070
    78
1070
     8
1070
    48
1040
-0.1
1070
    41
1040
3.5
1070
   147
1040
1.5
1070
    42
1040
1.5875
1070
    44
1040
2.0
1070
   140
1040
3.0
1002
}
1001
ACAD_DSTYLE_DIM_LINETYPE
1070
   380
1005
16
1001
ACAD_DSTYLE_DIM_EXT1_LINETYPE
1070
   381
1005
16
1001
ACAD_DSTYLE_DIM_EXT2_LINETYPE
1070
   382
1005
16
0
ENDSEC
0
SECTION
2
OBJECTS
0
DICTIONARY
5
223
330
0
100
AcDbDictionary
280
0
281
1
3
ACAD_GROUP
350
224
3
ACAD_MLINESTYLE
350
225
0
DICTIONARY
5
224
330
0
100
AcDbDictionary
280
0
281
1
0
DICTIONARY
5
225
330
0
100
AcDbDictionary
280
0
281
1
3
Standard
350
18
0
MLINESTYLE
5
18
330
225
100
AcDbMlineStyle
2
Standard
70
0
3

62
256
51
90
52
90
71
2
49
-0.5
62
256
6
ByLayer
49
0.5
62
256
6
ByLayer
0
RASTERVARIABLES
5
211
330

100
AcDbRasterVariables
90
0
70
1
71
1
72
1
0
ENDSEC
0
EOF
