0
SECTION
2
HEADER
9
$ACADVER
1
AC1015
9
$DWGCODEPAGE
3
ANSI_1252
9
$HANDSEED
5
22b
9
$ANGBASE
50
0
9
$ANGDIR
70
0
9
$ATTMODE
70
1
9
$AUNITS
70
0
9
$AUPREC
70
0
9
$CECOLOR
62
256
9
$CELTSCALE
40
1
9
$CELTYPE
6
ByLayer
9
$CELWEIGHT
370
18
9
$CLAYER
8
0
9
$CMLJUST
70
0
9
$CMLSCALE
40
1
9
$CMLSTYLE
2
Standard
9
$DIMSTYLE
2
Standard
9
$TEXTSIZE
40
0.2
9
$TEXTSTYLE
7
Standard
9
$LUNITS
70
2
9
$LUPREC
70
4
9
$EXTNAMES
290
1
9
$INSUNITS
70
4
9
$LTSCALE
40
1
9
$LWDISPLAY
290
1
9
$PDMODE
70
0
9
$PDSIZE
40
0
9
$PLINEGEN
70
0
0
ENDSEC
0
SECTION
2
CLASSES
0
CLASS
1
RASTERVARIABLES
2
AcDbRasterVariables
3
ISM
90
0
280
0
281
0
0
ENDSEC
0
SECTION
2
TABLES
0
TABLE
2
VPORT
5
221
100
AcDbSymbolTable
0
VPORT
5
1
100
AcDbSymbolTableRecord
100
AcDbViewportTableRecord
2
*Active
70
0
10
0
20
0
11
1
21
1
12
-1
22
1
13
0
23
0
14
0.5
24
0.5
15
10
25
10
16
0
26
0
36
1
17
0
27
0
37
0
0
ENDTAB
0
TABLE
2
LTYPE
5
222
100
AcDbSymbolTable
0
LTYPE
5
14
100
AcDbSymbolTableRecord
100
AcDbLinetypeTableRecord
70
0
2
ByBlock
3

72
65
73
0
40
0
0
LTYPE
5
15
100
AcDbSymbolTableRecord
100
AcDbLinetypeTableRecord
70
0
2
ByLayer
3

72
65
73
0
40
0
0
LTYPE
5
16
100
AcDbSymbolTableRecord
100
AcDbLinetypeTableRecord
70
0
2
Continuous
3
Solid line
72
65
73
0
40
0
0
LTYPE
5
6E
100
AcDbSymbolTableRecord
100
AcDbLinetypeTableRecord
70
0
2
CENTER
3
____ _ ____ _ ____ _ ____
72
65
73
4
40
47.5
49
22
74
0
49
-8.5
74
0
49
8.5
74
0
49
-8.5
74
0
0
LTYPE
5
6F
100
AcDbSymbolTableRecord
100
AcDbLinetypeTableRecord
70
0
2
DASHED
3
__ __ __ __ __ __ __ __ __
72
65
73
2
40
25.72
49
12.86
74
0
49
-12.86
74
0
0
ENDTAB
0
TABLE
2
LAYER
5
223
100
AcDbSymbolTable
0
LAYER
5
10
100
AcDbSymbolTableRecord
100
AcDbLayerTableRecord
2
0
70
0
62
7
6
Continuous
290
1
370
-3
390
0
0
LAYER
5
71
100
AcDbSymbolTableRecord
100
AcDbLayerTableRecord
2
80
70
0
62
-6
6
Continuous
290
1
370
-3
390
0
0
LAYER
5
73
100
AcDbSymbolTableRecord
100
AcDbLayerTableRecord
2
81
70
0
62
-3
6
Continuous
290
1
370
-3
390
0
0
LAYER
5
75
100
AcDbSymbolTableRecord
100
AcDbLayerTableRecord
2
1
70
0
62
4
6
Continuous
290
1
370
-3
390
0
0
LAYER
5
7F
100
AcDbSymbolTableRecord
100
AcDbLayerTableRecord
2
4
70
0
62
-2
6
CENTER
290
1
370
-3
390
0
0
LAYER
5
B0
100
AcDbSymbolTableRecord
100
AcDbLayerTableRecord
2
2
70
0
62
7
6
Continuous
290
1
370
-3
390
0
0
LAYER
5
150
100
AcDbSymbolTableRecord
100
AcDbLayerTableRecord
2
Defpoints
70
0
62
7
6
Continuous
290
0
370
-3
390
0
0
LAYER
5
20d
100
AcDbSymbolTableRecord
100
AcDbLayerTableRecord
2
SK4
70
0
62
2
6
CENTER
290
1
370
-3
390
0
0
LAYER
5
20e
100
AcDbSymbolTableRecord
100
AcDbLayerTableRecord
2
SK1
70
0
62
4
6
Continuous
290
1
370
-3
390
0
0
LAYER
5
20f
100
AcDbSymbolTableRecord
100
AcDbLayerTableRecord
2
SK2
70
0
62
7
6
Continuous
290
1
370
-3
390
0
0
LAYER
5
210
100
AcDbSymbolTableRecord
100
AcDbLayerTableRecord
2
SK6
70
0
62
5
6
Continuous
290
1
370
-3
390
0
0
ENDTAB
0
TABLE
2
STYLE
5
224
100
AcDbSymbolTable
0
STYLE
5
11
100
AcDbSymbolTableRecord
100
AcDbTextStyleTableRecord
2
Standard
3
txt
70
0
71
0
40
0
41
1
42
0
50
0
0
STYLE
5
12C
100
AcDbSymbolTableRecord
100
AcDbTextStyleTableRecord
2
iso_b_vert
3
simplex.shx
70
0
71
0
40
0
41
1
42
0
50
0
0
STYLE
5
12D
100
AcDbSymbolTableRecord
100
AcDbTextStyleTableRecord
2
DWGDirectTextStyle
3
simplex
70
0
71
0
40
0
41
1
42
0
50
0
0
ENDTAB
0
TABLE
2
DIMSTYLE
5
225
100
AcDbSymbolTable
100
AcDbDimStyleTable
0
DIMSTYLE
105
27
100
AcDbSymbolTableRecord
100
AcDbDimStyleTableRecord
2
Standard
70
0
3
<>
41
0.18
42
0.0625
44
0.18
140
0.18
147
0.09
73
0
74
0
77
1
271
2
275
0
278
52
280
0
340
11
0
ENDTAB
0
TABLE
2
VIEW
5
226
100
AcDbSymbolTable
0
ENDTAB
0
TABLE
2
UCS
5
227
100
AcDbSymbolTable
0
ENDTAB
0
TABLE
2
APPID
5
228
100
AcDbSymbolTable
0
APPID
5
12
100
AcDbSymbolTableRecord
100
AcDbRegAppTableRecord
2
ACAD
70
0
0
APPID
5
14C
100
AcDbSymbolTableRecord
100
AcDbRegAppTableRecord
2
ACAD_DSTYLE_DIMBREAK
70
0
0
APPID
5
1CC
100
AcDbSymbolTableRecord
100
AcDbRegAppTableRecord
2
ACAD_DSTYLE_DIM_LINETYPE
70
0
0
APPID
5
1CD
100
AcDbSymbolTableRecord
100
AcDbRegAppTableRecord
2
ACAD_DSTYLE_DIM_EXT1_LINETYPE
70
0
0
APPID
5
1CE
100
AcDbSymbolTableRecord
100
AcDbRegAppTableRecord
2
ACAD_DSTYLE_DIM_EXT2_LINETYPE
70
0
0
APPID
5
209
100
AcDbSymbolTableRecord
100
AcDbRegAppTableRecord
2
ACAD_MLEADERVER
70
0
0
ENDTAB
0
TABLE
2
BLOCK_RECORD
5
229
100
AcDbSymbolTable
0
BLOCK_RECORD
5
1F
100
AcDbSymbolTableRecord
100
AcDbBlockTableRecord
2
*Model_Space
340
0
70
0
0
BLOCK_RECORD
5
1B
100
AcDbSymbolTableRecord
100
AcDbBlockTableRecord
2
*Paper_Space
340
0
70
0
0
BLOCK_RECORD
5
23
100
AcDbSymbolTableRecord
100
AcDbBlockTableRecord
2
*Paper_Space0
340
0
70
0
0
BLOCK_RECORD
5
151
100
AcDbSymbolTableRecord
100
AcDbBlockTableRecord
2
*D1
340
0
70
0
0
BLOCK_RECORD
5
15D
100
AcDbSymbolTableRecord
100
AcDbBlockTableRecord
2
_U0
340
0
70
0
0
BLOCK_RECORD
5
169
100
AcDbSymbolTableRecord
100
AcDbBlockTableRecord
2
*D3
340
0
70
0
0
BLOCK_RECORD
5
175
100
AcDbSymbolTableRecord
100
AcDbBlockTableRecord
2
_U1
340
0
70
0
0
BLOCK_RECORD
5
181
100
AcDbSymbolTableRecord
100
AcDbBlockTableRecord
2
*D5
340
0
70
0
0
BLOCK_RECORD
5
18D
100
AcDbSymbolTableRecord
100
AcDbBlockTableRecord
2
_U2
340
0
70
0
0
BLOCK_RECORD
5
199
100
AcDbSymbolTableRecord
100
AcDbBlockTableRecord
2
*D7
340
0
70
0
0
BLOCK_RECORD
5
1A5
100
AcDbSymbolTableRecord
100
AcDbBlockTableRecord
2
_U3
340
0
70
0
0
ENDTAB
0
ENDSEC
0
SECTION
2
BLOCKS
0
BLOCK
5
20
100
AcDbEntity
8
0
100
AcDbBlockBegin
2
*Model_Space
70
0
10
0
20
0
30
0
3
*Model_Space
0
ENDBLK
5
21
100
AcDbEntity
8
0
100
AcDbBlockEnd
0
BLOCK
5
1C
100
AcDbEntity
8
0
100
AcDbBlockBegin
2
*Paper_Space
70
0
10
0
20
0
30
0
3
*Paper_Space
0
ENDBLK
5
1D
100
AcDbEntity
8
0
100
AcDbBlockEnd
0
BLOCK
5
24
100
AcDbEntity
8
0
100
AcDbBlockBegin
2
*Paper_Space0
70
0
10
0
20
0
30
0
3
*Paper_Space0
0
ENDBLK
5
25
100
AcDbEntity
8
0
100
AcDbBlockEnd
0
BLOCK
5
152
100
AcDbEntity
8
0
100
AcDbBlockBegin
2
*D1
70
1
10
0
20
0
30
0
3
*D1
0
LINE
5
154
100
AcDbEntity
8
0
62
256
6
ByLayer
370
-2
48
1
60
0
100
AcDbLine
10
-50
20
-11.5875
30
0
11
-50
21
-47.952229
31
0
39
0
210
0
220
0
230
1
0
LINE
5
155
100
AcDbEntity
8
0
62
256
6
ByLayer
370
-2
48
1
60
0
100
AcDbLine
10
91.5
20
-1.5875
30
0
11
91.5
21
-47.952229
31
0
39
0
210
0
220
0
230
1
0
LINE
5
156
100
AcDbEntity
8
0
62
256
6
ByLayer
370
-2
48
1
60
0
100
AcDbLine
10
-46.5
20
-45.952229
30
0
11
88
21
-45.952229
31
0
39
0
210
0
220
0
230
1
0
SOLID
5
157
100
AcDbEntity
8
0
62
256
6
ByLayer
370
-1
48
1
60
0
100
AcDbTrace
10
-46.5
20
-45.368896
30
0
11
-46.5
21
-46.535563
31
0
12
-50
22
-45.952229
32
0
13
-50
23
-45.952229
33
0
39
0
210
0
220
0
230
1
0
SOLID
5
158
100
AcDbEntity
8
0
62
256
6
ByLayer
370
-1
48
1
60
0
100
AcDbTrace
10
88
20
-46.535563
30
0
11
88
21
-45.368896
31
0
12
91.5
22
-45.952229
32
0
13
91.5
23
-45.952229
33
0
39
0
210
0
220
0
230
1
0
MTEXT
5
159
100
AcDbEntity
8
0
62
256
6
ByLayer
370
18
48
1
60
0
100
AcDbMText
10
20.75
20
-39.952229
30
0
210
0
220
0
230
1
1
\A1;141.5
40
3
41
0
44
1
50
0
71
5
72
5
7
iso_b_vert
0
POINT
5
15A
100
AcDbEntity
8
Defpoints
62
0
6
ByLayer
370
-1
48
1
60
0
100
AcDbPoint
10
-50
20
-10
30
0
39
0
210
0
220
0
230
1
50
360
0
POINT
5
15B
100
AcDbEntity
8
Defpoints
62
0
6
ByLayer
370
-1
48
1
60
0
100
AcDbPoint
10
91.5
20
0
30
0
39
0
210
0
220
0
230
1
50
360
0
POINT
5
15C
100
AcDbEntity
8
Defpoints
62
0
6
ByLayer
370
-1
48
1
60
0
100
AcDbPoint
10
91.5
20
-45.952229
30
0
39
0
210
0
220
0
230
1
50
360
0
ENDBLK
5
153
100
AcDbEntity
8
0
100
AcDbBlockEnd
0
BLOCK
5
164
100
AcDbEntity
8
0
100
AcDbBlockBegin
2
_U0
70
0
10
0
20
0
30
0
3
_U0
0
MTEXT
5
15E
100
AcDbEntity
8
SK2
62
256
6
ByLayer
370
18
48
1
60
0
100
AcDbMText
10
15.738658
20
-45.067115
30
0
210
0
220
0
230
1
1
\W0.6746;141.50
40
3
41
0
44
1.084337
50
0
71
7
72
5
7
iso_b_vert
0
LINE
5
15F
100
AcDbEntity
8
SK2
62
256
6
ByLayer
370
13
48
1
60
0
100
AcDbLine
10
-50
20
-11.5875
30
0
11
-50
21
-47.952229
31
0
39
0
210
0
220
0
230
1
0
LINE
5
160
100
AcDbEntity
8
SK2
62
256
6
ByLayer
370
13
48
1
60
0
100
AcDbLine
10
91.5
20
-1.5875
30
0
11
91.5
21
-47.952229
31
0
39
0
210
0
220
0
230
1
0
LINE
5
161
100
AcDbEntity
8
SK2
62
256
6
ByLayer
370
13
48
1
60
0
100
AcDbLine
10
-50
20
-45.952229
30
0
11
91.5
21
-45.952229
31
0
39
0
210
0
220
0
230
1
0
SOLID
5
162
100
AcDbEntity
8
SK2
62
256
6
ByLayer
370
18
48
1
60
0
100
AcDbTrace
10
-50
20
-45.952229
30
0
11
-46.500002
21
-45.491446
31
0
12
-46.499998
22
-46.413013
32
0
13
-46.499998
23
-46.413013
33
0
39
0
210
0
220
0
230
1
0
SOLID
5
163
100
AcDbEntity
8
SK2
62
256
6
ByLayer
370
18
48
1
60
0
100
AcDbTrace
10
91.5
20
-45.952229
30
0
11
88.000002
21
-46.413013
31
0
12
87.999998
22
-45.491446
32
0
13
87.999998
23
-45.491446
33
0
39
0
210
0
220
0
230
1
0
ENDBLK
5
165
100
AcDbEntity
8
0
100
AcDbBlockEnd
0
BLOCK
5
16A
100
AcDbEntity
8
0
100
AcDbBlockBegin
2
*D3
70
1
10
0
20
0
30
0
3
*D3
0
LINE
5
16C
100
AcDbEntity
8
0
62
256
6
ByLayer
370
-2
48
1
60
0
100
AcDbLine
10
91.5
20
-1.5875
30
0
11
91.5
21
-37.952229
31
0
39
0
210
0
220
0
230
1
0
LINE
5
16D
100
AcDbEntity
8
0
62
256
6
ByLayer
370
-2
48
1
60
0
100
AcDbLine
10
3
20
-10.5875
30
0
11
3
21
-37.952229
31
0
39
0
210
0
220
0
230
1
0
LINE
5
16E
100
AcDbEntity
8
0
62
256
6
ByLayer
370
-2
48
1
60
0
100
AcDbLine
10
88
20
-35.952229
30
0
11
6.5
21
-35.952229
31
0
39
0
210
0
220
0
230
1
0
SOLID
5
16F
100
AcDbEntity
8
0
62
256
6
ByLayer
370
-1
48
1
60
0
100
AcDbTrace
10
88
20
-36.535563
30
0
11
88
21
-35.368896
31
0
12
91.5
22
-35.952229
32
0
13
91.5
23
-35.952229
33
0
39
0
210
0
220
0
230
1
0
SOLID
5
170
100
AcDbEntity
8
0
62
256
6
ByLayer
370
-1
48
1
60
0
100
AcDbTrace
10
6.5
20
-35.368896
30
0
11
6.5
21
-36.535563
31
0
12
3
22
-35.952229
32
0
13
3
23
-35.952229
33
0
39
0
210
0
220
0
230
1
0
MTEXT
5
171
100
AcDbEntity
8
0
62
256
6
ByLayer
370
18
48
1
60
0
100
AcDbMText
10
47.25
20
-29.952229
30
0
210
0
220
0
230
1
1
\A1;88.5
40
3
41
0
44
1
50
0
71
5
72
5
7
iso_b_vert
0
POINT
5
172
100
AcDbEntity
8
Defpoints
62
0
6
ByLayer
370
-1
48
1
60
0
100
AcDbPoint
10
91.5
20
0
30
0
39
0
210
0
220
0
230
1
50
360
0
POINT
5
173
100
AcDbEntity
8
Defpoints
62
0
6
ByLayer
370
-1
48
1
60
0
100
AcDbPoint
10
3
20
-9
30
0
39
0
210
0
220
0
230
1
50
360
0
POINT
5
174
100
AcDbEntity
8
Defpoints
62
0
6
ByLayer
370
-1
48
1
60
0
100
AcDbPoint
10
3
20
-35.952229
30
0
39
0
210
0
220
0
230
1
50
360
0
ENDBLK
5
16B
100
AcDbEntity
8
0
100
AcDbBlockEnd
0
BLOCK
5
17C
100
AcDbEntity
8
0
100
AcDbBlockBegin
2
_U1
70
0
10
0
20
0
30
0
3
_U1
0
MTEXT
5
176
100
AcDbEntity
8
SK2
62
256
6
ByLayer
370
18
48
1
60
0
100
AcDbMText
10
42.76763
20
-35.067115
30
0
210
0
220
0
230
1
1
\W0.7468;88.50
40
3
41
0
44
1.084337
50
0
71
7
72
5
7
iso_b_vert
0
LINE
5
177
100
AcDbEntity
8
SK2
62
256
6
ByLayer
370
13
48
1
60
0
100
AcDbLine
10
91.5
20
-1.5875
30
0
11
91.5
21
-37.952229
31
0
39
0
210
0
220
0
230
1
0
LINE
5
178
100
AcDbEntity
8
SK2
62
256
6
ByLayer
370
13
48
1
60
0
100
AcDbLine
10
3
20
-10.5875
30
0
11
3
21
-37.952229
31
0
39
0
210
0
220
0
230
1
0
LINE
5
179
100
AcDbEntity
8
SK2
62
256
6
ByLayer
370
13
48
1
60
0
100
AcDbLine
10
91.5
20
-35.952229
30
0
11
3
21
-35.952229
31
0
39
0
210
0
220
0
230
1
0
SOLID
5
17A
100
AcDbEntity
8
SK2
62
256
6
ByLayer
370
18
48
1
60
0
100
AcDbTrace
10
91.5
20
-35.952229
30
0
11
88.000002
21
-36.413013
31
0
12
87.999998
22
-35.491446
32
0
13
87.999998
23
-35.491446
33
0
39
0
210
0
220
0
230
1
0
SOLID
5
17B
100
AcDbEntity
8
SK2
62
256
6
ByLayer
370
18
48
1
60
0
100
AcDbTrace
10
3
20
-35.952229
30
0
11
6.499998
21
-35.491446
31
0
12
6.500002
22
-36.413013
32
0
13
6.500002
23
-36.413013
33
0
39
0
210
0
220
0
230
1
0
ENDBLK
5
17D
100
AcDbEntity
8
0
100
AcDbBlockEnd
0
BLOCK
5
182
100
AcDbEntity
8
0
100
AcDbBlockBegin
2
*D5
70
1
10
0
20
0
30
0
3
*D5
0
LINE
5
184
100
AcDbEntity
8
0
62
256
6
ByLayer
370
-2
48
1
60
0
100
AcDbLine
10
-50
20
-11.5875
30
0
11
-50
21
-37.952229
31
0
39
0
210
0
220
0
230
1
0
LINE
5
185
100
AcDbEntity
8
0
62
256
6
ByLayer
370
-2
48
1
60
0
100
AcDbLine
10
0
20
-11.5875
30
0
11
0
21
-37.952229
31
0
39
0
210
0
220
0
230
1
0
LINE
5
186
100
AcDbEntity
8
0
62
256
6
ByLayer
370
-2
48
1
60
0
100
AcDbLine
10
-46.5
20
-35.952229
30
0
11
-3.5
21
-35.952229
31
0
39
0
210
0
220
0
230
1
0
SOLID
5
187
100
AcDbEntity
8
0
62
256
6
ByLayer
370
-1
48
1
60
0
100
AcDbTrace
10
-46.5
20
-35.368896
30
0
11
-46.5
21
-36.535563
31
0
12
-50
22
-35.952229
32
0
13
-50
23
-35.952229
33
0
39
0
210
0
220
0
230
1
0
SOLID
5
188
100
AcDbEntity
8
0
62
256
6
ByLayer
370
-1
48
1
60
0
100
AcDbTrace
10
-3.5
20
-36.535563
30
0
11
-3.5
21
-35.368896
31
0
12
0
22
-35.952229
32
0
13
0
23
-35.952229
33
0
39
0
210
0
220
0
230
1
0
MTEXT
5
189
100
AcDbEntity
8
0
62
256
6
ByLayer
370
18
48
1
60
0
100
AcDbMText
10
-25
20
-29.952229
30
0
210
0
220
0
230
1
1
\A1;50
40
3
41
0
44
1
50
0
71
5
72
5
7
iso_b_vert
0
POINT
5
18A
100
AcDbEntity
8
Defpoints
62
0
6
ByLayer
370
-1
48
1
60
0
100
AcDbPoint
10
-50
20
-10
30
0
39
0
210
0
220
0
230
1
50
360
0
POINT
5
18B
100
AcDbEntity
8
Defpoints
62
0
6
ByLayer
370
-1
48
1
60
0
100
AcDbPoint
10
0
20
-10
30
0
39
0
210
0
220
0
230
1
50
360
0
POINT
5
18C
100
AcDbEntity
8
Defpoints
62
0
6
ByLayer
370
-1
48
1
60
0
100
AcDbPoint
10
0
20
-35.952229
30
0
39
0
210
0
220
0
230
1
50
360
0
ENDBLK
5
183
100
AcDbEntity
8
0
100
AcDbBlockEnd
0
BLOCK
5
194
100
AcDbEntity
8
0
100
AcDbBlockBegin
2
_U2
70
0
10
0
20
0
30
0
3
_U2
0
MTEXT
5
18E
100
AcDbEntity
8
SK2
62
256
6
ByLayer
370
18
48
1
60
0
100
AcDbMText
10
-29.48237
20
-35.067115
30
0
210
0
220
0
230
1
1
\W0.7468;50.00
40
3
41
0
44
1.084337
50
0
71
7
72
5
7
iso_b_vert
0
LINE
5
18F
100
AcDbEntity
8
SK2
62
256
6
ByLayer
370
13
48
1
60
0
100
AcDbLine
10
-50
20
-11.5875
30
0
11
-50
21
-37.952229
31
0
39
0
210
0
220
0
230
1
0
LINE
5
190
100
AcDbEntity
8
SK2
62
256
6
ByLayer
370
13
48
1
60
0
100
AcDbLine
10
0
20
-11.5875
30
0
11
0
21
-37.952229
31
0
39
0
210
0
220
0
230
1
0
LINE
5
191
100
AcDbEntity
8
SK2
62
256
6
ByLayer
370
13
48
1
60
0
100
AcDbLine
10
-50
20
-35.952229
30
0
11
0
21
-35.952229
31
0
39
0
210
0
220
0
230
1
0
SOLID
5
192
100
AcDbEntity
8
SK2
62
256
6
ByLayer
370
18
48
1
60
0
100
AcDbTrace
10
-50
20
-35.952229
30
0
11
-46.500002
21
-35.491446
31
0
12
-46.499998
22
-36.413013
32
0
13
-46.499998
23
-36.413013
33
0
39
0
210
0
220
0
230
1
0
SOLID
5
193
100
AcDbEntity
8
SK2
62
256
6
ByLayer
370
18
48
1
60
0
100
AcDbTrace
10
0
20
-35.952229
30
0
11
-3.499998
21
-36.413013
31
0
12
-3.500002
22
-35.491446
32
0
13
-3.500002
23
-35.491446
33
0
39
0
210
0
220
0
230
1
0
ENDBLK
5
195
100
AcDbEntity
8
0
100
AcDbBlockEnd
0
BLOCK
5
19A
100
AcDbEntity
8
0
100
AcDbBlockBegin
2
*D7
70
1
10
0
20
0
30
0
3
*D7
0
LINE
5
19C
100
AcDbEntity
8
0
62
256
6
ByLayer
370
-2
48
1
60
0
100
AcDbLine
10
91.5
20
1.5875
30
0
11
91.5
21
34.952229
31
0
39
0
210
0
220
0
230
1
0
LINE
5
19D
100
AcDbEntity
8
0
62
256
6
ByLayer
370
-2
48
1
60
0
100
AcDbLine
10
25
20
10.5875
30
0
11
25
21
34.952229
31
0
39
0
210
0
220
0
230
1
0
LINE
5
19E
100
AcDbEntity
8
0
62
256
6
ByLayer
370
-2
48
1
60
0
100
AcDbLine
10
88
20
32.952229
30
0
11
28.5
21
32.952229
31
0
39
0
210
0
220
0
230
1
0
SOLID
5
19F
100
AcDbEntity
8
0
62
256
6
ByLayer
370
-1
48
1
60
0
100
AcDbTrace
10
88
20
32.368896
30
0
11
88
21
33.535563
31
0
12
91.5
22
32.952229
32
0
13
91.5
23
32.952229
33
0
39
0
210
0
220
0
230
1
0
SOLID
5
1A0
100
AcDbEntity
8
0
62
256
6
ByLayer
370
-1
48
1
60
0
100
AcDbTrace
10
28.5
20
33.535563
30
0
11
28.5
21
32.368896
31
0
12
25
22
32.952229
32
0
13
25
23
32.952229
33
0
39
0
210
0
220
0
230
1
0
MTEXT
5
1A1
100
AcDbEntity
8
0
62
256
6
ByLayer
370
18
48
1
60
0
100
AcDbMText
10
58.25
20
38.952229
30
0
210
0
220
0
230
1
1
\A1;66.5
40
3
41
0
44
1
50
0
71
5
72
5
7
iso_b_vert
0
POINT
5
1A2
100
AcDbEntity
8
Defpoints
62
0
6
ByLayer
370
-1
48
1
60
0
100
AcDbPoint
10
91.5
20
0
30
0
39
0
210
0
220
0
230
1
50
360
0
POINT
5
1A3
100
AcDbEntity
8
Defpoints
62
0
6
ByLayer
370
-1
48
1
60
0
100
AcDbPoint
10
25
20
9
30
0
39
0
210
0
220
0
230
1
50
360
0
POINT
5
1A4
100
AcDbEntity
8
Defpoints
62
0
6
ByLayer
370
-1
48
1
60
0
100
AcDbPoint
10
25
20
32.952229
30
0
39
0
210
0
220
0
230
1
50
360
0
ENDBLK
5
19B
100
AcDbEntity
8
0
100
AcDbBlockEnd
0
BLOCK
5
1AC
100
AcDbEntity
8
0
100
AcDbBlockBegin
2
_U3
70
0
10
0
20
0
30
0
3
_U3
0
MTEXT
5
1A6
100
AcDbEntity
8
SK2
62
256
6
ByLayer
370
18
48
1
60
0
100
AcDbMText
10
53.76763
20
33.837344
30
0
210
0
220
0
230
1
1
\W0.7468;66.50
40
3
41
0
44
1.084337
50
0
71
7
72
5
7
iso_b_vert
0
LINE
5
1A7
100
AcDbEntity
8
SK2
62
256
6
ByLayer
370
13
48
1
60
0
100
AcDbLine
10
91.5
20
1.5875
30
0
11
91.5
21
34.952229
31
0
39
0
210
0
220
0
230
1
0
LINE
5
1A8
100
AcDbEntity
8
SK2
62
256
6
ByLayer
370
13
48
1
60
0
100
AcDbLine
10
25
20
10.5875
30
0
11
25
21
34.952229
31
0
39
0
210
0
220
0
230
1
0
LINE
5
1A9
100
AcDbEntity
8
SK2
62
256
6
ByLayer
370
13
48
1
60
0
100
AcDbLine
10
91.5
20
32.952229
30
0
11
25
21
32.952229
31
0
39
0
210
0
220
0
230
1
0
SOLID
5
1AA
100
AcDbEntity
8
SK2
62
256
6
ByLayer
370
18
48
1
60
0
100
AcDbTrace
10
91.5
20
32.952229
30
0
11
88.000002
21
32.491446
31
0
12
87.999998
22
33.413013
32
0
13
87.999998
23
33.413013
33
0
39
0
210
0
220
0
230
1
0
SOLID
5
1AB
100
AcDbEntity
8
SK2
62
256
6
ByLayer
370
18
48
1
60
0
100
AcDbTrace
10
25
20
32.952229
30
0
11
28.499998
21
33.413013
31
0
12
28.500002
22
32.491446
32
0
13
28.500002
23
32.491446
33
0
39
0
210
0
220
0
230
1
0
ENDBLK
5
1AD
100
AcDbEntity
8
0
100
AcDbBlockEnd
0
ENDSEC
0
SECTION
2
ENTITIES
0
ARC
5
C1
100
AcDbEntity
8
SK2
62
256
6
ByLayer
370
13
48
1
60
0
100
AcDbCircle
39
0
10
91.5
20
0
30
0
40
18.9999999999999
210
0
220
0
230
1
100
AcDbArc
50
290
51
70
0
ELLIPSE
5
C2
100
AcDbEntity
8
SK1
62
256
6
ByLayer
370
18
48
1
60
0
100
AcDbEllipse
10
209.817277
20
0
30
0
11
286.362532830084
21
-3.24477297310427E-13
31
0
210
0
220
0
230
1
40
0.034921
41
2.47357625657654
42
2.64710298745217
0
ELLIPSE
5
C3
100
AcDbEntity
8
SK1
62
256
6
ByLayer
370
18
48
1
60
0
100
AcDbEllipse
10
-22.723687
20
0
30
0
11
10.7236871002449
21
-1.21510065339267E-14
31
0
210
0
220
0
230
1
40
0.932515
41
-0.59537570803654
42
0.595375708036542
0
ELLIPSE
5
C4
100
AcDbEntity
8
SK1
62
256
6
ByLayer
370
18
48
1
60
0
100
AcDbEllipse
10
209.817277
20
0
30
0
11
286.362532824103
21
-3.2447729730365E-13
31
0
210
0
220
0
230
1
40
0.034921
41
-2.64710298745053
42
-2.47357625657208
0
ELLIPSE
5
C5
100
AcDbEntity
8
SK1
62
256
6
ByLayer
370
18
48
1
60
0
100
AcDbEllipse
10
-34.674849
20
0
30
0
11
-1.83690953073338E-15
21
-9.99999999999897
31
0
210
0
220
0
230
1
40
0.932515
41
-1.94446667349865
42
-1.19712598009114
0
POINT
5
70
100
AcDbEntity
8
80
62
256
6
ByLayer
370
18
48
1
60
0
100
AcDbPoint
10
0
20
0
30
0
39
0
210
0
220
0
230
1
50
360
0
POINT
5
72
100
AcDbEntity
8
81
62
256
6
ByLayer
370
18
48
1
60
0
100
AcDbPoint
10
91.5
20
0
30
0
39
0
210
0
220
0
230
1
50
360
0
POINT
5
74
100
AcDbEntity
8
1
62
256
6
ByLayer
370
18
48
1
60
1
100
AcDbPoint
10
-50
20
-10
30
0
39
0
210
0
220
0
230
1
50
360
0
POINT
5
76
100
AcDbEntity
8
1
62
256
6
ByLayer
370
18
48
1
60
1
100
AcDbPoint
10
91.5
20
0
30
0
39
0
210
0
220
0
230
1
50
360
0
POINT
5
77
100
AcDbEntity
8
1
62
256
6
ByLayer
370
18
48
1
60
1
100
AcDbPoint
10
91.5
20
0
30
0
39
0
210
0
220
0
230
1
50
360
0
POINT
5
78
100
AcDbEntity
8
1
62
256
6
ByLayer
370
18
48
1
60
1
100
AcDbPoint
10
3
20
-9
30
0
39
0
210
0
220
0
230
1
50
360
0
POINT
5
79
100
AcDbEntity
8
1
62
256
6
ByLayer
370
18
48
1
60
1
100
AcDbPoint
10
-50
20
-10
30
0
39
0
210
0
220
0
230
1
50
360
0
POINT
5
7A
100
AcDbEntity
8
1
62
256
6
ByLayer
370
18
48
1
60
1
100
AcDbPoint
10
0
20
-10
30
0
39
0
210
0
220
0
230
1
50
360
0
POINT
5
7B
100
AcDbEntity
8
1
62
256
6
ByLayer
370
18
48
1
60
1
100
AcDbPoint
10
91.5
20
0
30
0
39
0
210
0
220
0
230
1
50
360
0
POINT
5
7C
100
AcDbEntity
8
1
62
256
6
ByLayer
370
18
48
1
60
1
100
AcDbPoint
10
25
20
9
30
0
39
0
210
0
220
0
230
1
50
360
0
SPLINE
5
C6
100
AcDbEntity
8
1
62
256
6
ByLayer
370
18
48
1
60
0
100
AcDbSpline
70
4
71
3
72
22
73
18
40
0
40
0
40
0
40
0
40
0.124999999999989
40
0.124999999999989
40
0.187499999999988
40
0.187499999999988
40
0.249999999999987
40
0.249999999999987
40
0.499999999999996
40
0.499999999999996
40
0.625000000000001
40
0.625000000000001
40
0.687500000000003
40
0.687500000000003
40
0.750000000000006
40
0.750000000000006
40
1
40
1
40
1
40
1
41
1
10
88.2242678916086
20
-1.28490092665052
30
0
41
1
10
87.8225835689128
20
-1.14051241311097
30
0
41
1
10
87.421143584149
20
-0.995629000715553
30
0
41
1
10
86.8194034236741
20
-0.777414404694468
30
0
41
1
10
86.6188984466055
20
-0.704513809405086
30
0
41
1
10
86.2180003977159
20
-0.558494694550376
30
0
41
1
10
86.0175984152362
20
-0.485400996690743
30
0
41
1
10
85.0155055933473
20
-0.12039448803813
30
0
41
1
10
84.2137524980607
20
0.170654034103961
30
0
41
1
10
83.0113622544835
20
0.606795302770536
30
0
41
1
10
82.6106100816595
20
0.75211618550253
30
0
41
1
10
82.0095920545194
20
0.970125022796481
30
0
41
1
10
81.8092785126586
20
1.04281959133044
30
0
41
1
10
81.4085999696446
20
1.18797444333674
30
0
41
1
10
81.2082185592473
20
1.26038960571407
30
0
41
1
10
80.2059916549782
20
1.62135526042567
30
0
41
1
10
79.4033217711136
20
1.90694991908555
30
0
41
1
10
78.6000000000001
20
2.19001598026659
30
0
0
SPLINE
5
C7
100
AcDbEntity
8
1
62
256
6
ByLayer
370
18
48
1
60
0
100
AcDbSpline
70
4
71
3
72
86
73
82
40
0
40
0
40
0
40
0
40
0.031250000000001
40
0.031250000000001
40
0.0625000000000019
40
0.0625000000000019
40
0.125000000000004
40
0.125000000000004
40
0.140625000000004
40
0.140625000000004
40
0.148437500000003
40
0.148437500000003
40
0.156250000000002
40
0.1875
40
0.1875
40
0.249999999999997
40
0.249999999999997
40
0.281249999999995
40
0.281249999999995
40
0.296874999999995
40
0.296874999999995
40
0.312499999999995
40
0.312499999999995
40
0.343749999999994
40
0.343749999999994
40
0.374999999999994
40
0.374999999999994
40
0.406249999999994
40
0.406249999999994
40
0.437499999999994
40
0.437499999999994
40
0.445312499999994
40
0.445312499999994
40
0.453124999999995
40
0.468749999999995
40
0.468749999999995
40
0.499999999999995
40
0.499999999999995
40
0.531249999999995
40
0.531249999999995
40
0.539062499999995
40
0.539062499999995
40
0.546874999999995
40
0.562499999999995
40
0.562499999999995
40
0.593749999999996
40
0.593749999999996
40
0.624999999999996
40
0.624999999999996
40
0.632812499999995
40
0.632812499999995
40
0.640624999999994
40
0.656249999999995
40
0.656249999999995
40
0.687499999999993
40
0.687499999999993
40
0.718749999999992
40
0.718749999999992
40
0.726562499999992
40
0.726562499999992
40
0.734374999999992
40
0.734374999999992
40
0.74999999999999
40
0.74999999999999
40
0.781249999999989
40
0.781249999999989
40
0.812499999999987
40
0.843749999999985
40
0.843749999999985
40
0.851562499999985
40
0.851562499999985
40
0.859374999999985
40
0.874999999999987
40
0.874999999999987
40
0.90624999999999
40
0.937499999999993
40
0.968749999999996
40
0.968749999999996
40
0.984374999999998
40
0.984374999999998
40
1
40
1
40
1
40
1
41
1
10
88.2242678916041
20
8.71424674624365
30
0
41
1
10
88.2804778063028
20
8.57488084717565
30
0
41
1
10
88.3367759382562
20
8.43342111986351
30
0
41
1
10
88.4496445585974
20
8.1466430423101
30
0
41
1
10
88.5062149495893
20
8.00132395384827
30
0
41
1
10
88.6764356258846
20
7.55993447122711
30
0
41
1
10
88.7906109954807
20
7.25846261486009
30
0
41
1
10
88.934321749043
20
6.87327160375892
30
0
41
1
10
88.9631122296905
20
6.795813347934
30
0
41
1
10
89.0063685738356
20
6.67900092546387
30
0
41
1
10
89.0208090993175
20
6.63993213930192
30
0
41
1
10
89.0496619909929
20
6.56172515397029
30
0
41
1
10
89.1216877271165
20
6.3661303793229
30
0
41
1
10
89.1931881113284
20
6.1701551498293
30
0
41
1
10
89.3637093107717
20
5.69907865558349
30
0
41
1
10
89.4760057377564
20
5.38406696308579
30
0
41
1
10
89.6412804622425
20
4.90977071863267
30
0
41
1
10
89.6958319110295
20
4.75137099760877
30
0
41
1
10
89.7765483025053
20
4.51321580414651
30
0
41
1
10
89.8032672337085
20
4.43373762146811
30
0
41
1
10
89.8562596140295
20
4.27456919447465
30
0
41
1
10
89.8825405483941
20
4.19485380136646
30
0
41
1
10
89.9602053464083
20
3.95649827626931
30
0
41
1
10
90.010551651742
20
3.79827211113408
30
0
41
1
10
90.1074626441959
20
3.48291766438544
30
0
41
1
10
90.1540337013216
20
3.32579040769792
30
0
41
1
10
90.2419792034216
20
3.0123094727208
30
0
41
1
10
90.2833611117106
20
2.85595645003031
30
0
41
1
10
90.3587973099162
20
2.54360278025351
30
0
41
1
10
90.3928550097432
20
2.38760087269685
30
0
41
1
10
90.428949267938
20
2.19249565872761
30
0
41
1
10
90.435846979937
20
2.15343916926713
30
0
41
1
10
90.4489115358402
20
2.07544229978055
30
0
41
1
10
90.467374697346
20
1.95885643172815
30
0
41
1
10
90.4822381474796
20
1.84351468142444
30
0
41
1
10
90.506681298782
20
1.61455403413621
30
0
41
1
10
90.5158797366852
20
1.46420287050805
30
0
41
1
10
90.5183609820281
20
1.16861260944171
30
0
41
1
10
90.5116293143839
20
1.0233759658455
30
0
41
1
10
90.4933274400532
20
0.845497793455252
30
0
41
1
10
90.4891718460334
20
0.810064158958852
30
0
41
1
10
90.4799266848268
20
0.739768253532588
30
0
41
1
10
90.4646969821898
20
0.635445357585525
30
0
41
1
10
90.4456173853749
20
0.534443810949597
30
0
41
1
10
90.4029654930877
20
0.336761620086406
30
0
41
1
10
90.3685652529484
20
0.21072665153892
30
0
41
1
10
90.2909348380887
20
-0.030287285552987
30
0
41
1
10
90.2477112020448
20
-0.145269502914459
30
0
41
1
10
90.189598247688
20
-0.282192511449182
30
0
41
1
10
90.1777582275768
20
-0.309260594986682
30
0
41
1
10
90.1537454405133
20
-0.362597834784964
30
0
41
1
10
90.1172765081616
20
-0.441298440113371
30
0
41
1
10
90.079597887808
20
-0.51616011175804
30
0
41
1
10
90.0029202209527
20
-0.660918460409647
30
0
41
1
10
89.9500586549344
20
-0.750817834176189
30
0
41
1
10
89.8418743491488
20
-0.917844776762109
30
0
41
1
10
89.7865443051842
20
-0.994969952843263
30
0
41
1
10
89.7161761690453
20
-1.08340597331878
30
0
41
1
10
89.7020413681479
20
-1.10069371950237
30
0
41
1
10
89.6736546711963
20
-1.13446697615956
30
0
41
1
10
89.6593949507591
20
-1.15096026463223
30
0
41
1
10
89.6166332178788
20
-1.19902569136204
30
0
41
1
10
89.5880910837166
20
-1.22925549968011
30
0
41
1
10
89.5024063879997
20
-1.31462540060454
30
0
41
1
10
89.4452097858246
20
-1.36445693294462
30
0
41
1
10
89.3307735350484
20
-1.45031309396953
30
0
41
1
10
89.2162906748442
20
-1.52235951540479
30
0
41
1
10
89.1016855553372
20
-1.56682538789269
30
0
41
1
10
89.0299589690009
20
-1.58581189258817
30
0
41
1
10
89.0156019999739
20
-1.58916842936566
30
0
41
1
10
88.9870069232727
20
-1.59496936537138
30
0
41
1
10
88.9442450091385
20
-1.60231638536484
30
0
41
1
10
88.901861217376
20
-1.60564529720517
30
0
41
1
10
88.8175607172739
20
-1.60703630215937
30
0
41
1
10
88.7064053525688
20
-1.59486399090815
30
0
41
1
10
88.54282317847
20
-1.53528146606251
30
0
41
1
10
88.4354849633116
20
-1.46795305769379
30
0
41
1
10
88.355480400855
20
-1.40687585884908
30
0
41
1
10
88.3289754043661
20
-1.38480995797335
30
0
41
1
10
88.2763575307121
20
-1.33735990490402
30
0
41
1
10
88.2502293800337
20
-1.31196416008544
30
0
41
1
10
88.2242678916042
20
-1.28490092664896
30
0
0
SPLINE
5
C8
100
AcDbEntity
8
1
62
256
6
ByLayer
370
18
48
1
60
0
100
AcDbSpline
70
4
71
3
72
22
73
18
40
0
40
0
40
0
40
0
40
0.0370958199419687
40
0.0370958199419687
40
0.229676655953568
40
0.229676655953568
40
0.422257491965167
40
0.422257491965167
40
0.518547909970973
40
0.518547909970973
40
0.614838327976778
40
0.614838327976778
40
0.711128745982583
40
0.711128745982583
40
0.807419163988389
40
0.807419163988389
40
1
40
1
40
1
40
1
41
1
10
81.9769605717338
20
8.99887552848037
30
0
41
1
10
82.0541952979802
20
8.99888658896361
30
0
41
1
10
82.131436806843
20
8.99876581939913
30
0
41
1
10
82.6097088952459
20
8.99720446264328
30
0
41
1
10
83.0108885380718
20
8.99235530528316
30
0
41
1
10
83.8134494418096
20
8.97559830679808
30
0
41
1
10
84.2146178705438
20
8.96369561239368
30
0
41
1
10
84.8161168952986
20
8.94050778585006
30
0
41
1
10
85.016574340829
20
8.93188870830005
30
0
41
1
10
85.4173898903229
20
8.91285248171477
30
0
41
1
10
85.6177360426498
20
8.9024292829578
30
0
41
1
10
86.0184486419782
20
8.87982040327088
30
0
41
1
10
86.2188388664397
20
8.86764589570802
30
0
41
1
10
86.6197366459642
20
8.8415962864469
30
0
41
1
10
86.8202317597656
20
8.82771593517296
30
0
41
1
10
87.421810542302
20
8.78350045875666
30
0
41
1
10
87.8229946883855
20
8.75059693453852
30
0
41
1
10
88.2242678916086
20
8.71424674624322
30
0
0
SPLINE
5
C9
100
AcDbEntity
8
1
62
256
6
ByLayer
370
18
48
1
60
0
100
AcDbSpline
70
4
71
3
72
36
73
32
40
0
40
0
40
0
40
0
40
0.0167158609466273
40
0.0167158609466273
40
0.0822681368835176
40
0.0822681368835176
40
0.213372688757298
40
0.213372688757298
40
0.246148826725742
40
0.246148826725742
40
0.278924964694186
40
0.278924964694186
40
0.344477240631072
40
0.344477240631072
40
0.475581792504848
40
0.475581792504848
40
0.541134068441737
40
0.541134068441737
40
0.573910206410182
40
0.573910206410182
40
0.606686344378628
40
0.606686344378628
40
0.737790896252414
40
0.737790896252414
40
0.803343172189307
40
0.803343172189307
40
0.836119310157753
40
0.836119310157753
40
0.868895448126199
40
0.868895448126199
40
1
40
1
40
1
40
1
41
1
10
63.9154436585494
20
6.40797271510769
30
0
41
1
10
63.9973366284224
20
6.4274419571428
30
0
41
1
10
64.0792312599708
20
6.44679790294796
30
0
41
1
10
64.4822839543271
20
6.54151323920496
30
0
41
1
10
64.8034578008196
20
6.61526381778356
30
0
41
1
10
65.7669645426824
20
6.83149238904562
30
0
41
1
10
66.4092778218329
20
6.96897401533226
30
0
41
1
10
67.2118615425413
20
7.13280745523764
30
0
41
1
10
67.3723669293134
20
7.16516452540796
30
0
41
1
10
67.6934408987402
20
7.22891781974499
30
0
41
1
10
67.8540250411228
20
7.26029877009441
30
0
41
1
10
68.3358977111406
20
7.35291398695665
30
0
41
1
10
68.657096317413
20
7.41262767748125
30
0
41
1
10
69.6204142175011
20
7.58595256108839
30
0
41
1
10
70.2622867355731
20
7.69371894818462
30
0
41
1
10
71.2242713080091
20
7.84410017103349
30
0
41
1
10
71.5447718504333
20
7.89237174422902
30
0
41
1
10
72.0253507054046
20
7.96187358743691
30
0
41
1
10
72.1855271724535
20
7.98454175974354
30
0
41
1
10
72.5059418275362
20
8.02877639052375
30
0
41
1
10
72.6661746026318
20
8.05034989475024
30
0
41
1
10
73.4674228895635
20
8.15556613468596
30
0
41
1
10
74.1086588755418
20
8.23131303258972
30
0
41
1
10
75.0705695860117
20
8.33265516971352
30
0
41
1
10
75.3912152720438
20
8.36438531835145
30
0
41
1
10
75.8721555521711
20
8.40890771856991
30
0
41
1
10
76.0324638679861
20
8.42323634210786
30
0
41
1
10
76.3530650597007
20
8.45086448626839
30
0
41
1
10
76.5133602028732
20
8.46416162339381
30
0
41
1
10
77.3150175905416
20
8.5279139667536
30
0
41
1
10
77.957208031803
20
8.57002685090401
30
0
41
1
10
78.6
20
8.60352055942769
30
0
0
SPLINE
5
CA
100
AcDbEntity
8
1
62
256
6
ByLayer
370
18
48
1
60
0
100
AcDbSpline
70
4
71
3
72
68
73
64
40
0
40
0
40
0
40
0
40
0.0309683810060444
40
0.0309683810060444
40
0.0619367620120889
40
0.0619367620120889
40
0.123873524024175
40
0.123873524024175
40
0.154841905030218
40
0.154841905030218
40
0.170326095533239
40
0.170326095533239
40
0.18581028603626
40
0.18581028603626
40
0.216778667042302
40
0.216778667042302
40
0.247747048048343
40
0.247747048048343
40
0.309683810060428
40
0.309683810060428
40
0.34065219106647
40
0.34065219106647
40
0.371620572072512
40
0.371620572072512
40
0.433557334084596
40
0.433557334084596
40
0.449041524587617
40
0.449041524587617
40
0.464525715090637
40
0.464525715090637
40
0.495494096096676
40
0.495494096096676
40
0.526462477102716
40
0.526462477102716
40
0.557430858108755
40
0.557430858108755
40
0.588399239114794
40
0.588399239114794
40
0.619367620120834
40
0.619367620120834
40
0.681304382132914
40
0.681304382132914
40
0.712272763138953
40
0.712272763138953
40
0.727756953641973
40
0.727756953641973
40
0.743241144144994
40
0.743241144144994
40
0.805177906157076
40
0.805177906157076
40
0.836146287163116
40
0.836146287163116
40
0.867114668169157
40
0.867114668169157
40
0.882598858672177
40
0.882598858672177
40
0.898083049175198
40
0.898083049175198
40
0.929051430181239
40
0.929051430181239
40
0.990988192193324
40
0.990988192193324
40
1
40
1
40
1
40
1
41
1
10
78.6000000000001
20
2.01190070231672
30
0
41
1
10
78.2584264710942
20
2.12867749785141
30
0
41
1
10
77.9169859660016
20
2.24497332110701
30
0
41
1
10
77.2343942700608
20
2.47665358223145
30
0
41
1
10
76.8932462781434
20
2.59204330749401
30
0
41
1
10
75.8694989567271
20
2.93483155653871
30
0
41
1
10
75.1867825618803
20
3.15937474783206
30
0
41
1
10
74.162568798715
20
3.49076188699016
30
0
41
1
10
73.8211418355409
20
3.60032016195373
30
0
41
1
10
73.3089975376091
20
3.76336978932693
30
0
41
1
10
73.1382816123376
20
3.81750356742379
30
0
41
1
10
72.796849470298
20
3.92534148628937
30
0
41
1
10
72.6261681348247
20
3.97903753769782
30
0
41
1
10
72.1141777266366
20
4.13918714414359
30
0
41
1
10
71.7728450194941
20
4.24456726450163
30
0
41
1
10
71.0901343810906
20
4.4525014904537
30
0
41
1
10
70.7487687302246
20
4.55508654635227
30
0
41
1
10
69.7246802197027
20
4.85881048713398
30
0
41
1
10
69.041971309862
20
5.05594304332863
30
0
41
1
10
68.0181350878327
20
5.34398217824736
30
0
41
1
10
67.6768743890457
20
5.43866526385313
30
0
41
1
10
66.9939258695952
20
5.6243391010197
30
0
41
1
10
66.652422095825
20
5.71540790895551
30
0
41
1
10
65.628068122662
20
5.98341829627779
30
0
41
1
10
64.9452794159156
20
6.1551747912161
30
0
41
1
10
64.092123229883
20
6.36156262018616
30
0
41
1
10
63.9215083622074
20
6.40242332597728
30
0
41
1
10
63.5803118097394
20
6.48330669421526
30
0
41
1
10
63.4097288763368
20
6.52332646118674
30
0
41
1
10
62.8979206325328
20
6.64191792326164
30
0
41
1
10
62.5565875989841
20
6.71893401460792
30
0
41
1
10
61.8736705880669
20
6.86891795002379
30
0
41
1
10
61.5320364957487
20
6.94190888486193
30
0
41
1
10
60.848955991446
20
7.08383967526612
30
0
41
1
10
60.5074867381409
20
7.1527846073752
30
0
41
1
10
59.8247314925118
20
7.28669265591421
30
0
41
1
10
59.4834490923313
20
7.35166098016521
30
0
41
1
10
58.8010856062905
20
7.47760229065949
30
0
41
1
10
58.4599697442505
20
7.53851609119187
30
0
41
1
10
57.4361859855778
20
7.71420608172684
30
0
41
1
10
56.7532882510266
20
7.82226536763687
30
0
41
1
10
55.7285638950601
20
7.97106246565497
30
0
41
1
10
55.3870228489542
20
8.0184301565036
30
0
41
1
10
54.8749690094953
20
8.08612005123911
30
0
41
1
10
54.7043187262981
20
8.10812464771948
30
0
41
1
10
54.3630819340293
20
8.15100515195027
30
0
41
1
10
54.1924930217525
20
8.17187796054367
30
0
41
1
10
53.3395090787266
20
8.27321988760627
30
0
41
1
10
52.6568535170922
20
8.34452184506034
30
0
41
1
10
51.6326520826426
20
8.43716758980173
30
0
41
1
10
51.291214230929
20
8.46565965764955
30
0
41
1
10
50.6083051807804
20
8.51787132385343
30
0
41
1
10
50.266779891952
20
8.54159690915662
30
0
41
1
10
49.7547405214318
20
8.57354869708146
30
0
41
1
10
49.5840972865606
20
8.583590330492
30
0
41
1
10
49.2428069230118
20
8.60241988308746
30
0
41
1
10
49.0721536956173
20
8.61120585644278
30
0
41
1
10
48.5601718792811
20
8.63569039779398
30
0
41
1
10
48.218825844193
20
8.64951877776383
30
0
41
1
10
47.1947612495059
20
8.68358895121591
30
0
41
1
10
46.5120074189225
20
8.69643520139232
30
0
41
1
10
45.7300323270482
20
8.69978249359741
30
0
41
1
10
45.630712480541
20
8.69999650261934
30
0
41
1
10
45.5313934443509
20
8.69999909666041
30
0
0
SPLINE
5
CB
100
AcDbEntity
8
1
62
256
6
ByLayer
370
18
48
1
60
0
100
AcDbSpline
70
4
71
3
72
14
73
10
40
0
40
0
40
0
40
0
40
0.35620465525856
40
0.35620465525856
40
0.712409310517121
40
0.712409310517121
40
0.890511638146412
40
0.890511638146412
40
1
40
1
40
1
40
1
41
1
10
78.6
20
-8.91447592531694
30
0
41
1
10
79.0012838456468
20
-8.93437929672598
30
0
41
1
10
79.402476287251
20
-8.95077112821502
30
0
41
1
10
80.2045656058557
20
-8.97654556973569
30
0
41
1
10
80.605440109829
20
-8.9859304172578
30
0
41
1
10
81.2065195615244
20
-8.99467093188639
30
0
41
1
10
81.4068642608078
20
-8.99669024919427
30
0
41
1
10
81.7304874315255
20
-8.99850454612709
30
0
41
1
10
81.8537150932744
20
-8.99885787798567
30
0
41
1
10
81.9769600257387
20
-8.99887552840215
30
0
0
SPLINE
5
CC
100
AcDbEntity
8
1
62
256
6
ByLayer
370
18
48
1
60
0
100
AcDbSpline
70
4
71
3
72
128
73
124
40
0
40
0
40
0
40
0
40
0.0312500000000021
40
0.0312500000000021
40
0.0625000000000042
40
0.0625000000000042
40
0.0703125000000048
40
0.0703125000000048
40
0.0781250000000053
40
0.0781250000000053
40
0.0937500000000058
40
0.0937500000000058
40
0.125000000000006
40
0.125000000000006
40
0.140625000000006
40
0.140625000000006
40
0.156250000000006
40
0.156250000000006
40
0.171875000000006
40
0.171875000000006
40
0.187500000000006
40
0.187500000000006
40
0.218750000000005
40
0.218750000000005
40
0.226562500000006
40
0.226562500000006
40
0.234375000000006
40
0.234375000000006
40
0.250000000000005
40
0.250000000000005
40
0.265625000000005
40
0.265625000000005
40
0.281250000000005
40
0.281250000000005
40
0.296875000000004
40
0.296875000000004
40
0.304687500000004
40
0.304687500000004
40
0.312500000000004
40
0.312500000000004
40
0.343750000000005
40
0.343750000000005
40
0.359375000000005
40
0.359375000000005
40
0.367187500000005
40
0.367187500000005
40
0.375000000000005
40
0.375000000000005
40
0.406250000000005
40
0.406250000000005
40
0.437500000000005
40
0.437500000000005
40
0.453125000000006
40
0.453125000000006
40
0.468750000000006
40
0.468750000000006
40
0.500000000000006
40
0.500000000000006
40
0.515625000000006
40
0.515625000000006
40
0.523437500000006
40
0.523437500000006
40
0.531250000000005
40
0.531250000000005
40
0.546875000000005
40
0.546875000000005
40
0.562500000000005
40
0.562500000000005
40
0.578125000000005
40
0.578125000000005
40
0.593750000000005
40
0.593750000000005
40
0.601562500000005
40
0.601562500000005
40
0.609375000000005
40
0.609375000000005
40
0.625000000000004
40
0.625000000000004
40
0.640625000000004
40
0.640625000000004
40
0.656250000000004
40
0.656250000000004
40
0.664062500000004
40
0.664062500000004
40
0.671875000000004
40
0.671875000000004
40
0.687500000000004
40
0.687500000000004
40
0.718750000000005
40
0.718750000000005
40
0.734375000000005
40
0.734375000000005
40
0.750000000000005
40
0.750000000000005
40
0.765625000000005
40
0.765625000000005
40
0.781250000000005
40
0.781250000000005
40
0.812500000000006
40
0.812500000000006
40
0.820312500000006
40
0.820312500000006
40
0.828125000000006
40
0.828125000000006
40
0.843750000000005
40
0.843750000000005
40
0.875000000000004
40
0.875000000000004
40
0.890625000000003
40
0.890625000000003
40
0.898437500000003
40
0.898437500000003
40
0.906250000000003
40
0.906250000000003
40
0.937500000000002
40
0.937500000000002
40
0.953125000000001
40
0.953125000000001
40
0.960937500000001
40
0.960937500000001
40
0.968750000000001
40
0.968750000000001
40
1
40
1
40
1
40
1
41
1
10
16.9688911842323
20
7.63464300927481
30
0
41
1
10
17.611102300458
20
7.525675086246
30
0
41
1
10
18.2531949460069
20
7.40974908119586
30
0
41
1
10
19.536695515314
20
7.16367520925252
30
0
41
1
10
20.1781072000363
20
7.03353132817332
30
0
41
1
10
20.9791809801041
20
6.86145725886797
30
0
41
1
10
21.1393591564382
20
6.82656781651082
30
0
41
1
10
21.4596458993968
20
6.75584011901833
30
0
41
1
10
21.6197588993226
20
6.72000923363612
30
0
41
1
10
22.1001387449181
20
6.61135518003326
30
0
41
1
10
22.4204984238925
20
6.53747029182915
30
0
41
1
10
23.3817603137703
20
6.31128437506379
30
0
41
1
10
24.0228309152198
20
6.15443726496446
30
0
41
1
10
24.9844906707628
20
5.90950305428714
30
0
41
1
10
25.3050515144194
20
5.82624114394756
30
0
41
1
10
25.9461316222624
20
5.65632006333828
30
0
41
1
10
26.2666083288166
20
5.56955876899781
30
0
41
1
10
26.9080681629625
20
5.39382909799764
30
0
41
1
10
27.2290267303709
20
5.30481598595458
30
0
41
1
10
27.8712828898493
20
5.12425375195406
30
0
41
1
10
28.1926501049984
20
5.03270045587544
30
0
41
1
10
29.1567639899843
20
4.75426120990775
30
0
41
1
10
29.7991836773939
20
4.56368564559455
30
0
41
1
10
30.601534405763
20
4.31853960590402
30
0
41
1
10
30.7619768745583
20
4.26917766743421
30
0
41
1
10
31.0828944636616
20
4.17000618958164
30
0
41
1
10
31.2433799010219
20
4.12022271711172
30
0
41
1
10
31.724928159768
20
3.97031604445675
30
0
41
1
10
32.0460619312994
20
3.86958490170858
30
0
41
1
10
32.6884463347257
20
3.66633439364117
30
0
41
1
10
33.009702847274
20
3.56382980120043
30
0
41
1
10
33.6522979237577
20
3.3569410475431
30
0
41
1
10
33.9736871692991
20
3.25253581011003
30
0
41
1
10
34.6161920452161
20
3.04177309312371
30
0
41
1
10
34.9372723166426
20
2.93534642694249
30
0
41
1
10
35.4187278631838
20
2.77437888880121
30
0
41
1
10
35.5791994634994
20
2.72053917328492
30
0
41
1
10
35.900205304425
20
2.61273671142425
30
0
41
1
10
36.0607320589484
20
2.55875391662997
30
0
41
1
10
36.8634418556111
20
2.28832050486974
30
0
41
1
10
37.5058241368364
20
2.07023940565779
30
0
41
1
10
38.4694213139522
20
1.73971347860473
30
0
41
1
10
38.7906233577629
20
1.62896673139281
30
0
41
1
10
39.2723887727086
20
1.46186253731426
30
0
41
1
10
39.4329698108178
20
1.40599375447204
30
0
41
1
10
39.7541166752906
20
1.29391801285342
30
0
41
1
10
39.9146673662819
20
1.23772859159712
30
0
41
1
10
40.7173767424113
20
0.956693789421649
30
0
41
1
10
41.3597790442147
20
0.732190962195943
30
0
41
1
10
42.6444802305204
20
0.282222996642105
30
0
41
1
10
43.2868074970436
20
0.0568383578861074
30
0
41
1
10
44.249920048649
20
-0.282824523612732
30
0
41
1
10
44.5708473158188
20
-0.396445061385691
30
0
41
1
10
45.2131184021877
20
-0.622668000082058
30
0
41
1
10
45.5344753537518
20
-0.735331346449101
30
0
41
1
10
46.4983269878367
20
-1.07225120660704
30
0
41
1
10
47.1408201903779
20
-1.29540920247095
30
0
41
1
10
48.104141924761
20
-1.62882731205389
30
0
41
1
10
48.4251763052459
20
-1.73975479186487
30
0
41
1
10
48.9065825966158
20
-1.90592042090185
30
0
41
1
10
49.0670318014426
20
-1.96125817781757
30
0
41
1
10
49.3879780540474
20
-2.0715901284623
30
0
41
1
10
49.5484855440706
20
-2.12655548284869
30
0
41
1
10
50.0301301337526
20
-2.29079959202551
30
0
41
1
10
50.3513660064488
20
-2.39949143616704
30
0
41
1
10
50.9940278768318
20
-2.61551810903646
30
0
41
1
10
51.3154601624574
20
-2.72283609465288
30
0
41
1
10
51.9580630263241
20
-2.93606952424139
30
0
41
1
10
52.2792843546501
20
-3.04200678870353
30
0
41
1
10
52.9215103989274
20
-3.25266257653829
30
0
41
1
10
53.2424901339912
20
-3.35744629048341
30
0
41
1
10
53.7238431332789
20
-3.51356904998326
30
0
41
1
10
53.8842878603235
20
-3.56539988377139
30
0
41
1
10
54.2052574648121
20
-3.66840238724166
30
0
41
1
10
54.3657756113154
20
-3.71959191973235
30
0
41
1
10
54.8474039918946
20
-3.87229787184029
30
0
41
1
10
55.1685819673193
20
-3.97296800002513
30
0
41
1
10
55.811064862745
20
-4.17219903066504
30
0
41
1
10
56.1323730491472
20
-4.27075164906725
30
0
41
1
10
56.7750709682091
20
-4.46585747677022
30
0
41
1
10
57.0964163174223
20
-4.5623988957874
30
0
41
1
10
57.5781475424822
20
-4.70571182003118
30
0
41
1
10
57.7386873640563
20
-4.7532382641761
30
0
41
1
10
58.0596896712355
20
-4.84780409346234
30
0
41
1
10
58.2201555834444
20
-4.89483482002606
30
0
41
1
10
58.7015772449279
20
-5.03486309930389
30
0
41
1
10
59.0226195885722
20
-5.12665273705665
30
0
41
1
10
59.9859360311315
20
-5.39761168822841
30
0
41
1
10
60.6283601592112
20
-5.57247261307444
30
0
41
1
10
61.5920244632767
20
-5.82675034378619
30
0
41
1
10
61.9132490865586
20
-5.91017418302067
30
0
41
1
10
62.5556472748687
20
-6.07443915233753
30
0
41
1
10
62.8766686319183
20
-6.15534797352146
30
0
41
1
10
63.5188218372334
20
-6.31339560902975
30
0
41
1
10
63.8399691423372
20
-6.39057252040482
30
0
41
1
10
64.4822839543272
20
-6.54151323920499
30
0
41
1
10
64.8034578008197
20
-6.61526381778359
30
0
41
1
10
65.7669645426824
20
-6.83149238904562
30
0
41
1
10
66.409277821833
20
-6.96897401533226
30
0
41
1
10
67.2118615425414
20
-7.1328074552377
30
0
41
1
10
67.3723669293136
20
-7.16516452540802
30
0
41
1
10
67.6934408987403
20
-7.22891781974502
30
0
41
1
10
67.8540250411228
20
-7.26029877009441
30
0
41
1
10
68.3358977111407
20
-7.35291398695668
30
0
41
1
10
68.6570963174131
20
-7.41262767748128
30
0
41
1
10
69.6204142175012
20
-7.58595256108842
30
0
41
1
10
70.2622867355732
20
-7.69371894818502
30
0
41
1
10
71.2242713080092
20
-7.84410017103392
30
0
41
1
10
71.5447718504334
20
-7.89237174422902
30
0
41
1
10
72.0253507054047
20
-7.96187358743694
30
0
41
1
10
72.1855271724536
20
-7.98454175974356
30
0
41
1
10
72.5059418275363
20
-8.02877639052377
30
0
41
1
10
72.6661746026318
20
-8.05034989475027
30
0
41
1
10
73.4674228895634
20
-8.15556613468598
30
0
41
1
10
74.1086588755418
20
-8.23131303258972
30
0
41
1
10
75.0705695860117
20
-8.33265516971355
30
0
41
1
10
75.3912152720439
20
-8.36438531835145
30
0
41
1
10
75.8721555521712
20
-8.40890771856991
30
0
41
1
10
76.0324638679862
20
-8.42323634210788
30
0
41
1
10
76.3530650597007
20
-8.45086448626839
30
0
41
1
10
76.5133602028732
20
-8.46416162339381
30
0
41
1
10
77.3150175905417
20
-8.5279139667536
30
0
41
1
10
77.9572080318029
20
-8.57002685090401
30
0
41
1
10
78.6
20
-8.60352055942769
30
0
0
SPLINE
5
CD
100
AcDbEntity
8
1
62
256
6
ByLayer
370
18
48
1
60
0
100
AcDbSpline
70
4
71
3
72
100
73
96
40
0
40
0
40
0
40
0
40
0.0032419774356717
40
0.0032419774356717
40
0.0133102402898564
40
0.0133102402898564
40
0.0334467659982251
40
0.0334467659982251
40
0.0535832917065937
40
0.0535832917065937
40
0.0737198174149624
40
0.0737198174149624
40
0.093856343123331
40
0.093856343123331
40
0.1139928688317
40
0.1139928688317
40
0.154265920248438
40
0.154265920248438
40
0.174402445956807
40
0.174402445956807
40
0.184470708810992
40
0.184470708810992
40
0.194538971665177
40
0.194538971665177
40
0.234812023081918
40
0.234812023081918
40
0.254948548790288
40
0.254948548790288
40
0.275085074498658
40
0.275085074498658
40
0.285153337352843
40
0.285153337352843
40
0.295221600207028
40
0.295221600207028
40
0.315358125915399
40
0.315358125915399
40
0.35563117733214
40
0.35563117733214
40
0.375767703040511
40
0.375767703040511
40
0.395904228748881
40
0.395904228748881
40
0.436177280165623
40
0.436177280165623
40
0.456313805873994
40
0.456313805873994
40
0.466382068728179
40
0.466382068728179
40
0.476450331582365
40
0.476450331582365
40
0.496586857290736
40
0.496586857290736
40
0.516723382999108
40
0.516723382999108
40
0.53685990870748
40
0.53685990870748
40
0.556996434415851
40
0.556996434415851
40
0.597269485832595
40
0.597269485832595
40
0.617406011540966
40
0.617406011540966
40
0.637542537249338
40
0.637542537249338
40
0.647610800103523
40
0.647610800103523
40
0.657679062957708
40
0.657679062957708
40
0.677815588666078
40
0.677815588666078
40
0.697952114374449
40
0.697952114374449
40
0.718088640082819
40
0.718088640082819
40
0.738225165791189
40
0.738225165791189
40
0.758361691499559
40
0.758361691499559
40
0.798634742916299
40
0.798634742916299
40
0.81877126862467
40
0.81877126862467
40
0.828839531478855
40
0.828839531478855
40
0.83890779433304
40
0.83890779433304
40
0.879180845749781
40
0.879180845749781
40
0.899317371458151
40
0.899317371458151
40
0.919453897166521
40
0.919453897166521
40
0.95972694858326
40
0.95972694858326
40
1
40
1
40
1
40
1
41
1
10
63.915713011362
20
-6.40366811673698
30
0
41
1
10
63.8607769875747
20
-6.41677714550073
30
0
41
1
10
63.8058426766422
20
-6.42984280067711
30
0
41
1
10
63.5803118097394
20
-6.48330669421526
30
0
41
1
10
63.4097288763367
20
-6.52332646118674
30
0
41
1
10
62.8979206325328
20
-6.64191792326164
30
0
41
1
10
62.5565875989842
20
-6.71893401460792
30
0
41
1
10
61.8736705880669
20
-6.86891795002376
30
0
41
1
10
61.5320364957487
20
-6.9419088848619
30
0
41
1
10
60.848955991446
20
-7.08383967526609
30
0
41
1
10
60.5074867381409
20
-7.15278460737517
30
0
41
1
10
59.8247314925119
20
-7.28669265591421
30
0
41
1
10
59.4834490923313
20
-7.35166098016518
30
0
41
1
10
58.8010856062906
20
-7.47760229065949
30
0
41
1
10
58.4599697442505
20
-7.53851609119184
30
0
41
1
10
57.4361859855778
20
-7.71420608172687
30
0
41
1
10
56.7532882510266
20
-7.82226536763685
30
0
41
1
10
55.7285638950602
20
-7.97106246565497
30
0
41
1
10
55.3870228489541
20
-8.01843015650357
30
0
41
1
10
54.8749690094952
20
-8.08612005123908
30
0
41
1
10
54.7043187262981
20
-8.10812464771948
30
0
41
1
10
54.3630819340293
20
-8.15100515195024
30
0
41
1
10
54.1924930217525
20
-8.17187796054364
30
0
41
1
10
53.3395090787267
20
-8.2732198876063
30
0
41
1
10
52.6568535170921
20
-8.34452184506034
30
0
41
1
10
51.6326520826426
20
-8.43716758980173
30
0
41
1
10
51.291214230929
20
-8.46565965764955
30
0
41
1
10
50.6083051807803
20
-8.51787132385343
30
0
41
1
10
50.266779891952
20
-8.54159690915662
30
0
41
1
10
49.7547405214318
20
-8.57354869708146
30
0
41
1
10
49.5840972865607
20
-8.583590330492
30
0
41
1
10
49.2428069230118
20
-8.60241988308746
30
0
41
1
10
49.0721536956172
20
-8.61120585644278
30
0
41
1
10
48.5601718792811
20
-8.63569039779398
30
0
41
1
10
48.2188258441929
20
-8.64951877776383
30
0
41
1
10
47.1947612495059
20
-8.68358895121591
30
0
41
1
10
46.5120074189225
20
-8.69643520139232
30
0
41
1
10
45.4880331805018
20
-8.70081838574447
30
0
41
1
10
45.1467763725693
20
-8.69978585520812
30
0
41
1
10
44.463997470815
20
-8.69271293841388
30
0
41
1
10
44.122488151908
20
-8.68668521138326
30
0
41
1
10
43.0981655162553
20
-8.66120856218362
30
0
41
1
10
42.4153493624404
20
-8.6343867860046
30
0
41
1
10
41.3914306510566
20
-8.5793360916804
30
0
41
1
10
41.0501856285984
20
-8.55850532210346
30
0
41
1
10
40.5383876688084
20
-8.52351083162381
30
0
41
1
10
40.3677940978831
20
-8.51122365656403
30
0
41
1
10
40.0265372460991
20
-8.48545285064509
30
0
41
1
10
39.8558720614203
20
-8.47197123368508
30
0
41
1
10
39.3437751161827
20
-8.42974212304213
30
0
41
1
10
39.0021867208668
20
-8.39920445999388
30
0
41
1
10
38.3190842516811
20
-8.33340233439884
30
0
41
1
10
37.9775912834136
20
-8.2981421946686
30
0
41
1
10
37.2947563516041
20
-8.22287794552088
30
0
41
1
10
36.9534168350244
20
-8.18287160281784
30
0
41
1
10
36.2709263188876
20
-8.09804638799162
30
0
41
1
10
35.9298192673756
20
-8.05317446117795
30
0
41
1
10
34.9062340764472
20
-7.91187536844075
30
0
41
1
10
34.223407431754
20
-7.80891401358079
30
0
41
1
10
33.1987184159652
20
-7.64122557481349
30
0
41
1
10
32.8571084543491
20
-7.58312349453178
30
0
41
1
10
32.1742449161137
20
-7.46250087523777
30
0
41
1
10
31.832946840708
20
-7.39995311392056
30
0
41
1
10
31.3211574478162
20
-7.3028122632515
30
0
41
1
10
31.1505798831271
20
-7.26988950572397
30
0
41
1
10
30.8093799488253
20
-7.20309025704722
30
0
41
1
10
30.6387605712872
20
-7.16920974894805
30
0
41
1
10
30.1268531537811
20
-7.06612008147474
30
0
41
1
10
29.7855176518764
20
-6.99546073531454
30
0
41
1
10
29.1027481489126
20
-6.85024988576808
30
0
41
1
10
28.7613129183122
20
-6.77570061010286
30
0
41
1
10
28.0783770202929
20
-6.62264456205546
30
0
41
1
10
27.7368276408407
20
-6.54412068269772
30
0
41
1
10
27.0539499153983
20
-6.3830732846987
30
0
41
1
10
26.7127157368045
20
-6.30047526036952
30
0
41
1
10
26.0301667595988
20
-6.13208551092495
30
0
41
1
10
25.688850364368
20
-6.04630404851241
30
0
41
1
10
24.6648412184391
20
-5.78411512602395
30
0
41
1
10
23.9820729202516
20
-5.60290914669523
30
0
41
1
10
22.9579928252985
20
-5.32098703054913
30
0
41
1
10
22.6166618704894
20
-5.22528427071006
30
0
41
1
10
22.104640093236
20
-5.07926637989812
30
0
41
1
10
21.9339331717061
20
-5.03019969014693
30
0
41
1
10
21.5925344014806
20
-4.9315056127696
30
0
41
1
10
21.4218458393959
20
-4.88186436489025
30
0
41
1
10
20.5684711884465
20
-4.63216234655812
30
0
41
1
10
19.8859915844239
20
-4.42761996235302
30
0
41
1
10
18.8627811057438
20
-4.1132426902669
30
0
41
1
10
18.5218000624765
20
-4.00717674922447
30
0
41
1
10
17.8400442590049
20
-3.79241046951412
30
0
41
1
10
17.4993056068352
20
-3.68361337229106
30
0
41
1
10
16.4767449435653
20
-3.35494500645598
30
0
41
1
10
15.7946473028317
20
-3.13264359038283
30
0
41
1
10
14.4299448475024
20
-2.6810133107376
30
0
41
1
10
13.7473307712343
20
-2.4517104618416
30
0
41
1
10
13.0646037482182
20
-2.21841709833205
30
0
0
SPLINE
5
CE
100
AcDbEntity
8
1
62
256
6
ByLayer
370
18
48
1
60
0
100
AcDbSpline
70
4
71
3
72
94
73
90
40
0
40
0
40
0
40
0
40
0.0624999999999923
40
0.0624999999999923
40
0.0937499999999889
40
0.0937499999999889
40
0.124999999999986
40
0.124999999999986
40
0.156249999999982
40
0.156249999999982
40
0.187499999999979
40
0.187499999999979
40
0.195312499999978
40
0.195312499999978
40
0.203124999999978
40
0.218749999999977
40
0.218749999999977
40
0.249999999999978
40
0.249999999999978
40
0.281249999999978
40
0.281249999999978
40
0.296874999999978
40
0.296874999999978
40
0.312499999999979
40
0.312499999999979
40
0.343749999999978
40
0.343749999999978
40
0.374999999999978
40
0.374999999999978
40
0.382812499999978
40
0.382812499999978
40
0.390624999999978
40
0.390624999999978
40
0.406249999999978
40
0.406249999999978
40
0.437499999999978
40
0.437499999999978
40
0.441406249999978
40
0.441406249999978
40
0.445312499999978
40
0.453124999999979
40
0.453124999999979
40
0.468749999999979
40
0.468749999999979
40
0.49999999999998
40
0.49999999999998
40
0.515624999999981
40
0.515624999999981
40
0.531249999999981
40
0.531249999999981
40
0.546874999999981
40
0.546874999999981
40
0.550781249999981
40
0.550781249999981
40
0.554687499999981
40
0.554687499999981
40
0.562499999999982
40
0.562499999999982
40
0.593749999999983
40
0.593749999999983
40
0.609374999999984
40
0.609374999999984
40
0.624999999999984
40
0.624999999999984
40
0.656249999999986
40
0.656249999999986
40
0.687499999999988
40
0.687499999999988
40
0.71874999999999
40
0.71874999999999
40
0.734374999999991
40
0.734374999999991
40
0.749999999999992
40
0.749999999999992
40
0.781249999999993
40
0.781249999999993
40
0.812499999999994
40
0.812499999999994
40
0.843749999999995
40
0.843749999999995
40
0.874999999999996
40
0.874999999999996
40
0.906249999999997
40
0.906249999999997
40
0.937499999999998
40
0.937499999999998
40
0.968749999999999
40
0.968749999999999
40
1
40
1
40
1
40
1
41
1
10
10
20
8.08339175504145
30
0
41
1
10
9.59086222074222
20
8.11266410046881
30
0
41
1
10
9.18764007722987
20
8.13351236583139
30
0
41
1
10
8.59189132841033
20
8.1494743759404
30
0
41
1
10
8.3948240656043
20
8.15222766094004
30
0
41
1
10
8.00378664245486
20
8.15192544711331
30
0
41
1
10
7.80981606736171
20
8.14887175163847
30
0
41
1
10
7.42507066847725
20
8.13608088365172
30
0
41
1
10
7.23429523063459
20
8.12634664070336
30
0
41
1
10
6.85608723263007
20
8.09904815648187
30
0
41
1
10
6.66865368081926
20
8.08148887460766
30
0
41
1
10
6.43658782690176
20
8.05368823188539
30
0
41
1
10
6.39024305553988
20
8.04782836692951
30
0
41
1
10
6.29805003400941
20
8.03552863522438
30
0
41
1
10
6.16049127548624
20
8.01620911717831
30
0
41
1
10
6.02514601746975
20
7.99419233001876
30
0
41
1
10
5.75748067080838
20
7.94629565494378
30
0
41
1
10
5.58306185159637
20
7.90923117447994
30
0
41
1
10
5.24284859985951
20
7.82305851400073
30
0
41
1
10
5.07704896275968
20
7.77396119343558
30
0
41
1
10
4.83550034846735
20
7.68944806799672
30
0
41
1
10
4.75617905933927
20
7.65945958404689
30
0
41
1
10
4.60009023408202
20
7.5954403299524
30
0
41
1
10
4.52385646014019
20
7.56162481116215
30
0
41
1
10
4.30107234080151
20
7.45447340931625
30
0
41
1
10
4.16028858998757
20
7.37541787482732
30
0
41
1
10
3.8959057876699
20
7.19925600050084
30
0
41
1
10
3.77228337543147
20
7.10217855076294
30
0
41
1
10
3.63030508844759
20
6.96691849196617
30
0
41
1
10
3.60251558334284
20
6.93913344023682
30
0
41
1
10
3.54868553455248
20
6.88253718091204
30
0
41
1
10
3.5225915963824
20
6.85367808537771
30
0
41
1
10
3.44681779816074
20
6.76536684503267
30
0
41
1
10
3.39964246065691
20
6.7041830428746
30
0
41
1
10
3.26861084874622
20
6.51322009727042
30
0
41
1
10
3.19516532776291
20
6.3760867823799
30
0
41
1
10
3.13051897221777
20
6.20869660412725
30
0
41
1
10
3.12358559754475
20
6.1899059088189
30
0
41
1
10
3.11030552084316
20
6.15216574803625
30
0
41
1
10
3.09123457539431
20
6.09524035059201
30
0
41
1
10
3.07470435334682
20
6.0373681299539
30
0
41
1
10
3.04502446455484
20
5.92035506110992
30
0
41
1
10
3.02974137174707
20
5.84065581373864
30
0
41
1
10
2.99748705256152
20
5.59640277739342
30
0
41
1
10
2.99404162178735
20
5.42671206440832
30
0
41
1
10
3.01747283756021
20
5.16125723340321
30
0
41
1
10
3.029937773961
20
5.07245477941396
30
0
41
1
10
3.06361365741509
20
4.89453670257424
30
0
41
1
10
3.08483004285833
20
4.80537388969086
30
0
41
1
10
3.13563054525363
20
4.62667946054398
30
0
41
1
10
3.16521557523828
20
4.53714785081277
30
0
41
1
10
3.20725707499787
20
4.4250283137138
30
0
41
1
10
3.21591863306233
20
4.40259415970425
30
0
41
1
10
3.23374494301254
20
4.35770601361719
30
0
41
1
10
3.24291992852983
20
4.33522783348357
30
0
41
1
10
3.27111735912885
20
4.26794890476177
30
0
41
1
10
3.29077913912445
20
4.22337569223288
30
0
41
1
10
3.39318938718063
20
4.00184452727652
30
0
41
1
10
3.48816427122986
20
3.82886689018966
30
0
41
1
10
3.64713418061095
20
3.57492205413587
30
0
41
1
10
3.70289087843071
20
3.49119890214433
30
0
41
1
10
3.81957066005018
20
3.32550563477486
30
0
41
1
10
3.88052727934399
20
3.2434936751938
30
0
41
1
10
4.07049037834841
20
3.00022811291592
30
0
41
1
10
4.20438520914914
20
2.84446235883894
30
0
41
1
10
4.48400215873752
20
2.54345322213092
30
0
41
1
10
4.62974086786227
20
2.39822423521471
30
0
41
1
10
4.93120175709538
20
2.11669883341742
30
0
41
1
10
5.08693216057645
20
1.98040955521552
30
0
41
1
10
5.32695178554883
20
1.78174950677754
30
0
41
1
10
5.40803166801692
20
1.71649401248266
30
0
41
1
10
5.57218477289365
20
1.58777728804642
30
0
41
1
10
5.65487906972947
20
1.52461263963994
30
0
41
1
10
5.90456167596395
20
1.3384191431019
30
0
41
1
10
6.07318209910864
20
1.21865105886459
30
0
41
1
10
6.41399580028317
20
0.986303442103576
30
0
41
1
10
6.58619072814716
20
0.873727527581309
30
0
41
1
10
6.93353582974393
20
0.654537287674913
30
0
41
1
10
7.10868672049352
20
0.547924673069019
30
0
41
1
10
7.46142666592772
20
0.33965143654487
30
0
41
1
10
7.63901587124701
20
0.237991398234556
30
0
41
1
10
7.99620412126009
20
0.0387993124032846
30
0
41
1
10
8.17580296885728
20
-0.0587328225718977
30
0
41
1
10
8.53667242392328
20
-0.250313318102229
30
0
41
1
10
8.71794265648049
20
-0.344362100157071
30
0
41
1
10
9.08191627702269
20
-0.529431416619417
30
0
41
1
10
9.26461926927723
20
-0.620452413699212
30
0
41
1
10
9.63133144852
20
-0.799718614771024
30
0
41
1
10
9.81534036285242
20
-0.88796406889108
30
0
41
1
10
10
20
-0.974840500271455
30
0
0
SPLINE
5
CF
100
AcDbEntity
8
1
62
256
6
ByLayer
370
18
48
1
60
0
100
AcDbSpline
70
4
71
3
72
14
73
10
40
0
40
0
40
0
40
0
40
0.250000000000004
40
0.250000000000004
40
0.500000000000003
40
0.500000000000003
40
0.750000000000002
40
0.750000000000002
40
1
40
1
40
1
40
1
41
1
10
13.0646037482181
20
-2.218417098332
30
0
41
1
10
12.8046512005642
20
-2.12692974283382
30
0
41
1
10
12.5461602868175
20
-2.03172396580291
30
0
41
1
10
12.0314992276145
20
-1.83517983131119
30
0
41
1
10
11.7753269305941
20
-1.73384700361063
30
0
41
1
10
11.2649063590495
20
-1.52589089033512
30
0
41
1
10
11.0106568819081
20
-1.41927115290267
30
0
41
1
10
10.5039484425388
20
-1.20096750073304
30
0
41
1
10
10.251489441419
20
-1.08928452453674
30
0
41
1
10
10
20
-0.974840500271455
30
0
0
SPLINE
5
D0
100
AcDbEntity
8
1
62
256
6
ByLayer
370
18
48
1
60
0
100
AcDbSpline
70
4
71
4
72
16
73
11
40
0
40
0
40
0
40
0
40
0
40
0.299406421882427
40
0.299406421882427
40
0.299406421882427
40
0.729085882901818
40
0.729085882901818
40
0.729085882901818
40
1
40
1
40
1
40
1
40
1
41
0.99679551798338
10
16.9688911842324
20
7.63464300927478
30
0
41
0.99471532976098
10
16.851810996654
20
6.92162696477505
30
0
41
0.99418985878938
10
16.6432321323231
20
6.00207286991808
30
0
41
1
10
16.3524001543848
20
4.96254983263387
30
0
41
1
10
15.5985106971132
20
2.55687939053217
30
0
41
0.988033871712585
10
15.0167474662252
20
0.931481052092837
30
0
41
1
10
14.4349842353373
20
-0.379455690466187
30
0
41
1
10
13.7105563938972
20
-1.72420416737811
30
0
41
0.995243059294841
10
13.4460507479939
20
-2.12403233678414
30
0
41
0.994726971645732
10
13.2434530477845
20
-2.2945123044593
30
0
41
0.996103261914426
10
13.114039686746
20
-2.25083999340727
30
0
0
SPLINE
5
D1
100
AcDbEntity
8
1
62
256
6
ByLayer
370
18
48
1
60
0
100
AcDbSpline
70
4
71
3
72
25
73
21
40
0
40
0
40
0
40
0
40
0.124999999999993
40
0.124999999999993
40
0.249999999999986
40
0.249999999999986
40
0.374999999999979
40
0.374999999999979
40
0.499999999999972
40
0.499999999999972
40
0.562499999999971
40
0.562499999999971
40
0.593749999999971
40
0.593749999999971
40
0.62499999999997
40
0.74999999999998
40
0.74999999999998
40
0.87499999999999
40
0.87499999999999
40
1
40
1
40
1
40
1
41
1
10
10
20
8.08339175504148
30
0
41
1
10
10.2967802674887
20
8.09666060040078
30
0
41
1
10
10.5929400961846
20
8.10516550149501
30
0
41
1
10
11.1841180450628
20
8.11391508376178
30
0
41
1
10
11.4791356218406
20
8.11415128975645
30
0
41
1
10
12.0681070927852
20
8.10693835687957
30
0
41
1
10
12.362060569534
20
8.09948282989657
30
0
41
1
10
12.9489763028073
20
8.07700835000711
30
0
41
1
10
13.2419382223117
20
8.06198356467166
30
0
41
1
10
13.6806962712185
20
8.03365936770962
30
0
41
1
10
13.8268348917422
20
8.02325185986484
30
0
41
1
10
14.0458800384807
20
8.00616922098004
30
0
41
1
10
14.1188625297417
20
8.00022981559565
30
0
41
1
10
14.2644532412079
20
7.98788542453326
30
0
41
1
10
14.6277002293591
20
7.95584541489222
30
0
41
1
10
14.9874333981566
20
7.91790698471056
30
0
41
1
10
15.5592242828506
20
7.84969264154157
30
0
41
1
10
15.8432297105085
20
7.811827445917
30
0
41
1
10
16.4081819412283
20
7.72871374831593
30
0
41
1
10
16.6891310268408
20
7.68346718083166
30
0
41
1
10
16.9688911842322
20
7.63464300927481
30
0
0
SPLINE
5
D2
100
AcDbEntity
8
SK1
62
256
6
ByLayer
370
18
48
1
60
0
100
AcDbSpline
70
4
71
3
72
32
73
28
40
0
40
0
40
0
40
0
40
0.124999999999998
40
0.124999999999998
40
0.249999999999995
40
0.249999999999995
40
0.374999999999994
40
0.374999999999994
40
0.437499999999993
40
0.437499999999993
40
0.499999999999992
40
0.499999999999992
40
0.624999999999988
40
0.624999999999988
40
0.656249999999988
40
0.656249999999988
40
0.687499999999988
40
0.687499999999988
40
0.74999999999999
40
0.74999999999999
40
0.874999999999995
40
0.874999999999995
40
0.906249999999996
40
0.906249999999996
40
0.937499999999998
40
0.937499999999998
40
1
40
1
40
1
40
1
41
1
10
-43.3565069115799
20
-3.65034953143106
30
0
41
1
10
-43.3331458400142
20
-3.71424193668162
30
0
41
1
10
-43.3079887114829
20
-3.77702079626832
30
0
41
1
10
-43.2534212788423
20
-3.90009490817781
30
0
41
1
10
-43.2240149751524
20
-3.96039186522651
30
0
41
1
10
-43.1600568886594
20
-4.07814914960466
30
0
41
1
10
-43.1255132756746
20
-4.13561297938583
30
0
41
1
10
-43.0688646453433
20
-4.21928792338744
30
0
41
1
10
-43.0491724017425
20
-4.24675781820287
30
0
41
1
10
-43.0079384175976
20
-4.30075945417201
30
0
41
1
10
-42.9863407519915
20
-4.32734895814056
30
0
41
1
10
-42.9191284528727
20
-4.40464696643178
30
0
41
1
10
-42.8709653357112
20
-4.45314968312832
30
0
41
1
10
-42.8054200814028
20
-4.509129269905
30
0
41
1
10
-42.7920414880158
20
-4.52009075475445
30
0
41
1
10
-42.7647046009874
20
-4.54151368998052
30
0
41
1
10
-42.7507137384423
20
-4.55199803198428
30
0
41
1
10
-42.7080552923505
20
-4.58246627252342
30
0
41
1
10
-42.6787844981831
20
-4.60141919352105
30
0
41
1
10
-42.588250922941
20
-4.65388326760876
30
0
41
1
10
-42.5243097226538
20
-4.68306815187688
30
0
41
1
10
-42.4386823815538
20
-4.71050598268181
30
0
41
1
10
-42.4212064346087
20
-4.71554997578619
30
0
41
1
10
-42.3860524535981
20
-4.72455026306568
30
0
41
1
10
-42.3683576016114
20
-4.72851630488563
30
0
41
1
10
-42.3149119913326
20
-4.73878190613445
30
0
41
1
10
-42.2788010667419
20
-4.74345326345804
30
0
41
1
10
-42.2421801837133
20
-4.74582511601491
30
0
0
SPLINE
5
D3
100
AcDbEntity
8
SK1
62
256
6
ByLayer
370
18
48
1
60
0
100
AcDbSpline
70
4
71
3
72
32
73
28
40
0
40
0
40
0
40
0
40
0.125000000000003
40
0.125000000000003
40
0.156250000000003
40
0.156250000000003
40
0.187500000000004
40
0.187500000000004
40
0.250000000000005
40
0.250000000000005
40
0.312500000000005
40
0.312500000000005
40
0.343750000000005
40
0.343750000000005
40
0.375000000000006
40
0.375000000000006
40
0.500000000000003
40
0.500000000000003
40
0.625
40
0.625
40
0.6875
40
0.6875
40
0.749999999999999
40
0.749999999999999
40
0.875
40
0.875
40
1
40
1
40
1
40
1
41
1
10
-42.2421801837133
20
4.74582511601491
30
0
41
1
10
-42.3153322469605
20
4.74108722075121
30
0
41
1
10
-42.3858382182456
20
4.7272872503076
30
0
41
1
10
-42.4711061087408
20
4.70015187597528
30
0
41
1
10
-42.48801508965
20
4.69422552159887
30
0
41
1
10
-42.5215500807622
20
4.68139247012627
30
0
41
1
10
-42.538108088977
20
4.67450874413797
30
0
41
1
10
-42.5867495214036
20
4.65272655031879
30
0
41
1
10
-42.6179919315484
20
4.63663028483114
30
0
41
1
10
-42.6784054316375
20
4.60165673094545
30
0
41
1
10
-42.707575323895
20
4.58277786641952
30
0
41
1
10
-42.7499378830322
20
4.55256723042981
30
0
41
1
10
-42.7638261651475
20
4.54218093900309
30
0
41
1
10
-42.7911594285605
20
4.52080182261719
30
0
41
1
10
-42.8046315534326
20
4.50978473494575
30
0
41
1
10
-42.8704332773146
20
4.45367358335039
30
0
41
1
10
-42.9183823606968
20
4.40538606397868
30
0
41
1
10
-43.007200043589
20
4.30347549467811
30
0
41
1
10
-43.0480454261384
20
4.2498368571521
30
0
41
1
10
-43.1050091824334
20
4.16599396786131
30
0
41
1
10
-43.1233071500575
20
4.13742383693679
30
0
41
1
10
-43.1584042823023
20
4.07953032751405
30
0
41
1
10
-43.1751994309136
20
4.05022195040382
30
0
41
1
10
-43.2235710813646
20
3.96130068776944
30
0
41
1
10
-43.2531438067293
20
3.90069540381026
30
0
41
1
10
-43.3079263511211
20
3.77718661911314
30
0
41
1
10
-43.3331314373585
20
3.7142813278675
30
0
41
1
10
-43.3565069115799
20
3.65034953143106
30
0
0
SPLINE
5
D4
100
AcDbEntity
8
SK1
62
256
6
ByLayer
370
18
48
1
60
0
100
AcDbSpline
70
4
71
3
72
30
73
26
40
0
40
0
40
0
40
0
40
0.124999999999979
40
0.124999999999979
40
0.249999999999958
40
0.249999999999958
40
0.374999999999936
40
0.374999999999936
40
0.437499999999926
40
0.437499999999926
40
0.499999999999916
40
0.499999999999916
40
0.624999999999908
40
0.624999999999908
40
0.656249999999909
40
0.656249999999909
40
0.68749999999991
40
0.68749999999991
40
0.749999999999925
40
0.749999999999925
40
0.874999999999955
40
0.874999999999955
40
0.937499999999978
40
0.937499999999978
40
1
40
1
40
1
40
1
41
1
10
-13.8451406288876
20
5.60819856978108
30
0
41
1
10
-13.8759395902576
20
5.65059861248182
30
0
41
1
10
-13.9086043985849
20
5.69152013904011
30
0
41
1
10
-13.97811386775
20
5.77019024979575
30
0
41
1
10
-14.014955839279
20
5.80794050815649
30
0
41
1
10
-14.0934302354091
20
5.87995203844818
30
0
41
1
10
-14.1350574932389
20
5.91421654427231
30
0
41
1
10
-14.2017568377706
20
5.9626308553903
30
0
41
1
10
-14.2245427507748
20
5.97815093867467
30
0
41
1
10
-14.271111369383
20
6.00780504420359
30
0
41
1
10
-14.2949186549204
20
6.02195716348245
30
0
41
1
10
-14.3679929543377
20
6.06230994483028
30
0
41
1
10
-14.4189025587777
20
6.08641928516369
30
0
41
1
10
-14.4856782999412
20
6.11265441828212
30
0
41
1
10
-14.4991911565357
20
6.11770540783806
30
0
41
1
10
-14.5265457311327
20
6.12740066932034
30
0
41
1
10
-14.5403907312758
20
6.13204445753533
30
0
41
1
10
-14.5820565255816
20
6.14522762072318
30
0
41
1
10
-14.6101298025697
20
6.1530644585383
30
0
41
1
10
-14.6952537679042
20
6.17368858860661
30
0
41
1
10
-14.7532042147282
20
6.18360487337517
30
0
41
1
10
-14.8420639597241
20
6.19236276786617
30
0
41
1
10
-14.8721089186227
20
6.1942576600421
30
0
41
1
10
-14.9321260265236
20
6.19588455534111
30
0
41
1
10
-14.9621459212296
20
6.19562887243728
30
0
41
1
10
-14.9921771997116
20
6.19429975368809
30
0
0
SPLINE
5
D5
100
AcDbEntity
8
SK1
62
256
6
ByLayer
370
18
48
1
60
0
100
AcDbSpline
70
4
71
3
72
29
73
25
40
0
40
0
40
0
40
0
40
0.125000000000045
40
0.125000000000045
40
0.25000000000009
40
0.25000000000009
40
0.281250000000093
40
0.281250000000093
40
0.312500000000097
40
0.375000000000092
40
0.375000000000092
40
0.500000000000084
40
0.500000000000084
40
0.562500000000073
40
0.562500000000073
40
0.625000000000062
40
0.625000000000062
40
0.750000000000038
40
0.750000000000038
40
0.875000000000015
40
0.875000000000015
40
0.937500000000008
40
0.937500000000008
40
1
40
1
40
1
40
1
41
1
10
-14.9921771997116
20
-6.19429975368809
30
0
41
1
10
-14.9320573843484
20
-6.19696052531805
30
0
41
1
10
-14.8726744232101
20
-6.19530622075879
30
0
41
1
10
-14.7552923361598
20
-6.18388224594813
30
0
41
1
10
-14.6972937188803
20
-6.17410945589265
30
0
41
1
10
-14.6256493001772
20
-6.15684175670819
30
0
41
1
10
-14.6113371248737
20
-6.15312631775188
30
0
41
1
10
-14.5830607924918
20
-6.14526136952958
30
0
41
1
10
-14.5410867139313
20
-6.13279564418732
30
0
41
1
10
-14.500383626949
20
-6.118393573753
30
0
41
1
10
-14.4205661285236
20
-6.08714648466275
30
0
41
1
10
-14.3694669105832
20
-6.06306708368854
30
0
41
1
10
-14.2956992221607
20
-6.02241573888855
30
0
41
1
10
-14.2715415923124
20
-6.00806907471573
30
0
41
1
10
-14.2247924605031
20
-5.97831973436635
30
0
41
1
10
-14.2021202056678
20
-5.96287721339851
30
0
41
1
10
-14.1360355381032
20
-5.91496059376203
30
0
41
1
10
-14.0945476428777
20
-5.88090305019935
30
0
41
1
10
-14.0160214797599
20
-5.80899071657845
30
0
41
1
10
-13.9789867514485
20
-5.77113330484545
30
0
41
1
10
-13.9264169069796
20
-5.7117020344985
30
0
41
1
10
-13.9093970751005
20
-5.69145219620981
30
0
41
1
10
-13.8764815896183
20
-5.65032851626569
30
0
41
1
10
-13.8605603440826
20
-5.62942644739971
30
0
41
1
10
-13.845140628887
20
-5.60819856978154
30
0
0
SPLINE
5
D6
100
AcDbEntity
8
1
62
256
6
ByLayer
370
13
48
1
60
0
100
AcDbSpline
70
4
71
3
72
76
73
72
40
0
40
0
40
0
40
0
40
0.0312500000000005
40
0.0312500000000005
40
0.062500000000001
40
0.062500000000001
40
0.070312500000001
40
0.070312500000001
40
0.0781250000000009
40
0.0937500000000009
40
0.0937500000000009
40
0.125000000000001
40
0.125000000000001
40
0.156250000000001
40
0.156250000000001
40
0.187500000000001
40
0.187500000000001
40
0.218750000000001
40
0.218750000000001
40
0.250000000000001
40
0.250000000000001
40
0.281250000000001
40
0.281250000000001
40
0.312500000000001
40
0.312500000000001
40
0.34375
40
0.34375
40
0.375
40
0.375
40
0.40625
40
0.40625
40
0.4375
40
0.4375
40
0.46875
40
0.46875
40
0.5
40
0.5
40
0.53125
40
0.53125
40
0.5390625
40
0.5390625
40
0.546875
40
0.5625
40
0.5625
40
0.59375
40
0.59375
40
0.625
40
0.625
40
0.65625
40
0.65625
40
0.6875
40
0.6875
40
0.71875
40
0.71875
40
0.75
40
0.75
40
0.78125
40
0.78125
40
0.8125
40
0.8125
40
0.84375
40
0.84375
40
0.875
40
0.875
40
0.90625
40
0.90625
40
0.9375
40
0.9375
40
0.96875
40
0.96875
40
1
40
1
40
1
40
1
41
1
10
78.6
20
-8.8019346382537
30
0
41
1
10
78.6537085973133
20
-8.86579447261803
30
0
41
1
10
78.7074171946265
20
-8.91338774932169
30
0
41
1
10
78.814834389253
20
-8.97829934833354
30
0
41
1
10
78.8685429865662
20
-8.99562604238983
30
0
41
1
10
78.9356787332079
20
-9.00017870760686
30
0
41
1
10
78.9491058825362
20
-9.00024084112258
30
0
41
1
10
78.9759601811927
20
-8.99867377012689
30
0
41
1
10
79.0162416291777
20
-8.99376681296624
30
0
41
1
10
79.0565230771626
20
-8.98097110722057
30
0
41
1
10
79.1370859731326
20
-8.94431669785686
30
0
41
1
10
79.1907945704459
20
-8.9051074404239
30
0
41
1
10
79.2982117650723
20
-8.79469065815707
30
0
41
1
10
79.3519203623856
20
-8.72347502554229
30
0
41
1
10
79.459337557012
20
-8.54738928588978
30
0
41
1
10
79.5130461543254
20
-8.44251240085811
30
0
41
1
10
79.6204633489518
20
-8.19848845664026
30
0
41
1
10
79.6741719462651
20
-8.05933710226103
30
0
41
1
10
79.7815891408916
20
-7.74735956148714
30
0
41
1
10
79.8352977382049
20
-7.57453251948971
30
0
41
1
10
79.9427149328313
20
-7.19709065741245
30
0
41
1
10
79.9964235301446
20
-6.99247892639684
30
0
41
1
10
80.1038407247711
20
-6.55461436773732
30
0
41
1
10
80.1575493220844
20
-6.32136844825482
30
0
41
1
10
80.2649665167108
20
-5.83049071244636
30
0
41
1
10
80.3186751140241
20
-5.57286883873149
30
0
41
1
10
80.4260923086506
20
-5.03834649230589
30
0
41
1
10
80.4798009059638
20
-4.76145770050584
30
0
41
1
10
80.5872181005903
20
-4.19403113092122
30
0
41
1
10
80.6409266979036
20
-3.90350524764426
30
0
41
1
10
80.7483438925302
20
-3.31459678267106
30
0
41
1
10
80.8020524898433
20
-3.01622488245056
30
0
41
1
10
80.9094696844699
20
-2.41723537782806
30
0
41
1
10
80.9631782817831
20
-2.11662618160867
30
0
41
1
10
81.0705954764096
20
-1.51830174063079
30
0
41
1
10
81.1243040737229
20
-1.22059207747321
30
0
41
1
10
81.2317212683495
20
-0.63252351052455
30
0
41
1
10
81.2854298656627
20
-0.34216731374255
30
0
41
1
10
81.3525656123043
20
0.0139025346437052
30
0
41
1
10
81.3659927616326
20
0.0848739044304807
30
0
41
1
10
81.3928470602892
20
0.227923267912871
30
0
41
1
10
81.4331285082741
20
0.443486173788216
30
0
41
1
10
81.473409956259
20
0.661780355485604
30
0
41
1
10
81.5539728522289
20
1.1013093899615
30
0
41
1
10
81.6076814495422
20
1.39827353298324
30
0
41
1
10
81.7150986441687
20
1.99574803686806
30
0
41
1
10
81.7688072414819
20
2.29625320957339
30
0
41
1
10
81.8762244361084
20
2.8957571505004
30
0
41
1
10
81.9299330334217
20
3.19474786970014
30
0
41
1
10
82.0373502280482
20
3.78566465007114
30
0
41
1
10
82.0910588253614
20
4.0775802837901
30
0
41
1
10
82.198476019988
20
4.64856256394862
30
0
41
1
10
82.2521846173012
20
4.92761740162436
30
0
41
1
10
82.3596018119277
20
5.46720559490069
30
0
41
1
10
82.4133104092409
20
5.72772715113067
30
0
41
1
10
82.5207276038674
20
6.22504795186214
30
0
41
1
10
82.5744362011807
20
6.4618369366043
30
0
41
1
10
82.6818533958072
20
6.90730026956965
30
0
41
1
10
82.7355619931204
20
7.11596724298417
30
0
41
1
10
82.842979187747
20
7.50187216406835
30
0
41
1
10
82.8966877850603
20
7.67910648748227
30
0
41
1
10
83.0041049796868
20
8.00007744621763
30
0
41
1
10
83.0578135769999
20
8.14381442415791
30
0
41
1
10
83.1652307716264
20
8.3970171756952
30
0
41
1
10
83.2189393689397
20
8.50648683069772
30
0
41
1
10
83.3263565635663
20
8.69161097847905
30
0
41
1
10
83.3800651608794
20
8.76727198124902
30
0
41
1
10
83.487482355506
20
8.88630465819881
30
0
41
1
10
83.5411909528192
20
8.92968432896456
30
0
41
1
10
83.6486081474458
20
8.98652781899918
30
0
41
1
10
83.7023167447589
20
9
30
0
41
1
10
83.7560253420722
20
9
30
0
0
SPLINE
5
D7
100
AcDbEntity
8
1
62
256
6
ByLayer
370
13
48
1
60
0
100
AcDbSpline
70
4
71
3
72
40
73
36
40
0
40
0
40
0
40
0
40
0.0625
40
0.0625
40
0.125
40
0.125
40
0.1875
40
0.1875
40
0.25
40
0.25
40
0.3125
40
0.3125
40
0.375
40
0.375
40
0.4375
40
0.4375
40
0.5
40
0.5
40
0.5625
40
0.5625
40
0.625
40
0.625
40
0.65625
40
0.65625
40
0.6875
40
0.6875
40
0.75
40
0.75
40
0.8125
40
0.8125
40
0.875
40
0.875
40
0.9375
40
0.9375
40
1
40
1
40
1
40
1
41
1
10
84.5576578555406
20
9
30
0
41
1
10
84.6340455646252
20
9
30
0
41
1
10
84.7104332737099
20
8.97270233155544
30
0
41
1
10
84.8632086918792
20
8.85533196708965
30
0
41
1
10
84.9395964009639
20
8.76521105999097
30
0
41
1
10
85.0923718191333
20
8.51679222329949
30
0
41
1
10
85.1687595282178
20
8.35845494546263
30
0
41
1
10
85.3215349463871
20
7.97243237431601
30
0
41
1
10
85.3979226554718
20
7.74472979351745
30
0
41
1
10
85.5506980736411
20
7.2239362503428
30
0
41
1
10
85.6270857827258
20
6.93085914979139
30
0
41
1
10
85.7798612008951
20
6.28848636454683
30
0
41
1
10
85.8562489099799
20
5.93923551250572
30
0
41
1
10
86.0090243281491
20
5.19800339912413
30
0
41
1
10
86.0854120372337
20
4.80608728738827
30
0
41
1
10
86.238187455403
20
3.99563118509556
30
0
41
1
10
86.3145751644878
20
3.57715969544731
30
0
41
1
10
86.4673505826571
20
2.7302444840775
30
0
41
1
10
86.5437382917416
20
2.30185650959496
30
0
41
1
10
86.696513709911
20
1.45038311228558
30
0
41
1
10
86.7729014189957
20
1.0273312652925
30
0
41
1
10
86.8874829826227
20
0.406127415852211
30
0
41
1
10
86.925676837165
20
0.201278310753253
30
0
41
1
10
87.0020645462496
20
-0.20282155062219
30
0
41
1
10
87.040258400792
20
-0.407697878210314
30
0
41
1
10
87.154839964419
20
-1.02893525405574
30
0
41
1
10
87.2312276735037
20
-1.45200252594421
30
0
41
1
10
87.384003091673
20
-2.30348891851943
30
0
41
1
10
87.4603908007576
20
-2.73187443279943
30
0
41
1
10
87.6131662189269
20
-3.57876408787229
30
0
41
1
10
87.6895539280116
20
-3.99721245741281
30
0
41
1
10
87.8423293461809
20
-4.80760103785434
30
0
41
1
10
87.9187170552656
20
-5.19947274092942
30
0
41
1
10
88.0714924734349
20
-5.94059674787664
30
0
41
1
10
88.1478801825195
20
-6.28978391783878
30
0
41
1
10
88.2242678916042
20
-6.61089924016366
30
0
0
SPLINE
5
D8
100
AcDbEntity
8
1
62
256
6
ByLayer
370
13
48
1
60
0
100
AcDbSpline
70
4
71
3
72
60
73
56
40
0
40
0
40
0
40
0
40
0.0625
40
0.0625
40
0.09375
40
0.09375
40
0.125
40
0.125
40
0.15625
40
0.15625
40
0.1875
40
0.1875
40
0.21875
40
0.21875
40
0.25
40
0.25
40
0.28125
40
0.28125
40
0.3125
40
0.3125
40
0.34375
40
0.34375
40
0.375
40
0.375
40
0.4375
40
0.4375
40
0.46875
40
0.46875
40
0.484375
40
0.484375
40
0.499999999999999
40
0.499999999999999
40
0.562499999999999
40
0.562499999999999
40
0.625
40
0.625
40
0.65625
40
0.65625
40
0.6875
40
0.6875
40
0.71875
40
0.71875
40
0.75
40
0.75
40
0.78125
40
0.78125
40
0.8125
40
0.8125
40
0.84375
40
0.84375
40
0.875
40
0.875
40
0.9375
40
0.9375
40
1
40
1
40
1
40
1
41
1
10
78.6
20
-8.96250256246597
30
0
41
1
10
78.6970740394628
20
-8.91398783519367
30
0
41
1
10
78.7941480789255
20
-8.81659882140968
30
0
41
1
10
78.9397591381197
20
-8.58801543244923
30
0
41
1
10
78.988296157851
20
-8.49813544353103
30
0
41
1
10
79.0853701973138
20
-8.29042751784539
30
0
41
1
10
79.1339072170451
20
-8.17259662216136
30
0
41
1
10
79.2309812565078
20
-7.90919015897228
30
0
41
1
10
79.2795182762392
20
-7.76361339462954
30
0
41
1
10
79.376592315702
20
-7.44577126320803
30
0
41
1
10
79.4251293354333
20
-7.27350679207845
30
0
41
1
10
79.5222033748961
20
-6.90420369479091
30
0
41
1
10
79.5707403946274
20
-6.7071681274229
30
0
41
1
10
79.6678144340901
20
-6.29103633228632
30
0
41
1
10
79.7163514538215
20
-6.07194509647462
30
0
41
1
10
79.8134254932843
20
-5.61509255640158
30
0
41
1
10
79.8619625130157
20
-5.37733767254042
30
0
41
1
10
79.9590365524784
20
-4.887052134859
30
0
41
1
10
80.0075735722098
20
-4.63452863610303
30
0
41
1
10
80.1046476116725
20
-4.11889740590667
30
0
41
1
10
80.1531846314039
20
-3.85579680676381
30
0
41
1
10
80.2502586708667
20
-3.32328288644899
30
0
41
1
10
80.298795690598
20
-3.05387598487496
30
0
41
1
10
80.4444067497922
20
-2.2424046432954
30
0
41
1
10
80.5414807892549
20
-1.6973229067593
30
0
41
1
10
80.6870918484491
20
-0.895285071874468
30
0
41
1
10
80.7356288681804
20
-0.630483689410852
30
0
41
1
10
80.8084343977774
20
-0.239260196425704
30
0
41
1
10
80.8327029076431
20
-0.110046715938239
30
0
41
1
10
80.8812399273745
20
0.146927792090736
30
0
41
1
10
80.9055084372402
20
0.276547286935255
30
0
41
1
10
81.0268509865685
20
0.929527261352831
30
0
41
1
10
81.1239250260313
20
1.46786306145537
30
0
41
1
10
81.3180731049568
20
2.55108299620628
30
0
41
1
10
81.4151471444196
20
3.09584773207905
30
0
41
1
10
81.5607582036137
20
3.89369715064012
30
0
41
1
10
81.609295223345
20
4.1563890383056
30
0
41
1
10
81.7063692628078
20
4.67099873238138
30
0
41
1
10
81.7549062825391
20
4.92290938867839
30
0
41
1
10
81.8519803220019
20
5.41177432888304
30
0
41
1
10
81.9005173417333
20
5.6487214756078
30
0
41
1
10
81.9975913811961
20
6.1037831404862
30
0
41
1
10
82.0461284009274
20
6.32189129185375
30
0
41
1
10
82.1432024403901
20
6.73591026125371
30
0
41
1
10
82.1917394601215
20
6.93181617029245
30
0
41
1
10
82.2888134995843
20
7.29874919106496
30
0
41
1
10
82.3373505193156
20
7.46977334468613
30
0
41
1
10
82.4344245587783
20
7.78506432713667
30
0
41
1
10
82.4829615785097
20
7.9293303640942
30
0
41
1
10
82.5800356179725
20
8.19008632514405
30
0
41
1
10
82.6285726377038
20
8.30657753972031
30
0
41
1
10
82.774183696898
20
8.61413631794343
30
0
41
1
10
82.8712577363607
20
8.76296122152525
30
0
41
1
10
83.0654058152862
20
8.95581561042829
30
0
41
1
10
83.1624798547489
20
9
30
0
41
1
10
83.2595538942116
20
9
30
0
0
SPLINE
5
D9
100
AcDbEntity
8
1
62
256
6
ByLayer
370
13
48
1
60
0
100
AcDbSpline
70
4
71
3
72
42
73
38
40
0
40
0
40
0
40
0
40
0.0624999999999991
40
0.0624999999999991
40
0.124999999999998
40
0.124999999999998
40
0.187499999999997
40
0.187499999999997
40
0.249999999999996
40
0.249999999999996
40
0.312499999999995
40
0.312499999999995
40
0.374999999999995
40
0.374999999999995
40
0.437499999999994
40
0.437499999999994
40
0.499999999999993
40
0.499999999999993
40
0.562499999999992
40
0.562499999999992
40
0.578124999999992
40
0.578124999999992
40
0.593749999999992
40
0.593749999999992
40
0.624999999999993
40
0.624999999999993
40
0.687499999999994
40
0.687499999999994
40
0.749999999999995
40
0.749999999999995
40
0.812499999999996
40
0.812499999999996
40
0.874999999999998
40
0.874999999999998
40
0.937499999999999
40
0.937499999999999
40
1
40
1
40
1
40
1
41
1
10
84.0611864076799
20
9
30
0
41
1
10
84.1479172719284
20
9
30
0
41
1
10
84.2346481361768
20
8.96477290177799
30
0
41
1
10
84.4081098646736
20
8.81212507052339
30
0
41
1
10
84.4948407289221
20
8.69461450997397
30
0
41
1
10
84.6683024574189
20
8.37057573285853
30
0
41
1
10
84.7550333216673
20
8.16398254197961
30
0
41
1
10
84.9284950501642
20
7.66248461316235
30
0
41
1
10
85.0152259144127
20
7.36757004422319
30
0
41
1
10
85.1886876429095
20
6.69889706365635
30
0
41
1
10
85.2754185071579
20
6.32519767209331
30
0
41
1
10
85.4488802356547
20
5.5164747074254
30
0
41
1
10
85.5356110999031
20
5.08156444047464
30
0
41
1
10
85.7090728284
20
4.1733217645328
30
0
41
1
10
85.7958036926484
20
3.70011952507028
30
0
41
1
10
85.9692654211453
20
2.73976700813768
30
0
41
1
10
86.0559962853936
20
2.25272349369925
30
0
41
1
10
86.2294580138905
20
1.28703325293054
30
0
41
1
10
86.316188878139
20
0.808446099229826
30
0
41
1
10
86.4246024584494
20
0.226491043307931
30
0
41
1
10
86.4462851745116
20
0.110939920802565
30
0
41
1
10
86.4896506066358
20
-0.118499991463551
30
0
41
1
10
86.5113333226979
20
-0.234127978867633
30
0
41
1
10
86.5763814708843
20
-0.583406255907278
30
0
41
1
10
86.6197469030084
20
-0.819461781324577
30
0
41
1
10
86.749843199381
20
-1.53420019541119
30
0
41
1
10
86.8365740636294
20
-2.01959841226412
30
0
41
1
10
87.0100357921263
20
-2.98812693752535
30
0
41
1
10
87.0967666563748
20
-3.47117228976433
30
0
41
1
10
87.2702283848716
20
-4.41124045829801
30
0
41
1
10
87.3569592491199
20
-4.86814034375578
30
0
41
1
10
87.5304209776168
20
-5.73174717787589
30
0
41
1
10
87.6171518418653
20
-6.13832707831074
30
0
41
1
10
87.7906135703622
20
-6.88060543781859
30
0
41
1
10
87.8773444346106
20
-7.21621443526797
30
0
41
1
10
88.0508061631073
20
-7.80275009738835
30
0
41
1
10
88.1375370273558
20
-8.05365260392259
30
0
41
1
10
88.2242678916042
20
-8.25965139596661
30
0
0
SPLINE
5
DA
100
AcDbEntity
8
1
62
256
6
ByLayer
370
13
48
1
60
0
100
AcDbSpline
70
4
71
3
72
42
73
38
40
0
40
0
40
0
40
0
40
0.0625
40
0.0625
40
0.125
40
0.125
40
0.1875
40
0.1875
40
0.25
40
0.25
40
0.3125
40
0.3125
40
0.375
40
0.375
40
0.40625
40
0.40625
40
0.421875
40
0.421875
40
0.4375
40
0.4375
40
0.5
40
0.5
40
0.5625
40
0.5625
40
0.625
40
0.625
40
0.6875
40
0.6875
40
0.75
40
0.75
40
0.8125
40
0.8125
40
0.875
40
0.875
40
0.9375
40
0.9375
40
1
40
1
40
1
40
1
41
1
10
78.6
20
-8.25965368187249
30
0
41
1
10
78.686730884299
20
-8.05365517171239
30
0
41
1
10
78.7734617685979
20
-7.80275292480766
30
0
41
1
10
78.9469235371959
20
-7.21621770967025
30
0
41
1
10
79.0336544214949
20
-6.88060889935915
30
0
41
1
10
79.2071161900928
20
-6.13833082400612
30
0
41
1
10
79.2938470743919
20
-5.73175102051107
30
0
41
1
10
79.4673088429898
20
-4.86814428746098
30
0
41
1
10
79.5540397272888
20
-4.41124440622761
30
0
41
1
10
79.7275014958867
20
-3.4711761655781
30
0
41
1
10
79.8142323801858
20
-2.9881307372068
30
0
41
1
10
79.9876941487837
20
-2.01960200147158
30
0
41
1
10
80.0744250330827
20
-1.53420365049738
30
0
41
1
10
80.2045213595312
20
-0.819465010807278
30
0
41
1
10
80.2478868016806
20
-0.583409406122314
30
0
41
1
10
80.3129349649049
20
-0.234131006317824
30
0
41
1
10
80.3346176859796
20
-0.118502977346509
30
0
41
1
10
80.3779831281291
20
0.110937018997902
30
0
41
1
10
80.3996658492039
20
0.226488123709316
30
0
41
1
10
80.5080794545776
20
0.808443247612701
30
0
41
1
10
80.5948103388766
20
1.28703047724949
30
0
41
1
10
80.7682721074744
20
2.25272091139075
30
0
41
1
10
80.8550029917734
20
2.73976454329176
30
0
41
1
10
81.0284647603714
20
3.70011732758877
30
0
41
1
10
81.1151956446705
20
4.1733197168935
30
0
41
1
10
81.2886574132684
20
5.08156270867599
30
0
41
1
10
81.3753882975674
20
5.51647314148227
30
0
41
1
10
81.5488500661653
20
6.3251964336113
30
0
41
1
10
81.6355809504644
20
6.69889598660595
30
0
41
1
10
81.8090427190623
20
7.36756926625674
30
0
41
1
10
81.8957736033612
20
7.66248397271886
30
0
41
1
10
82.0692353719593
20
8.16398213899029
30
0
41
1
10
82.1559662562582
20
8.37057542976561
30
0
41
1
10
82.3294280248562
20
8.69461436359651
30
0
41
1
10
82.4161589091551
20
8.81212498102033
30
0
41
1
10
82.5896206777531
20
8.96477288541308
30
0
41
1
10
82.6763515620521
20
9
30
0
41
1
10
82.7630824463511
20
9
30
0
0
SPLINE
5
DB
100
AcDbEntity
8
1
62
256
6
ByLayer
370
13
48
1
60
0
100
AcDbSpline
70
4
71
3
72
60
73
56
40
0
40
0
40
0
40
0
40
0.0624999999999987
40
0.0624999999999987
40
0.124999999999997
40
0.124999999999997
40
0.156249999999997
40
0.156249999999997
40
0.187499999999997
40
0.187499999999997
40
0.218749999999996
40
0.218749999999996
40
0.249999999999996
40
0.249999999999996
40
0.281249999999995
40
0.281249999999995
40
0.312499999999995
40
0.312499999999995
40
0.343749999999995
40
0.343749999999995
40
0.374999999999994
40
0.374999999999994
40
0.437499999999994
40
0.437499999999994
40
0.499999999999993
40
0.499999999999993
40
0.515624999999993
40
0.515624999999993
40
0.531249999999993
40
0.531249999999993
40
0.562499999999994
40
0.562499999999994
40
0.624999999999995
40
0.624999999999995
40
0.656249999999995
40
0.656249999999995
40
0.687499999999996
40
0.687499999999996
40
0.718749999999996
40
0.718749999999996
40
0.749999999999997
40
0.749999999999997
40
0.781249999999997
40
0.781249999999997
40
0.812499999999998
40
0.812499999999998
40
0.843749999999998
40
0.843749999999998
40
0.874999999999999
40
0.874999999999999
40
0.906249999999999
40
0.906249999999999
40
0.937499999999999
40
0.937499999999999
40
1
40
1
40
1
40
1
41
1
10
83.5647149598194
20
9
30
0
41
1
10
83.6617889792316
20
9
30
0
41
1
10
83.7588629986437
20
8.9558156287944
30
0
41
1
10
83.9530110374681
20
8.76296132266083
30
0
41
1
10
84.0500850568803
20
8.61413648363597
30
0
41
1
10
84.1956960859986
20
8.30657783802997
30
0
41
1
10
84.2442330957046
20
8.19008667354484
30
0
41
1
10
84.3413071151168
20
7.92933082357703
30
0
41
1
10
84.3898441248228
20
7.78506484760968
30
0
41
1
10
84.4869181442352
20
7.46977399642836
30
0
41
1
10
84.5354551539413
20
7.2987499130827
30
0
41
1
10
84.6325291733534
20
6.93181703985812
30
0
41
1
10
84.6810661830594
20
6.73591120808564
30
0
41
1
10
84.7781402024717
20
6.32189239738773
30
0
41
1
10
84.8266772121777
20
6.10378432744798
30
0
41
1
10
84.9237512315899
20
5.64872282644569
30
0
41
1
10
84.972288241296
20
5.4117757621606
30
0
41
1
10
85.0693622607081
20
4.92291098463937
30
0
41
1
10
85.1178992704142
20
4.67100040857795
30
0
41
1
10
85.2149732898264
20
4.15639086975085
30
0
41
1
10
85.2635102995325
20
3.89369905709185
30
0
41
1
10
85.4091213286509
20
3.09584985179887
30
0
41
1
10
85.5061953480631
20
2.55108524208944
30
0
41
1
10
85.7003433868874
20
1.46786551407288
30
0
41
1
10
85.7974174062996
20
0.9295297945622
30
0
41
1
10
85.9187599305648
20
0.276549890571658
30
0
41
1
10
85.9430284354179
20
0.146930408320912
30
0
41
1
10
85.9915654451239
20
-0.11004407746006
30
0
41
1
10
86.015833949977
20
-0.239257489842657
30
0
41
1
10
86.0886394645361
20
-0.63048086027672
30
0
41
1
10
86.1371764742423
20
-0.895282163963714
30
0
41
1
10
86.2827875033605
20
-1.6973197769297
30
0
41
1
10
86.3798615227727
20
-2.24240138479396
30
0
41
1
10
86.525472551891
20
-3.05387258586478
30
0
41
1
10
86.5740095615971
20
-3.32327944935167
30
0
41
1
10
86.6710835810093
20
-3.85579331447295
30
0
41
1
10
86.7196205907153
20
-4.11889389652035
30
0
41
1
10
86.8166946101275
20
-4.63452511627892
30
0
41
1
10
86.8652316198336
20
-4.88704862170167
30
0
41
1
10
86.9623056392458
20
-5.37733419820145
30
0
41
1
10
87.0108426489519
20
-5.61508911421993
30
0
41
1
10
87.1079166683641
20
-6.07194174455552
30
0
41
1
10
87.1564536780702
20
-6.2910330384737
30
0
41
1
10
87.2535276974824
20
-6.7071649748595
30
0
41
1
10
87.3020647071884
20
-6.90420062536657
30
0
41
1
10
87.3991387266007
20
-7.27350391172064
30
0
41
1
10
87.4476757363067
20
-7.44576848876957
30
0
41
1
10
87.5447497557189
20
-7.76361085141446
30
0
41
1
10
87.593286765425
20
-7.90918774105
30
0
41
1
10
87.6903607848373
20
-8.17259446994547
30
0
41
1
10
87.7388977945433
20
-8.29042550603046
30
0
41
1
10
87.8359718139554
20
-8.49813372287855
30
0
41
1
10
87.8845088236616
20
-8.58801386254601
30
0
41
1
10
88.0301198527799
20
-8.81659771197852
30
0
41
1
10
88.127193872192
20
-8.91398704342873
30
0
41
1
10
88.2242678916043
20
-8.962502081472
30
0
0
SPLINE
5
DC
100
AcDbEntity
8
1
62
256
6
ByLayer
370
13
48
1
60
0
100
AcDbSpline
70
4
71
3
72
40
73
36
40
0
40
0
40
0
40
0
40
0.062500000000001
40
0.062500000000001
40
0.125000000000002
40
0.125000000000002
40
0.187500000000003
40
0.187500000000003
40
0.250000000000004
40
0.250000000000004
40
0.312500000000005
40
0.312500000000005
40
0.343750000000005
40
0.343750000000005
40
0.375000000000005
40
0.375000000000005
40
0.437500000000005
40
0.437500000000005
40
0.500000000000004
40
0.500000000000004
40
0.562500000000004
40
0.562500000000004
40
0.625000000000003
40
0.625000000000003
40
0.687500000000003
40
0.687500000000003
40
0.750000000000002
40
0.750000000000002
40
0.812500000000002
40
0.812500000000002
40
0.875000000000001
40
0.875000000000001
40
0.937500000000001
40
0.937500000000001
40
1
40
1
40
1
40
1
41
1
10
78.6
20
-6.6109032859699
30
0
41
1
10
78.6763877291353
20
-6.2897881138542
30
0
41
1
10
78.7527754582704
20
-5.94060105492272
30
0
41
1
10
78.905550916541
20
-5.19947718787785
30
0
41
1
10
78.9819386456761
20
-4.80760551371091
30
0
41
1
10
79.1347141039465
20
-3.99721691554751
30
0
41
1
10
79.2111018330818
20
-3.57876849948636
30
0
41
1
10
79.3638772913522
20
-2.73187869069213
30
0
41
1
10
79.4402650204875
20
-2.30349306934863
30
0
41
1
10
79.5930404787579
20
-1.45200642117368
30
0
41
1
10
79.6694282078931
20
-1.02893900086869
30
0
41
1
10
79.784009801596
20
-0.407701385946609
30
0
41
1
10
79.8222036661634
20
-0.202824975915348
30
0
41
1
10
79.8985913952986
20
0.201275053649681
30
0
41
1
10
79.9367852598663
20
0.406124123429891
30
0
41
1
10
80.0513668535692
20
1.02732806677034
30
0
41
1
10
80.1277545827044
20
1.45037999538951
30
0
41
1
10
80.2805300409748
20
2.30185359203935
30
0
41
1
10
80.35691777011
20
2.73024168424891
30
0
41
1
10
80.5096932283805
20
3.57715716003344
30
0
41
1
10
80.5860809575157
20
3.99562879633609
30
0
41
1
10
80.7388564157861
20
4.80608520877911
30
0
41
1
10
80.8152441449214
20
5.19800148393145
30
0
41
1
10
80.9680196031918
20
5.9392339255887
30
0
41
1
10
81.044407332327
20
6.28848494238457
30
0
41
1
10
81.1971827905974
20
6.9308580427639
30
0
41
1
10
81.2735705197327
20
7.22393529360102
30
0
41
1
10
81.4263459780032
20
7.74472910985884
30
0
41
1
10
81.5027337071383
20
7.97243181340212
30
0
41
1
10
81.6555091654087
20
8.35845459445335
30
0
41
1
10
81.7318968945439
20
8.5167919594507
30
0
41
1
10
81.8846723528144
20
8.76521093260376
30
0
41
1
10
81.9610600819496
20
8.85533188904668
30
0
41
1
10
82.1138355402201
20
8.97270231717488
30
0
41
1
10
82.1902232693552
20
9
30
0
41
1
10
82.2666109984905
20
9
30
0
0
SPLINE
5
DD
100
AcDbEntity
8
1
62
256
6
ByLayer
370
13
48
1
60
0
100
AcDbSpline
70
4
71
3
72
78
73
74
40
0
40
0
40
0
40
0
40
0.03125
40
0.03125
40
0.0625
40
0.0625
40
0.0937499999999999
40
0.0937499999999999
40
0.125
40
0.125
40
0.15625
40
0.15625
40
0.1875
40
0.1875
40
0.21875
40
0.21875
40
0.25
40
0.25
40
0.28125
40
0.28125
40
0.312499999999999
40
0.312499999999999
40
0.343749999999999
40
0.343749999999999
40
0.374999999999999
40
0.374999999999999
40
0.406249999999999
40
0.406249999999999
40
0.437499999999999
40
0.437499999999999
40
0.453124999999999
40
0.453124999999999
40
0.460937499999999
40
0.460937499999999
40
0.46875
40
0.46875
40
0.5
40
0.5
40
0.53125
40
0.53125
40
0.5625
40
0.5625
40
0.593749999999999
40
0.593749999999999
40
0.624999999999999
40
0.624999999999999
40
0.656249999999999
40
0.656249999999999
40
0.687499999999999
40
0.687499999999999
40
0.718749999999999
40
0.718749999999999
40
0.749999999999999
40
0.749999999999999
40
0.781249999999999
40
0.781249999999999
40
0.812499999999999
40
0.812499999999999
40
0.843749999999999
40
0.843749999999999
40
0.874999999999999
40
0.874999999999999
40
0.906249999999999
40
0.906249999999999
40
0.921874999999999
40
0.921874999999999
40
0.9296875
40
0.9296875
40
0.9375
40
0.9375
40
0.96875
40
0.96875
40
1
40
1
40
1
40
1
41
1
10
83.0682435119588
20
9
30
0
41
1
10
83.1219520992468
20
9
30
0
41
1
10
83.1756606865347
20
8.98652782403636
30
0
41
1
10
83.2830778611106
20
8.9296843557587
30
0
41
1
10
83.3367864483987
20
8.88630470172052
30
0
41
1
10
83.4442036229747
20
8.76727207103957
30
0
41
1
10
83.4979122102625
20
8.69161109781791
30
0
41
1
10
83.6053293848385
20
8.50648702235728
30
0
41
1
10
83.6590379721264
20
8.39701741013198
30
0
41
1
10
83.7664551467024
20
8.14381475687679
30
0
41
1
10
83.8201637339904
20
8.00007783444264
30
0
41
1
10
83.9275809085663
20
7.67910699794663
30
0
41
1
10
83.9812894958543
20
7.50187274126264
30
0
41
1
10
84.0887066704303
20
7.11596796238817
30
0
41
1
10
84.1424152577182
20
6.90730106444556
30
0
41
1
10
84.2498324322943
20
6.46183788788773
30
0
41
1
10
84.3035410195822
20
6.22504898406979
30
0
41
1
10
84.4109581941582
20
5.72772834684761
30
0
41
1
10
84.464666781446
20
5.46720687318975
30
0
41
1
10
84.5720839560221
20
4.92761884277121
30
0
41
1
10
84.62579254331
20
4.64856408536889
30
0
41
1
10
84.7332097178859
20
4.07758195976646
30
0
41
1
10
84.7869183051738
20
3.78566640032057
30
0
41
1
10
84.8943354797498
20
3.19474975937959
30
0
41
1
10
84.9480440670378
20
2.89575910533117
30
0
41
1
10
85.0554612416137
20
2.2962552832781
30
0
41
1
10
85.1091698289017
20
1.99575016429398
30
0
41
1
10
85.2165870034776
20
1.39827575503037
30
0
41
1
10
85.2702955907657
20
1.10131165291088
30
0
41
1
10
85.3508584716977
20
0.661782669806598
30
0
41
1
10
85.3777127653416
20
0.516253230808758
30
0
41
1
10
85.4179942058078
20
0.299780190616872
30
0
41
1
10
85.4314213526297
20
0.227925624923898
30
0
41
1
10
85.4582756462736
20
0.0848762736169704
30
0
41
1
10
85.4717027930956
20
0.0139049064110566
30
0
41
1
10
85.5388385272056
20
-0.342164837254728
30
0
41
1
10
85.5925471144934
20
-0.632520952710678
30
0
41
1
10
85.6999642890695
20
-1.22058936636424
30
0
41
1
10
85.7536728763574
20
-1.5182989575635
30
0
41
1
10
85.8610900509334
20
-2.11662326881259
30
0
41
1
10
85.9147986382213
20
-2.41723240727598
30
0
41
1
10
86.0222158127973
20
-3.01622181538471
30
0
41
1
10
86.0759244000853
20
-3.31459367686418
30
0
41
1
10
86.1833415746612
20
-3.90350208766856
30
0
41
1
10
86.2370501619492
20
-4.1940279555341
30
0
41
1
10
86.3444673365252
20
-4.76145452092146
30
0
41
1
10
86.3981759238131
20
-5.03834332394871
30
0
41
1
10
86.5055930983891
20
-5.57286572130937
30
0
41
1
10
86.559301685677
20
-5.83048763473909
30
0
41
1
10
86.6667188602531
20
-6.32136547854384
30
0
41
1
10
86.7204274475409
20
-6.55461146630705
30
0
41
1
10
86.8278446221169
20
-6.99247618831342
30
0
41
1
10
86.8815532094048
20
-7.19708801438651
30
0
41
1
10
86.9889703839809
20
-7.57453008986008
30
0
41
1
10
87.0426789712689
20
-7.74735725018135
30
0
41
1
10
87.1500961458447
20
-8.05933504602109
30
0
41
1
10
87.2038047331327
20
-8.1984865371239
30
0
41
1
10
87.3112219077087
20
-8.44251076749893
30
0
41
1
10
87.3649304949967
20
-8.54738780194563
30
0
41
1
10
87.4723476695726
20
-8.72347384715405
30
0
41
1
10
87.5260562568606
20
-8.7946896358938
30
0
41
1
10
87.6334734314365
20
-8.90510673140568
30
0
41
1
10
87.6871820187245
20
-8.94431614594723
30
0
41
1
10
87.7677448996564
20
-8.98097078792517
30
0
41
1
10
87.7945991933004
20
-8.98950133545858
30
0
41
1
10
87.8348806337664
20
-8.99703782292625
30
0
41
1
10
87.8483077805884
20
-8.99867368019878
30
0
41
1
10
87.8751620742324
20
-9.00024082662193
30
0
41
1
10
87.8885892210544
20
-9.00017873036202
30
0
41
1
10
87.9557249551644
20
-8.99562625729189
30
0
41
1
10
88.0094335424524
20
-8.97829973085555
30
0
41
1
10
88.1168507170282
20
-8.91338849362535
30
0
41
1
10
88.1705593043163
20
-8.86579541109123
30
0
41
1
10
88.2242678916042
20
-8.801935782583
30
0
0
SPLINE
5
DE
100
AcDbEntity
8
1
62
256
6
ByLayer
370
13
48
1
60
0
100
AcDbSpline
70
4
71
3
72
42
73
38
40
0
40
0
40
0
40
0
40
0.0624999999999986
40
0.0624999999999986
40
0.124999999999997
40
0.124999999999997
40
0.187499999999996
40
0.187499999999996
40
0.218749999999995
40
0.218749999999995
40
0.234374999999995
40
0.234374999999995
40
0.249999999999994
40
0.249999999999994
40
0.312499999999995
40
0.312499999999995
40
0.374999999999995
40
0.374999999999995
40
0.437499999999995
40
0.437499999999995
40
0.499999999999996
40
0.499999999999996
40
0.562499999999996
40
0.562499999999996
40
0.624999999999997
40
0.624999999999997
40
0.687499999999997
40
0.687499999999997
40
0.749999999999998
40
0.749999999999998
40
0.812499999999998
40
0.812499999999998
40
0.874999999999999
40
0.874999999999999
40
0.937499999999999
40
0.937499999999999
40
1
40
1
40
1
40
1
41
1
10
78.6
20
-4.19900844896856
30
0
41
1
10
78.6660445739715
20
-3.84505914025567
30
0
41
1
10
78.7320891479429
20
-3.48223700105802
30
0
41
1
10
78.8641782958858
20
-2.74949281768585
30
0
41
1
10
78.9302228698573
20
-2.37959748751632
30
0
41
1
10
79.0623120178002
20
-1.64261797187092
30
0
41
1
10
79.1283565917716
20
-1.27555124048027
30
0
41
1
10
79.2274234527288
20
-0.733388059407645
30
0
41
1
10
79.2604457397146
20
-0.554060057172109
30
0
41
1
10
79.3099791701932
20
-0.287818948551518
30
0
41
1
10
79.3264903136861
20
-0.199529472051836
30
0
41
1
10
79.3595126006718
20
-0.0239646393652038
30
0
41
1
10
79.3760237441647
20
0.0631438355802061
30
0
41
1
10
79.458579461629
20
0.502806742062319
30
0
41
1
10
79.5246240356004
20
0.862609728513689
30
0
41
1
10
79.6567131835433
20
1.59123967130111
30
0
41
1
10
79.7227577575147
20
1.9600563209296
30
0
41
1
10
79.8548469054577
20
2.69782051848281
30
0
41
1
10
79.9208914794291
20
3.06674777038663
30
0
41
1
10
80.0529806273721
20
3.79452825179359
30
0
41
1
10
80.1190252013434
20
4.15335260580983
30
0
41
1
10
80.2511143492864
20
4.85015625010951
30
0
41
1
10
80.3171589232579
20
5.18810215521253
30
0
41
1
10
80.4492480712008
20
5.83276397537622
30
0
41
1
10
80.5152926451723
20
6.13944801180568
30
0
41
1
10
80.6473817931151
20
6.71259085658417
30
0
41
1
10
80.7134263670866
20
6.97902556319647
30
0
41
1
10
80.8455155150295
20
7.46492752089381
30
0
41
1
10
80.9115600890009
20
7.68438295353471
30
0
41
1
10
81.0436492369438
20
8.07239090276417
30
0
41
1
10
81.1096938109153
20
8.24094522482062
30
0
41
1
10
81.2417829588582
20
8.52617433243773
30
0
41
1
10
81.3078275328297
20
8.64286257826871
30
0
41
1
10
81.4399166807726
20
8.82610231739997
30
0
41
1
10
81.505961254744
20
8.89267470383348
30
0
41
1
10
81.6380504026869
20
8.97961181413584
30
0
41
1
10
81.7040949766584
20
9
30
0
41
1
10
81.7701395506299
20
9
30
0
0
SPLINE
5
DF
100
AcDbEntity
8
1
62
256
6
ByLayer
370
13
48
1
60
0
100
AcDbSpline
70
4
71
3
72
77
73
73
40
0
40
0
40
0
40
0
40
0.0312500000000006
40
0.0312500000000006
40
0.0625000000000011
40
0.0625000000000011
40
0.0937500000000017
40
0.0937500000000017
40
0.125000000000002
40
0.125000000000002
40
0.156250000000003
40
0.156250000000003
40
0.187500000000003
40
0.187500000000003
40
0.218750000000004
40
0.218750000000004
40
0.250000000000005
40
0.250000000000005
40
0.281250000000005
40
0.281250000000005
40
0.312500000000006
40
0.312500000000006
40
0.343750000000006
40
0.343750000000006
40
0.375000000000007
40
0.375000000000007
40
0.406250000000007
40
0.406250000000007
40
0.421875000000007
40
0.421875000000007
40
0.429687500000007
40
0.429687500000007
40
0.437500000000007
40
0.437500000000007
40
0.468750000000007
40
0.468750000000007
40
0.500000000000007
40
0.500000000000007
40
0.531250000000006
40
0.531250000000006
40
0.562500000000006
40
0.562500000000006
40
0.593750000000005
40
0.593750000000005
40
0.625000000000005
40
0.625000000000005
40
0.656250000000004
40
0.656250000000004
40
0.687500000000004
40
0.687500000000004
40
0.718750000000003
40
0.718750000000003
40
0.750000000000003
40
0.750000000000003
40
0.781250000000003
40
0.781250000000003
40
0.812500000000002
40
0.812500000000002
40
0.843750000000002
40
0.843750000000002
40
0.851562500000002
40
0.851562500000002
40
0.859375000000002
40
0.875000000000002
40
0.875000000000002
40
0.906250000000001
40
0.906250000000001
40
0.937500000000001
40
0.937500000000001
40
0.96875
40
0.96875
40
1
40
1
40
1
40
1
41
1
10
82.5717720640982
20
9
30
0
41
1
10
82.630652228968
20
9
30
0
41
1
10
82.6895323938379
20
8.98380335542595
30
0
41
1
10
82.8072927235776
20
8.91515563717172
30
0
41
1
10
82.8661728884475
20
8.86269132276885
30
0
41
1
10
82.9839332181871
20
8.71851824697524
30
0
41
1
10
83.042813383057
20
8.62679714970099
30
0
41
1
10
83.1605737127967
20
8.40240748637359
30
0
41
1
10
83.2194538776665
20
8.26972965351891
30
0
41
1
10
83.3372142074063
20
7.96334315992959
30
0
41
1
10
83.3960943722761
20
7.7896303861182
30
0
41
1
10
83.5138547020159
20
7.40291877429974
30
0
41
1
10
83.5727348668857
20
7.18992239491243
30
0
41
1
10
83.6904951966254
20
6.7282458556376
30
0
41
1
10
83.7493753614953
20
6.47957496774589
30
0
41
1
10
83.8671356912349
20
5.95183287209966
30
0
41
1
10
83.9260158561048
20
5.67277660821873
30
0
41
1
10
84.0437761858445
20
5.09085939770048
30
0
41
1
10
84.1026563507145
20
4.78801676442245
30
0
41
1
10
84.2204166804542
20
4.16592591684395
30
0
41
1
10
84.279296845324
20
3.8466965149907
30
0
41
1
10
84.3970571750637
20
3.19946643544668
30
0
41
1
10
84.4559373399335
20
2.87148236841114
30
0
41
1
10
84.5736976696733
20
2.21407108896244
30
0
41
1
10
84.6325778345431
20
1.88465636047945
30
0
41
1
10
84.7503381642829
20
1.23096272167243
30
0
41
1
10
84.8092183291527
20
0.906691308095049
30
0
41
1
10
84.8975385764575
20
0.428281865884713
30
0
41
1
10
84.9269786588924
20
0.27013611695827
30
0
41
1
10
84.9711387825448
20
0.0353372519253128
30
0
41
1
10
84.9858588237622
20
-0.0423302433773927
30
0
41
1
10
85.0152989061971
20
-0.19891086754231
30
0
41
1
10
85.0300189474146
20
-0.277602868655464
30
0
41
1
10
85.1036191535019
20
-0.672896215896941
30
0
41
1
10
85.1624993183717
20
-0.99504376750798
30
0
41
1
10
85.2802596481115
20
-1.64593266574883
30
0
41
1
10
85.3391398129813
20
-1.97466773614329
30
0
41
1
10
85.4569001427211
20
-2.63239579591635
30
0
41
1
10
85.5157803075909
20
-2.96137747346765
30
0
41
1
10
85.6335406373306
20
-3.61242539317254
30
0
41
1
10
85.6924208022004
20
-3.93447588714176
30
0
41
1
10
85.8101811319402
20
-4.56405990958339
30
0
41
1
10
85.8690612968101
20
-4.8715749328818
30
0
41
1
10
85.9868216265497
20
-5.46457969218329
30
0
41
1
10
86.0457017914196
20
-5.7500507243281
30
0
41
1
10
86.1634621211592
20
-6.29212114553133
30
0
41
1
10
86.2223422860292
20
-6.54870452845523
30
0
41
1
10
86.3401026157688
20
-7.02734718297404
30
0
41
1
10
86.3989827806387
20
-7.24939565093706
30
0
41
1
10
86.5167431103785
20
-7.65492106510791
30
0
41
1
10
86.5756232752483
20
-7.83839387024321
30
0
41
1
10
86.6933836049881
20
-8.16455423121815
30
0
41
1
10
86.7522637698579
20
-8.30724439875951
30
0
41
1
10
86.8700240995976
20
-8.55148140393231
30
0
41
1
10
86.9289042644674
20
-8.65303643460567
30
0
41
1
10
87.0466645942071
20
-8.81633307544772
30
0
41
1
10
87.1055447590769
20
-8.87808648212214
30
0
41
1
10
87.2233050888166
20
-8.96448974082256
30
0
41
1
10
87.2821852536865
20
-8.98915279810805
30
0
41
1
10
87.3557854597739
20
-8.99910833781499
30
0
41
1
10
87.3705055009913
20
-9.00005771429076
30
0
41
1
10
87.3999455834262
20
-8.99993687023363
30
0
41
1
10
87.4441057070786
20
-8.9967214103512
30
0
41
1
10
87.4882658307311
20
-8.98411008538511
30
0
41
1
10
87.5765860780358
20
-8.94563478779833
30
0
41
1
10
87.6354662429057
20
-8.90228189982622
30
0
41
1
10
87.7532265726453
20
-8.7769530253602
30
0
41
1
10
87.8121067375153
20
-8.69496429309919
30
0
41
1
10
87.929867067255
20
-8.49031468403371
30
0
41
1
10
87.9887472321249
20
-8.36764359212762
30
0
41
1
10
88.1065075618645
20
-8.08112815369307
30
0
41
1
10
88.1653877267344
20
-7.91727827861982
30
0
41
1
10
88.2242678916042
20
-7.73348735886566
30
0
0
SPLINE
5
E0
100
AcDbEntity
8
1
62
256
6
ByLayer
370
13
48
1
60
0
100
AcDbSpline
70
4
71
3
72
42
73
38
40
0
40
0
40
0
40
0
40
0.0625000000000019
40
0.0625000000000019
40
0.0937500000000033
40
0.0937500000000033
40
0.109375000000003
40
0.109375000000003
40
0.125000000000004
40
0.125000000000004
40
0.187500000000003
40
0.187500000000003
40
0.250000000000003
40
0.250000000000003
40
0.312500000000003
40
0.312500000000003
40
0.375000000000003
40
0.375000000000003
40
0.437500000000002
40
0.437500000000002
40
0.500000000000002
40
0.500000000000002
40
0.562500000000002
40
0.562500000000002
40
0.625000000000002
40
0.625000000000002
40
0.687500000000001
40
0.687500000000001
40
0.750000000000001
40
0.750000000000001
40
0.812500000000001
40
0.812500000000001
40
0.875000000000001
40
0.875000000000001
40
0.9375
40
0.9375
40
1
40
1
40
1
40
1
41
1
10
78.6
20
-1.45365067828158
30
0
41
1
10
78.6557014188077
20
-1.14499009599967
30
0
41
1
10
78.7114028376154
20
-0.838916352677131
30
0
41
1
10
78.7949549658269
20
-0.387128895280426
30
0
41
1
10
78.8228056752308
20
-0.237746411136072
30
0
41
1
10
78.8645817393366
20
-0.0158560870120539
30
0
41
1
10
78.8785070940386
20
0.0576475183168839
30
0
41
1
10
78.9063578034423
20
0.205846681348561
30
0
41
1
10
78.9202831581442
20
0.280304296014606
30
0
41
1
10
78.9899099316539
20
0.654234082097503
30
0
41
1
10
79.0456113504616
20
0.958668465431458
30
0
41
1
10
79.157014188077
20
1.57371708154642
30
0
41
1
10
79.2127156068846
20
1.88432677066609
30
0
41
1
10
79.3241184445
20
2.50643249883112
30
0
41
1
10
79.3798198633077
20
2.81792037608471
30
0
41
1
10
79.4912227009231
20
3.43578916390385
30
0
41
1
10
79.5469241197308
20
3.74215862085154
30
0
41
1
10
79.6583269573462
20
4.34339361291691
30
0
41
1
10
79.7140283761538
20
4.63824542556893
30
0
41
1
10
79.8254312137692
20
5.21002685326025
30
0
41
1
10
79.881132632577
20
5.4869421106514
30
0
41
1
10
79.9925354701923
20
6.01683889820609
30
0
41
1
10
80.0482368890001
20
6.26980739052178
30
0
41
1
10
80.1596397266154
20
6.74662454024352
30
0
41
1
10
80.2153411454232
20
6.97046332652948
30
0
41
1
10
80.3267439830386
20
7.38501088600009
30
0
41
1
10
80.3824454018462
20
7.57571425921015
30
0
41
1
10
80.4938482394616
20
7.92139019735012
30
0
41
1
10
80.5495496582693
20
8.07636230635873
30
0
41
1
10
80.6609524958847
20
8.34947312229252
30
0
41
1
10
80.7166539146924
20
8.46761591033658
30
0
41
1
10
80.8280567523076
20
8.66740694522241
30
0
41
1
10
80.8837581711153
20
8.74906271223293
30
0
41
1
10
80.9951610087309
20
8.87748121108996
30
0
41
1
10
81.0508624275385
20
8.92425344811119
30
0
41
1
10
81.1622652651539
20
8.98550782566267
30
0
41
1
10
81.2179666839615
20
9
30
0
41
1
10
81.2736681027693
20
9
30
0
0
SPLINE
5
E1
100
AcDbEntity
8
1
62
256
6
ByLayer
370
13
48
1
60
0
100
AcDbSpline
70
4
71
3
72
77
73
73
40
0
40
0
40
0
40
0
40
0.0312499999999998
40
0.0312499999999998
40
0.0624999999999996
40
0.0624999999999996
40
0.0937499999999994
40
0.0937499999999994
40
0.124999999999999
40
0.124999999999999
40
0.156249999999999
40
0.156249999999999
40
0.187499999999999
40
0.187499999999999
40
0.218749999999999
40
0.218749999999999
40
0.249999999999999
40
0.249999999999999
40
0.281249999999998
40
0.281249999999998
40
0.312499999999998
40
0.312499999999998
40
0.343749999999998
40
0.343749999999998
40
0.374999999999998
40
0.374999999999998
40
0.390624999999998
40
0.390624999999998
40
0.398437499999998
40
0.398437499999998
40
0.406249999999998
40
0.406249999999998
40
0.437499999999998
40
0.437499999999998
40
0.468749999999999
40
0.468749999999999
40
0.499999999999999
40
0.499999999999999
40
0.531249999999999
40
0.531249999999999
40
0.562499999999999
40
0.562499999999999
40
0.59375
40
0.59375
40
0.625
40
0.625
40
0.65625
40
0.65625
40
0.6875
40
0.6875
40
0.718750000000001
40
0.718750000000001
40
0.750000000000001
40
0.750000000000001
40
0.781250000000001
40
0.781250000000001
40
0.789062500000001
40
0.789062500000001
40
0.796875000000001
40
0.812500000000001
40
0.812500000000001
40
0.843750000000001
40
0.843750000000001
40
0.875000000000001
40
0.875000000000001
40
0.906250000000001
40
0.906250000000001
40
0.9375
40
0.9375
40
0.96875
40
0.96875
40
1
40
1
40
1
40
1
41
1
10
82.0753006162375
20
9
30
0
41
1
10
82.1393523586893
20
9
30
0
41
1
10
82.203404101141
20
8.98082645502276
30
0
41
1
10
82.3315075860445
20
8.8992041170128
30
0
41
1
10
82.3955593284962
20
8.83673517817724
30
0
41
1
10
82.5236628133997
20
8.6648592819385
30
0
41
1
10
82.5877145558514
20
8.55543413716214
30
0
41
1
10
82.715818040755
20
8.2878749018976
30
0
41
1
10
82.7798697832067
20
8.12972850722565
30
0
41
1
10
82.9079732681103
20
7.76532053470862
30
0
41
1
10
82.9720250105618
20
7.55905605543074
30
0
41
1
10
83.1001284954654
20
7.10161112040049
30
0
41
1
10
83.164180237917
20
6.85043904238492
30
0
41
1
10
83.2922837228206
20
6.3089065401972
30
0
41
1
10
83.3563354652723
20
6.0185651144196
30
0
41
1
10
83.4844389501758
20
5.40653408463987
30
0
41
1
10
83.5484906926275
20
5.08487085947789
30
0
41
1
10
83.6765941775309
20
4.41945346450689
30
0
41
1
10
83.7406459199826
20
4.07572815139841
30
0
41
1
10
83.8687494048861
20
3.37601235472141
30
0
41
1
10
83.9328011473378
20
3.02004814217989
30
0
41
1
10
84.0609046322413
20
2.30540283851553
30
0
41
1
10
84.1249563746932
20
1.94674162053164
30
0
41
1
10
84.2530598595966
20
1.2352677972209
30
0
41
1
10
84.3171116020484
20
0.882466875387451
30
0
41
1
10
84.4131892157259
20
0.362980223990888
30
0
41
1
10
84.4452150869517
20
0.191424674549097
30
0
41
1
10
84.4932538937906
20
-0.0629515548495476
30
0
41
1
10
84.5092668294035
20
-0.147924375273163
30
0
41
1
10
84.5412927006294
20
-0.319078318123672
30
0
41
1
10
84.5573056362423
20
-0.405111164884062
30
0
41
1
10
84.637370314307
20
-0.837321343201609
30
0
41
1
10
84.7014220567587
20
-1.18970000112736
30
0
41
1
10
84.8295255416622
20
-1.90066624133053
30
0
41
1
10
84.8935772841139
20
-2.25924249998744
30
0
41
1
10
85.0216807690175
20
-2.97410960886762
30
0
41
1
10
85.0857325114691
20
-3.33038091627344
30
0
41
1
10
85.2138359963726
20
-4.03113199460512
30
0
41
1
10
85.2778877388243
20
-4.37558570386673
30
0
41
1
10
85.4059912237279
20
-5.04287648663095
30
0
41
1
10
85.4700429661796
20
-5.36568471504921
30
0
41
1
10
85.598146451083
20
-5.98038040581221
30
0
41
1
10
85.6621981935348
20
-6.27224127535527
30
0
41
1
10
85.7903016784384
20
-6.81711092292909
30
0
41
1
10
85.85435342089
20
-7.0701003026339
30
0
41
1
10
85.9824569057934
20
-7.53137667490083
30
0
41
1
10
86.0465086482452
20
-7.73965480028693
30
0
41
1
10
86.1746121331487
20
-8.1081742029308
30
0
41
1
10
86.2386638756004
20
-8.26841791981522
30
0
41
1
10
86.3667673605039
20
-8.54014669119019
30
0
41
1
10
86.4308191029556
20
-8.65164371085922
30
0
41
1
10
86.5589225878591
20
-8.82754479585088
30
0
41
1
10
86.6229743303109
20
-8.89196687786776
30
0
41
1
10
86.7510778152142
20
-8.97730705214096
30
0
41
1
10
86.815129557666
20
-8.99824528088632
30
0
41
1
10
86.8951942357306
20
-9.00030604455105
30
0
41
1
10
86.9112071713437
20
-8.99952488972082
30
0
41
1
10
86.9432330425695
20
-8.9955061597671
30
0
41
1
10
86.9912718494082
20
-8.98578835362898
30
0
41
1
10
87.0393106562472
20
-8.96463475018888
30
0
41
1
10
87.1353882699248
20
-8.90619429235065
30
0
41
1
10
87.1994400123765
20
-8.84567165045706
30
0
41
1
10
87.3275434972799
20
-8.67781075818934
30
0
41
1
10
87.3915952397316
20
-8.57045415717005
30
0
41
1
10
87.5196987246351
20
-8.30706219433887
30
0
41
1
10
87.5837504670869
20
-8.15101419603263
30
0
41
1
10
87.7118539519903
20
-7.79072465859281
30
0
41
1
10
87.775905694442
20
-7.58647975983018
30
0
41
1
10
87.9040091793455
20
-7.13288284900693
30
0
41
1
10
87.9680609217972
20
-6.88353872403923
30
0
41
1
10
88.0961644067007
20
-6.34536861151139
30
0
41
1
10
88.1602161491525
20
-6.05656121628715
30
0
41
1
10
88.2242678916042
20
-5.7518939378248
30
0
0
SPLINE
5
E2
100
AcDbEntity
8
1
62
256
6
ByLayer
370
13
48
1
60
0
100
AcDbSpline
70
4
71
3
72
22
73
18
40
0
40
0
40
0
40
0
40
0.125
40
0.125
40
0.25
40
0.25
40
0.375
40
0.375
40
0.5
40
0.5
40
0.625
40
0.625
40
0.75
40
0.75
40
0.875
40
0.875
40
1
40
1
40
1
40
1
41
1
10
78.6
20
1.23947186011617
30
0
41
1
10
78.6907165272879
20
1.74002131816096
30
0
41
1
10
78.7814330545757
20
2.24907793201871
30
0
41
1
10
78.9628661091515
20
3.26045947711737
30
0
41
1
10
79.0535826364394
20
3.7626679888202
30
0
41
1
10
79.235015691015
20
4.73274064544438
30
0
41
1
10
79.325732218303
20
5.20044563499167
30
0
41
1
10
79.5071652728786
20
6.07438841495511
30
0
41
1
10
79.5978818001664
20
6.4804749996745
30
0
41
1
10
79.7793148547422
20
7.20941825658889
30
0
41
1
10
79.8700313820301
20
7.53218621587627
30
0
41
1
10
80.0514644366058
20
8.08188572436188
30
0
41
1
10
80.1421809638937
20
8.30881793410273
30
0
41
1
10
80.3236140184694
20
8.66478216450642
30
0
41
1
10
80.4143305457573
20
8.7938904371
30
0
41
1
10
80.595763600333
20
8.96144348601919
30
0
41
1
10
80.6864801276208
20
9
30
0
41
1
10
80.7771966549087
20
9
30
0
0
SPLINE
5
E3
100
AcDbEntity
8
1
62
256
6
ByLayer
370
13
48
1
60
0
100
AcDbSpline
70
4
71
3
72
80
73
76
40
0
40
0
40
0
40
0
40
0.0312499999999979
40
0.0312499999999979
40
0.0624999999999957
40
0.0624999999999957
40
0.0937499999999936
40
0.0937499999999936
40
0.124999999999991
40
0.124999999999991
40
0.156249999999989
40
0.156249999999989
40
0.187499999999987
40
0.187499999999987
40
0.218749999999985
40
0.218749999999985
40
0.249999999999983
40
0.249999999999983
40
0.281249999999981
40
0.281249999999981
40
0.312499999999979
40
0.312499999999979
40
0.343749999999977
40
0.343749999999977
40
0.359374999999975
40
0.359374999999975
40
0.367187499999975
40
0.367187499999975
40
0.374999999999975
40
0.374999999999975
40
0.406249999999974
40
0.406249999999974
40
0.437499999999974
40
0.437499999999974
40
0.468749999999974
40
0.468749999999974
40
0.499999999999973
40
0.499999999999973
40
0.531249999999973
40
0.531249999999973
40
0.562499999999972
40
0.562499999999972
40
0.593749999999972
40
0.593749999999972
40
0.624999999999972
40
0.624999999999972
40
0.656249999999971
40
0.656249999999971
40
0.687499999999971
40
0.687499999999971
40
0.718749999999971
40
0.718749999999971
40
0.722656249999971
40
0.722656249999971
40
0.726562499999971
40
0.726562499999971
40
0.734374999999971
40
0.734374999999971
40
0.749999999999973
40
0.749999999999973
40
0.781249999999976
40
0.781249999999976
40
0.81249999999998
40
0.81249999999998
40
0.843749999999983
40
0.843749999999983
40
0.874999999999986
40
0.874999999999986
40
0.90624999999999
40
0.90624999999999
40
0.937499999999993
40
0.937499999999993
40
0.968749999999997
40
0.968749999999997
40
1
40
1
40
1
40
1
41
1
10
81.578829168377
20
9
30
0
41
1
10
81.6480524884106
20
9
30
0
41
1
10
81.7172758084442
20
8.97759647509923
30
0
41
1
10
81.8557224485115
20
8.88181649103336
30
0
41
1
10
81.9249457685451
20
8.80841040312711
30
0
41
1
10
82.0633924086122
20
8.60624752169227
30
0
41
1
10
82.1326157286459
20
8.47746496375757
30
0
41
1
10
82.2710623687132
20
8.16287007583151
30
0
41
1
10
82.3402856887468
20
7.97704258839957
30
0
41
1
10
82.478732328814
20
7.55001752821002
30
0
41
1
10
82.5479556488476
20
7.30882092287516
30
0
41
1
10
82.6864022889148
20
6.77628787316104
30
0
41
1
10
82.7556256089484
20
6.48497042714885
30
0
41
1
10
82.8940722490157
20
5.86069990867924
30
0
41
1
10
82.9632955690493
20
5.52778086152671
30
0
41
1
10
83.1017422091166
20
4.83127346928868
30
0
41
1
10
83.1709655291502
20
4.4677269760771
30
0
41
1
10
83.3094121692175
20
3.72222395405399
30
0
41
1
10
83.378635489251
20
3.34030822952036
30
0
41
1
10
83.5170821293183
20
2.5703445395439
30
0
41
1
10
83.5863054493519
20
2.18232882109365
30
0
41
1
10
83.7247520894192
20
1.41133905538103
30
0
41
1
10
83.7939754094527
20
1.02838461737238
30
0
41
1
10
83.8978103895031
20
0.464694207323703
30
0
41
1
10
83.9324220495199
20
0.278571055710302
30
0
41
1
10
83.9843395395452
20
0.0027558841345297
30
0
41
1
10
84.0016453695536
20
-0.0885980718412895
30
0
41
1
10
84.0362570295704
20
-0.273162884571604
30
0
41
1
10
84.0535628595787
20
-0.365988515957042
30
0
41
1
10
84.1400920096208
20
-0.832541598991781
30
0
41
1
10
84.2093153296544
20
-1.21363037890839
30
0
41
1
10
84.3477619697217
20
-1.98263151378282
30
0
41
1
10
84.4169852897552
20
-2.37052655749176
30
0
41
1
10
84.5554319298225
20
-3.14227261988674
30
0
41
1
10
84.6246552498561
20
-3.52609338554635
30
0
41
1
10
84.7631018899234
20
-4.27754968633659
30
0
41
1
10
84.832325209957
20
-4.64514543240094
30
0
41
1
10
84.9707718500242
20
-5.35180471815917
30
0
41
1
10
85.0399951700579
20
-5.69082595552052
30
0
41
1
10
85.1784418101252
20
-6.32904513382184
30
0
41
1
10
85.2476651301587
20
-6.62820710454201
30
0
41
1
10
85.386111770226
20
-7.17768142896267
30
0
41
1
10
85.4553350902596
20
-7.42797184738347
30
0
41
1
10
85.5937817303268
20
-7.87383739561892
30
0
41
1
10
85.6630050503604
20
-8.06940846210074
30
0
41
1
10
85.8014516904276
20
-8.40353056821056
30
0
41
1
10
85.8706750104612
20
-8.54209431165216
30
0
41
1
10
86.0091216505285
20
-8.76331952791355
30
0
41
1
10
86.0783449705621
20
-8.84600541854547
30
0
41
1
10
86.2167916106293
20
-8.95943598584378
30
0
41
1
10
86.2860149306629
20
-8.99021008623888
30
0
41
1
10
86.3638911657007
20
-8.99897231125163
30
0
41
1
10
86.372544080705
20
-8.99958768773331
30
0
41
1
10
86.3898499107134
20
-9.00011505621833
30
0
41
1
10
86.3985028257176
20
-9.00002898728553
30
0
41
1
10
86.4244615707301
20
-8.99871434064841
30
0
41
1
10
86.4417674007386
20
-8.99642450488989
30
0
41
1
10
86.4936848907638
20
-8.98516093634649
30
0
41
1
10
86.5282965507806
20
-8.97179018515166
30
0
41
1
10
86.632131530831
20
-8.91295460372839
30
0
41
1
10
86.7013548508646
20
-8.84869676689195
30
0
41
1
10
86.8398014909318
20
-8.66541349423366
30
0
41
1
10
86.9090248109654
20
-8.54636115247428
30
0
41
1
10
87.0474714510327
20
-8.25129134954486
30
0
41
1
10
87.1166947710664
20
-8.07525644676636
30
0
41
1
10
87.2551414111336
20
-7.66727686002784
30
0
41
1
10
87.3243647311672
20
-7.43533010743496
30
0
41
1
10
87.4628113712344
20
-6.92014858177089
30
0
41
1
10
87.5320346912681
20
-6.63692977948222
30
0
41
1
10
87.6704813313353
20
-6.0271899082372
30
0
41
1
10
87.7397046513689
20
-5.7007007000872
30
0
41
1
10
87.8781512914361
20
-5.01503901411505
30
0
41
1
10
87.9473746114697
20
-4.65590766729184
30
0
41
1
10
88.085821251537
20
-3.91708986895347
30
0
41
1
10
88.1550445715707
20
-3.53744500950933
30
0
41
1
10
88.2242678916042
20
-3.15370342357292
30
0
0
SPLINE
5
E4
100
AcDbEntity
8
1
62
256
6
ByLayer
370
13
48
1
60
0
100
AcDbSpline
70
4
71
3
72
22
73
18
40
0
40
0
40
0
40
0
40
0.125
40
0.125
40
0.25
40
0.25
40
0.375
40
0.375
40
0.5
40
0.5
40
0.625
40
0.625
40
0.75
40
0.75
40
0.875
40
0.875
40
1
40
1
40
1
40
1
41
1
10
78.6
20
3.99046204085425
30
0
41
1
10
78.6700302169604
20
4.36923681826235
30
0
41
1
10
78.7400604339207
20
4.73918534337392
30
0
41
1
10
78.8801208678414
20
5.44877114907769
30
0
41
1
10
78.9501510848017
20
5.78836382975157
30
0
41
1
10
79.0902115187224
20
6.42572056985179
30
0
41
1
10
79.1602417356827
20
6.72344771626086
30
0
41
1
10
79.3003021696034
20
7.26804291393194
30
0
41
1
10
79.3703323865637
20
7.51488977091844
30
0
41
1
10
79.5103928204844
20
7.95208044057432
30
0
41
1
10
79.5804230374447
20
8.14242234199878
30
0
41
1
10
79.7204834713655
20
8.46470094935231
30
0
41
1
10
79.7905136883257
20
8.59665319584516
30
0
41
1
10
79.9305741222464
20
8.80377577771671
30
0
41
1
10
80.0006043392068
20
8.87897322566133
30
0
41
1
10
80.1406647731274
20
8.97706964654202
30
0
41
1
10
80.2106949900877
20
9
30
0
41
1
10
80.2807252070481
20
9
30
0
0
SPLINE
5
E5
100
AcDbEntity
8
1
62
256
6
ByLayer
370
13
48
1
60
0
100
AcDbSpline
70
4
71
3
72
81
73
77
40
0
40
0
40
0
40
0
40
0.0312500000000005
40
0.0312500000000005
40
0.062500000000001
40
0.062500000000001
40
0.0937500000000015
40
0.0937500000000015
40
0.125000000000002
40
0.125000000000002
40
0.156250000000002
40
0.156250000000002
40
0.187500000000003
40
0.187500000000003
40
0.218750000000003
40
0.218750000000003
40
0.250000000000004
40
0.250000000000004
40
0.281250000000005
40
0.281250000000005
40
0.312500000000005
40
0.312500000000005
40
0.328125000000005
40
0.328125000000005
40
0.335937500000005
40
0.335937500000005
40
0.339843750000005
40
0.339843750000005
40
0.343750000000005
40
0.343750000000005
40
0.375000000000005
40
0.375000000000005
40
0.406250000000005
40
0.406250000000005
40
0.437500000000005
40
0.437500000000005
40
0.468750000000005
40
0.468750000000005
40
0.500000000000005
40
0.500000000000005
40
0.531250000000006
40
0.531250000000006
40
0.562500000000006
40
0.562500000000006
40
0.593750000000006
40
0.593750000000006
40
0.625000000000006
40
0.625000000000006
40
0.656250000000006
40
0.656250000000006
40
0.671875000000006
40
0.671875000000006
40
0.675781250000006
40
0.675781250000006
40
0.679687500000006
40
0.687500000000006
40
0.687500000000006
40
0.718750000000006
40
0.718750000000006
40
0.750000000000005
40
0.750000000000005
40
0.781250000000004
40
0.781250000000004
40
0.812500000000004
40
0.812500000000004
40
0.843750000000003
40
0.843750000000003
40
0.875000000000003
40
0.875000000000003
40
0.906250000000002
40
0.906250000000002
40
0.937500000000001
40
0.937500000000001
40
0.968750000000001
40
0.968750000000001
40
1
40
1
40
1
40
1
41
1
10
81.0823577205164
20
9
30
0
41
1
10
81.1567526181319
20
9
30
0
41
1
10
81.2311475157474
20
8.97411268654582
30
0
41
1
10
81.3799373109784
20
8.86297986936106
30
0
41
1
10
81.4543322085939
20
8.777692047236
30
0
41
1
10
81.6031220038249
20
8.54264212955823
30
0
41
1
10
81.6775169014404
20
8.39284482932922
30
0
41
1
10
81.8263066966713
20
8.02741039222209
30
0
41
1
10
81.9007015942869
20
7.81175620647846
30
0
41
1
10
82.0494913895179
20
7.31781897969171
30
0
41
1
10
82.1238862871334
20
7.03954507649132
30
0
41
1
10
82.2726760823643
20
6.42830037614542
30
0
41
1
10
82.3470709799799
20
6.09536569314596
30
0
41
1
10
82.4958607752109
20
5.38676812022732
30
0
41
1
10
82.5702556728263
20
5.01116047388785
30
0
41
1
10
82.7190454680573
20
4.23181384718211
30
0
41
1
10
82.793440365673
20
3.82813554842642
30
0
41
1
10
82.9422301609039
20
3.00807755534694
30
0
41
1
10
83.0166250585194
20
2.59174998753403
30
0
41
1
10
83.1654148537503
20
1.76091256060062
30
0
41
1
10
83.2398097513658
20
1.34643703060931
30
0
41
1
10
83.3514020977891
20
0.735298214235002
30
0
41
1
10
83.3885995465968
20
0.533327069138551
30
0
41
1
10
83.4443957198084
20
0.233926008538447
30
0
41
1
10
83.4629944442123
20
0.134716777850002
30
0
41
1
10
83.4908925308182
20
-0.0131060752654832
30
0
41
1
10
83.5001918930201
20
-0.0622822930192797
30
0
41
1
10
83.518790617424
20
-0.161163344775133
30
0
41
1
10
83.528089979626
20
-0.210764650357959
30
0
41
1
10
83.6117842394433
20
-0.658545150581659
30
0
41
1
10
83.6861791370588
20
-1.06642914151362
30
0
41
1
10
83.8349689322898
20
-1.89128982715377
30
0
41
1
10
83.9093638299053
20
-2.30824367050423
30
0
41
1
10
84.0581536251364
20
-3.13789396825527
30
0
41
1
10
84.1325485227518
20
-3.55054757748462
30
0
41
1
10
84.2813383179828
20
-4.35651320044988
30
0
41
1
10
84.3557332155983
20
-4.74976782749226
30
0
41
1
10
84.5045230108293
20
-5.50164882840502
30
0
41
1
10
84.5789179084449
20
-5.86021506317832
30
0
41
1
10
84.7277077036758
20
-6.52904392198693
30
0
41
1
10
84.8021026012913
20
-6.83925824491288
30
0
41
1
10
84.9508923965224
20
-7.40100249880342
30
0
41
1
10
85.0252872941378
20
-7.65250767891567
30
0
41
1
10
85.1740770893688
20
-8.09088308921963
30
0
41
1
10
85.2484719869842
20
-8.27775627285425
30
0
41
1
10
85.3972617822153
20
-8.58568196512636
30
0
41
1
10
85.4716566798307
20
-8.70676076756359
30
0
41
1
10
85.6204464750619
20
-8.88621399514537
30
0
41
1
10
85.6948413726773
20
-8.94462811230304
30
0
41
1
10
85.8064337191004
20
-8.9900111737966
30
0
41
1
10
85.8436311679083
20
-8.99812073935593
30
0
41
1
10
85.890127978918
20
-9.00010584044219
30
0
41
1
10
85.8994273411198
20
-9.0000976128733
30
0
41
1
10
85.9180260655237
20
-8.99927016004855
30
0
41
1
10
85.9459241521296
20
-8.99680655046828
30
0
41
1
10
85.9738222387354
20
-8.99060247922222
30
0
41
1
10
86.0668158607548
20
-8.96129952961161
30
0
41
1
10
86.1412107583702
20
-8.91017111282895
30
0
41
1
10
86.2900005536012
20
-8.74592192469788
30
0
41
1
10
86.3643954512166
20
-8.63276059819765
30
0
41
1
10
86.5131852464477
20
-8.34084138865254
30
0
41
1
10
86.5875801440633
20
-8.16205497376225
30
0
41
1
10
86.7363699392943
20
-7.73946077548348
30
0
41
1
10
86.8107648369098
20
-7.49564679431086
30
0
41
1
10
86.9595546321408
20
-6.94831027269967
30
0
41
1
10
87.0339495297563
20
-6.6448091341727
30
0
41
1
10
87.1827393249873
20
-5.9879339510845
30
0
41
1
10
87.2571342226028
20
-5.63460583437811
30
0
41
1
10
87.4059240178336
20
-4.8914045862586
30
0
41
1
10
87.4803189154493
20
-4.50159092696461
30
0
41
1
10
87.6291087106803
20
-3.70060906163576
30
0
41
1
10
87.7035036082958
20
-3.28949931556184
30
0
41
1
10
87.8522934035267
20
-2.46115229759974
30
0
41
1
10
87.9266883011422
20
-2.04396008605559
30
0
41
1
10
88.0754780963732
20
-1.21711529104127
30
0
41
1
10
88.1498729939888
20
-0.807488067191485
30
0
41
1
10
88.2242678916042
20
-0.407147166145336
30
0
0
SPLINE
5
E6
100
AcDbEntity
8
1
62
256
6
ByLayer
370
13
48
1
60
0
100
AcDbSpline
70
4
71
3
72
20
73
16
40
0
40
0
40
0
40
0
40
0.125
40
0.125
40
0.25
40
0.25
40
0.375
40
0.375
40
0.5
40
0.5
40
0.625
40
0.625
40
0.75
40
0.75
40
1
40
1
40
1
40
1
41
1
10
78.6
20
6.4457242460818
30
0
41
1
10
78.6493439066329
20
6.65914173043549
30
0
41
1
10
78.6986878132657
20
6.86129466216991
30
0
41
1
10
78.7973756265313
20
7.2401672332272
30
0
41
1
10
78.8467195331641
20
7.41688339586989
30
0
41
1
10
78.9454073464296
20
7.74281317680433
30
0
41
1
10
78.9947512530625
20
7.89202569932667
30
0
41
1
10
79.0934390663282
20
8.16179439441063
30
0
41
1
10
79.142782972961
20
8.28235179062085
30
0
41
1
10
79.2414707862265
20
8.49456939708463
30
0
41
1
10
79.2908146928594
20
8.58623278856894
30
0
41
1
10
79.3895025061249
20
8.74126678739583
30
0
41
1
10
79.4388464127579
20
8.8046419698432
30
0
41
1
10
79.5868781326562
20
8.95432477934048
30
0
41
1
10
79.6855659459218
20
9
30
0
41
1
10
79.7842537591875
20
9
30
0
0
SPLINE
5
E7
100
AcDbEntity
8
1
62
256
6
ByLayer
370
13
48
1
60
0
100
AcDbSpline
70
4
71
3
72
85
73
81
40
0
40
0
40
0
40
0
40
0.0312499999999974
40
0.0312499999999974
40
0.0624999999999949
40
0.0624999999999949
40
0.0937499999999923
40
0.0937499999999923
40
0.12499999999999
40
0.12499999999999
40
0.156249999999987
40
0.156249999999987
40
0.187499999999985
40
0.187499999999985
40
0.218749999999982
40
0.218749999999982
40
0.249999999999979
40
0.249999999999979
40
0.281249999999977
40
0.281249999999977
40
0.312499999999974
40
0.312499999999974
40
0.316406249999974
40
0.316406249999974
40
0.320312499999974
40
0.328124999999974
40
0.328124999999974
40
0.343749999999974
40
0.343749999999974
40
0.374999999999974
40
0.374999999999974
40
0.406249999999973
40
0.406249999999973
40
0.437499999999973
40
0.437499999999973
40
0.468749999999973
40
0.468749999999973
40
0.499999999999972
40
0.499999999999972
40
0.531249999999972
40
0.531249999999972
40
0.562499999999971
40
0.562499999999971
40
0.593749999999971
40
0.593749999999971
40
0.62499999999997
40
0.62499999999997
40
0.628906249999971
40
0.628906249999971
40
0.632812499999971
40
0.632812499999971
40
0.640624999999971
40
0.640624999999971
40
0.656249999999972
40
0.656249999999972
40
0.687499999999975
40
0.687499999999975
40
0.718749999999977
40
0.718749999999977
40
0.74999999999998
40
0.74999999999998
40
0.781249999999982
40
0.781249999999982
40
0.812499999999985
40
0.812499999999985
40
0.843749999999987
40
0.843749999999987
40
0.87499999999999
40
0.87499999999999
40
0.906249999999992
40
0.906249999999992
40
0.937499999999994
40
0.937499999999994
40
0.945312499999995
40
0.945312499999995
40
0.953124999999996
40
0.953124999999996
40
0.968749999999997
40
0.968749999999997
40
1
40
1
40
1
40
1
41
1
10
80.5858862726558
20
9
30
0
41
1
10
80.6654527478532
20
9
30
0
41
1
10
80.7450192230506
20
8.97037427471872
30
0
41
1
10
80.9041521734453
20
8.8426817931863
30
0
41
1
10
80.9837186486427
20
8.74455611874421
30
0
41
1
10
81.1428515990375
20
8.47400939861254
30
0
41
1
10
81.2224180742348
20
8.3015418285336
30
0
41
1
10
81.3815510246296
20
7.88155093312497
30
0
41
1
10
81.461117499827
20
7.63401079721774
30
0
41
1
10
81.6202504502216
20
7.06922323883055
30
0
41
1
10
81.699816925419
20
6.75199950328781
30
0
41
1
10
81.8589498758138
20
6.05922997365394
30
0
41
1
10
81.9385163510112
20
5.68374571682796
30
0
41
1
10
82.0976493014059
20
4.8905736253808
30
0
41
1
10
82.1772157766035
20
4.47296867177403
30
0
41
1
10
82.3363487269982
20
3.61416575870297
30
0
41
1
10
82.4159152021955
20
3.17304893132655
30
0
41
1
10
82.5750481525903
20
2.28577411489286
30
0
41
1
10
82.6546146277876
20
1.83967616127285
30
0
41
1
10
82.8137475781824
20
0.958747577608364
30
0
41
1
10
82.8933140533798
20
0.52394710294314
30
0
41
1
10
82.9828263379768
20
0.0482721348961945
30
0
41
1
10
82.9927721473765
20
-0.0042695071944649
30
0
41
1
10
83.0126637661758
20
-0.109767888262496
30
0
41
1
10
83.0425011943748
20
-0.268577647690051
30
0
41
1
10
83.0723386225739
20
-0.428981352277077
30
0
41
1
10
83.1320134789719
20
-0.751644712567298
30
0
41
1
10
83.1717967165706
20
-0.969235832738377
30
0
41
1
10
83.2911464293667
20
-1.62701982754251
30
0
41
1
10
83.3707129045641
20
-2.07232285317238
30
0
41
1
10
83.5298458549589
20
-2.96080231849362
30
0
41
1
10
83.6094123301563
20
-3.40392321923176
30
0
41
1
10
83.7685452805511
20
-4.2697624714057
30
0
41
1
10
83.8481117557484
20
-4.69240198839063
30
0
41
1
10
84.0072447061432
20
-5.49851879926564
30
0
41
1
10
84.0868111813405
20
-5.88191191880836
30
0
41
1
10
84.2459441317353
20
-6.59281650040646
30
0
41
1
10
84.3255106069327
20
-6.92026161588282
30
0
41
1
10
84.4846435573274
20
-7.50693888653129
30
0
41
1
10
84.5642100325248
20
-7.76614073006269
30
0
41
1
10
84.7233429829195
20
-8.20989886212686
30
0
41
1
10
84.8029094581169
20
-8.39446592488466
30
0
41
1
10
84.9620424085117
20
-8.68871876352688
30
0
41
1
10
85.041608883709
20
-8.79844741295273
30
0
41
1
10
85.2007418341039
20
-8.94813390205093
30
0
41
1
10
85.2803083093011
20
-8.98814985974127
30
0
41
1
10
85.3698205938982
20
-8.99891292870794
30
0
41
1
10
85.3797664032979
20
-8.99963478241094
30
0
41
1
10
85.3996580220972
20
-9.00015017377658
30
0
41
1
10
85.4096038314969
20
-8.99994662757905
30
0
41
1
10
85.4394412596959
20
-8.99793366837483
30
0
41
1
10
85.4593328784954
20
-8.99471717859262
30
0
41
1
10
85.5190077348933
20
-8.97921238068264
30
0
41
1
10
85.558790972492
20
-8.96106325402161
30
0
41
1
10
85.678140685288
20
-8.88149348211616
30
0
41
1
10
85.7577071604854
20
-8.79481801914659
30
0
41
1
10
85.9168401108802
20
-8.54780330608918
30
0
41
1
10
85.9964065860776
20
-8.38741434113049
30
0
41
1
10
86.1555395364724
20
-7.99130725824725
30
0
41
1
10
86.2351060116698
20
-7.75556658481199
30
0
41
1
10
86.3942389620645
20
-7.21310109944821
30
0
41
1
10
86.4738054372618
20
-6.90639328348868
30
0
41
1
10
86.6329383876567
20
-6.23247080738216
30
0
41
1
10
86.712504862854
20
-5.8653124370675
30
0
41
1
10
86.8716378132488
20
-5.08598340979054
30
0
41
1
10
86.9512042884462
20
-4.67389372724531
30
0
41
1
10
87.1103372388409
20
-3.82308623655288
30
0
41
1
10
87.1899037140383
20
-3.38445134900809
30
0
41
1
10
87.349036664433
20
-2.49927784253558
30
0
41
1
10
87.4286031396305
20
-2.05280353130019
30
0
41
1
10
87.5877360900253
20
-1.16873444825103
30
0
41
1
10
87.6673025652225
20
-0.731174711988928
30
0
41
1
10
87.7667606592192
20
-0.198100784621516
30
0
41
1
10
87.7866522780186
20
-0.0922883630030071
30
0
41
1
10
87.8264355156173
20
0.118287716804787
30
0
41
1
10
87.8463271344166
20
0.22433748910538
30
0
41
1
10
87.9060019908147
20
0.544517760744526
30
0
41
1
10
87.9457852284135
20
0.760686983633178
30
0
41
1
10
88.0651349412095
20
1.41502403590337
30
0
41
1
10
88.1447014164069
20
1.85912691691468
30
0
41
1
10
88.2242678916042
20
2.30353042216666
30
0
0
SPLINE
5
E8
100
AcDbEntity
8
1
62
256
6
ByLayer
370
13
48
1
60
0
100
AcDbSpline
70
4
71
3
72
14
73
10
40
0
40
0
40
0
40
0
40
0.25
40
0.25
40
0.5
40
0.5
40
0.75
40
0.75
40
1
40
1
40
1
40
1
41
1
10
78.6
20
8.16470333634626
30
0
41
1
10
78.6573151926107
20
8.30958960331131
30
0
41
1
10
78.7146303852212
20
8.43500418848936
30
0
41
1
10
78.8292607704423
20
8.64709863202
30
0
41
1
10
78.8865759630529
20
8.73378687894146
30
0
41
1
10
79.001206348274
20
8.87008296973124
30
0
41
1
10
79.0585215408846
20
8.91970168787466
30
0
41
1
10
79.1731519261057
20
8.98465441614314
30
0
41
1
10
79.2304671187163
20
9
30
0
41
1
10
79.2877823113269
20
9
30
0
0
SPLINE
5
E9
100
AcDbEntity
8
1
62
256
6
ByLayer
370
13
48
1
60
0
100
AcDbSpline
70
4
71
3
72
84
73
80
40
0
40
0
40
0
40
0
40
0.0312500000000018
40
0.0312500000000018
40
0.0625000000000037
40
0.0625000000000037
40
0.0937500000000055
40
0.0937500000000055
40
0.125000000000007
40
0.125000000000007
40
0.156250000000009
40
0.156250000000009
40
0.187500000000011
40
0.187500000000011
40
0.218750000000013
40
0.218750000000013
40
0.250000000000015
40
0.250000000000015
40
0.281250000000017
40
0.281250000000017
40
0.289062500000017
40
0.292968750000017
40
0.292968750000017
40
0.296875000000017
40
0.296875000000017
40
0.312500000000017
40
0.312500000000017
40
0.343750000000017
40
0.343750000000017
40
0.375000000000017
40
0.375000000000017
40
0.406250000000018
40
0.406250000000018
40
0.437500000000018
40
0.437500000000018
40
0.468750000000018
40
0.468750000000018
40
0.500000000000018
40
0.500000000000018
40
0.531250000000018
40
0.531250000000018
40
0.562500000000018
40
0.562500000000018
40
0.578125000000018
40
0.578125000000018
40
0.585937500000018
40
0.589843750000018
40
0.589843750000018
40
0.593750000000018
40
0.593750000000018
40
0.625000000000017
40
0.625000000000017
40
0.656250000000015
40
0.656250000000015
40
0.687500000000014
40
0.687500000000014
40
0.718750000000013
40
0.718750000000013
40
0.750000000000012
40
0.750000000000012
40
0.78125000000001
40
0.78125000000001
40
0.812500000000009
40
0.812500000000009
40
0.843750000000008
40
0.843750000000008
40
0.875000000000006
40
0.875000000000006
40
0.882812500000006
40
0.882812500000006
40
0.890625000000005
40
0.890625000000005
40
0.906250000000005
40
0.906250000000005
40
0.937500000000003
40
0.937500000000003
40
0.968750000000001
40
0.968750000000001
40
1
40
1
40
1
40
1
41
1
10
80.0894148247952
20
9
30
0
41
1
10
80.1741528775744
20
9
30
0
41
1
10
80.2588909303537
20
8.96638033532784
30
0
41
1
10
80.4283670359122
20
8.82091025139022
30
0
41
1
10
80.5131050886915
20
8.70897963105
30
0
41
1
10
80.6825811942501
20
8.40032304705582
30
0
41
1
10
80.7673192470293
20
8.20353751869604
30
0
41
1
10
80.9367953525879
20
7.72538531365902
30
0
41
1
10
81.0215334053671
20
7.44400582393405
30
0
41
1
10
81.1910095109255
20
6.80483971365385
30
0
41
1
10
81.2757475637049
20
6.44710016763835
30
0
41
1
10
81.4452236692633
20
5.67086479606888
30
0
41
1
10
81.5299617220426
20
5.25246580298173
30
0
41
1
10
81.6994378276011
20
4.37581737555266
30
0
41
1
10
81.7841758803804
20
3.91768413184556
30
0
41
1
10
81.9536519859389
20
2.98440182132654
30
0
41
1
10
82.0383900387181
20
2.50935315899471
30
0
41
1
10
82.2078661442768
20
1.56362317053563
30
0
41
1
10
82.292604197056
20
1.09300325879576
30
0
41
1
10
82.3985267630301
20
0.518352474402064
30
0
41
1
10
82.4303035328222
20
0.346961560011209
30
0
41
1
10
82.4620803026146
20
0.177326827129576
30
0
41
1
10
82.4832648158094
20
0.0646526259904761
30
0
41
1
10
82.4938570724067
20
0.0086645310191216
30
0
41
1
10
82.5468183553937
20
-0.272103668850093
30
0
41
1
10
82.5891873817833
20
-0.500144503204297
30
0
41
1
10
82.7162944609523
20
-1.1919340489894
30
0
41
1
10
82.8010325137315
20
-1.66349258195334
30
0
41
1
10
82.9705086192901
20
-2.6097048181685
30
0
41
1
10
83.0552466720693
20
-3.08429399522291
30
0
41
1
10
83.2247227776279
20
-4.01506178262051
30
0
41
1
10
83.309460830407
20
-4.47113790547149
30
0
41
1
10
83.4789369359656
20
-5.34209178637451
30
0
41
1
10
83.5636749887449
20
-5.75685351519678
30
0
41
1
10
83.7331510943034
20
-6.52449808261062
30
0
41
1
10
83.8178891470827
20
-6.87728677173789
30
0
41
1
10
83.9873652526412
20
-7.50570483527412
30
0
41
1
10
84.0721033054204
20
-7.78129132049867
30
0
41
1
10
84.2415794109789
20
-8.24757896221496
30
0
41
1
10
84.3263174637582
20
-8.43829689343207
30
0
41
1
10
84.4957935693168
20
-8.73507633660441
30
0
41
1
10
84.580531622096
20
-8.84119978637244
30
0
41
1
10
84.707638701265
20
-8.94208958920723
30
0
41
1
10
84.7500077276545
20
-8.96604942713068
30
0
41
1
10
84.813561267239
20
-8.98845836170005
30
0
41
1
10
84.8453380370311
20
-8.99628300417402
30
0
41
1
10
84.8771148068234
20
-8.99924298178044
30
0
41
1
10
84.8982993200182
20
-9.00015930348306
30
0
41
1
10
84.9088915766156
20
-9.00009227827394
30
0
41
1
10
85.0042218859923
20
-8.9947415317051
30
0
41
1
10
85.0889599387715
20
-8.95592259900417
30
0
41
1
10
85.25843604433
20
-8.79941199071388
30
0
41
1
10
85.3431740971094
20
-8.68164067092152
30
0
41
1
10
85.5126502026679
20
-8.36107405809332
30
0
41
1
10
85.5973882554471
20
-8.15822170990018
30
0
41
1
10
85.7668643610056
20
-7.66824683648514
30
0
41
1
10
85.8516024137849
20
-7.38111553015247
30
0
41
1
10
86.0210785193434
20
-6.73132172561253
30
0
41
1
10
86.1058165721226
20
-6.36871043561294
30
0
41
1
10
86.2752926776813
20
-5.58406912322869
30
0
41
1
10
86.3600307304605
20
-5.16213845784111
30
0
41
1
10
86.5295068360191
20
-4.28001628246241
30
0
41
1
10
86.6142448887983
20
-3.81994094199013
30
0
41
1
10
86.7837209943568
20
-2.88436653739657
30
0
41
1
10
86.868459047136
20
-2.40896567637964
30
0
41
1
10
87.0379351526946
20
-1.46391226614264
30
0
41
1
10
87.1226732054738
20
-0.994317999728111
30
0
41
1
10
87.2285957714479
20
-0.421600177656643
30
0
41
1
10
87.2497802846427
20
-0.307758527738059
30
0
41
1
10
87.2921493110323
20
-0.0816954166652692
30
0
41
1
10
87.3133338242271
20
0.0299905159833997
30
0
41
1
10
87.3768873638115
20
0.368333173912447
30
0
41
1
10
87.4192563902012
20
0.597208223072045
30
0
41
1
10
87.5463634693701
20
1.29109272755727
30
0
41
1
10
87.6311015221494
20
1.76350115772834
30
0
41
1
10
87.8005776277079
20
2.70999857468769
30
0
41
1
10
87.8853156804871
20
3.18401994992223
30
0
41
1
10
88.0547917860457
20
4.11204982097914
30
0
41
1
10
88.139529838825
20
4.56595387111909
30
0
41
1
10
88.2242678916042
20
4.99847384717543
30
0
0
SPLINE
5
EA
100
AcDbEntity
8
1
62
256
6
ByLayer
370
13
48
1
60
0
100
AcDbSpline
70
4
71
3
72
8
73
4
40
0
40
0
40
0
40
0
40
1
40
1
40
1
40
1
41
1
10
78.6000000000001
20
8.9405520297606
30
0
41
1
10
78.6637702878222
20
8.98099497365803
30
0
41
1
10
78.7275405756442
20
9
30
0
41
1
10
78.7913108634663
20
9
30
0
0
SPLINE
5
EB
100
AcDbEntity
8
1
62
256
6
ByLayer
370
13
48
1
60
0
100
AcDbSpline
70
4
71
3
72
85
73
81
40
0
40
0
40
0
40
0
40
0.0312499999999991
40
0.0312499999999991
40
0.0624999999999982
40
0.0624999999999982
40
0.0937499999999973
40
0.0937499999999973
40
0.124999999999997
40
0.124999999999997
40
0.156249999999996
40
0.156249999999996
40
0.187499999999995
40
0.187499999999995
40
0.218749999999994
40
0.218749999999994
40
0.249999999999993
40
0.249999999999993
40
0.265624999999993
40
0.265624999999993
40
0.273437499999992
40
0.277343749999992
40
0.277343749999992
40
0.281249999999992
40
0.281249999999992
40
0.312499999999991
40
0.312499999999991
40
0.34374999999999
40
0.34374999999999
40
0.374999999999989
40
0.374999999999989
40
0.406249999999988
40
0.406249999999988
40
0.437499999999987
40
0.437499999999987
40
0.468749999999985
40
0.468749999999985
40
0.499999999999984
40
0.499999999999984
40
0.531249999999983
40
0.531249999999983
40
0.546874999999982
40
0.546874999999982
40
0.554687499999982
40
0.554687499999982
40
0.558593749999982
40
0.558593749999982
40
0.562499999999982
40
0.562499999999982
40
0.593749999999984
40
0.593749999999984
40
0.624999999999985
40
0.624999999999985
40
0.656249999999987
40
0.656249999999987
40
0.687499999999988
40
0.687499999999988
40
0.718749999999989
40
0.718749999999989
40
0.749999999999991
40
0.749999999999991
40
0.781249999999992
40
0.781249999999992
40
0.812499999999993
40
0.812499999999993
40
0.828124999999994
40
0.828124999999994
40
0.835937499999994
40
0.835937499999994
40
0.843749999999994
40
0.843749999999994
40
0.874999999999995
40
0.874999999999995
40
0.906249999999997
40
0.906249999999997
40
0.937499999999998
40
0.937499999999998
40
0.968749999999999
40
0.968749999999999
40
1
40
1
40
1
40
1
41
1
10
79.5929433769346
20
9
30
0
41
1
10
79.6828530072957
20
9
30
0
41
1
10
79.7727626376569
20
8.96212987037484
30
0
41
1
10
79.9525818983792
20
8.79765369708994
30
0
41
1
10
80.0424915287402
20
8.67094065176394
30
0
41
1
10
80.2223107894625
20
8.32156449448243
30
0
41
1
10
80.3122204198237
20
8.0988274513289
30
0
41
1
10
80.4920396805461
20
7.5590462086887
30
0
41
1
10
80.5819493109072
20
7.24199910247904
30
0
41
1
10
80.7617685716294
20
6.52538464060063
30
0
41
1
10
80.8516782019906
20
6.12589931653017
30
0
41
1
10
81.0314974627129
20
5.26517152959556
30
0
41
1
10
81.121407093074
20
4.80407206678547
30
0
41
1
10
81.3012263537963
20
3.84635116663438
30
0
41
1
10
81.3911359841575
20
3.34988295993548
30
0
41
1
10
81.5709552448797
20
2.34847982303998
30
0
41
1
10
81.6608648752408
20
1.84365975274912
30
0
41
1
10
81.7957293207825
20
1.09784154081612
30
0
41
1
10
81.8406841359631
20
0.85110023997791
30
0
41
1
10
81.908116358734
20
0.485588615862525
30
0
41
1
10
81.9418324701195
20
0.303978296673335
30
0
41
1
10
81.9755485815049
20
0.124381589300441
30
0
41
1
10
81.9980259890951
20
0.0051277104229541
30
0
41
1
10
82.0092646928903
20
-0.0542332905773151
30
0
41
1
10
82.1104130270467
20
-0.592046921818053
30
0
41
1
10
82.2003226574077
20
-1.08538614738754
30
0
41
1
10
82.3801419181301
20
-2.08398837685004
30
0
41
1
10
82.4700515484911
20
-2.58918791503825
30
0
41
1
10
82.6498708092134
20
-3.58718787764479
30
0
41
1
10
82.7397804395746
20
-4.07986497196671
30
0
41
1
10
82.9195997002969
20
-5.02564880206441
30
0
41
1
10
83.009509330658
20
-5.47860026161231
30
0
41
1
10
83.1893285913803
20
-6.31923057072066
30
0
41
1
10
83.2792382217415
20
-6.70677312701366
30
0
41
1
10
83.4590574824637
20
-7.39693487286226
30
0
41
1
10
83.5489671128248
20
-7.69948494991533
30
0
41
1
10
83.7287863735472
20
-8.20931121041326
30
0
41
1
10
83.8186960039083
20
-8.4166034439188
30
0
41
1
10
83.9985152646305
20
-8.73569192152812
30
0
41
1
10
84.0884248949916
20
-8.84757018957291
30
0
41
1
10
84.2232893405334
20
-8.95001407099841
30
0
41
1
10
84.268244155714
20
-8.97332447698514
30
0
41
1
10
84.3356763784848
20
-8.99321950026032
30
0
41
1
10
84.3581537860751
20
-8.9973417679646
30
0
41
1
10
84.3918698974605
20
-8.99992725601621
30
0
41
1
10
84.4031086012557
20
-9.00019113064712
30
0
41
1
10
84.4255860088459
20
-8.99954108057653
30
0
41
1
10
84.4368247126411
20
-8.99862296032876
30
0
41
1
10
84.5379730467974
20
-8.98489394835698
30
0
41
1
10
84.6278826771585
20
-8.9336333683039
30
0
41
1
10
84.8077019378808
20
-8.74074082874824
30
0
41
1
10
84.8976115682419
20
-8.59900433169844
30
0
41
1
10
85.0774308289643
20
-8.21919145784764
30
0
41
1
10
85.1673404593254
20
-7.98105026184541
30
0
41
1
10
85.3471597200476
20
-7.41165835079559
30
0
41
1
10
85.4370693504088
20
-7.0804182594793
30
0
41
1
10
85.6168886111312
20
-6.33819229895164
30
0
41
1
10
85.7067982414922
20
-5.92730074644581
30
0
41
1
10
85.8866175022144
20
-5.04769003342918
30
0
41
1
10
85.9765271325756
20
-4.57911922367964
30
0
41
1
10
86.1563463932979
20
-3.61083429767373
30
0
41
1
10
86.246256023659
20
-3.1112700792294
30
0
41
1
10
86.4260752843814
20
-2.10776471728144
30
0
41
1
10
86.5159849147425
20
-1.60392937299557
30
0
41
1
10
86.6508493602842
20
-0.862035992063369
30
0
41
1
10
86.6958041754648
20
-0.617007696710971
30
0
41
1
10
86.7632363982357
20
-0.254577505105487
30
0
41
1
10
86.7857138058259
20
-0.134616341389176
30
0
41
1
10
86.8306686210065
20
0.10336194240179
30
0
41
1
10
86.8531460285968
20
0.223002553836636
30
0
41
1
10
86.9655330665482
20
0.826305339670427
30
0
41
1
10
87.0554426969093
20
1.32295587802244
30
0
41
1
10
87.2352619576317
20
2.32463376562504
30
0
41
1
10
87.3251715879929
20
2.82958751553417
30
0
41
1
10
87.5049908487151
20
3.82285809896251
30
0
41
1
10
87.5949004790762
20
4.31104385313532
30
0
41
1
10
87.7747197397985
20
5.24352679732448
30
0
41
1
10
87.8646293701596
20
5.68766801777335
30
0
41
1
10
88.0444486308819
20
6.50703297973092
30
0
41
1
10
88.1343582612431
20
6.8821284230593
30
0
41
1
10
88.2242678916042
20
7.21359936415951
30
0
0
SPLINE
5
EC
100
AcDbEntity
8
1
62
256
6
ByLayer
370
13
48
1
60
0
100
AcDbSpline
70
4
71
3
72
108
73
104
40
0
40
0
40
0
40
0
40
0.0312500000000006
40
0.0312500000000006
40
0.0625000000000013
40
0.0625000000000013
40
0.0937500000000019
40
0.0937500000000019
40
0.109375000000002
40
0.109375000000002
40
0.125000000000003
40
0.125000000000003
40
0.140625000000003
40
0.140625000000003
40
0.156250000000004
40
0.156250000000004
40
0.171875000000004
40
0.171875000000004
40
0.187500000000004
40
0.187500000000004
40
0.218750000000005
40
0.218750000000005
40
0.250000000000005
40
0.250000000000005
40
0.257812500000006
40
0.257812500000006
40
0.261718750000006
40
0.261718750000006
40
0.265625000000006
40
0.265625000000006
40
0.281250000000007
40
0.281250000000007
40
0.312500000000009
40
0.312500000000009
40
0.343750000000011
40
0.343750000000011
40
0.359375000000012
40
0.359375000000012
40
0.375000000000013
40
0.375000000000013
40
0.390625000000014
40
0.390625000000014
40
0.406250000000015
40
0.406250000000015
40
0.421875000000016
40
0.421875000000016
40
0.437500000000017
40
0.437500000000017
40
0.468750000000018
40
0.468750000000018
40
0.50000000000002
40
0.50000000000002
40
0.515625000000021
40
0.515625000000021
40
0.523437500000021
40
0.523437500000021
40
0.531250000000021
40
0.531250000000021
40
0.562500000000021
40
0.562500000000021
40
0.593750000000021
40
0.593750000000021
40
0.625000000000021
40
0.625000000000021
40
0.640625000000021
40
0.640625000000021
40
0.656250000000021
40
0.656250000000021
40
0.671875000000021
40
0.671875000000021
40
0.687500000000021
40
0.687500000000021
40
0.71875000000002
40
0.71875000000002
40
0.75000000000002
40
0.75000000000002
40
0.781250000000019
40
0.781250000000019
40
0.789062500000019
40
0.789062500000019
40
0.792968750000019
40
0.792968750000019
40
0.796875000000019
40
0.796875000000019
40
0.812500000000017
40
0.812500000000017
40
0.843750000000014
40
0.843750000000014
40
0.875000000000011
40
0.875000000000011
40
0.89062500000001
40
0.89062500000001
40
0.906250000000008
40
0.906250000000008
40
0.921875000000007
40
0.921875000000007
40
0.937500000000006
40
0.937500000000006
40
0.953125000000004
40
0.953125000000004
40
0.968750000000003
40
0.968750000000003
40
1
40
1
40
1
40
1
41
1
10
79.096471929074
20
9
30
0
41
1
10
79.191553137017
20
9
30
0
41
1
10
79.2866343449601
20
8.95762178415185
30
0
41
1
10
79.4767967608461
20
8.77290106407628
30
0
41
1
10
79.5718779687891
20
8.63041835443107
30
0
41
1
10
79.7620403846751
20
8.23772311680673
30
0
41
1
10
79.8571215926182
20
7.98742166132828
30
0
41
1
10
79.9997434045328
20
7.53388457968603
30
0
41
1
10
80.0472840085042
20
7.36978924108908
30
0
41
1
10
80.1423652164473
20
7.01742008811678
30
0
41
1
10
80.1899058204187
20
6.82914866565253
30
0
41
1
10
80.2849870283618
20
6.4308329681663
30
0
41
1
10
80.3325276323333
20
6.22079285498208
30
0
41
1
10
80.4276088402763
20
5.78199679125237
30
0
41
1
10
80.4751494442479
20
5.5532463814535
30
0
41
1
10
80.5702306521908
20
5.08059085228808
30
0
41
1
10
80.6177712561624
20
4.83669208117189
30
0
41
1
10
80.7128524641055
20
4.33762437163969
30
0
41
1
10
80.7603930680769
20
4.08246193615702
30
0
41
1
10
80.9030148799914
20
3.30608829924614
30
0
41
1
10
80.9980960879344
20
2.77412418807322
30
0
41
1
10
81.1882585038204
20
1.7120842070957
30
0
41
1
10
81.2833397117636
20
1.18212878982166
30
0
41
1
10
81.4021912216924
20
0.536635891081232
30
0
41
1
10
81.425961523678
20
0.408366752121253
30
0
41
1
10
81.4616169766566
20
0.217443227942908
30
0
41
1
10
81.4735021276496
20
0.154048499819339
30
0
41
1
10
81.4972724296354
20
0.0277882443498072
30
0
41
1
10
81.5091575806281
20
-0.0349518352227562
30
0
41
1
10
81.5685833355925
20
-0.350702662532115
30
0
41
1
10
81.6161239395641
20
-0.60754632752267
30
0
41
1
10
81.7587457514786
20
-1.38702326741731
30
0
41
1
10
81.8538269594217
20
-1.91881690980637
30
0
41
1
10
82.0439893753077
20
-2.9807760158717
30
0
41
1
10
82.1390705832508
20
-3.51080997720371
30
0
41
1
10
82.2816923951654
20
-4.28113075110514
30
0
41
1
10
82.3292329991368
20
-4.53375425455926
30
0
41
1
10
82.4243142070798
20
-5.02671593182197
30
0
41
1
10
82.4718548110513
20
-5.26704757986286
30
0
41
1
10
82.5669360189944
20
-5.73160574617268
30
0
41
1
10
82.6144766229659
20
-5.95582606433314
30
0
41
1
10
82.7095578309089
20
-6.38471299356468
30
0
41
1
10
82.7570984348804
20
-6.58937437254605
30
0
41
1
10
82.8521796428234
20
-6.97624000836356
30
0
41
1
10
82.8997202467949
20
-7.15844053412258
30
0
41
1
10
82.994801454738
20
-7.49816258511368
30
0
41
1
10
83.0423420587095
20
-7.65568221245445
30
0
41
1
10
83.1849638706241
20
-8.08904034137052
30
0
41
1
10
83.280045078567
20
-8.32529431036625
30
0
41
1
10
83.4702074944531
20
-8.69030085060643
30
0
41
1
10
83.5652887023961
20
-8.81915247492063
30
0
41
1
10
83.7079105143106
20
-8.93849191248407
30
0
41
1
10
83.7554511182822
20
-8.96602467271669
30
0
41
1
10
83.8267620242395
20
-8.99032074236908
30
0
41
1
10
83.8505323262252
20
-8.9955886742051
30
0
41
1
10
83.8980729301967
20
-9.00072224937682
30
0
41
1
10
83.9218432321824
20
-9.00062357595954
30
0
41
1
10
84.0406947421112
20
-8.98676455782984
30
0
41
1
10
84.1357759500543
20
-8.93215129363992
30
0
41
1
10
84.3259383659403
20
-8.72142601236888
30
0
41
1
10
84.4210195738833
20
-8.56517694580452
30
0
41
1
10
84.6111819897694
20
-8.14471747600717
30
0
41
1
10
84.7062631977124
20
-7.88042922821472
30
0
41
1
10
84.8488850096269
20
-7.40696797363253
30
0
41
1
10
84.8964256135984
20
-7.23640871679089
30
0
41
1
10
84.9915068215414
20
-6.87166688156606
30
0
41
1
10
85.039047425513
20
-6.67748717903669
30
0
41
1
10
85.1341286334559
20
-6.26809076822857
30
0
41
1
10
85.1816692374275
20
-6.05287862588733
30
0
41
1
10
85.2767504453705
20
-5.60462095761571
30
0
41
1
10
85.324291049342
20
-5.3715812420794
30
0
41
1
10
85.4669128612565
20
-4.6512070409685
30
0
41
1
10
85.5619940691996
20
-4.14259814085978
30
0
41
1
10
85.7521564850856
20
-3.10043876321944
30
0
41
1
10
85.8472376930287
20
-2.56707256592847
30
0
41
1
10
86.0374001089147
20
-1.50590644892392
30
0
41
1
10
86.1324813168577
20
-0.978215674585527
30
0
41
1
10
86.2513328267865
20
-0.337239271521469
30
0
41
1
10
86.2751031287722
20
-0.20995710461861
30
0
41
1
10
86.3107585817509
20
-0.0206269868712354
30
0
41
1
10
86.3226437327438
20
0.0421177538196673
30
0
41
1
10
86.3464140347295
20
0.168458058458839
30
0
41
1
10
86.3582991857223
20
0.231891469801354
30
0
41
1
10
86.4177249406868
20
0.550283667841342
30
0
41
1
10
86.4652655446583
20
0.80893774775069
30
0
41
1
10
86.6078873565729
20
1.59273944834203
30
0
41
1
10
86.7029685645159
20
2.12592854517564
30
0
41
1
10
86.8931309804019
20
3.18682763784238
30
0
41
1
10
86.988212188345
20
3.71439544682866
30
0
41
1
10
87.1308340002594
20
4.47785434875956
30
0
41
1
10
87.178374604231
20
4.72766871588266
30
0
41
1
10
87.273455812174
20
5.21399591980079
30
0
41
1
10
87.3209964161455
20
5.45050225172321
30
0
41
1
10
87.4160776240885
20
5.90647176689706
30
0
41
1
10
87.4636182280601
20
6.12592894203024
30
0
41
1
10
87.5586994360032
20
6.54447753994182
30
0
41
1
10
87.6062400399746
20
6.74356407566984
30
0
41
1
10
87.7013212479176
20
7.11863359099894
30
0
41
1
10
87.7488618518891
20
7.29461329291357
30
0
41
1
10
87.8439430598322
20
7.6214403379083
30
0
41
1
10
87.8914836638036
20
7.7722862826314
30
0
41
1
10
88.0341054757182
20
8.18525231521733
30
0
41
1
10
88.1291866836612
20
8.40742598621802
30
0
41
1
10
88.2242678916042
20
8.57614725576786
30
0
0
SPLINE
5
ED
100
AcDbEntity
8
1
62
256
6
ByLayer
370
13
48
1
60
0
100
AcDbSpline
70
4
71
3
72
118
73
114
40
0
40
0
40
0
40
0
40
0.0312499999999997
40
0.0312499999999997
40
0.0468749999999996
40
0.0468749999999996
40
0.0624999999999996
40
0.0624999999999996
40
0.0781249999999995
40
0.0781249999999995
40
0.0937499999999995
40
0.0937499999999995
40
0.109374999999999
40
0.109374999999999
40
0.124999999999999
40
0.124999999999999
40
0.140624999999999
40
0.140624999999999
40
0.156249999999999
40
0.156249999999999
40
0.171874999999999
40
0.171874999999999
40
0.187499999999999
40
0.187499999999999
40
0.203124999999999
40
0.203124999999999
40
0.218749999999999
40
0.218749999999999
40
0.249999999999999
40
0.249999999999999
40
0.281249999999999
40
0.281249999999999
40
0.296874999999999
40
0.296874999999999
40
0.312499999999999
40
0.312499999999999
40
0.328124999999999
40
0.328124999999999
40
0.343749999999999
40
0.343749999999999
40
0.359374999999999
40
0.359374999999999
40
0.374999999999999
40
0.374999999999999
40
0.390624999999999
40
0.390624999999999
40
0.406249999999999
40
0.406249999999999
40
0.421874999999999
40
0.421874999999999
40
0.437499999999999
40
0.437499999999999
40
0.453124999999999
40
0.453124999999999
40
0.468749999999999
40
0.468749999999999
40
0.5
40
0.5
40
0.53125
40
0.53125
40
0.546875
40
0.546875
40
0.5625
40
0.5625
40
0.578125
40
0.578125
40
0.59375
40
0.59375
40
0.609375
40
0.609375
40
0.625
40
0.625
40
0.640625
40
0.640625
40
0.65625
40
0.65625
40
0.671875
40
0.671875
40
0.6875
40
0.6875
40
0.703125
40
0.703125
40
0.718750000000001
40
0.718750000000001
40
0.750000000000001
40
0.750000000000001
40
0.781250000000001
40
0.781250000000001
40
0.796875000000001
40
0.796875000000001
40
0.812500000000001
40
0.812500000000001
40
0.828125000000001
40
0.828125000000001
40
0.843750000000001
40
0.843750000000001
40
0.859375000000001
40
0.859375000000001
40
0.875000000000001
40
0.875000000000001
40
0.890625000000001
40
0.890625000000001
40
0.90625
40
0.90625
40
0.921875
40
0.921875
40
0.9375
40
0.9375
40
0.953125
40
0.953125
40
0.96875
40
0.96875
40
1
40
1
40
1
40
1
41
1
10
78.6000004812134
20
9
30
0
41
1
10
78.7002532667383
20
9
30
0
41
1
10
78.8005060522632
20
8.95285487931142
30
0
41
1
10
78.9508852305505
20
8.79819505716702
30
0
41
1
10
79.001011623313
20
8.73270221989335
30
0
41
1
10
79.1012644088379
20
8.5724790995736
30
0
41
1
10
79.1513908016003
20
8.47774392419683
30
0
41
1
10
79.2516435871253
20
8.2584456265059
30
0
41
1
10
79.3017699798878
20
8.13387918138633
30
0
41
1
10
79.4020227654127
20
7.85523315053376
30
0
41
1
10
79.4521491581751
20
7.70115242996349
30
0
41
1
10
79.5524019437
20
7.36476707471908
30
0
41
1
10
79.6025283364625
20
7.18246387348083
30
0
41
1
10
79.7027811219874
20
6.79189391296481
30
0
41
1
10
79.7529075147498
20
6.58363118831039
30
0
41
1
10
79.8531603002747
20
6.14429140025524
30
0
41
1
10
79.9032866930372
20
5.91322061804988
30
0
41
1
10
80.0035394785621
20
5.43214630658662
30
0
41
1
10
80.0536658713245
20
5.18215061173345
30
0
41
1
10
80.1539186568494
20
4.66762572098648
30
0
41
1
10
80.204045049612
20
4.40310500951691
30
0
41
1
10
80.3042978351368
20
3.86419855468685
30
0
41
1
10
80.3544242278992
20
3.58982100599971
30
0
41
1
10
80.4546770134241
20
3.03588476319925
30
0
41
1
10
80.5048034061866
20
2.7563331661278
30
0
41
1
10
80.6050561917115
20
2.19651579273275
30
0
41
1
10
80.655182584474
20
1.91625546015067
30
0
41
1
10
80.8055617627614
20
1.08049324992726
30
0
41
1
10
80.9058145482862
20
0.530330711302497
30
0
41
1
10
81.106320119336
20
-0.530329438510307
30
0
41
1
10
81.2065729048609
20
-1.08049192328267
30
0
41
1
10
81.3569520831483
20
-1.91625411764363
30
0
41
1
10
81.4070784759107
20
-2.19651444798347
30
0
41
1
10
81.5073312614356
20
-2.75633182375361
30
0
41
1
10
81.5574576541981
20
-3.03588342544532
30
0
41
1
10
81.657710439723
20
-3.58981968485961
30
0
41
1
10
81.7078368324854
20
-3.86419724554258
30
0
41
1
10
81.8080896180103
20
-4.40310373191005
30
0
41
1
10
81.8582160107728
20
-4.66762446292233
30
0
41
1
10
81.9584687962977
20
-5.18214940007795
30
0
41
1
10
82.0085951890601
20
-5.43214512179676
30
0
41
1
10
82.108847974585
20
-5.91321949368284
30
0
41
1
10
82.1589743673475
20
-6.14429030944353
30
0
41
1
10
82.2592271528724
20
-6.58363017029089
30
0
41
1
10
82.3093535456348
20
-6.79189293417903
30
0
41
1
10
82.4096063311597
20
-7.18246297753058
30
0
41
1
10
82.4597327239221
20
-7.36476622236657
30
0
41
1
10
82.5599855094471
20
-7.70115166766601
30
0
41
1
10
82.6101119022096
20
-7.85523243468933
30
0
41
1
10
82.7103646877345
20
-8.13387855972954
30
0
41
1
10
82.7604910804969
20
-8.25844505257987
30
0
41
1
10
82.8607438660218
20
-8.47774344549077
30
0
41
1
10
82.9108702587843
20
-8.57247866835377
30
0
41
1
10
83.0111230443091
20
-8.73270188204199
30
0
41
1
10
83.0612494370716
20
-8.79819476519594
30
0
41
1
10
83.211628615359
20
-8.95285472088608
30
0
41
1
10
83.311881400884
20
-8.99999992499991
30
0
41
1
10
83.5123869719338
20
-9.00000007499992
30
0
41
1
10
83.6126397574585
20
-8.9528550377365
30
0
41
1
10
83.763018935746
20
-8.7981953491379
30
0
41
1
10
83.8131453285085
20
-8.73270255774455
30
0
41
1
10
83.9133981140333
20
-8.5724795307932
30
0
41
1
10
83.9635245067958
20
-8.47774440290263
30
0
41
1
10
84.0637772923207
20
-8.25844620043171
30
0
41
1
10
84.1139036850832
20
-8.13387980304287
30
0
41
1
10
84.2141564706081
20
-7.85523386637797
30
0
41
1
10
84.2642828633706
20
-7.7011531922607
30
0
41
1
10
84.3645356488954
20
-7.36476792707137
30
0
41
1
10
84.4146620416578
20
-7.18246476943091
30
0
41
1
10
84.5149148271828
20
-6.79189489175039
30
0
41
1
10
84.5650412199452
20
-6.5836322063297
30
0
41
1
10
84.6652940054702
20
-6.14429249106678
30
0
41
1
10
84.7154203982326
20
-5.91322174241677
30
0
41
1
10
84.8156731837574
20
-5.43214749137633
30
0
41
1
10
84.86579957652
20
-5.18215182338884
30
0
41
1
10
84.9660523620448
20
-4.66762697905051
30
0
41
1
10
85.0161787548073
20
-4.40310628712365
30
0
41
1
10
85.1164315403322
20
-3.86419986383103
30
0
41
1
10
85.1665579330946
20
-3.58982232713978
30
0
41
1
10
85.2668107186195
20
-3.03588610095318
30
0
41
1
10
85.316937111382
20
-2.75633450850196
30
0
41
1
10
85.4171898969069
20
-2.196517137482
30
0
41
1
10
85.4673162896694
20
-1.91625680265773
30
0
41
1
10
85.6176954679567
20
-1.08049457657185
30
0
41
1
10
85.7179482534816
20
-0.530332015160752
30
0
41
1
10
85.9184538245314
20
0.530328196784069
30
0
41
1
10
86.0187066100564
20
1.08049059663816
30
0
41
1
10
86.1690857883438
20
1.9162527751366
30
0
41
1
10
86.2192121811062
20
2.19651310323422
30
0
41
1
10
86.319464966631
20
2.75633048137942
30
0
41
1
10
86.3695913593934
20
3.03588208769133
30
0
41
1
10
86.4698441449185
20
3.58981836371942
30
0
41
1
10
86.5199705376809
20
3.86419593639826
30
0
41
1
10
86.6202233232058
20
4.40310245430311
30
0
41
1
10
86.6703497159682
20
4.6676232048581
30
0
41
1
10
86.7706025014932
20
5.18214818842233
30
0
41
1
10
86.8207288942556
20
5.4321439370068
30
0
41
1
10
86.9209816797805
20
5.91321836931564
30
0
41
1
10
86.971108072543
20
6.14428921863168
30
0
41
1
10
87.0713608580678
20
6.58362915227119
30
0
41
1
10
87.1214872508303
20
6.79189195539308
30
0
41
1
10
87.2217400363552
20
7.18246208158007
30
0
41
1
10
87.2718664291176
20
7.36476537001388
30
0
41
1
10
87.3721192146425
20
7.70115090536834
30
0
41
1
10
87.422245607405
20
7.85523171884469
30
0
41
1
10
87.5224983929299
20
8.13387793807254
30
0
41
1
10
87.5726247856923
20
8.25844447865359
30
0
41
1
10
87.6728775712173
20
8.47774296678452
30
0
41
1
10
87.7230039639798
20
8.57247823713371
30
0
41
1
10
87.8232567495046
20
8.73270154419038
30
0
41
1
10
87.8733831422671
20
8.79819447322464
30
0
41
1
10
88.0237623205544
20
8.95285456246057
30
0
41
1
10
88.1240151060792
20
8.99999984999963
30
0
41
1
10
88.2242678916042
20
8.99999999999963
30
0
0
SPLINE
5
EE
100
AcDbEntity
8
1
62
256
6
ByLayer
370
13
48
1
60
0
100
AcDbSpline
70
4
71
3
72
107
73
103
40
0
40
0
40
0
40
0
40
0.0312500000000001
40
0.0312500000000001
40
0.0468750000000002
40
0.0468750000000002
40
0.0625000000000002
40
0.0625000000000002
40
0.0781250000000003
40
0.0781250000000003
40
0.0937500000000003
40
0.0937500000000003
40
0.109375
40
0.109375
40
0.125
40
0.125
40
0.156250000000001
40
0.156250000000001
40
0.187500000000001
40
0.187500000000001
40
0.203125000000001
40
0.203125000000001
40
0.207031250000001
40
0.207031250000001
40
0.210937500000001
40
0.210937500000001
40
0.218750000000001
40
0.218750000000001
40
0.250000000000001
40
0.250000000000001
40
0.281250000000001
40
0.281250000000001
40
0.312500000000001
40
0.312500000000001
40
0.328125000000001
40
0.328125000000001
40
0.343750000000001
40
0.343750000000001
40
0.359375000000001
40
0.359375000000001
40
0.375000000000001
40
0.375000000000001
40
0.40625
40
0.40625
40
0.4375
40
0.4375
40
0.46875
40
0.46875
40
0.4765625
40
0.4765625
40
0.484375
40
0.484375
40
0.5
40
0.5
40
0.53125
40
0.53125
40
0.562499999999999
40
0.562499999999999
40
0.578124999999999
40
0.578124999999999
40
0.593749999999999
40
0.593749999999999
40
0.609374999999999
40
0.609374999999999
40
0.624999999999999
40
0.624999999999999
40
0.640624999999999
40
0.640624999999999
40
0.656249999999999
40
0.656249999999999
40
0.687499999999999
40
0.687499999999999
40
0.718749999999999
40
0.718749999999999
40
0.734374999999999
40
0.734374999999999
40
0.738281249999999
40
0.738281249999999
40
0.742187499999999
40
0.749999999999999
40
0.749999999999999
40
0.781249999999999
40
0.781249999999999
40
0.812499999999999
40
0.812499999999999
40
0.828124999999999
40
0.828124999999999
40
0.843749999999999
40
0.843749999999999
40
0.859374999999999
40
0.859374999999999
40
0.875
40
0.875
40
0.890625
40
0.890625
40
0.90625
40
0.90625
40
0.9375
40
0.9375
40
0.96875
40
0.96875
40
1
40
1
40
1
40
1
41
1
10
78.6
20
8.57614896358896
30
0
41
1
10
78.6950812179683
20
8.40742803364782
30
0
41
1
10
78.7901624359366
20
8.1852546998411
30
0
41
1
10
78.9327842628891
20
7.77228913979502
30
0
41
1
10
78.9803248718732
20
7.62144334701946
30
0
41
1
10
79.0754060898415
20
7.29461659004437
30
0
41
1
10
79.1229466988257
20
7.11863702419024
30
0
41
1
10
79.218027916794
20
6.74356776093566
30
0
41
1
10
79.2655685257781
20
6.54448134121216
30
0
41
1
10
79.3606497437464
20
6.12593295201452
30
0
41
1
10
79.4081903527306
20
5.90647586958465
30
0
41
1
10
79.5032715706989
20
5.45050651443589
30
0
41
1
10
79.5508121796831
20
5.21400024983339
30
0
41
1
10
79.6458933976514
20
4.72767315437159
30
0
41
1
10
79.6934340066355
20
4.47785882838735
30
0
41
1
10
79.8360558335879
20
3.71440001130853
30
0
41
1
10
79.9311370515562
20
3.18683220702891
30
0
41
1
10
80.1212994874928
20
2.12593303667049
30
0
41
1
10
80.2163807054611
20
1.59274385774282
30
0
41
1
10
80.3590025324137
20
0.808941989232807
30
0
41
1
10
80.4065431413978
20
0.550287845937078
30
0
41
1
10
80.465968902628
20
0.23189556163976
30
0
41
1
10
80.477854054874
20
0.16846213269443
30
0
41
1
10
80.501624359366
20
0.0421217922019821
30
0
41
1
10
80.5135095116121
20
-0.0206229590277474
30
0
41
1
10
80.5491649683503
20
-0.209953062849394
30
0
41
1
10
80.5729352728423
20
-0.337235222192902
30
0
41
1
10
80.6917867953026
20
-0.978211596705108
30
0
41
1
10
80.7868680132709
20
-1.50590237808993
30
0
41
1
10
80.9770304492076
20
-2.5670685807963
30
0
41
1
10
81.0721116671759
20
-3.10043485690758
30
0
41
1
10
81.2622741031124
20
-4.1425944651499
30
0
41
1
10
81.3573553210808
20
-4.65120351707497
30
0
41
1
10
81.4999771480333
20
-5.37157799095448
30
0
41
1
10
81.5475177570174
20
-5.60461780480637
30
0
41
1
10
81.6425989749857
20
-6.05287568165329
30
0
41
1
10
81.6901395839699
20
-6.26808793424684
30
0
41
1
10
81.7852208019382
20
-6.67748457405122
30
0
41
1
10
81.8327614109223
20
-6.87166439531549
30
0
41
1
10
81.9278426288906
20
-7.23640647269903
30
0
41
1
10
81.9753832378747
20
-7.40696585295495
30
0
41
1
10
82.1180050648272
20
-7.88042747900732
30
0
41
1
10
82.2130862827955
20
-8.14471597583525
30
0
41
1
10
82.403248718732
20
-8.56517591900121
30
0
41
1
10
82.4983299367004
20
-8.72142520976104
30
0
41
1
10
82.688492372637
20
-8.93215089643752
30
0
41
1
10
82.7835735906052
20
-8.98676434185555
30
0
41
1
10
82.9024251130657
20
-9.00062355542715
30
0
41
1
10
82.9261954175577
20
-9.00072226589165
30
0
41
1
10
82.973736026542
20
-8.99558876648663
30
0
41
1
10
82.9975063310339
20
-8.99032087291047
30
0
41
1
10
83.0688172445101
20
-8.96602491886034
30
0
41
1
10
83.1163578534944
20
-8.93849223680223
30
0
41
1
10
83.2589796804468
20
-8.81915303425538
30
0
41
1
10
83.3540608984151
20
-8.6903015673463
30
0
41
1
10
83.5442233343516
20
-8.32529532549415
30
0
41
1
10
83.63930455232
20
-8.08904149731231
30
0
41
1
10
83.7819263792725
20
-7.65568355358479
30
0
41
1
10
83.8294669882566
20
-7.49816398365078
30
0
41
1
10
83.9245482062249
20
-7.15844203700436
30
0
41
1
10
83.9720888152091
20
-6.97624155817883
30
0
41
1
10
84.0671700331774
20
-6.5893760044105
30
0
41
1
10
84.1147106421615
20
-6.38471466054204
30
0
41
1
10
84.2097918601298
20
-5.95582778896485
30
0
41
1
10
84.257332469114
20
-5.73160749334522
30
0
41
1
10
84.3524136870823
20
-5.26704935943752
30
0
41
1
10
84.3999542960664
20
-5.0267177212595
30
0
41
1
10
84.4950355140347
20
-4.53375605156521
30
0
41
1
10
84.5425761230189
20
-4.28113254582007
30
0
41
1
10
84.6851979499713
20
-3.51081174842193
30
0
41
1
10
84.7802791679396
20
-2.980777749136
30
0
41
1
10
84.9704416038763
20
-1.91881853570305
30
0
41
1
10
85.0655228218445
20
-1.38702482405788
30
0
41
1
10
85.208144648797
20
-0.607547768261213
30
0
41
1
10
85.2556852577812
20
-0.350704062633582
30
0
41
1
10
85.3151110190114
20
-0.0349531831143679
30
0
41
1
10
85.3269961712574
20
0.0277869034973719
30
0
41
1
10
85.3507664757495
20
0.154047164805064
30
0
41
1
10
85.3864219324876
20
0.344230856925435
30
0
41
1
10
85.4220773892257
20
0.536634576301452
30
0
41
1
10
85.540928911686
20
1.1821275151614
30
0
41
1
10
85.6360101296543
20
1.71208297644941
30
0
41
1
10
85.8261725655909
20
2.77412306712776
30
0
41
1
10
85.9212537835592
20
3.30608724398783
30
0
41
1
10
86.0638756105118
20
4.08246099030342
30
0
41
1
10
86.1114162194959
20
4.33762346402668
30
0
41
1
10
86.2064974374642
20
4.83669125228332
30
0
41
1
10
86.2540380464483
20
5.08059006388004
30
0
41
1
10
86.3491192644166
20
5.55324567476998
30
0
41
1
10
86.3966598734007
20
5.78199612580892
30
0
41
1
10
86.4917410913691
20
6.22079227123615
30
0
41
1
10
86.5392817003532
20
6.43083242487381
30
0
41
1
10
86.6343629183216
20
6.8291482009916
30
0
41
1
10
86.6819035273057
20
7.01741966163041
30
0
41
1
10
86.776984745274
20
7.36978888735206
30
0
41
1
10
86.8245253542581
20
7.53388426052115
30
0
41
1
10
86.9671471812105
20
7.98742143888811
30
0
41
1
10
87.0622283991789
20
8.23772294934784
30
0
41
1
10
87.2523908351155
20
8.63041827345731
30
0
41
1
10
87.3474720530838
20
8.77290101463547
30
0
41
1
10
87.5376344890204
20
8.95762177516229
30
0
41
1
10
87.6327157069887
20
9
30
0
41
1
10
87.727796924957
20
9
30
0
0
SPLINE
5
EF
100
AcDbEntity
8
1
62
256
6
ByLayer
370
13
48
1
60
0
100
AcDbSpline
70
4
71
3
72
85
73
81
40
0
40
0
40
0
40
0
40
0.0312499999999997
40
0.0312499999999997
40
0.0624999999999994
40
0.0624999999999994
40
0.0937499999999991
40
0.0937499999999991
40
0.124999999999999
40
0.124999999999999
40
0.156249999999999
40
0.156249999999999
40
0.164062499999999
40
0.164062499999999
40
0.171874999999999
40
0.171874999999999
40
0.187499999999999
40
0.187499999999999
40
0.218749999999999
40
0.218749999999999
40
0.249999999999999
40
0.249999999999999
40
0.281249999999999
40
0.281249999999999
40
0.312499999999999
40
0.312499999999999
40
0.343749999999999
40
0.343749999999999
40
0.374999999999999
40
0.374999999999999
40
0.406249999999999
40
0.406249999999999
40
0.437499999999999
40
0.437499999999999
40
0.441406249999999
40
0.441406249999999
40
0.445312499999999
40
0.445312499999999
40
0.453124999999999
40
0.453124999999999
40
0.468749999999999
40
0.468749999999999
40
0.500000000000001
40
0.500000000000001
40
0.531250000000002
40
0.531250000000002
40
0.562500000000003
40
0.562500000000003
40
0.593750000000005
40
0.593750000000005
40
0.625000000000006
40
0.625000000000006
40
0.656250000000008
40
0.656250000000008
40
0.687500000000009
40
0.687500000000009
40
0.71875000000001
40
0.71875000000001
40
0.72265625000001
40
0.72265625000001
40
0.72656250000001
40
0.73437500000001
40
0.73437500000001
40
0.75000000000001
40
0.75000000000001
40
0.781250000000008
40
0.781250000000008
40
0.812500000000007
40
0.812500000000007
40
0.843750000000006
40
0.843750000000006
40
0.875000000000005
40
0.875000000000005
40
0.906250000000004
40
0.906250000000004
40
0.937500000000002
40
0.937500000000002
40
0.968750000000001
40
0.968750000000001
40
1
40
1
40
1
40
1
41
1
10
78.6
20
7.21360291234848
30
0
41
1
10
78.6899096403864
20
6.88213224301404
30
0
41
1
10
78.7798192807729
20
6.50703703699611
30
0
41
1
10
78.9596385615457
20
5.68767245721159
30
0
41
1
10
79.0495482019321
20
5.24353138150957
30
0
41
1
10
79.229367482705
20
4.31104862674653
30
0
41
1
10
79.3192771230914
20
3.82286291733936
30
0
41
1
10
79.4990964038642
20
2.8295923327193
30
0
41
1
10
79.5890060442506
20
2.32463853707455
30
0
41
1
10
79.7688253250235
20
1.32296048862051
30
0
41
1
10
79.8587349654099
20
0.826309835392124
30
0
41
1
10
79.971122015893
20
0.223006878828755
30
0
41
1
10
79.9935994259895
20
0.103366191451386
30
0
41
1
10
80.0385542461827
20
-0.134612072538232
30
0
41
1
10
80.0610316562794
20
-0.254573227962396
30
0
41
1
10
80.1284638865692
20
-0.617003399855804
30
0
41
1
10
80.1734187067624
20
-0.862031688963498
30
0
41
1
10
80.308283167342
20
-1.60392507424549
30
0
41
1
10
80.3981928077284
20
-2.10776045249838
30
0
41
1
10
80.5780120885012
20
-3.11126595190157
30
0
41
1
10
80.6679217288877
20
-3.61083027393823
30
0
41
1
10
80.8477410096606
20
-4.57911547374778
30
0
41
1
10
80.937650650047
20
-5.04768645369185
30
0
41
1
10
81.1174699308198
20
-5.92729755865733
30
0
41
1
10
81.2073795712062
20
-6.33818933276044
30
0
41
1
10
81.3871988519791
20
-7.08041576343479
30
0
41
1
10
81.4771084923655
20
-7.41165610306484
30
0
41
1
10
81.6569277731384
20
-7.98104850973954
30
0
41
1
10
81.7468374135248
20
-8.21918995284594
30
0
41
1
10
81.9266566942975
20
-8.59900329566059
30
0
41
1
10
82.016566334684
20
-8.74074001447138
30
0
41
1
10
82.1963856154568
20
-8.9336329566076
30
0
41
1
10
82.2862952558432
20
-8.98489371749852
30
0
41
1
10
82.3874436012779
20
-8.99862290652024
30
0
41
1
10
82.3986823063264
20
-8.99954104607932
30
0
41
1
10
82.4211597164228
20
-9.00019113404818
30
0
41
1
10
82.4323984214711
20
-8.9999272780644
30
0
41
1
10
82.4661145366161
20
-8.99734184667932
30
0
41
1
10
82.4885919467127
20
-8.99321961712121
30
0
41
1
10
82.5560241770025
20
-8.97332470912048
30
0
41
1
10
82.6009789971957
20
-8.95001438110626
30
0
41
1
10
82.7358434577753
20
-8.84757073449137
30
0
41
1
10
82.8257530981617
20
-8.73569262424888
30
0
41
1
10
83.0055723789346
20
-8.41660444901916
30
0
41
1
10
83.0954820193211
20
-8.20931235996082
30
0
41
1
10
83.2753013000939
20
-7.69948635851082
30
0
41
1
10
83.3652109404803
20
-7.39693639591434
30
0
41
1
10
83.5450302212531
20
-6.70677483610288
30
0
41
1
10
83.6349398616396
20
-6.31923235129966
30
0
41
1
10
83.8147591424124
20
-5.4786021366433
30
0
41
1
10
83.9046687827989
20
-5.02565070006608
30
0
41
1
10
84.0844880635717
20
-4.07986687047557
30
0
41
1
10
84.1743977039581
20
-3.5871897537877
30
0
41
1
10
84.354216984731
20
-2.5891897111662
30
0
41
1
10
84.4441266251174
20
-2.08399011545998
30
0
41
1
10
84.6239459058902
20
-1.08538774922036
30
0
41
1
10
84.7138555462766
20
-0.592048444497976
30
0
41
1
10
84.8150038917114
20
-0.0542347193876367
30
0
41
1
10
84.8262425967597
20
0.0051262913935943
30
0
41
1
10
84.8487200068562
20
0.124380176009566
30
0
41
1
10
84.8824361220012
20
0.303976892501282
30
0
41
1
10
84.916152237146
20
0.485587222355747
30
0
41
1
10
84.9835844674358
20
0.851098869880616
30
0
41
1
10
85.0285392876291
20
1.0978401891046
30
0
41
1
10
85.1634037482087
20
1.84365846441176
30
0
41
1
10
85.2533133885952
20
2.34847858804591
30
0
41
1
10
85.4331326693679
20
3.34988185006105
30
0
41
1
10
85.5230423097544
20
3.84635012851558
30
0
41
1
10
85.7028615905273
20
4.80407118269031
30
0
41
1
10
85.7927712309137
20
5.26517072769485
30
0
41
1
10
85.9725905116865
20
6.1258986788126
30
0
41
1
10
86.062500152073
20
6.52538408477147
30
0
41
1
10
86.2423194328457
20
7.24199869944403
30
0
41
1
10
86.3322290732322
20
7.55904587647862
30
0
41
1
10
86.5120483540051
20
8.09882724184931
30
0
41
1
10
86.6019579943915
20
8.32156433688181
30
0
41
1
10
86.7817772751644
20
8.67094057562363
30
0
41
1
10
86.8716869155508
20
8.79765365055971
30
0
41
1
10
87.0515061963235
20
8.96212986188584
30
0
41
1
10
87.1414158367099
20
9
30
0
41
1
10
87.2313254770964
20
9
30
0
0
SPLINE
5
F0
100
AcDbEntity
8
1
62
256
6
ByLayer
370
13
48
1
60
0
100
AcDbSpline
70
4
71
3
72
8
73
4
40
0
40
0
40
0
40
0
40
1
40
1
40
1
40
1
41
1
10
88.0329579905647
20
9
30
0
41
1
10
88.0967279575779
20
9
30
0
41
1
10
88.160497924591
20
8.98099516531207
30
0
41
1
10
88.2242678916042
20
8.94055264012744
30
0
0
SPLINE
5
F1
100
AcDbEntity
8
1
62
256
6
ByLayer
370
13
48
1
60
0
100
AcDbSpline
70
4
71
3
72
84
73
80
40
0
40
0
40
0
40
0
40
0.0312499999999993
40
0.0312499999999993
40
0.0624999999999986
40
0.0624999999999986
40
0.093749999999998
40
0.093749999999998
40
0.109374999999998
40
0.109374999999998
40
0.117187499999997
40
0.117187499999997
40
0.124999999999997
40
0.124999999999997
40
0.156249999999996
40
0.156249999999996
40
0.187499999999996
40
0.187499999999996
40
0.218749999999995
40
0.218749999999995
40
0.249999999999994
40
0.249999999999994
40
0.281249999999994
40
0.281249999999994
40
0.312499999999993
40
0.312499999999993
40
0.343749999999992
40
0.343749999999992
40
0.374999999999992
40
0.374999999999992
40
0.406249999999991
40
0.406249999999991
40
0.410156249999991
40
0.410156249999991
40
0.414062499999991
40
0.421874999999991
40
0.421874999999991
40
0.437499999999992
40
0.437499999999992
40
0.468749999999993
40
0.468749999999993
40
0.499999999999994
40
0.499999999999994
40
0.531249999999994
40
0.531249999999994
40
0.562499999999995
40
0.562499999999995
40
0.593749999999996
40
0.593749999999996
40
0.624999999999997
40
0.624999999999997
40
0.656249999999998
40
0.656249999999998
40
0.687499999999999
40
0.687499999999999
40
0.703124999999999
40
0.703124999999999
40
0.707031249999999
40
0.707031249999999
40
0.710937499999999
40
0.718749999999999
40
0.718749999999999
40
0.749999999999999
40
0.749999999999999
40
0.781249999999999
40
0.781249999999999
40
0.8125
40
0.8125
40
0.84375
40
0.84375
40
0.875
40
0.875
40
0.90625
40
0.90625
40
0.9375
40
0.9375
40
0.96875
40
0.96875
40
1
40
1
40
1
40
1
41
1
10
78.6000000000001
20
4.9984787595933
30
0
41
1
10
78.6847380628046
20
4.56595889397127
30
0
41
1
10
78.7694761256091
20
4.11205490723668
30
0
41
1
10
78.9389522512182
20
3.18402507453709
30
0
41
1
10
79.0236903140227
20
2.71000367441437
30
0
41
1
10
79.1931664396318
20
1.76350613613093
30
0
41
1
10
79.2779045024363
20
1.29109760971829
30
0
41
1
10
79.405011596643
20
0.597212924067321
30
0
41
1
10
79.4473806280454
20
0.368337808409137
30
0
41
1
10
79.5109341751488
20
0.0299950436946688
30
0
41
1
10
79.5321186908499
20
-0.081690891600033
30
0
41
1
10
79.5744877222522
20
-0.307753986143183
30
0
41
1
10
79.5956722379534
20
-0.421595629366948
30
0
41
1
10
79.7015948164591
20
-0.994313426300351
30
0
41
1
10
79.7863328792636
20
-1.46390769949474
30
0
41
1
10
79.9558090048727
20
-2.40896118654939
30
0
41
1
10
80.0405470676773
20
-2.88436211771185
30
0
41
1
10
80.2100231932864
20
-3.81993672809449
30
0
41
1
10
80.2947612560909
20
-4.28001220425099
30
0
41
1
10
80.4642373817
20
-5.16213470882354
30
0
41
1
10
80.5489754445044
20
-5.58406556765715
30
0
41
1
10
80.7184515701135
20
-6.36870730741075
30
0
41
1
10
80.803189632918
20
-6.73131883117688
30
0
41
1
10
80.9726657585271
20
-7.38111312010861
30
0
41
1
10
81.0574038213317
20
-7.66824467687803
30
0
41
1
10
81.2268799469407
20
-8.15822004358699
30
0
41
1
10
81.3116180097453
20
-8.36107263449236
30
0
41
1
10
81.4810941353544
20
-8.68163970518717
30
0
41
1
10
81.5658321981589
20
-8.79941124007652
30
0
41
1
10
81.735308323768
20
-8.9559222386429
30
0
41
1
10
81.8200463865726
20
-8.99474134654889
30
0
41
1
10
81.9153767072277
20
-9.00009226533453
30
0
41
1
10
81.9259689650782
20
-9.00015930920728
30
0
41
1
10
81.9471534807793
20
-8.99924302516456
30
0
41
1
10
81.9789302543311
20
-8.9962831043172
30
0
41
1
10
82.0107070278826
20
-8.98845851932577
30
0
41
1
10
82.0742605749861
20
-8.96604970043964
30
0
41
1
10
82.1166296063884
20
-8.94208994060278
30
0
41
1
10
82.2437367005953
20
-8.8412003726869
30
0
41
1
10
82.3284747633998
20
-8.73507708046935
30
0
41
1
10
82.4979508890088
20
-8.43829794026252
30
0
41
1
10
82.5826889518134
20
-8.24758015435842
30
0
41
1
10
82.7521650774224
20
-7.78129277632468
30
0
41
1
10
82.836903140227
20
-7.50570640935467
30
0
41
1
10
83.006379265836
20
-6.8772885432962
30
0
41
1
10
83.0911173286406
20
-6.5244999333116
30
0
41
1
10
83.2605934542498
20
-5.75685547890598
30
0
41
1
10
83.3453315170542
20
-5.34209378393973
30
0
41
1
10
83.5148076426633
20
-4.4711399265334
30
0
41
1
10
83.5995457054678
20
-4.01506379338574
30
0
41
1
10
83.7690218310769
20
-3.08429594871481
30
0
41
1
10
83.8537598938815
20
-2.60970672478473
30
0
41
1
10
84.0232360194906
20
-1.66349436953777
30
0
41
1
10
84.1079740822951
20
-1.19193576451298
30
0
41
1
10
84.2350811765018
20
-0.500146100791568
30
0
41
1
10
84.2774502079042
20
-0.272105225480971
30
0
41
1
10
84.3304114971571
20
0.0086630267838075
30
0
41
1
10
84.3410037550075
20
0.0646511233466072
30
0
41
1
10
84.3621882707088
20
0.177325330438464
30
0
41
1
10
84.3939650442604
20
0.34696007273223
30
0
41
1
10
84.4257418178121
20
0.518350997994986
30
0
41
1
10
84.5316643963178
20
1.09300182189409
30
0
41
1
10
84.6164024591224
20
1.56362177582003
30
0
41
1
10
84.7858785847314
20
2.50935186838822
30
0
41
1
10
84.8706166475359
20
2.98440059264868
30
0
41
1
10
85.040092773145
20
3.91768304179266
30
0
41
1
10
85.1248308359495
20
4.37581636216211
30
0
41
1
10
85.2943069615586
20
5.2524649494942
30
0
41
1
10
85.3790450243632
20
5.67086402575299
30
0
41
1
10
85.5485211499723
20
6.4470995604191
30
0
41
1
10
85.6332592127768
20
6.80483918628087
30
0
41
1
10
85.8027353383859
20
7.4440054438773
30
0
41
1
10
85.8874734011904
20
7.7253850010166
30
0
41
1
10
86.0569495267995
20
8.20353732221082
30
0
41
1
10
86.141687589604
20
8.40032289930073
30
0
41
1
10
86.3111637152131
20
8.70897955970386
30
0
41
1
10
86.3959017780176
20
8.82091020774962
30
0
41
1
10
86.5653779036267
20
8.96638032733716
30
0
41
1
10
86.6501159664313
20
9
30
0
41
1
10
86.7348540292358
20
9
30
0
0
SPLINE
5
F2
100
AcDbEntity
8
1
62
256
6
ByLayer
370
13
48
1
60
0
100
AcDbSpline
70
4
71
3
72
14
73
10
40
0
40
0
40
0
40
0
40
0.25
40
0.25
40
0.5
40
0.5
40
0.75
40
0.75
40
1
40
1
40
1
40
1
41
1
10
87.5364865427041
20
9
30
0
41
1
10
87.5938016551125
20
9
30
0
41
1
10
87.6511167675208
20
8.98465445916653
30
0
41
1
10
87.7657469923375
20
8.9197019175198
30
0
41
1
10
87.8230621047459
20
8.87008334305568
30
0
41
1
10
87.9376923295625
20
8.73378764994632
30
0
41
1
10
87.9950074419709
20
8.64709965709744
30
0
41
1
10
88.1096376667875
20
8.43500583449969
30
0
41
1
10
88.166952779196
20
8.30959161622613
30
0
41
1
10
88.2242678916042
20
8.16470576924951
30
0
0
SPLINE
5
F3
100
AcDbEntity
8
1
62
256
6
ByLayer
370
13
48
1
60
0
100
AcDbSpline
70
4
71
3
72
85
73
81
40
0
40
0
40
0
40
0
40
0.0312499999999985
40
0.0312499999999985
40
0.0468749999999977
40
0.0468749999999977
40
0.0546874999999973
40
0.0546874999999973
40
0.0624999999999969
40
0.0624999999999969
40
0.0937499999999954
40
0.0937499999999954
40
0.124999999999994
40
0.124999999999994
40
0.156249999999992
40
0.156249999999992
40
0.187499999999991
40
0.187499999999991
40
0.218749999999989
40
0.218749999999989
40
0.249999999999988
40
0.249999999999988
40
0.281249999999986
40
0.281249999999986
40
0.312499999999985
40
0.312499999999985
40
0.343749999999983
40
0.343749999999983
40
0.359374999999982
40
0.359374999999982
40
0.367187499999982
40
0.367187499999982
40
0.371093749999982
40
0.371093749999982
40
0.374999999999982
40
0.374999999999982
40
0.406249999999983
40
0.406249999999983
40
0.437499999999984
40
0.437499999999984
40
0.468749999999985
40
0.468749999999985
40
0.499999999999986
40
0.499999999999986
40
0.531249999999987
40
0.531249999999987
40
0.562499999999988
40
0.562499999999988
40
0.593749999999989
40
0.593749999999989
40
0.62499999999999
40
0.62499999999999
40
0.656249999999992
40
0.656249999999992
40
0.671874999999992
40
0.671874999999992
40
0.679687499999992
40
0.683593749999992
40
0.683593749999992
40
0.687499999999992
40
0.687499999999992
40
0.718749999999993
40
0.718749999999993
40
0.749999999999994
40
0.749999999999994
40
0.781249999999994
40
0.781249999999994
40
0.812499999999995
40
0.812499999999995
40
0.843749999999996
40
0.843749999999996
40
0.874999999999997
40
0.874999999999997
40
0.906249999999998
40
0.906249999999998
40
0.937499999999998
40
0.937499999999998
40
0.968749999999999
40
0.968749999999999
40
1
40
1
40
1
40
1
41
1
10
78.6
20
2.30353579761942
30
0
41
1
10
78.6795664852226
20
1.85913223506216
30
0
41
1
10
78.7591329704453
20
1.41502926289482
30
0
41
1
10
78.8784826982793
20
0.760692037585358
30
0
41
1
10
78.9182659408906
20
0.544522750988619
30
0
41
1
10
78.9779408048076
20
0.224342376629295
30
0
41
1
10
78.9978324261133
20
0.118292568895498
30
0
41
1
10
79.0376156687246
20
-0.0922835838571245
30
0
41
1
10
79.0575072900303
20
-0.19809595586068
30
0
41
1
10
79.1569653965586
20
-0.731169847035318
30
0
41
1
10
79.2365318817813
20
-1.16872957856646
30
0
41
1
10
79.3956648522267
20
-2.05279870991364
30
0
41
1
10
79.4752313374493
20
-2.49927307426802
30
0
41
1
10
79.6343643078947
20
-3.38444674868967
30
0
41
1
10
79.7139307931172
20
-3.82308175111572
30
0
41
1
10
79.8730637635626
20
-4.67388952942434
30
0
41
1
10
79.9526302487852
20
-5.08597938468492
30
0
41
1
10
80.1117632192305
20
-5.86530880300015
30
0
41
1
10
80.1913297044532
20
-6.23246739154172
30
0
41
1
10
80.3504626748985
20
-6.90639033082158
30
0
41
1
10
80.4300291601212
20
-7.21309839158485
30
0
41
1
10
80.5891621305665
20
-7.75556437147418
30
0
41
1
10
80.6687286157891
20
-7.99130529449371
30
0
41
1
10
80.8278615862345
20
-8.3874128611605
30
0
41
1
10
80.907428071457
20
-8.54780206023116
30
0
41
1
10
81.0665610419023
20
-8.79481721084844
30
0
41
1
10
81.1461275271251
20
-8.88149287724565
30
0
41
1
10
81.2654772549591
20
-8.96106292483708
30
0
41
1
10
81.3052604975704
20
-8.97921213853749
30
0
41
1
10
81.3649353614874
20
-8.99471705937322
30
0
41
1
10
81.384826982793
20
-8.99793358886143
30
0
41
1
10
81.4146644147515
20
-8.99994660570266
30
0
41
1
10
81.4246102254044
20
-9.00015017066028
30
0
41
1
10
81.4445018467101
20
-8.99963481689147
30
0
41
1
10
81.4544476573629
20
-8.99891298207274
30
0
41
1
10
81.5439599532384
20
-8.98815008376198
30
0
41
1
10
81.623526438461
20
-8.94813428285221
30
0
41
1
10
81.7826594089064
20
-8.79844810718819
30
0
41
1
10
81.862225894129
20
-8.68871961436435
30
0
41
1
10
82.0213588645743
20
-8.39446707612299
30
0
41
1
10
82.100925349797
20
-8.20990015708227
30
0
41
1
10
82.2600583202424
20
-7.76614228666841
30
0
41
1
10
82.339624805465
20
-7.50694056098086
30
0
41
1
10
82.4987577759102
20
-6.92026348962222
30
0
41
1
10
82.5783242611329
20
-6.59281845552792
30
0
41
1
10
82.7374572315782
20
-5.88191399447624
30
0
41
1
10
82.8170237168009
20
-5.4985209140853
30
0
41
1
10
82.9761566872462
20
-4.69240413949944
30
0
41
1
10
83.0557231724689
20
-4.26976461969372
30
0
41
1
10
83.2148561429142
20
-3.40392532563647
30
0
41
1
10
83.2944226281369
20
-2.9608043859113
30
0
41
1
10
83.4535555985822
20
-2.07232481585854
30
0
41
1
10
83.5331220838049
20
-1.6270217245625
30
0
41
1
10
83.6524718116389
20
-0.96923761926783
30
0
41
1
10
83.6922550542503
20
-0.751646460270308
30
0
41
1
10
83.7519299181672
20
-0.428983039702615
30
0
41
1
10
83.7817673501257
20
-0.268579304466527
30
0
41
1
10
83.8116047820842
20
-0.109769513793879
30
0
41
1
10
83.8314964033898
20
-0.0042711117813496
30
0
41
1
10
83.8414422140426
20
0.0482705337052778
30
0
41
1
10
83.9309545099183
20
0.523945528199022
30
0
41
1
10
84.0105209951408
20
0.95874603614314
30
0
41
1
10
84.1696539655861
20
1.8396747058481
30
0
41
1
10
84.2492204508088
20
2.28577271224506
30
0
41
1
10
84.408353421254
20
3.17304765088127
30
0
41
1
10
84.4879199064767
20
3.61416454767325
30
0
41
1
10
84.647052876922
20
4.47296761043319
30
0
41
1
10
84.7266193621447
20
4.8905726442737
30
0
41
1
10
84.88575233259
20
5.68374489903809
30
0
41
1
10
84.9653188178127
20
6.05922923888804
30
0
41
1
10
85.124451788258
20
6.75199892873187
30
0
41
1
10
85.2040182734806
20
7.06922274140217
30
0
41
1
10
85.363151243926
20
7.63401044069553
30
0
41
1
10
85.4427177291486
20
7.88155064034549
30
0
41
1
10
85.6018506995939
20
8.30154164504802
30
0
41
1
10
85.6814171848166
20
8.47400926067459
30
0
41
1
10
85.8405501552619
20
8.74455605215078
30
0
41
1
10
85.9201166404846
20
8.8426817524134
30
0
41
1
10
86.0792496109299
20
8.97037426722432
30
0
41
1
10
86.1588160961525
20
9
30
0
41
1
10
86.2383825813752
20
9
30
0
0
SPLINE
5
F4
100
AcDbEntity
8
1
62
256
6
ByLayer
370
13
48
1
60
0
100
AcDbSpline
70
4
71
3
72
20
73
16
40
0
40
0
40
0
40
0
40
0.249999999999999
40
0.249999999999999
40
0.374999999999999
40
0.374999999999999
40
0.499999999999999
40
0.499999999999999
40
0.625
40
0.625
40
0.75
40
0.75
40
0.875
40
0.875
40
1
40
1
40
1
40
1
41
1
10
87.0400150948435
20
9
30
0
41
1
10
87.1387028279069
20
9
30
0
41
1
10
87.2373905609703
20
8.95432485406067
30
0
41
1
10
87.3854221605653
20
8.80464229741844
30
0
41
1
10
87.4347660270971
20
8.74126722255016
30
0
41
1
10
87.5334537601605
20
8.58623348736012
30
0
41
1
10
87.5827976266921
20
8.49457025194948
30
0
41
1
10
87.6814853597556
20
8.2823530053511
30
0
41
1
10
87.7308292262873
20
8.16179581293991
30
0
41
1
10
87.8295169593507
20
7.89202756935569
30
0
41
1
10
87.8788608258824
20
7.74281529453012
30
0
41
1
10
87.9775485589457
20
7.41688604595799
30
0
41
1
10
88.0268924254774
20
7.24017016796464
30
0
41
1
10
88.1255801585409
20
6.86129819342528
30
0
41
1
10
88.1749240250725
20
6.65914557353227
30
0
41
1
10
88.2242678916042
20
6.44572840867542
30
0
0
SPLINE
5
F5
100
AcDbEntity
8
1
62
256
6
ByLayer
370
13
48
1
60
0
100
AcDbSpline
70
4
71
3
72
81
73
77
40
0
40
0
40
0
40
0
40
0.031250000000001
40
0.031250000000001
40
0.0625000000000021
40
0.0625000000000021
40
0.0937500000000031
40
0.0937500000000031
40
0.125000000000004
40
0.125000000000004
40
0.156250000000005
40
0.156250000000005
40
0.187500000000006
40
0.187500000000006
40
0.218750000000007
40
0.218750000000007
40
0.250000000000008
40
0.250000000000008
40
0.281250000000009
40
0.281250000000009
40
0.31250000000001
40
0.31250000000001
40
0.32031250000001
40
0.32421875000001
40
0.32421875000001
40
0.32812500000001
40
0.32812500000001
40
0.34375000000001
40
0.34375000000001
40
0.375000000000009
40
0.375000000000009
40
0.406250000000009
40
0.406250000000009
40
0.437500000000008
40
0.437500000000008
40
0.468750000000007
40
0.468750000000007
40
0.500000000000007
40
0.500000000000007
40
0.531250000000006
40
0.531250000000006
40
0.562500000000006
40
0.562500000000006
40
0.593750000000005
40
0.593750000000005
40
0.625000000000005
40
0.625000000000005
40
0.656250000000005
40
0.656250000000005
40
0.660156250000004
40
0.660156250000004
40
0.664062500000004
40
0.664062500000004
40
0.671875000000004
40
0.671875000000004
40
0.687500000000004
40
0.687500000000004
40
0.718750000000004
40
0.718750000000004
40
0.750000000000003
40
0.750000000000003
40
0.781250000000003
40
0.781250000000003
40
0.812500000000002
40
0.812500000000002
40
0.843750000000002
40
0.843750000000002
40
0.875000000000002
40
0.875000000000002
40
0.906250000000001
40
0.906250000000001
40
0.937500000000001
40
0.937500000000001
40
0.96875
40
0.96875
40
1
40
1
40
1
40
1
41
1
10
78.6
20
-0.40714198704336
30
0
41
1
10
78.6743949076408
20
-0.807482863015736
30
0
41
1
10
78.7487898152815
20
-1.21711008483746
30
0
41
1
10
78.8975796305631
20
-2.04395492986214
30
0
41
1
10
78.9719745382039
20
-2.46114719351343
30
0
41
1
10
79.1207643534855
20
-3.28949437330184
30
0
41
1
10
79.1951592611263
20
-3.7006042291363
30
0
41
1
10
79.3439490764079
20
-4.50158636882193
30
0
41
1
10
79.4183439840485
20
-4.8914001927042
30
0
41
1
10
79.5671337993301
20
-5.63460181516075
30
0
41
1
10
79.6415287069709
20
-5.987930141552
30
0
41
1
10
79.7903185222524
20
-6.64480577366979
30
0
41
1
10
79.8647134298932
20
-6.94830715143755
30
0
41
1
10
80.0135032451748
20
-7.49564416246528
30
0
41
1
10
80.0878981528156
20
-7.73945839370268
30
0
41
1
10
80.2366879680971
20
-8.16205308445694
30
0
41
1
10
80.3110828757379
20
-8.34083974167385
30
0
41
1
10
80.4598726910194
20
-8.6327594128141
30
0
41
1
10
80.5342675986602
20
-8.7459209585449
30
0
41
1
10
80.6830574139418
20
-8.91017055174598
30
0
41
1
10
80.7574523215826
20
-8.96129915437555
30
0
41
1
10
80.8504459561335
20
-8.99060231240981
30
0
41
1
10
80.8783440464988
20
-8.99680644441054
30
0
41
1
10
80.9062421368641
20
-8.99927011205642
30
0
41
1
10
80.9248408637743
20
-9.00009760299272
30
0
41
1
10
80.9341402272294
20
-9.00010584921938
30
0
41
1
10
80.9806370445049
20
-8.99812084227784
30
0
41
1
10
81.0178344983252
20
-8.99001135330309
30
0
41
1
10
81.1294268597864
20
-8.94462852386786
30
0
41
1
10
81.2038217674273
20
-8.88621456455263
30
0
41
1
10
81.3526115827088
20
-8.70676164911629
30
0
41
1
10
81.4270064903495
20
-8.58568300093461
30
0
41
1
10
81.5757963056311
20
-8.27775760227857
30
0
41
1
10
81.6501912132719
20
-8.09088455793844
30
0
41
1
10
81.7989810285534
20
-7.65250940021463
30
0
41
1
10
81.8733759361942
20
-7.40100433332111
30
0
41
1
10
82.0221657514757
20
-6.83926027105935
30
0
41
1
10
82.0965606591166
20
-6.52904602649789
30
0
41
1
10
82.2453504743981
20
-5.86021728489615
30
0
41
1
10
82.3197453820388
20
-5.50165108895732
30
0
41
1
10
82.4685351973205
20
-4.74977012641554
30
0
41
1
10
82.5429301049612
20
-4.35651549894084
30
0
41
1
10
82.6917199202428
20
-3.5505498406136
30
0
41
1
10
82.7661148278835
20
-3.13789619651112
30
0
41
1
10
82.9149046431651
20
-2.30824580251439
30
0
41
1
10
82.9892995508058
20
-1.89129189785251
30
0
41
1
10
83.1380893660874
20
-1.06643107244022
30
0
41
1
10
83.2124842737282
20
-0.658547003096032
30
0
41
1
10
83.2961785448242
20
-0.210766410074171
30
0
41
1
10
83.3054779082793
20
-0.161165094116058
30
0
41
1
10
83.3240766351894
20
-0.0622840214968505
30
0
41
1
10
83.3333759986445
20
-0.0131077912220974
30
0
41
1
10
83.3612740890098
20
0.134715070337677
30
0
41
1
10
83.37987281592
20
0.233924307219183
30
0
41
1
10
83.4356689966506
20
0.533325388109176
30
0
41
1
10
83.472866450471
20
0.735296549017221
30
0
41
1
10
83.5844588119321
20
1.34643541970851
30
0
41
1
10
83.6588537195729
20
1.76091099516296
30
0
41
1
10
83.8076435348544
20
2.59174853000664
30
0
41
1
10
83.8820384424952
20
3.00807616026802
30
0
41
1
10
84.0308282577769
20
3.82813429128791
30
0
41
1
10
84.1052231654176
20
4.23181266551592
30
0
41
1
10
84.2540129806991
20
5.01115945007325
30
0
41
1
10
84.3284078883398
20
5.38676717875313
30
0
41
1
10
84.4771977036214
20
6.09536491581952
30
0
41
1
10
84.5515926112622
20
6.42829968057885
30
0
41
1
10
84.7003824265437
20
7.03954453650971
30
0
41
1
10
84.7747773341845
20
7.3178185134945
30
0
41
1
10
84.9235671494661
20
7.81175587393403
30
0
41
1
10
84.9979620571069
20
8.02741011952475
30
0
41
1
10
85.1467518723884
20
8.39284465882091
30
0
41
1
10
85.2211467800292
20
8.54264200139389
30
0
41
1
10
85.3699365953107
20
8.77769198535177
30
0
41
1
10
85.4443315029515
20
8.86297983143305
30
0
41
1
10
85.5931213182331
20
8.97411267954584
30
0
41
1
10
85.6675162258738
20
9
30
0
41
1
10
85.7419111335146
20
9
30
0
0
SPLINE
5
F6
100
AcDbEntity
8
1
62
256
6
ByLayer
370
13
48
1
60
0
100
AcDbSpline
70
4
71
3
72
22
73
18
40
0
40
0
40
0
40
0
40
0.125
40
0.125
40
0.25
40
0.25
40
0.375
40
0.375
40
0.5
40
0.5
40
0.625
40
0.625
40
0.75
40
0.75
40
0.875
40
0.875
40
1
40
1
40
1
40
1
41
1
10
86.5435436469829
20
9
30
0
41
1
10
86.6135738238421
20
9
30
0
41
1
10
86.6836040007014
20
8.97706967287786
30
0
41
1
10
86.8236643544198
20
8.87897336784306
30
0
41
1
10
86.893694531279
20
8.80377600949748
30
0
41
1
10
87.0337548849975
20
8.59665367568667
30
0
41
1
10
87.1037850618567
20
8.46470158772368
30
0
41
1
10
87.2438454155752
20
8.14242336453259
30
0
41
1
10
87.3138755924344
20
7.95208168875917
30
0
41
1
10
87.4539359461527
20
7.51489152689308
30
0
41
1
10
87.523966123012
20
7.26804495199576
30
0
41
1
10
87.6640264767304
20
6.72345035593543
30
0
41
1
10
87.7340566535897
20
6.42572352893473
30
0
41
1
10
87.8741170073081
20
5.78836744007268
30
0
41
1
10
87.9441471841674
20
5.44877509108127
30
0
41
1
10
88.0842075378858
20
4.73918993424019
30
0
41
1
10
88.154237714745
20
4.3692417261702
30
0
41
1
10
88.2242678916042
20
3.99046724636358
30
0
0
SPLINE
5
F7
100
AcDbEntity
8
1
62
256
6
ByLayer
370
13
48
1
60
0
100
AcDbSpline
70
4
71
3
72
80
73
76
40
0
40
0
40
0
40
0
40
0.03125
40
0.03125
40
0.0625
40
0.0625
40
0.09375
40
0.09375
40
0.125
40
0.125
40
0.15625
40
0.15625
40
0.1875
40
0.1875
40
0.21875
40
0.21875
40
0.25
40
0.25
40
0.265625
40
0.265625
40
0.2734375
40
0.2734375
40
0.27734375
40
0.27734375
40
0.28125
40
0.28125
40
0.3125
40
0.3125
40
0.343750000000001
40
0.343750000000001
40
0.375000000000001
40
0.375000000000001
40
0.406250000000002
40
0.406250000000002
40
0.437500000000002
40
0.437500000000002
40
0.468750000000003
40
0.468750000000003
40
0.500000000000003
40
0.500000000000003
40
0.531250000000003
40
0.531250000000003
40
0.562500000000004
40
0.562500000000004
40
0.593750000000004
40
0.593750000000004
40
0.625000000000005
40
0.625000000000005
40
0.632812500000005
40
0.632812500000005
40
0.640625000000005
40
0.640625000000005
40
0.656250000000005
40
0.656250000000005
40
0.687500000000004
40
0.687500000000004
40
0.718750000000004
40
0.718750000000004
40
0.750000000000004
40
0.750000000000004
40
0.781250000000003
40
0.781250000000003
40
0.812500000000003
40
0.812500000000003
40
0.843750000000002
40
0.843750000000002
40
0.875000000000002
40
0.875000000000002
40
0.906250000000001
40
0.906250000000001
40
0.937500000000001
40
0.937500000000001
40
0.968750000000001
40
0.968750000000001
40
1
40
1
40
1
40
1
41
1
10
78.6
20
-3.15369808833051
30
0
41
1
10
78.6692233300589
20
-3.53743976800553
30
0
41
1
10
78.7384466601178
20
-3.9170847479721
30
0
41
1
10
78.8768933202356
20
-4.65590283732681
30
0
41
1
10
78.9461166502945
20
-5.01503435463144
30
0
41
1
10
79.0845633104123
20
-5.70069642247287
30
0
41
1
10
79.1537866404713
20
-6.02718584195947
30
0
41
1
10
79.292233300589
20
-6.63692616316365
30
0
41
1
10
79.3614566306479
20
-6.92014520399653
30
0
41
1
10
79.4999032907657
20
-7.43532721786178
30
0
41
1
10
79.5691266208245
20
-7.66727422002785
30
0
41
1
10
79.7075732809424
20
-8.07525430082117
30
0
41
1
10
79.7767966110013
20
-8.25128944801457
30
0
41
1
10
79.915243271119
20
-8.54635972078657
30
0
41
1
10
79.9844666011779
20
-8.66541228793807
30
0
41
1
10
80.1229132612957
20
-8.84869598238311
30
0
41
1
10
80.1921365913547
20
-8.91295401561172
30
0
41
1
10
80.2959715864429
20
-8.9717898657058
30
0
41
1
10
80.3305832514724
20
-8.98516070217266
30
0
41
1
10
80.3825007490166
20
-8.99642439196958
30
0
41
1
10
80.3998065815313
20
-8.99871426703879
30
0
41
1
10
80.4257653303034
20
-9.00002897096928
30
0
41
1
10
80.4344182465608
20
-9.00011505860519
30
0
41
1
10
80.4517240790755
20
-8.99958772773371
30
0
41
1
10
80.4603769953329
20
-8.99897237013317
30
0
41
1
10
80.538253241649
20
-8.99021031566267
30
0
41
1
10
80.607476571708
20
-8.95943637129906
30
0
41
1
10
80.7459232318258
20
-8.84600611731025
30
0
41
1
10
80.8151465618847
20
-8.76332038392971
30
0
41
1
10
80.9535932220025
20
-8.5420954740901
30
0
41
1
10
81.0228165520614
20
-8.4035318797757
30
0
41
1
10
81.1612632121792
20
-8.06941005389155
30
0
41
1
10
81.2304865422381
20
-7.87383911845643
30
0
41
1
10
81.3689332023559
20
-7.42797380518022
30
0
41
1
10
81.4381565324147
20
-7.17768349062507
30
0
41
1
10
81.5766031925325
20
-6.62820934007499
30
0
41
1
10
81.6458265225915
20
-6.32904743933184
30
0
41
1
10
81.7842731827093
20
-5.69082836394992
30
0
41
1
10
81.8534965127682
20
-5.35180715953067
30
0
41
1
10
81.991943172886
20
-4.64514790344731
30
0
41
1
10
82.0611665029448
20
-4.27755215414197
30
0
41
1
10
82.1996131630625
20
-3.52609581508099
30
0
41
1
10
82.2688364931215
20
-3.14227501443449
30
0
41
1
10
82.4072831532393
20
-2.37052885721053
30
0
41
1
10
82.4765064832982
20
-1.9826337537055
30
0
41
1
10
82.614953143416
20
-1.21363248244376
30
0
41
1
10
82.6841764734749
20
-0.832543625973614
30
0
41
1
10
82.7707056360485
20
-0.3659904416823
30
0
41
1
10
82.7880114685632
20
-0.273164789765445
30
0
41
1
10
82.8226231335926
20
-0.0885999355253659
30
0
41
1
10
82.8399289661074
20
0.0027540408130449
30
0
41
1
10
82.8918464636515
20
0.27856922994647
30
0
41
1
10
82.926458128681
20
0.464692395371145
30
0
41
1
10
83.0302931237694
20
1.02838285326484
30
0
41
1
10
83.0995164538282
20
1.41133733177699
30
0
41
1
10
83.237963113946
20
2.18232719493611
30
0
41
1
10
83.3071864440049
20
2.57034297033451
30
0
41
1
10
83.4456331041227
20
3.34030678795648
30
0
41
1
10
83.5148564341816
20
3.72222258317885
30
0
41
1
10
83.6533030942994
20
4.46772575572976
30
0
41
1
10
83.7225264243583
20
4.83127232875708
30
0
41
1
10
83.8609730844761
20
5.52777988375044
30
0
41
1
10
83.930196414535
20
5.8606990138089
30
0
41
1
10
84.0686430746529
20
6.48496969463761
30
0
41
1
10
84.1378664047118
20
6.77628722006804
30
0
41
1
10
84.2763130648295
20
7.30882041910524
30
0
41
1
10
84.3455363948884
20
7.55001709431872
30
0
41
1
10
84.4839830550063
20
7.97704228016312
30
0
41
1
10
84.553206385065
20
8.16286982336018
30
0
41
1
10
84.6916530451829
20
8.47746480617752
30
0
41
1
10
84.7608763752418
20
8.60624740324326
30
0
41
1
10
84.8993230353595
20
8.80841034590645
30
0
41
1
10
84.9685463654184
20
8.8818164559265
30
0
41
1
10
85.1069930255362
20
8.97759646859205
30
0
41
1
10
85.1762163555951
20
9
30
0
41
1
10
85.245439685654
20
9
30
0
0
SPLINE
5
F8
100
AcDbEntity
8
1
62
256
6
ByLayer
370
13
48
1
60
0
100
AcDbSpline
70
4
71
3
72
22
73
18
40
0
40
0
40
0
40
0
40
0.125
40
0.125
40
0.25
40
0.25
40
0.375
40
0.375
40
0.5
40
0.5
40
0.625
40
0.625
40
0.75
40
0.75
40
0.875
40
0.875
40
1
40
1
40
1
40
1
41
1
10
86.0470721991223
20
9
30
0
41
1
10
86.1377886863091
20
9
30
0
41
1
10
86.2285051734958
20
8.96144352028696
30
0
41
1
10
86.4099381478694
20
8.79389062503196
30
0
41
1
10
86.5006546350561
20
8.66478247207402
30
0
41
1
10
86.6820876094296
20
8.30881857065589
30
0
41
1
10
86.7728040966163
20
8.08188657038062
30
0
41
1
10
86.9542370709898
20
7.53218755680223
30
0
41
1
10
87.0449535581765
20
7.20941988283948
30
0
41
1
10
87.2263865325501
20
6.48047724016345
30
0
41
1
10
87.3171030197368
20
6.07439098401682
30
0
41
1
10
87.4985359941103
20
5.20044886080703
30
0
41
1
10
87.589252481297
20
4.73274419902617
30
0
41
1
10
87.7706854556704
20
3.76267215398462
30
0
41
1
10
87.8614019428572
20
3.26046392580338
30
0
41
1
10
88.0428349172307
20
2.24908287200856
30
0
41
1
10
88.1335514044174
20
1.74002646586121
30
0
41
1
10
88.2242678916042
20
1.23947717052917
30
0
0
SPLINE
5
F9
100
AcDbEntity
8
1
62
256
6
ByLayer
370
13
48
1
60
0
100
AcDbSpline
70
4
71
3
72
78
73
74
40
0
40
0
40
0
40
0
40
0.0312500000000002
40
0.0312500000000002
40
0.0625000000000003
40
0.0625000000000003
40
0.0937500000000006
40
0.0937500000000006
40
0.125000000000001
40
0.125000000000001
40
0.156250000000001
40
0.156250000000001
40
0.187500000000001
40
0.187500000000001
40
0.203125000000001
40
0.203125000000001
40
0.210937500000001
40
0.210937500000001
40
0.218750000000001
40
0.218750000000001
40
0.250000000000001
40
0.250000000000001
40
0.281250000000001
40
0.281250000000001
40
0.312500000000001
40
0.312500000000001
40
0.34375
40
0.34375
40
0.375
40
0.375
40
0.40625
40
0.40625
40
0.437499999999999
40
0.437499999999999
40
0.468749999999999
40
0.468749999999999
40
0.499999999999999
40
0.499999999999999
40
0.531249999999998
40
0.531249999999998
40
0.562499999999998
40
0.562499999999998
40
0.593749999999998
40
0.593749999999998
40
0.601562499999998
40
0.601562499999998
40
0.609374999999998
40
0.609374999999998
40
0.624999999999998
40
0.624999999999998
40
0.656249999999998
40
0.656249999999998
40
0.687499999999998
40
0.687499999999998
40
0.718749999999998
40
0.718749999999998
40
0.749999999999999
40
0.749999999999999
40
0.781249999999999
40
0.781249999999999
40
0.812499999999999
40
0.812499999999999
40
0.843749999999999
40
0.843749999999999
40
0.874999999999999
40
0.874999999999999
40
0.906249999999999
40
0.906249999999999
40
0.9375
40
0.9375
40
0.96875
40
0.96875
40
1
40
1
40
1
40
1
41
1
10
78.6
20
-5.75188935996306
30
0
41
1
10
78.664051752477
20
-6.05655684425454
30
0
41
1
10
78.728103504954
20
-6.34536446190623
30
0
41
1
10
78.8562070099081
20
-6.88353503992178
30
0
41
1
10
78.9202587623851
20
-7.13287940788899
30
0
41
1
10
79.0483622673391
20
-7.58647681127988
30
0
41
1
10
79.1124140198161
20
-7.79072195955069
30
0
41
1
10
79.2405175247702
20
-8.15101198897159
30
0
41
1
10
79.3045692772472
20
-8.30706022970503
30
0
41
1
10
79.4326727822013
20
-8.57045265884236
30
0
41
1
10
79.4967245346783
20
-8.6778094837168
30
0
41
1
10
79.6248280396322
20
-8.84567079678777
30
0
41
1
10
79.6888797921092
20
-8.90619363562806
30
0
41
1
10
79.7849574208248
20
-8.96463436508185
30
0
41
1
10
79.8169832970633
20
-8.9787368539738
30
0
41
1
10
79.865022111421
20
-8.99226633951051
30
0
41
1
10
79.8810350495403
20
-8.99550602526449
30
0
41
1
10
79.9130609257788
20
-8.99952483363296
30
0
41
1
10
79.9290738638981
20
-9.00030602630684
30
0
41
1
10
80.0091385544943
20
-8.99824545062305
30
0
41
1
10
80.0731903069714
20
-8.97730737675403
30
0
41
1
10
80.2012938119254
20
-8.89196751497923
30
0
41
1
10
80.2653455644024
20
-8.82754559056758
30
0
41
1
10
80.3934490693564
20
-8.65164481583236
30
0
41
1
10
80.4575008218335
20
-8.54014794878589
30
0
41
1
10
80.5856043267876
20
-8.268419469235
30
0
41
1
10
80.6496560792646
20
-8.1081758915154
30
0
41
1
10
80.7777595842185
20
-7.73965674554594
30
0
41
1
10
80.8418113366955
20
-7.53137873763211
30
0
41
1
10
80.9699148416495
20
-7.07010257179681
30
0
41
1
10
81.0339665941266
20
-6.81711328102267
30
0
41
1
10
81.1620700990806
20
-6.27224377834307
30
0
41
1
10
81.2261218515577
20
-5.98038296475121
30
0
41
1
10
81.3542253565116
20
-5.36568735151488
30
0
41
1
10
81.4182771089887
20
-5.04287914467903
30
0
41
1
10
81.5463806139427
20
-4.3755883724271
30
0
41
1
10
81.6104323664197
20
-4.03113465211882
30
0
41
1
10
81.7385358713737
20
-3.33038352342189
30
0
41
1
10
81.8025876238507
20
-2.97411217673019
30
0
41
1
10
81.9306911288048
20
-2.25924496716965
30
0
41
1
10
81.9947428812818
20
-1.90066864715163
30
0
41
1
10
82.1228463862358
20
-1.18970226903806
30
0
41
1
10
82.1868981387129
20
-0.83732353459024
30
0
41
1
10
82.2669628293091
20
-0.405113255342684
30
0
41
1
10
82.2829757674284
20
-0.319080388130942
30
0
41
1
10
82.315001643667
20
-0.147926403944553
30
0
41
1
10
82.3310145817861
20
-0.0629535511529582
30
0
41
1
10
82.3790533961439
20
0.191422694970527
30
0
41
1
10
82.4110792723824
20
0.362978257503471
30
0
41
1
10
82.5071569010979
20
0.882464954097145
30
0
41
1
10
82.571208653575
20
1.23526591400542
30
0
41
1
10
82.699312158529
20
1.94673982890768
30
0
41
1
10
82.7633639110059
20
2.3054011004136
30
0
41
1
10
82.8914674159601
20
3.02004652462676
30
0
41
1
10
82.955519168437
20
3.37601080419151
30
0
41
1
10
83.083622673391
20
4.07572674493076
30
0
41
1
10
83.147674425868
20
4.41945213506452
30
0
41
1
10
83.2757779308221
20
5.08486968931794
30
0
41
1
10
83.3398296832991
20
5.40653299671476
30
0
41
1
10
83.4679331882531
20
6.01856419066763
30
0
41
1
10
83.5319849407301
20
6.30890569835739
30
0
41
1
10
83.6600884456842
20
6.85043835854779
30
0
41
1
10
83.7241401981612
20
7.10161051263026
30
0
41
1
10
83.8522437031152
20
7.5590555892224
30
0
41
1
10
83.9162954555923
20
7.76532013397983
30
0
41
1
10
84.0443989605462
20
8.1297282235156
30
0
41
1
10
84.1084507130232
20
8.28787466972224
30
0
41
1
10
84.2365542179773
20
8.55543399243587
30
0
41
1
10
84.3006059704543
20
8.6648591731325
30
0
41
1
10
84.4287094754083
20
8.83673512557272
30
0
41
1
10
84.4927612278853
20
8.89920408470249
30
0
41
1
10
84.6208647328393
20
8.98082644900688
30
0
41
1
10
84.6849164853165
20
9
30
0
41
1
10
84.7489682377934
20
9
30
0
0
SPLINE
5
FA
100
AcDbEntity
8
1
62
256
6
ByLayer
370
13
48
1
60
0
100
AcDbSpline
70
4
71
3
72
42
73
38
40
0
40
0
40
0
40
0
40
0.0625000000000001
40
0.0625000000000001
40
0.125
40
0.125
40
0.1875
40
0.1875
40
0.25
40
0.25
40
0.312500000000001
40
0.312500000000001
40
0.375000000000001
40
0.375000000000001
40
0.437500000000001
40
0.437500000000001
40
0.500000000000001
40
0.500000000000001
40
0.562500000000001
40
0.562500000000001
40
0.625000000000001
40
0.625000000000001
40
0.687500000000002
40
0.687500000000002
40
0.750000000000002
40
0.750000000000002
40
0.812500000000002
40
0.812500000000002
40
0.875000000000002
40
0.875000000000002
40
0.890625000000002
40
0.890625000000002
40
0.906250000000002
40
0.906250000000002
40
0.937500000000002
40
0.937500000000002
40
1
40
1
40
1
40
1
41
1
10
85.5506007512618
20
9
30
0
41
1
10
85.6063021500189
20
9
30
0
41
1
10
85.662003548776
20
8.98550783611344
30
0
41
1
10
85.7734063462902
20
8.92425350380867
30
0
41
1
10
85.8291077450474
20
8.87748130160142
30
0
41
1
10
85.9405105425616
20
8.74906289907835
30
0
41
1
10
85.9962119413188
20
8.66740719360405
30
0
41
1
10
86.1076147388331
20
8.46761630921472
30
0
41
1
10
86.1633161375903
20
8.3494736101415
30
0
41
1
10
86.2747189351046
20
8.07636299823335
30
0
41
1
10
86.3304203338618
20
7.92139100428099
30
0
41
1
10
86.441823131376
20
7.5757153187472
30
0
41
1
10
86.497524530133
20
7.3850120830775
30
0
41
1
10
86.6089273276473
20
6.97046481545814
30
0
41
1
10
86.6646287264045
20
6.74662618346287
30
0
41
1
10
86.7760315239187
20
6.26980935168842
30
0
41
1
10
86.8317329226759
20
6.01684102300175
30
0
41
1
10
86.9431357201901
20
5.48694456371746
30
0
41
1
10
86.9988371189472
20
5.21002947093768
30
0
41
1
10
87.1102399164615
20
4.6382483650651
30
0
41
1
10
87.1659413152187
20
4.3433967095936
30
0
41
1
10
87.2773441127329
20
3.74216201687989
30
0
41
1
10
87.3330455114901
20
3.43579270208426
30
0
41
1
10
87.4444483090043
20
2.81792417747033
30
0
41
1
10
87.5001497077615
20
2.50643642126084
30
0
41
1
10
87.6115525052758
20
1.88433090994138
30
0
41
1
10
87.6672539040328
20
1.57372131662396
30
0
41
1
10
87.7786567015471
20
0.95867286479583
30
0
41
1
10
87.8343581003043
20
0.654238549954982
30
0
41
1
10
87.9039848487507
20
0.28030883231844
30
0
41
1
10
87.91791019844
20
0.205851230487411
30
0
41
1
10
87.9457608978184
20
0.0576520914308389
30
0
41
1
10
87.9596862475079
20
-0.0158514961865137
30
0
41
1
10
88.0014622965758
20
-0.237741694932453
30
0
41
1
10
88.0293129959542
20
-0.387124096811505
30
0
41
1
10
88.1128650940899
20
-0.838911313128364
30
0
41
1
10
88.168566492847
20
-1.14498490333094
30
0
41
1
10
88.2242678916042
20
-1.45364534514647
30
0
0
SPLINE
5
FB
100
AcDbEntity
8
1
62
256
6
ByLayer
370
13
48
1
60
0
100
AcDbSpline
70
4
71
3
72
78
73
74
40
0
40
0
40
0
40
0
40
0.03125
40
0.03125
40
0.0624999999999999
40
0.0624999999999999
40
0.0937499999999999
40
0.0937499999999999
40
0.125
40
0.125
40
0.140625
40
0.140625
40
0.1484375
40
0.1484375
40
0.15625
40
0.15625
40
0.1875
40
0.1875
40
0.21875
40
0.21875
40
0.25
40
0.25
40
0.28125
40
0.28125
40
0.3125
40
0.3125
40
0.34375
40
0.34375
40
0.375
40
0.375
40
0.40625
40
0.40625
40
0.4375
40
0.4375
40
0.46875
40
0.46875
40
0.5
40
0.5
40
0.53125
40
0.53125
40
0.5625
40
0.5625
40
0.5703125
40
0.5703125
40
0.578125
40
0.578125
40
0.59375
40
0.59375
40
0.625
40
0.625
40
0.65625
40
0.65625
40
0.6875
40
0.6875
40
0.71875
40
0.71875
40
0.75
40
0.75
40
0.78125
40
0.78125
40
0.8125
40
0.8125
40
0.84375
40
0.84375
40
0.875
40
0.875
40
0.90625
40
0.90625
40
0.9375
40
0.9375
40
0.96875
40
0.96875
40
1
40
1
40
1
40
1
41
1
10
78.6
20
-7.73348435470618
30
0
41
1
10
78.6588801748951
20
-7.91727552220743
30
0
41
1
10
78.7177603497903
20
-8.08112564428376
30
0
41
1
10
78.8355206995805
20
-8.3676415646417
30
0
41
1
10
78.8944008744757
20
-8.49031289144301
30
0
41
1
10
79.0121612242659
20
-8.69496294965191
30
0
41
1
10
79.071041399161
20
-8.77695189615119
30
0
41
1
10
79.1888017489513
20
-8.90228117252008
30
0
41
1
10
79.2476819238465
20
-8.94563424816053
30
0
41
1
10
79.3360021861891
20
-8.98410980491587
30
0
41
1
10
79.3654422736367
20
-8.99251743758123
30
0
41
1
10
79.4096024048081
20
-8.99886473611613
30
0
41
1
10
79.4243224485319
20
-8.99993682931176
30
0
41
1
10
79.4537625359794
20
-9.00005774848233
30
0
41
1
10
79.4684825797032
20
-8.99910840968377
30
0
41
1
10
79.5420827983221
20
-8.98915305983624
30
0
41
1
10
79.6009629732172
20
-8.96449015809728
30
0
41
1
10
79.7187233230076
20
-8.87808721234384
30
0
41
1
10
79.7776034979027
20
-8.81633396305699
30
0
41
1
10
79.895363847693
20
-8.65303763228181
30
0
41
1
10
79.9542440225881
20
-8.55148275426711
30
0
41
1
10
80.0720043723783
20
-8.30724604255784
30
0
41
1
10
80.1308845472735
20
-8.16455601579534
30
0
41
1
10
80.2486448970637
20
-7.8383959175072
30
0
41
1
10
80.3075250719589
20
-7.65492323425283
30
0
41
1
10
80.4252854217492
20
-7.24939803889995
30
0
41
1
10
80.4841655966443
20
-7.02734966785152
30
0
41
1
10
80.6019259464346
20
-6.54870717785457
30
0
41
1
10
80.6608061213298
20
-6.29212386252507
30
0
41
1
10
80.77856647112
20
-5.75005354509685
30
0
41
1
10
80.8374466460152
20
-5.46458254913233
30
0
41
1
10
80.9552069958054
20
-4.87157783113287
30
0
41
1
10
81.0140871707005
20
-4.56406281296807
30
0
41
1
10
81.1318475204908
20
-3.9344787723748
30
0
41
1
10
81.1907276953859
20
-3.61242825514097
30
0
41
1
10
81.3084880451762
20
-2.96138026491025
30
0
41
1
10
81.3673682200713
20
-2.63239854012213
30
0
41
1
10
81.4851285698616
20
-1.97467036739033
30
0
41
1
10
81.5440087447568
20
-1.64593523129696
30
0
41
1
10
81.661769094547
20
-0.995046189045581
30
0
41
1
10
81.7206492694422
20
-0.672898559141004
30
0
41
1
10
81.794249488061
20
-0.277605109652114
30
0
41
1
10
81.8089695317848
20
-0.198913087869101
30
0
41
1
10
81.8384096192324
20
-0.0423324220046766
30
0
41
1
10
81.8531296629561
20
0.0353350871770033
30
0
41
1
10
81.8972897941275
20
0.270133969983817
30
0
41
1
10
81.9267298815751
20
0.428279732551573
30
0
41
1
10
82.0150501439177
20
0.90668922113349
30
0
41
1
10
82.0739303188129
20
1.2309606729238
30
0
41
1
10
82.1916906686032
20
1.8846544023678
30
0
41
1
10
82.2505708434984
20
2.21406918327875
30
0
41
1
10
82.3683311932886
20
2.87148058025093
30
0
41
1
10
82.4272113681837
20
3.19946471238023
30
0
41
1
10
82.5449717179739
20
3.84669493202247
30
0
41
1
10
82.6038518928692
20
4.16592440887175
30
0
41
1
10
82.7216122426595
20
4.7880154125329
30
0
41
1
10
82.7804924175546
20
5.09085812688303
30
0
41
1
10
82.8982527673447
20
5.67277550110154
30
0
41
1
10
82.9571329422399
20
5.95183184759242
30
0
41
1
10
83.0748932920302
20
6.47957410526789
30
0
41
1
10
83.1337734669253
20
6.72824507256064
30
0
41
1
10
83.2515338167156
20
7.18992176305017
30
0
41
1
10
83.3104139916107
20
7.40291821423665
30
0
41
1
10
83.428174341401
20
7.78962995852473
30
0
41
1
10
83.4870545162961
20
7.96334279299856
30
0
41
1
10
83.6048148660864
20
8.26972939444417
30
0
41
1
10
83.6636950409815
20
8.40240727449205
30
0
41
1
10
83.7814553907718
20
8.62679701772953
30
0
41
1
10
83.8403355656669
20
8.71851814772637
30
0
41
1
10
83.9580959154572
20
8.86269127473122
30
0
41
1
10
84.0169760903524
20
8.91515560763258
30
0
41
1
10
84.1347364401427
20
8.9838033499
30
0
41
1
10
84.1936166150377
20
9
30
0
41
1
10
84.2524967899328
20
9
30
0
0
SPLINE
5
FC
100
AcDbEntity
8
1
62
256
6
ByLayer
370
13
48
1
60
0
100
AcDbSpline
70
4
71
3
72
42
73
38
40
0
40
0
40
0
40
0
40
0.0625
40
0.0625
40
0.125
40
0.125
40
0.1875
40
0.1875
40
0.25
40
0.25
40
0.3125
40
0.3125
40
0.375
40
0.375
40
0.4375
40
0.4375
40
0.5
40
0.5
40
0.5625
40
0.5625
40
0.625
40
0.625
40
0.6875
40
0.6875
40
0.75
40
0.75
40
0.765625
40
0.765625
40
0.78125
40
0.78125
40
0.8125
40
0.8125
40
0.875
40
0.875
40
0.9375
40
0.9375
40
1
40
1
40
1
40
1
41
1
10
85.0541293034012
20
9
30
0
41
1
10
85.120173857322
20
9
30
0
41
1
10
85.1862184112429
20
8.97961182654592
30
0
41
1
10
85.3183075190847
20
8.89267477060341
30
0
41
1
10
85.3843520730056
20
8.82610242615507
30
0
41
1
10
85.5164411808475
20
8.6428628032935
30
0
41
1
10
85.5824857347684
20
8.52617463177558
30
0
41
1
10
85.7145748426101
20
8.24094570482029
30
0
41
1
10
85.7806193965311
20
8.07239148912396
30
0
41
1
10
85.9127085043729
20
7.68438378072472
30
0
41
1
10
85.9787530582937
20
7.46492848254061
30
0
41
1
10
86.1108421661355
20
6.9790268142834
30
0
41
1
10
86.1768867200564
20
6.71259226261594
30
0
41
1
10
86.3089758278982
20
6.13944973779471
30
0
41
1
10
86.3750203818191
20
5.83276586632206
30
0
41
1
10
86.5071094896609
20
5.18810437425429
30
0
41
1
10
86.5731540435819
20
4.85015863223197
30
0
41
1
10
86.7052431514236
20
4.15335530073145
30
0
41
1
10
86.7712877053444
20
3.79453109638732
30
0
41
1
10
86.9033768131862
20
3.06675089138378
30
0
41
1
10
86.9694213671071
20
2.69782376618662
30
0
41
1
10
87.1015104749489
20
1.96005979258945
30
0
41
1
10
87.1675550288699
20
1.59124324020911
30
0
41
1
10
87.2996441367115
20
0.862613459394311
30
0
41
1
10
87.3656886906326
20
0.50281053768461
30
0
41
1
10
87.4482443830336
20
0.0631476918769351
30
0
41
1
10
87.4647555215139
20
-0.0239607635455172
30
0
41
1
10
87.4977777984743
20
-0.199525512778848
30
0
41
1
10
87.5142889369546
20
-0.287814947952114
30
0
41
1
10
87.5638223523952
20
-0.554055934099466
30
0
41
1
10
87.5968446293557
20
-0.733383856691063
30
0
41
1
10
87.6959114602371
20
-1.27554680742449
30
0
41
1
10
87.7619560141579
20
-1.64261339670023
30
0
41
1
10
87.8940451219997
20
-2.37959266558346
30
0
41
1
10
87.9600896759206
20
-2.74948789117471
30
0
41
1
10
88.0921787837624
20
-3.48223191710474
30
0
41
1
10
88.1582233376832
20
-3.84505400351551
30
0
41
1
10
88.2242678916042
20
-4.19900329108333
30
0
0
SPLINE
5
FD
100
AcDbEntity
8
1
62
256
6
ByLayer
370
13
48
1
60
0
100
AcDbSpline
70
4
71
3
72
8
73
4
40
0
40
0
40
0
40
0
40
1
40
1
40
1
40
1
41
1
10
88.2242678916042
20
8.92918558100567
30
0
41
1
10
89.3161785944028
20
5.95402073614366
30
0
41
1
10
90.4080892972015
20
2.97760957130251
30
0
41
1
10
91.5
20
0
30
0
0
SPLINE
5
FE
100
AcDbEntity
8
1
62
256
6
ByLayer
370
13
48
1
60
0
100
AcDbSpline
70
4
71
3
72
8
73
4
40
0
40
0
40
0
40
0
40
1
40
1
40
1
40
1
41
1
10
88.2242678916042
20
-7.42733390559766
30
0
41
1
10
89.3161785944028
20
-4.95710588523352
30
0
41
1
10
90.4080892972015
20
-2.48131462371751
30
0
41
1
10
91.5000000000001
20
1.137E-13
30
0
0
SPLINE
5
FF
100
AcDbEntity
8
1
62
256
6
ByLayer
370
13
48
1
60
0
100
AcDbSpline
70
4
71
3
72
8
73
4
40
0
40
0
40
0
40
0
40
1
40
1
40
1
40
1
41
1
10
88.2242678916044
20
-3.79210506180209
30
0
41
1
10
89.316178594403
20
-2.53698232974858
30
0
41
1
10
90.4080892972017
20
-1.2729405114012
30
0
41
1
10
91.5000000000003
20
3.126E-13
30
0
0
SPLINE
5
100
100
AcDbEntity
8
1
62
256
6
ByLayer
370
13
48
1
60
0
100
AcDbSpline
70
4
71
3
72
8
73
4
40
0
40
0
40
0
40
0
40
1
40
1
40
1
40
1
41
1
10
88.2242678916042
20
-8.97825289078185
30
0
41
1
10
89.3161785944028
20
-5.9848191773066
30
0
41
1
10
90.4080892972015
20
-2.99205215820933
30
0
41
1
10
91.5000000000001
20
1.137E-13
30
0
0
SPLINE
5
101
100
AcDbEntity
8
1
62
256
6
ByLayer
370
13
48
1
60
0
100
AcDbSpline
70
4
71
3
72
8
73
4
40
0
40
0
40
0
40
0
40
1
40
1
40
1
40
1
41
1
10
88.2242678916044
20
8.2947121867096
30
0
41
1
10
89.316178594403
20
5.52599459609672
30
0
41
1
10
90.4080892972017
20
2.76107570640124
30
0
41
1
10
91.5000000000003
20
-6.821E-13
30
0
0
SPLINE
5
102
100
AcDbEntity
8
1
62
256
6
ByLayer
370
13
48
1
60
0
100
AcDbSpline
70
4
71
3
72
8
73
4
40
0
40
0
40
0
40
0
40
1
40
1
40
1
40
1
41
1
10
88.2242678916042
20
-6.65108050033234
30
0
41
1
10
89.3161785944028
20
-4.42743312782852
30
0
41
1
10
90.4080892972015
20
-2.21039441141974
30
0
41
1
10
91.5000000000001
20
8.53E-14
30
0
0
SPLINE
5
103
100
AcDbEntity
8
1
62
256
6
ByLayer
370
13
48
1
60
0
100
AcDbSpline
70
4
71
3
72
8
73
4
40
0
40
0
40
0
40
0
40
1
40
1
40
1
40
1
41
1
10
88.2242678916042
20
8.69875543133358
30
0
41
1
10
89.3161785944028
20
5.80169155026061
30
0
41
1
10
90.4080892972015
20
2.90209084510323
30
0
41
1
10
91.5
20
2.84E-14
30
0
0
SPLINE
5
104
100
AcDbEntity
8
1
62
256
6
ByLayer
370
13
48
1
60
0
100
AcDbSpline
70
4
71
3
72
8
73
4
40
0
40
0
40
0
40
0
40
1
40
1
40
1
40
1
41
1
10
88.2242678916042
20
-1.45102201046512
30
0
41
1
10
89.3161785944028
20
-0.957649372683761
30
0
41
1
10
90.4080892972015
20
-0.473972791529945
30
0
41
1
10
91.5000000000001
20
2.84E-14
30
0
0
SPLINE
5
105
100
AcDbEntity
8
1
62
256
6
ByLayer
370
13
48
1
60
0
100
AcDbSpline
70
4
71
3
72
8
73
4
40
0
40
0
40
0
40
0
40
1
40
1
40
1
40
1
41
1
10
88.2242678916042
20
-8.81435094504982
30
0
41
1
10
89.3161785944028
20
-5.87424824114359
30
0
41
1
10
90.4080892972015
20
-2.93611549940979
30
0
41
1
10
91.5000000000001
20
1.137E-13
30
0
0
SPLINE
5
106
100
AcDbEntity
8
1
62
256
6
ByLayer
370
13
48
1
60
0
100
AcDbSpline
70
4
71
3
72
8
73
4
40
0
40
0
40
0
40
0
40
1
40
1
40
1
40
1
41
1
10
88.2242678916044
20
8.68679614114046
30
0
41
1
10
89.3161785944029
20
5.78862747395857
30
0
41
1
10
90.4080892972014
20
2.89301322935884
30
0
41
1
10
91.4999999999999
20
4.832E-13
30
0
0
SPLINE
5
107
100
AcDbEntity
8
1
62
256
6
ByLayer
370
13
48
1
60
0
100
AcDbSpline
70
4
71
3
72
8
73
4
40
0
40
0
40
0
40
0
40
1
40
1
40
1
40
1
41
1
10
88.2242678916042
20
5.38679666699801
30
0
41
1
10
89.3161785944028
20
3.59907032707827
30
0
41
1
10
90.4080892972015
20
1.80346179024238
30
0
41
1
10
91.5
20
2.84E-14
30
0
0
SPLINE
5
108
100
AcDbEntity
8
1
62
256
6
ByLayer
370
13
48
1
60
0
100
AcDbSpline
70
4
71
3
72
8
73
4
40
0
40
0
40
0
40
0
40
1
40
1
40
1
40
1
41
1
10
88.2242678916044
20
5.34974072628418
30
0
41
1
10
89.3161785944028
20
3.55859119921033
30
0
41
1
10
90.4080892972011
20
1.77533473709599
30
0
41
1
10
91.4999999999994
20
1.0232E-12
30
0
0
SPLINE
5
109
100
AcDbEntity
8
1
62
256
6
ByLayer
370
13
48
1
60
0
100
AcDbSpline
70
4
71
3
72
8
73
4
40
0
40
0
40
0
40
0
40
1
40
1
40
1
40
1
41
1
10
88.2242678916042
20
-6.68209613834358
30
0
41
1
10
89.3161785944028
20
-4.46131395645659
30
0
41
1
10
90.4080892972015
20
-2.23393661496203
30
0
41
1
10
91.5000000000001
20
8.53E-14
30
0
0
SPLINE
5
10A
100
AcDbEntity
8
1
62
256
6
ByLayer
370
13
48
1
60
0
100
AcDbSpline
70
4
71
3
72
8
73
4
40
0
40
0
40
0
40
0
40
1
40
1
40
1
40
1
41
1
10
88.2242678916042
20
4.37579493821283
30
0
41
1
10
89.3161785944028
20
2.92578410009136
30
0
41
1
10
90.4080892972015
20
1.46717794631601
30
0
41
1
10
91.5000000000001
20
-5.68E-14
30
0
0
SPLINE
5
10B
100
AcDbEntity
8
1
62
256
6
ByLayer
370
13
48
1
60
0
100
AcDbSpline
70
4
71
3
72
8
73
4
40
0
40
0
40
0
40
0
40
1
40
1
40
1
40
1
41
1
10
88.2242678916044
20
4.33539359497675
30
0
41
1
10
89.3161785944029
20
2.88165052508569
30
0
41
1
10
90.4080892972014
20
1.43651158873564
30
0
41
1
10
91.4999999999999
20
2.274E-13
30
0
0
SPLINE
5
10C
100
AcDbEntity
8
1
62
256
6
ByLayer
370
13
48
1
60
0
100
AcDbSpline
70
4
71
3
72
8
73
4
40
0
40
0
40
0
40
0
40
1
40
1
40
1
40
1
41
1
10
88.2242678916042
20
8.31251892360959
30
0
41
1
10
89.3161785944028
20
5.54544629981842
30
0
41
1
10
90.4080892972015
20
2.77459178575387
30
0
41
1
10
91.5
20
2.84E-14
30
0
0
SPLINE
5
10D
100
AcDbEntity
8
1
62
256
6
ByLayer
370
13
48
1
60
0
100
AcDbSpline
70
4
71
3
72
8
73
4
40
0
40
0
40
0
40
0
40
1
40
1
40
1
40
1
41
1
10
88.2242678916042
20
-7.40116264542658
30
0
41
1
10
89.3161785944028
20
-4.92851695275641
30
0
41
1
10
90.4080892972015
20
-2.46144951136085
30
0
41
1
10
91.5000000000001
20
1.137E-13
30
0
0
SPLINE
5
10E
100
AcDbEntity
8
1
62
256
6
ByLayer
370
13
48
1
60
0
100
AcDbSpline
70
4
71
3
72
8
73
4
40
0
40
0
40
0
40
0
40
1
40
1
40
1
40
1
41
1
10
88.2242678916044
20
-0.2980964882004
30
0
41
1
10
89.3161785944029
20
-0.208552796488419
30
0
41
1
10
90.4080892972014
20
-0.109186749739962
30
0
41
1
10
91.4999999999999
20
-2.84E-14
30
0
0
SPLINE
5
10F
100
AcDbEntity
8
1
62
256
6
ByLayer
370
13
48
1
60
0
100
AcDbSpline
70
4
71
3
72
8
73
4
40
0
40
0
40
0
40
0
40
1
40
1
40
1
40
1
41
1
10
88.2242678916042
20
-8.98134230469546
30
0
41
1
10
89.3161785944027
20
-5.98819398788882
30
0
41
1
10
90.4080892972013
20
-2.99439715627668
30
0
41
1
10
91.4999999999999
20
-5.116E-13
30
0
0
SPLINE
5
110
100
AcDbEntity
8
1
62
256
6
ByLayer
370
13
48
1
60
0
100
AcDbSpline
70
4
71
3
72
8
73
4
40
0
40
0
40
0
40
0
40
1
40
1
40
1
40
1
41
1
10
88.2242678916042
20
-5.81717308143092
30
0
41
1
10
89.3161785944028
20
-3.88561392069025
30
0
41
1
10
90.4080892972015
20
-1.94654581002626
30
0
41
1
10
91.5000000000001
20
8.53E-14
30
0
0
SPLINE
5
111
100
AcDbEntity
8
1
62
256
6
ByLayer
370
13
48
1
60
0
100
AcDbSpline
70
4
71
3
72
8
73
4
40
0
40
0
40
0
40
0
40
1
40
1
40
1
40
1
41
1
10
88.2242678916044
20
8.92328794442111
30
0
41
1
10
89.3161785944029
20
5.94757828236123
30
0
41
1
10
90.4080892972014
20
2.97313301141924
30
0
41
1
10
91.4999999999999
20
4.832E-13
30
0
0
SPLINE
5
112
100
AcDbEntity
8
1
62
256
6
ByLayer
370
13
48
1
60
0
100
AcDbSpline
70
4
71
3
72
8
73
4
40
0
40
0
40
0
40
0
40
1
40
1
40
1
40
1
41
1
10
88.2242678916042
20
-8.8235638512505
30
0
41
1
10
89.3161785944028
20
-5.88431222551299
30
0
41
1
10
90.4080892972015
20
-2.94310849155505
30
0
41
1
10
91.5000000000001
20
1.137E-13
30
0
0
SPLINE
5
113
100
AcDbEntity
8
1
62
256
6
ByLayer
370
13
48
1
60
0
100
AcDbSpline
70
4
71
3
72
8
73
4
40
0
40
0
40
0
40
0
40
1
40
1
40
1
40
1
41
1
10
88.2242678916044
20
0.90571322301912
30
0
41
1
10
89.3161785944029
20
0.594031507446516
30
0
41
1
10
90.4080892972014
20
0.292125497480015
30
0
41
1
10
91.4999999999999
20
5.68E-14
30
0
0
SPLINE
5
114
100
AcDbEntity
8
1
62
256
6
ByLayer
370
13
48
1
60
0
100
AcDbSpline
70
4
71
3
72
8
73
4
40
0
40
0
40
0
40
0
40
1
40
1
40
1
40
1
41
1
10
88.2242678916042
20
-2.62410433125143
30
0
41
1
10
89.3161785944028
20
-1.74000267928213
30
0
41
1
10
90.4080892972015
20
-0.86529655938989
30
0
41
1
10
91.5000000000001
20
2.84E-14
30
0
0
SPLINE
5
115
100
AcDbEntity
8
1
62
256
6
ByLayer
370
13
48
1
60
0
100
AcDbSpline
70
4
71
3
72
8
73
4
40
0
40
0
40
0
40
0
40
1
40
1
40
1
40
1
41
1
10
88.2242678916042
20
-8.01868005683718
30
0
41
1
10
89.3161785944028
20
-5.34132443941184
30
0
41
1
10
90.4080892972015
20
-2.66841675449061
30
0
41
1
10
91.5000000000001
20
1.137E-13
30
0
0
SPLINE
5
116
100
AcDbEntity
8
1
62
256
6
ByLayer
370
13
48
1
60
0
100
AcDbSpline
70
4
71
3
72
8
73
4
40
0
40
0
40
0
40
0
40
1
40
1
40
1
40
1
41
1
10
88.2242678916042
20
7.77739407088626
30
0
41
1
10
89.3161785944028
20
5.18987468038384
30
0
41
1
10
90.4080892972015
20
2.59739607213811
30
0
41
1
10
91.5
20
2.84E-14
30
0
0
SPLINE
5
117
100
AcDbEntity
8
1
62
256
6
ByLayer
370
13
48
1
60
0
100
AcDbSpline
70
4
71
3
72
8
73
4
40
0
40
0
40
0
40
0
40
1
40
1
40
1
40
1
41
1
10
88.2242678916042
20
3.2864168625712
30
0
41
1
10
89.3161785944028
20
2.20009316203056
30
0
41
1
10
90.4080892972015
20
1.10461498071137
30
0
41
1
10
91.5000000000001
20
-5.68E-14
30
0
0
SPLINE
5
118
100
AcDbEntity
8
1
62
256
6
ByLayer
370
13
48
1
60
0
100
AcDbSpline
70
4
71
3
72
8
73
4
40
0
40
0
40
0
40
0
40
1
40
1
40
1
40
1
41
1
10
88.2242678916044
20
6.26826683748544
30
0
41
1
10
89.3161785944029
20
4.17179273973989
30
0
41
1
10
90.4080892972014
20
2.08235926300949
30
0
41
1
10
91.4999999999999
20
3.411E-13
30
0
0
SPLINE
5
119
100
AcDbEntity
8
1
62
256
6
ByLayer
370
13
48
1
60
0
100
AcDbSpline
70
4
71
3
72
8
73
4
40
0
40
0
40
0
40
0
40
1
40
1
40
1
40
1
41
1
10
88.2242678916042
20
-8.50774355382524
30
0
41
1
10
89.3161785944028
20
-5.67503455164928
30
0
41
1
10
90.4080892972015
20
-2.83910481271022
30
0
41
1
10
91.5000000000001
20
1.137E-13
30
0
0
SPLINE
5
11A
100
AcDbEntity
8
1
62
256
6
ByLayer
370
13
48
1
60
0
100
AcDbSpline
70
4
71
3
72
8
73
4
40
0
40
0
40
0
40
0
40
1
40
1
40
1
40
1
41
1
10
88.2242678916044
20
-1.49656689214302
30
0
41
1
10
89.3161785944029
20
-1.00740164057061
30
0
41
1
10
90.4080892972014
20
-0.508543316062969
30
0
41
1
10
91.4999999999999
20
-8.53E-14
30
0
0
SPLINE
5
11B
100
AcDbEntity
8
1
62
256
6
ByLayer
370
13
48
1
60
0
100
AcDbSpline
70
4
71
3
72
8
73
4
40
0
40
0
40
0
40
0
40
1
40
1
40
1
40
1
41
1
10
88.2242678916042
20
2.13817466016576
30
0
41
1
10
89.3161785944028
20
1.43499560935035
30
0
41
1
10
90.4080892972015
20
0.722266881641048
30
0
41
1
10
91.5000000000001
20
-2.84E-14
30
0
0
SPLINE
5
11C
100
AcDbEntity
8
1
62
256
6
ByLayer
370
13
48
1
60
0
100
AcDbSpline
70
4
71
3
72
8
73
4
40
0
40
0
40
0
40
0
40
1
40
1
40
1
40
1
41
1
10
88.2242678916044
20
-4.84805666500461
30
0
41
1
10
89.3161785944029
20
-3.24031733647988
30
0
41
1
10
90.4080892972014
20
-1.62428976306427
30
0
41
1
10
91.4999999999999
20
-2.842E-13
30
0
0
SPLINE
5
11D
100
AcDbEntity
8
1
62
256
6
ByLayer
370
13
48
1
60
0
100
AcDbSpline
70
4
71
3
72
8
73
4
40
0
40
0
40
0
40
0
40
1
40
1
40
1
40
1
41
1
10
88.2242678916042
20
-3.75018542959532
30
0
41
1
10
89.3161785944028
20
-2.49119020790232
30
0
41
1
10
90.4080892972015
20
-1.2411217071751
30
0
41
1
10
91.5000000000001
20
5.68E-14
30
0
0
SPLINE
5
11E
100
AcDbEntity
8
1
62
256
6
ByLayer
370
13
48
1
60
0
100
AcDbSpline
70
4
71
3
72
8
73
4
40
0
40
0
40
0
40
0
40
1
40
1
40
1
40
1
41
1
10
88.2242678916042
20
-4.80909568511953
30
0
41
1
10
89.3161785944028
20
-3.1977571840111
30
0
41
1
10
90.4080892972015
20
-1.59471670323103
30
0
41
1
10
91.5000000000001
20
5.68E-14
30
0
0
SPLINE
5
11F
100
AcDbEntity
8
1
62
256
6
ByLayer
370
13
48
1
60
0
100
AcDbSpline
70
4
71
3
72
8
73
4
40
0
40
0
40
0
40
0
40
1
40
1
40
1
40
1
41
1
10
88.2242678916044
20
2.0933003975974
30
0
41
1
10
89.3161785944029
20
1.38597591163096
30
0
41
1
10
90.4080892972014
20
0.688205385862489
30
0
41
1
10
91.4999999999999
20
1.137E-13
30
0
0
SPLINE
5
120
100
AcDbEntity
8
1
62
256
6
ByLayer
370
13
48
1
60
0
100
AcDbSpline
70
4
71
3
72
8
73
4
40
0
40
0
40
0
40
0
40
1
40
1
40
1
40
1
41
1
10
88.2242678916042
20
-8.49257217082427
30
0
41
1
10
89.3161785944028
20
-5.65846165292896
30
0
41
1
10
90.4080892972015
20
-2.82758908034009
30
0
41
1
10
91.5000000000001
20
1.137E-13
30
0
0
SPLINE
5
121
100
AcDbEntity
8
1
62
256
6
ByLayer
370
13
48
1
60
0
100
AcDbSpline
70
4
71
3
72
8
73
4
40
0
40
0
40
0
40
0
40
1
40
1
40
1
40
1
41
1
10
88.2242678916044
20
7.07451989595455
30
0
41
1
10
89.3161785944028
20
4.7102718859623
30
0
41
1
10
90.4080892972011
20
2.35208594609063
30
0
41
1
10
91.4999999999994
20
1.3642E-12
30
0
0
SPLINE
5
122
100
AcDbEntity
8
1
62
256
6
ByLayer
370
13
48
1
60
0
100
AcDbSpline
70
4
71
3
72
8
73
4
40
0
40
0
40
0
40
0
40
1
40
1
40
1
40
1
41
1
10
88.2242678916044
20
7.75405882978185
30
0
41
1
10
89.316178594403
20
5.16438375530379
30
0
41
1
10
90.4080892972017
20
2.57968362025824
30
0
41
1
10
91.5000000000003
20
-6.537E-13
30
0
0
SPLINE
5
123
100
AcDbEntity
8
1
62
256
6
ByLayer
370
13
48
1
60
0
100
AcDbSpline
70
4
71
3
72
8
73
4
40
0
40
0
40
0
40
0
40
1
40
1
40
1
40
1
41
1
10
88.2242678916042
20
-8.03953817685323
30
0
41
1
10
89.3161785944028
20
-5.3641094096746
30
0
41
1
10
90.4080892972015
20
-2.68424896489844
30
0
41
1
10
91.5000000000001
20
1.137E-13
30
0
0
SPLINE
5
124
100
AcDbEntity
8
1
62
256
6
ByLayer
370
13
48
1
60
0
100
AcDbSpline
70
4
71
3
72
8
73
4
40
0
40
0
40
0
40
0
40
1
40
1
40
1
40
1
41
1
10
88.2242678916042
20
0.951634886422738
30
0
41
1
10
89.3161785944029
20
0.644195363741431
30
0
41
1
10
90.4080892972015
20
0.326982015551778
30
0
41
1
10
91.5000000000002
20
-5.68E-14
30
0
0
SPLINE
5
125
100
AcDbEntity
8
1
62
256
6
ByLayer
370
13
48
1
60
0
100
AcDbSpline
70
4
71
3
72
8
73
4
40
0
40
0
40
0
40
0
40
1
40
1
40
1
40
1
41
1
10
88.2242678916042
20
-0.251949942445606
30
0
41
1
10
89.3161785944028
20
-0.158143283457292
30
0
41
1
10
90.4080892972015
20
-0.0741595362891019
30
0
41
1
10
91.5000000000001
20
0
30
0
0
SPLINE
5
126
100
AcDbEntity
8
1
62
256
6
ByLayer
370
13
48
1
60
0
100
AcDbSpline
70
4
71
3
72
8
73
4
40
0
40
0
40
0
40
0
40
1
40
1
40
1
40
1
41
1
10
88.2242678916042
20
6.30131365415824
30
0
41
1
10
89.3161785944028
20
4.20789238508593
30
0
41
1
10
90.4080892972015
20
2.10744321853681
30
0
41
1
10
91.5
20
2.84E-14
30
0
0
SPLINE
5
127
100
AcDbEntity
8
1
62
256
6
ByLayer
370
13
48
1
60
0
100
AcDbSpline
70
4
71
3
72
8
73
4
40
0
40
0
40
0
40
0
40
1
40
1
40
1
40
1
41
1
10
88.2242678916042
20
7.1029656758476
30
0
41
1
10
89.3161785944028
20
4.74134545579761
30
0
41
1
10
90.4080892972015
20
2.37367751676496
30
0
41
1
10
91.5
20
2.84E-14
30
0
0
SPLINE
5
128
100
AcDbEntity
8
1
62
256
6
ByLayer
370
13
48
1
60
0
100
AcDbSpline
70
4
71
3
72
8
73
4
40
0
40
0
40
0
40
0
40
1
40
1
40
1
40
1
41
1
10
88.2242678916044
20
3.24339375897071
30
0
41
1
10
89.3161785944029
20
2.15309563131387
30
0
41
1
10
90.4080892972014
20
1.07195859422629
30
0
41
1
10
91.4999999999999
20
1.705E-13
30
0
0
SPLINE
5
129
100
AcDbEntity
8
1
62
256
6
ByLayer
370
13
48
1
60
0
100
AcDbSpline
70
4
71
3
72
8
73
4
40
0
40
0
40
0
40
0
40
1
40
1
40
1
40
1
41
1
10
88.2242678916042
20
-5.78186859718858
30
0
41
1
10
89.3161785944028
20
-3.84704804692089
30
0
41
1
10
90.4080892972015
20
-1.91974818768853
30
0
41
1
10
91.5000000000001
20
8.53E-14
30
0
0
SPLINE
5
12A
100
AcDbEntity
8
1
62
256
6
ByLayer
370
13
48
1
60
0
100
AcDbSpline
70
4
71
3
72
8
73
4
40
0
40
0
40
0
40
0
40
1
40
1
40
1
40
1
41
1
10
88.2242678916044
20
-2.66823177903362
30
0
41
1
10
89.3161785944029
20
-1.78820657228491
30
0
41
1
10
90.4080892972014
20
-0.898791190618198
30
0
41
1
10
91.4999999999999
20
-1.421E-13
30
0
0
LINE
5
7D
100
AcDbEntity
8
80
62
256
6
ByLayer
370
18
48
1
60
0
100
AcDbLine
10
0
20
0
30
0
11
-5
21
0
31
0
39
0
210
0
220
0
230
1
0
LINE
5
7E
100
AcDbEntity
8
4
62
256
6
ByLayer
370
18
48
0.05
60
0
100
AcDbLine
10
-5
20
0
30
0
11
96.5
21
0
31
0
39
0
210
0
220
0
230
1
0
LINE
5
80
100
AcDbEntity
8
81
62
256
6
ByLayer
370
18
48
1
60
0
100
AcDbLine
10
91.5
20
0
30
0
11
96.5
21
0
31
0
39
0
210
0
220
0
230
1
0
LINE
5
81
100
AcDbEntity
8
SK4
62
256
6
ByLayer
370
18
48
0.05
60
0
100
AcDbLine
10
-55
20
0
30
0
11
96.5
21
0
31
0
39
0
210
0
220
0
230
1
0
LINE
5
83
100
AcDbEntity
8
1
62
256
6
ByLayer
370
18
48
1
60
0
100
AcDbLine
10
10
20
-8.7
30
0
11
45.531288
21
-8.7
31
0
39
0
210
0
220
0
230
1
0
LINE
5
84
100
AcDbEntity
8
1
62
256
6
ByLayer
370
18
48
1
60
0
100
AcDbLine
10
45.531288
20
8.7
30
0
11
10
21
8.7
31
0
39
0
210
0
220
0
230
1
0
LINE
5
85
100
AcDbEntity
8
1
62
256
6
ByLayer
370
18
48
1
60
0
100
AcDbLine
10
91.5
20
0
30
0
11
88.224268
21
9
31
0
39
0
210
0
220
0
230
1
0
LINE
5
86
100
AcDbEntity
8
1
62
256
6
ByLayer
370
18
48
1
60
0
100
AcDbLine
10
88.224268
20
-9
30
0
11
91.5
21
0
31
0
39
0
210
0
220
0
230
1
0
LINE
5
87
100
AcDbEntity
8
1
62
256
6
ByLayer
370
18
48
1
60
0
100
AcDbLine
10
10
20
8.7
30
0
11
0
21
10
31
0
39
0
210
0
220
0
230
1
0
LINE
5
88
100
AcDbEntity
8
1
62
256
6
ByLayer
370
18
48
1
60
0
100
AcDbLine
10
0
20
-10
30
0
11
10
21
-8.7
31
0
39
0
210
0
220
0
230
1
0
LINE
5
89
100
AcDbEntity
8
1
62
256
6
ByLayer
370
18
48
1
60
0
100
AcDbLine
10
91.5
20
0
30
0
11
88.224268
21
9
31
0
39
0
210
0
220
0
230
1
0
LINE
5
8A
100
AcDbEntity
8
1
62
256
6
ByLayer
370
18
48
1
60
0
100
AcDbLine
10
88.224268
20
-9
30
0
11
91.5
21
0
31
0
39
0
210
0
220
0
230
1
0
LINE
5
8B
100
AcDbEntity
8
1
62
256
6
ByLayer
370
18
48
1
60
0
100
AcDbLine
10
78.6
20
-9
30
0
11
88.224268
21
-9
31
0
39
0
210
0
220
0
230
1
0
LINE
5
8C
100
AcDbEntity
8
SK1
62
256
6
ByLayer
370
18
48
1
60
0
100
AcDbLine
10
-49
20
-10
30
0
11
0
21
-10
31
0
39
0
210
0
220
0
230
1
0
LINE
5
8E
100
AcDbEntity
8
SK1
62
256
6
ByLayer
370
18
48
1
60
0
100
AcDbLine
10
0
20
10
30
0
11
-49
21
10
31
0
39
0
210
0
220
0
230
1
0
LINE
5
8F
100
AcDbEntity
8
SK1
62
256
6
ByLayer
370
18
48
1
60
0
100
AcDbLine
10
-50
20
-9
30
0
11
-49
21
-10
31
0
39
0
210
0
220
0
230
1
0
LINE
5
90
100
AcDbEntity
8
SK1
62
256
6
ByLayer
370
18
48
1
60
0
100
AcDbLine
10
-49
20
10
30
0
11
-50
21
9
31
0
39
0
210
0
220
0
230
1
0
LINE
5
91
100
AcDbEntity
8
1
62
256
6
ByLayer
370
18
48
1
60
0
100
AcDbLine
10
0
20
10
30
0
11
0
21
-10
31
0
39
0
210
0
220
0
230
1
0
LINE
5
92
100
AcDbEntity
8
1
62
256
6
ByLayer
370
18
48
1
60
0
100
AcDbLine
10
88.224268
20
9
30
0
11
88.224268
21
8.714247
31
0
39
0
210
0
220
0
230
1
0
LINE
5
93
100
AcDbEntity
8
1
62
256
6
ByLayer
370
18
48
1
60
0
100
AcDbLine
10
88.224268
20
-9
30
0
11
88.224268
21
-1.284901
31
0
39
0
210
0
220
0
230
1
0
LINE
5
94
100
AcDbEntity
8
1
62
256
6
ByLayer
370
18
48
1
60
0
100
AcDbLine
10
10
20
-8.7
30
0
11
10
21
-0.974841
31
0
39
0
210
0
220
0
230
1
0
LINE
5
95
100
AcDbEntity
8
1
62
256
6
ByLayer
370
18
48
1
60
0
100
AcDbLine
10
10
20
8.7
30
0
11
10
21
8.083392
31
0
39
0
210
0
220
0
230
1
0
LINE
5
96
100
AcDbEntity
8
SK1
62
256
6
ByLayer
370
13
48
1
60
0
100
AcDbLine
10
-14.992177
20
-6.1943
30
0
11
-14.992177
21
6.1943
31
0
39
0
210
0
220
0
230
1
0
LINE
5
97
100
AcDbEntity
8
SK1
62
256
6
ByLayer
370
13
48
1
60
0
100
AcDbLine
10
-42.24218
20
4.745825
30
0
11
-42.24218
21
-4.745825
31
0
39
0
210
0
220
0
230
1
0
LINE
5
98
100
AcDbEntity
8
SK1
62
256
6
ByLayer
370
13
48
1
60
0
100
AcDbLine
10
-13.845141
20
5.608199
30
0
11
-13.845141
21
-5.608199
31
0
39
0
210
0
220
0
230
1
0
LINE
5
99
100
AcDbEntity
8
SK1
62
256
6
ByLayer
370
18
48
1
60
0
100
AcDbLine
10
0
20
10
30
0
11
0
21
-10
31
0
39
0
210
0
220
0
230
1
0
LINE
5
9A
100
AcDbEntity
8
SK1
62
256
6
ByLayer
370
18
48
1
60
0
100
AcDbLine
10
-50
20
-9
30
0
11
-50
21
9
31
0
39
0
210
0
220
0
230
1
0
LINE
5
9B
100
AcDbEntity
8
SK1
62
256
6
ByLayer
370
18
48
1
60
0
100
AcDbLine
10
-49
20
-10
30
0
11
-49
21
10
31
0
39
0
210
0
220
0
230
1
0
LINE
5
9C
100
AcDbEntity
8
SK1
62
256
6
ByLayer
370
13
48
1
60
0
100
AcDbLine
10
-43.356507
20
-3.65035
30
0
11
-43.356507
21
3.65035
31
0
39
0
210
0
220
0
230
1
0
LINE
5
9D
100
AcDbEntity
8
1
62
256
6
ByLayer
370
18
48
1
60
0
100
AcDbLine
10
88.224268
20
9
30
0
11
88.224268
21
-9
31
0
39
0
210
0
220
0
230
1
0
LINE
5
9E
100
AcDbEntity
8
1
62
256
6
ByLayer
370
18
48
1
60
0
100
AcDbLine
10
88.224268
20
9
30
0
11
88.224268
21
-9
31
0
39
0
210
0
220
0
230
1
0
LINE
5
9F
100
AcDbEntity
8
1
62
256
6
ByLayer
370
18
48
1
60
0
100
AcDbLine
10
88.224268
20
9
30
0
11
88.224268
21
-9
31
0
39
0
210
0
220
0
230
1
0
LINE
5
A0
100
AcDbEntity
8
1
62
256
6
ByLayer
370
18
48
1
60
0
100
AcDbLine
10
78.6
20
9
30
0
11
78.6
21
-9
31
0
39
0
210
0
220
0
230
1
0
LINE
5
A1
100
AcDbEntity
8
1
62
256
6
ByLayer
370
18
48
1
60
0
100
AcDbLine
10
78.6
20
9
30
0
11
78.6
21
-9
31
0
39
0
210
0
220
0
230
1
0
LINE
5
A2
100
AcDbEntity
8
1
62
256
6
ByLayer
370
18
48
1
60
0
100
AcDbLine
10
88.224268
20
9
30
0
11
88.224268
21
-9
31
0
39
0
210
0
220
0
230
1
0
LINE
5
A3
100
AcDbEntity
8
1
62
256
6
ByLayer
370
18
48
1
60
0
100
AcDbLine
10
78.6
20
9
30
0
11
78.6
21
-9
31
0
39
0
210
0
220
0
230
1
0
LINE
5
A4
100
AcDbEntity
8
1
62
256
6
ByLayer
370
18
48
1
60
0
100
AcDbLine
10
88.224268
20
9
30
0
11
88.224268
21
-9
31
0
39
0
210
0
220
0
230
1
0
LINE
5
A5
100
AcDbEntity
8
SK2
62
256
6
ByLayer
370
13
48
1
60
0
100
AcDbLine
10
-56.5
20
-10
30
0
11
-56.5
21
39.024569
31
0
39
0
210
0
220
0
230
1
0
LINE
5
A7
100
AcDbEntity
8
SK2
62
256
6
ByLayer
370
13
48
1
60
0
100
AcDbLine
10
-51.5875
20
10
30
0
11
-58.5
21
10
31
0
39
0
210
0
220
0
230
1
0
LINE
5
A8
100
AcDbEntity
8
SK2
62
256
6
ByLayer
370
13
48
1
60
0
100
AcDbLine
10
-51.5875
20
-10
30
0
11
-58.5
21
-10
31
0
39
0
210
0
220
0
230
1
0
LINE
5
A9
100
AcDbEntity
8
1
62
256
6
ByLayer
370
18
48
1
60
1
100
AcDbLine
10
-56.5
20
10
30
0
11
-56.039216
21
6.500002
31
0
39
0
210
0
220
0
230
1
0
LINE
5
AA
100
AcDbEntity
8
1
62
256
6
ByLayer
370
18
48
1
60
1
100
AcDbLine
10
-56.039216
20
6.500002
30
0
11
-56.960784
21
6.499998
31
0
39
0
210
0
220
0
230
1
0
LINE
5
AB
100
AcDbEntity
8
1
62
256
6
ByLayer
370
18
48
1
60
1
100
AcDbLine
10
-56.960784
20
6.499998
30
0
11
-56.5
21
10
31
0
39
0
210
0
220
0
230
1
0
LINE
5
AC
100
AcDbEntity
8
1
62
256
6
ByLayer
370
18
48
1
60
1
100
AcDbLine
10
-56.5
20
-10
30
0
11
-56.960784
21
-6.500002
31
0
39
0
210
0
220
0
230
1
0
LINE
5
AD
100
AcDbEntity
8
1
62
256
6
ByLayer
370
18
48
1
60
1
100
AcDbLine
10
-56.960784
20
-6.500002
30
0
11
-56.039216
21
-6.499998
31
0
39
0
210
0
220
0
230
1
0
LINE
5
AE
100
AcDbEntity
8
1
62
256
6
ByLayer
370
18
48
1
60
1
100
AcDbLine
10
-56.039216
20
-6.499998
30
0
11
-56.5
21
-10
31
0
39
0
210
0
220
0
230
1
0
LINE
5
AF
100
AcDbEntity
8
2
62
256
6
ByLayer
370
13
48
1
60
0
100
AcDbLine
10
99
20
-9
30
0
11
99
21
37.274683
31
0
39
0
210
0
220
0
230
1
0
LINE
5
B1
100
AcDbEntity
8
2
62
256
6
ByLayer
370
13
48
1
60
0
100
AcDbLine
10
89.811768
20
9
30
0
11
101
21
9
31
0
39
0
210
0
220
0
230
1
0
LINE
5
B2
100
AcDbEntity
8
2
62
256
6
ByLayer
370
13
48
1
60
0
100
AcDbLine
10
89.811768
20
-9
30
0
11
101
21
-9
31
0
39
0
210
0
220
0
230
1
0
LINE
5
B3
100
AcDbEntity
8
1
62
256
6
ByLayer
370
18
48
1
60
1
100
AcDbLine
10
99
20
9
30
0
11
99.460784
21
5.500002
31
0
39
0
210
0
220
0
230
1
0
LINE
5
B4
100
AcDbEntity
8
1
62
256
6
ByLayer
370
18
48
1
60
1
100
AcDbLine
10
99.460784
20
5.500002
30
0
11
98.539216
21
5.499998
31
0
39
0
210
0
220
0
230
1
0
LINE
5
B5
100
AcDbEntity
8
1
62
256
6
ByLayer
370
18
48
1
60
1
100
AcDbLine
10
98.539216
20
5.499998
30
0
11
99
21
9
31
0
39
0
210
0
220
0
230
1
0
LINE
5
B6
100
AcDbEntity
8
1
62
256
6
ByLayer
370
18
48
1
60
1
100
AcDbLine
10
99
20
-9
30
0
11
98.539216
21
-5.500002
31
0
39
0
210
0
220
0
230
1
0
LINE
5
B7
100
AcDbEntity
8
1
62
256
6
ByLayer
370
18
48
1
60
1
100
AcDbLine
10
98.539216
20
-5.500002
30
0
11
99.460784
21
-5.499998
31
0
39
0
210
0
220
0
230
1
0
LINE
5
B8
100
AcDbEntity
8
1
62
256
6
ByLayer
370
18
48
1
60
1
100
AcDbLine
10
99.460784
20
-5.499998
30
0
11
99
21
-9
31
0
39
0
210
0
220
0
230
1
0
LINE
5
B9
100
AcDbEntity
8
SK2
62
256
6
ByLayer
370
13
48
1
60
0
100
AcDbLine
10
92.042957
20
-1.491762
30
0
11
98.682423
21
-19.733545
31
0
39
0
210
0
220
0
230
1
0
LINE
5
BA
100
AcDbEntity
8
SK2
62
256
6
ByLayer
370
13
48
1
60
0
100
AcDbLine
10
92.042957
20
1.491762
30
0
11
98.682423
21
19.733545
31
0
39
0
210
0
220
0
230
1
0
LINE
5
BB
100
AcDbEntity
8
1
62
256
6
ByLayer
370
18
48
1
60
1
100
AcDbLine
10
97.998383
20
-17.85416
30
0
11
101.051575
21
-16.082064
31
0
39
0
210
0
220
0
230
1
0
LINE
5
BC
100
AcDbEntity
8
1
62
256
6
ByLayer
370
18
48
1
60
1
100
AcDbLine
10
101.051575
20
-16.082064
30
0
11
101.406196
21
-16.93267
31
0
39
0
210
0
220
0
230
1
0
LINE
5
BD
100
AcDbEntity
8
1
62
256
6
ByLayer
370
18
48
1
60
1
100
AcDbLine
10
101.406196
20
-16.93267
30
0
11
97.998383
21
-17.85416
31
0
39
0
210
0
220
0
230
1
0
LINE
5
BE
100
AcDbEntity
8
1
62
256
6
ByLayer
370
18
48
1
60
1
100
AcDbLine
10
97.998383
20
17.85416
30
0
11
101.406193
21
16.932671
31
0
39
0
210
0
220
0
230
1
0
LINE
5
BF
100
AcDbEntity
8
1
62
256
6
ByLayer
370
18
48
1
60
1
100
AcDbLine
10
101.406193
20
16.932671
30
0
11
101.051579
21
16.082063
31
0
39
0
210
0
220
0
230
1
0
LINE
5
C0
100
AcDbEntity
8
1
62
256
6
ByLayer
370
18
48
1
60
1
100
AcDbLine
10
101.051579
20
16.082063
30
0
11
97.998383
21
17.85416
31
0
39
0
210
0
220
0
230
1
0
LINE
5
12F
100
AcDbEntity
8
1
62
256
6
ByLayer
370
18
48
1
60
1
100
AcDbLine
10
-56.5
20
10
30
0
11
-56.039216
21
6.500002
31
0
39
0
210
0
220
0
230
1
0
LINE
5
130
100
AcDbEntity
8
1
62
256
6
ByLayer
370
18
48
1
60
1
100
AcDbLine
10
-56.039216
20
6.500002
30
0
11
-56.960784
21
6.499998
31
0
39
0
210
0
220
0
230
1
0
LINE
5
131
100
AcDbEntity
8
1
62
256
6
ByLayer
370
18
48
1
60
1
100
AcDbLine
10
-56.960784
20
6.499998
30
0
11
-56.5
21
10
31
0
39
0
210
0
220
0
230
1
0
LINE
5
133
100
AcDbEntity
8
1
62
256
6
ByLayer
370
18
48
1
60
1
100
AcDbLine
10
-56.5
20
-10
30
0
11
-56.960784
21
-6.500002
31
0
39
0
210
0
220
0
230
1
0
LINE
5
134
100
AcDbEntity
8
1
62
256
6
ByLayer
370
18
48
1
60
1
100
AcDbLine
10
-56.960784
20
-6.500002
30
0
11
-56.039216
21
-6.499998
31
0
39
0
210
0
220
0
230
1
0
LINE
5
135
100
AcDbEntity
8
1
62
256
6
ByLayer
370
18
48
1
60
1
100
AcDbLine
10
-56.039216
20
-6.499998
30
0
11
-56.5
21
-10
31
0
39
0
210
0
220
0
230
1
0
LINE
5
139
100
AcDbEntity
8
1
62
256
6
ByLayer
370
18
48
1
60
1
100
AcDbLine
10
99
20
9
30
0
11
99.460784
21
5.500002
31
0
39
0
210
0
220
0
230
1
0
LINE
5
13A
100
AcDbEntity
8
1
62
256
6
ByLayer
370
18
48
1
60
1
100
AcDbLine
10
99.460784
20
5.500002
30
0
11
98.539216
21
5.499998
31
0
39
0
210
0
220
0
230
1
0
LINE
5
13B
100
AcDbEntity
8
1
62
256
6
ByLayer
370
18
48
1
60
1
100
AcDbLine
10
98.539216
20
5.499998
30
0
11
99
21
9
31
0
39
0
210
0
220
0
230
1
0
LINE
5
13D
100
AcDbEntity
8
1
62
256
6
ByLayer
370
18
48
1
60
1
100
AcDbLine
10
99
20
-9
30
0
11
98.539216
21
-5.500002
31
0
39
0
210
0
220
0
230
1
0
LINE
5
13E
100
AcDbEntity
8
1
62
256
6
ByLayer
370
18
48
1
60
1
100
AcDbLine
10
98.539216
20
-5.500002
30
0
11
99.460784
21
-5.499998
31
0
39
0
210
0
220
0
230
1
0
LINE
5
13F
100
AcDbEntity
8
1
62
256
6
ByLayer
370
18
48
1
60
1
100
AcDbLine
10
99.460784
20
-5.499998
30
0
11
99
21
-9
31
0
39
0
210
0
220
0
230
1
0
LINE
5
142
100
AcDbEntity
8
1
62
256
6
ByLayer
370
18
48
1
60
1
100
AcDbLine
10
97.998383
20
-17.85416
30
0
11
101.051575
21
-16.082064
31
0
39
0
210
0
220
0
230
1
0
LINE
5
143
100
AcDbEntity
8
1
62
256
6
ByLayer
370
18
48
1
60
1
100
AcDbLine
10
101.051575
20
-16.082064
30
0
11
101.406196
21
-16.93267
31
0
39
0
210
0
220
0
230
1
0
LINE
5
144
100
AcDbEntity
8
1
62
256
6
ByLayer
370
18
48
1
60
1
100
AcDbLine
10
101.406196
20
-16.93267
30
0
11
97.998383
21
-17.85416
31
0
39
0
210
0
220
0
230
1
0
LINE
5
146
100
AcDbEntity
8
1
62
256
6
ByLayer
370
18
48
1
60
1
100
AcDbLine
10
97.998383
20
17.85416
30
0
11
101.406193
21
16.932671
31
0
39
0
210
0
220
0
230
1
0
LINE
5
147
100
AcDbEntity
8
1
62
256
6
ByLayer
370
18
48
1
60
1
100
AcDbLine
10
101.406193
20
16.932671
30
0
11
101.051579
21
16.082063
31
0
39
0
210
0
220
0
230
1
0
LINE
5
148
100
AcDbEntity
8
1
62
256
6
ByLayer
370
18
48
1
60
1
100
AcDbLine
10
101.051579
20
16.082063
30
0
11
97.998383
21
17.85416
31
0
39
0
210
0
220
0
230
1
0
MTEXT
5
12B
100
AcDbEntity
8
SK2
62
256
6
ByLayer
370
18
48
1
60
0
100
AcDbMText
10
-57.841114
20
21.658438
30
0
210
0
220
0
230
1
1
%%c
40
3
41
0
44
1.084337
50
90
71
7
72
5
7
iso_b_vert
0
MTEXT
5
12E
100
AcDbEntity
8
SK2
62
256
6
ByLayer
370
18
48
1
60
0
100
AcDbMText
10
-57.841114
20
27.635
30
0
210
0
220
0
230
1
1
\W0.7513;20.000
40
3
41
0
44
1.084337
50
90
71
7
72
5
7
iso_b_vert
0
MTEXT
5
137
100
AcDbEntity
8
2
62
256
6
ByLayer
370
18
48
1
60
0
100
AcDbMText
10
97.658886
20
20.658438
30
0
210
0
220
0
230
1
1
%%c
40
3
41
0
44
1.084337
50
90
71
7
72
5
7
iso_b_vert
0
MTEXT
5
138
100
AcDbEntity
8
2
62
256
6
ByLayer
370
18
48
1
60
0
100
AcDbMText
10
97.658886
20
26.635
30
0
210
0
220
0
230
1
1
\W0.7022;18.000
40
3
41
0
44
1.084337
50
90
71
7
72
5
7
iso_b_vert
0
MTEXT
5
141
100
AcDbEntity
8
SK2
62
256
6
ByLayer
370
18
48
1
60
0
100
AcDbMText
10
111.409114
20
3.734657
30
0
210
0
220
0
230
1
1
\W0.7071;140%%d
40
3
41
0
44
1.084337
50
270
71
7
72
5
7
iso_b_vert
0
MTEXT
5
14A
100
AcDbEntity
8
SK6
62
256
6
ByLayer
370
18
48
1
60
0
100
AcDbMText
10
-2.787254
20
-67.114886
30
0
210
0
220
0
230
1
1
\W0.7358;H85318.0
40
3
41
0
44
1.084337
50
0
71
7
72
5
7
iso_b_vert
0
HATCH
5
132
100
AcDbEntity
8
SK2
62
256
6
ByLayer
370
13
48
1
60
0
100
AcDbHatch
10
0
20
0
30
0
210
0
220
0
230
1
2
ANSI31
70
0
71
0
91
1
92
5
93
3
72
1
10
-56.5
20
10
11
-56.0392162584472
21
6.50000169255318
72
1
10
-56.0392162584472
20
6.50000169255318
11
-56.9607837415528
21
6.49999830744682
72
1
10
-56.9607837415528
20
6.49999830744682
11
-56.5
21
10
97
0
75
0
76
1
52
0
41
0.0062
77
0
78
1
53
45
43
0
44
0
45
-0.0139193969876572
46
0.0139193969876572
79
0
47
0
98
1
10
0
20
0
0
HATCH
5
136
100
AcDbEntity
8
SK2
62
256
6
ByLayer
370
13
48
1
60
0
100
AcDbHatch
10
0
20
0
30
0
210
0
220
0
230
1
2
ANSI31
70
0
71
0
91
1
92
5
93
3
72
1
10
-56.5
20
-10
11
-56.9607837415528
21
-6.50000169255318
72
1
10
-56.9607837415528
20
-6.50000169255318
11
-56.0392162584472
21
-6.49999830744682
72
1
10
-56.0392162584472
20
-6.49999830744682
11
-56.5
21
-10
97
0
75
0
76
1
52
0
41
0.0062
77
0
78
1
53
45
43
0
44
0
45
-0.0139193969876572
46
0.0139193969876572
79
0
47
0
98
1
10
0
20
0
0
HATCH
5
13C
100
AcDbEntity
8
2
62
256
6
ByLayer
370
13
48
1
60
0
100
AcDbHatch
10
0
20
0
30
0
210
0
220
0
230
1
2
ANSI31
70
0
71
0
91
1
92
5
93
3
72
1
10
99
20
9
11
99.4607837415528
21
5.50000169255318
72
1
10
99.4607837415528
20
5.50000169255318
11
98.5392162584472
21
5.49999830744682
72
1
10
98.5392162584472
20
5.49999830744682
11
99
21
9
97
0
75
0
76
1
52
0
41
0.0062
77
0
78
1
53
45
43
0
44
0
45
-0.0139193969876572
46
0.0139193969876572
79
0
47
0
98
1
10
0
20
0
0
HATCH
5
140
100
AcDbEntity
8
2
62
256
6
ByLayer
370
13
48
1
60
0
100
AcDbHatch
10
0
20
0
30
0
210
0
220
0
230
1
2
ANSI31
70
0
71
0
91
1
92
5
93
3
72
1
10
99
20
-9
11
98.5392162584472
21
-5.50000169255318
72
1
10
98.5392162584472
20
-5.50000169255318
11
99.4607837415528
21
-5.49999830744682
72
1
10
99.4607837415528
20
-5.49999830744682
11
99
21
-9
97
0
75
0
76
1
52
0
41
0.0062
77
0
78
1
53
45
43
0
44
0
45
-0.0139193969876572
46
0.0139193969876572
79
0
47
0
98
1
10
0
20
0
0
HATCH
5
145
100
AcDbEntity
8
SK2
62
256
6
ByLayer
370
13
48
1
60
0
100
AcDbHatch
10
0
20
0
30
0
210
0
220
0
230
1
2
ANSI31
70
0
71
0
91
1
92
5
93
3
72
1
10
97.9983827231877
20
-17.8541597949322
11
101.051575425693
21
-16.0820638240607
72
1
10
101.051575425693
20
-16.0820638240607
11
101.406195833975
21
-16.9326700737196
72
1
10
101.406195833975
20
-16.9326700737196
11
97.9983827231877
21
-17.8541597949322
97
0
75
0
76
1
52
0
41
0.0062
77
0
78
1
53
45
43
0
44
0
45
-0.0139193969876572
46
0.0139193969876572
79
0
47
0
98
1
10
0
20
0
0
HATCH
5
149
100
AcDbEntity
8
SK2
62
256
6
ByLayer
370
13
48
1
60
0
100
AcDbHatch
10
0
20
0
30
0
210
0
220
0
230
1
2
ANSI31
70
0
71
0
91
1
92
5
93
3
72
1
10
97.9983827231877
20
17.8541597949322
11
101.406192709519
21
16.9326713763016
72
1
10
101.406192709519
20
16.9326713763016
11
101.051578550149
21
16.0820625214788
72
1
10
101.051578550149
20
16.0820625214788
11
97.9983827231877
21
17.8541597949322
97
0
75
0
76
1
52
0
41
0.0062
77
0
78
1
53
45
43
0
44
0
45
-0.0139193969876572
46
0.0139193969876572
79
0
47
0
98
1
10
0
20
0
0
DIMENSION
5
14D
100
AcDbEntity
8
SK2
62
256
6
ByLayer
370
18
48
1
60
0
100
AcDbDimension
2
_U0
10
91.5
20
-45.952229
30
0
11
20.75
21
-45.952229
31
0
70
32
71
1
72
1
41
1
210
0
220
0
230
1
3
Standard
100
AcDbAlignedDimension
13
-50
23
-10
33
0
14
91.5
24
0
34
0
50
0
100
AcDbRotatedDimension
1001
ACAD
1000
DSTYLE
1002
{
1070
   371
1070
    13
1070
   372
1070
    13
1070
     3
1000

1070
   170
1070
     0
1070
   144
1040
1.0
1070
   277
1070
     2
1070
   284
1070
     8
1070
   278
1070
    46
1070
   146
1040
1.166667
1070
   345
1005
16
1070
   347
1005
16
1070
   346
1005
16
1070
   344
1005
0
1070
   343
1005
0
1070
   172
1070
     1
1070
    76
1070
     0
1070
    75
1070
     0
1070
   282
1070
     0
1070
   281
1070
     0
1070
    71
1070
     0
1070
    74
1070
     0
1070
   279
1070
     0
1070
   173
1070
     1
1070
   340
1005
12C
1070
   271
1070
     2
1070
   272
1070
     3
1070
    77
1070
     1
1070
    73
1070
     1
1070
   171
1070
     3
1070
   274
1070
     4
1070
   177
1070
     2
1070
   176
1070
     2
1070
   178
1070
     2
1070
    78
1070
     8
1070
    48
1040
-0.1
1070
    41
1040
3.5
1070
   147
1040
1.5
1070
    42
1040
1.5875
1070
    44
1040
2.0
1070
   140
1040
3.0
1002
}
1001
ACAD_DSTYLE_DIM_LINETYPE
1070
   380
1005
16
1001
ACAD_DSTYLE_DIM_EXT1_LINETYPE
1070
   381
1005
16
1001
ACAD_DSTYLE_DIM_EXT2_LINETYPE
1070
   382
1005
16
0
DIMENSION
5
166
100
AcDbEntity
8
SK2
62
256
6
ByLayer
370
18
48
1
60
0
100
AcDbDimension
2
_U1
10
3
20
-35.952229
30
0
11
47.25
21
-35.952229
31
0
70
32
71
1
72
1
41
1
210
0
220
0
230
1
3
Standard
100
AcDbAlignedDimension
13
91.5
23
0
33
0
14
3
24
-9
34
0
50
0
100
AcDbRotatedDimension
1001
ACAD
1000
DSTYLE
1002
{
1070
   371
1070
    13
1070
   372
1070
    13
1070
     3
1000

1070
   170
1070
     0
1070
   144
1040
1.0
1070
   277
1070
     2
1070
   284
1070
     8
1070
   278
1070
    46
1070
   146
1040
1.166667
1070
   345
1005
16
1070
   347
1005
16
1070
   346
1005
16
1070
   344
1005
0
1070
   343
1005
0
1070
   172
1070
     1
1070
    76
1070
     0
1070
    75
1070
     0
1070
   282
1070
     0
1070
   281
1070
     0
1070
    71
1070
     0
1070
    74
1070
     0
1070
   279
1070
     0
1070
   173
1070
     1
1070
   340
1005
12C
1070
   271
1070
     2
1070
   272
1070
     3
1070
    77
1070
     1
1070
    73
1070
     1
1070
   171
1070
     3
1070
   274
1070
     4
1070
   177
1070
     2
1070
   176
1070
     2
1070
   178
1070
     2
1070
    78
1070
     8
1070
    48
1040
-0.1
1070
    41
1040
3.5
1070
   147
1040
1.5
1070
    42
1040
1.5875
1070
    44
1040
2.0
1070
   140
1040
3.0
1002
}
1001
ACAD_DSTYLE_DIM_LINETYPE
1070
   380
1005
16
1001
ACAD_DSTYLE_DIM_EXT1_LINETYPE
1070
   381
1005
16
1001
ACAD_DSTYLE_DIM_EXT2_LINETYPE
1070
   382
1005
16
0
DIMENSION
5
17E
100
AcDbEntity
8
SK2
62
256
6
ByLayer
370
18
48
1
60
0
100
AcDbDimension
2
_U2
10
0
20
-35.952229
30
0
11
-25
21
-35.952229
31
0
70
32
71
1
72
1
41
1
210
0
220
0
230
1
3
Standard
100
AcDbAlignedDimension
13
-50
23
-10
33
0
14
0
24
-10
34
0
50
0
100
AcDbRotatedDimension
1001
ACAD
1000
DSTYLE
1002
{
1070
   371
1070
    13
1070
   372
1070
    13
1070
     3
1000

1070
   170
1070
     0
1070
   144
1040
1.0
1070
   277
1070
     2
1070
   284
1070
     8
1070
   278
1070
    46
1070
   146
1040
1.166667
1070
   345
1005
16
1070
   347
1005
16
1070
   346
1005
16
1070
   344
1005
0
1070
   343
1005
0
1070
   172
1070
     1
1070
    76
1070
     0
1070
    75
1070
     0
1070
   282
1070
     0
1070
   281
1070
     0
1070
    71
1070
     0
1070
    74
1070
     0
1070
   279
1070
     0
1070
   173
1070
     1
1070
   340
1005
12C
1070
   271
1070
     2
1070
   272
1070
     3
1070
    77
1070
     1
1070
    73
1070
     1
1070
   171
1070
     3
1070
   274
1070
     4
1070
   177
1070
     2
1070
   176
1070
     2
1070
   178
1070
     2
1070
    78
1070
     8
1070
    48
1040
-0.1
1070
    41
1040
3.5
1070
   147
1040
1.5
1070
    42
1040
1.5875
1070
    44
1040
2.0
1070
   140
1040
3.0
1002
}
1001
ACAD_DSTYLE_DIM_LINETYPE
1070
   380
1005
16
1001
ACAD_DSTYLE_DIM_EXT1_LINETYPE
1070
   381
1005
16
1001
ACAD_DSTYLE_DIM_EXT2_LINETYPE
1070
   382
1005
16
0
DIMENSION
5
196
100
AcDbEntity
8
SK2
62
256
6
ByLayer
370
18
48
1
60
0
100
AcDbDimension
2
_U3
10
25
20
32.952229
30
0
11
58.25
21
32.952229
31
0
70
32
71
1
72
1
41
1
210
0
220
0
230
1
3
Standard
100
AcDbAlignedDimension
13
91.5
23
0
33
0
14
25
24
9
34
0
50
0
100
AcDbRotatedDimension
1001
ACAD
1000
DSTYLE
1002
{
1070
   371
1070
    13
1070
   372
1070
    13
1070
     3
1000

1070
   170
1070
     0
1070
   144
1040
1.0
1070
   277
1070
     2
1070
   284
1070
     8
1070
   278
1070
    46
1070
   146
1040
1.166667
1070
   345
1005
16
1070
   347
1005
16
1070
   346
1005
16
1070
   344
1005
0
1070
   343
1005
0
1070
   172
1070
     1
1070
    76
1070
     0
1070
    75
1070
     0
1070
   282
1070
     0
1070
   281
1070
     0
1070
    71
1070
     0
1070
    74
1070
     0
1070
   279
1070
     0
1070
   173
1070
     1
1070
   340
1005
12C
1070
   271
1070
     2
1070
   272
1070
     3
1070
    77
1070
     1
1070
    73
1070
     1
1070
   171
1070
     3
1070
   274
1070
     4
1070
   177
1070
     2
1070
   176
1070
     2
1070
   178
1070
     2
1070
    78
1070
     8
1070
    48
1040
-0.1
1070
    41
1040
3.5
1070
   147
1040
1.5
1070
    42
1040
1.5875
1070
    44
1040
2.0
1070
   140
1040
3.0
1002
}
1001
ACAD_DSTYLE_DIM_LINETYPE
1070
   380
1005
16
1001
ACAD_DSTYLE_DIM_EXT1_LINETYPE
1070
   381
1005
16
1001
ACAD_DSTYLE_DIM_EXT2_LINETYPE
1070
   382
1005
16
0
ENDSEC
0
SECTION
2
OBJECTS
0
DICTIONARY
5
21e
330
0
100
AcDbDictionary
280
0
281
1
3
ACAD_GROUP
350
21f
3
ACAD_MLINESTYLE
350
220
0
DICTIONARY
5
21f
330
0
100
AcDbDictionary
280
0
281
1
0
DICTIONARY
5
220
330
0
100
AcDbDictionary
280
0
281
1
3
Standard
350
18
0
MLINESTYLE
5
18
330
220
100
AcDbMlineStyle
2
Standard
70
0
3

62
256
51
90
52
90
71
2
49
-0.5
62
256
6
ByLayer
49
0.5
62
256
6
ByLayer
0
RASTERVARIABLES
5
20c
330

100
AcDbRasterVariables
90
0
70
1
71
1
72
1
0
ENDSEC
0
EOF
