0
SECTION
2
HEADER
9
$ACADVER
1
AC1015
9
$DWGCODEPAGE
3
ANSI_1252
9
$HANDSEED
5
227
9
$ANGBASE
50
0
9
$ANGDIR
70
0
9
$ATTMODE
70
1
9
$AUNITS
70
0
9
$AUPREC
70
0
9
$CECOLOR
62
256
9
$CELTSCALE
40
1
9
$CELTYPE
6
ByLayer
9
$CELWEIGHT
370
18
9
$CLAYER
8
0
9
$CMLJUST
70
0
9
$CMLSCALE
40
1
9
$CMLSTYLE
2
Standard
9
$DIMSTYLE
2
Standard
9
$TEXTSIZE
40
0.2
9
$TEXTSTYLE
7
Standard
9
$LUNITS
70
2
9
$LUPREC
70
4
9
$EXTNAMES
290
1
9
$INSUNITS
70
4
9
$LTSCALE
40
1
9
$LWDISPLAY
290
1
9
$PDMODE
70
0
9
$PDSIZE
40
0
9
$PLINEGEN
70
0
0
ENDSEC
0
SECTION
2
CLASSES
0
CLASS
1
RASTERVARIABLES
2
AcDbRasterVariables
3
ISM
90
0
280
0
281
0
0
ENDSEC
0
SECTION
2
TABLES
0
TABLE
2
VPORT
5
21d
100
AcDbSymbolTable
0
VPORT
5
1
100
AcDbSymbolTableRecord
100
AcDbViewportTableRecord
2
*Active
70
0
10
0
20
0
11
1
21
1
12
-1
22
1
13
0
23
0
14
0.5
24
0.5
15
10
25
10
16
0
26
0
36
1
17
0
27
0
37
0
0
ENDTAB
0
TABLE
2
LTYPE
5
21e
100
AcDbSymbolTable
0
LTYPE
5
14
100
AcDbSymbolTableRecord
100
AcDbLinetypeTableRecord
70
0
2
ByBlock
3

72
65
73
0
40
0
0
LTYPE
5
15
100
AcDbSymbolTableRecord
100
AcDbLinetypeTableRecord
70
0
2
ByLayer
3

72
65
73
0
40
0
0
LTYPE
5
16
100
AcDbSymbolTableRecord
100
AcDbLinetypeTableRecord
70
0
2
Continuous
3
Solid line
72
65
73
0
40
0
0
LTYPE
5
6E
100
AcDbSymbolTableRecord
100
AcDbLinetypeTableRecord
70
0
2
CENTER
3
____ _ ____ _ ____ _ ____
72
65
73
4
40
47.5
49
22
74
0
49
-8.5
74
0
49
8.5
74
0
49
-8.5
74
0
0
LTYPE
5
6F
100
AcDbSymbolTableRecord
100
AcDbLinetypeTableRecord
70
0
2
DASHED
3
__ __ __ __ __ __ __ __ __
72
65
73
2
40
25.72
49
12.86
74
0
49
-12.86
74
0
0
ENDTAB
0
TABLE
2
LAYER
5
21f
100
AcDbSymbolTable
0
LAYER
5
10
100
AcDbSymbolTableRecord
100
AcDbLayerTableRecord
2
0
70
0
62
7
6
Continuous
290
1
370
-3
390
0
0
LAYER
5
71
100
AcDbSymbolTableRecord
100
AcDbLayerTableRecord
2
80
70
0
62
-6
6
Continuous
290
1
370
-3
390
0
0
LAYER
5
73
100
AcDbSymbolTableRecord
100
AcDbLayerTableRecord
2
81
70
0
62
-3
6
Continuous
290
1
370
-3
390
0
0
LAYER
5
75
100
AcDbSymbolTableRecord
100
AcDbLayerTableRecord
2
1
70
0
62
4
6
Continuous
290
1
370
-3
390
0
0
LAYER
5
7E
100
AcDbSymbolTableRecord
100
AcDbLayerTableRecord
2
4
70
0
62
-2
6
CENTER
290
1
370
-3
390
0
0
LAYER
5
B0
100
AcDbSymbolTableRecord
100
AcDbLayerTableRecord
2
2
70
0
62
7
6
Continuous
290
1
370
-3
390
0
0
LAYER
5
14C
100
AcDbSymbolTableRecord
100
AcDbLayerTableRecord
2
Defpoints
70
0
62
7
6
Continuous
290
0
370
-3
390
0
0
LAYER
5
209
100
AcDbSymbolTableRecord
100
AcDbLayerTableRecord
2
SK4
70
0
62
2
6
CENTER
290
1
370
-3
390
0
0
LAYER
5
20a
100
AcDbSymbolTableRecord
100
AcDbLayerTableRecord
2
SK1
70
0
62
4
6
Continuous
290
1
370
-3
390
0
0
LAYER
5
20b
100
AcDbSymbolTableRecord
100
AcDbLayerTableRecord
2
SK2
70
0
62
7
6
Continuous
290
1
370
-3
390
0
0
LAYER
5
20c
100
AcDbSymbolTableRecord
100
AcDbLayerTableRecord
2
SK6
70
0
62
5
6
Continuous
290
1
370
-3
390
0
0
ENDTAB
0
TABLE
2
STYLE
5
220
100
AcDbSymbolTable
0
STYLE
5
11
100
AcDbSymbolTableRecord
100
AcDbTextStyleTableRecord
2
Standard
3
txt
70
0
71
0
40
0
41
1
42
0
50
0
0
STYLE
5
128
100
AcDbSymbolTableRecord
100
AcDbTextStyleTableRecord
2
iso_b_vert
3
simplex.shx
70
0
71
0
40
0
41
1
42
0
50
0
0
STYLE
5
129
100
AcDbSymbolTableRecord
100
AcDbTextStyleTableRecord
2
DWGDirectTextStyle
3
simplex
70
0
71
0
40
0
41
1
42
0
50
0
0
ENDTAB
0
TABLE
2
DIMSTYLE
5
221
100
AcDbSymbolTable
100
AcDbDimStyleTable
0
DIMSTYLE
105
27
100
AcDbSymbolTableRecord
100
AcDbDimStyleTableRecord
2
Standard
70
0
3
<>
41
0.18
42
0.0625
44
0.18
140
0.18
147
0.09
73
0
74
0
77
1
271
2
275
0
278
52
280
0
340
11
0
ENDTAB
0
TABLE
2
VIEW
5
222
100
AcDbSymbolTable
0
ENDTAB
0
TABLE
2
UCS
5
223
100
AcDbSymbolTable
0
ENDTAB
0
TABLE
2
APPID
5
224
100
AcDbSymbolTable
0
APPID
5
12
100
AcDbSymbolTableRecord
100
AcDbRegAppTableRecord
2
ACAD
70
0
0
APPID
5
148
100
AcDbSymbolTableRecord
100
AcDbRegAppTableRecord
2
ACAD_DSTYLE_DIMBREAK
70
0
0
APPID
5
1C8
100
AcDbSymbolTableRecord
100
AcDbRegAppTableRecord
2
ACAD_DSTYLE_DIM_LINETYPE
70
0
0
APPID
5
1C9
100
AcDbSymbolTableRecord
100
AcDbRegAppTableRecord
2
ACAD_DSTYLE_DIM_EXT1_LINETYPE
70
0
0
APPID
5
1CA
100
AcDbSymbolTableRecord
100
AcDbRegAppTableRecord
2
ACAD_DSTYLE_DIM_EXT2_LINETYPE
70
0
0
APPID
5
205
100
AcDbSymbolTableRecord
100
AcDbRegAppTableRecord
2
ACAD_MLEADERVER
70
0
0
ENDTAB
0
TABLE
2
BLOCK_RECORD
5
225
100
AcDbSymbolTable
0
BLOCK_RECORD
5
1F
100
AcDbSymbolTableRecord
100
AcDbBlockTableRecord
2
*Model_Space
340
0
70
0
0
BLOCK_RECORD
5
1B
100
AcDbSymbolTableRecord
100
AcDbBlockTableRecord
2
*Paper_Space
340
0
70
0
0
BLOCK_RECORD
5
23
100
AcDbSymbolTableRecord
100
AcDbBlockTableRecord
2
*Paper_Space0
340
0
70
0
0
BLOCK_RECORD
5
14D
100
AcDbSymbolTableRecord
100
AcDbBlockTableRecord
2
*D1
340
0
70
0
0
BLOCK_RECORD
5
159
100
AcDbSymbolTableRecord
100
AcDbBlockTableRecord
2
_U0
340
0
70
0
0
BLOCK_RECORD
5
165
100
AcDbSymbolTableRecord
100
AcDbBlockTableRecord
2
*D3
340
0
70
0
0
BLOCK_RECORD
5
171
100
AcDbSymbolTableRecord
100
AcDbBlockTableRecord
2
_U1
340
0
70
0
0
BLOCK_RECORD
5
17D
100
AcDbSymbolTableRecord
100
AcDbBlockTableRecord
2
*D5
340
0
70
0
0
BLOCK_RECORD
5
189
100
AcDbSymbolTableRecord
100
AcDbBlockTableRecord
2
_U2
340
0
70
0
0
BLOCK_RECORD
5
195
100
AcDbSymbolTableRecord
100
AcDbBlockTableRecord
2
*D7
340
0
70
0
0
BLOCK_RECORD
5
1A1
100
AcDbSymbolTableRecord
100
AcDbBlockTableRecord
2
_U3
340
0
70
0
0
ENDTAB
0
ENDSEC
0
SECTION
2
BLOCKS
0
BLOCK
5
20
100
AcDbEntity
8
0
100
AcDbBlockBegin
2
*Model_Space
70
0
10
0
20
0
30
0
3
*Model_Space
0
ENDBLK
5
21
100
AcDbEntity
8
0
100
AcDbBlockEnd
0
BLOCK
5
1C
100
AcDbEntity
8
0
100
AcDbBlockBegin
2
*Paper_Space
70
0
10
0
20
0
30
0
3
*Paper_Space
0
ENDBLK
5
1D
100
AcDbEntity
8
0
100
AcDbBlockEnd
0
BLOCK
5
24
100
AcDbEntity
8
0
100
AcDbBlockBegin
2
*Paper_Space0
70
0
10
0
20
0
30
0
3
*Paper_Space0
0
ENDBLK
5
25
100
AcDbEntity
8
0
100
AcDbBlockEnd
0
BLOCK
5
14E
100
AcDbEntity
8
0
100
AcDbBlockBegin
2
*D1
70
1
10
0
20
0
30
0
3
*D1
0
LINE
5
150
100
AcDbEntity
8
0
62
256
6
ByLayer
370
-2
48
1
60
0
100
AcDbLine
10
-50
20
-11.5875
30
0
11
-50
21
-47.952229
31
0
39
0
210
0
220
0
230
1
0
LINE
5
151
100
AcDbEntity
8
0
62
256
6
ByLayer
370
-2
48
1
60
0
100
AcDbLine
10
86.5
20
-1.5875
30
0
11
86.5
21
-47.952229
31
0
39
0
210
0
220
0
230
1
0
LINE
5
152
100
AcDbEntity
8
0
62
256
6
ByLayer
370
-2
48
1
60
0
100
AcDbLine
10
-46.5
20
-45.952229
30
0
11
83
21
-45.952229
31
0
39
0
210
0
220
0
230
1
0
SOLID
5
153
100
AcDbEntity
8
0
62
256
6
ByLayer
370
-1
48
1
60
0
100
AcDbTrace
10
-46.5
20
-45.368896
30
0
11
-46.5
21
-46.535563
31
0
12
-50
22
-45.952229
32
0
13
-50
23
-45.952229
33
0
39
0
210
0
220
0
230
1
0
SOLID
5
154
100
AcDbEntity
8
0
62
256
6
ByLayer
370
-1
48
1
60
0
100
AcDbTrace
10
83
20
-46.535563
30
0
11
83
21
-45.368896
31
0
12
86.5
22
-45.952229
32
0
13
86.5
23
-45.952229
33
0
39
0
210
0
220
0
230
1
0
MTEXT
5
155
100
AcDbEntity
8
0
62
256
6
ByLayer
370
18
48
1
60
0
100
AcDbMText
10
18.25
20
-39.952229
30
0
210
0
220
0
230
1
1
\A1;136.5
40
3
41
0
44
1
50
0
71
5
72
5
7
iso_b_vert
0
POINT
5
156
100
AcDbEntity
8
Defpoints
62
0
6
ByLayer
370
-1
48
1
60
0
100
AcDbPoint
10
-50
20
-10
30
0
39
0
210
0
220
0
230
1
50
360
0
POINT
5
157
100
AcDbEntity
8
Defpoints
62
0
6
ByLayer
370
-1
48
1
60
0
100
AcDbPoint
10
86.5
20
0
30
0
39
0
210
0
220
0
230
1
50
360
0
POINT
5
158
100
AcDbEntity
8
Defpoints
62
0
6
ByLayer
370
-1
48
1
60
0
100
AcDbPoint
10
86.5
20
-45.952229
30
0
39
0
210
0
220
0
230
1
50
360
0
ENDBLK
5
14F
100
AcDbEntity
8
0
100
AcDbBlockEnd
0
BLOCK
5
160
100
AcDbEntity
8
0
100
AcDbBlockBegin
2
_U0
70
0
10
0
20
0
30
0
3
_U0
0
MTEXT
5
15A
100
AcDbEntity
8
SK2
62
256
6
ByLayer
370
18
48
1
60
0
100
AcDbMText
10
13.021658
20
-45.067115
30
0
210
0
220
0
230
1
1
\W0.7022;136.50
40
3
41
0
44
1.084337
50
0
71
7
72
5
7
iso_b_vert
0
LINE
5
15B
100
AcDbEntity
8
SK2
62
256
6
ByLayer
370
13
48
1
60
0
100
AcDbLine
10
-50
20
-11.5875
30
0
11
-50
21
-47.952229
31
0
39
0
210
0
220
0
230
1
0
LINE
5
15C
100
AcDbEntity
8
SK2
62
256
6
ByLayer
370
13
48
1
60
0
100
AcDbLine
10
86.5
20
-1.5875
30
0
11
86.5
21
-47.952229
31
0
39
0
210
0
220
0
230
1
0
LINE
5
15D
100
AcDbEntity
8
SK2
62
256
6
ByLayer
370
13
48
1
60
0
100
AcDbLine
10
-50
20
-45.952229
30
0
11
86.5
21
-45.952229
31
0
39
0
210
0
220
0
230
1
0
SOLID
5
15E
100
AcDbEntity
8
SK2
62
256
6
ByLayer
370
18
48
1
60
0
100
AcDbTrace
10
-50
20
-45.952229
30
0
11
-46.500002
21
-45.491446
31
0
12
-46.499998
22
-46.413013
32
0
13
-46.499998
23
-46.413013
33
0
39
0
210
0
220
0
230
1
0
SOLID
5
15F
100
AcDbEntity
8
SK2
62
256
6
ByLayer
370
18
48
1
60
0
100
AcDbTrace
10
86.5
20
-45.952229
30
0
11
83.000002
21
-46.413013
31
0
12
82.999998
22
-45.491446
32
0
13
82.999998
23
-45.491446
33
0
39
0
210
0
220
0
230
1
0
ENDBLK
5
161
100
AcDbEntity
8
0
100
AcDbBlockEnd
0
BLOCK
5
166
100
AcDbEntity
8
0
100
AcDbBlockBegin
2
*D3
70
1
10
0
20
0
30
0
3
*D3
0
LINE
5
168
100
AcDbEntity
8
0
62
256
6
ByLayer
370
-2
48
1
60
0
100
AcDbLine
10
86.5
20
-1.5875
30
0
11
86.5
21
-37.952229
31
0
39
0
210
0
220
0
230
1
0
LINE
5
169
100
AcDbEntity
8
0
62
256
6
ByLayer
370
-2
48
1
60
0
100
AcDbLine
10
3
20
-10.0875
30
0
11
3
21
-37.952229
31
0
39
0
210
0
220
0
230
1
0
LINE
5
16A
100
AcDbEntity
8
0
62
256
6
ByLayer
370
-2
48
1
60
0
100
AcDbLine
10
83
20
-35.952229
30
0
11
6.5
21
-35.952229
31
0
39
0
210
0
220
0
230
1
0
SOLID
5
16B
100
AcDbEntity
8
0
62
256
6
ByLayer
370
-1
48
1
60
0
100
AcDbTrace
10
83
20
-36.535563
30
0
11
83
21
-35.368896
31
0
12
86.5
22
-35.952229
32
0
13
86.5
23
-35.952229
33
0
39
0
210
0
220
0
230
1
0
SOLID
5
16C
100
AcDbEntity
8
0
62
256
6
ByLayer
370
-1
48
1
60
0
100
AcDbTrace
10
6.5
20
-35.368896
30
0
11
6.5
21
-36.535563
31
0
12
3
22
-35.952229
32
0
13
3
23
-35.952229
33
0
39
0
210
0
220
0
230
1
0
MTEXT
5
16D
100
AcDbEntity
8
0
62
256
6
ByLayer
370
18
48
1
60
0
100
AcDbMText
10
44.75
20
-29.952229
30
0
210
0
220
0
230
1
1
\A1;83.5
40
3
41
0
44
1
50
0
71
5
72
5
7
iso_b_vert
0
POINT
5
16E
100
AcDbEntity
8
Defpoints
62
0
6
ByLayer
370
-1
48
1
60
0
100
AcDbPoint
10
86.5
20
0
30
0
39
0
210
0
220
0
230
1
50
360
0
POINT
5
16F
100
AcDbEntity
8
Defpoints
62
0
6
ByLayer
370
-1
48
1
60
0
100
AcDbPoint
10
3
20
-8.5
30
0
39
0
210
0
220
0
230
1
50
360
0
POINT
5
170
100
AcDbEntity
8
Defpoints
62
0
6
ByLayer
370
-1
48
1
60
0
100
AcDbPoint
10
3
20
-35.952229
30
0
39
0
210
0
220
0
230
1
50
360
0
ENDBLK
5
167
100
AcDbEntity
8
0
100
AcDbBlockEnd
0
BLOCK
5
178
100
AcDbEntity
8
0
100
AcDbBlockBegin
2
_U1
70
0
10
0
20
0
30
0
3
_U1
0
MTEXT
5
172
100
AcDbEntity
8
SK2
62
256
6
ByLayer
370
18
48
1
60
0
100
AcDbMText
10
40.26763
20
-35.067115
30
0
210
0
220
0
230
1
1
\W0.7468;83.50
40
3
41
0
44
1.084337
50
0
71
7
72
5
7
iso_b_vert
0
LINE
5
173
100
AcDbEntity
8
SK2
62
256
6
ByLayer
370
13
48
1
60
0
100
AcDbLine
10
86.5
20
-1.5875
30
0
11
86.5
21
-37.952229
31
0
39
0
210
0
220
0
230
1
0
LINE
5
174
100
AcDbEntity
8
SK2
62
256
6
ByLayer
370
13
48
1
60
0
100
AcDbLine
10
3
20
-10.0875
30
0
11
3
21
-37.952229
31
0
39
0
210
0
220
0
230
1
0
LINE
5
175
100
AcDbEntity
8
SK2
62
256
6
ByLayer
370
13
48
1
60
0
100
AcDbLine
10
86.5
20
-35.952229
30
0
11
3
21
-35.952229
31
0
39
0
210
0
220
0
230
1
0
SOLID
5
176
100
AcDbEntity
8
SK2
62
256
6
ByLayer
370
18
48
1
60
0
100
AcDbTrace
10
86.5
20
-35.952229
30
0
11
83.000002
21
-36.413013
31
0
12
82.999998
22
-35.491446
32
0
13
82.999998
23
-35.491446
33
0
39
0
210
0
220
0
230
1
0
SOLID
5
177
100
AcDbEntity
8
SK2
62
256
6
ByLayer
370
18
48
1
60
0
100
AcDbTrace
10
3
20
-35.952229
30
0
11
6.499998
21
-35.491446
31
0
12
6.500002
22
-36.413013
32
0
13
6.500002
23
-36.413013
33
0
39
0
210
0
220
0
230
1
0
ENDBLK
5
179
100
AcDbEntity
8
0
100
AcDbBlockEnd
0
BLOCK
5
17E
100
AcDbEntity
8
0
100
AcDbBlockBegin
2
*D5
70
1
10
0
20
0
30
0
3
*D5
0
LINE
5
180
100
AcDbEntity
8
0
62
256
6
ByLayer
370
-2
48
1
60
0
100
AcDbLine
10
-50
20
-11.5875
30
0
11
-50
21
-37.952229
31
0
39
0
210
0
220
0
230
1
0
LINE
5
181
100
AcDbEntity
8
0
62
256
6
ByLayer
370
-2
48
1
60
0
100
AcDbLine
10
0
20
-11.5875
30
0
11
0
21
-37.952229
31
0
39
0
210
0
220
0
230
1
0
LINE
5
182
100
AcDbEntity
8
0
62
256
6
ByLayer
370
-2
48
1
60
0
100
AcDbLine
10
-46.5
20
-35.952229
30
0
11
-3.5
21
-35.952229
31
0
39
0
210
0
220
0
230
1
0
SOLID
5
183
100
AcDbEntity
8
0
62
256
6
ByLayer
370
-1
48
1
60
0
100
AcDbTrace
10
-46.5
20
-35.368896
30
0
11
-46.5
21
-36.535563
31
0
12
-50
22
-35.952229
32
0
13
-50
23
-35.952229
33
0
39
0
210
0
220
0
230
1
0
SOLID
5
184
100
AcDbEntity
8
0
62
256
6
ByLayer
370
-1
48
1
60
0
100
AcDbTrace
10
-3.5
20
-36.535563
30
0
11
-3.5
21
-35.368896
31
0
12
0
22
-35.952229
32
0
13
0
23
-35.952229
33
0
39
0
210
0
220
0
230
1
0
MTEXT
5
185
100
AcDbEntity
8
0
62
256
6
ByLayer
370
18
48
1
60
0
100
AcDbMText
10
-25
20
-29.952229
30
0
210
0
220
0
230
1
1
\A1;50
40
3
41
0
44
1
50
0
71
5
72
5
7
iso_b_vert
0
POINT
5
186
100
AcDbEntity
8
Defpoints
62
0
6
ByLayer
370
-1
48
1
60
0
100
AcDbPoint
10
-50
20
-10
30
0
39
0
210
0
220
0
230
1
50
360
0
POINT
5
187
100
AcDbEntity
8
Defpoints
62
0
6
ByLayer
370
-1
48
1
60
0
100
AcDbPoint
10
0
20
-10
30
0
39
0
210
0
220
0
230
1
50
360
0
POINT
5
188
100
AcDbEntity
8
Defpoints
62
0
6
ByLayer
370
-1
48
1
60
0
100
AcDbPoint
10
0
20
-35.952229
30
0
39
0
210
0
220
0
230
1
50
360
0
ENDBLK
5
17F
100
AcDbEntity
8
0
100
AcDbBlockEnd
0
BLOCK
5
190
100
AcDbEntity
8
0
100
AcDbBlockBegin
2
_U2
70
0
10
0
20
0
30
0
3
_U2
0
MTEXT
5
18A
100
AcDbEntity
8
SK2
62
256
6
ByLayer
370
18
48
1
60
0
100
AcDbMText
10
-29.48237
20
-35.067115
30
0
210
0
220
0
230
1
1
\W0.7468;50.00
40
3
41
0
44
1.084337
50
0
71
7
72
5
7
iso_b_vert
0
LINE
5
18B
100
AcDbEntity
8
SK2
62
256
6
ByLayer
370
13
48
1
60
0
100
AcDbLine
10
-50
20
-11.5875
30
0
11
-50
21
-37.952229
31
0
39
0
210
0
220
0
230
1
0
LINE
5
18C
100
AcDbEntity
8
SK2
62
256
6
ByLayer
370
13
48
1
60
0
100
AcDbLine
10
0
20
-11.5875
30
0
11
0
21
-37.952229
31
0
39
0
210
0
220
0
230
1
0
LINE
5
18D
100
AcDbEntity
8
SK2
62
256
6
ByLayer
370
13
48
1
60
0
100
AcDbLine
10
-50
20
-35.952229
30
0
11
0
21
-35.952229
31
0
39
0
210
0
220
0
230
1
0
SOLID
5
18E
100
AcDbEntity
8
SK2
62
256
6
ByLayer
370
18
48
1
60
0
100
AcDbTrace
10
-50
20
-35.952229
30
0
11
-46.500002
21
-35.491446
31
0
12
-46.499998
22
-36.413013
32
0
13
-46.499998
23
-36.413013
33
0
39
0
210
0
220
0
230
1
0
SOLID
5
18F
100
AcDbEntity
8
SK2
62
256
6
ByLayer
370
18
48
1
60
0
100
AcDbTrace
10
0
20
-35.952229
30
0
11
-3.499998
21
-36.413013
31
0
12
-3.500002
22
-35.491446
32
0
13
-3.500002
23
-35.491446
33
0
39
0
210
0
220
0
230
1
0
ENDBLK
5
191
100
AcDbEntity
8
0
100
AcDbBlockEnd
0
BLOCK
5
196
100
AcDbEntity
8
0
100
AcDbBlockBegin
2
*D7
70
1
10
0
20
0
30
0
3
*D7
0
LINE
5
198
100
AcDbEntity
8
0
62
256
6
ByLayer
370
-2
48
1
60
0
100
AcDbLine
10
86.5
20
1.5875
30
0
11
86.5
21
34.952229
31
0
39
0
210
0
220
0
230
1
0
LINE
5
199
100
AcDbEntity
8
0
62
256
6
ByLayer
370
-2
48
1
60
0
100
AcDbLine
10
24
20
10.0875
30
0
11
24
21
34.952229
31
0
39
0
210
0
220
0
230
1
0
LINE
5
19A
100
AcDbEntity
8
0
62
256
6
ByLayer
370
-2
48
1
60
0
100
AcDbLine
10
83
20
32.952229
30
0
11
27.5
21
32.952229
31
0
39
0
210
0
220
0
230
1
0
SOLID
5
19B
100
AcDbEntity
8
0
62
256
6
ByLayer
370
-1
48
1
60
0
100
AcDbTrace
10
83
20
32.368896
30
0
11
83
21
33.535563
31
0
12
86.5
22
32.952229
32
0
13
86.5
23
32.952229
33
0
39
0
210
0
220
0
230
1
0
SOLID
5
19C
100
AcDbEntity
8
0
62
256
6
ByLayer
370
-1
48
1
60
0
100
AcDbTrace
10
27.5
20
33.535563
30
0
11
27.5
21
32.368896
31
0
12
24
22
32.952229
32
0
13
24
23
32.952229
33
0
39
0
210
0
220
0
230
1
0
MTEXT
5
19D
100
AcDbEntity
8
0
62
256
6
ByLayer
370
18
48
1
60
0
100
AcDbMText
10
55.25
20
38.952229
30
0
210
0
220
0
230
1
1
\A1;62.5
40
3
41
0
44
1
50
0
71
5
72
5
7
iso_b_vert
0
POINT
5
19E
100
AcDbEntity
8
Defpoints
62
0
6
ByLayer
370
-1
48
1
60
0
100
AcDbPoint
10
86.5
20
0
30
0
39
0
210
0
220
0
230
1
50
360
0
POINT
5
19F
100
AcDbEntity
8
Defpoints
62
0
6
ByLayer
370
-1
48
1
60
0
100
AcDbPoint
10
24
20
8.5
30
0
39
0
210
0
220
0
230
1
50
360
0
POINT
5
1A0
100
AcDbEntity
8
Defpoints
62
0
6
ByLayer
370
-1
48
1
60
0
100
AcDbPoint
10
24
20
32.952229
30
0
39
0
210
0
220
0
230
1
50
360
0
ENDBLK
5
197
100
AcDbEntity
8
0
100
AcDbBlockEnd
0
BLOCK
5
1A8
100
AcDbEntity
8
0
100
AcDbBlockBegin
2
_U3
70
0
10
0
20
0
30
0
3
_U3
0
MTEXT
5
1A2
100
AcDbEntity
8
SK2
62
256
6
ByLayer
370
18
48
1
60
0
100
AcDbMText
10
50.76763
20
33.837344
30
0
210
0
220
0
230
1
1
\W0.7468;62.50
40
3
41
0
44
1.084337
50
0
71
7
72
5
7
iso_b_vert
0
LINE
5
1A3
100
AcDbEntity
8
SK2
62
256
6
ByLayer
370
13
48
1
60
0
100
AcDbLine
10
86.5
20
1.5875
30
0
11
86.5
21
34.952229
31
0
39
0
210
0
220
0
230
1
0
LINE
5
1A4
100
AcDbEntity
8
SK2
62
256
6
ByLayer
370
13
48
1
60
0
100
AcDbLine
10
24
20
10.0875
30
0
11
24
21
34.952229
31
0
39
0
210
0
220
0
230
1
0
LINE
5
1A5
100
AcDbEntity
8
SK2
62
256
6
ByLayer
370
13
48
1
60
0
100
AcDbLine
10
86.5
20
32.952229
30
0
11
24
21
32.952229
31
0
39
0
210
0
220
0
230
1
0
SOLID
5
1A6
100
AcDbEntity
8
SK2
62
256
6
ByLayer
370
18
48
1
60
0
100
AcDbTrace
10
86.5
20
32.952229
30
0
11
83.000002
21
32.491446
31
0
12
82.999998
22
33.413013
32
0
13
82.999998
23
33.413013
33
0
39
0
210
0
220
0
230
1
0
SOLID
5
1A7
100
AcDbEntity
8
SK2
62
256
6
ByLayer
370
18
48
1
60
0
100
AcDbTrace
10
24
20
32.952229
30
0
11
27.499998
21
33.413013
31
0
12
27.500002
22
32.491446
32
0
13
27.500002
23
32.491446
33
0
39
0
210
0
220
0
230
1
0
ENDBLK
5
1A9
100
AcDbEntity
8
0
100
AcDbBlockEnd
0
ENDSEC
0
SECTION
2
ENTITIES
0
ARC
5
C1
100
AcDbEntity
8
SK2
62
256
6
ByLayer
370
13
48
1
60
0
100
AcDbCircle
39
0
10
86.5
20
0
30
0
40
19
210
0
220
0
230
1
100
AcDbArc
50
290
51
70
0
ELLIPSE
5
C2
100
AcDbEntity
8
SK1
62
256
6
ByLayer
370
18
48
1
60
0
100
AcDbEllipse
10
209.817277
20
0
30
0
11
286.362532830084
21
-3.24477297310427E-13
31
0
210
0
220
0
230
1
40
0.034921
41
2.47357625657654
42
2.64710298745217
0
ELLIPSE
5
C3
100
AcDbEntity
8
SK1
62
256
6
ByLayer
370
18
48
1
60
0
100
AcDbEllipse
10
-22.723687
20
0
30
0
11
10.7236871002449
21
-1.21510065339267E-14
31
0
210
0
220
0
230
1
40
0.932515
41
-0.59537570803654
42
0.595375708036542
0
ELLIPSE
5
C4
100
AcDbEntity
8
SK1
62
256
6
ByLayer
370
18
48
1
60
0
100
AcDbEllipse
10
209.817277
20
0
30
0
11
286.362532824103
21
-3.2447729730365E-13
31
0
210
0
220
0
230
1
40
0.034921
41
-2.64710298745053
42
-2.47357625657208
0
ELLIPSE
5
C5
100
AcDbEntity
8
SK1
62
256
6
ByLayer
370
18
48
1
60
0
100
AcDbEllipse
10
-34.674849
20
0
30
0
11
-1.83690953073338E-15
21
-9.99999999999897
31
0
210
0
220
0
230
1
40
0.932515
41
-1.94446667349865
42
-1.19712598009114
0
POINT
5
70
100
AcDbEntity
8
80
62
256
6
ByLayer
370
18
48
1
60
0
100
AcDbPoint
10
0
20
0
30
0
39
0
210
0
220
0
230
1
50
360
0
POINT
5
72
100
AcDbEntity
8
81
62
256
6
ByLayer
370
18
48
1
60
0
100
AcDbPoint
10
86.5
20
0
30
0
39
0
210
0
220
0
230
1
50
360
0
POINT
5
74
100
AcDbEntity
8
1
62
256
6
ByLayer
370
18
48
1
60
1
100
AcDbPoint
10
-50
20
-10
30
0
39
0
210
0
220
0
230
1
50
360
0
POINT
5
76
100
AcDbEntity
8
1
62
256
6
ByLayer
370
18
48
1
60
1
100
AcDbPoint
10
86.5
20
0
30
0
39
0
210
0
220
0
230
1
50
360
0
POINT
5
77
100
AcDbEntity
8
1
62
256
6
ByLayer
370
18
48
1
60
1
100
AcDbPoint
10
86.5
20
0
30
0
39
0
210
0
220
0
230
1
50
360
0
POINT
5
78
100
AcDbEntity
8
1
62
256
6
ByLayer
370
18
48
1
60
1
100
AcDbPoint
10
3
20
-8.5
30
0
39
0
210
0
220
0
230
1
50
360
0
POINT
5
79
100
AcDbEntity
8
1
62
256
6
ByLayer
370
18
48
1
60
1
100
AcDbPoint
10
-50
20
-10
30
0
39
0
210
0
220
0
230
1
50
360
0
POINT
5
7A
100
AcDbEntity
8
1
62
256
6
ByLayer
370
18
48
1
60
1
100
AcDbPoint
10
0
20
-10
30
0
39
0
210
0
220
0
230
1
50
360
0
POINT
5
7B
100
AcDbEntity
8
1
62
256
6
ByLayer
370
18
48
1
60
1
100
AcDbPoint
10
86.5
20
0
30
0
39
0
210
0
220
0
230
1
50
360
0
POINT
5
7C
100
AcDbEntity
8
1
62
256
6
ByLayer
370
18
48
1
60
1
100
AcDbPoint
10
24
20
8.5
30
0
39
0
210
0
220
0
230
1
50
360
0
SPLINE
5
C6
100
AcDbEntity
8
1
62
256
6
ByLayer
370
18
48
1
60
0
100
AcDbSpline
70
4
71
3
72
20
73
16
40
0
40
0
40
0
40
0
40
0.0625000000000005
40
0.0625000000000005
40
0.125000000000001
40
0.125000000000001
40
0.250000000000002
40
0.250000000000002
40
0.500000000000004
40
0.500000000000004
40
0.625000000000001
40
0.625000000000001
40
0.749999999999998
40
0.749999999999998
40
1
40
1
40
1
40
1
41
1
10
83.4062530087365
20
-1.21322786839281
30
0
41
1
10
83.2162714977807
20
-1.14476428629743
30
0
41
1
10
83.0263680001009
20
-1.07612792245317
30
0
41
1
10
82.6467107196373
20
-0.938527688618962
30
0
41
1
10
82.4569532489217
20
-0.869574169387363
30
0
41
1
10
81.8877015697387
20
-0.66278997288245
30
0
41
1
10
81.508223873809
20
-0.525046927970209
30
0
41
1
10
80.3699629208427
20
-0.11186701114201
30
0
41
1
10
79.6113280646249
20
0.163456799062971
30
0
41
1
10
78.4740494853262
20
0.577253274970104
30
0
41
1
10
78.0951255038834
20
0.715475384075745
30
0
41
1
10
77.3368576029717
20
0.990409102868625
30
0
41
1
10
76.9575545817896
20
1.12723434315987
30
0
41
1
10
75.8192314980661
20
1.53604572572806
30
0
41
1
10
75.0597839038696
20
1.8063325126179
30
0
41
1
10
74.3
20
2.07498227009461
30
0
0
SPLINE
5
C7
100
AcDbEntity
8
1
62
256
6
ByLayer
370
18
48
1
60
0
100
AcDbSpline
70
4
71
3
72
84
73
80
40
0
40
0
40
0
40
0
40
0.031249999999999
40
0.031249999999999
40
0.0624999999999979
40
0.0624999999999979
40
0.124999999999994
40
0.124999999999994
40
0.140624999999992
40
0.140624999999992
40
0.15624999999999
40
0.15624999999999
40
0.187499999999988
40
0.187499999999988
40
0.249999999999984
40
0.249999999999984
40
0.281249999999983
40
0.281249999999983
40
0.296874999999982
40
0.296874999999982
40
0.312499999999981
40
0.312499999999981
40
0.343749999999978
40
0.343749999999978
40
0.374999999999975
40
0.374999999999975
40
0.406249999999973
40
0.406249999999973
40
0.43749999999997
40
0.43749999999997
40
0.453124999999969
40
0.453124999999969
40
0.468749999999968
40
0.468749999999968
40
0.499999999999966
40
0.499999999999966
40
0.531249999999964
40
0.531249999999964
40
0.539062499999963
40
0.539062499999963
40
0.546874999999962
40
0.562499999999962
40
0.562499999999962
40
0.59374999999996
40
0.59374999999996
40
0.624999999999959
40
0.624999999999959
40
0.632812499999959
40
0.632812499999959
40
0.640624999999959
40
0.656249999999959
40
0.656249999999959
40
0.687499999999958
40
0.687499999999958
40
0.718749999999957
40
0.718749999999957
40
0.726562499999957
40
0.726562499999957
40
0.734374999999957
40
0.734374999999957
40
0.749999999999959
40
0.749999999999959
40
0.781249999999965
40
0.781249999999965
40
0.812499999999972
40
0.843749999999978
40
0.843749999999978
40
0.851562499999978
40
0.851562499999978
40
0.859374999999979
40
0.874999999999982
40
0.874999999999982
40
0.906249999999987
40
0.937499999999991
40
0.968749999999995
40
0.968749999999995
40
0.984374999999998
40
0.984374999999998
40
1
40
1
40
1
40
1
41
1
10
83.4062530087373
20
8.23005898984931
30
0
41
1
10
83.4593418054815
20
8.09842596813084
30
0
41
1
10
83.5125140810766
20
7.96481718386471
30
0
41
1
10
83.6191157905274
20
7.69395990408361
30
0
41
1
10
83.672545130496
20
7.55671071488652
30
0
41
1
10
83.8333137834193
20
7.13984093354421
30
0
41
1
10
83.941148316005
20
6.85512738581349
30
0
41
1
10
84.0768766660824
20
6.4913645809898
30
0
41
1
10
84.1040679270894
20
6.41821610764325
30
0
41
1
10
84.1585393088643
20
6.27113373648638
30
0
41
1
10
84.1858297842761
20
6.19717076427463
30
0
41
1
10
84.2673409329427
20
5.97543547406821
30
0
41
1
10
84.3213656085591
20
5.82738143963113
30
0
41
1
10
84.4824247821753
20
5.38252295792887
30
0
41
1
10
84.5884988693787
20
5.08504306627373
30
0
41
1
10
84.7446187884924
20
4.63713421934401
30
0
41
1
10
84.796148758673
20
4.48754528411439
30
0
41
1
10
84.8723910070539
20
4.26263230152506
30
0
41
1
10
84.8976282523829
20
4.18757252513601
30
0
41
1
10
84.9476803643228
20
4.03725092337436
30
0
41
1
10
84.9725055423002
20
3.9619555514567
30
0
41
1
10
85.045861604473
20
3.73682489961897
30
0
41
1
10
85.093404611288
20
3.58739158143067
30
0
41
1
10
85.1849055480061
20
3.28957821927151
30
0
41
1
10
85.228869679711
20
3.14119888676939
30
0
41
1
10
85.3118856263342
20
2.84517776187826
30
0
41
1
10
85.3509446816696
20
2.69753641443523
30
0
41
1
10
85.4221467412244
20
2.40259005043953
30
0
41
1
10
85.4542923110072
20
2.25528439784298
30
0
41
1
10
85.4951742127246
20
2.03421623039515
30
0
41
1
10
85.5075823692995
20
1.96039181153284
30
0
41
1
10
85.529315199349
20
1.81409529150514
30
0
41
1
10
85.5386709042173
20
1.74147006741353
30
0
41
1
10
85.5617495534629
20
1.5252252136307
30
0
41
1
10
85.5704348955362
20
1.38322904835229
30
0
41
1
10
85.5727823494432
20
1.10407914965219
30
0
41
1
10
85.5664308663385
20
0.966927756481908
30
0
41
1
10
85.5491609202135
20
0.798962363039067
30
0
41
1
10
85.5452410069224
20
0.765514199004258
30
0
41
1
10
85.5365126408594
20
0.699105298594219
30
0
41
1
10
85.5221335707739
20
0.600552502390684
30
0
41
1
10
85.5041181004651
20
0.505141976187133
30
0
41
1
10
85.4638442475843
20
0.318408399190389
30
0
41
1
10
85.4313610902199
20
0.199361721908673
30
0
41
1
10
85.3580589409482
20
-0.0282762909789369
30
0
41
1
10
85.3172461085304
20
-0.136870714299761
30
0
41
1
10
85.2623769001692
20
-0.266181139949254
30
0
41
1
10
85.2512001679104
20
-0.291738991137606
30
0
41
1
10
85.2285198453015
20
-0.34212806038525
30
0
41
1
10
85.1940747876243
20
-0.416477246852111
30
0
41
1
10
85.1584880165754
20
-0.487196185823166
30
0
41
1
10
85.0860688104511
20
-0.623939826711364
30
0
41
1
10
85.03614495062
20
-0.708856330812438
30
0
41
1
10
84.9339778259109
20
-0.866618272847205
30
0
41
1
10
84.8817276448611
20
-0.939461430648663
30
0
41
1
10
84.815279959967
20
-1.02298476119694
30
0
41
1
10
84.8019328297768
20
-1.03931201239263
30
0
41
1
10
84.7751283555612
20
-1.07120861209637
30
0
41
1
10
84.7616600022386
20
-1.08678958318018
30
0
41
1
10
84.721265237492
20
-1.13220269125722
30
0
41
1
10
84.6943037746463
20
-1.16076314478647
30
0
41
1
10
84.6133667105473
20
-1.24141586741422
30
0
41
1
10
84.5593424499332
20
-1.28848988037271
30
0
41
1
10
84.4512596346253
20
-1.36959060242509
30
0
41
1
10
84.3431399222769
20
-1.43764130342336
30
0
41
1
10
84.2349160327399
20
-1.47963713170768
30
0
41
1
10
84.1671878112958
20
-1.4975694224454
30
0
41
1
10
84.1536269314228
20
-1.50074075308348
30
0
41
1
10
84.1266135899652
20
-1.50622200546638
30
0
41
1
10
84.0862177729549
20
-1.51316364810887
30
0
41
1
10
84.0461812738039
20
-1.51630748579711
30
0
41
1
10
83.9665522038586
20
-1.51761789476964
30
0
41
1
10
83.8615635867184
20
-1.50610987879929
30
0
41
1
10
83.7070772016867
20
-1.44980493430415
30
0
41
1
10
83.6057209130929
20
-1.38619423944701
30
0
41
1
10
83.5301798520392
20
-1.32849444944489
30
0
41
1
10
83.5051415413685
20
-1.30763879138078
30
0
41
1
10
83.4554469821815
20
-1.26279984946299
30
0
41
1
10
83.4307710168569
20
-1.23880166506888
30
0
41
1
10
83.4062530087373
20
-1.21322786839309
30
0
0
SPLINE
5
C8
100
AcDbEntity
8
1
62
256
6
ByLayer
370
18
48
1
60
0
100
AcDbSpline
70
4
71
3
72
20
73
16
40
0
40
0
40
0
40
0
40
0.0352147059950688
40
0.0352147059950688
40
0.131693235395553
40
0.131693235395553
40
0.228171764796038
40
0.228171764796038
40
0.614085882398
40
0.614085882398
40
0.710564411798497
40
0.710564411798497
40
0.807042941198994
40
0.807042941198994
40
1
40
1
40
1
40
1
41
1
10
77.5083559997841
20
8.49893819840096
30
0
41
1
10
77.5775286565944
20
8.49895086204347
30
0
41
1
10
77.6466965742477
20
8.49885071373484
30
0
41
1
10
77.905357684248
20
8.49805331253401
30
0
41
1
10
78.0948586450678
20
8.49662118603084
30
0
41
1
10
78.4739575313333
20
8.49208155735028
30
0
41
1
10
78.663540429828
20
8.48897397181599
30
0
41
1
10
79.6115448929623
20
8.46926712483977
30
0
41
1
10
80.3702713231651
20
8.44022442261877
30
0
41
1
10
81.3186154660703
20
8.38708597841082
30
0
41
1
10
81.5082802288779
20
8.37561232426589
30
0
41
1
10
81.8875895896588
20
8.35095095741332
30
0
41
1
10
82.0772348409714
20
8.33776151514093
30
0
41
1
10
82.6463926790336
20
8.29574463712444
30
0
41
1
10
83.026193092991
20
8.26451966799752
30
0
41
1
10
83.4062530087365
20
8.2300589898494
30
0
0
SPLINE
5
C9
100
AcDbEntity
8
1
62
256
6
ByLayer
370
18
48
1
60
0
100
AcDbSpline
70
4
71
3
72
40
73
36
40
0
40
0
40
0
40
0
40
0.0257842231547828
40
0.0257842231547828
40
0.0907319416111324
40
0.0907319416111324
40
0.220627378523831
40
0.220627378523831
40
0.285575096980181
40
0.285575096980181
40
0.318048956208355
40
0.318048956208355
40
0.35052281543653
40
0.35052281543653
40
0.41547053389288
40
0.41547053389288
40
0.480418252349229
40
0.480418252349229
40
0.545365970805578
40
0.545365970805578
40
0.610313689261927
40
0.610313689261927
40
0.6427875484901
40
0.6427875484901
40
0.675261407718274
40
0.675261407718274
40
0.740209126174621
40
0.740209126174621
40
0.870104563087311
40
0.870104563087311
40
0.902578422315484
40
0.902578422315484
40
0.935052281543657
40
0.935052281543657
40
1
40
1
40
1
40
1
41
1
10
60.4553155233985
20
5.940633257173
30
0
41
1
10
60.574308138937
20
5.96881132519056
30
0
41
1
10
60.6932972347288
20
5.99673616802068
30
0
41
1
10
61.1120536028242
20
6.09399500577371
30
0
41
1
10
61.4118348890472
20
6.16192083545607
30
0
41
1
10
62.3111279922813
20
6.36092397819976
30
0
41
1
10
62.9106181245008
20
6.48718596791889
30
0
41
1
10
63.8095158018471
20
6.66743027309886
30
0
41
1
10
64.109083267697
20
6.72599718402651
30
0
41
1
10
64.5583349141704
20
6.81154521447525
30
0
41
1
10
64.7080766594407
20
6.8396644141244
30
0
41
1
10
65.0076251550404
20
6.89498098214543
30
0
41
1
10
65.1574387459088
20
6.92216852191464
30
0
41
1
10
65.6069849899367
20
7.00234808063203
30
0
41
1
10
65.9068129688652
20
7.0539734358706
30
0
41
1
10
66.5066596529537
20
7.15369407406391
30
0
41
1
10
66.806718252245
20
7.20178803829842
30
0
41
1
10
67.406837466825
20
7.29446192720738
30
0
41
1
10
67.7067838863205
20
7.33902657460541
30
0
41
1
10
68.3064001895045
20
7.42465188079112
30
0
41
1
10
68.6060456633413
20
7.46573885313143
30
0
41
1
10
69.0553559051999
20
7.5246491049819
30
0
41
1
10
69.2051117999793
20
7.54381889691825
30
0
41
1
10
69.5046760466919
20
7.58114406283622
30
0
41
1
10
69.6544780726749
20
7.59930685813154
30
0
41
1
10
70.1039211062691
20
7.6523304160352
30
0
41
1
10
70.4035936634285
20
7.6857325798417
30
0
41
1
10
71.3026650645382
20
7.78021168649826
30
0
41
1
10
71.9021314548659
20
7.8355677057919
30
0
41
1
10
72.6513268403798
20
7.89531531808075
30
0
41
1
10
72.8011588343048
20
7.90679112929939
30
0
41
1
10
73.1008023919467
20
7.92879161904503
30
0
41
1
10
73.250614336302
20
7.93931534897146
30
0
41
1
10
73.7001306427576
20
7.96938751850681
30
0
41
1
10
73.9999794004825
20
7.9874042960468
30
0
41
1
10
74.2999999999998
20
8.00341435188116
30
0
0
SPLINE
5
CA
100
AcDbEntity
8
1
62
256
6
ByLayer
370
18
48
1
60
0
100
AcDbSpline
70
4
71
3
72
63
73
59
40
0
40
0
40
0
40
0
40
0.0305026838594061
40
0.0305026838594061
40
0.0610053677188122
40
0.0610053677188122
40
0.122010735437624
40
0.122010735437624
40
0.15251341929703
40
0.15251341929703
40
0.183016103156437
40
0.183016103156437
40
0.244021470875249
40
0.244021470875249
40
0.274524154734655
40
0.274524154734655
40
0.305026838594061
40
0.305026838594061
40
0.335529522453467
40
0.335529522453467
40
0.35078086438317
40
0.35078086438317
40
0.366032206312873
40
0.396534890172278
40
0.396534890172278
40
0.427037574031683
40
0.427037574031683
40
0.457540257891088
40
0.457540257891088
40
0.488042941750493
40
0.488042941750493
40
0.549048309469304
40
0.549048309469304
40
0.579550993328709
40
0.579550993328709
40
0.610053677188115
40
0.610053677188115
40
0.671059044906927
40
0.671059044906927
40
0.701561728766333
40
0.701561728766333
40
0.716813070696036
40
0.716813070696036
40
0.732064412625739
40
0.732064412625739
40
0.79306978034455
40
0.79306978034455
40
0.823572464203955
40
0.823572464203955
40
0.85407514806336
40
0.85407514806336
40
0.915080515782169
40
0.915080515782169
40
0.976085883500977
40
0.976085883500977
40
0.99133722543068
40
0.99133722543068
40
1
40
1
40
1
40
1
41
1
10
74.3
20
1.84162474651356
30
0
41
1
10
73.9809592629039
20
1.94964097729749
30
0
41
1
10
73.662148156779
20
2.0572838781186
30
0
41
1
10
73.0245733534965
20
2.27064850661
30
0
41
1
10
72.705849220607
20
2.37648716513172
30
0
41
1
10
71.7499082261389
20
2.69161922541804
30
0
41
1
10
71.1129108240714
20
2.89850347323326
30
0
41
1
10
70.1580388421383
20
3.20450456596862
30
0
41
1
10
69.8398761106127
20
3.30584456127229
30
0
41
1
10
69.2036305908829
20
3.50671954211637
30
0
41
1
10
68.885465850926
20
3.60603920947003
30
0
41
1
10
67.9307486553278
20
3.90042068500466
30
0
41
1
10
67.2940329609939
20
4.09207023939291
30
0
41
1
10
66.3387528347519
20
4.37302333218315
30
0
41
1
10
66.0202955722928
20
4.46559513571691
30
0
41
1
10
65.3833356867122
20
4.64859821328608
30
0
41
1
10
65.0648513003067
20
4.73906959612029
30
0
41
1
10
64.427429586482
20
4.91688362525918
30
0
41
1
10
64.108521474385
20
5.0042999213924
30
0
41
1
10
63.6298886752874
20
5.13325604491419
30
0
41
1
10
63.4702793719204
20
5.1758841131531
30
0
41
1
10
63.1511716143629
20
5.26036926586934
30
0
41
1
10
62.6726155979203
20
5.38595628513124
30
0
41
1
10
62.1943904769109
20
5.50816227073824
30
0
41
1
10
61.5570860110338
20
5.66816422842646
30
0
41
1
10
61.2386146281848
20
5.74672798171054
30
0
41
1
10
60.6019211839056
20
5.90072033573333
30
0
41
1
10
60.2836200877148
20
5.97598761678867
30
0
41
1
10
59.6469684016522
20
6.12282184127048
30
0
41
1
10
59.3286441380227
20
6.19444241647292
30
0
41
1
10
58.3737076973397
20
6.40400553410606
30
0
41
1
10
57.7371310707532
20
6.53666283195579
30
0
41
1
10
56.7825097933809
20
6.72526988101555
30
0
41
1
10
56.464374237325
20
6.78644932299648
30
0
41
1
10
55.8278094994597
20
6.9047183693508
30
0
41
1
10
55.5093883212449
20
6.96182796376584
30
0
41
1
10
54.5537623428939
20
7.12720371498165
30
0
41
1
10
53.9161830956266
20
7.22951346034176
30
0
41
1
10
52.9592378609633
20
7.37122310061102
30
0
41
1
10
52.6400928746341
20
7.41651995103467
30
0
41
1
10
52.1618026914259
20
7.48136778431632
30
0
41
1
10
52.002417231787
20
7.50246271509246
30
0
41
1
10
51.6836654089748
20
7.54353574909462
30
0
41
1
10
51.5243023479911
20
7.56351823362274
30
0
41
1
10
50.7275621904991
20
7.66069090829055
30
0
41
1
10
50.090414053889
20
7.7296865013638
30
0
41
1
10
49.1351974079343
20
7.820305403345
30
0
41
1
10
48.8168793801701
20
7.84836436238172
30
0
41
1
10
48.1804430702521
20
7.90017613511898
30
0
41
1
10
47.8623620326962
20
7.92394632446153
30
0
41
1
10
46.9079481999754
20
7.98846520911218
30
0
41
1
10
46.2713620127209
20
8.02242535736875
30
0
41
1
10
44.9977883523395
20
8.07254093191827
30
0
41
1
10
44.3608163488652
20
8.0886980720885
30
0
41
1
10
43.5644414493726
20
8.09759865585301
30
0
41
1
10
43.4051520276477
20
8.09881148758754
30
0
41
1
10
43.1553104033512
20
8.09981985104429
30
0
41
1
10
43.0647897263148
20
8.10000150287169
30
0
41
1
10
42.9742526381456
20
8.10000000769702
30
0
0
SPLINE
5
CB
100
AcDbEntity
8
1
62
256
6
ByLayer
370
18
48
1
60
0
100
AcDbSpline
70
4
71
3
72
12
73
8
40
0
40
0
40
0
40
0
40
0.709849119055889
40
0.709849119055889
40
0.887311398819862
40
0.887311398819862
40
1
40
1
40
1
40
1
41
1
10
74.3
20
-8.41839687317426
30
0
41
1
10
75.0600234622511
20
-8.45636987110254
30
0
41
1
10
75.8195983477373
20
-8.48085376099496
30
0
41
1
10
76.7680541915021
20
-8.49479092290682
30
0
41
1
10
76.9576939116864
20
-8.49674126879432
30
0
41
1
10
77.267659314711
20
-8.4985526961654
30
0
41
1
10
77.3880150408558
20
-8.49891616802734
30
0
41
1
10
77.5083564232847
20
-8.4989381984785
30
0
0
SPLINE
5
CC
100
AcDbEntity
8
1
62
256
6
ByLayer
370
18
48
1
60
0
100
AcDbSpline
70
4
71
3
72
124
73
120
40
0
40
0
40
0
40
0
40
0.0312500000000027
40
0.0312500000000027
40
0.0625000000000053
40
0.0625000000000053
40
0.0703125000000057
40
0.0703125000000057
40
0.078125000000006
40
0.078125000000006
40
0.093750000000006
40
0.093750000000006
40
0.125000000000006
40
0.125000000000006
40
0.140625000000006
40
0.140625000000006
40
0.156250000000005
40
0.156250000000005
40
0.171875000000005
40
0.171875000000005
40
0.187500000000005
40
0.187500000000005
40
0.218750000000004
40
0.218750000000004
40
0.234375000000004
40
0.234375000000004
40
0.250000000000004
40
0.250000000000004
40
0.281250000000004
40
0.281250000000004
40
0.296875000000004
40
0.296875000000004
40
0.312500000000004
40
0.312500000000004
40
0.343750000000005
40
0.343750000000005
40
0.359375000000005
40
0.359375000000005
40
0.375000000000005
40
0.375000000000005
40
0.382812500000005
40
0.382812500000005
40
0.390625000000004
40
0.390625000000004
40
0.406250000000004
40
0.406250000000004
40
0.437500000000002
40
0.437500000000002
40
0.453125000000002
40
0.453125000000002
40
0.460937500000002
40
0.460937500000002
40
0.468750000000002
40
0.468750000000002
40
0.500000000000002
40
0.500000000000002
40
0.515625000000003
40
0.515625000000003
40
0.523437500000003
40
0.523437500000003
40
0.531250000000003
40
0.531250000000003
40
0.546875000000003
40
0.546875000000003
40
0.562500000000002
40
0.562500000000002
40
0.593750000000001
40
0.593750000000001
40
0.609375000000001
40
0.609375000000001
40
0.625
40
0.625
40
0.65625
40
0.65625
40
0.671875
40
0.671875
40
0.687499999999999
40
0.687499999999999
40
0.703124999999999
40
0.703124999999999
40
0.718749999999999
40
0.718749999999999
40
0.734374999999999
40
0.734374999999999
40
0.749999999999999
40
0.749999999999999
40
0.765624999999998
40
0.765624999999998
40
0.781249999999998
40
0.781249999999998
40
0.812499999999998
40
0.812499999999998
40
0.828124999999999
40
0.828124999999999
40
0.835937499999999
40
0.835937499999999
40
0.843749999999999
40
0.843749999999999
40
0.859374999999999
40
0.859374999999999
40
0.875
40
0.875
40
0.890625
40
0.890625
40
0.90625
40
0.90625
40
0.914062500000001
40
0.914062500000001
40
0.921875000000001
40
0.921875000000001
40
0.937500000000001
40
0.937500000000001
40
0.968750000000001
40
0.968750000000001
40
0.976562500000001
40
0.976562500000001
40
0.984375000000001
40
0.984375000000001
40
1
40
1
40
1
40
1
41
1
10
16.7941660956093
20
7.01112979009957
30
0
41
1
10
17.3937925594137
20
6.90636985687632
30
0
41
1
10
17.9933158031739
20
6.79541319456689
30
0
41
1
10
19.1917536085235
20
6.56079704263794
30
0
41
1
10
19.7906710523285
20
6.43714051531774
30
0
41
1
10
20.5387028756382
20
6.27416635145761
30
0
41
1
10
20.6882779525056
20
6.24114924296134
30
0
41
1
10
20.9873603153937
20
6.17425562498409
30
0
41
1
10
21.1368696605602
20
6.14038242839783
30
0
41
1
10
21.5854132442121
20
6.03769190264325
30
0
41
1
10
21.8845236179041
20
5.96792226596446
30
0
41
1
10
22.7820644024073
20
5.75468337279574
30
0
41
1
10
23.3806418970364
20
5.60717368066338
30
0
41
1
10
24.2785772289755
20
5.37736951561217
30
0
41
1
10
24.577899243361
20
5.29933888924322
30
0
41
1
10
25.1765138076744
20
5.14027562231252
30
0
41
1
10
25.4757563059489
20
5.05912378682223
30
0
41
1
10
26.0745763803022
20
4.89461858599549
30
0
41
1
10
26.3742030592532
20
4.81138724129798
30
0
41
1
10
26.9737781102951
20
4.64273837082339
30
0
41
1
10
27.2737473539714
20
4.55732031148685
30
0
41
1
10
28.173973061491
20
4.29769915278035
30
0
41
1
10
28.7735823223532
20
4.12042552287923
30
0
41
1
10
29.6718775426129
20
3.8474040000572
30
0
41
1
10
29.9710873515947
20
3.75511447498241
30
0
41
1
10
30.5696336669221
20
3.56945224940199
30
0
41
1
10
30.868945412734
20
3.47601934836993
30
0
41
1
10
31.7668425312139
20
3.19353776516712
30
0
41
1
10
32.3654186670982
20
3.00238776891888
30
0
41
1
10
33.2629795045862
20
2.71068747681926
30
0
41
1
10
33.5621147050747
20
2.61262000538491
30
0
41
1
10
34.1602304237627
20
2.41465778185284
30
0
41
1
10
34.459230816613
20
2.31481433004882
30
0
41
1
10
35.3568324620387
20
2.01486184199211
30
0
41
1
10
35.9557706088274
20
1.81361311893795
30
0
41
1
10
36.8546532510646
20
1.5089174681269
30
0
41
1
10
37.1543633998652
20
1.40688965083314
30
0
41
1
10
37.7539016064126
20
1.20175967830494
30
0
41
1
10
38.0537560786294
20
1.09861824342269
30
0
41
1
10
38.5035075997755
20
0.943104566433192
30
0
41
1
10
38.6533755346248
20
0.891174876907712
30
0
41
1
10
38.9530949240536
20
0.787374250565364
30
0
41
1
10
39.1029521143669
20
0.735520176324201
30
0
41
1
10
39.5525008882178
20
0.580049943909245
30
0
41
1
10
39.852161383462
20
0.47650116504758
30
0
41
1
10
40.7509300520001
20
0.16585749451184
30
0
41
1
10
41.3498475327286
20
-0.0411716016465391
30
0
41
1
10
42.2475456730239
20
-0.352445737111367
30
0
41
1
10
42.5466391996128
20
-0.456400977363444
30
0
41
1
10
42.9951643536501
20
-0.612353507888827
30
0
41
1
10
43.1446660751914
20
-0.664304568862093
30
0
41
1
10
43.4437342701812
20
-0.767914623036859
30
0
41
1
10
43.5932940272022
20
-0.819593166121081
30
0
41
1
10
44.3411833179211
20
-1.07746484913048
30
0
41
1
10
44.9397579280845
20
-1.282173617642
30
0
41
1
10
45.8377492927693
20
-1.58762430198374
30
0
41
1
10
46.1371006420608
20
-1.68917393086204
30
0
41
1
10
46.5861224974215
20
-1.84119884496525
30
0
41
1
10
46.7357954360681
20
-1.89182429528947
30
0
41
1
10
47.0351333388107
20
-1.99299225331703
30
0
41
1
10
47.1847990418898
20
-2.04353257609893
30
0
41
1
10
47.6338955086541
20
-2.19471134304561
30
0
41
1
10
47.9334883564485
20
-2.29472951189982
30
0
41
1
10
48.5330606617576
20
-2.49324656076101
30
0
41
1
10
48.8330695426775
20
-2.59181846945117
30
0
41
1
10
49.7332301429235
20
-2.88549501084177
30
0
41
1
10
50.3328352695799
20
-3.07832759311478
30
0
41
1
10
51.2311898041805
20
-3.36392531153339
30
0
41
1
10
51.530414918024
20
-3.45864520070339
30
0
41
1
10
52.1288575412095
20
-3.64593208559629
30
0
41
1
10
52.428132619249
20
-3.7383532362893
30
0
41
1
10
53.3259629472792
20
-4.01240517648591
30
0
41
1
10
53.9245327574782
20
-4.19080749590296
30
0
41
1
10
54.8221505276391
20
-4.45263001185199
30
0
41
1
10
55.121315801136
20
-4.53894115003237
30
0
41
1
10
55.7195130842356
20
-4.70973800956432
30
0
41
1
10
56.0185054136528
20
-4.79431239163682
30
0
41
1
10
56.6168444391151
20
-4.96047176824089
30
0
41
1
10
56.9161750045818
20
-5.04210112825177
30
0
41
1
10
57.5150506832587
20
-5.20273022286506
30
0
41
1
10
57.8146012345464
20
-5.28171692211782
30
0
41
1
10
58.4138894832453
20
-5.43712335944073
30
0
41
1
10
58.7136267680322
20
-5.51354413884962
30
0
41
1
10
59.3132390911743
20
-5.6639117850458
30
0
41
1
10
59.6131674820018
20
-5.73787046945586
30
0
41
1
10
60.2128749613993
20
-5.88332222410494
30
0
41
1
10
60.5125454205033
20
-5.95475540614407
30
0
41
1
10
61.1120536028242
20
-6.09399500577373
30
0
41
1
10
61.4118348890472
20
-6.16192083545607
30
0
41
1
10
62.3111279922813
20
-6.36092397819979
30
0
41
1
10
62.9106181245007
20
-6.48718596791889
30
0
41
1
10
63.8095158018471
20
-6.66743027309886
30
0
41
1
10
64.109083267697
20
-6.72599718402648
30
0
41
1
10
64.5583349141704
20
-6.81154521447525
30
0
41
1
10
64.7080766594406
20
-6.83966441412443
30
0
41
1
10
65.0076251550404
20
-6.89498098214543
30
0
41
1
10
65.1574387459088
20
-6.92216852191464
30
0
41
1
10
65.6069849899367
20
-7.002348080632
30
0
41
1
10
65.9068129688652
20
-7.05397343587063
30
0
41
1
10
66.5066596529537
20
-7.15369407406391
30
0
41
1
10
66.806718252245
20
-7.20178803829845
30
0
41
1
10
67.406837466825
20
-7.29446192720738
30
0
41
1
10
67.7067838863205
20
-7.33902657460541
30
0
41
1
10
68.3064001895046
20
-7.42465188079115
30
0
41
1
10
68.6060456633413
20
-7.46573885313143
30
0
41
1
10
69.0553559051999
20
-7.5246491049819
30
0
41
1
10
69.2051117999794
20
-7.54381889691825
30
0
41
1
10
69.5046760466921
20
-7.58114406283624
30
0
41
1
10
69.6544780726749
20
-7.59930685813154
30
0
41
1
10
70.1039211062691
20
-7.6523304160352
30
0
41
1
10
70.4035936634285
20
-7.6857325798417
30
0
41
1
10
71.3026650645382
20
-7.78021168649826
30
0
41
1
10
71.902131454866
20
-7.83556770579187
30
0
41
1
10
72.6513268403798
20
-7.89531531808075
30
0
41
1
10
72.8011588343049
20
-7.90679112929942
30
0
41
1
10
73.1008023919467
20
-7.92879161904503
30
0
41
1
10
73.250614336302
20
-7.93931534897146
30
0
41
1
10
73.7001306427576
20
-7.96938751850681
30
0
41
1
10
73.9999794004825
20
-7.9874042960468
30
0
41
1
10
74.3
20
-8.00341435188116
30
0
0
SPLINE
5
CD
100
AcDbEntity
8
1
62
256
6
ByLayer
370
18
48
1
60
0
100
AcDbSpline
70
4
71
3
72
84
73
80
40
0
40
0
40
0
40
0
40
0.0103809020607835
40
0.0103809020607835
40
0.0305772101819919
40
0.0305772101819919
40
0.0709698264244095
40
0.0709698264244095
40
0.0911661345456184
40
0.0911661345456184
40
0.111362442666827
40
0.111362442666827
40
0.151755058909246
40
0.151755058909246
40
0.171951367030455
40
0.171951367030455
40
0.182049521091059
40
0.182049521091059
40
0.192147675151664
40
0.192147675151664
40
0.232540291394082
40
0.232540291394082
40
0.25273659951529
40
0.25273659951529
40
0.272932907636499
40
0.272932907636499
40
0.313325523878917
40
0.313325523878917
40
0.353718140121335
40
0.353718140121335
40
0.363816294181939
40
0.363816294181939
40
0.373914448242544
40
0.373914448242544
40
0.384012602303148
40
0.384012602303148
40
0.394110756363752
40
0.394110756363752
40
0.43450337260617
40
0.43450337260617
40
0.454699680727378
40
0.454699680727378
40
0.474895988848587
40
0.474895988848587
40
0.515288605091004
40
0.515288605091004
40
0.535484913212213
40
0.535484913212213
40
0.555681221333421
40
0.555681221333421
40
0.596073837575838
40
0.596073837575838
40
0.616270145697047
40
0.616270145697047
40
0.636466453818255
40
0.636466453818255
40
0.676859070060672
40
0.676859070060672
40
0.717251686303089
40
0.717251686303089
40
0.737447994424297
40
0.737447994424297
40
0.757644302545505
40
0.757644302545505
40
0.798036918787922
40
0.798036918787922
40
0.81823322690913
40
0.81823322690913
40
0.838429535030338
40
0.838429535030338
40
0.878822151272754
40
0.878822151272754
40
0.899018459393962
40
0.899018459393962
40
0.919214767515169
40
0.919214767515169
40
0.959607383757585
40
0.959607383757585
40
1
40
1
40
1
40
1
41
1
10
60.4561426221603
20
-5.93474559231927
30
0
41
1
10
60.2925266634208
20
-5.97344313275474
30
0
41
1
10
60.1289137230601
20
-6.01166833447743
30
0
41
1
10
59.6469684016523
20
-6.12282184127045
30
0
41
1
10
59.3286441380227
20
-6.1944424164729
30
0
41
1
10
58.3737076973397
20
-6.40400553410603
30
0
41
1
10
57.7371310707532
20
-6.53666283195579
30
0
41
1
10
56.7825097933809
20
-6.72526988101555
30
0
41
1
10
56.464374237325
20
-6.78644932299645
30
0
41
1
10
55.8278094994598
20
-6.90471836935077
30
0
41
1
10
55.5093883212448
20
-6.96182796376584
30
0
41
1
10
54.5537623428939
20
-7.12720371498165
30
0
41
1
10
53.9161830956267
20
-7.22951346034174
30
0
41
1
10
52.9592378609634
20
-7.37122310061102
30
0
41
1
10
52.6400928746341
20
-7.41651995103467
30
0
41
1
10
52.1618026914259
20
-7.48136778431629
30
0
41
1
10
52.002417231787
20
-7.50246271509246
30
0
41
1
10
51.6836654089748
20
-7.54353574909459
30
0
41
1
10
51.5243023479911
20
-7.56351823362274
30
0
41
1
10
50.7275621904991
20
-7.66069090829055
30
0
41
1
10
50.090414053889
20
-7.7296865013638
30
0
41
1
10
49.1351974079344
20
-7.820305403345
30
0
41
1
10
48.8168793801702
20
-7.84836436238169
30
0
41
1
10
48.1804430702522
20
-7.90017613511895
30
0
41
1
10
47.8623620326962
20
-7.92394632446153
30
0
41
1
10
46.9079481999753
20
-7.98846520911218
30
0
41
1
10
46.2713620127209
20
-8.02242535736875
30
0
41
1
10
44.9977883523395
20
-8.07254093191827
30
0
41
1
10
44.3608163488652
20
-8.0886980720885
30
0
41
1
10
43.5644414493727
20
-8.09759865585298
30
0
41
1
10
43.4051520276477
20
-8.09881148758757
30
0
41
1
10
43.0864766510705
20
-8.10009766480167
30
0
41
1
10
42.9270870727156
20
-8.10017160015724
30
0
41
1
10
42.6082077363493
20
-8.09918635964038
30
0
41
1
10
42.4487183113377
20
-8.0981271848591
30
0
41
1
10
42.129644419836
20
-8.09487842367886
30
0
41
1
10
41.9700408325204
20
-8.0926883643067
30
0
41
1
10
41.1722918437294
20
-8.07892383566204
30
0
41
1
10
40.5346151300155
20
-8.05892918781041
30
0
41
1
10
39.5790619714389
20
-8.01538324245081
30
0
41
1
10
39.2607387390518
20
-7.99858462331394
30
0
41
1
10
38.6241701910818
20
-7.96054106484314
30
0
41
1
10
38.305869845833
20
-7.93933031806449
30
0
41
1
10
37.3509580526113
20
-7.8691819934281
30
0
41
1
10
36.714334200872
20
-7.8137463061085
30
0
41
1
10
35.7595344029855
20
-7.71747992771233
30
0
41
1
10
35.441295137559
20
-7.68319707303831
30
0
41
1
10
34.8048760719667
20
-7.61019444923139
30
0
41
1
10
34.4866691977095
20
-7.57149346282213
30
0
41
1
10
33.5315009001079
20
-7.44938111480886
30
0
41
1
10
32.8941680376726
20
-7.3598175734237
30
0
41
1
10
31.9374845488239
20
-7.2131122328729
30
0
41
1
10
31.6184726239283
20
-7.16214414293228
30
0
41
1
10
30.9802694308238
20
-7.0560007881684
30
0
41
1
10
30.6613917550022
20
-7.0008283931875
30
0
41
1
10
29.7050809510139
20
-6.82949416538045
30
0
41
1
10
29.0676428212146
20
-6.70803727126398
30
0
41
1
10
27.7930841131523
20
-6.45071238382567
30
0
41
1
10
27.1559781470916
20
-6.31482231910647
30
0
41
1
10
26.20074289352
20
-6.09973969905488
30
0
41
1
10
25.8823977471753
20
-6.02616811062742
30
0
41
1
10
25.2454154032671
20
-5.87609660719477
30
0
41
1
10
24.926817581483
20
-5.79952605720288
30
0
41
1
10
23.9707509942579
20
-5.56515000302866
30
0
41
1
10
23.3329980367264
20
-5.40271719353194
30
0
41
1
10
22.3759803713138
20
-5.14933324459142
30
0
41
1
10
22.0568906898051
20
-5.06318016889207
30
0
41
1
10
21.4191713675285
20
-4.88806150325212
30
0
41
1
10
21.1003754998664
20
-4.79926619516058
30
0
41
1
10
20.1440647667601
20
-4.52947967737799
30
0
41
1
10
19.5066912998535
20
-4.34494612779918
30
0
41
1
10
18.5510293752957
20
-4.06080455574951
30
0
41
1
10
18.2325458493109
20
-3.96485491650787
30
0
41
1
10
17.5957377718627
20
-3.77042097202235
30
0
41
1
10
17.2774337635374
20
-3.6718799572736
30
0
41
1
10
16.3221497582688
20
-3.37401823818252
30
0
41
1
10
15.6849121250578
20
-3.17218696093013
30
0
41
1
10
14.4098891013917
20
-2.76150452991268
30
0
41
1
10
13.7720956542238
20
-2.55267637366123
30
0
41
1
10
13.1341422412816
20
-2.33993285374672
30
0
0
SPLINE
5
CE
100
AcDbEntity
8
1
62
256
6
ByLayer
370
18
48
1
60
0
100
AcDbSpline
70
4
71
3
72
103
73
99
40
0
40
0
40
0
40
0
40
0.062500000000008
40
0.062500000000008
40
0.093750000000012
40
0.093750000000012
40
0.125000000000016
40
0.125000000000016
40
0.15625000000002
40
0.15625000000002
40
0.187500000000024
40
0.187500000000024
40
0.203125000000027
40
0.203125000000027
40
0.210937500000028
40
0.210937500000028
40
0.218750000000029
40
0.218750000000029
40
0.250000000000033
40
0.250000000000033
40
0.281250000000037
40
0.281250000000037
40
0.296875000000039
40
0.296875000000039
40
0.304687500000041
40
0.304687500000041
40
0.312500000000042
40
0.312500000000042
40
0.343750000000047
40
0.343750000000047
40
0.375000000000052
40
0.375000000000052
40
0.378906250000053
40
0.378906250000053
40
0.382812500000053
40
0.382812500000053
40
0.390625000000053
40
0.390625000000053
40
0.406250000000054
40
0.406250000000054
40
0.421875000000054
40
0.421875000000054
40
0.437500000000055
40
0.437500000000055
40
0.445312500000055
40
0.445312500000055
40
0.453125000000055
40
0.453125000000055
40
0.468750000000055
40
0.484375000000055
40
0.484375000000055
40
0.492187500000055
40
0.492187500000055
40
0.496093750000055
40
0.496093750000055
40
0.500000000000055
40
0.500000000000055
40
0.531250000000054
40
0.531250000000054
40
0.539062500000054
40
0.539062500000054
40
0.546875000000053
40
0.546875000000053
40
0.562500000000052
40
0.562500000000052
40
0.593750000000049
40
0.593750000000049
40
0.601562500000048
40
0.601562500000048
40
0.609375000000047
40
0.609375000000047
40
0.625000000000045
40
0.625000000000045
40
0.656250000000042
40
0.656250000000042
40
0.687500000000038
40
0.687500000000038
40
0.703125000000036
40
0.703125000000036
40
0.718750000000035
40
0.718750000000035
40
0.750000000000031
40
0.750000000000031
40
0.781250000000027
40
0.781250000000027
40
0.812500000000023
40
0.812500000000023
40
0.843750000000019
40
0.843750000000019
40
0.875000000000015
40
0.875000000000015
40
0.906250000000012
40
0.906250000000012
40
0.937500000000008
40
0.937500000000008
40
0.968750000000004
40
0.968750000000004
40
1
40
1
40
1
40
1
41
1
10
10
20
7.4588493434805
30
0
41
1
10
9.59931714329556
20
7.5078681693993
30
0
41
1
10
9.20404874134863
20
7.54841457833442
30
0
41
1
10
8.61942778391926
20
7.59389765891859
30
0
41
1
10
8.42593536035184
20
7.60648854180167
30
0
41
1
10
8.04176047349759
20
7.62588557524069
30
0
41
1
10
7.85107767989729
20
7.63269340844624
30
0
41
1
10
7.47259339819209
20
7.63969695891916
30
0
41
1
10
7.2847914270406
20
7.63989539533122
30
0
41
1
10
6.91217635336849
20
7.63260360109544
30
0
41
1
10
6.72736247998739
20
7.62511794748943
30
0
41
1
10
6.45250479195371
20
7.60704946958023
30
0
41
1
10
6.36127990979287
20
7.59988346555369
30
0
41
1
10
6.22505502137403
20
7.58724909666881
30
0
41
1
10
6.17974758778396
20
7.58272215062848
30
0
41
1
10
6.08968100284841
20
7.57304686671901
30
0
41
1
10
6.04487948369294
20
7.5678948122372
30
0
41
1
10
5.82204558217049
20
7.54050657089738
30
0
41
1
10
5.64752480247762
20
7.51340691087381
30
0
41
1
10
5.30649538547243
20
7.44709811656725
30
0
41
1
10
5.13998186041192
20
7.40790001747558
30
0
41
1
10
4.89684017714143
20
7.33822166424099
30
0
41
1
10
4.81690057057099
20
7.31317575901969
30
0
41
1
10
4.69876481230443
20
7.27257561242433
30
0
41
1
10
4.65963432558129
20
7.25851800949423
30
0
41
1
10
4.58225496455327
20
7.22943441925568
30
0
41
1
10
4.54401739854958
20
7.2144145883525
30
0
41
1
10
4.35513743566418
20
7.13683423084944
30
0
41
1
10
4.21138283124631
20
7.06687573938666
30
0
41
1
10
3.94030063158078
20
6.90818504610499
30
0
41
1
10
3.81294687732128
20
6.81948785354237
30
0
41
1
10
3.6805869317528
20
6.70655833969963
30
0
41
1
10
3.66603303244753
20
6.69382648743203
30
0
41
1
10
3.63723893771248
20
6.66798244225768
30
0
41
1
10
3.62298414757152
20
6.65485627437354
30
0
41
1
10
3.58082448752873
20
6.61500321854231
30
0
41
1
10
3.55354036975592
20
6.5878208000068
30
0
41
1
10
3.47420871013679
20
6.50437110877587
30
0
41
1
10
3.42467767947281
20
6.44620450196021
30
0
41
1
10
3.33270597379539
20
6.32441132540834
30
0
41
1
10
3.29026387525846
20
6.26078591016909
30
0
41
1
10
3.21299535078171
20
6.12757103661207
30
0
41
1
10
3.17816668817173
20
6.05798336398718
30
0
41
1
10
3.13218225129611
20
5.94863407210926
30
0
41
1
10
3.1180140759372
20
5.9116209846438
30
0
41
1
10
3.09207979231218
20
5.83666455322356
30
0
41
1
10
3.08029983142302
20
5.79868844792887
30
0
41
1
10
3.04853067378261
20
5.68325340035949
30
0
41
1
10
3.01568379435864
20
5.52532520389593
30
0
41
1
10
3.00219104534085
20
5.35915599936089
30
0
41
1
10
2.99957695147157
20
5.23131961822614
30
0
41
1
10
2.99995791936044
20
5.18817210507089
30
0
41
1
10
3.00245198851366
20
5.12262848596322
30
0
41
1
10
3.00360676876738
20
5.1006056861797
30
0
41
1
10
3.00654920545617
20
5.05651100182612
30
0
41
1
10
3.00833545555378
20
5.03443853623807
30
0
41
1
10
3.02720093503285
20
4.8355642872103
30
0
41
1
10
3.06368966307662
20
4.65721060796361
30
0
41
1
10
3.13174484350927
20
4.43256220773361
30
0
41
1
10
3.14648438518262
20
4.38754707802366
30
0
41
1
10
3.1781881835702
20
4.29735205765459
30
0
41
1
10
3.19520129816499
20
4.25205657706567
30
0
41
1
10
3.24904119266645
20
4.11714196607554
30
0
41
1
10
3.28869998271605
20
4.02831213241367
30
0
41
1
10
3.41784713577152
20
3.76486412941492
30
0
41
1
10
3.5174529398669
20
3.5932724195726
30
0
41
1
10
3.65627420558104
20
3.3831797509068
30
0
41
1
10
3.68475866958437
20
3.34138234349072
30
0
41
1
10
3.74311953201479
20
3.25821787181621
30
0
41
1
10
3.77305135013614
20
3.21677771290777
30
0
41
1
10
3.8643484607648
20
3.09377869070204
30
0
41
1
10
3.927233039942
20
3.01348676746116
30
0
41
1
10
4.12127564079094
20
2.77717704749622
30
0
41
1
10
4.25779469801148
20
2.62570242168673
30
0
41
1
10
4.54253927717144
20
2.33271724260322
30
0
41
1
10
4.69078023327242
20
2.19121957632757
30
0
41
1
10
4.92054705392724
20
1.98529853048129
30
0
41
1
10
4.99837457578838
20
1.91771596747302
30
0
41
1
10
5.15631538799147
20
1.78450554398631
30
0
41
1
10
5.23596956183599
20
1.71926369370883
30
0
41
1
10
5.47674423939336
20
1.52721846075193
30
0
41
1
10
5.63968261678357
20
1.40406991281765
30
0
41
1
10
5.96949195258776
20
1.16568968009597
30
0
41
1
10
6.13636565653667
20
1.05046397469468
30
0
41
1
10
6.47333016183163
20
0.826512416429097
30
0
41
1
10
6.64342224337668
20
0.717789509983731
30
0
41
1
10
6.98623676614739
20
0.50570774294826
30
0
41
1
10
7.15895966836973
20
0.402350176649406
30
0
41
1
10
7.50655385276357
20
0.200085426350455
30
0
41
1
10
7.68142510853107
20
0.10117858718661
30
0
41
1
10
8.03293340818601
20
-0.0928983986556773
30
0
41
1
10
8.20957015265549
20
-0.188068713462258
30
0
41
1
10
8.56433190065547
20
-0.37518743743675
30
0
41
1
10
8.74245650492685
20
-0.467136198341478
30
0
41
1
10
9.10003264651232
20
-0.648118667751874
30
0
41
1
10
9.2795376139884
20
-0.737177328206428
30
0
41
1
10
9.63916733026861
20
-0.912146353630504
30
0
41
1
10
9.81936809226801
20
-0.99809602911148
30
0
41
1
10
10
20
-1.08245727160173
30
0
0
SPLINE
5
CF
100
AcDbEntity
8
1
62
256
6
ByLayer
370
18
48
1
60
0
100
AcDbSpline
70
4
71
3
72
14
73
10
40
0
40
0
40
0
40
0
40
0.25
40
0.25
40
0.5
40
0.5
40
0.75
40
0.75
40
1
40
1
40
1
40
1
41
1
10
13.1341422412815
20
-2.33993285374666
30
0
41
1
10
12.8680200961449
20
-2.24851861635193
30
0
41
1
10
12.6034850589383
20
-2.1530310949118
30
0
41
1
10
12.0769282649603
20
-1.95530504427831
30
0
41
1
10
11.8149040385539
20
-1.85307294066504
30
0
41
1
10
11.2929305419003
20
-1.64276122203157
30
0
41
1
10
11.0329798326452
20
-1.53468598841931
30
0
41
1
10
10.5150043982488
20
-1.31291748443732
30
0
41
1
10
10.2569794948701
20
-1.1992258481061
30
0
41
1
10
10
20
-1.08245727160173
30
0
0
SPLINE
5
D0
100
AcDbEntity
8
1
62
256
6
ByLayer
370
18
48
1
60
0
100
AcDbSpline
70
4
71
4
72
16
73
11
40
0
40
0
40
0
40
0
40
0
40
0.289692218032896
40
0.289692218032896
40
0.289692218032896
40
0.718261057759236
40
0.718261057759236
40
0.718261057759236
40
1
40
1
40
1
40
1
40
1
41
0.996555275575431
10
16.7941660956093
20
7.01112979009954
30
0
41
0.99468484496594
10
16.6793718020618
20
6.36390246333365
30
0
41
0.994532533510353
10
16.4837260566602
20
5.53333150745599
30
0
41
1
10
16.2168504265507
20
4.59366956028907
30
0
41
1
10
15.5135972198396
20
2.36031549161373
30
0
41
0.988033871712585
10
14.9641541684454
20
0.818391590877448
30
0
41
1
10
14.4147111170512
20
-0.447248938185169
30
0
41
1
10
13.7192450048016
20
-1.79234317730234
30
0
41
0.994828622619563
10
13.4593248830997
20
-2.20793496435842
30
0
41
0.994684778218265
10
13.265213565825
20
-2.3860699363343
30
0
41
0.996357955142872
10
13.1470916827798
20
-2.34554213425058
30
0
0
SPLINE
5
D1
100
AcDbEntity
8
1
62
256
6
ByLayer
370
18
48
1
60
0
100
AcDbSpline
70
4
71
3
72
25
73
21
40
0
40
0
40
0
40
0
40
0.125000000000002
40
0.125000000000002
40
0.250000000000004
40
0.250000000000004
40
0.375000000000006
40
0.375000000000006
40
0.500000000000009
40
0.500000000000009
40
0.56250000000001
40
0.56250000000001
40
0.59375000000001
40
0.59375000000001
40
0.625000000000011
40
0.750000000000007
40
0.750000000000007
40
0.875000000000004
40
0.875000000000004
40
1
40
1
40
1
40
1
41
1
10
10
20
7.4588493434805
30
0
41
1
10
10.2890881686817
20
7.47255818701828
30
0
41
1
10
10.5775951394623
20
7.48141866711006
30
0
41
1
10
11.1535418201268
20
7.49074800007307
30
0
41
1
10
11.4409809993853
20
7.49120808209491
30
0
41
1
10
12.0148659893872
20
7.484339791536
30
0
41
1
10
12.3013114028763
20
7.47700496212471
30
0
41
1
10
12.8732765770293
20
7.45469417664049
30
0
41
1
10
13.1587960234129
20
7.4397124615119
30
0
41
1
10
13.5864350199704
20
7.41141123584114
30
0
41
1
10
13.728874720302
20
7.40100441236356
30
0
41
1
10
13.9423819350981
20
7.38391395413078
30
0
41
1
10
14.0135496564947
20
7.37796806720311
30
0
41
1
10
14.1555400055129
20
7.36560582726207
30
0
41
1
10
14.5098203367023
20
7.33351201833278
30
0
41
1
10
14.8607485130226
20
7.29547680091397
30
0
41
1
10
15.4186064775848
20
7.22705461812043
30
0
41
1
10
15.6957228044043
20
7.18905893440336
30
0
41
1
10
16.2470000020935
20
7.1056227253469
30
0
41
1
10
16.5211628460937
20
7.06018380308598
30
0
41
1
10
16.7941660956093
20
7.01112979009957
30
0
0
SPLINE
5
D2
100
AcDbEntity
8
SK1
62
256
6
ByLayer
370
18
48
1
60
0
100
AcDbSpline
70
4
71
3
72
32
73
28
40
0
40
0
40
0
40
0
40
0.124999999999998
40
0.124999999999998
40
0.249999999999995
40
0.249999999999995
40
0.374999999999994
40
0.374999999999994
40
0.437499999999993
40
0.437499999999993
40
0.499999999999992
40
0.499999999999992
40
0.624999999999988
40
0.624999999999988
40
0.656249999999988
40
0.656249999999988
40
0.687499999999988
40
0.687499999999988
40
0.74999999999999
40
0.74999999999999
40
0.874999999999995
40
0.874999999999995
40
0.906249999999996
40
0.906249999999996
40
0.937499999999998
40
0.937499999999998
40
1
40
1
40
1
40
1
41
1
10
-43.3565069115799
20
-3.65034953143106
30
0
41
1
10
-43.3331458400142
20
-3.71424193668162
30
0
41
1
10
-43.3079887114829
20
-3.77702079626832
30
0
41
1
10
-43.2534212788423
20
-3.90009490817781
30
0
41
1
10
-43.2240149751524
20
-3.96039186522651
30
0
41
1
10
-43.1600568886594
20
-4.07814914960466
30
0
41
1
10
-43.1255132756746
20
-4.13561297938583
30
0
41
1
10
-43.0688646453433
20
-4.21928792338744
30
0
41
1
10
-43.0491724017425
20
-4.24675781820287
30
0
41
1
10
-43.0079384175976
20
-4.30075945417201
30
0
41
1
10
-42.9863407519915
20
-4.32734895814056
30
0
41
1
10
-42.9191284528727
20
-4.40464696643178
30
0
41
1
10
-42.8709653357112
20
-4.45314968312832
30
0
41
1
10
-42.8054200814028
20
-4.509129269905
30
0
41
1
10
-42.7920414880158
20
-4.52009075475445
30
0
41
1
10
-42.7647046009874
20
-4.54151368998052
30
0
41
1
10
-42.7507137384423
20
-4.55199803198428
30
0
41
1
10
-42.7080552923505
20
-4.58246627252342
30
0
41
1
10
-42.6787844981831
20
-4.60141919352105
30
0
41
1
10
-42.588250922941
20
-4.65388326760876
30
0
41
1
10
-42.5243097226538
20
-4.68306815187688
30
0
41
1
10
-42.4386823815538
20
-4.71050598268181
30
0
41
1
10
-42.4212064346087
20
-4.71554997578619
30
0
41
1
10
-42.3860524535981
20
-4.72455026306568
30
0
41
1
10
-42.3683576016114
20
-4.72851630488563
30
0
41
1
10
-42.3149119913326
20
-4.73878190613445
30
0
41
1
10
-42.2788010667419
20
-4.74345326345804
30
0
41
1
10
-42.2421801837133
20
-4.74582511601491
30
0
0
SPLINE
5
D3
100
AcDbEntity
8
SK1
62
256
6
ByLayer
370
18
48
1
60
0
100
AcDbSpline
70
4
71
3
72
32
73
28
40
0
40
0
40
0
40
0
40
0.125000000000003
40
0.125000000000003
40
0.156250000000003
40
0.156250000000003
40
0.187500000000004
40
0.187500000000004
40
0.250000000000005
40
0.250000000000005
40
0.312500000000005
40
0.312500000000005
40
0.343750000000005
40
0.343750000000005
40
0.375000000000006
40
0.375000000000006
40
0.500000000000003
40
0.500000000000003
40
0.625
40
0.625
40
0.6875
40
0.6875
40
0.749999999999999
40
0.749999999999999
40
0.875
40
0.875
40
1
40
1
40
1
40
1
41
1
10
-42.2421801837133
20
4.74582511601491
30
0
41
1
10
-42.3153322469605
20
4.74108722075121
30
0
41
1
10
-42.3858382182456
20
4.7272872503076
30
0
41
1
10
-42.4711061087408
20
4.70015187597528
30
0
41
1
10
-42.48801508965
20
4.69422552159887
30
0
41
1
10
-42.5215500807622
20
4.68139247012627
30
0
41
1
10
-42.538108088977
20
4.67450874413797
30
0
41
1
10
-42.5867495214036
20
4.65272655031879
30
0
41
1
10
-42.6179919315484
20
4.63663028483114
30
0
41
1
10
-42.6784054316375
20
4.60165673094545
30
0
41
1
10
-42.707575323895
20
4.58277786641952
30
0
41
1
10
-42.7499378830322
20
4.55256723042981
30
0
41
1
10
-42.7638261651475
20
4.54218093900309
30
0
41
1
10
-42.7911594285605
20
4.52080182261719
30
0
41
1
10
-42.8046315534326
20
4.50978473494575
30
0
41
1
10
-42.8704332773146
20
4.45367358335039
30
0
41
1
10
-42.9183823606968
20
4.40538606397868
30
0
41
1
10
-43.007200043589
20
4.30347549467811
30
0
41
1
10
-43.0480454261384
20
4.2498368571521
30
0
41
1
10
-43.1050091824334
20
4.16599396786131
30
0
41
1
10
-43.1233071500575
20
4.13742383693679
30
0
41
1
10
-43.1584042823023
20
4.07953032751405
30
0
41
1
10
-43.1751994309136
20
4.05022195040382
30
0
41
1
10
-43.2235710813646
20
3.96130068776944
30
0
41
1
10
-43.2531438067293
20
3.90069540381026
30
0
41
1
10
-43.3079263511211
20
3.77718661911314
30
0
41
1
10
-43.3331314373585
20
3.7142813278675
30
0
41
1
10
-43.3565069115799
20
3.65034953143106
30
0
0
SPLINE
5
D4
100
AcDbEntity
8
SK1
62
256
6
ByLayer
370
18
48
1
60
0
100
AcDbSpline
70
4
71
3
72
30
73
26
40
0
40
0
40
0
40
0
40
0.124999999999979
40
0.124999999999979
40
0.249999999999958
40
0.249999999999958
40
0.374999999999936
40
0.374999999999936
40
0.437499999999926
40
0.437499999999926
40
0.499999999999916
40
0.499999999999916
40
0.624999999999908
40
0.624999999999908
40
0.656249999999909
40
0.656249999999909
40
0.68749999999991
40
0.68749999999991
40
0.749999999999925
40
0.749999999999925
40
0.874999999999955
40
0.874999999999955
40
0.937499999999978
40
0.937499999999978
40
1
40
1
40
1
40
1
41
1
10
-13.8451406288876
20
5.60819856978108
30
0
41
1
10
-13.8759395902576
20
5.65059861248182
30
0
41
1
10
-13.9086043985849
20
5.69152013904011
30
0
41
1
10
-13.97811386775
20
5.77019024979575
30
0
41
1
10
-14.014955839279
20
5.80794050815649
30
0
41
1
10
-14.0934302354091
20
5.87995203844818
30
0
41
1
10
-14.1350574932389
20
5.91421654427231
30
0
41
1
10
-14.2017568377706
20
5.9626308553903
30
0
41
1
10
-14.2245427507748
20
5.97815093867467
30
0
41
1
10
-14.271111369383
20
6.00780504420359
30
0
41
1
10
-14.2949186549204
20
6.02195716348245
30
0
41
1
10
-14.3679929543377
20
6.06230994483028
30
0
41
1
10
-14.4189025587777
20
6.08641928516369
30
0
41
1
10
-14.4856782999412
20
6.11265441828212
30
0
41
1
10
-14.4991911565357
20
6.11770540783806
30
0
41
1
10
-14.5265457311327
20
6.12740066932034
30
0
41
1
10
-14.5403907312758
20
6.13204445753533
30
0
41
1
10
-14.5820565255816
20
6.14522762072318
30
0
41
1
10
-14.6101298025697
20
6.1530644585383
30
0
41
1
10
-14.6952537679042
20
6.17368858860661
30
0
41
1
10
-14.7532042147282
20
6.18360487337517
30
0
41
1
10
-14.8420639597241
20
6.19236276786617
30
0
41
1
10
-14.8721089186227
20
6.1942576600421
30
0
41
1
10
-14.9321260265236
20
6.19588455534111
30
0
41
1
10
-14.9621459212296
20
6.19562887243728
30
0
41
1
10
-14.9921771997116
20
6.19429975368809
30
0
0
SPLINE
5
D5
100
AcDbEntity
8
SK1
62
256
6
ByLayer
370
18
48
1
60
0
100
AcDbSpline
70
4
71
3
72
29
73
25
40
0
40
0
40
0
40
0
40
0.125000000000045
40
0.125000000000045
40
0.25000000000009
40
0.25000000000009
40
0.281250000000093
40
0.281250000000093
40
0.312500000000097
40
0.375000000000092
40
0.375000000000092
40
0.500000000000084
40
0.500000000000084
40
0.562500000000073
40
0.562500000000073
40
0.625000000000062
40
0.625000000000062
40
0.750000000000038
40
0.750000000000038
40
0.875000000000015
40
0.875000000000015
40
0.937500000000008
40
0.937500000000008
40
1
40
1
40
1
40
1
41
1
10
-14.9921771997116
20
-6.19429975368809
30
0
41
1
10
-14.9320573843484
20
-6.19696052531805
30
0
41
1
10
-14.8726744232101
20
-6.19530622075879
30
0
41
1
10
-14.7552923361598
20
-6.18388224594813
30
0
41
1
10
-14.6972937188803
20
-6.17410945589265
30
0
41
1
10
-14.6256493001772
20
-6.15684175670819
30
0
41
1
10
-14.6113371248737
20
-6.15312631775188
30
0
41
1
10
-14.5830607924918
20
-6.14526136952958
30
0
41
1
10
-14.5410867139313
20
-6.13279564418732
30
0
41
1
10
-14.500383626949
20
-6.118393573753
30
0
41
1
10
-14.4205661285236
20
-6.08714648466275
30
0
41
1
10
-14.3694669105832
20
-6.06306708368854
30
0
41
1
10
-14.2956992221607
20
-6.02241573888855
30
0
41
1
10
-14.2715415923124
20
-6.00806907471573
30
0
41
1
10
-14.2247924605031
20
-5.97831973436635
30
0
41
1
10
-14.2021202056678
20
-5.96287721339851
30
0
41
1
10
-14.1360355381032
20
-5.91496059376203
30
0
41
1
10
-14.0945476428777
20
-5.88090305019935
30
0
41
1
10
-14.0160214797599
20
-5.80899071657845
30
0
41
1
10
-13.9789867514485
20
-5.77113330484545
30
0
41
1
10
-13.9264169069796
20
-5.7117020344985
30
0
41
1
10
-13.9093970751005
20
-5.69145219620981
30
0
41
1
10
-13.8764815896183
20
-5.65032851626569
30
0
41
1
10
-13.8605603440826
20
-5.62942644739971
30
0
41
1
10
-13.845140628887
20
-5.60819856978154
30
0
0
SPLINE
5
D6
100
AcDbEntity
8
1
62
256
6
ByLayer
370
13
48
1
60
0
100
AcDbSpline
70
4
71
3
72
85
73
81
40
0
40
0
40
0
40
0
40
0.0312500000000004
40
0.0312500000000004
40
0.0625000000000008
40
0.0625000000000008
40
0.0937500000000013
40
0.0937500000000013
40
0.125000000000002
40
0.125000000000002
40
0.156250000000002
40
0.156250000000002
40
0.187500000000002
40
0.187500000000002
40
0.218750000000003
40
0.218750000000003
40
0.250000000000003
40
0.250000000000003
40
0.265625000000003
40
0.265625000000003
40
0.273437500000003
40
0.277343750000004
40
0.277343750000004
40
0.281250000000004
40
0.281250000000004
40
0.312500000000004
40
0.312500000000004
40
0.343750000000004
40
0.343750000000004
40
0.375000000000004
40
0.375000000000004
40
0.406250000000004
40
0.406250000000004
40
0.437500000000004
40
0.437500000000004
40
0.468750000000004
40
0.468750000000004
40
0.500000000000004
40
0.500000000000004
40
0.531250000000005
40
0.531250000000005
40
0.546875000000005
40
0.546875000000005
40
0.554687500000005
40
0.558593750000005
40
0.558593750000005
40
0.562500000000005
40
0.562500000000005
40
0.593750000000005
40
0.593750000000005
40
0.625000000000004
40
0.625000000000004
40
0.656250000000004
40
0.656250000000004
40
0.687500000000004
40
0.687500000000004
40
0.718750000000004
40
0.718750000000004
40
0.750000000000003
40
0.750000000000003
40
0.781250000000003
40
0.781250000000003
40
0.812500000000002
40
0.812500000000002
40
0.828125000000002
40
0.828125000000002
40
0.835937500000002
40
0.839843750000002
40
0.839843750000002
40
0.843750000000002
40
0.843750000000002
40
0.875000000000002
40
0.875000000000002
40
0.906250000000001
40
0.906250000000001
40
0.937500000000001
40
0.937500000000001
40
0.96875
40
0.96875
40
1
40
1
40
1
40
1
41
1
10
75.293208149953
20
8.5
30
0
41
1
10
75.3777190338986
20
8.5
30
0
41
1
10
75.4622299178442
20
8.46470504319254
30
0
41
1
10
75.6312516857356
20
8.31147781868023
30
0
41
1
10
75.7157625696813
20
8.19344767795275
30
0
41
1
10
75.8847843375727
20
7.86800287292306
30
0
41
1
10
75.9692952215183
20
7.66051998139767
30
0
41
1
10
76.1383169894096
20
7.15754263463617
30
0
41
1
10
76.2228278733554
20
6.86204400530167
30
0
41
1
10
76.3918496412467
20
6.19373661962396
30
0
41
1
10
76.4763605251923
20
5.82100092438267
30
0
41
1
10
76.6453822930837
20
5.01723613173937
30
0
41
1
10
76.7298931770293
20
4.58633657252503
30
0
41
1
10
76.8989149449206
20
3.6904242183397
30
0
41
1
10
76.9834258288663
20
3.22555204908733
30
0
41
1
10
77.1524475967577
20
2.28679812663879
30
0
41
1
10
77.2369584807033
20
1.81302364244797
30
0
41
1
10
77.3637248066217
20
1.1122178547507
30
0
41
1
10
77.4059802485947
20
0.880225340244635
30
0
41
1
10
77.4693634115539
20
0.536349783542988
30
0
41
1
10
77.5010549930336
20
0.365436133769691
30
0
41
1
10
77.5327465745132
20
0.196338246963393
30
0
41
1
10
77.5538742954996
20
0.0840381120667928
30
0
41
1
10
77.5644381559928
20
0.0282170359006386
30
0
41
1
10
77.6595129004318
20
-0.474473418469444
30
0
41
1
10
77.7440237843774
20
-0.935971215900366
30
0
41
1
10
77.9130455522687
20
-1.87139833570615
30
0
41
1
10
77.9975564362143
20
-2.34527347602989
30
0
41
1
10
78.1665782041058
20
-3.28323254191392
30
0
41
1
10
78.2510890880513
20
-3.74720719310375
30
0
41
1
10
78.4201108559428
20
-4.64027974138412
30
0
41
1
10
78.5046217398884
20
-5.06923649259542
30
0
41
1
10
78.6736435077797
20
-5.86819856851298
30
0
41
1
10
78.7581543917253
20
-6.23807588067152
30
0
41
1
10
78.9271761596168
20
-6.90003944942922
30
0
41
1
10
79.0116870435625
20
-7.19205565608542
30
0
41
1
10
79.1807088114539
20
-7.68782221328522
30
0
41
1
10
79.2652196953994
20
-7.89157985493321
30
0
41
1
10
79.4342414632907
20
-8.20970279354074
30
0
41
1
10
79.5187523472365
20
-8.32413829077259
30
0
41
1
10
79.645518673155
20
-8.43397882366205
30
0
41
1
10
79.6877741151278
20
-8.460345925372
30
0
41
1
10
79.751157278087
20
-8.48557710341757
30
0
41
1
10
79.7828488595667
20
-8.49461633069632
30
0
41
1
10
79.8145404410463
20
-8.49851511425021
30
0
41
1
10
79.8356681620326
20
-8.49999840040874
30
0
41
1
10
79.8462320225259
20
-8.50018398301478
30
0
41
1
10
79.9413067669648
20
-8.49690844324459
30
0
41
1
10
80.0258176509105
20
-8.45841409425469
30
0
41
1
10
80.1948394188018
20
-8.29838052115164
30
0
41
1
10
80.2793503027475
20
-8.17674390420748
30
0
41
1
10
80.4483720706388
20
-7.84396759954583
30
0
41
1
10
80.5328829545845
20
-7.63276171961516
30
0
41
1
10
80.7019047224758
20
-7.12259432129855
30
0
41
1
10
80.7864156064215
20
-6.82363177038494
30
0
41
1
10
80.9554373743129
20
-6.14903205069643
30
0
41
1
10
81.0399482582585
20
-5.77347091739799
30
0
41
1
10
81.2089700261499
20
-4.96497825151457
30
0
41
1
10
81.2934809100956
20
-4.53217770138482
30
0
41
1
10
81.4625026779869
20
-3.63351068750933
30
0
41
1
10
81.5470135619325
20
-3.16778425032371
30
0
41
1
10
81.7160353298239
20
-2.22831672473225
30
0
41
1
10
81.8005462137695
20
-1.75468086196776
30
0
41
1
10
81.9273125396882
20
-1.05468948985171
30
0
41
1
10
81.9695679816609
20
-0.823068701817704
30
0
41
1
10
82.0329511446201
20
-0.479878881474264
30
0
41
1
10
82.0646427260997
20
-0.309340101477346
30
0
41
1
10
82.0963343075795
20
-0.140660700462973
30
0
41
1
10
82.1174620285658
20
-0.0286487539640632
30
0
41
1
10
82.128025889059
20
0.0270207472969446
30
0
41
1
10
82.2231006334979
20
0.531035924958672
30
0
41
1
10
82.3076115174435
20
0.993421142608355
30
0
41
1
10
82.4766332853349
20
1.92980042613084
30
0
41
1
10
82.5611441692806
20
2.40373793609413
30
0
41
1
10
82.7301659371719
20
3.34082048204405
30
0
41
1
10
82.8146768211176
20
3.80385427833099
30
0
41
1
10
82.9836985890089
20
4.69400200966885
30
0
41
1
10
83.0682094729546
20
5.12097435872712
30
0
41
1
10
83.237231240846
20
5.91505960562031
30
0
41
1
10
83.3217421247917
20
6.2820460969188
30
0
41
1
10
83.4062530087373
20
6.60983081813302
30
0
0
SPLINE
5
D7
100
AcDbEntity
8
1
62
256
6
ByLayer
370
13
48
1
60
0
100
AcDbSpline
70
4
71
3
72
86
73
82
40
0
40
0
40
0
40
0
40
0.0312500000000005
40
0.0312500000000005
40
0.062500000000001
40
0.062500000000001
40
0.0937500000000015
40
0.0937500000000015
40
0.125000000000002
40
0.125000000000002
40
0.156250000000002
40
0.156250000000002
40
0.187500000000003
40
0.187500000000003
40
0.218750000000003
40
0.218750000000003
40
0.250000000000004
40
0.250000000000004
40
0.257812500000004
40
0.257812500000004
40
0.261718750000004
40
0.261718750000004
40
0.265625000000004
40
0.265625000000004
40
0.281250000000003
40
0.281250000000003
40
0.312500000000002
40
0.312500000000002
40
0.343750000000002
40
0.343750000000002
40
0.375000000000001
40
0.375000000000001
40
0.40625
40
0.40625
40
0.437499999999999
40
0.437499999999999
40
0.468749999999998
40
0.468749999999998
40
0.499999999999998
40
0.499999999999998
40
0.515624999999997
40
0.515624999999997
40
0.523437499999997
40
0.523437499999997
40
0.527343749999997
40
0.527343749999997
40
0.531249999999997
40
0.531249999999997
40
0.562499999999997
40
0.562499999999997
40
0.593749999999997
40
0.593749999999997
40
0.624999999999997
40
0.624999999999997
40
0.656249999999998
40
0.656249999999998
40
0.687499999999998
40
0.687499999999998
40
0.718749999999998
40
0.718749999999998
40
0.749999999999998
40
0.749999999999998
40
0.781249999999999
40
0.781249999999999
40
0.789062499999998
40
0.789062499999998
40
0.796874999999998
40
0.796874999999998
40
0.812499999999998
40
0.812499999999998
40
0.843749999999999
40
0.843749999999999
40
0.874999999999999
40
0.874999999999999
40
0.906249999999999
40
0.906249999999999
40
0.9375
40
0.9375
40
0.96875
40
0.96875
40
1
40
1
40
1
40
1
41
1
10
74.7966043026328
20
8.5
30
0
41
1
10
74.8862881433214
20
8.5
30
0
41
1
10
74.97597198401
20
8.46022610421488
30
0
41
1
10
75.1553396653871
20
8.28689235884221
30
0
41
1
10
75.2450235060758
20
8.15320206380639
30
0
41
1
10
75.4243911874529
20
7.78472800148233
30
0
41
1
10
75.5140750281416
20
7.5498610570047
30
0
41
1
10
75.6934427095186
20
6.98232739612226
30
0
41
1
10
75.7831265502073
20
6.64967415666405
30
0
41
1
10
75.9624942315844
20
5.90167695439746
30
0
41
1
10
76.052178072273
20
5.48645399951212
30
0
41
1
10
76.2315457536502
20
4.59821383754601
30
0
41
1
10
76.3212295943388
20
4.12538230421802
30
0
41
1
10
76.5005972757161
20
3.15179672361046
30
0
41
1
10
76.5902811164046
20
2.65122090058631
30
0
41
1
10
76.7696487977818
20
1.65125136528968
30
0
41
1
10
76.8593326384703
20
1.15197140366522
30
0
41
1
10
76.9714374393311
20
0.543466769180384
30
0
41
1
10
76.9938583995032
20
0.422528813243247
30
0
41
1
10
77.0274898397615
20
0.242489449258528
30
0
41
1
10
77.0387003198475
20
0.182704022893205
30
0
41
1
10
77.0611212800196
20
0.0636229242602155
30
0
41
1
10
77.0723317601057
20
0.0044970393845745
30
0
41
1
10
77.1283841605361
20
-0.292255872260142
30
0
41
1
10
77.1732260808803
20
-0.533696323275194
30
0
41
1
10
77.3077518419133
20
-1.26663159712498
30
0
41
1
10
77.3974356826019
20
-1.76694278866847
30
0
41
1
10
77.5768033639791
20
-2.76688696438484
30
0
41
1
10
77.6664872046676
20
-3.26640010063318
30
0
41
1
10
77.8458548860448
20
-4.23551913873294
30
0
41
1
10
77.9355387267335
20
-4.70494377424737
30
0
41
1
10
78.1149064081106
20
-5.58419497818971
30
0
41
1
10
78.2045902487992
20
-5.99383839515369
30
0
41
1
10
78.3839579301763
20
-6.72910187717366
30
0
41
1
10
78.4736417708649
20
-7.05460833718604
30
0
41
1
10
78.6530094522421
20
-7.60715361576751
30
0
41
1
10
78.7426932929307
20
-7.83418747819954
30
0
41
1
10
78.9220609743079
20
-8.18720456392191
30
0
41
1
10
79.0117448149965
20
-8.31327662875964
30
0
41
1
10
79.1462705760294
20
-8.43253269424119
30
0
41
1
10
79.1911124963736
20
-8.4607149010684
30
0
41
1
10
79.2583753768901
20
-8.48688546994339
30
0
41
1
10
79.2807963370623
20
-8.49292818332023
30
0
41
1
10
79.3144277773205
20
-8.49815035056849
30
0
41
1
10
79.3256382574065
20
-8.49925089258929
30
0
41
1
10
79.3480592175787
20
-8.50020297929836
30
0
41
1
10
79.3592696976647
20
-8.50005920807416
30
0
41
1
10
79.4601640184394
20
-8.49313759057966
30
0
41
1
10
79.549847859128
20
-8.44656928839765
30
0
41
1
10
79.7292155405052
20
-8.25877631000932
30
0
41
1
10
79.8188993811938
20
-8.11742280014082
30
0
41
1
10
79.9982670625709
20
-7.73346596992792
30
0
41
1
10
80.0879509032595
20
-7.49078545044043
30
0
41
1
10
80.2673185846367
20
-6.90837440150165
30
0
41
1
10
80.3570024253253
20
-6.5686659437014
30
0
41
1
10
80.5363701067024
20
-5.80817783173924
30
0
41
1
10
80.626053947391
20
-5.38752631976863
30
0
41
1
10
80.8054216287683
20
-4.49062922720822
30
0
41
1
10
80.8951054694568
20
-4.01457138879815
30
0
41
1
10
81.074473150834
20
-3.03687523605913
30
0
41
1
10
81.1641569915225
20
-2.53541175094145
30
0
41
1
10
81.3435246728999
20
-1.53573393537329
30
0
41
1
10
81.4332085135884
20
-1.03762716849295
30
0
41
1
10
81.5453133144491
20
-0.431545913977885
30
0
41
1
10
81.5677342746212
20
-0.31114011710153
30
0
41
1
10
81.6125761949655
20
-0.0722376634957698
30
0
41
1
10
81.6349971551377
20
0.0456795475137142
30
0
41
1
10
81.7022600356541
20
0.403604511970883
30
0
41
1
10
81.7471019559984
20
0.646094921793008
30
0
41
1
10
81.8816277170313
20
1.3815763957802
30
0
41
1
10
81.9713115577198
20
1.88277364476008
30
0
41
1
10
82.150679239097
20
2.88237058332481
30
0
41
1
10
82.2403630797857
20
3.38064443840568
30
0
41
1
10
82.4197307611628
20
4.34494038938948
30
0
41
1
10
82.5094146018514
20
4.81077854616768
30
0
41
1
10
82.6887822832286
20
5.68071346464572
30
0
41
1
10
82.7784661239172
20
6.08463004693974
30
0
41
1
10
82.9578338052943
20
6.80692608117451
30
0
41
1
10
83.0475176459829
20
7.12519957551885
30
0
41
1
10
83.2268853273602
20
7.66265635397292
30
0
41
1
10
83.3165691680487
20
7.88184310372372
30
0
41
1
10
83.4062530087373
20
8.05064089575541
30
0
0
SPLINE
5
D8
100
AcDbEntity
8
1
62
256
6
ByLayer
370
13
48
1
60
0
100
AcDbSpline
70
4
71
3
72
118
73
114
40
0
40
0
40
0
40
0
40
0.0312500000000003
40
0.0312500000000003
40
0.0468750000000005
40
0.0468750000000005
40
0.0625000000000007
40
0.0625000000000007
40
0.0781250000000008
40
0.0781250000000008
40
0.0937500000000008
40
0.0937500000000008
40
0.109375000000001
40
0.109375000000001
40
0.125000000000001
40
0.125000000000001
40
0.140625000000001
40
0.140625000000001
40
0.156250000000001
40
0.156250000000001
40
0.171875000000001
40
0.171875000000001
40
0.187500000000001
40
0.187500000000001
40
0.203125000000001
40
0.203125000000001
40
0.218750000000001
40
0.218750000000001
40
0.250000000000001
40
0.250000000000001
40
0.281250000000001
40
0.281250000000001
40
0.296875000000001
40
0.296875000000001
40
0.312500000000001
40
0.312500000000001
40
0.328125000000001
40
0.328125000000001
40
0.343750000000001
40
0.343750000000001
40
0.359375000000001
40
0.359375000000001
40
0.375000000000001
40
0.375000000000001
40
0.390625000000001
40
0.390625000000001
40
0.406250000000001
40
0.406250000000001
40
0.421875000000001
40
0.421875000000001
40
0.437500000000001
40
0.437500000000001
40
0.453125000000001
40
0.453125000000001
40
0.468750000000001
40
0.468750000000001
40
0.5
40
0.5
40
0.53125
40
0.53125
40
0.546875
40
0.546875
40
0.5625
40
0.5625
40
0.578125
40
0.578125
40
0.59375
40
0.59375
40
0.609375
40
0.609375
40
0.624999999999999
40
0.624999999999999
40
0.640624999999999
40
0.640624999999999
40
0.656249999999999
40
0.656249999999999
40
0.671874999999999
40
0.671874999999999
40
0.687499999999999
40
0.687499999999999
40
0.703124999999999
40
0.703124999999999
40
0.718749999999999
40
0.718749999999999
40
0.749999999999999
40
0.749999999999999
40
0.781249999999999
40
0.781249999999999
40
0.796874999999999
40
0.796874999999999
40
0.812499999999999
40
0.812499999999999
40
0.828124999999999
40
0.828124999999999
40
0.843749999999999
40
0.843749999999999
40
0.859374999999999
40
0.859374999999999
40
0.874999999999999
40
0.874999999999999
40
0.890624999999999
40
0.890624999999999
40
0.906249999999999
40
0.906249999999999
40
0.921875
40
0.921875
40
0.9375
40
0.9375
40
0.953125
40
0.953125
40
0.96875
40
0.96875
40
1
40
1
40
1
40
1
41
1
10
74.3000004553127
20
8.5
30
0
41
1
10
74.3948572527442
20
8.5
30
0
41
1
10
74.4897140501757
20
8.455474052683
30
0
41
1
10
74.631999246323
20
8.30940644287998
30
0
41
1
10
74.6794276450387
20
8.24755209656595
30
0
41
1
10
74.7742844424702
20
8.09623026070841
30
0
41
1
10
74.821712841186
20
8.00675815063033
30
0
41
1
10
74.9165696386174
20
7.79964309170003
30
0
41
1
10
74.9639980373332
20
7.68199700464262
30
0
41
1
10
75.0588548347647
20
7.41883130883744
30
0
41
1
10
75.1062832334804
20
7.27331062829884
30
0
41
1
10
75.201140030912
20
6.95561334834579
30
0
41
1
10
75.2485684296277
20
6.78343810273191
30
0
41
1
10
75.3434252270592
20
6.41456647335565
30
0
41
1
10
75.390853625775
20
6.21787390007091
30
0
41
1
10
75.4857104232065
20
5.80294187801883
30
0
41
1
10
75.5331388219223
20
5.58470836149155
30
0
41
1
10
75.6279956193538
20
5.13036040066513
30
0
41
1
10
75.6754240180695
20
4.89425335552605
30
0
41
1
10
75.770280815501
20
4.40831318093169
30
0
41
1
10
75.8177092142167
20
4.15848806454375
30
0
41
1
10
75.9125660116482
20
3.64952085720424
30
0
41
1
10
75.959994410364
20
3.39038650566639
30
0
41
1
10
76.0548512077955
20
2.86722449857706
30
0
41
1
10
76.1022796065113
20
2.60320354578738
30
0
41
1
10
76.1971364039428
20
2.07448713758092
30
0
41
1
10
76.2445648026585
20
1.80979682347564
30
0
41
1
10
76.3868499988058
20
1.0204658471535
30
0
41
1
10
76.4817067962373
20
0.500867894007911
30
0
41
1
10
76.6714203911003
20
-0.500866691926404
30
0
41
1
10
76.7662771885318
20
-1.02046459421143
30
0
41
1
10
76.9085623846792
20
-1.80979555555231
30
0
41
1
10
76.9559907833949
20
-2.07448586753995
30
0
41
1
10
77.0508475808263
20
-2.60320227798954
30
0
41
1
10
77.0982759795421
20
-2.8672232351428
30
0
41
1
10
77.1931327769737
20
-3.39038525792296
30
0
41
1
10
77.2405611756894
20
-3.64951962079022
30
0
41
1
10
77.3354179731209
20
-4.15848685791505
30
0
41
1
10
77.3828463718366
20
-4.40831199275999
30
0
41
1
10
77.4777031692681
20
-4.89425221118472
30
0
41
1
10
77.5251315679839
20
-5.13035928169697
30
0
41
1
10
77.6199883654155
20
-5.58470729958935
30
0
41
1
10
77.6674167641312
20
-5.8029408478078
30
0
41
1
10
77.7622735615627
20
-6.21787293860805
30
0
41
1
10
77.8097019602784
20
-6.41456554894688
30
0
41
1
10
77.9045587577099
20
-6.78343725655665
30
0
41
1
10
77.9519871564257
20
-6.95561254334621
30
0
41
1
10
78.0468439538572
20
-7.27330990835125
30
0
41
1
10
78.0942723525729
20
-7.41883063276217
30
0
41
1
10
78.1891291500044
20
-7.68199641752236
30
0
41
1
10
78.2365575487202
20
-7.79964254965876
30
0
41
1
10
78.3314143461517
20
-8.0067576985191
30
0
41
1
10
78.3788427448675
20
-8.09622985344524
30
0
41
1
10
78.4736995422989
20
-8.24755177748409
30
0
41
1
10
78.5211279410147
20
-8.30940616712951
30
0
41
1
10
78.663413137162
20
-8.4554739030591
30
0
41
1
10
78.7582699345935
20
-8.49999992916659
30
0
41
1
10
78.9479835294565
20
-8.50000007083327
30
0
41
1
10
79.042840326888
20
-8.4554742023067
30
0
41
1
10
79.1851255230353
20
-8.30940671863024
30
0
41
1
10
79.2325539217511
20
-8.24755241564762
30
0
41
1
10
79.3274107191825
20
-8.09623066797135
30
0
41
1
10
79.3748391178982
20
-8.00675860274137
30
0
41
1
10
79.4696959153298
20
-7.79964363374106
30
0
41
1
10
79.5171243140455
20
-7.68199759176269
30
0
41
1
10
79.611981111477
20
-7.41883198491252
30
0
41
1
10
79.6594095101927
20
-7.27331134824621
30
0
41
1
10
79.7542663076243
20
-6.95561415334518
30
0
41
1
10
79.8016947063401
20
-6.78343894890696
30
0
41
1
10
79.8965515037715
20
-6.41456739776424
30
0
41
1
10
79.9439799024873
20
-6.2178748615336
30
0
41
1
10
80.0388366999188
20
-5.80294290822974
30
0
41
1
10
80.0862650986345
20
-5.5847094233936
30
0
41
1
10
80.1811218960661
20
-5.1303615196332
30
0
41
1
10
80.2285502947818
20
-4.8942544998672
30
0
41
1
10
80.3234070922134
20
-4.40831436910327
30
0
41
1
10
80.3708354909291
20
-4.15848927117233
30
0
41
1
10
80.4656922883606
20
-3.6495220936182
30
0
41
1
10
80.5131206870763
20
-3.39038775340978
30
0
41
1
10
80.6079774845078
20
-2.86722576201132
30
0
41
1
10
80.6554058832235
20
-2.60320481358519
30
0
41
1
10
80.7502626806551
20
-2.07448840762191
30
0
41
1
10
80.7976910793709
20
-1.80979809139896
30
0
41
1
10
80.9399762755181
20
-1.02046710009563
30
0
41
1
10
81.0348330729497
20
-0.500869125429574
30
0
41
1
10
81.2245466678127
20
0.50086551918497
30
0
41
1
10
81.3194034652441
20
1.02046334126936
30
0
41
1
10
81.4616886613915
20
1.80979428762902
30
0
41
1
10
81.5091170601071
20
2.07448459749898
30
0
41
1
10
81.6039738575386
20
2.6032010101917
30
0
41
1
10
81.6514022562544
20
2.86722197170849
30
0
41
1
10
81.7462590536859
20
3.39038401017947
30
0
41
1
10
81.7936874524017
20
3.64951838437614
30
0
41
1
10
81.8885442498332
20
4.15848565128627
30
0
41
1
10
81.935972648549
20
4.40831080458821
30
0
41
1
10
82.0308294459803
20
4.89425106684331
30
0
41
1
10
82.0782578446962
20
5.13035816272867
30
0
41
1
10
82.1731146421277
20
5.58470623768699
30
0
41
1
10
82.2205430408436
20
5.80293981759661
30
0
41
1
10
82.315399838275
20
6.21787197714502
30
0
41
1
10
82.3628282369907
20
6.41456462453792
30
0
41
1
10
82.4576850344222
20
6.7834364103812
30
0
41
1
10
82.505113433138
20
6.95561173834645
30
0
41
1
10
82.5999702305695
20
7.27330918840346
30
0
41
1
10
82.6473986292852
20
7.41882995668666
30
0
41
1
10
82.7422554267168
20
7.68199583040186
30
0
41
1
10
82.7896838254325
20
7.79964200761728
30
0
41
1
10
82.8845406228639
20
8.0067572464076
30
0
41
1
10
82.9319690215797
20
8.09622944618184
30
0
41
1
10
83.0268258190113
20
8.24755145840203
30
0
41
1
10
83.0742542177269
20
8.30940589137882
30
0
41
1
10
83.2165394138743
20
8.455473753435
30
0
41
1
10
83.3113962113058
20
8.49999985833298
30
0
41
1
10
83.4062530087373
20
8.49999999999966
30
0
0
SPLINE
5
D9
100
AcDbEntity
8
1
62
256
6
ByLayer
370
13
48
1
60
0
100
AcDbSpline
70
4
71
3
72
84
73
80
40
0
40
0
40
0
40
0
40
0.0312499999999998
40
0.0312499999999998
40
0.0624999999999995
40
0.0624999999999995
40
0.0937499999999993
40
0.0937499999999993
40
0.124999999999999
40
0.124999999999999
40
0.156249999999999
40
0.156249999999999
40
0.187499999999999
40
0.187499999999999
40
0.203124999999998
40
0.203124999999998
40
0.210937499999998
40
0.210937499999998
40
0.218749999999998
40
0.218749999999998
40
0.249999999999998
40
0.249999999999998
40
0.281249999999998
40
0.281249999999998
40
0.312499999999998
40
0.312499999999998
40
0.343749999999997
40
0.343749999999997
40
0.374999999999997
40
0.374999999999997
40
0.406249999999997
40
0.406249999999997
40
0.437499999999997
40
0.437499999999997
40
0.468749999999996
40
0.468749999999996
40
0.472656249999996
40
0.472656249999996
40
0.476562499999996
40
0.484374999999996
40
0.484374999999996
40
0.499999999999996
40
0.499999999999996
40
0.531249999999996
40
0.531249999999996
40
0.562499999999996
40
0.562499999999996
40
0.593749999999995
40
0.593749999999995
40
0.624999999999995
40
0.624999999999995
40
0.656249999999995
40
0.656249999999995
40
0.687499999999995
40
0.687499999999995
40
0.718749999999994
40
0.718749999999994
40
0.734374999999994
40
0.734374999999994
40
0.738281249999994
40
0.738281249999994
40
0.742187499999994
40
0.749999999999994
40
0.749999999999994
40
0.781249999999995
40
0.781249999999995
40
0.812499999999996
40
0.812499999999996
40
0.843749999999996
40
0.843749999999996
40
0.874999999999997
40
0.874999999999997
40
0.906249999999998
40
0.906249999999998
40
0.937499999999999
40
0.937499999999999
40
0.968749999999999
40
0.968749999999999
40
1
40
1
40
1
40
1
41
1
10
74.3
20
8.05064260968049
30
0
41
1
10
74.3896838501743
20
7.88184513773729
30
0
41
1
10
74.4793677003486
20
7.66265870398644
30
0
41
1
10
74.6587354006971
20
7.12520251215471
30
0
41
1
10
74.7484192508714
20
6.80692928807557
30
0
41
1
10
74.9277869512199
20
6.08463371565847
30
0
41
1
10
75.0174708013942
20
5.68071732465327
30
0
41
1
10
75.1968385017428
20
4.81078269113917
30
0
41
1
10
75.2865223519169
20
4.34494462800359
30
0
41
1
10
75.4658900522655
20
3.38064876708938
30
0
41
1
10
75.5555739024397
20
2.88237490862741
30
0
41
1
10
75.7349416027882
20
1.88277788321199
30
0
41
1
10
75.8246254529626
20
1.3815805510481
30
0
41
1
10
75.959151228224
20
0.646098911810753
30
0
41
1
10
76.0039931533112
20
0.403608440200116
30
0
41
1
10
76.0712560409418
20
0.0456833755215769
30
0
41
1
10
76.0936770034854
20
-0.0722338430922775
30
0
41
1
10
76.1385189285725
20
-0.31113628123083
30
0
41
1
10
76.1609398911161
20
-0.431542072034944
30
0
41
1
10
76.2730447038339
20
-1.03762330506615
30
0
41
1
10
76.3627285540082
20
-1.5357300834682
30
0
41
1
10
76.5420962543567
20
-2.53540799000442
30
0
41
1
10
76.6317801045309
20
-3.03687155471658
30
0
41
1
10
76.8111478048795
20
-4.01456793492181
30
0
41
1
10
76.9008316550538
20
-4.49062592122419
30
0
41
1
10
77.0801993554023
20
-5.3875233647932
30
0
41
1
10
77.1698832055766
20
-5.808175079726
30
0
41
1
10
77.3492509059251
20
-6.5686636282893
30
0
41
1
10
77.4389347560995
20
-6.90837231945986
30
0
41
1
10
77.6183024564481
20
-7.49078383645397
30
0
41
1
10
77.7079863066223
20
-7.73346459037819
30
0
41
1
10
77.8873540069708
20
-8.11742186489968
30
0
41
1
10
77.977037857145
20
-8.25877558452058
30
0
41
1
10
78.1564055574936
20
-8.44656894131109
30
0
41
1
10
78.2460894076679
20
-8.49313741216665
30
0
41
1
10
78.3469837391139
20
-8.50005919303896
30
0
41
1
10
78.3581942203857
20
-8.50020298190717
30
0
41
1
10
78.3806151829293
20
-8.49925093076337
30
0
41
1
10
78.4142466267447
20
-8.49594963181519
30
0
41
1
10
78.44787807056
20
-8.48688561613662
30
0
41
1
10
78.5151409581906
20
-8.46071515674643
30
0
41
1
10
78.5599828832777
20
-8.43253302386628
30
0
41
1
10
78.6945086585391
20
-8.31327718040183
30
0
41
1
10
78.7841925087134
20
-8.18720526386915
30
0
41
1
10
78.9635602090619
20
-7.8341884584575
30
0
41
1
10
79.0532440592364
20
-7.6071547278714
30
0
41
1
10
79.2326117595848
20
-7.05460967962898
30
0
41
1
10
79.3222956097591
20
-6.72910331794975
30
0
41
1
10
79.5016633101076
20
-5.99383998730357
30
0
41
1
10
79.5913471602818
20
-5.58419662330562
30
0
41
1
10
79.7707148606304
20
-4.70494547701014
30
0
41
1
10
79.8603987108046
20
-4.23552084622747
30
0
41
1
10
80.0397664111532
20
-3.26640177569723
30
0
41
1
10
80.1294502613274
20
-2.76688860242507
30
0
41
1
10
80.3088179616759
20
-1.766944323491
30
0
41
1
10
80.3985018118503
20
-1.2666330658997
30
0
41
1
10
80.5330275871117
20
-0.533697681957449
30
0
41
1
10
80.5778695121987
20
-0.292257192407135
30
0
41
1
10
80.6339219185577
20
0.0044957686862688
30
0
41
1
10
80.6451323998295
20
0.0636216556378599
30
0
41
1
10
80.6675533623732
20
0.182702759926798
30
0
41
1
10
80.7011848061884
20
0.362058581302705
30
0
41
1
10
80.7348162500037
20
0.543465525746512
30
0
41
1
10
80.8469210627215
20
1.15197019881043
30
0
41
1
10
80.9366049128959
20
1.65125020252037
30
0
41
1
10
81.1159726132444
20
2.65121984229535
30
0
41
1
10
81.2056564634186
20
3.15179572771129
30
0
41
1
10
81.3850241637672
20
4.12538144658163
30
0
41
1
10
81.4747080139416
20
4.59821305571347
30
0
41
1
10
81.6540757142901
20
5.48645337213392
30
0
41
1
10
81.7437595644643
20
5.90167640555657
30
0
41
1
10
81.9231272648129
20
6.64967375613492
30
0
41
1
10
82.012811114987
20
6.98232706526412
30
0
41
1
10
82.1921788153356
20
7.54986084762072
30
0
41
1
10
82.2818626655099
20
7.78472784385903
30
0
41
1
10
82.4612303658585
20
8.15320198759309
30
0
41
1
10
82.5509142160327
20
8.28689231230575
30
0
41
1
10
82.7302819163813
20
8.46022609575184
30
0
41
1
10
82.8199657665555
20
8.5
30
0
41
1
10
82.9096496167298
20
8.5
30
0
0
SPLINE
5
DA
100
AcDbEntity
8
1
62
256
6
ByLayer
370
13
48
1
60
0
100
AcDbSpline
70
4
71
3
72
85
73
81
40
0
40
0
40
0
40
0
40
0.0312499999999995
40
0.0312499999999995
40
0.062499999999999
40
0.062499999999999
40
0.0937499999999985
40
0.0937499999999985
40
0.124999999999998
40
0.124999999999998
40
0.156249999999998
40
0.156249999999998
40
0.160156249999998
40
0.160156249999998
40
0.164062499999997
40
0.171874999999997
40
0.171874999999997
40
0.187499999999996
40
0.187499999999996
40
0.218749999999994
40
0.218749999999994
40
0.249999999999992
40
0.249999999999992
40
0.281249999999991
40
0.281249999999991
40
0.312499999999989
40
0.312499999999989
40
0.343749999999987
40
0.343749999999987
40
0.374999999999985
40
0.374999999999985
40
0.406249999999983
40
0.406249999999983
40
0.437499999999981
40
0.437499999999981
40
0.441406249999982
40
0.441406249999982
40
0.445312499999982
40
0.453124999999982
40
0.453124999999982
40
0.468749999999982
40
0.468749999999982
40
0.499999999999981
40
0.499999999999981
40
0.531249999999981
40
0.531249999999981
40
0.562499999999981
40
0.562499999999981
40
0.59374999999998
40
0.59374999999998
40
0.62499999999998
40
0.62499999999998
40
0.656249999999979
40
0.656249999999979
40
0.687499999999979
40
0.687499999999979
40
0.718749999999979
40
0.718749999999979
40
0.722656249999979
40
0.722656249999979
40
0.726562499999979
40
0.73437499999998
40
0.73437499999998
40
0.749999999999981
40
0.749999999999981
40
0.781249999999983
40
0.781249999999983
40
0.812499999999986
40
0.812499999999986
40
0.843749999999988
40
0.843749999999988
40
0.87499999999999
40
0.87499999999999
40
0.906249999999993
40
0.906249999999993
40
0.937499999999995
40
0.937499999999995
40
0.968749999999998
40
0.968749999999998
40
1
40
1
40
1
40
1
41
1
10
74.3
20
6.60983435009143
30
0
41
1
10
74.3845108934314
20
6.2820498714606
30
0
41
1
10
74.4690217868628
20
5.91506358754285
30
0
41
1
10
74.6380435737254
20
5.1209786658743
30
0
41
1
10
74.7225544671568
20
4.69400643459159
30
0
41
1
10
74.8915762540195
20
3.80385884549256
30
0
41
1
10
74.9760871474508
20
3.34082507378048
30
0
41
1
10
75.1451089343135
20
2.40374249502816
30
0
41
1
10
75.2296198277449
20
1.92980492790315
30
0
41
1
10
75.3986416146075
20
0.993425469336188
30
0
41
1
10
75.4831525080389
20
0.531040134016536
30
0
41
1
10
75.5782272631492
20
0.0270248034751148
30
0
41
1
10
75.5887911248281
20
-0.028644703705595
30
0
41
1
10
75.6099188481859
20
-0.140656641487169
30
0
41
1
10
75.6416104332228
20
-0.309336030573746
30
0
41
1
10
75.6733020182594
20
-0.479874802207888
30
0
41
1
10
75.736685188333
20
-0.823064610879953
30
0
41
1
10
75.7789406350486
20
-1.05468539788336
30
0
41
1
10
75.9057069751956
20
-1.7546767892174
30
0
41
1
10
75.990217868627
20
-2.22831269482708
30
0
41
1
10
76.1592396554897
20
-3.16778037164224
30
0
41
1
10
76.2437505489211
20
-3.63350691728769
30
0
41
1
10
76.4127723357838
20
-4.53217420908931
30
0
41
1
10
76.4972832292152
20
-4.96497492864893
30
0
41
1
10
76.6663050160779
20
-5.77346797872471
30
0
41
1
10
76.7508159095092
20
-6.1490293266248
30
0
41
1
10
76.9198376963718
20
-6.82362949703435
30
0
41
1
10
77.0043485898032
20
-7.12259228384806
30
0
41
1
10
77.1733703766658
20
-7.63276014954141
30
0
41
1
10
77.2578812700974
20
-7.84396626076901
30
0
41
1
10
77.42690305696
20
-8.17674300189205
30
0
41
1
10
77.5114139503913
20
-8.29837982392502
30
0
41
1
10
77.680435737254
20
-8.45841376761732
30
0
41
1
10
77.7649466306854
20
-8.49690828213559
30
0
41
1
10
77.8600213857957
20
-8.50018398329962
30
0
41
1
10
77.8705852474746
20
-8.49999841829074
30
0
41
1
10
77.8917129708324
20
-8.49851516779037
30
0
41
1
10
77.9234045558691
20
-8.49461643798412
30
0
41
1
10
77.9550961409059
20
-8.48557726514463
30
0
41
1
10
78.0184793109794
20
-8.46034619663672
30
0
41
1
10
78.0607347576951
20
-8.43397916883796
30
0
41
1
10
78.1875010978421
20
-8.32413885795023
30
0
41
1
10
78.2720119912735
20
-8.20970350913197
30
0
41
1
10
78.4410337781362
20
-7.89158085326707
30
0
41
1
10
78.5255446715676
20
-7.68782334582454
30
0
41
1
10
78.6945664584302
20
-7.19205702761019
30
0
41
1
10
78.7790773518616
20
-6.90004092560335
30
0
41
1
10
78.9480991387243
20
-6.23807752510476
30
0
41
1
10
79.0326100321556
20
-5.86820027647968
30
0
41
1
10
79.2016318190183
20
-5.06923828203878
30
0
41
1
10
79.2861427124496
20
-4.64028154878659
30
0
41
1
10
79.4551644993123
20
-3.74720899435366
30
0
41
1
10
79.5396753927438
20
-3.28323431914649
30
0
41
1
10
79.7086971796065
20
-2.34527517298801
30
0
41
1
10
79.7932080730378
20
-1.87139997652756
30
0
41
1
10
79.9622298599006
20
-0.935972724908453
30
0
41
1
10
80.046740753332
20
-0.474474851895763
30
0
41
1
10
80.1418155084422
20
0.0282156916568397
30
0
41
1
10
80.152379370121
20
0.0840367667947532
30
0
41
1
10
80.1735070934789
20
0.196336907412189
30
0
41
1
10
80.2051986785156
20
0.365434803281147
30
0
41
1
10
80.2368902635523
20
0.536348463572011
30
0
41
1
10
80.3002734336259
20
0.880224043260171
30
0
41
1
10
80.3425288803416
20
1.11221657569956
30
0
41
1
10
80.4692952204886
20
1.81302242487402
30
0
41
1
10
80.5538061139199
20
2.2867969604136
30
0
41
1
10
80.7228279007826
20
3.22555100259032
30
0
41
1
10
80.8073387942139
20
3.69042324020069
30
0
41
1
10
80.9763605810767
20
4.58633574060028
30
0
41
1
10
81.0608714745081
20
5.01723537760159
30
0
41
1
10
81.2298932613708
20
5.82100032527651
30
0
41
1
10
81.314404154802
20
6.19373609767001
30
0
41
1
10
81.4834259416648
20
6.86204362710879
30
0
41
1
10
81.5679368350961
20
7.15754232297877
30
0
41
1
10
81.7369586219588
20
7.66051978495787
30
0
41
1
10
81.8214695153902
20
7.86800272514208
30
0
41
1
10
81.990491302253
20
8.19344760656205
30
0
41
1
10
82.0750021956842
20
8.31147777504808
30
0
41
1
10
82.2440239825469
20
8.46470503522906
30
0
41
1
10
82.3285348759783
20
8.5
30
0
41
1
10
82.4130457694096
20
8.5
30
0
0
SPLINE
5
DB
100
AcDbEntity
8
1
62
256
6
ByLayer
370
13
48
1
60
0
100
AcDbSpline
70
4
71
3
72
84
73
80
40
0
40
0
40
0
40
0
40
0.0312500000000002
40
0.0312500000000002
40
0.0625000000000003
40
0.0625000000000003
40
0.0937500000000005
40
0.0937500000000005
40
0.101562500000001
40
0.101562500000001
40
0.105468750000001
40
0.105468750000001
40
0.109375000000001
40
0.125000000000001
40
0.125000000000001
40
0.156250000000002
40
0.156250000000002
40
0.187500000000002
40
0.187500000000002
40
0.218750000000002
40
0.218750000000002
40
0.250000000000003
40
0.250000000000003
40
0.281250000000003
40
0.281250000000003
40
0.312500000000004
40
0.312500000000004
40
0.343750000000004
40
0.343750000000004
40
0.375000000000004
40
0.375000000000004
40
0.390625000000004
40
0.390625000000004
40
0.398437500000004
40
0.398437500000004
40
0.406250000000004
40
0.406250000000004
40
0.437500000000004
40
0.437500000000004
40
0.468750000000004
40
0.468750000000004
40
0.500000000000004
40
0.500000000000004
40
0.531250000000003
40
0.531250000000003
40
0.562500000000003
40
0.562500000000003
40
0.593750000000003
40
0.593750000000003
40
0.625000000000002
40
0.625000000000002
40
0.656250000000002
40
0.656250000000002
40
0.687500000000002
40
0.687500000000002
40
0.695312500000002
40
0.699218750000002
40
0.699218750000002
40
0.703125000000002
40
0.703125000000002
40
0.718750000000002
40
0.718750000000002
40
0.750000000000001
40
0.750000000000001
40
0.781250000000001
40
0.781250000000001
40
0.812500000000001
40
0.812500000000001
40
0.843750000000001
40
0.843750000000001
40
0.875000000000001
40
0.875000000000001
40
0.906250000000001
40
0.906250000000001
40
0.9375
40
0.9375
40
0.96875
40
0.96875
40
1
40
1
40
1
40
1
41
1
10
74.3
20
4.30393514341009
30
0
41
1
10
74.3793379366884
20
3.88751731720581
30
0
41
1
10
74.4586758733769
20
3.45480772524726
30
0
41
1
10
74.6173517467538
20
2.57746202010543
30
0
41
1
10
74.6966896834422
20
2.13291055937282
30
0
41
1
10
74.8553655568191
20
1.25093687090401
30
0
41
1
10
74.9347034935075
20
0.813562777454166
30
0
41
1
10
75.033875914368
20
0.280802742585451
30
0
41
1
10
75.0537103985401
20
0.174937699113002
30
0
41
1
10
75.0834621247982
20
0.0173139951046153
30
0
41
1
10
75.0933793668844
20
-0.0349578246405144
30
0
41
1
10
75.1132138510565
20
-0.140127699595297
30
0
41
1
10
75.1628000614867
20
-0.404020631891456
30
0
41
1
10
75.212386271917
20
-0.672493001909601
30
0
41
1
10
75.3313931769496
20
-1.32309324613743
30
0
41
1
10
75.4107311136381
20
-1.76530527285996
30
0
41
1
10
75.5694069870149
20
-2.64994296174231
30
0
41
1
10
75.6487449237034
20
-3.09230528383566
30
0
41
1
10
75.8074207970802
20
-3.95724384225036
30
0
41
1
10
75.8867587337686
20
-4.3797250555568
30
0
41
1
10
76.0454346071455
20
-5.18411462896742
30
0
41
1
10
76.124772543834
20
-5.5659196182101
30
0
41
1
10
76.2834484172108
20
-6.27046298126416
30
0
41
1
10
76.3627863538993
20
-6.59312099131324
30
0
41
1
10
76.5214622272762
20
-7.16604777776351
30
0
41
1
10
76.6008001639646
20
-7.41628347755079
30
0
41
1
10
76.7594760373414
20
-7.83799533673118
30
0
41
1
10
76.8388139740299
20
-8.00949092891469
30
0
41
1
10
76.9974898474067
20
-8.27450878556451
30
0
41
1
10
77.0768277840951
20
-8.3680887998205
30
0
41
1
10
77.1958346891278
20
-8.45501547955979
30
0
41
1
10
77.2355036574721
20
-8.47512407996294
30
0
41
1
10
77.2950071099884
20
-8.49289917288678
30
0
41
1
10
77.3148415941604
20
-8.49676123591249
30
0
41
1
10
77.3545105625046
20
-8.5005286524418
30
0
41
1
10
77.3743450466768
20
-8.50045709208291
30
0
41
1
10
77.4735174675373
20
-8.49029840482191
30
0
41
1
10
77.5528554042257
20
-8.45034267406027
30
0
41
1
10
77.7115312776026
20
-8.29711119044865
30
0
41
1
10
77.790869214291
20
-8.18376444913787
30
0
41
1
10
77.9495450876678
20
-7.87835438299751
30
0
41
1
10
78.0288830243563
20
-7.68624113238107
30
0
41
1
10
78.1875588977332
20
-7.22421264926243
30
0
41
1
10
78.2668968344217
20
-6.95429090266813
30
0
41
1
10
78.4255727077984
20
-6.34479793036729
30
0
41
1
10
78.5049106444869
20
-6.00527342805555
30
0
41
1
10
78.6635865178638
20
-5.2713820755045
30
0
41
1
10
78.7429244545522
20
-4.87710445081777
30
0
41
1
10
78.901600327929
20
-4.05306724059182
30
0
41
1
10
78.9809382646175
20
-3.62341178694081
30
0
41
1
10
79.1396141379944
20
-2.74951499290375
30
0
41
1
10
79.2189520746828
20
-2.30536210908878
30
0
41
1
10
79.3776279480597
20
-1.42190003449943
30
0
41
1
10
79.4569658847481
20
-0.982644104855666
30
0
41
1
10
79.5561383056087
20
-0.446461800035422
30
0
41
1
10
79.5858900318667
20
-0.286557707962174
30
0
41
1
10
79.615641758125
20
-0.128305273434137
30
0
41
1
10
79.6354762422972
20
-0.0231936051415289
30
0
41
1
10
79.6453934843831
20
0.0290748828253697
30
0
41
1
10
79.6949796948134
20
0.291926891671267
30
0
41
1
10
79.7346486631576
20
0.505334367658719
30
0
41
1
10
79.8536555681902
20
1.15252092080044
30
0
41
1
10
79.9329935048787
20
1.59339268552603
30
0
41
1
10
80.0916693782556
20
2.47774792556066
30
0
41
1
10
80.171007314944
20
2.92117305919834
30
0
41
1
10
80.3296831883209
20
3.79093604860125
30
0
41
1
10
80.4090211250093
20
4.21718197921911
30
0
41
1
10
80.5676969983863
20
5.03173467924597
30
0
41
1
10
80.6470349350747
20
5.41993742468244
30
0
41
1
10
80.8057108084514
20
6.13943621640158
30
0
41
1
10
80.8850487451399
20
6.47064723897955
30
0
41
1
10
81.0437246185168
20
7.06203829656886
30
0
41
1
10
81.1230625552051
20
7.32217836295922
30
0
41
1
10
81.2817384285819
20
7.76410944687063
30
0
41
1
10
81.3610763652704
20
7.94591354669203
30
0
41
1
10
81.5197522386473
20
8.23107451290625
30
0
41
1
10
81.5990901753358
20
8.33448542010336
30
0
41
1
10
81.7577660487126
20
8.46891218838402
30
0
41
1
10
81.8371039854011
20
8.5
30
0
41
1
10
81.9164419220895
20
8.5
30
0
0
SPLINE
5
DC
100
AcDbEntity
8
1
62
256
6
ByLayer
370
13
48
1
60
0
100
AcDbSpline
70
4
71
3
72
8
73
4
40
0
40
0
40
0
40
0
40
1
40
1
40
1
40
1
41
1
10
83.2388697070751
20
8.5
30
0
41
1
10
83.2946641409625
20
8.5
30
0
41
1
10
83.3504585748499
20
8.48465723476755
30
0
41
1
10
83.4062530087373
20
8.45214044740891
30
0
0
SPLINE
5
DD
100
AcDbEntity
8
1
62
256
6
ByLayer
370
13
48
1
60
0
100
AcDbSpline
70
4
71
3
72
84
73
80
40
0
40
0
40
0
40
0
40
0.0312500000000012
40
0.0312500000000012
40
0.0390625000000016
40
0.0390625000000016
40
0.0429687500000018
40
0.0429687500000018
40
0.046875000000002
40
0.0625000000000029
40
0.0625000000000029
40
0.0937500000000045
40
0.0937500000000045
40
0.125000000000006
40
0.125000000000006
40
0.156250000000008
40
0.156250000000008
40
0.187500000000009
40
0.187500000000009
40
0.218750000000011
40
0.218750000000011
40
0.250000000000012
40
0.250000000000012
40
0.281250000000014
40
0.281250000000014
40
0.312500000000015
40
0.312500000000015
40
0.343750000000017
40
0.343750000000017
40
0.359375000000018
40
0.359375000000018
40
0.363281250000018
40
0.363281250000018
40
0.367187500000018
40
0.375000000000017
40
0.375000000000017
40
0.406250000000016
40
0.406250000000016
40
0.437500000000015
40
0.437500000000015
40
0.468750000000013
40
0.468750000000013
40
0.500000000000012
40
0.500000000000012
40
0.531250000000011
40
0.531250000000011
40
0.56250000000001
40
0.56250000000001
40
0.593750000000009
40
0.593750000000009
40
0.625000000000007
40
0.625000000000007
40
0.656250000000006
40
0.656250000000006
40
0.671875000000006
40
0.671875000000006
40
0.679687500000005
40
0.679687500000005
40
0.687500000000005
40
0.687500000000005
40
0.718750000000005
40
0.718750000000005
40
0.750000000000004
40
0.750000000000004
40
0.781250000000004
40
0.781250000000004
40
0.812500000000003
40
0.812500000000003
40
0.843750000000003
40
0.843750000000003
40
0.875000000000002
40
0.875000000000002
40
0.906250000000002
40
0.906250000000002
40
0.937500000000001
40
0.937500000000001
40
0.968750000000001
40
0.968750000000001
40
1
40
1
40
1
40
1
41
1
10
74.3
20
1.57763664802076
30
0
41
1
10
74.3741649799455
20
1.16601740570778
30
0
41
1
10
74.4483299598911
20
0.758181017312211
30
0
41
1
10
74.541036184823
20
0.260706326636495
30
0
41
1
10
74.5595774298093
20
0.161819020889453
30
0
41
1
10
74.5873892972889
20
0.0145160688460351
30
0
41
1
10
74.5966599197822
20
-0.0343545611531511
30
0
41
1
10
74.6152011647685
20
-0.132648582066821
30
0
41
1
10
74.6615542772345
20
-0.379231295712486
30
0
41
1
10
74.7079073897004
20
-0.629837541561415
30
0
41
1
10
74.8191548596187
20
-1.23697395244483
30
0
41
1
10
74.8933198395642
20
-1.64940333833692
30
0
41
1
10
75.0416497994552
20
-2.4761774018624
30
0
41
1
10
75.1158147794007
20
-2.89047984253386
30
0
41
1
10
75.2641447392917
20
-3.70493714458624
30
0
41
1
10
75.3383097192373
20
-4.10502712053335
30
0
41
1
10
75.4866396791282
20
-4.87402410255064
30
0
41
1
10
75.5608046590738
20
-5.24285662612922
30
0
41
1
10
75.7091346189648
20
-5.9334808392764
30
0
41
1
10
75.7832995989103
20
-6.25520774166631
30
0
41
1
10
75.9316295588014
20
-6.83910691574468
30
0
41
1
10
76.0057945387468
20
-7.10124176778348
30
0
41
1
10
76.1541244986378
20
-7.55838270544925
30
0
41
1
10
76.2282894785834
20
-7.75338691781593
30
0
41
1
10
76.3766194384744
20
-8.07424151620663
30
0
41
1
10
76.4507844184199
20
-8.20012143394874
30
0
41
1
10
76.599114378311
20
-8.38580964888385
30
0
41
1
10
76.6732793582564
20
-8.44566598252021
30
0
41
1
10
76.7845268281747
20
-8.49112491047697
30
0
41
1
10
76.8216093181475
20
-8.49891580274104
30
0
41
1
10
76.8679624306134
20
-8.50013892387372
30
0
41
1
10
76.8772330531067
20
-8.49996071199089
30
0
41
1
10
76.895774298093
20
-8.49874785603748
30
0
41
1
10
76.9235861655725
20
-8.49564082156436
30
0
41
1
10
76.9513980330522
20
-8.48859011046517
30
0
41
1
10
77.0441042579841
20
-8.45598412406594
30
0
41
1
10
77.1182692379296
20
-8.40065481145072
30
0
41
1
10
77.2665991978206
20
-8.22441232338323
30
0
41
1
10
77.3407641777661
20
-8.10345037038803
30
0
41
1
10
77.4890941376572
20
-7.79249780084163
30
0
41
1
10
77.5632591176026
20
-7.60247582265927
30
0
41
1
10
77.7115890774937
20
-7.15497239723013
30
0
41
1
10
77.7857540574392
20
-6.89749028241914
30
0
41
1
10
77.9340840173302
20
-6.32217665178501
30
0
41
1
10
78.0082489972757
20
-6.0043801192902
30
0
41
1
10
78.1565789571667
20
-5.32058191970626
30
0
41
1
10
78.2307439371123
20
-4.95464358268708
30
0
41
1
10
78.3790738970033
20
-4.19022521597216
30
0
41
1
10
78.4532388769488
20
-3.79181964776876
30
0
41
1
10
78.6015688368398
20
-2.97950949163271
30
0
41
1
10
78.6757338167854
20
-2.56567102526509
30
0
41
1
10
78.8240637766764
20
-1.73873495511234
30
0
41
1
10
78.8982287566219
20
-1.32568145084406
30
0
41
1
10
79.0094762265402
20
-0.716961032426354
30
0
41
1
10
79.0465587165129
20
-0.51584060961585
30
0
41
1
10
79.102182451472
20
-0.217885976707464
30
0
41
1
10
79.1207236964584
20
-0.119187038298833
30
0
41
1
10
79.1578061864312
20
0.076818924377335
30
0
41
1
10
79.1763474314176
20
0.175146125719124
30
0
41
1
10
79.2690536563495
20
0.670836868749035
30
0
41
1
10
79.343218636295
20
1.07761759827432
30
0
41
1
10
79.491548596186
20
1.89973417189162
30
0
41
1
10
79.5657135761315
20
2.31504001454991
30
0
41
1
10
79.7140435360226
20
3.13919280770446
30
0
41
1
10
79.788208515968
20
3.547984328908
30
0
41
1
10
79.936538475859
20
4.34227925650168
30
0
41
1
10
80.0107034558046
20
4.72771046697892
30
0
41
1
10
80.1590334156957
20
5.45859825324521
30
0
41
1
10
80.2331983956411
20
5.80398303610372
30
0
41
1
10
80.3815283555322
20
6.44046673210428
30
0
41
1
10
80.4556933354777
20
6.73151379235964
30
0
41
1
10
80.6040232953688
20
7.24931451376355
30
0
41
1
10
80.6781882753143
20
7.47604959320043
30
0
41
1
10
80.8265182352053
20
7.86062096969434
30
0
41
1
10
80.9006832151507
20
8.01847344487433
30
0
41
1
10
81.0490131750418
20
8.2661061250636
30
0
41
1
10
81.1231781549873
20
8.35592767326273
30
0
41
1
10
81.2715081148783
20
8.47284876207988
30
0
41
1
10
81.3456730948238
20
8.5
30
0
41
1
10
81.4198380747694
20
8.5
30
0
0
SPLINE
5
DE
100
AcDbEntity
8
1
62
256
6
ByLayer
370
13
48
1
60
0
100
AcDbSpline
70
4
71
3
72
14
73
10
40
0
40
0
40
0
40
0
40
0.25
40
0.25
40
0.5
40
0.5
40
0.75
40
0.75
40
1
40
1
40
1
40
1
41
1
10
82.7422658597549
20
8.5
30
0
41
1
10
82.79759812217
20
8.5
30
0
41
1
10
82.8529303845853
20
8.48491083882905
30
0
41
1
10
82.9635949094157
20
8.42097911027707
30
0
41
1
10
83.0189271718309
20
8.372124456564
30
0
41
1
10
83.1295916966614
20
8.23788492651465
30
0
41
1
10
83.1849239590765
20
8.15248876492473
30
0
41
1
10
83.2955884839068
20
7.9435675541225
30
0
41
1
10
83.350920746322
20
7.82003396788133
30
0
41
1
10
83.4062530087372
20
7.67737823155034
30
0
0
SPLINE
5
DF
100
AcDbEntity
8
1
62
256
6
ByLayer
370
13
48
1
60
0
100
AcDbSpline
70
4
71
3
72
70
73
66
40
0
40
0
40
0
40
0
40
0.03125
40
0.03125
40
0.0625000000000001
40
0.0625000000000001
40
0.0937500000000001
40
0.0937500000000001
40
0.125
40
0.125
40
0.15625
40
0.15625
40
0.1875
40
0.1875
40
0.21875
40
0.21875
40
0.25
40
0.25
40
0.28125
40
0.28125
40
0.312500000000001
40
0.312500000000001
40
0.343750000000001
40
0.343750000000001
40
0.375000000000001
40
0.375000000000001
40
0.406250000000001
40
0.406250000000001
40
0.437500000000001
40
0.437500000000001
40
0.468750000000001
40
0.468750000000001
40
0.500000000000001
40
0.500000000000001
40
0.531250000000001
40
0.531250000000001
40
0.562500000000001
40
0.562500000000001
40
0.593750000000001
40
0.593750000000001
40
0.625000000000001
40
0.625000000000001
40
0.656250000000001
40
0.656250000000001
40
0.687500000000001
40
0.687500000000001
40
0.71875
40
0.71875
40
0.75
40
0.75
40
0.78125
40
0.78125
40
0.8125
40
0.8125
40
0.84375
40
0.84375
40
0.875
40
0.875
40
0.90625
40
0.90625
40
0.9375
40
0.9375
40
0.96875
40
0.96875
40
1
40
1
40
1
40
1
41
1
10
74.3
20
-1.11504327720405
30
0
41
1
10
74.3689920232027
20
-1.49452104445893
30
0
41
1
10
74.4379840464052
20
-1.87939340580138
30
0
41
1
10
74.5759680928105
20
-2.64863438893306
30
0
41
1
10
74.644960116013
20
-3.03297066624856
30
0
41
1
10
74.7829441624182
20
-3.78802835135531
30
0
41
1
10
74.8519361856207
20
-4.15870339910376
30
0
41
1
10
74.989920232026
20
-4.8727377258908
30
0
41
1
10
75.0589122552286
20
-5.21604502522612
30
0
41
1
10
75.1968963016337
20
-5.86256573841197
30
0
41
1
10
75.2658883248364
20
-6.16573330972855
30
0
41
1
10
75.4038723712416
20
-6.72163366243512
30
0
41
1
10
75.4728643944441
20
-6.97433764910096
30
0
41
1
10
75.6108484408493
20
-7.422565895259
30
0
41
1
10
75.6798404640519
20
-7.61808421263865
30
0
41
1
10
75.8178245104571
20
-7.94932933223495
30
0
41
1
10
75.8868165336597
20
-8.08507184326965
30
0
41
1
10
76.024800580065
20
-8.29812902514021
30
0
41
1
10
76.0937926032675
20
-8.3754741959882
30
0
41
1
10
76.2317766496727
20
-8.47635221646235
30
0
41
1
10
76.3007686728753
20
-8.49992125905695
30
0
41
1
10
76.4387527192805
20
-8.50007834589056
30
0
41
1
10
76.5077447424831
20
-8.47667904546392
30
0
41
1
10
76.6457287888883
20
-8.37616038379844
30
0
41
1
10
76.7147208120909
20
-8.29900480424931
30
0
41
1
10
76.8527048584961
20
-8.08633744083082
30
0
41
1
10
76.9216968816987
20
-7.95079512246852
30
0
41
1
10
77.0596809281038
20
-7.61994871521497
30
0
41
1
10
77.1286729513065
20
-7.42462885412363
30
0
41
1
10
77.2666569977116
20
-6.97678191119766
30
0
41
1
10
77.3356490209143
20
-6.72426069298695
30
0
41
1
10
77.4736330673194
20
-6.168696897703
30
0
41
1
10
77.5426250905221
20
-5.86568304466959
30
0
41
1
10
77.6806091369272
20
-5.21943031574929
30
0
41
1
10
77.7496011601298
20
-4.87623724165033
30
0
41
1
10
77.8875852065349
20
-4.16238608808135
30
0
41
1
10
77.9565772297376
20
-3.7917799882361
30
0
41
1
10
78.0945612761428
20
-3.03681438386624
30
0
41
1
10
78.1635532993454
20
-2.65250127502045
30
0
41
1
10
78.3015373457505
20
-1.88326499648429
30
0
41
1
10
78.3705293689532
20
-1.49837422638271
30
0
41
1
10
78.5085134153584
20
-0.739347714674551
30
0
41
1
10
78.577505438561
20
-0.36522736974382
30
0
41
1
10
78.7154894849662
20
0.363394940705632
30
0
41
1
10
78.7844815081687
20
0.73745655344473
30
0
41
1
10
78.9224655545739
20
1.49644760503483
30
0
41
1
10
78.9914575777765
20
1.88132918678639
30
0
41
1
10
79.1294416241818
20
2.65056785224917
30
0
41
1
10
79.1984336473844
20
3.03489256392501
30
0
41
1
10
79.3364176937896
20
3.78990424671866
30
0
41
1
10
79.4054097169922
20
4.16054483996359
30
0
41
1
10
79.5433937633974
20
4.87448761773797
30
0
41
1
10
79.6123857865999
20
5.21773782258632
30
0
41
1
10
79.7503698330052
20
5.86412457642959
30
0
41
1
10
79.8193618562077
20
6.1672153032477
30
0
41
1
10
79.9573459026129
20
6.72294740139657
30
0
41
1
10
80.0263379258155
20
6.97556001333697
30
0
41
1
10
80.1643219722207
20
7.42359762098852
30
0
41
1
10
80.2333139954233
20
7.6190167138333
30
0
41
1
10
80.3712980418285
20
7.95006247882185
30
0
41
1
10
80.4402900650311
20
8.08570489148477
30
0
41
1
10
80.5782741114363
20
8.29856715545287
30
0
41
1
10
80.6472661346388
20
8.3758175240238
30
0
41
1
10
80.785250181044
20
8.47651584872258
30
0
41
1
10
80.8542422042466
20
8.5
30
0
41
1
10
80.9232342274492
20
8.5
30
0
0
SPLINE
5
E0
100
AcDbEntity
8
1
62
256
6
ByLayer
370
13
48
1
60
0
100
AcDbSpline
70
4
71
3
72
20
73
16
40
0
40
0
40
0
40
0
40
0.249999999999998
40
0.249999999999998
40
0.374999999999998
40
0.374999999999998
40
0.499999999999998
40
0.499999999999998
40
0.624999999999999
40
0.624999999999999
40
0.749999999999999
40
0.749999999999999
40
0.875
40
0.875
40
1
40
1
40
1
40
1
41
1
10
82.2456620124349
20
8.5
30
0
41
1
10
82.3423779287934
20
8.5
30
0
41
1
10
82.4390938451519
20
8.4536992137823
30
0
41
1
10
82.5841677196897
20
8.30161451647649
30
0
41
1
10
82.632525677869
20
8.23719959061302
30
0
41
1
10
82.7292415942275
20
8.07960466981234
30
0
41
1
10
82.7775995524067
20
7.98641966057946
30
0
41
1
10
82.8743154687653
20
7.77075183783236
30
0
41
1
10
82.9226734269446
20
7.64826572509367
30
0
41
1
10
83.0193893433031
20
7.37439483481924
30
0
41
1
10
83.0677473014824
20
7.22300912655143
30
0
41
1
10
83.1644632178409
20
6.89273586327442
30
0
41
1
10
83.2128211760202
20
6.71385012433203
30
0
41
1
10
83.3095370923787
20
6.33095915447399
30
0
41
1
10
83.3578950505579
20
6.12695847303263
30
0
41
1
10
83.4062530087373
20
5.91203401532937
30
0
0
SPLINE
5
E1
100
AcDbEntity
8
1
62
256
6
ByLayer
370
13
48
1
60
0
100
AcDbSpline
70
4
71
3
72
78
73
74
40
0
40
0
40
0
40
0
40
0.0312500000000019
40
0.0312500000000019
40
0.0625000000000037
40
0.0625000000000037
40
0.0937500000000056
40
0.0937500000000056
40
0.125000000000007
40
0.125000000000007
40
0.156250000000009
40
0.156250000000009
40
0.187500000000011
40
0.187500000000011
40
0.218750000000013
40
0.218750000000013
40
0.250000000000015
40
0.250000000000015
40
0.257812500000015
40
0.257812500000015
40
0.265625000000015
40
0.265625000000015
40
0.281250000000015
40
0.281250000000015
40
0.312500000000015
40
0.312500000000015
40
0.343750000000016
40
0.343750000000016
40
0.375000000000016
40
0.375000000000016
40
0.406250000000016
40
0.406250000000016
40
0.437500000000016
40
0.437500000000016
40
0.468750000000016
40
0.468750000000016
40
0.500000000000016
40
0.500000000000016
40
0.531250000000016
40
0.531250000000016
40
0.562500000000016
40
0.562500000000016
40
0.593750000000016
40
0.593750000000016
40
0.625000000000016
40
0.625000000000016
40
0.632812500000016
40
0.632812500000016
40
0.640625000000016
40
0.640625000000016
40
0.656250000000015
40
0.656250000000015
40
0.687500000000014
40
0.687500000000014
40
0.718750000000012
40
0.718750000000012
40
0.750000000000011
40
0.750000000000011
40
0.78125000000001
40
0.78125000000001
40
0.812500000000008
40
0.812500000000008
40
0.843750000000007
40
0.843750000000007
40
0.875000000000005
40
0.875000000000005
40
0.906250000000004
40
0.906250000000004
40
0.937500000000003
40
0.937500000000003
40
0.968750000000001
40
0.968750000000001
40
1
40
1
40
1
40
1
41
1
10
74.3
20
-3.85906385724366
30
0
41
1
10
74.3638190664597
20
-4.20222000493237
30
0
41
1
10
74.4276381329194
20
-4.53716833719892
30
0
41
1
10
74.5552762658387
20
-5.17999892209176
30
0
41
1
10
74.6190953322984
20
-5.48784635046931
30
0
41
1
10
74.7467334652177
20
-6.06680684076903
30
0
41
1
10
74.8105525316774
20
-6.33789108752202
30
0
41
1
10
74.9381906645968
20
-6.83568857312048
30
0
41
1
10
75.0020097310564
20
-7.06238483400384
30
0
41
1
10
75.1296478639758
20
-7.46650864866476
30
0
41
1
10
75.1934669304355
20
-7.64393375842997
30
0
41
1
10
75.3211050633547
20
-7.94765472369184
30
0
41
1
10
75.3849241298145
20
-8.07396156375182
30
0
41
1
10
75.5125622627339
20
-8.27648675025816
30
0
41
1
10
75.5763813291936
20
-8.3527254364115
30
0
41
1
10
75.704019462113
20
-8.45856864405513
30
0
41
1
10
75.7678385285726
20
-8.48819756200038
30
0
41
1
10
75.8476123616471
20
-8.4993223529967
30
0
41
1
10
75.8635671282621
20
-8.5002561854167
30
0
41
1
10
75.895476661492
20
-8.49962483625748
30
0
41
1
10
75.9114314281069
20
-8.49805075328032
30
0
41
1
10
75.9592957279517
20
-8.48941770424372
30
0
41
1
10
75.9912052611814
20
-8.47844551173696
30
0
41
1
10
76.086933860871
20
-8.42886973960327
30
0
41
1
10
76.1507529273307
20
-8.37354957779002
30
0
41
1
10
76.27839106025
20
-8.21411730285683
30
0
41
1
10
76.3422101267097
20
-8.10998242032358
30
0
41
1
10
76.4698482596291
20
-7.85073492318642
30
0
41
1
10
76.5336673260887
20
-7.69560661695081
30
0
41
1
10
76.6613054590082
20
-7.33490037370615
30
0
41
1
10
76.7251245254678
20
-7.1293186659652
30
0
41
1
10
76.8527626583871
20
-6.67125702901066
30
0
41
1
10
76.9165817248468
20
-6.41878782956837
30
0
41
1
10
77.0442198577662
20
-5.8734284896741
30
0
41
1
10
77.1080389242259
20
-5.58056255630166
30
0
41
1
10
77.2356770571453
20
-4.96328105522221
30
0
41
1
10
77.2994961236049
20
-4.63889853197639
30
0
41
1
10
77.4271342565242
20
-3.96896936506252
30
0
41
1
10
77.4909533229839
20
-3.62345782377596
30
0
41
1
10
77.6185914559032
20
-2.92212079234844
30
0
41
1
10
77.6824105223629
20
-2.56632582106278
30
0
41
1
10
77.8100486552823
20
-1.8547278368558
30
0
41
1
10
77.873867721742
20
-1.49894622383141
30
0
41
1
10
78.0015058546613
20
-0.796342784385388
30
0
41
1
10
78.0653249211211
20
-0.449531663381009
30
0
41
1
10
78.1450987541956
20
-0.0260831299114841
30
0
41
1
10
78.1610535208105
20
0.0579264741177781
30
0
41
1
10
78.1929630540404
20
0.227554913249378
30
0
41
1
10
78.2089178206554
20
0.312861575721229
30
0
41
1
10
78.2567821205001
20
0.570107676191355
30
0
41
1
10
78.2886916537299
20
0.743377002648174
30
0
41
1
10
78.3844202534194
20
1.2671531116869
30
0
41
1
10
78.4482393198791
20
1.62168098889836
30
0
41
1
10
78.5758774527985
20
2.33286312682964
30
0
41
1
10
78.6396965192581
20
2.68949829352673
30
0
41
1
10
78.7673346521775
20
3.39484311535256
30
0
41
1
10
78.8311537186372
20
3.74352395595505
30
0
41
1
10
78.9587918515565
20
4.42215959126122
30
0
41
1
10
79.0226109180161
20
4.75207976690726
30
0
41
1
10
79.1502490509355
20
5.38261454701657
30
0
41
1
10
79.2140681173952
20
5.68319504643344
30
0
41
1
10
79.3417062503146
20
6.2457490602402
30
0
41
1
10
79.4055253167743
20
6.50769593392778
30
0
41
1
10
79.5331634496936
20
6.98589708379444
30
0
41
1
10
79.5969825161533
20
7.20213746086537
30
0
41
1
10
79.7246206490726
20
7.58468175650148
30
0
41
1
10
79.7884397155324
20
7.75098638540481
30
0
41
1
10
79.9160778484517
20
8.03245846764946
30
0
41
1
10
79.9798969149114
20
8.14763937035599
30
0
41
1
10
80.1075350478307
20
8.32848354664691
30
0
41
1
10
80.1713541142904
20
8.39416850506288
30
0
41
1
10
80.2989922472098
20
8.47991443126679
30
0
41
1
10
80.3628113136695
20
8.5
30
0
41
1
10
80.426630380129
20
8.5
30
0
0
SPLINE
5
E2
100
AcDbEntity
8
1
62
256
6
ByLayer
370
13
48
1
60
0
100
AcDbSpline
70
4
71
3
72
22
73
18
40
0
40
0
40
0
40
0
40
0.125
40
0.125
40
0.25
40
0.25
40
0.375
40
0.375
40
0.5
40
0.5
40
0.625
40
0.625
40
0.75
40
0.75
40
0.875
40
0.875
40
1
40
1
40
1
40
1
41
1
10
81.7490581651147
20
8.5
30
0
41
1
10
81.8181079502656
20
8.5
30
0
41
1
10
81.8871577354166
20
8.47647638559604
30
0
41
1
10
82.0252573057185
20
8.37560395256062
30
0
41
1
10
82.0943070908694
20
8.29821878874893
30
0
41
1
10
82.2324066611713
20
8.08498348573031
30
0
41
1
10
82.3014564463223
20
7.94910271935211
30
0
41
1
10
82.4395560166241
20
7.61748090566473
30
0
41
1
10
82.5086058017751
20
7.42172410010608
30
0
41
1
10
82.6467053720769
20
6.97293031412516
30
0
41
1
10
82.7157551572279
20
6.719899340149
30
0
41
1
10
82.8538547275298
20
6.1632816225748
30
0
41
1
10
82.9229045126807
20
5.8597238470355
30
0
41
1
10
83.0610040829825
20
5.21239443067196
30
0
41
1
10
83.1300538681335
20
4.86866886440737
30
0
41
1
10
83.2681534384354
20
4.15380841405096
30
0
41
1
10
83.3372032235864
20
3.78272572655374
30
0
41
1
10
83.4062530087373
20
3.40481209422867
30
0
0
SPLINE
5
E3
100
AcDbEntity
8
1
62
256
6
ByLayer
370
13
48
1
60
0
100
AcDbSpline
70
4
71
3
72
76
73
72
40
0
40
0
40
0
40
0
40
0.0312499999999974
40
0.0312499999999974
40
0.0624999999999949
40
0.0624999999999949
40
0.0937499999999923
40
0.0937499999999923
40
0.12499999999999
40
0.12499999999999
40
0.156249999999987
40
0.156249999999987
40
0.187499999999985
40
0.187499999999985
40
0.195312499999985
40
0.195312499999985
40
0.203124999999984
40
0.218749999999984
40
0.218749999999984
40
0.249999999999983
40
0.249999999999983
40
0.281249999999983
40
0.281249999999983
40
0.312499999999982
40
0.312499999999982
40
0.343749999999982
40
0.343749999999982
40
0.374999999999982
40
0.374999999999982
40
0.406249999999981
40
0.406249999999981
40
0.437499999999981
40
0.437499999999981
40
0.46874999999998
40
0.46874999999998
40
0.49999999999998
40
0.49999999999998
40
0.531249999999979
40
0.531249999999979
40
0.562499999999979
40
0.562499999999979
40
0.593749999999979
40
0.593749999999979
40
0.601562499999979
40
0.601562499999979
40
0.609374999999979
40
0.62499999999998
40
0.62499999999998
40
0.656249999999982
40
0.656249999999982
40
0.687499999999983
40
0.687499999999983
40
0.718749999999985
40
0.718749999999985
40
0.749999999999987
40
0.749999999999987
40
0.781249999999988
40
0.781249999999988
40
0.81249999999999
40
0.81249999999999
40
0.843749999999992
40
0.843749999999992
40
0.874999999999993
40
0.874999999999993
40
0.906249999999995
40
0.906249999999995
40
0.937499999999997
40
0.937499999999997
40
0.968749999999998
40
0.968749999999998
40
1
40
1
40
1
40
1
41
1
10
74.3000000000001
20
-6.27278087770011
30
0
41
1
10
74.3586461097168
20
-6.51748414780849
30
0
41
1
10
74.4172922194335
20
-6.74463294106803
30
0
41
1
10
74.5345844388671
20
-7.1590563786464
30
0
41
1
10
74.5932305485838
20
-7.34632471560718
30
0
41
1
10
74.7105227680174
20
-7.67829490644931
30
0
41
1
10
74.7691688777341
20
-7.82299919545756
30
0
41
1
10
74.8864610971676
20
-8.0693088599246
30
0
41
1
10
74.9451072068844
20
-8.17092397870644
30
0
41
1
10
75.0623994263179
20
-8.33249300627236
30
0
41
1
10
75.1210455360347
20
-8.39246133291115
30
0
41
1
10
75.2383377554681
20
-8.47377122065404
30
0
41
1
10
75.296983865185
20
-8.49512891572311
30
0
41
1
10
75.3702915023309
20
-8.50028523042369
30
0
41
1
10
75.3849530297601
20
-8.50025078650688
30
0
41
1
10
75.4142760846185
20
-8.49804698741025
30
0
41
1
10
75.458260666906
20
-8.49151374799214
30
0
41
1
10
75.5022452491936
20
-8.47498009324892
30
0
41
1
10
75.5902144137687
20
-8.42780374208482
30
0
41
1
10
75.6488605234855
20
-8.3775002235341
30
0
41
1
10
75.766152742919
20
-8.23586640348341
30
0
41
1
10
75.8247988526358
20
-8.14452100376855
30
0
41
1
10
75.9420910720693
20
-7.91893232832621
30
0
41
1
10
76.0007371817861
20
-7.78467791052958
30
0
41
1
10
76.1180294012196
20
-7.47328807577492
30
0
41
1
10
76.1766755109363
20
-7.29614826589605
30
0
41
1
10
76.2939677303698
20
-6.90113585000123
30
0
41
1
10
76.3526138400866
20
-6.683267398482
30
0
41
1
10
76.4699060595201
20
-6.21108640127019
30
0
41
1
10
76.5285521692369
20
-5.95678663088583
30
0
41
1
10
76.6458443886704
20
-5.41791661895678
30
0
41
1
10
76.7044904983871
20
-5.13336589761047
30
0
41
1
10
76.8217827178207
20
-4.54155900070398
30
0
41
1
10
76.8804288275374
20
-4.23432571553357
30
0
41
1
10
76.997721046971
20
-3.60545977074108
30
0
41
1
10
77.0563671566878
20
-3.28384946784638
30
0
41
1
10
77.1736593761212
20
-2.63458275924941
30
0
41
1
10
77.2323054858381
20
-2.30694482239971
30
0
41
1
10
77.3495977052716
20
-1.65339882904118
30
0
41
1
10
77.4082438149883
20
-1.32750330826735
30
0
41
1
10
77.5255360344218
20
-0.684169233246706
30
0
41
1
10
77.5841821441385
20
-0.366736764096515
30
0
41
1
10
77.6574897812845
20
0.0213943299543473
30
0
41
1
10
77.6721513087137
20
0.0987737839085128
30
0
41
1
10
77.7014743635721
20
0.254893306132914
30
0
41
1
10
77.7454589458596
20
0.490302127981948
30
0
41
1
10
77.7894435281472
20
0.729054436333058
30
0
41
1
10
77.8774126927224
20
1.20997411102178
30
0
41
1
10
77.9360588024391
20
1.53517907494936
30
0
41
1
10
78.0533510218727
20
2.18821880299382
30
0
41
1
10
78.1119971315894
20
2.51604181276633
30
0
41
1
10
78.229289351023
20
3.16665917603726
30
0
41
1
10
78.2879354607397
20
3.4894356998166
30
0
41
1
10
78.4052276801732
20
4.12165427375658
30
0
41
1
10
78.46387378989
20
4.43107427984069
30
0
41
1
10
78.5811660093235
20
5.02823353128349
30
0
41
1
10
78.6398121190402
20
5.31594974472472
30
0
41
1
10
78.7571043384738
20
5.86200445262452
30
0
41
1
10
78.8157504481906
20
6.12032281922549
30
0
41
1
10
78.9330426676241
20
6.60119691707754
30
0
41
1
10
78.9916887773408
20
6.82373892131494
30
0
41
1
10
79.1089809967743
20
7.22850793063103
30
0
41
1
10
79.1676271064911
20
7.41072970368856
30
0
41
1
10
79.2849193259246
20
7.73242926086664
30
0
41
1
10
79.3435654356414
20
7.87191047130381
30
0
41
1
10
79.4608576550748
20
8.10784912255519
30
0
41
1
10
79.5195037647917
20
8.20431702649896
30
0
41
1
10
79.6367959842252
20
8.3558824110201
30
0
41
1
10
79.6954420939419
20
8.41099467157295
30
0
41
1
10
79.8127343133755
20
8.48304538829836
30
0
41
1
10
79.8713804230922
20
8.5
30
0
41
1
10
79.9300265328089
20
8.5
30
0
0
SPLINE
5
E4
100
AcDbEntity
8
1
62
256
6
ByLayer
370
13
48
1
60
0
100
AcDbSpline
70
4
71
3
72
22
73
18
40
0
40
0
40
0
40
0
40
0.125
40
0.125
40
0.25
40
0.25
40
0.375
40
0.375
40
0.5
40
0.5
40
0.625
40
0.625
40
0.75
40
0.75
40
0.875
40
0.875
40
1
40
1
40
1
40
1
41
1
10
81.2524543177946
20
8.5
30
0
41
1
10
81.3421959299172
20
8.5
30
0
41
1
10
81.4319375420398
20
8.46017454404583
30
0
41
1
10
81.611420766285
20
8.28660883483599
30
0
41
1
10
81.7011623784076
20
8.15273773096419
30
0
41
1
10
81.8806456026529
20
7.78376768029554
30
0
41
1
10
81.9703872147754
20
7.54858538895667
30
0
41
1
10
82.1498704390207
20
6.98031169770186
30
0
41
1
10
82.2396120511434
20
6.64723403422573
30
0
41
1
10
82.4190952753886
20
5.89833342060436
30
0
41
1
10
82.5088368875112
20
5.48263210944594
30
0
41
1
10
82.6883201117564
20
4.59345131374764
30
0
41
1
10
82.778061723879
20
4.12015819283295
30
0
41
1
10
82.9575449481242
20
3.14573084767545
30
0
41
1
10
83.0472865602468
20
2.64477525639435
30
0
41
1
10
83.226769784492
20
1.64416995518044
30
0
41
1
10
83.3165113966146
20
1.1446340011849
30
0
41
1
10
83.4062530087372
20
0.65764267096867
30
0
0
SPLINE
5
E5
100
AcDbEntity
8
1
62
256
6
ByLayer
370
13
48
1
60
0
100
AcDbSpline
70
4
71
3
72
78
73
74
40
0
40
0
40
0
40
0
40
0.0312500000000003
40
0.0312500000000003
40
0.0625000000000006
40
0.0625000000000006
40
0.0937500000000009
40
0.0937500000000009
40
0.109375000000001
40
0.109375000000001
40
0.117187500000001
40
0.117187500000001
40
0.125000000000001
40
0.125000000000001
40
0.156250000000001
40
0.156250000000001
40
0.187500000000001
40
0.187500000000001
40
0.218750000000002
40
0.218750000000002
40
0.250000000000002
40
0.250000000000002
40
0.281250000000002
40
0.281250000000002
40
0.312500000000003
40
0.312500000000003
40
0.343750000000003
40
0.343750000000003
40
0.375000000000003
40
0.375000000000003
40
0.406250000000004
40
0.406250000000004
40
0.437500000000004
40
0.437500000000004
40
0.468750000000004
40
0.468750000000004
40
0.500000000000004
40
0.500000000000004
40
0.531250000000005
40
0.531250000000005
40
0.546875000000004
40
0.546875000000004
40
0.554687500000004
40
0.554687500000004
40
0.562500000000004
40
0.562500000000004
40
0.593750000000003
40
0.593750000000003
40
0.625000000000003
40
0.625000000000003
40
0.656250000000003
40
0.656250000000003
40
0.687500000000003
40
0.687500000000003
40
0.718750000000002
40
0.718750000000002
40
0.750000000000002
40
0.750000000000002
40
0.781250000000002
40
0.781250000000002
40
0.812500000000002
40
0.812500000000002
40
0.843750000000001
40
0.843750000000001
40
0.875000000000001
40
0.875000000000001
40
0.906250000000001
40
0.906250000000001
40
0.937500000000001
40
0.937500000000001
40
0.96875
40
0.96875
40
1
40
1
40
1
40
1
41
1
10
74.3
20
-7.87858422624535
30
0
41
1
10
74.3534731529738
20
-7.99782471555667
30
0
41
1
10
74.4069463059477
20
-8.09914361975044
30
0
41
1
10
74.5138926118954
20
-8.26670626371779
30
0
41
1
10
74.5673657648692
20
-8.3329585058265
30
0
41
1
10
74.6743120708169
20
-8.43234749132429
30
0
41
1
10
74.7277852237908
20
-8.46549423820917
30
0
41
1
10
74.8079949532515
20
-8.49252027847706
30
0
41
1
10
74.8347315297384
20
-8.4977526489364
30
0
41
1
10
74.8748363944688
20
-8.50024737268188
30
0
41
1
10
74.8882046827123
20
-8.50019409283064
30
0
41
1
10
74.9149412591992
20
-8.49831289434954
30
0
41
1
10
74.9283095474427
20
-8.49647860105355
30
0
41
1
10
74.99515098866
20
-8.48270704469113
30
0
41
1
10
75.0486241416338
20
-8.45694411734129
30
0
41
1
10
75.1555704475815
20
-8.37292431455154
30
0
41
1
10
75.2090436005553
20
-8.31465730309975
30
0
41
1
10
75.315989906503
20
-8.16342976804515
30
0
41
1
10
75.3694630594769
20
-8.07046024867034
30
0
41
1
10
75.4764093654245
20
-7.84874362027676
30
0
41
1
10
75.5298825183984
20
-7.71999021692062
30
0
41
1
10
75.6368288243461
20
-7.42697270266029
30
0
41
1
10
75.6903019773199
20
-7.26270640376006
30
0
41
1
10
75.7972482832676
20
-6.900413305667
30
0
41
1
10
75.8507214362414
20
-6.70238928593358
30
0
41
1
10
75.9576677421891
20
-6.27580805038124
30
0
41
1
10
76.0111408951629
20
-6.04725859319063
30
0
41
1
10
76.1180872011106
20
-5.56417193493334
30
0
41
1
10
76.1715603540845
20
-5.30964654144597
30
0
41
1
10
76.2785066600321
20
-4.78017361639775
30
0
41
1
10
76.3319798130059
20
-4.50524025069694
30
0
41
1
10
76.4389261189537
20
-3.94114038128561
30
0
41
1
10
76.4923992719275
20
-3.65198835557357
30
0
41
1
10
76.5993455778753
20
-3.06582581860334
30
0
41
1
10
76.652818730849
20
-2.76882818056478
30
0
41
1
10
76.7597650367967
20
-2.17311732046267
30
0
41
1
10
76.8132381897705
20
-1.87441397636246
30
0
41
1
10
76.9201844957183
20
-1.2808567926717
30
0
41
1
10
76.9736576486922
20
-0.986009168545905
30
0
41
1
10
77.0538673781529
20
-0.550182839485785
30
0
41
1
10
77.0806039546398
20
-0.405974607036796
30
0
41
1
10
77.1207088193702
20
-0.19164089726732
30
0
41
1
10
77.1340771076136
20
-0.120525628501525
30
0
41
1
10
77.1608136841006
20
0.0209890470399046
30
0
41
1
10
77.1741819723441
20
0.0915535848315585
30
0
41
1
10
77.2410234135613
20
0.447198934471231
30
0
41
1
10
77.2944965665351
20
0.737240528990924
30
0
41
1
10
77.4014428724829
20
1.32421763523161
30
0
41
1
10
77.4549160254567
20
1.62114921423935
30
0
41
1
10
77.5618623314043
20
2.21683399756506
30
0
41
1
10
77.6153354843782
20
2.51557955356185
30
0
41
1
10
77.7222817903259
20
3.10907834095573
30
0
41
1
10
77.7757549432997
20
3.40382042846716
30
0
41
1
10
77.8827012492475
20
3.98304010619717
30
0
41
1
10
77.9361744022213
20
4.2675040095269
30
0
41
1
10
78.0431207081689
20
4.81981383944009
30
0
41
1
10
78.0965938611428
20
5.08764516365002
30
0
41
1
10
78.2035401670904
20
5.60068630081918
30
0
41
1
10
78.2570133200643
20
5.84588261731625
30
0
41
1
10
78.363959626012
20
6.30842969952556
30
0
41
1
10
78.4174327789858
20
6.52577004155097
30
0
41
1
10
78.5243790849335
20
6.92852680626817
30
0
41
1
10
78.5778522379074
20
7.1139373158353
30
0
41
1
10
78.6847985438552
20
7.45015166634801
30
0
41
1
10
78.7382716968289
20
7.60095468093417
30
0
41
1
10
78.8452180027765
20
7.86676933926577
30
0
41
1
10
78.8986911557504
20
7.98178488179462
30
0
41
1
10
79.0056374616981
20
8.17628960213864
30
0
41
1
10
79.059110614672
20
8.25578629091689
30
0
41
1
10
79.1660569206197
20
8.38079197365482
30
0
41
1
10
79.2195300735934
20
8.42631058050185
30
0
41
1
10
79.3264763795411
20
8.48590949917923
30
0
41
1
10
79.379949532515
20
8.5
30
0
41
1
10
79.4334226854888
20
8.5
30
0
0
SPLINE
5
E6
100
AcDbEntity
8
1
62
256
6
ByLayer
370
13
48
1
60
0
100
AcDbSpline
70
4
71
3
72
42
73
38
40
0
40
0
40
0
40
0
40
0.0625000000000005
40
0.0625000000000005
40
0.125000000000001
40
0.125000000000001
40
0.187500000000002
40
0.187500000000002
40
0.250000000000002
40
0.250000000000002
40
0.312500000000003
40
0.312500000000003
40
0.375000000000003
40
0.375000000000003
40
0.437500000000004
40
0.437500000000004
40
0.500000000000004
40
0.500000000000004
40
0.562500000000005
40
0.562500000000005
40
0.625000000000006
40
0.625000000000006
40
0.687500000000006
40
0.687500000000006
40
0.750000000000007
40
0.750000000000007
40
0.812500000000007
40
0.812500000000007
40
0.843750000000007
40
0.843750000000007
40
0.859375000000007
40
0.859375000000007
40
0.875000000000007
40
0.875000000000007
40
0.937500000000003
40
0.937500000000003
40
1
40
1
40
1
40
1
41
1
10
80.7558504704745
20
8.5
30
0
41
1
10
80.8110671900216
20
8.5
30
0
41
1
10
80.8662839095687
20
8.48497390757564
30
0
41
1
10
80.976717348663
20
8.42131610066491
30
0
41
1
10
81.0319340682101
20
8.37267242536598
30
0
41
1
10
81.1423675073044
20
8.23901693631157
30
0
41
1
10
81.1975842268516
20
8.15399394705346
30
0
41
1
10
81.3080176659459
20
7.94598425345765
30
0
41
1
10
81.363234385493
20
7.82298907730558
30
0
41
1
10
81.4736678245873
20
7.53890873658045
30
0
41
1
10
81.5288845441344
20
7.37781966335311
30
0
41
1
10
81.6393179832287
20
7.01908720884688
30
0
41
1
10
81.6945347027759
20
6.82144577114303
30
0
41
1
10
81.8049681418701
20
6.39283990690677
30
0
41
1
10
81.8601848614172
20
6.16188354390539
30
0
41
1
10
81.9706183005115
20
5.6714245660207
30
0
41
1
10
82.0258350200587
20
5.41193518515308
30
0
41
1
10
82.136268459153
20
4.8704079956477
30
0
41
1
10
82.1914851787001
20
4.58838659858111
30
0
41
1
10
82.3019186177944
20
4.00856102883529
30
0
41
1
10
82.3571353373416
20
3.71077391099925
30
0
41
1
10
82.4675687764358
20
3.10643829479957
30
0
41
1
10
82.5227854959829
20
2.79990506195315
30
0
41
1
10
82.6332189350772
20
2.18486045978915
30
0
41
1
10
82.6884356546244
20
1.87636078177769
30
0
41
1
10
82.7988690937187
20
1.26351786834667
30
0
41
1
10
82.8540858132658
20
0.959181892121137
30
0
41
1
10
82.9369108925865
20
0.5096946710417
30
0
41
1
10
82.9645192523601
20
0.361027095428597
30
0
41
1
10
83.0059317920205
20
0.140179037053741
30
0
41
1
10
83.0197359719073
20
0.0669618927700526
30
0
41
1
10
83.0473443316808
20
-0.0788592626336708
30
0
41
1
10
83.0611485115676
20
-0.152157558554933
30
0
41
1
10
83.1301694110016
20
-0.520432023302874
30
0
41
1
10
83.1853861305487
20
-0.820799674448352
30
0
41
1
10
83.295819569643
20
-1.42835977412548
30
0
41
1
10
83.3510362891901
20
-1.73554715083608
30
0
41
1
10
83.4062530087373
20
-2.04329794152792
30
0
0
SPLINE
5
E7
100
AcDbEntity
8
1
62
256
6
ByLayer
370
13
48
1
60
0
100
AcDbSpline
70
4
71
3
72
74
73
70
40
0
40
0
40
0
40
0
40
0.0156250000000001
40
0.0156250000000001
40
0.0234375000000001
40
0.0234375000000001
40
0.0312500000000002
40
0.0312500000000002
40
0.0625000000000004
40
0.0625000000000004
40
0.0937500000000006
40
0.0937500000000006
40
0.125000000000001
40
0.125000000000001
40
0.156250000000001
40
0.156250000000001
40
0.187500000000001
40
0.187500000000001
40
0.218750000000001
40
0.218750000000001
40
0.250000000000001
40
0.250000000000001
40
0.281250000000002
40
0.281250000000002
40
0.312500000000002
40
0.312500000000002
40
0.343750000000002
40
0.343750000000002
40
0.375000000000002
40
0.375000000000002
40
0.406250000000002
40
0.406250000000002
40
0.437500000000003
40
0.437500000000003
40
0.500000000000003
40
0.500000000000003
40
0.507812500000003
40
0.507812500000003
40
0.515625000000003
40
0.515625000000003
40
0.531250000000003
40
0.531250000000003
40
0.562500000000002
40
0.562500000000002
40
0.593750000000002
40
0.593750000000002
40
0.625000000000002
40
0.625000000000002
40
0.656250000000002
40
0.656250000000002
40
0.687500000000002
40
0.687500000000002
40
0.718750000000001
40
0.718750000000001
40
0.750000000000001
40
0.750000000000001
40
0.781250000000001
40
0.781250000000001
40
0.812500000000001
40
0.812500000000001
40
0.843750000000001
40
0.843750000000001
40
0.875000000000001
40
0.875000000000001
40
0.906250000000001
40
0.906250000000001
40
0.9375
40
0.9375
40
1
40
1
40
1
40
1
41
1
10
74.3
20
-8.48826901971674
30
0
41
1
10
74.3241500981155
20
-8.49510812607915
30
0
41
1
10
74.348300196231
20
-8.4988977317789
30
0
41
1
10
74.3845253434041
20
-8.50023932210064
30
0
41
1
10
74.3966003924619
20
-8.49996880073053
30
0
41
1
10
74.4207504905773
20
-8.49797079511848
30
0
41
1
10
74.4328255396351
20
-8.49624064034143
30
0
41
1
10
74.4932007849237
20
-8.48383726004215
30
0
41
1
10
74.5415009811546
20
-8.4618896529845
30
0
41
1
10
74.6381013736165
20
-8.39170667062848
30
0
41
1
10
74.6864015698474
20
-8.34346517430251
30
0
41
1
10
74.7830019623093
20
-8.21897252295491
30
0
41
1
10
74.8313021585401
20
-8.14271574477016
30
0
41
1
10
74.927902551002
20
-7.96117752660422
30
0
41
1
10
74.9762027472329
20
-7.85589172505752
30
0
41
1
10
75.0728031396948
20
-7.61614014223761
30
0
41
1
10
75.1211033359258
20
-7.48167199683451
30
0
41
1
10
75.2177037283876
20
-7.18436374997046
30
0
41
1
10
75.2660039246185
20
-7.02152383373897
30
0
41
1
10
75.3626043170804
20
-6.66927799052164
30
0
41
1
10
75.4109045133112
20
-6.47987502187249
30
0
41
1
10
75.5075049057731
20
-6.07726028302383
30
0
41
1
10
75.5558051020041
20
-5.86405405432822
30
0
41
1
10
75.6524054944659
20
-5.41741261187545
30
0
41
1
10
75.7007056906969
20
-5.18398492717967
30
0
41
1
10
75.7973060831587
20
-4.70110425575695
30
0
41
1
10
75.8456062793896
20
-4.4516598916035
30
0
41
1
10
75.9422066718514
20
-3.94132743604027
30
0
41
1
10
75.9905068680824
20
-3.68044804601035
30
0
41
1
10
76.0871072605443
20
-3.15194116454225
30
0
41
1
10
76.1354074567752
20
-2.88432151372672
30
0
41
1
10
76.232007849237
20
-2.3468921464181
30
0
41
1
10
76.2803080454679
20
-2.0770887041466
30
0
41
1
10
76.4252086341606
20
-1.27070264326403
30
0
41
1
10
76.5218090266225
20
-0.737462883660413
30
0
41
1
10
76.6304844681421
20
-0.157697832284271
30
0
41
1
10
76.6425595171997
20
-0.0935527291948404
30
0
41
1
10
76.6667096153153
20
0.0341492109819512
30
0
41
1
10
76.678784664373
20
0.0979746003102377
30
0
41
1
10
76.7150098115462
20
0.290714858470807
30
0
41
1
10
76.7391599096617
20
0.420329060270376
30
0
41
1
10
76.8116102040081
20
0.8119959338851
30
0
41
1
10
76.859910400239
20
1.0768920196308
30
0
41
1
10
76.9565107927009
20
1.61091066212279
30
0
41
1
10
77.0048109889318
20
1.88003007392146
30
0
41
1
10
77.1014113813935
20
2.41857318302414
30
0
41
1
10
77.1497115776244
20
2.6879917084938
30
0
41
1
10
77.2463119700864
20
3.2227589358973
30
0
41
1
10
77.2946121663173
20
3.48810063537198
30
0
41
1
10
77.3912125587792
20
4.01007188038747
30
0
41
1
10
77.4395127550101
20
4.26669311923396
30
0
41
1
10
77.5361131474718
20
4.7665449076664
30
0
41
1
10
77.5844133437028
20
5.00976666593172
30
0
41
1
10
77.6810137361647
20
5.47836466764545
30
0
41
1
10
77.7293139323956
20
5.70373262908387
30
0
41
1
10
77.8259143248575
20
6.13265199204295
30
0
41
1
10
77.8742145210883
20
6.33619660878537
30
0
41
1
10
77.9708149135502
20
6.71821177341255
30
0
41
1
10
78.0191151097811
20
6.89667782035971
30
0
41
1
10
78.115715502243
20
7.22616394858241
30
0
41
1
10
78.1640156984739
20
7.37718224464038
30
0
41
1
10
78.2606160909356
20
7.65038217445266
30
0
41
1
10
78.3089162871667
20
7.77256474895773
30
0
41
1
10
78.4055166796285
20
7.98769604328538
30
0
41
1
10
78.4538168758595
20
8.08064805259895
30
0
41
1
10
78.5504172683213
20
8.23784927846168
30
0
41
1
10
78.5987174645522
20
8.3021034842717
30
0
41
1
10
78.7436180532449
20
8.45381053525472
30
0
41
1
10
78.8402184457068
20
8.5
30
0
41
1
10
78.9368188381687
20
8.5
30
0
0
SPLINE
5
E8
100
AcDbEntity
8
1
62
256
6
ByLayer
370
13
48
1
60
0
100
AcDbSpline
70
4
71
3
72
42
73
38
40
0
40
0
40
0
40
0
40
0.0624999999999991
40
0.0624999999999991
40
0.124999999999998
40
0.124999999999998
40
0.187499999999997
40
0.187499999999997
40
0.249999999999996
40
0.249999999999996
40
0.312499999999995
40
0.312499999999995
40
0.374999999999994
40
0.374999999999994
40
0.437499999999993
40
0.437499999999993
40
0.499999999999993
40
0.499999999999993
40
0.562499999999992
40
0.562499999999992
40
0.624999999999991
40
0.624999999999991
40
0.68749999999999
40
0.68749999999999
40
0.718749999999989
40
0.718749999999989
40
0.734374999999989
40
0.734374999999989
40
0.74999999999999
40
0.74999999999999
40
0.812499999999992
40
0.812499999999992
40
0.874999999999995
40
0.874999999999995
40
0.937499999999997
40
0.937499999999997
40
1
40
1
40
1
40
1
41
1
10
80.2592466231542
20
8.5
30
0
41
1
10
80.3248092561872
20
8.5
30
0
41
1
10
80.3903718892202
20
8.47879886681707
30
0
41
1
10
80.5214971552862
20
8.38815429994739
30
0
41
1
10
80.5870597883192
20
8.31868274522716
30
0
41
1
10
80.7181850543851
20
8.12735358600858
30
0
41
1
10
80.7837476874181
20
8.00547154144815
30
0
41
1
10
80.9148729534841
20
7.7077380473815
30
0
41
1
10
80.9804355865172
20
7.5318722507416
30
0
41
1
10
81.111560852583
20
7.1277550289638
30
0
41
1
10
81.177123485616
20
6.89950458967655
30
0
41
1
10
81.308248751682
20
6.39558739818182
30
0
41
1
10
81.3738113847149
20
6.11993876000295
30
0
41
1
10
81.5049366507809
20
5.52929620174962
30
0
41
1
10
81.5704992838138
20
5.21433464387334
30
0
41
1
10
81.7016245498798
20
4.55546607173142
30
0
41
1
10
81.7671871829128
20
4.21159880276912
30
0
41
1
10
81.8983124489788
20
3.50653625638793
30
0
41
1
10
81.9638750820117
20
3.14537966784414
30
0
41
1
10
82.0950003480776
20
2.41736419419354
30
0
41
1
10
82.1605629811106
20
2.05053582019363
30
0
41
1
10
82.2916882471766
20
1.32174750833977
30
0
41
1
10
82.3572508802097
20
0.959806056461559
30
0
41
1
10
82.4555948297591
20
0.427122206932665
30
0
41
1
10
82.4883761462756
20
0.251249913927211
30
0
41
1
10
82.5375481210503
20
-0.0093556618715525
30
0
41
1
10
82.5539387793085
20
-0.0957734500541392
30
0
41
1
10
82.5867200958251
20
-0.270353896468038
30
0
41
1
10
82.6031107540833
20
-0.358155706034381
30
0
41
1
10
82.6850640453745
20
-0.799445825360692
30
0
41
1
10
82.7506266784074
20
-1.15985928041795
30
0
41
1
10
82.8817519444734
20
-1.88702178220933
30
0
41
1
10
82.9473145775064
20
-2.25375423405998
30
0
41
1
10
83.0784398435724
20
-2.98323865474555
30
0
41
1
10
83.1440024766054
20
-3.34596175205095
30
0
41
1
10
83.2751277426713
20
-4.0559157748811
30
0
41
1
10
83.3406903757043
20
-4.40310884333925
30
0
41
1
10
83.4062530087373
20
-4.73671092200351
30
0
0
SPLINE
5
E9
100
AcDbEntity
8
1
62
256
6
ByLayer
370
13
48
1
60
0
100
AcDbSpline
70
4
71
3
72
44
73
40
40
0
40
0
40
0
40
0
40
0.0624999999999995
40
0.0624999999999995
40
0.124999999999999
40
0.124999999999999
40
0.187499999999999
40
0.187499999999999
40
0.249999999999998
40
0.249999999999998
40
0.312499999999997
40
0.312499999999997
40
0.374999999999996
40
0.374999999999996
40
0.437499999999995
40
0.437499999999995
40
0.445312499999996
40
0.445312499999996
40
0.453124999999996
40
0.453124999999996
40
0.468749999999996
40
0.468749999999996
40
0.499999999999996
40
0.499999999999996
40
0.562499999999996
40
0.562499999999996
40
0.624999999999997
40
0.624999999999997
40
0.687499999999997
40
0.687499999999997
40
0.749999999999998
40
0.749999999999998
40
0.812499999999998
40
0.812499999999998
40
0.874999999999999
40
0.874999999999999
40
0.937499999999999
40
0.937499999999999
40
1
40
1
40
1
40
1
41
1
10
74.3
20
-8.19373914981622
30
0
41
1
10
74.386254478976
20
-8.06104325079178
30
0
41
1
10
74.4725089579521
20
-7.88256363941537
30
0
41
1
10
74.6450179159041
20
-7.43230682292409
30
0
41
1
10
74.7312723948801
20
-7.16049681427469
30
0
41
1
10
74.9037813528321
20
-6.53156947313599
30
0
41
1
10
74.9900358318081
20
-6.17450545098404
30
0
41
1
10
75.1625447897602
20
-5.39273062274742
30
0
41
1
10
75.2487992687362
20
-4.96814840347147
30
0
41
1
10
75.4213082266882
20
-4.07585683709584
30
0
41
1
10
75.5075627056642
20
-3.60830525952059
30
0
41
1
10
75.6800716636162
20
-2.65695680746134
30
0
41
1
10
75.7663261425922
20
-2.17329225191728
30
0
41
1
10
75.9388351005443
20
-1.21440794520814
30
0
41
1
10
76.0250895795202
20
-0.739261379215435
30
0
41
1
10
76.1221258683682
20
-0.220336013134954
30
0
41
1
10
76.1329076782403
20
-0.162890464268827
30
0
41
1
10
76.1544712979843
20
-0.0484553906545102
30
0
41
1
10
76.1652531078563
20
0.0083796979468502
30
0
41
1
10
76.1975985374723
20
0.179709416882361
30
0
41
1
10
76.2191621572163
20
0.294855852179864
30
0
41
1
10
76.2838530164483
20
0.642705387606554
30
0
41
1
10
76.3269802559363
20
0.877831177871457
30
0
41
1
10
76.4563619744004
20
1.58947123241293
30
0
41
1
10
76.5426164533764
20
2.07240535254132
30
0
41
1
10
76.7151254113284
20
3.03271656967712
30
0
41
1
10
76.8013798903044
20
3.50998299584362
30
0
41
1
10
76.9738888482565
20
4.4325530565655
30
0
41
1
10
77.0601433272324
20
4.87770329356985
30
0
41
1
10
77.2326522851844
20
5.70997016419037
30
0
41
1
10
77.3189067641604
20
6.09693961422389
30
0
41
1
10
77.4914157221124
20
6.79182624699612
30
0
41
1
10
77.5776702010885
20
7.09965602332286
30
0
41
1
10
77.7501791590405
20
7.62401019173177
30
0
41
1
10
77.8364336380164
20
7.84053395066584
30
0
41
1
10
78.0089425959685
20
8.18017620843244
30
0
41
1
10
78.0951970749445
20
8.30336793596527
30
0
41
1
10
78.2677060328965
20
8.46322580246076
30
0
41
1
10
78.3539605118725
20
8.5
30
0
41
1
10
78.4402149908485
20
8.5
30
0
0
SPLINE
5
EA
100
AcDbEntity
8
1
62
256
6
ByLayer
370
13
48
1
60
0
100
AcDbSpline
70
4
71
3
72
38
73
34
40
0
40
0
40
0
40
0
40
0.0625
40
0.0625
40
0.125
40
0.125
40
0.1875
40
0.1875
40
0.25
40
0.25
40
0.3125
40
0.3125
40
0.375
40
0.375
40
0.4375
40
0.4375
40
0.5
40
0.5
40
0.5625
40
0.5625
40
0.625
40
0.625
40
0.6875
40
0.6875
40
0.75
40
0.75
40
0.8125
40
0.8125
40
0.875
40
0.875
40
0.9375
40
0.9375
40
1
40
1
40
1
40
1
41
1
10
79.7626427758341
20
8.5
30
0
41
1
10
79.8385513223529
20
8.5
30
0
41
1
10
79.9144598688719
20
8.47155208389194
30
0
41
1
10
80.0662769619095
20
8.34887457205579
30
0
41
1
10
80.1421855084282
20
8.25458702767489
30
0
41
1
10
80.2940026014658
20
7.99461345600309
30
0
41
1
10
80.3699111479847
20
7.82888200194893
30
0
41
1
10
80.5217282410223
20
7.42539892997507
30
0
41
1
10
80.5976367875411
20
7.18763168218408
30
0
41
1
10
80.7494538805788
20
6.64543082639764
30
0
41
1
10
80.8253624270976
20
6.34102189224444
30
0
41
1
10
80.9771795201352
20
5.67676098886741
30
0
41
1
10
81.0530880666541
20
5.31697084801792
30
0
41
1
10
81.2049051596917
20
4.55771563501671
30
0
41
1
10
81.2808137062104
20
4.15833258373419
30
0
41
1
10
81.432630799248
20
3.33797030210332
30
0
41
1
10
81.5085393457669
20
2.91707014749716
30
0
41
1
10
81.6603564388045
20
2.07155635304932
30
0
41
1
10
81.7362649853234
20
1.64699998438107
30
0
41
1
10
81.888082078361
20
0.809750412151686
30
0
41
1
10
81.9639906248798
20
0.397226988299394
30
0
41
1
10
82.1158077179174
20
-0.404547576684479
30
0
41
1
10
82.1917162644362
20
-0.817325879518336
30
0
41
1
10
82.3435333574739
20
-1.65471615007508
30
0
41
1
10
82.4194419039927
20
-2.07930047715732
30
0
41
1
10
82.5712589970303
20
-2.92476686526501
30
0
41
1
10
82.6471675435491
20
-3.34559148589616
30
0
41
1
10
82.7989846365867
20
-4.16569094312104
30
0
41
1
10
82.8748931831055
20
-4.56488662000231
30
0
41
1
10
83.0267102761431
20
-5.32366144604825
30
0
41
1
10
83.102618822662
20
-5.68315862806952
30
0
41
1
10
83.2544359156997
20
-6.34674925952001
30
0
41
1
10
83.3303444622184
20
-6.65078106688716
30
0
41
1
10
83.4062530087372
20
-6.9214785718672
30
0
0
SPLINE
5
EB
100
AcDbEntity
8
1
62
256
6
ByLayer
370
13
48
1
60
0
100
AcDbSpline
70
4
71
3
72
38
73
34
40
0
40
0
40
0
40
0
40
0.0625000000000002
40
0.0625000000000002
40
0.125
40
0.125
40
0.187500000000001
40
0.187500000000001
40
0.250000000000001
40
0.250000000000001
40
0.3125
40
0.3125
40
0.375
40
0.375
40
0.4375
40
0.4375
40
0.5
40
0.5
40
0.5625
40
0.5625
40
0.625
40
0.625
40
0.6875
40
0.6875
40
0.75
40
0.75
40
0.8125
40
0.8125
40
0.875
40
0.875
40
0.9375
40
0.9375
40
1
40
1
40
1
40
1
41
1
10
74.3
20
-6.92148181924691
30
0
41
1
10
74.3759085654902
20
-6.65078451138743
30
0
41
1
10
74.4518171309804
20
-6.34675286746202
30
0
41
1
10
74.6036342619607
20
-5.6831624832474
30
0
41
1
10
74.6795428274509
20
-5.32366538498192
30
0
41
1
10
74.8313599584312
20
-4.56489064577775
30
0
41
1
10
74.9072685239214
20
-4.16569497205322
30
0
41
1
10
75.0590856549018
20
-3.34559545049913
30
0
41
1
10
75.1349942203919
20
-2.92477076252516
30
0
41
1
10
75.2868113513723
20
-2.07930418677842
30
0
41
1
10
75.3627199168625
20
-1.65471973955488
30
0
41
1
10
75.5145370478429
20
-0.817329196405694
30
0
41
1
10
75.590445613333
20
-0.404550741237671
30
0
41
1
10
75.7422627443133
20
0.397224141373272
30
0
41
1
10
75.8181713098035
20
0.809747508758619
30
0
41
1
10
75.9699884407839
20
1.6469972380599
30
0
41
1
10
76.045897006274
20
2.07155370394048
30
0
41
1
10
76.1977141372544
20
2.91706772506734
30
0
41
1
10
76.2736227027445
20
3.3379680091245
30
0
41
1
10
76.4254398337249
20
4.15833057112178
30
0
41
1
10
76.5013483992151
20
4.55771377324564
30
0
41
1
10
76.6531655301955
20
5.31696929418024
30
0
41
1
10
76.7290740956856
20
5.67675959200676
30
0
41
1
10
76.880891226666
20
6.34102079888467
30
0
41
1
10
76.9567997921561
20
6.64542987944674
30
0
41
1
10
77.1086169231365
20
7.18763100302732
30
0
41
1
10
77.1845254886267
20
7.42539837213161
30
0
41
1
10
77.336342619607
20
7.8288816522317
30
0
41
1
10
77.4122511850972
20
7.99461319309049
30
0
41
1
10
77.5640683160776
20
8.25458690074581
30
0
41
1
10
77.6399768815677
20
8.34887449435124
30
0
41
1
10
77.791794012548
20
8.47155206961637
30
0
41
1
10
77.8677025780382
20
8.5
30
0
41
1
10
77.9436111435284
20
8.5
30
0
0
SPLINE
5
EC
100
AcDbEntity
8
1
62
256
6
ByLayer
370
13
48
1
60
0
100
AcDbSpline
70
4
71
3
72
44
73
40
40
0
40
0
40
0
40
0
40
0.0625
40
0.0625
40
0.125
40
0.125
40
0.1875
40
0.1875
40
0.25
40
0.25
40
0.3125
40
0.3125
40
0.375
40
0.375
40
0.4375
40
0.4375
40
0.5
40
0.5
40
0.53125
40
0.53125
40
0.546875
40
0.546875
40
0.5546875
40
0.5546875
40
0.5625
40
0.5625
40
0.625
40
0.625
40
0.6875
40
0.6875
40
0.75
40
0.75
40
0.8125
40
0.8125
40
0.875
40
0.875
40
0.9375
40
0.9375
40
1
40
1
40
1
40
1
41
1
10
79.266038928514
20
8.5
30
0
41
1
10
79.3522933885187
20
8.5
30
0
41
1
10
79.4385478485233
20
8.46322581872391
30
0
41
1
10
79.6110567685326
20
8.30336802518258
30
0
41
1
10
79.6973112285373
20
8.18017635445574
30
0
41
1
10
79.8698201485466
20
7.84053425286103
30
0
41
1
10
79.9560746085511
20
7.62401059334761
30
0
41
1
10
80.1285835285604
20
7.09965665967511
30
0
41
1
10
80.2148379885651
20
6.791827018606
30
0
41
1
10
80.3873469085744
20
6.0969406766674
30
0
41
1
10
80.4736013685791
20
5.70997138204422
30
0
41
1
10
80.6461102885885
20
4.87770482152703
30
0
41
1
10
80.7323647485931
20
4.43255473901652
30
0
41
1
10
80.9048736686024
20
3.5099849658794
30
0
41
1
10
80.991128128607
20
3.03271867266477
30
0
41
1
10
81.1636370486164
20
2.07240768511008
30
0
41
1
10
81.249891508621
20
1.58947366158003
30
0
41
1
10
81.3792731986281
20
0.877833719831671
30
0
41
1
10
81.4224004286303
20
0.642707961881484
30
0
41
1
10
81.4870912736338
20
0.29485846696312
30
0
41
1
10
81.508654888635
20
0.179712043844745
30
0
41
1
10
81.5410003111367
20
0.0083823412177537
30
0
41
1
10
81.5517821186373
20
-0.0484527297984414
30
0
41
1
10
81.5733457336384
20
-0.162887764004665
30
0
41
1
10
81.584127541139
20
-0.220333293297301
30
0
41
1
10
81.6811638086443
20
-0.739258484595297
30
0
41
1
10
81.7674182686488
20
-1.21440490489624
30
0
41
1
10
81.9399271886581
20
-2.17328896513538
30
0
41
1
10
82.0261816486628
20
-2.65695342012506
30
0
41
1
10
82.1986905686722
20
-3.6083017417503
30
0
41
1
10
82.2849450286768
20
-4.07585328970549
30
0
41
1
10
82.4574539486861
20
-4.96814488563422
30
0
41
1
10
82.5437084086907
20
-5.39272716425444
30
0
41
1
10
82.7162173287001
20
-6.17450220348229
30
0
41
1
10
82.8024717887047
20
-6.53156637726019
30
0
41
1
10
82.974980708714
20
-7.16049410027591
30
0
41
1
10
83.0612351687187
20
-7.4323043389646
30
0
41
1
10
83.2337440887279
20
-7.88256166691582
30
0
41
1
10
83.3199985487326
20
-8.06104155942057
30
0
41
1
10
83.4062530087373
20
-8.19373774888737
30
0
0
SPLINE
5
ED
100
AcDbEntity
8
1
62
256
6
ByLayer
370
13
48
1
60
0
100
AcDbSpline
70
4
71
3
72
42
73
38
40
0
40
0
40
0
40
0
40
0.0624999999999988
40
0.0624999999999988
40
0.124999999999998
40
0.124999999999998
40
0.187499999999996
40
0.187499999999996
40
0.249999999999995
40
0.249999999999995
40
0.265624999999995
40
0.265624999999995
40
0.281249999999994
40
0.281249999999994
40
0.312499999999994
40
0.312499999999994
40
0.374999999999994
40
0.374999999999994
40
0.437499999999995
40
0.437499999999995
40
0.499999999999995
40
0.499999999999995
40
0.562499999999996
40
0.562499999999996
40
0.624999999999997
40
0.624999999999997
40
0.687499999999997
40
0.687499999999997
40
0.749999999999998
40
0.749999999999998
40
0.812499999999998
40
0.812499999999998
40
0.874999999999999
40
0.874999999999999
40
0.937499999999999
40
0.937499999999999
40
1
40
1
40
1
40
1
41
1
10
74.3
20
-4.73671555553358
30
0
41
1
10
74.3655626520043
20
-4.40311350597565
30
0
41
1
10
74.4311253040087
20
-4.05592043239957
30
0
41
1
10
74.5622506080174
20
-3.34596633906128
30
0
41
1
10
74.6278132600217
20
-2.98324317644679
30
0
41
1
10
74.7589385640304
20
-2.25375857794347
30
0
41
1
10
74.8245012160347
20
-1.88702601367149
30
0
41
1
10
74.9556265200434
20
-1.15986325508177
30
0
41
1
10
75.0211891720477
20
-0.799449655719229
30
0
41
1
10
75.1031424870531
20
-0.358159345384564
30
0
41
1
10
75.1195331500543
20
-0.270357497081818
30
0
41
1
10
75.1523144760565
20
-0.0957769723400759
30
0
41
1
10
75.1687051390575
20
-0.0093591416700463
30
0
41
1
10
75.2178771280608
20
0.251246467020593
30
0
41
1
10
75.2506584540629
20
0.427118785933857
30
0
41
1
10
75.3490024320694
20
0.959802725307441
30
0
41
1
10
75.4145650840738
20
1.32174425335441
30
0
41
1
10
75.5456903880824
20
2.05053274866128
30
0
41
1
10
75.6112530400868
20
2.41736122995548
30
0
41
1
10
75.7423783440954
20
3.14537694425405
30
0
41
1
10
75.8079409960998
20
3.50653366613545
30
0
41
1
10
75.9390663001085
20
4.21159649657531
30
0
41
1
10
76.0046289521128
20
4.55546391621453
30
0
41
1
10
76.1357542561215
20
5.2143327957024
30
0
41
1
10
76.2013169081259
20
5.52929451018395
30
0
41
1
10
76.3324422121345
20
6.11993737519288
30
0
41
1
10
76.3980048641388
20
6.39558616345573
30
0
41
1
10
76.5291301681476
20
6.89950363718208
30
0
41
1
10
76.5946928201519
20
7.12775420856696
30
0
41
1
10
76.7258181241605
20
7.53187166790235
30
0
41
1
10
76.7913807761649
20
7.70773756998113
30
0
41
1
10
76.9225060801735
20
8.0054712434725
30
0
41
1
10
76.9880687321779
20
8.12735336202798
30
0
41
1
10
77.1191940361866
20
8.31868263702697
30
0
41
1
10
77.1847566881909
20
8.38815423356371
30
0
41
1
10
77.3158819921996
20
8.47879885451334
30
0
41
1
10
77.3814446442039
20
8.5
30
0
41
1
10
77.4470072962083
20
8.5
30
0
0
SPLINE
5
EE
100
AcDbEntity
8
1
62
256
6
ByLayer
370
13
48
1
60
0
100
AcDbSpline
70
4
71
3
72
74
73
70
40
0
40
0
40
0
40
0
40
0.0625000000000002
40
0.0625000000000002
40
0.0937499999999999
40
0.0937499999999999
40
0.125
40
0.125
40
0.15625
40
0.15625
40
0.187499999999999
40
0.187499999999999
40
0.218749999999999
40
0.218749999999999
40
0.249999999999999
40
0.249999999999999
40
0.281249999999999
40
0.281249999999999
40
0.312499999999998
40
0.312499999999998
40
0.343749999999998
40
0.343749999999998
40
0.374999999999998
40
0.374999999999998
40
0.406249999999998
40
0.406249999999998
40
0.437499999999997
40
0.437499999999997
40
0.468749999999997
40
0.468749999999997
40
0.484374999999997
40
0.484374999999997
40
0.492187499999997
40
0.492187499999997
40
0.499999999999998
40
0.499999999999998
40
0.562499999999998
40
0.562499999999998
40
0.593749999999999
40
0.593749999999999
40
0.624999999999999
40
0.624999999999999
40
0.656249999999999
40
0.656249999999999
40
0.687499999999999
40
0.687499999999999
40
0.718749999999999
40
0.718749999999999
40
0.75
40
0.75
40
0.78125
40
0.78125
40
0.8125
40
0.8125
40
0.84375
40
0.84375
40
0.875
40
0.875
40
0.906250000000001
40
0.906250000000001
40
0.937500000000001
40
0.937500000000001
40
0.968750000000001
40
0.968750000000001
40
0.976562500000001
40
0.976562500000001
40
0.984375
40
0.984375
40
1
40
1
40
1
40
1
41
1
10
78.7694350811939
20
8.5
30
0
41
1
10
78.8660354546844
20
8.5
30
0
41
1
10
78.9626358281749
20
8.45381055352468
30
0
41
1
10
79.1075363884106
20
8.30210356451798
30
0
41
1
10
79.1558365751558
20
8.23784938508393
30
0
41
1
10
79.2524369486464
20
8.08064822383153
30
0
41
1
10
79.3007371353916
20
7.98769625275642
30
0
41
1
10
79.3973375088821
20
7.77256504648253
30
0
41
1
10
79.4456376956273
20
7.65038252179434
30
0
41
1
10
79.5422380691178
20
7.37718270210505
30
0
41
1
10
79.5905382558631
20
7.22616446635149
30
0
41
1
10
79.6871386293535
20
6.8966784673311
30
0
41
1
10
79.7354388160988
20
6.71821248927679
30
0
41
1
10
79.8320391895892
20
6.33619746842487
30
0
41
1
10
79.8803393763345
20
6.13265292655694
30
0
41
1
10
79.976939749825
20
5.70373371622208
30
0
41
1
10
80.0252399365702
20
5.47836583252359
30
0
41
1
10
80.1218403100607
20
5.00976798580953
30
0
41
1
10
80.1701404968059
20
4.76654630479399
30
0
41
1
10
80.2667408702964
20
4.26669466708444
30
0
41
1
10
80.3150410570418
20
4.01007350170252
30
0
41
1
10
80.4116414305322
20
3.48810239688623
30
0
41
1
10
80.4599416172774
20
3.22276076414011
30
0
41
1
10
80.5565419907679
20
2.68799366107842
30
0
41
1
10
80.6048421775131
20
2.41857519321906
30
0
41
1
10
80.7014425510035
20
1.88003218854331
30
0
41
1
10
80.7497427377489
20
1.61091282356136
30
0
41
1
10
80.8463431112394
20
1.07689426298316
30
0
41
1
10
80.8946432979847
20
0.81199821233696
30
0
41
1
10
80.9670935781025
20
0.420331382421835
30
0
41
1
10
80.9912436714751
20
0.290717193702477
30
0
41
1
10
81.0274688115341
20
0.097976952956401
30
0
41
1
10
81.0395438582203
20
0.0341515611692955
30
0
41
1
10
81.0636939515929
20
-0.0935503393766339
30
0
41
1
10
81.0757689982792
20
-0.157695422785679
30
0
41
1
10
81.1844444184561
20
-0.737460298508466
30
0
41
1
10
81.2810447919466
20
-1.27069991223627
30
0
41
1
10
81.4259453521823
20
-2.0770857937722
30
0
41
1
10
81.4742455389276
20
-2.3468891828791
30
0
41
1
10
81.570845912418
20
-2.8843184611548
30
0
41
1
10
81.6191460991632
20
-3.15193807611493
30
0
41
1
10
81.7157464726537
20
-3.68044490682638
30
0
41
1
10
81.7640466593991
20
-3.94132428196767
30
0
41
1
10
81.8606470328896
20
-4.45165673154844
30
0
41
1
10
81.9089472196347
20
-4.70110110461835
30
0
41
1
10
82.0055475931252
20
-5.18398181934063
30
0
41
1
10
82.0538477798705
20
-5.4174095384254
30
0
41
1
10
82.1504481533609
20
-5.86405107537615
30
0
41
1
10
82.1987483401061
20
-6.07725736418095
30
0
41
1
10
82.2953487135966
20
-6.47987224770642
30
0
41
1
10
82.3436489003419
20
-6.66927530091755
30
0
41
1
10
82.4402492738324
20
-7.02152133502159
30
0
41
1
10
82.4885494605777
20
-7.18436135756718
30
0
41
1
10
82.5851498340682
20
-7.48166983494079
30
0
41
1
10
82.6334500208134
20
-7.61613810452553
30
0
41
1
10
82.7300503943038
20
-7.85588994889542
30
0
41
1
10
82.7783505810492
20
-7.96117588779583
30
0
41
1
10
82.8749509545396
20
-8.14271438878205
30
0
41
1
10
82.9232511412848
20
-8.21897131242005
30
0
41
1
10
83.0198515147754
20
-8.3434642577609
30
0
41
1
10
83.0681517015206
20
-8.39170590261637
30
0
41
1
10
83.1647520750111
20
-8.46188918050206
30
0
41
1
10
83.2130522617563
20
-8.4838369345531
30
0
41
1
10
83.2734274951878
20
-8.49624049517323
30
0
41
1
10
83.2855025418742
20
-8.4979706858453
30
0
41
1
10
83.3096526352468
20
-8.49996876285539
30
0
41
1
10
83.3217276819331
20
-8.50023931939842
30
0
41
1
10
83.3579528219921
20
-8.49889783677293
30
0
41
1
10
83.3821029153646
20
-8.49510830598001
30
0
41
1
10
83.4062530087372
20
-8.48826927759677
30
0
0
SPLINE
5
EF
100
AcDbEntity
8
1
62
256
6
ByLayer
370
13
48
1
60
0
100
AcDbSpline
70
4
71
3
72
42
73
38
40
0
40
0
40
0
40
0
40
0.0625
40
0.0625
40
0.125
40
0.125
40
0.140625
40
0.140625
40
0.15625
40
0.15625
40
0.187499999999999
40
0.187499999999999
40
0.249999999999999
40
0.249999999999999
40
0.312499999999999
40
0.312499999999999
40
0.374999999999999
40
0.374999999999999
40
0.437499999999999
40
0.437499999999999
40
0.499999999999999
40
0.499999999999999
40
0.5625
40
0.5625
40
0.625
40
0.625
40
0.6875
40
0.6875
40
0.75
40
0.75
40
0.8125
40
0.8125
40
0.875
40
0.875
40
0.9375
40
0.9375
40
1
40
1
40
1
40
1
41
1
10
74.3
20
-2.0433030169047
30
0
41
1
10
74.3552167385186
20
-1.73555211469707
30
0
41
1
10
74.410433477037
20
-1.42836460998427
30
0
41
1
10
74.5208669540741
20
-0.820804232137419
30
0
41
1
10
74.5760836925926
20
-0.520436430855881
30
0
41
1
10
74.6451046157407
20
-0.152161771000181
30
0
41
1
10
74.6589088003703
20
-0.0788634356828197
30
0
41
1
10
74.6865171696296
20
0.0669577991151016
30
0
41
1
10
74.7003213542592
20
0.14017492758677
30
0
41
1
10
74.7417339081481
20
0.361023021969714
30
0
41
1
10
74.7693422774073
20
0.509690624958836
30
0
41
1
10
74.8521673851851
20
0.959177938371965
30
0
41
1
10
74.9073841237035
20
1.26351398982638
30
0
41
1
10
75.0178176007406
20
1.87635708011783
30
0
41
1
10
75.0730343392591
20
2.18485685976711
30
0
41
1
10
75.1834678162961
20
2.79990168851339
30
0
41
1
10
75.2386845548145
20
3.10643504629996
30
0
41
1
10
75.3491180318515
20
3.71077093036971
30
0
41
1
10
75.4043347703701
20
4.00855819111922
30
0
41
1
10
75.5147682474071
20
4.58838405745215
30
0
41
1
10
75.5699849859256
20
4.87040560816513
30
0
41
1
10
75.6804184629626
20
5.41193310724529
30
0
41
1
10
75.7356352014811
20
5.67142264400781
30
0
41
1
10
75.8460686785181
20
6.16188192716805
30
0
41
1
10
75.9012854170366
20
6.39283843951708
30
0
41
1
10
76.0117188940736
20
6.82144458784509
30
0
41
1
10
76.0669356325922
20
7.01908616026722
30
0
41
1
10
76.1773691096291
20
7.37781886313303
30
0
41
1
10
76.2325858481477
20
7.53890804998773
30
0
41
1
10
76.3430193251846
20
7.82298859264625
30
0
41
1
10
76.3982360637031
20
7.9459838571037
30
0
41
1
10
76.5086695407401
20
8.15399370019557
30
0
41
1
10
76.5638862792586
20
8.23901675065503
30
0
41
1
10
76.6743197562956
20
8.37267233549434
30
0
41
1
10
76.7295364948141
20
8.4213160453948
30
0
41
1
10
76.8399699718511
20
8.48497389723107
30
0
41
1
10
76.8951867103697
20
8.5
30
0
41
1
10
76.9504034488882
20
8.5
30
0
0
SPLINE
5
F0
100
AcDbEntity
8
1
62
256
6
ByLayer
370
13
48
1
60
0
100
AcDbSpline
70
4
71
3
72
77
73
73
40
0
40
0
40
0
40
0
40
0.0312500000000006
40
0.0312500000000006
40
0.0625000000000012
40
0.0625000000000012
40
0.0937500000000019
40
0.0937500000000019
40
0.125000000000003
40
0.125000000000003
40
0.156250000000003
40
0.156250000000003
40
0.187500000000004
40
0.187500000000004
40
0.218750000000005
40
0.218750000000005
40
0.250000000000005
40
0.250000000000005
40
0.281250000000006
40
0.281250000000006
40
0.312500000000007
40
0.312500000000007
40
0.343750000000007
40
0.343750000000007
40
0.375000000000008
40
0.375000000000008
40
0.406250000000009
40
0.406250000000009
40
0.43750000000001
40
0.43750000000001
40
0.44531250000001
40
0.44531250000001
40
0.45312500000001
40
0.46875000000001
40
0.46875000000001
40
0.500000000000009
40
0.500000000000009
40
0.531250000000009
40
0.531250000000009
40
0.562500000000009
40
0.562500000000009
40
0.593750000000008
40
0.593750000000008
40
0.625000000000008
40
0.625000000000008
40
0.656250000000008
40
0.656250000000008
40
0.687500000000007
40
0.687500000000007
40
0.718750000000007
40
0.718750000000007
40
0.750000000000006
40
0.750000000000006
40
0.781250000000006
40
0.781250000000006
40
0.812500000000006
40
0.812500000000006
40
0.843750000000005
40
0.843750000000005
40
0.875000000000005
40
0.875000000000005
40
0.882812500000005
40
0.882812500000005
40
0.890625000000005
40
0.890625000000005
40
0.906250000000004
40
0.906250000000004
40
0.937500000000003
40
0.937500000000003
40
0.968750000000001
40
0.968750000000001
40
1
40
1
40
1
40
1
41
1
10
78.2728312338737
20
8.5
30
0
41
1
10
78.3263043773619
20
8.5
30
0
41
1
10
78.3797775208502
20
8.48590950418694
30
0
41
1
10
78.4867238078264
20
8.42631060721115
30
0
41
1
10
78.5401969513147
20
8.38079201706705
30
0
41
1
10
78.6471432382909
20
8.2557863805543
30
0
41
1
10
78.700616381779
20
8.17628972130635
30
0
41
1
10
78.8075626687553
20
7.98178507315816
30
0
41
1
10
78.8610358122435
20
7.86676957329996
30
0
41
1
10
78.9679820992199
20
7.60095501273889
30
0
41
1
10
79.021455242708
20
7.45015205325305
30
0
41
1
10
79.1284015296844
20
7.11393782355344
30
0
41
1
10
79.1818746731725
20
6.92852737969386
30
0
41
1
10
79.2888209601489
20
6.5257707541461
30
0
41
1
10
79.342294103637
20
6.3084304855721
30
0
41
1
10
79.4492403906133
20
5.84588355435943
30
0
41
1
10
79.5027135341014
20
5.60068731539349
30
0
41
1
10
79.6096598210778
20
5.08764633329423
30
0
41
1
10
79.6631329645659
20
4.81981508660806
30
0
41
1
10
79.7700792515423
20
4.26750540768492
30
0
41
1
10
79.8235523950304
20
3.98304157780845
30
0
41
1
10
79.9304986820068
20
3.40382203931432
30
0
41
1
10
79.9839718254949
20
3.10908001757662
30
0
41
1
10
80.0909181124712
20
2.51558135123406
30
0
41
1
10
80.1443912559594
20
2.21683585051116
30
0
41
1
10
80.2513375429357
20
1.62115116539121
30
0
41
1
10
80.3048106864239
20
1.3242196293165
30
0
41
1
10
80.4117569734002
20
0.737242595770226
30
0
41
1
10
80.4652301168884
20
0.447201031016732
30
0
41
1
10
80.5320715462486
20
0.0915557104099491
30
0
41
1
10
80.5454398321206
20
0.0209911736016579
30
0
41
1
10
80.5721764038647
20
-0.120523462366123
30
0
41
1
10
80.6122812614808
20
-0.333868265775209
30
0
41
1
10
80.6523861190969
20
-0.550180557232693
30
0
41
1
10
80.7325958343291
20
-0.986006774984617
30
0
41
1
10
80.7860689778174
20
-1.28085432906246
30
0
41
1
10
80.8930152647937
20
-1.87441138595727
30
0
41
1
10
80.9464884082818
20
-2.1731146733257
30
0
41
1
10
81.0534346952582
20
-2.76882543832707
30
0
41
1
10
81.1069078387463
20
-3.06582303801579
30
0
41
1
10
81.2138541257226
20
-3.65198552122885
30
0
41
1
10
81.2673272692108
20
-3.94113753155267
30
0
41
1
10
81.3742735561872
20
-4.50523739663927
30
0
41
1
10
81.4277466996753
20
-4.7801707734188
30
0
41
1
10
81.5346929866515
20
-5.30964374898593
30
0
41
1
10
81.5881661301397
20
-5.56416918192122
30
0
41
1
10
81.6951124171161
20
-6.0472559473888
30
0
41
1
10
81.7485855606043
20
-6.27580547234004
30
0
41
1
10
81.8555318475806
20
-6.7023868696304
30
0
41
1
10
81.9090049910687
20
-6.90041098332995
30
0
41
1
10
82.015951278045
20
-7.26270429162429
30
0
41
1
10
82.0694244215333
20
-7.4269707067412
30
0
41
1
10
82.1763707085096
20
-7.71998847036409
30
0
41
1
10
82.2298438519978
20
-7.84874200684439
30
0
41
1
10
82.336790138974
20
-8.07045891230305
30
0
41
1
10
82.3902632824622
20
-8.16342857559789
30
0
41
1
10
82.4972095694385
20
-8.31465640308002
30
0
41
1
10
82.5506827129267
20
-8.37292356302254
30
0
41
1
10
82.657628999903
20
-8.45694366161212
30
0
41
1
10
82.7111021433911
20
-8.48270673626018
30
0
41
1
10
82.7779435727513
20
-8.49647847295159
30
0
41
1
10
82.7913118586234
20
-8.49831280212621
30
0
41
1
10
82.8180484303674
20
-8.50019407192463
30
0
41
1
10
82.8314167162396
20
-8.50024738690678
30
0
41
1
10
82.8715215738557
20
-8.49775277183286
30
0
41
1
10
82.8982581455997
20
-8.49252047726247
30
0
41
1
10
82.9784678608319
20
-8.46549467482356
30
0
41
1
10
83.0319410043201
20
-8.43234810010884
30
0
41
1
10
83.1388872912964
20
-8.3329594838072
30
0
41
1
10
83.1923604347846
20
-8.2667074387295
30
0
41
1
10
83.299306721761
20
-8.09914520908433
30
0
41
1
10
83.3527798652491
20
-7.99782652217667
30
0
41
1
10
83.4062530087373
20
-7.87858625685897
30
0
0
SPLINE
5
F1
100
AcDbEntity
8
1
62
256
6
ByLayer
370
13
48
1
60
0
100
AcDbSpline
70
4
71
3
72
22
73
18
40
0
40
0
40
0
40
0
40
0.125
40
0.125
40
0.25
40
0.25
40
0.375
40
0.375
40
0.5
40
0.5
40
0.625
40
0.625
40
0.75
40
0.75
40
0.875
40
0.875
40
1
40
1
40
1
40
1
41
1
10
74.3000000000001
20
0.657637729374983
30
0
41
1
10
74.3897416500654
20
1.14462918258906
30
0
41
1
10
74.4794833001307
20
1.64416530450009
30
0
41
1
10
74.6589666002613
20
2.64477102290815
30
0
41
1
10
74.7487082503267
20
3.14572686346494
30
0
41
1
10
74.9281915504573
20
4.12015476126751
30
0
41
1
10
75.0179332005227
20
4.59344818528328
30
0
41
1
10
75.1974165006534
20
5.48262959872983
30
0
41
1
10
75.2871581507187
20
5.89833122408189
30
0
41
1
10
75.4666414508495
20
6.64723243112866
30
0
41
1
10
75.5563831009146
20
6.98031037342133
30
0
41
1
10
75.7358664010453
20
7.5485845508436
30
0
41
1
10
75.8256080511107
20
7.78376704936244
30
0
41
1
10
76.0050913512414
20
8.15273742589466
30
0
41
1
10
76.0948330013067
20
8.28660864855991
30
0
41
1
10
76.2743163014374
20
8.4601745101713
30
0
41
1
10
76.3640579515027
20
8.5
30
0
41
1
10
76.453799601568
20
8.5
30
0
0
SPLINE
5
F2
100
AcDbEntity
8
1
62
256
6
ByLayer
370
13
48
1
60
0
100
AcDbSpline
70
4
71
3
72
78
73
74
40
0
40
0
40
0
40
0
40
0.0312499999999997
40
0.0312499999999997
40
0.0624999999999994
40
0.0624999999999994
40
0.0937499999999992
40
0.0937499999999992
40
0.124999999999999
40
0.124999999999999
40
0.156249999999999
40
0.156249999999999
40
0.187499999999998
40
0.187499999999998
40
0.218749999999998
40
0.218749999999998
40
0.249999999999998
40
0.249999999999998
40
0.281249999999998
40
0.281249999999998
40
0.312499999999997
40
0.312499999999997
40
0.343749999999997
40
0.343749999999997
40
0.374999999999997
40
0.374999999999997
40
0.390624999999997
40
0.390624999999997
40
0.398437499999997
40
0.398437499999997
40
0.406249999999997
40
0.406249999999997
40
0.437499999999997
40
0.437499999999997
40
0.468749999999997
40
0.468749999999997
40
0.499999999999997
40
0.499999999999997
40
0.531249999999997
40
0.531249999999997
40
0.562499999999998
40
0.562499999999998
40
0.593749999999998
40
0.593749999999998
40
0.624999999999998
40
0.624999999999998
40
0.656249999999998
40
0.656249999999998
40
0.687499999999998
40
0.687499999999998
40
0.718749999999998
40
0.718749999999998
40
0.749999999999999
40
0.749999999999999
40
0.781249999999999
40
0.781249999999999
40
0.796874999999999
40
0.796874999999999
40
0.804687499999999
40
0.804687499999999
40
0.812499999999999
40
0.812499999999999
40
0.843749999999999
40
0.843749999999999
40
0.874999999999999
40
0.874999999999999
40
0.906249999999999
40
0.906249999999999
40
0.9375
40
0.9375
40
0.96875
40
0.96875
40
1
40
1
40
1
40
1
41
1
10
77.7762273865536
20
8.5
30
0
41
1
10
77.8348734867848
20
8.5
30
0
41
1
10
77.8935195870158
20
8.48304539379473
30
0
41
1
10
78.0108117874779
20
8.41099470103796
30
0
41
1
10
78.0694578877091
20
8.35588245897046
30
0
41
1
10
78.1867500881712
20
8.20431712563774
30
0
41
1
10
78.2453961884023
20
8.10784925440811
30
0
41
1
10
78.3626883888645
20
7.8719106829067
30
0
41
1
10
78.4213344890955
20
7.73242951951099
30
0
41
1
10
78.5386266895576
20
7.4107300694414
30
0
41
1
10
78.5972727897887
20
7.22850835644834
30
0
41
1
10
78.7145649902509
20
6.82373947753439
30
0
41
1
10
78.7732110904821
20
6.60119754362316
30
0
41
1
10
78.8905032909441
20
6.12032359269625
30
0
41
1
10
78.9491493911752
20
5.86200530267561
30
0
41
1
10
79.0664415916374
20
5.31595074942067
30
0
41
1
10
79.1250876918684
20
5.02823461402224
30
0
41
1
10
79.2423798923306
20
4.43107551519384
30
0
41
1
10
79.3010259925617
20
4.12165558366152
30
0
41
1
10
79.4183181930238
20
3.48943715087262
30
0
41
1
10
79.476964293255
20
3.16666069367884
30
0
41
1
10
79.5942564937171
20
2.51604345213627
30
0
41
1
10
79.6529025939482
20
2.18822049750085
30
0
41
1
10
79.7701947944104
20
1.53518086608457
30
0
41
1
10
79.8288408946414
20
1.20997594365014
30
0
41
1
10
79.916810044988
20
0.729056320317341
30
0
41
1
10
79.9461330951036
20
0.569888130064811
30
0
41
1
10
79.990117670277
20
0.333365282041513
30
0
41
1
10
80.0047791953348
20
0.254895232009119
30
0
41
1
10
80.0341022454502
20
0.0987757215057457
30
0
41
1
10
80.048763770508
20
0.0213962688513902
30
0
41
1
10
80.1220713957968
20
-0.366734726312046
30
0
41
1
10
80.1807174960279
20
-0.684167119021964
30
0
41
1
10
80.2980096964899
20
-1.32750105215337
30
0
41
1
10
80.3566557967212
20
-1.65339650749726
30
0
41
1
10
80.4739479971832
20
-2.3069423871103
30
0
41
1
10
80.5325940974144
20
-2.63458027567015
30
0
41
1
10
80.6498862978765
20
-3.28384691069314
30
0
41
1
10
80.7085323981077
20
-3.605457188332
30
0
41
1
10
80.8258245985699
20
-4.23432311044937
30
0
41
1
10
80.8844706988009
20
-4.54155639822503
30
0
41
1
10
81.001762899263
20
-5.13336333113034
30
0
41
1
10
81.060408999494
20
-5.41791408588455
30
0
41
1
10
81.1777011999563
20
-5.95678419588225
30
0
41
1
10
81.2363473001873
20
-6.21108403092705
30
0
41
1
10
81.3536395006494
20
-6.68326518646595
30
0
41
1
10
81.4122856008805
20
-6.90113373163635
30
0
41
1
10
81.5295778013427
20
-7.2961463591235
30
0
41
1
10
81.5882239015738
20
-7.47328628691659
30
0
41
1
10
81.705516102036
20
-7.7846763752591
30
0
41
1
10
81.764162202267
20
-7.91893092869773
30
0
41
1
10
81.8814544027292
20
-8.14451988574353
30
0
41
1
10
81.9401005029603
20
-8.23586543139064
30
0
41
1
10
82.0573927034225
20
-8.37749954621461
30
0
41
1
10
82.1160388036535
20
-8.4278032135847
30
0
41
1
10
82.2040079540002
20
-8.47497978520926
30
0
41
1
10
82.2333310041158
20
-8.48600229473851
30
0
41
1
10
82.277315579289
20
-8.49586881854577
30
0
41
1
10
82.2919771043467
20
-8.49804689666311
30
0
41
1
10
82.3213001544623
20
-8.50025076710853
30
0
41
1
10
82.3359616795201
20
-8.50028524613623
30
0
41
1
10
82.409269304809
20
-8.49512911307798
30
0
41
1
10
82.46791540504
20
-8.47377157850212
30
0
41
1
10
82.5852076055022
20
-8.39246204032582
30
0
41
1
10
82.6438537057331
20
-8.332493902772
30
0
41
1
10
82.7611459061954
20
-8.17092527736668
30
0
41
1
10
82.8197920064265
20
-8.06931037165771
30
0
41
1
10
82.9370842068887
20
-7.8230011497329
30
0
41
1
10
82.9957303071197
20
-7.67829709017317
30
0
41
1
10
83.1130225075819
20
-7.34632736436922
30
0
41
1
10
83.1716686078129
20
-7.1590592629598
30
0
41
1
10
83.2889608082751
20
-6.74463629060412
30
0
41
1
10
83.3476069085062
20
-6.51748772696629
30
0
41
1
10
83.4062530087373
20
-6.27278467731966
30
0
0
SPLINE
5
F3
100
AcDbEntity
8
1
62
256
6
ByLayer
370
13
48
1
60
0
100
AcDbSpline
70
4
71
3
72
22
73
18
40
0
40
0
40
0
40
0
40
0.125
40
0.125
40
0.25
40
0.25
40
0.375
40
0.375
40
0.5
40
0.5
40
0.625
40
0.625
40
0.75
40
0.75
40
0.875
40
0.875
40
1
40
1
40
1
40
1
41
1
10
74.3
20
3.40480711032123
30
0
41
1
10
74.3690498230937
20
3.78272101036708
30
0
41
1
10
74.4380996461874
20
4.15380398816149
30
0
41
1
10
74.5761992923747
20
4.86866504119314
30
0
41
1
10
74.6452491154683
20
5.21239091969321
30
0
41
1
10
74.7833487616556
20
5.85972095530073
30
0
41
1
10
74.8523985847493
20
6.16327903768249
30
0
41
1
10
74.9904982309366
20
6.71989733713514
30
0
41
1
10
75.0595480540303
20
6.97292858600989
30
0
41
1
10
75.1976477002177
20
7.42172286888496
30
0
41
1
10
75.2666975233112
20
7.6174798963709
30
0
41
1
10
75.4047971694986
20
7.94910208861566
30
0
41
1
10
75.4738469925923
20
8.08498301163556
30
0
41
1
10
75.6119466387796
20
8.29821855980921
30
0
41
1
10
75.6809964618732
20
8.37560381220655
30
0
41
1
10
75.8190961080605
20
8.47647635966246
30
0
41
1
10
75.8881459311543
20
8.5
30
0
41
1
10
75.9571957542479
20
8.5
30
0
0
SPLINE
5
F4
100
AcDbEntity
8
1
62
256
6
ByLayer
370
13
48
1
60
0
100
AcDbSpline
70
4
71
3
72
78
73
74
40
0
40
0
40
0
40
0
40
0.0312500000000003
40
0.0312500000000003
40
0.0625000000000006
40
0.0625000000000006
40
0.0937500000000009
40
0.0937500000000009
40
0.125000000000001
40
0.125000000000001
40
0.156250000000002
40
0.156250000000002
40
0.187500000000002
40
0.187500000000002
40
0.218750000000002
40
0.218750000000002
40
0.250000000000003
40
0.250000000000003
40
0.281250000000003
40
0.281250000000003
40
0.312500000000003
40
0.312500000000003
40
0.343750000000004
40
0.343750000000004
40
0.359375000000004
40
0.359375000000004
40
0.367187500000004
40
0.367187500000004
40
0.375000000000005
40
0.375000000000005
40
0.406250000000004
40
0.406250000000004
40
0.437500000000004
40
0.437500000000004
40
0.468750000000004
40
0.468750000000004
40
0.500000000000004
40
0.500000000000004
40
0.531250000000004
40
0.531250000000004
40
0.562500000000004
40
0.562500000000004
40
0.593750000000004
40
0.593750000000004
40
0.625000000000004
40
0.625000000000004
40
0.656250000000004
40
0.656250000000004
40
0.687500000000004
40
0.687500000000004
40
0.718750000000004
40
0.718750000000004
40
0.734375000000004
40
0.734375000000004
40
0.742187500000004
40
0.742187500000004
40
0.750000000000004
40
0.750000000000004
40
0.781250000000004
40
0.781250000000004
40
0.812500000000003
40
0.812500000000003
40
0.843750000000002
40
0.843750000000002
40
0.875000000000002
40
0.875000000000002
40
0.906250000000001
40
0.906250000000001
40
0.937500000000001
40
0.937500000000001
40
0.96875
40
0.96875
40
1
40
1
40
1
40
1
41
1
10
77.2796235392335
20
8.5
30
0
41
1
10
77.3434425962075
20
8.5
30
0
41
1
10
77.4072616531815
20
8.47991443725317
30
0
41
1
10
77.5348997671295
20
8.39416853731078
30
0
41
1
10
77.5987188241035
20
8.3284835991881
30
0
41
1
10
77.7263569380515
20
8.14763947909231
30
0
41
1
10
77.7901759950255
20
8.03245861230195
30
0
41
1
10
77.9178141089734
20
7.75098661727904
30
0
41
1
10
77.9816331659475
20
7.58468203968638
30
0
41
1
10
78.1092712798954
20
7.20213785998928
30
0
41
1
10
78.1730903368695
20
6.98589754753874
30
0
41
1
10
78.3007284508174
20
6.50769653633733
30
0
41
1
10
78.3645475077915
20
6.24574973667364
30
0
41
1
10
78.4921856217394
20
5.68319587506318
30
0
41
1
10
78.5560046787134
20
5.38261545378955
30
0
41
1
10
78.6836427926614
20
4.75208082823059
30
0
41
1
10
78.7474618496353
20
4.42216072896216
30
0
41
1
10
78.8750999635834
20
3.74352523909317
30
0
41
1
10
78.9389190205575
20
3.39484446752809
30
0
41
1
10
79.0665571345054
20
2.68949977198227
30
0
41
1
10
79.1303761914794
20
2.33286466251749
30
0
41
1
10
79.2580143054274
20
1.6216826243849
30
0
41
1
10
79.3218333624014
20
1.26715478974151
30
0
41
1
10
79.4175619478624
20
0.743378732701046
30
0
41
1
10
79.4494714763495
20
0.570109421614603
30
0
41
1
10
79.4973357690799
20
0.312863341259543
30
0
41
1
10
79.5132905333234
20
0.227556685003321
30
0
41
1
10
79.5452000618104
20
0.0579282573328896
30
0
41
1
10
79.561154826054
20
-0.0260813369695256
30
0
41
1
10
79.6409286472714
20
-0.449529771957742
30
0
41
1
10
79.7047477042454
20
-0.796340817246403
30
0
41
1
10
79.8323858181934
20
-1.49894411817215
30
0
41
1
10
79.8962048751674
20
-1.85472566842034
30
0
41
1
10
80.0238429891155
20
-2.56632354725818
30
0
41
1
10
80.0876620460894
20
-2.92211847598844
30
0
41
1
10
80.2153001600374
20
-3.62345544922351
30
0
41
1
10
80.2791192170114
20
-3.96896697491192
30
0
41
1
10
80.4067573309594
20
-4.63889614256405
30
0
41
1
10
80.4705763879334
20
-4.96327868217574
30
0
41
1
10
80.5982145018814
20
-5.58056025014906
30
0
41
1
10
80.6620335588555
20
-5.87342623405974
30
0
41
1
10
80.7896716728034
20
-6.41878570800051
30
0
41
1
10
80.8534907297774
20
-6.67125499093771
30
0
41
1
10
80.9811288437254
20
-7.12931682327687
30
0
41
1
10
81.0449479006994
20
-7.33489864287412
30
0
41
1
10
81.1725860146474
20
-7.69560513098983
30
0
41
1
10
81.2364050716214
20
-7.85073357019655
30
0
41
1
10
81.3640431855694
20
-8.10998134573421
30
0
41
1
10
81.4278622425434
20
-8.21411637365486
30
0
41
1
10
81.5555003564914
20
-8.3735489429852
30
0
41
1
10
81.6193194134653
20
-8.42886925377709
30
0
41
1
10
81.7150479989264
20
-8.47844524621252
30
0
41
1
10
81.7469575274133
20
-8.48941751163613
30
0
41
1
10
81.794821820144
20
-8.49805066865682
30
0
41
1
10
81.8107765843873
20
-8.49962478739766
30
0
41
1
10
81.8426861128743
20
-8.50025620753064
30
0
41
1
10
81.8586408771178
20
-8.49932241102999
30
0
41
1
10
81.9384146983353
20
-8.48819780607747
30
0
41
1
10
82.0022337553092
20
-8.4585690534696
30
0
41
1
10
82.1298718692573
20
-8.35272620688716
30
0
41
1
10
82.1936909262313
20
-8.27648771647023
30
0
41
1
10
82.3213290401793
20
-8.07396294550281
30
0
41
1
10
82.3851480971533
20
-7.94765632523431
30
0
41
1
10
82.5127862111012
20
-7.64393581348807
30
0
41
1
10
82.5766052680753
20
-7.466510937408
30
0
41
1
10
82.7042433820233
20
-7.06238759084576
30
0
41
1
10
82.7680624389973
20
-6.83569156431341
30
0
41
1
10
82.8957005529453
20
-6.33789453342251
30
0
41
1
10
82.9595196099193
20
-6.06681050695394
30
0
41
1
10
83.0871577238672
20
-5.48785042906897
30
0
41
1
10
83.1509767808413
20
-5.1800031927589
30
0
41
1
10
83.2786148947893
20
-4.53717295234998
30
0
41
1
10
83.3424339517634
20
-4.20222477246256
30
0
41
1
10
83.4062530087373
20
-3.85906875368997
30
0
0
SPLINE
5
F5
100
AcDbEntity
8
1
62
256
6
ByLayer
370
13
48
1
60
0
100
AcDbSpline
70
4
71
3
72
20
73
16
40
0
40
0
40
0
40
0
40
0.125
40
0.125
40
0.25
40
0.25
40
0.375
40
0.375
40
0.5
40
0.5
40
0.625
40
0.625
40
0.75
40
0.75
40
1
40
1
40
1
40
1
41
1
10
74.3
20
5.91202996810082
30
0
41
1
10
74.348357996122
20
6.12695473116079
30
0
41
1
10
74.396715992244
20
6.33095571226443
30
0
41
1
10
74.4934319844879
20
6.71384725762067
30
0
41
1
10
74.5417899806099
20
6.89273327236702
30
0
41
1
10
74.6385059728539
20
7.22300705294268
30
0
41
1
10
74.6868639689759
20
7.37439300268483
30
0
41
1
10
74.7835799612199
20
7.64826433394964
30
0
41
1
10
74.8319379573419
20
7.77075064619774
30
0
41
1
10
74.9286539495859
20
7.98641882160047
30
0
41
1
10
74.9770119457079
20
8.079603983986
30
0
41
1
10
75.0737279379518
20
8.23719916356683
30
0
41
1
10
75.1220859340738
20
8.30161419507436
30
0
41
1
10
75.2671599224398
20
8.45369914061226
30
0
41
1
10
75.3638759146838
20
8.5
30
0
41
1
10
75.4605919069277
20
8.5
30
0
0
SPLINE
5
F6
100
AcDbEntity
8
1
62
256
6
ByLayer
370
13
48
1
60
0
100
AcDbSpline
70
4
71
3
72
70
73
66
40
0
40
0
40
0
40
0
40
0.0312500000000001
40
0.0312500000000001
40
0.0625000000000001
40
0.0625000000000001
40
0.0937500000000002
40
0.0937500000000002
40
0.125
40
0.125
40
0.15625
40
0.15625
40
0.1875
40
0.1875
40
0.21875
40
0.21875
40
0.250000000000001
40
0.250000000000001
40
0.281250000000001
40
0.281250000000001
40
0.312500000000001
40
0.312500000000001
40
0.343750000000001
40
0.343750000000001
40
0.375000000000001
40
0.375000000000001
40
0.406250000000001
40
0.406250000000001
40
0.437500000000001
40
0.437500000000001
40
0.468750000000001
40
0.468750000000001
40
0.500000000000001
40
0.500000000000001
40
0.531250000000001
40
0.531250000000001
40
0.562500000000001
40
0.562500000000001
40
0.593750000000001
40
0.593750000000001
40
0.625000000000001
40
0.625000000000001
40
0.656250000000001
40
0.656250000000001
40
0.687500000000001
40
0.687500000000001
40
0.718750000000001
40
0.718750000000001
40
0.75
40
0.75
40
0.78125
40
0.78125
40
0.8125
40
0.8125
40
0.84375
40
0.84375
40
0.875
40
0.875
40
0.90625
40
0.90625
40
0.9375
40
0.9375
40
0.96875
40
0.96875
40
1
40
1
40
1
40
1
41
1
10
76.7830196919133
20
8.5
30
0
41
1
10
76.8520117056302
20
8.5
30
0
41
1
10
76.9210037193471
20
8.47651585520046
30
0
41
1
10
77.058987746781
20
8.37581755908082
30
0
41
1
10
77.1279797604979
20
8.29856721263567
30
0
41
1
10
77.2659637879318
20
8.08570500989993
30
0
41
1
10
77.3349558016487
20
7.95006263636162
30
0
41
1
10
77.4729398290825
20
7.61901696593142
30
0
41
1
10
77.5419318427994
20
7.42359792852335
30
0
41
1
10
77.6799158702332
20
6.9755604450078
30
0
41
1
10
77.7489078839502
20
6.72294790174979
30
0
41
1
10
77.8868919113841
20
6.16721594900451
30
0
41
1
10
77.9558839251009
20
5.86412529887346
30
0
41
1
10
78.0938679525348
20
5.21773869982763
30
0
41
1
10
78.1628599662517
20
4.8744885730483
30
0
41
1
10
78.3008439936856
20
4.16054594600584
30
0
41
1
10
78.3698360074025
20
3.78990542538818
30
0
41
1
10
78.5078200348362
20
3.03489387660409
30
0
41
1
10
78.5768120485532
20
2.65056922629046
30
0
41
1
10
78.714796075987
20
1.881330668326
30
0
41
1
10
78.783788089704
20
1.49644913270868
30
0
41
1
10
78.9217721171378
20
0.737458156370423
30
0
41
1
10
78.9907641308546
20
0.363396514219602
30
0
41
1
10
79.1287481582884
20
-0.365225637386175
30
0
41
1
10
79.1977401720054
20
-0.739345905839116
30
0
41
1
10
79.3357241994393
20
-1.49837227832333
30
0
41
1
10
79.4047162131562
20
-1.88326298571698
30
0
41
1
10
79.54270024059
20
-2.65249916107263
30
0
41
1
10
79.6116922543069
20
-3.03681222949746
30
0
41
1
10
79.7496762817408
20
-3.79177778301067
30
0
41
1
10
79.8186682954577
20
-4.16238387247245
30
0
41
1
10
79.9566523228915
20
-4.87623504064155
30
0
41
1
10
80.0256443366084
20
-5.21942813975969
30
0
41
1
10
80.1636283640422
20
-5.86568095571573
30
0
41
1
10
80.2326203777591
20
-6.16869487077031
30
0
41
1
10
80.3706044051929
20
-6.72425882432464
30
0
41
1
10
80.43959641891
20
-6.97678013875495
30
0
41
1
10
80.5775804463437
20
-7.42462730155523
30
0
41
1
10
80.6465724600607
20
-7.61994728624742
30
0
41
1
10
80.7845564874945
20
-7.95079395862379
30
0
41
1
10
80.8535485012114
20
-8.08633641844796
30
0
41
1
10
80.9915325286452
20
-8.29900407225881
30
0
41
1
10
81.0605245423621
20
-8.37615980068935
30
0
41
1
10
81.198508569796
20
-8.47667875789512
30
0
41
1
10
81.267500583513
20
-8.5000782048765
30
0
41
1
10
81.4054846109468
20
-8.49992140149519
30
0
41
1
10
81.4744766246637
20
-8.47635251855692
30
0
41
1
10
81.6124606520975
20
-8.37547485089928
30
0
41
1
10
81.6814526658144
20
-8.29812987323209
30
0
41
1
10
81.8194366932482
20
-8.08507310428118
30
0
41
1
10
81.8884287069651
20
-7.94933081297222
30
0
41
1
10
82.0264127343989
20
-7.6180861476042
30
0
41
1
10
82.0954047481159
20
-7.42256806467276
30
0
41
1
10
82.2333887755497
20
-6.97434028656653
30
0
41
1
10
82.3023807892666
20
-6.7216365334165
30
0
41
1
10
82.4403648167005
20
-6.16573662961338
30
0
41
1
10
82.5093568304173
20
-5.8625692735865
30
0
41
1
10
82.6473408578512
20
-5.21604895679488
30
0
41
1
10
82.7163328715682
20
-4.87274183848601
30
0
41
1
10
82.8543168990019
20
-4.15870782749184
30
0
41
1
10
82.9233089127189
20
-3.78803291447423
30
0
41
1
10
83.0612929401527
20
-3.03297544625559
30
0
41
1
10
83.1302849538697
20
-2.64863925110944
30
0
41
1
10
83.2682689813035
20
-1.87939837954426
30
0
41
1
10
83.3372609950204
20
-1.49452604764679
30
0
41
1
10
83.4062530087373
20
-1.11504828592905
30
0
0
SPLINE
5
F7
100
AcDbEntity
8
1
62
256
6
ByLayer
370
13
48
1
60
0
100
AcDbSpline
70
4
71
3
72
14
73
10
40
0
40
0
40
0
40
0
40
0.25
40
0.25
40
0.5
40
0.5
40
0.75
40
0.75
40
1
40
1
40
1
40
1
41
1
10
74.3000000000001
20
7.67737588380581
30
0
41
1
10
74.3553323383007
20
7.82003202484446
30
0
41
1
10
74.4106646766013
20
7.94356596509081
30
0
41
1
10
74.5213293532025
20
8.15248777522922
30
0
41
1
10
74.5766616915032
20
8.237884182193
30
0
41
1
10
74.6873263681046
20
8.37212409626784
30
0
41
1
10
74.7426587064051
20
8.42097888870487
30
0
41
1
10
74.8533233830065
20
8.48491079736351
30
0
41
1
10
74.908655721307
20
8.5
30
0
41
1
10
74.9639880596076
20
8.5
30
0
0
SPLINE
5
F8
100
AcDbEntity
8
1
62
256
6
ByLayer
370
13
48
1
60
0
100
AcDbSpline
70
4
71
3
72
85
73
81
40
0
40
0
40
0
40
0
40
0.0312500000000002
40
0.0312500000000002
40
0.0625000000000004
40
0.0625000000000004
40
0.0937500000000007
40
0.0937500000000007
40
0.125000000000001
40
0.125000000000001
40
0.156250000000001
40
0.156250000000001
40
0.187500000000001
40
0.187500000000001
40
0.218750000000001
40
0.218750000000001
40
0.250000000000002
40
0.250000000000002
40
0.281250000000002
40
0.281250000000002
40
0.312500000000002
40
0.312500000000002
40
0.320312500000002
40
0.320312500000002
40
0.328125000000003
40
0.328125000000003
40
0.343750000000003
40
0.343750000000003
40
0.375000000000002
40
0.375000000000002
40
0.406250000000001
40
0.406250000000001
40
0.437500000000001
40
0.437500000000001
40
0.46875
40
0.46875
40
0.5
40
0.5
40
0.531249999999999
40
0.531249999999999
40
0.562499999999999
40
0.562499999999999
40
0.593749999999998
40
0.593749999999998
40
0.624999999999997
40
0.624999999999997
40
0.632812499999997
40
0.636718749999997
40
0.636718749999997
40
0.640624999999997
40
0.640624999999997
40
0.656249999999997
40
0.656249999999997
40
0.687499999999998
40
0.687499999999998
40
0.718749999999998
40
0.718749999999998
40
0.749999999999998
40
0.749999999999998
40
0.781249999999998
40
0.781249999999998
40
0.812499999999998
40
0.812499999999998
40
0.843749999999999
40
0.843749999999999
40
0.874999999999999
40
0.874999999999999
40
0.906249999999999
40
0.906249999999999
40
0.937499999999999
40
0.937499999999999
40
0.953124999999999
40
0.953124999999999
40
0.957031249999999
40
0.957031249999999
40
0.960937499999999
40
0.960937499999999
40
0.968749999999999
40
0.968749999999999
40
1
40
1
40
1
40
1
41
1
10
76.2864158445932
20
8.5
30
0
41
1
10
76.360580815053
20
8.5
30
0
41
1
10
76.4347457855129
20
8.47284876905098
30
0
41
1
10
76.5830757264326
20
8.35592771115412
30
0
41
1
10
76.6572406968924
20
8.26610618693667
30
0
41
1
10
76.805570637812
20
8.01847357303416
30
0
41
1
10
76.8797356082719
20
7.86062114018088
30
0
41
1
10
77.0280655491916
20
7.47604986539301
30
0
41
1
10
77.1022305196514
20
7.24931484533363
30
0
41
1
10
77.250560460571
20
6.73151425550833
30
0
41
1
10
77.3247254310309
20
6.44046726742368
30
0
41
1
10
77.4730553719506
20
5.80398372187557
30
0
41
1
10
77.5472203424104
20
5.45859901724771
30
0
41
1
10
77.69555028333
20
4.72771138562254
30
0
41
1
10
77.7697152537899
20
4.34228025150202
30
0
41
1
10
77.9180451947096
20
3.54798546729967
30
0
41
1
10
77.9922101651694
20
3.13919401309298
30
0
41
1
10
78.1405401060891
20
2.31504133897522
30
0
41
1
10
78.2147050765489
20
1.89973554834478
30
0
41
1
10
78.3630350174686
20
1.07761906083013
30
0
41
1
10
78.4371999879284
20
0.670838365390864
30
0
41
1
10
78.5299062010032
20
0.175147653519929
30
0
41
1
10
78.5484474436182
20
0.0768204463000188
30
0
41
1
10
78.5855299288481
20
-0.119185476721356
30
0
41
1
10
78.604071171463
20
-0.217884395507951
30
0
41
1
10
78.6596948993079
20
-0.51583897036744
30
0
41
1
10
78.6967773845378
20
-0.716959355565734
30
0
41
1
10
78.8080248402276
20
-1.32567966612416
30
0
41
1
10
78.8821898106874
20
-1.73873310512059
30
0
41
1
10
79.030519751607
20
-2.56566906772076
30
0
41
1
10
79.104684722067
20
-2.97950749187527
30
0
41
1
10
79.2530146629866
20
-3.79181759565066
30
0
41
1
10
79.3271796334465
20
-4.19022315377634
30
0
41
1
10
79.4755095743661
20
-4.95464153858904
30
0
41
1
10
79.5496745448259
20
-5.32057990382924
30
0
41
1
10
79.6980044857456
20
-6.00437819957477
30
0
41
1
10
79.7721694562054
20
-6.32217480001043
30
0
41
1
10
79.920499397125
20
-6.89748860223531
30
0
41
1
10
79.9946643675849
20
-7.15497082064883
30
0
41
1
10
80.1429943085046
20
-7.60247448022594
30
0
41
1
10
80.2171592789645
20
-7.79249658887713
30
0
41
1
10
80.3654892198841
20
-8.10344943473112
30
0
41
1
10
80.4396541903438
20
-8.22441153348785
30
0
41
1
10
80.5879841312635
20
-8.40065431648716
30
0
41
1
10
80.6621491017235
20
-8.45598377821796
30
0
41
1
10
80.7548553147983
20
-8.48858994670866
30
0
41
1
10
80.7826671787205
20
-8.49564071212154
30
0
41
1
10
80.8104790426431
20
-8.49874780028793
30
0
41
1
10
80.8290202852581
20
-8.4999606918837
30
0
41
1
10
80.8382909065655
20
-8.50013892138625
30
0
41
1
10
80.884644013103
20
-8.49891588965505
30
0
41
1
10
80.9217264983328
20
-8.49112507369526
30
0
41
1
10
81.0329739540226
20
-8.44566638866897
30
0
41
1
10
81.1071389244825
20
-8.38581023586477
30
0
41
1
10
81.2554688654021
20
-8.20012241443132
30
0
41
1
10
81.3296338358619
20
-8.07424270935877
30
0
41
1
10
81.4779637767815
20
-7.75338855622971
30
0
41
1
10
81.5521287472413
20
-7.55838457639771
30
0
41
1
10
81.7004586881611
20
-7.10124410654333
30
0
41
1
10
81.774623658621
20
-6.83910948967125
30
0
41
1
10
81.9229535995406
20
-6.25521076877848
30
0
41
1
10
81.9971185700005
20
-5.9334840842765
30
0
41
1
10
82.1454485109201
20
-5.2428602709177
30
0
41
1
10
82.21961348138
20
-4.87402792913332
30
0
41
1
10
82.3679434222996
20
-4.10503126066391
30
0
41
1
10
82.4421083927595
20
-3.70494141642456
30
0
41
1
10
82.5904383336791
20
-2.89048432087924
30
0
41
1
10
82.664603304139
20
-2.47618195502884
30
0
41
1
10
82.8129332450586
20
-1.64940798491338
30
0
41
1
10
82.8870982155184
20
-1.2369786176796
30
0
41
1
10
82.9983456712081
20
-0.629842197676425
30
0
41
1
10
83.0354281564381
20
-0.429357191812954
30
0
41
1
10
83.0817812629755
20
-0.181970190001806
30
0
41
1
10
83.091051884283
20
-0.132653206559525
30
0
41
1
10
83.1095931268979
20
-0.0343591769180591
30
0
41
1
10
83.1188637482055
20
0.0145114512572491
30
0
41
1
10
83.1466756121279
20
0.161814352143978
30
0
41
1
10
83.1652168547429
20
0.260701624777823
30
0
41
1
10
83.2579230678177
20
0.758176155552178
30
0
41
1
10
83.3320880382774
20
1.1660124341644
30
0
41
1
10
83.4062530087372
20
1.57763159400633
30
0
0
SPLINE
5
F9
100
AcDbEntity
8
1
62
256
6
ByLayer
370
13
48
1
60
0
100
AcDbSpline
70
4
71
3
72
8
73
4
40
0
40
0
40
0
40
0
40
1
40
1
40
1
40
1
41
1
10
74.3
20
8.4521399166984
30
0
41
1
10
74.3557947374292
20
8.48465706750841
30
0
41
1
10
74.4115894748583
20
8.5
30
0
41
1
10
74.4673842122875
20
8.5
30
0
0
SPLINE
5
FA
100
AcDbEntity
8
1
62
256
6
ByLayer
370
13
48
1
60
0
100
AcDbSpline
70
4
71
3
72
85
73
81
40
0
40
0
40
0
40
0
40
0.0312500000000005
40
0.0312500000000005
40
0.0625000000000009
40
0.0625000000000009
40
0.0937500000000014
40
0.0937500000000014
40
0.125000000000002
40
0.125000000000002
40
0.156250000000002
40
0.156250000000002
40
0.187500000000003
40
0.187500000000003
40
0.218750000000003
40
0.218750000000003
40
0.250000000000004
40
0.250000000000004
40
0.281250000000004
40
0.281250000000004
40
0.296875000000005
40
0.296875000000005
40
0.300781250000005
40
0.300781250000005
40
0.304687500000005
40
0.312500000000005
40
0.312500000000005
40
0.343750000000006
40
0.343750000000006
40
0.375000000000006
40
0.375000000000006
40
0.406250000000007
40
0.406250000000007
40
0.437500000000007
40
0.437500000000007
40
0.468750000000007
40
0.468750000000007
40
0.500000000000008
40
0.500000000000008
40
0.531250000000008
40
0.531250000000008
40
0.562500000000009
40
0.562500000000009
40
0.593750000000009
40
0.593750000000009
40
0.601562500000009
40
0.601562500000009
40
0.609375000000009
40
0.609375000000009
40
0.625000000000009
40
0.625000000000009
40
0.656250000000009
40
0.656250000000009
40
0.687500000000008
40
0.687500000000008
40
0.718750000000008
40
0.718750000000008
40
0.750000000000007
40
0.750000000000007
40
0.781250000000006
40
0.781250000000006
40
0.812500000000006
40
0.812500000000006
40
0.843750000000005
40
0.843750000000005
40
0.875000000000005
40
0.875000000000005
40
0.890625000000004
40
0.890625000000004
40
0.894531250000004
40
0.894531250000004
40
0.898437500000004
40
0.898437500000004
40
0.906250000000004
40
0.906250000000004
40
0.937500000000003
40
0.937500000000003
40
0.968750000000001
40
0.968750000000001
40
1
40
1
40
1
40
1
41
1
10
75.7898119972731
20
8.5
30
0
41
1
10
75.8691499244759
20
8.5
30
0
41
1
10
75.9484878516786
20
8.46891219585029
30
0
41
1
10
76.1071637060841
20
8.33448546085347
30
0
41
1
10
76.1865016332868
20
8.23107457951605
30
0
41
1
10
76.3451774876923
20
7.94591368464606
30
0
41
1
10
76.4245154148951
20
7.76410963033402
30
0
41
1
10
76.5831912693006
20
7.32217865503313
30
0
41
1
10
76.6625291965034
20
7.0620386517337
30
0
41
1
10
76.8212050509089
20
6.47064773229849
30
0
41
1
10
76.9005429781116
20
6.1394367847347
30
0
41
1
10
77.0592188325171
20
5.41993814670337
30
0
41
1
10
77.1385567597198
20
5.03173547986961
30
0
41
1
10
77.2972326141254
20
4.21718293158472
30
0
41
1
10
77.3765705413282
20
3.79093707404223
30
0
41
1
10
77.5352463957337
20
2.92117421753184
30
0
41
1
10
77.6145843229364
20
2.47774914367781
30
0
41
1
10
77.7732601773419
20
1.59339400502293
30
0
41
1
10
77.8525981045447
20
1.15252228189584
30
0
41
1
10
77.9716049953488
20
0.505335776314922
30
0
41
1
10
78.0112739589501
20
0.291928313733678
30
0
41
1
10
78.0608601634519
20
0.0290763186321215
30
0
41
1
10
78.0707774043523
20
-0.0231921635045182
30
0
41
1
10
78.0906118861529
20
-0.128303812048188
30
0
41
1
10
78.1203636088538
20
-0.286556217127668
30
0
41
1
10
78.150115331555
20
-0.446460280362061
30
0
41
1
10
78.2492877405584
20
-0.982642490804949
30
0
41
1
10
78.3286256677611
20
-1.42189835051735
30
0
41
1
10
78.4873015221666
20
-2.30536030737554
30
0
41
1
10
78.5666394493694
20
-2.74951314347442
30
0
41
1
10
78.7253153037749
20
-3.62340987496398
30
0
41
1
10
78.8046532309777
20
-4.0530653138766
30
0
41
1
10
78.9633290853832
20
-4.87710253516431
30
0
41
1
10
79.0426670125859
20
-5.27138018571503
30
0
41
1
10
79.2013428669914
20
-6.0052716325803
30
0
41
1
10
79.2806807941942
20
-6.34479620334412
30
0
41
1
10
79.4393566485996
20
-6.95428935048395
30
0
41
1
10
79.5186945758024
20
-7.22421120340076
30
0
41
1
10
79.6773704302079
20
-7.68623992670572
30
0
41
1
10
79.7567083574106
20
-7.87835331108391
30
0
41
1
10
79.9153842118162
20
-8.18376365878714
30
0
41
1
10
79.9947221390189
20
-8.29711054780182
30
0
41
1
10
80.1533979934244
20
-8.45034232740301
30
0
41
1
10
80.2327359206272
20
-8.49029820638901
30
0
41
1
10
80.3319083296307
20
-8.50045707245962
30
0
41
1
10
80.3517428114313
20
-8.50052866782244
30
0
41
1
10
80.3914117750327
20
-8.49676132458109
30
0
41
1
10
80.4112462568334
20
-8.49289929947375
30
0
41
1
10
80.4707497022354
20
-8.47512432408382
30
0
41
1
10
80.5104186658368
20
-8.45501580708867
30
0
41
1
10
80.6294255566409
20
-8.36808939192014
30
0
41
1
10
80.7087634838437
20
-8.27450957341
30
0
41
1
10
80.8674393382491
20
-8.00949213726409
30
0
41
1
10
80.9467772654519
20
-7.83799676980505
30
0
41
1
10
81.1054531198574
20
-7.4162853721995
30
0
41
1
10
81.1847910470602
20
-7.16604990914766
30
0
41
1
10
81.3434669014657
20
-6.59312358638533
30
0
41
1
10
81.4228048286685
20
-6.27046580312174
30
0
41
1
10
81.581480683074
20
-5.56592286130908
30
0
41
1
10
81.6608186102767
20
-5.18411806636652
30
0
41
1
10
81.8194944646822
20
-4.3797288311456
30
0
41
1
10
81.8988323918849
20
-3.95724776164585
30
0
41
1
10
82.0575082462905
20
-3.09230943061075
30
0
41
1
10
82.1368461734933
20
-2.64994719210333
30
0
41
1
10
82.2955220278987
20
-1.76530960968168
30
0
41
1
10
82.3748599551014
20
-1.32309760591926
30
0
41
1
10
82.4938668459056
20
-0.672497356048467
30
0
41
1
10
82.5335358095069
20
-0.457719451523673
30
0
41
1
10
82.5831220140087
20
-0.192911184199943
30
0
41
1
10
82.5930392549091
20
-0.140132023164654
30
0
41
1
10
82.6128737367096
20
-0.0349621395189104
30
0
41
1
10
82.6227909776101
20
0.0173096776569253
30
0
41
1
10
82.6525427003112
20
0.17493333057169
30
0
41
1
10
82.6723771821119
20
0.280798341045312
30
0
41
1
10
82.7715495911153
20
0.813558217048808
30
0
41
1
10
82.850887518318
20
1.25093220304177
30
0
41
1
10
83.0095633727235
20
2.13290573680922
30
0
41
1
10
83.0889012999262
20
2.57745715046821
30
0
41
1
10
83.2475771543317
20
3.45480283956945
30
0
41
1
10
83.3269150815345
20
3.88751246272457
30
0
41
1
10
83.4062530087372
20
4.30393036384714
30
0
0
SPLINE
5
FB
100
AcDbEntity
8
1
62
256
6
ByLayer
370
13
48
1
60
0
100
AcDbSpline
70
4
71
3
72
8
73
4
40
0
40
0
40
0
40
0
40
1
40
1
40
1
40
1
41
1
10
83.4062530087375
20
1.32168138082662
30
0
41
1
10
84.4375020058249
20
0.872461918840315
30
0
41
1
10
85.4687510029124
20
0.431899364017767
30
0
41
1
10
86.4999999999998
20
8.53E-14
30
0
0
SPLINE
5
FC
100
AcDbEntity
8
1
62
256
6
ByLayer
370
13
48
1
60
0
100
AcDbSpline
70
4
71
3
72
8
73
4
40
0
40
0
40
0
40
0
40
1
40
1
40
1
40
1
41
1
10
83.4062530087372
20
-8.38120864752983
30
0
41
1
10
84.4375020058247
20
-5.5889327842641
30
0
41
1
10
85.4687510029123
20
-2.79518319629963
30
0
41
1
10
86.4999999999998
20
-4.547E-13
30
0
0
SPLINE
5
FD
100
AcDbEntity
8
1
62
256
6
ByLayer
370
13
48
1
60
0
100
AcDbSpline
70
4
71
3
72
8
73
4
40
0
40
0
40
0
40
0
40
1
40
1
40
1
40
1
41
1
10
83.4062530087375
20
-4.46280255144444
30
0
41
1
10
84.4375020058249
20
-2.98266194419304
30
0
41
1
10
85.4687510029124
20
-1.49505396270166
30
0
41
1
10
86.4999999999998
20
-2.558E-13
30
0
0
SPLINE
5
FE
100
AcDbEntity
8
1
62
256
6
ByLayer
370
13
48
1
60
0
100
AcDbSpline
70
4
71
3
72
8
73
4
40
0
40
0
40
0
40
0
40
1
40
1
40
1
40
1
41
1
10
83.4062530087372
20
3.21957059705238
30
0
41
1
10
84.4375020058249
20
2.15449288494929
30
0
41
1
10
85.4687510029124
20
1.08129753709795
30
0
41
1
10
86.5000000000001
20
-5.68E-14
30
0
0
SPLINE
5
FF
100
AcDbEntity
8
1
62
256
6
ByLayer
370
13
48
1
60
0
100
AcDbSpline
70
4
71
3
72
8
73
4
40
0
40
0
40
0
40
0
40
1
40
1
40
1
40
1
41
1
10
83.4062530087372
20
-3.79021966693031
30
0
41
1
10
84.4375020058249
20
-2.51896719468041
30
0
41
1
10
85.4687510029124
20
-1.25555460535475
30
0
41
1
10
86.5000000000001
20
5.68E-14
30
0
0
SPLINE
5
100
100
AcDbEntity
8
1
62
256
6
ByLayer
370
13
48
1
60
0
100
AcDbSpline
70
4
71
3
72
8
73
4
40
0
40
0
40
0
40
0
40
1
40
1
40
1
40
1
41
1
10
83.4062530087372
20
-2.67714128651812
30
0
41
1
10
84.4375020058249
20
-1.77644136132378
30
0
41
1
10
85.4687510029125
20
-0.884056675151896
30
0
41
1
10
86.5000000000002
20
1.421E-13
30
0
0
SPLINE
5
101
100
AcDbEntity
8
1
62
256
6
ByLayer
370
13
48
1
60
0
100
AcDbSpline
70
4
71
3
72
8
73
4
40
0
40
0
40
0
40
0
40
1
40
1
40
1
40
1
41
1
10
83.4062530087375
20
6.46935258476611
30
0
41
1
10
84.4375020058249
20
4.30721604453609
30
0
41
1
10
85.4687510029124
20
2.15075487203839
30
0
41
1
10
86.4999999999998
20
3.695E-13
30
0
0
SPLINE
5
102
100
AcDbEntity
8
1
62
256
6
ByLayer
370
13
48
1
60
0
100
AcDbSpline
70
4
71
3
72
8
73
4
40
0
40
0
40
0
40
0
40
1
40
1
40
1
40
1
41
1
10
83.4062530087375
20
2.49487881919782
30
0
41
1
10
84.4375020058249
20
1.65487301631586
30
0
41
1
10
85.4687510029124
20
0.823242776760281
30
0
41
1
10
86.4999999999998
20
1.421E-13
30
0
0
SPLINE
5
103
100
AcDbEntity
8
1
62
256
6
ByLayer
370
13
48
1
60
0
100
AcDbSpline
70
4
71
3
72
8
73
4
40
0
40
0
40
0
40
0
40
1
40
1
40
1
40
1
41
1
10
83.4062530087375
20
7.75348804385169
30
0
41
1
10
84.4375020058247
20
5.16539987305117
30
0
41
1
10
85.4687510029121
20
2.58089149571941
30
0
41
1
10
86.4999999999994
20
1.5632E-12
30
0
0
SPLINE
5
104
100
AcDbEntity
8
1
62
256
6
ByLayer
370
13
48
1
60
0
100
AcDbSpline
70
4
71
3
72
8
73
4
40
0
40
0
40
0
40
0
40
1
40
1
40
1
40
1
41
1
10
83.4062530087375
20
7.18349563314101
30
0
41
1
10
84.4375020058249
20
4.78431115521963
30
0
41
1
10
85.4687510029124
20
2.38980115912705
30
0
41
1
10
86.4999999999998
20
3.979E-13
30
0
0
SPLINE
5
105
100
AcDbEntity
8
1
62
256
6
ByLayer
370
13
48
1
60
0
100
AcDbSpline
70
4
71
3
72
8
73
4
40
0
40
0
40
0
40
0
40
1
40
1
40
1
40
1
41
1
10
83.4062530087372
20
-7.82992737925881
30
0
41
1
10
84.4375020058247
20
-5.21654031218674
30
0
41
1
10
85.4687510029123
20
-2.60655203416019
30
0
41
1
10
86.4999999999998
20
-4.263E-13
30
0
0
SPLINE
5
106
100
AcDbEntity
8
1
62
256
6
ByLayer
370
13
48
1
60
0
100
AcDbSpline
70
4
71
3
72
8
73
4
40
0
40
0
40
0
40
0
40
1
40
1
40
1
40
1
41
1
10
83.4062530087372
20
-7.65034565804376
30
0
41
1
10
84.4375020058249
20
-5.10405054625082
30
0
41
1
10
85.4687510029124
20
-2.55392311689749
30
0
41
1
10
86.5000000000001
20
1.421E-13
30
0
0
SPLINE
5
107
100
AcDbEntity
8
1
62
256
6
ByLayer
370
13
48
1
60
0
100
AcDbSpline
70
4
71
3
72
8
73
4
40
0
40
0
40
0
40
0
40
1
40
1
40
1
40
1
41
1
10
83.4062530087375
20
-2.26069557008333
30
0
41
1
10
84.4375020058249
20
-1.51558028454096
30
0
41
1
10
85.4687510029124
20
-0.762011474748618
30
0
41
1
10
86.4999999999998
20
-1.137E-13
30
0
0
SPLINE
5
108
100
AcDbEntity
8
1
62
256
6
ByLayer
370
13
48
1
60
0
100
AcDbSpline
70
4
71
3
72
8
73
4
40
0
40
0
40
0
40
0
40
1
40
1
40
1
40
1
41
1
10
83.4062530087373
20
7.56502847515083
30
0
41
1
10
84.4375020058249
20
5.04734903453507
30
0
41
1
10
85.4687510029124
20
2.5256608019632
30
0
41
1
10
86.5
20
-5.68E-14
30
0
0
SPLINE
5
109
100
AcDbEntity
8
1
62
256
6
ByLayer
370
13
48
1
60
0
100
AcDbSpline
70
4
71
3
72
8
73
4
40
0
40
0
40
0
40
0
40
1
40
1
40
1
40
1
41
1
10
83.4062530087373
20
6.94149384148284
30
0
41
1
10
84.4375020058249
20
4.6327215350986
30
0
41
1
10
85.4687510029124
20
2.31887917339054
30
0
41
1
10
86.5
20
0
30
0
0
SPLINE
5
10A
100
AcDbEntity
8
1
62
256
6
ByLayer
370
13
48
1
60
0
100
AcDbSpline
70
4
71
3
72
8
73
4
40
0
40
0
40
0
40
0
40
1
40
1
40
1
40
1
41
1
10
83.4062530087372
20
-4.82724000961576
30
0
41
1
10
84.4375020058249
20
-3.21094511293936
30
0
41
1
10
85.4687510029124
20
-1.60185742077954
30
0
41
1
10
86.5000000000001
20
8.53E-14
30
0
0
SPLINE
5
10B
100
AcDbEntity
8
1
62
256
6
ByLayer
370
13
48
1
60
0
100
AcDbSpline
70
4
71
3
72
8
73
4
40
0
40
0
40
0
40
0
40
1
40
1
40
1
40
1
41
1
10
83.4062530087372
20
2.07569227441152
30
0
41
1
10
84.4375020058248
20
1.39229508807588
30
0
41
1
10
85.4687510029124
20
0.700394338546346
30
0
41
1
10
86.4999999999999
20
2.84E-14
30
0
0
SPLINE
5
10C
100
AcDbEntity
8
1
62
256
6
ByLayer
370
13
48
1
60
0
100
AcDbSpline
70
4
71
3
72
8
73
4
40
0
40
0
40
0
40
0
40
1
40
1
40
1
40
1
41
1
10
83.4062530087375
20
-3.39582089517657
30
0
41
1
10
84.4375020058249
20
-2.27191629651702
30
0
41
1
10
85.4687510029124
20
-1.13997056825724
30
0
41
1
10
86.4999999999998
20
-1.99E-13
30
0
0
SPLINE
5
10D
100
AcDbEntity
8
1
62
256
6
ByLayer
370
13
48
1
60
0
100
AcDbSpline
70
4
71
3
72
8
73
4
40
0
40
0
40
0
40
0
40
1
40
1
40
1
40
1
41
1
10
83.4062530087372
20
-8.44270639380593
30
0
41
1
10
84.4375020058247
20
-5.62745489574277
30
0
41
1
10
85.4687510029123
20
-2.8132059648681
30
0
41
1
10
86.4999999999998
20
-4.547E-13
30
0
0
SPLINE
5
10E
100
AcDbEntity
8
1
62
256
6
ByLayer
370
13
48
1
60
0
100
AcDbSpline
70
4
71
3
72
8
73
4
40
0
40
0
40
0
40
0
40
1
40
1
40
1
40
1
41
1
10
83.4062530087375
20
8.16789182435753
30
0
41
1
10
84.4375020058251
20
5.44283492092515
30
0
41
1
10
85.4687510029127
20
2.72019128716963
30
0
41
1
10
86.5000000000003
20
-7.39E-13
30
0
0
SPLINE
5
10F
100
AcDbEntity
8
1
62
256
6
ByLayer
370
13
48
1
60
0
100
AcDbSpline
70
4
71
3
72
8
73
4
40
0
40
0
40
0
40
0
40
1
40
1
40
1
40
1
41
1
10
83.4062530087373
20
8.03675628184592
30
0
41
1
10
84.4375020058249
20
5.36069178083758
30
0
41
1
10
85.4687510029124
20
2.68176019535139
30
0
41
1
10
86.5
20
8.53E-14
30
0
0
SPLINE
5
110
100
AcDbEntity
8
1
62
256
6
ByLayer
370
13
48
1
60
0
100
AcDbSpline
70
4
71
3
72
8
73
4
40
0
40
0
40
0
40
0
40
1
40
1
40
1
40
1
41
1
10
83.4062530087372
20
-8.21877968690092
30
0
41
1
10
84.4375020058249
20
-5.47695036849547
30
0
41
1
10
85.4687510029124
20
-2.73734403241207
30
0
41
1
10
86.5000000000001
20
1.421E-13
30
0
0
SPLINE
5
111
100
AcDbEntity
8
1
62
256
6
ByLayer
370
13
48
1
60
0
100
AcDbSpline
70
4
71
3
72
8
73
4
40
0
40
0
40
0
40
0
40
1
40
1
40
1
40
1
41
1
10
83.4062530087372
20
-0.313232669917113
30
0
41
1
10
84.4375020058249
20
-0.200062117296881
30
0
41
1
10
85.4687510029124
20
-0.0956507416260024
30
0
41
1
10
86.5000000000001
20
0
30
0
0
SPLINE
5
112
100
AcDbEntity
8
1
62
256
6
ByLayer
370
13
48
1
60
0
100
AcDbSpline
70
4
71
3
72
8
73
4
40
0
40
0
40
0
40
0
40
1
40
1
40
1
40
1
41
1
10
83.4062530087373
20
6.17866480092812
30
0
41
1
10
84.4375020058249
20
4.12512957970503
30
0
41
1
10
85.4687510029124
20
2.06556478018882
30
0
41
1
10
86.5
20
0
30
0
0
SPLINE
5
113
100
AcDbEntity
8
1
62
256
6
ByLayer
370
13
48
1
60
0
100
AcDbSpline
70
4
71
3
72
8
73
4
40
0
40
0
40
0
40
0
40
1
40
1
40
1
40
1
41
1
10
83.4062530087372
20
-7.05015417121561
30
0
41
1
10
84.4375020058249
20
-4.70499934892817
30
0
41
1
10
85.4687510029124
20
-2.3549367042321
30
0
41
1
10
86.5000000000001
20
1.137E-13
30
0
0
SPLINE
5
114
100
AcDbEntity
8
1
62
256
6
ByLayer
370
13
48
1
60
0
100
AcDbSpline
70
4
71
3
72
8
73
4
40
0
40
0
40
0
40
0
40
1
40
1
40
1
40
1
41
1
10
83.4062530087372
20
0.890161199373807
30
0
41
1
10
84.4375020058248
20
0.602158215992745
30
0
41
1
10
85.4687510029124
20
0.305436382300883
30
0
41
1
10
86.4999999999999
20
2.84E-14
30
0
0
SPLINE
5
115
100
AcDbEntity
8
1
62
256
6
ByLayer
370
13
48
1
60
0
100
AcDbSpline
70
4
71
3
72
8
73
4
40
0
40
0
40
0
40
0
40
1
40
1
40
1
40
1
41
1
10
83.4062530087375
20
5.62538955069152
30
0
41
1
10
84.4375020058247
20
3.74368837078245
30
0
41
1
10
85.4687510029121
20
1.86854955735467
30
0
41
1
10
86.4999999999994
20
1.1369E-12
30
0
0
SPLINE
5
116
100
AcDbEntity
8
1
62
256
6
ByLayer
370
13
48
1
60
0
100
AcDbSpline
70
4
71
3
72
8
73
4
40
0
40
0
40
0
40
0
40
1
40
1
40
1
40
1
41
1
10
83.4062530087375
20
-1.08020504611832
30
0
41
1
10
84.4375020058249
20
-0.728831243086631
30
0
41
1
10
85.4687510029124
20
-0.368761157356516
30
0
41
1
10
86.4999999999998
20
-5.68E-14
30
0
0
SPLINE
5
117
100
AcDbEntity
8
1
62
256
6
ByLayer
370
13
48
1
60
0
100
AcDbSpline
70
4
71
3
72
8
73
4
40
0
40
0
40
0
40
0
40
1
40
1
40
1
40
1
41
1
10
83.4062530087372
20
-5.76739250952926
30
0
41
1
10
84.4375020058249
20
-3.83848925004591
30
0
41
1
10
85.4687510029124
20
-1.91601589026959
30
0
41
1
10
86.5000000000001
20
1.137E-13
30
0
0
SPLINE
5
118
100
AcDbEntity
8
1
62
256
6
ByLayer
370
13
48
1
60
0
100
AcDbSpline
70
4
71
3
72
8
73
4
40
0
40
0
40
0
40
0
40
1
40
1
40
1
40
1
41
1
10
83.4062530087375
20
4.66854227024797
30
0
41
1
10
84.4375020058249
20
3.10503639913424
30
0
41
1
10
85.4687510029124
20
1.54884820676261
30
0
41
1
10
86.4999999999998
20
2.558E-13
30
0
0
SPLINE
5
119
100
AcDbEntity
8
1
62
256
6
ByLayer
370
13
48
1
60
0
100
AcDbSpline
70
4
71
3
72
8
73
4
40
0
40
0
40
0
40
0
40
1
40
1
40
1
40
1
41
1
10
83.4062530087373
20
8.34721113704995
30
0
41
1
10
84.4375020058249
20
5.56646194994462
30
0
41
1
10
85.4687510029124
20
2.78404491939671
30
0
41
1
10
86.5
20
-2.84E-14
30
0
0
SPLINE
5
11A
100
AcDbEntity
8
1
62
256
6
ByLayer
370
13
48
1
60
0
100
AcDbSpline
70
4
71
3
72
8
73
4
40
0
40
0
40
0
40
0
40
1
40
1
40
1
40
1
41
1
10
83.4062530087372
20
-8.49721398048987
30
0
41
1
10
84.4375020058249
20
-5.66503373150522
30
0
41
1
10
85.4687510029124
20
-2.83261551613921
30
0
41
1
10
86.5000000000001
20
1.421E-13
30
0
0
SPLINE
5
11B
100
AcDbEntity
8
1
62
256
6
ByLayer
370
13
48
1
60
0
100
AcDbSpline
70
4
71
3
72
8
73
4
40
0
40
0
40
0
40
0
40
1
40
1
40
1
40
1
41
1
10
83.4062530087375
20
8.41839116683167
30
0
41
1
10
84.4375020058251
20
5.61104903172119
30
0
41
1
10
85.4687510029127
20
2.80490521560432
30
0
41
1
10
86.5000000000003
20
-7.674E-13
30
0
0
SPLINE
5
11C
100
AcDbEntity
8
1
62
256
6
ByLayer
370
13
48
1
60
0
100
AcDbSpline
70
4
71
3
72
8
73
4
40
0
40
0
40
0
40
0
40
1
40
1
40
1
40
1
41
1
10
83.4062530087372
20
-6.30848779927402
30
0
41
1
10
84.4375020058249
20
-4.21153330248544
30
0
41
1
10
85.4687510029124
20
-2.10869396332345
30
0
41
1
10
86.5000000000001
20
1.137E-13
30
0
0
SPLINE
5
11D
100
AcDbEntity
8
1
62
256
6
ByLayer
370
13
48
1
60
0
100
AcDbSpline
70
4
71
3
72
8
73
4
40
0
40
0
40
0
40
0
40
1
40
1
40
1
40
1
41
1
10
83.4062530087372
20
-5.44022950253657
30
0
41
1
10
84.4375020058249
20
-3.63355475097535
30
0
41
1
10
85.4687510029124
20
-1.82013622774153
30
0
41
1
10
86.5000000000001
20
8.53E-14
30
0
0
SPLINE
5
11E
100
AcDbEntity
8
1
62
256
6
ByLayer
370
13
48
1
60
0
100
AcDbSpline
70
4
71
3
72
8
73
4
40
0
40
0
40
0
40
0
40
1
40
1
40
1
40
1
41
1
10
83.4062530087372
20
-1.51034092404078
30
0
41
1
10
84.4375020058249
20
-0.998267819931215
30
0
41
1
10
85.4687510029125
20
-0.494818449699778
30
0
41
1
10
86.5000000000002
20
8.53E-14
30
0
0
SPLINE
5
11F
100
AcDbEntity
8
1
62
256
6
ByLayer
370
13
48
1
60
0
100
AcDbSpline
70
4
71
3
72
8
73
4
40
0
40
0
40
0
40
0
40
1
40
1
40
1
40
1
41
1
10
83.4062530087373
20
5.29184898339844
30
0
41
1
10
84.4375020058249
20
3.53475897590261
30
0
41
1
10
85.4687510029125
20
1.77080086221429
30
0
41
1
10
86.5000000000001
20
-8.53E-14
30
0
0
SPLINE
5
120
100
AcDbEntity
8
1
62
256
6
ByLayer
370
13
48
1
60
0
100
AcDbSpline
70
4
71
3
72
8
73
4
40
0
40
0
40
0
40
0
40
1
40
1
40
1
40
1
41
1
10
83.4062530087372
20
-6.59181120095087
30
0
41
1
10
84.4375020058249
20
-4.38900672752615
30
0
41
1
10
85.4687510029124
20
-2.19172582071093
30
0
41
1
10
86.5000000000001
20
1.137E-13
30
0
0
SPLINE
5
121
100
AcDbEntity
8
1
62
256
6
ByLayer
370
13
48
1
60
0
100
AcDbSpline
70
4
71
3
72
8
73
4
40
0
40
0
40
0
40
0
40
1
40
1
40
1
40
1
41
1
10
83.4062530087372
20
-7.28395253932513
30
0
41
1
10
84.4375020058249
20
-4.85145035478135
30
0
41
1
10
85.4687510029124
20
-2.4234545627761
30
0
41
1
10
86.5000000000001
20
1.421E-13
30
0
0
SPLINE
5
122
100
AcDbEntity
8
1
62
256
6
ByLayer
370
13
48
1
60
0
100
AcDbSpline
70
4
71
3
72
8
73
4
40
0
40
0
40
0
40
0
40
1
40
1
40
1
40
1
41
1
10
83.4062530087373
20
8.49016316778341
30
0
41
1
10
84.4375020058249
20
5.66053036817763
30
0
41
1
10
85.4687510029124
20
2.83046243464682
30
0
41
1
10
86.5
20
0
30
0
0
SPLINE
5
123
100
AcDbEntity
8
1
62
256
6
ByLayer
370
13
48
1
60
0
100
AcDbSpline
70
4
71
3
72
8
73
4
40
0
40
0
40
0
40
0
40
1
40
1
40
1
40
1
41
1
10
83.4062530087375
20
0.121961866913807
30
0
41
1
10
84.4375020058249
20
0.0725431971715693
30
0
41
1
10
85.4687510029124
20
0.031889060960367
30
0
41
1
10
86.4999999999998
20
0
30
0
0
SPLINE
5
124
100
AcDbEntity
8
1
62
256
6
ByLayer
370
13
48
1
60
0
100
AcDbSpline
70
4
71
3
72
8
73
4
40
0
40
0
40
0
40
0
40
1
40
1
40
1
40
1
41
1
10
83.4062530087372
20
4.29884205163464
30
0
41
1
10
84.4375020058249
20
2.8734566438182
30
0
41
1
10
85.4687510029124
20
1.44050242365256
30
0
41
1
10
86.5000000000001
20
-8.53E-14
30
0
0
SPLINE
5
125
100
AcDbEntity
8
1
62
256
6
ByLayer
370
13
48
1
60
0
100
AcDbSpline
70
4
71
3
72
8
73
4
40
0
40
0
40
0
40
0
40
1
40
1
40
1
40
1
41
1
10
83.4062530087375
20
3.61801172199344
30
0
41
1
10
84.4375020058249
20
2.40407590810187
30
0
41
1
10
85.4687510029124
20
1.19806624193367
30
0
41
1
10
86.4999999999998
20
1.99E-13
30
0
0
SPLINE
5
126
100
AcDbEntity
8
1
62
256
6
ByLayer
370
13
48
1
60
0
100
AcDbSpline
70
4
71
3
72
8
73
4
40
0
40
0
40
0
40
0
40
1
40
1
40
1
40
1
41
1
10
83.4062530087372
20
-8.09701826475026
30
0
41
1
10
84.4375020058247
20
-5.400679165697
30
0
41
1
10
85.4687510029123
20
-2.70166015674434
30
0
41
1
10
86.4999999999998
20
-4.547E-13
30
0
0
LINE
5
7D
100
AcDbEntity
8
4
62
256
6
ByLayer
370
18
48
0.05
60
0
100
AcDbLine
10
-5
20
0
30
0
11
91.5
21
0
31
0
39
0
210
0
220
0
230
1
0
LINE
5
7F
100
AcDbEntity
8
81
62
256
6
ByLayer
370
18
48
1
60
0
100
AcDbLine
10
86.5
20
0
30
0
11
91.5
21
0
31
0
39
0
210
0
220
0
230
1
0
LINE
5
80
100
AcDbEntity
8
SK4
62
256
6
ByLayer
370
18
48
0.05
60
0
100
AcDbLine
10
-55
20
0
30
0
11
91.5
21
0
31
0
39
0
210
0
220
0
230
1
0
LINE
5
82
100
AcDbEntity
8
80
62
256
6
ByLayer
370
18
48
1
60
0
100
AcDbLine
10
0
20
0
30
0
11
-5
21
0
31
0
39
0
210
0
220
0
230
1
0
LINE
5
83
100
AcDbEntity
8
1
62
256
6
ByLayer
370
18
48
1
60
0
100
AcDbLine
10
10
20
-8.1
30
0
11
42.973999
21
-8.1
31
0
39
0
210
0
220
0
230
1
0
LINE
5
84
100
AcDbEntity
8
1
62
256
6
ByLayer
370
18
48
1
60
0
100
AcDbLine
10
42.973999
20
8.1
30
0
11
10
21
8.1
31
0
39
0
210
0
220
0
230
1
0
LINE
5
85
100
AcDbEntity
8
1
62
256
6
ByLayer
370
18
48
1
60
0
100
AcDbLine
10
86.5
20
0
30
0
11
83.406253
21
8.5
31
0
39
0
210
0
220
0
230
1
0
LINE
5
86
100
AcDbEntity
8
1
62
256
6
ByLayer
370
18
48
1
60
0
100
AcDbLine
10
83.406253
20
-8.5
30
0
11
86.5
21
0
31
0
39
0
210
0
220
0
230
1
0
LINE
5
87
100
AcDbEntity
8
1
62
256
6
ByLayer
370
18
48
1
60
0
100
AcDbLine
10
10
20
8.1
30
0
11
0
21
10
31
0
39
0
210
0
220
0
230
1
0
LINE
5
88
100
AcDbEntity
8
1
62
256
6
ByLayer
370
18
48
1
60
0
100
AcDbLine
10
0
20
-10
30
0
11
10
21
-8.1
31
0
39
0
210
0
220
0
230
1
0
LINE
5
89
100
AcDbEntity
8
1
62
256
6
ByLayer
370
18
48
1
60
0
100
AcDbLine
10
74.3
20
-8.5
30
0
11
83.406253
21
-8.5
31
0
39
0
210
0
220
0
230
1
0
LINE
5
8A
100
AcDbEntity
8
1
62
256
6
ByLayer
370
18
48
1
60
0
100
AcDbLine
10
86.5
20
0
30
0
11
83.406253
21
8.5
31
0
39
0
210
0
220
0
230
1
0
LINE
5
8B
100
AcDbEntity
8
1
62
256
6
ByLayer
370
18
48
1
60
0
100
AcDbLine
10
83.406253
20
-8.5
30
0
11
86.5
21
0
31
0
39
0
210
0
220
0
230
1
0
LINE
5
8C
100
AcDbEntity
8
SK1
62
256
6
ByLayer
370
18
48
1
60
0
100
AcDbLine
10
-49
20
-10
30
0
11
0
21
-10
31
0
39
0
210
0
220
0
230
1
0
LINE
5
8E
100
AcDbEntity
8
SK1
62
256
6
ByLayer
370
18
48
1
60
0
100
AcDbLine
10
0
20
10
30
0
11
-49
21
10
31
0
39
0
210
0
220
0
230
1
0
LINE
5
8F
100
AcDbEntity
8
SK1
62
256
6
ByLayer
370
18
48
1
60
0
100
AcDbLine
10
-50
20
-9
30
0
11
-49
21
-10
31
0
39
0
210
0
220
0
230
1
0
LINE
5
90
100
AcDbEntity
8
SK1
62
256
6
ByLayer
370
18
48
1
60
0
100
AcDbLine
10
-49
20
10
30
0
11
-50
21
9
31
0
39
0
210
0
220
0
230
1
0
LINE
5
91
100
AcDbEntity
8
1
62
256
6
ByLayer
370
18
48
1
60
0
100
AcDbLine
10
0
20
10
30
0
11
0
21
-10
31
0
39
0
210
0
220
0
230
1
0
LINE
5
92
100
AcDbEntity
8
1
62
256
6
ByLayer
370
18
48
1
60
0
100
AcDbLine
10
83.406253
20
8.5
30
0
11
83.406253
21
8.230059
31
0
39
0
210
0
220
0
230
1
0
LINE
5
93
100
AcDbEntity
8
1
62
256
6
ByLayer
370
18
48
1
60
0
100
AcDbLine
10
83.406253
20
-8.5
30
0
11
83.406253
21
-1.213228
31
0
39
0
210
0
220
0
230
1
0
LINE
5
94
100
AcDbEntity
8
1
62
256
6
ByLayer
370
18
48
1
60
0
100
AcDbLine
10
10
20
-8.1
30
0
11
10
21
-1.082457
31
0
39
0
210
0
220
0
230
1
0
LINE
5
95
100
AcDbEntity
8
1
62
256
6
ByLayer
370
18
48
1
60
0
100
AcDbLine
10
10
20
8.1
30
0
11
10
21
7.458849
31
0
39
0
210
0
220
0
230
1
0
LINE
5
96
100
AcDbEntity
8
SK1
62
256
6
ByLayer
370
13
48
1
60
0
100
AcDbLine
10
-14.992177
20
-6.1943
30
0
11
-14.992177
21
6.1943
31
0
39
0
210
0
220
0
230
1
0
LINE
5
97
100
AcDbEntity
8
SK1
62
256
6
ByLayer
370
13
48
1
60
0
100
AcDbLine
10
-42.24218
20
4.745825
30
0
11
-42.24218
21
-4.745825
31
0
39
0
210
0
220
0
230
1
0
LINE
5
98
100
AcDbEntity
8
SK1
62
256
6
ByLayer
370
13
48
1
60
0
100
AcDbLine
10
-13.845141
20
5.608199
30
0
11
-13.845141
21
-5.608199
31
0
39
0
210
0
220
0
230
1
0
LINE
5
99
100
AcDbEntity
8
SK1
62
256
6
ByLayer
370
18
48
1
60
0
100
AcDbLine
10
0
20
10
30
0
11
0
21
-10
31
0
39
0
210
0
220
0
230
1
0
LINE
5
9A
100
AcDbEntity
8
SK1
62
256
6
ByLayer
370
18
48
1
60
0
100
AcDbLine
10
-50
20
-9
30
0
11
-50
21
9
31
0
39
0
210
0
220
0
230
1
0
LINE
5
9B
100
AcDbEntity
8
SK1
62
256
6
ByLayer
370
18
48
1
60
0
100
AcDbLine
10
-49
20
-10
30
0
11
-49
21
10
31
0
39
0
210
0
220
0
230
1
0
LINE
5
9C
100
AcDbEntity
8
SK1
62
256
6
ByLayer
370
13
48
1
60
0
100
AcDbLine
10
-43.356507
20
-3.65035
30
0
11
-43.356507
21
3.65035
31
0
39
0
210
0
220
0
230
1
0
LINE
5
9D
100
AcDbEntity
8
1
62
256
6
ByLayer
370
18
48
1
60
0
100
AcDbLine
10
83.406253
20
8.5
30
0
11
83.406253
21
-8.5
31
0
39
0
210
0
220
0
230
1
0
LINE
5
9E
100
AcDbEntity
8
1
62
256
6
ByLayer
370
18
48
1
60
0
100
AcDbLine
10
83.406253
20
8.5
30
0
11
83.406253
21
-8.5
31
0
39
0
210
0
220
0
230
1
0
LINE
5
9F
100
AcDbEntity
8
1
62
256
6
ByLayer
370
18
48
1
60
0
100
AcDbLine
10
83.406253
20
8.5
30
0
11
83.406253
21
-8.5
31
0
39
0
210
0
220
0
230
1
0
LINE
5
A0
100
AcDbEntity
8
1
62
256
6
ByLayer
370
18
48
1
60
0
100
AcDbLine
10
74.3
20
8.5
30
0
11
74.3
21
-8.5
31
0
39
0
210
0
220
0
230
1
0
LINE
5
A1
100
AcDbEntity
8
1
62
256
6
ByLayer
370
18
48
1
60
0
100
AcDbLine
10
74.3
20
8.5
30
0
11
74.3
21
-8.5
31
0
39
0
210
0
220
0
230
1
0
LINE
5
A2
100
AcDbEntity
8
1
62
256
6
ByLayer
370
18
48
1
60
0
100
AcDbLine
10
83.406253
20
8.5
30
0
11
83.406253
21
-8.5
31
0
39
0
210
0
220
0
230
1
0
LINE
5
A3
100
AcDbEntity
8
1
62
256
6
ByLayer
370
18
48
1
60
0
100
AcDbLine
10
74.3
20
8.5
30
0
11
74.3
21
-8.5
31
0
39
0
210
0
220
0
230
1
0
LINE
5
A4
100
AcDbEntity
8
1
62
256
6
ByLayer
370
18
48
1
60
0
100
AcDbLine
10
83.406253
20
8.5
30
0
11
83.406253
21
-8.5
31
0
39
0
210
0
220
0
230
1
0
LINE
5
A5
100
AcDbEntity
8
SK2
62
256
6
ByLayer
370
13
48
1
60
0
100
AcDbLine
10
-56.5
20
-10
30
0
11
-56.5
21
39.024569
31
0
39
0
210
0
220
0
230
1
0
LINE
5
A7
100
AcDbEntity
8
SK2
62
256
6
ByLayer
370
13
48
1
60
0
100
AcDbLine
10
-51.5875
20
10
30
0
11
-58.5
21
10
31
0
39
0
210
0
220
0
230
1
0
LINE
5
A8
100
AcDbEntity
8
SK2
62
256
6
ByLayer
370
13
48
1
60
0
100
AcDbLine
10
-51.5875
20
-10
30
0
11
-58.5
21
-10
31
0
39
0
210
0
220
0
230
1
0
LINE
5
A9
100
AcDbEntity
8
1
62
256
6
ByLayer
370
18
48
1
60
1
100
AcDbLine
10
-56.5
20
10
30
0
11
-56.039216
21
6.500002
31
0
39
0
210
0
220
0
230
1
0
LINE
5
AA
100
AcDbEntity
8
1
62
256
6
ByLayer
370
18
48
1
60
1
100
AcDbLine
10
-56.039216
20
6.500002
30
0
11
-56.960784
21
6.499998
31
0
39
0
210
0
220
0
230
1
0
LINE
5
AB
100
AcDbEntity
8
1
62
256
6
ByLayer
370
18
48
1
60
1
100
AcDbLine
10
-56.960784
20
6.499998
30
0
11
-56.5
21
10
31
0
39
0
210
0
220
0
230
1
0
LINE
5
AC
100
AcDbEntity
8
1
62
256
6
ByLayer
370
18
48
1
60
1
100
AcDbLine
10
-56.5
20
-10
30
0
11
-56.960784
21
-6.500002
31
0
39
0
210
0
220
0
230
1
0
LINE
5
AD
100
AcDbEntity
8
1
62
256
6
ByLayer
370
18
48
1
60
1
100
AcDbLine
10
-56.960784
20
-6.500002
30
0
11
-56.039216
21
-6.499998
31
0
39
0
210
0
220
0
230
1
0
LINE
5
AE
100
AcDbEntity
8
1
62
256
6
ByLayer
370
18
48
1
60
1
100
AcDbLine
10
-56.039216
20
-6.499998
30
0
11
-56.5
21
-10
31
0
39
0
210
0
220
0
230
1
0
LINE
5
AF
100
AcDbEntity
8
2
62
256
6
ByLayer
370
13
48
1
60
0
100
AcDbLine
10
94
20
-8.5
30
0
11
94
21
36.774683
31
0
39
0
210
0
220
0
230
1
0
LINE
5
B1
100
AcDbEntity
8
2
62
256
6
ByLayer
370
13
48
1
60
0
100
AcDbLine
10
84.993753
20
8.5
30
0
11
96
21
8.5
31
0
39
0
210
0
220
0
230
1
0
LINE
5
B2
100
AcDbEntity
8
2
62
256
6
ByLayer
370
13
48
1
60
0
100
AcDbLine
10
84.993753
20
-8.5
30
0
11
96
21
-8.5
31
0
39
0
210
0
220
0
230
1
0
LINE
5
B3
100
AcDbEntity
8
1
62
256
6
ByLayer
370
18
48
1
60
1
100
AcDbLine
10
94
20
8.5
30
0
11
94.460784
21
5.000002
31
0
39
0
210
0
220
0
230
1
0
LINE
5
B4
100
AcDbEntity
8
1
62
256
6
ByLayer
370
18
48
1
60
1
100
AcDbLine
10
94.460784
20
5.000002
30
0
11
93.539216
21
4.999998
31
0
39
0
210
0
220
0
230
1
0
LINE
5
B5
100
AcDbEntity
8
1
62
256
6
ByLayer
370
18
48
1
60
1
100
AcDbLine
10
93.539216
20
4.999998
30
0
11
94
21
8.5
31
0
39
0
210
0
220
0
230
1
0
LINE
5
B6
100
AcDbEntity
8
1
62
256
6
ByLayer
370
18
48
1
60
1
100
AcDbLine
10
94
20
-8.5
30
0
11
93.539216
21
-5.000002
31
0
39
0
210
0
220
0
230
1
0
LINE
5
B7
100
AcDbEntity
8
1
62
256
6
ByLayer
370
18
48
1
60
1
100
AcDbLine
10
93.539216
20
-5.000002
30
0
11
94.460784
21
-4.999998
31
0
39
0
210
0
220
0
230
1
0
LINE
5
B8
100
AcDbEntity
8
1
62
256
6
ByLayer
370
18
48
1
60
1
100
AcDbLine
10
94.460784
20
-4.999998
30
0
11
94
21
-8.5
31
0
39
0
210
0
220
0
230
1
0
LINE
5
B9
100
AcDbEntity
8
SK2
62
256
6
ByLayer
370
13
48
1
60
0
100
AcDbLine
10
87.042957
20
-1.491762
30
0
11
93.682423
21
-19.733545
31
0
39
0
210
0
220
0
230
1
0
LINE
5
BA
100
AcDbEntity
8
SK2
62
256
6
ByLayer
370
13
48
1
60
0
100
AcDbLine
10
87.042957
20
1.491762
30
0
11
93.682423
21
19.733545
31
0
39
0
210
0
220
0
230
1
0
LINE
5
BB
100
AcDbEntity
8
1
62
256
6
ByLayer
370
18
48
1
60
1
100
AcDbLine
10
92.998383
20
-17.85416
30
0
11
96.051575
21
-16.082064
31
0
39
0
210
0
220
0
230
1
0
LINE
5
BC
100
AcDbEntity
8
1
62
256
6
ByLayer
370
18
48
1
60
1
100
AcDbLine
10
96.051575
20
-16.082064
30
0
11
96.406196
21
-16.93267
31
0
39
0
210
0
220
0
230
1
0
LINE
5
BD
100
AcDbEntity
8
1
62
256
6
ByLayer
370
18
48
1
60
1
100
AcDbLine
10
96.406196
20
-16.93267
30
0
11
92.998383
21
-17.85416
31
0
39
0
210
0
220
0
230
1
0
LINE
5
BE
100
AcDbEntity
8
1
62
256
6
ByLayer
370
18
48
1
60
1
100
AcDbLine
10
92.998383
20
17.85416
30
0
11
96.406193
21
16.932671
31
0
39
0
210
0
220
0
230
1
0
LINE
5
BF
100
AcDbEntity
8
1
62
256
6
ByLayer
370
18
48
1
60
1
100
AcDbLine
10
96.406193
20
16.932671
30
0
11
96.051579
21
16.082063
31
0
39
0
210
0
220
0
230
1
0
LINE
5
C0
100
AcDbEntity
8
1
62
256
6
ByLayer
370
18
48
1
60
1
100
AcDbLine
10
96.051579
20
16.082063
30
0
11
92.998383
21
17.85416
31
0
39
0
210
0
220
0
230
1
0
LINE
5
12B
100
AcDbEntity
8
1
62
256
6
ByLayer
370
18
48
1
60
1
100
AcDbLine
10
-56.5
20
10
30
0
11
-56.039216
21
6.500002
31
0
39
0
210
0
220
0
230
1
0
LINE
5
12C
100
AcDbEntity
8
1
62
256
6
ByLayer
370
18
48
1
60
1
100
AcDbLine
10
-56.039216
20
6.500002
30
0
11
-56.960784
21
6.499998
31
0
39
0
210
0
220
0
230
1
0
LINE
5
12D
100
AcDbEntity
8
1
62
256
6
ByLayer
370
18
48
1
60
1
100
AcDbLine
10
-56.960784
20
6.499998
30
0
11
-56.5
21
10
31
0
39
0
210
0
220
0
230
1
0
LINE
5
12F
100
AcDbEntity
8
1
62
256
6
ByLayer
370
18
48
1
60
1
100
AcDbLine
10
-56.5
20
-10
30
0
11
-56.960784
21
-6.500002
31
0
39
0
210
0
220
0
230
1
0
LINE
5
130
100
AcDbEntity
8
1
62
256
6
ByLayer
370
18
48
1
60
1
100
AcDbLine
10
-56.960784
20
-6.500002
30
0
11
-56.039216
21
-6.499998
31
0
39
0
210
0
220
0
230
1
0
LINE
5
131
100
AcDbEntity
8
1
62
256
6
ByLayer
370
18
48
1
60
1
100
AcDbLine
10
-56.039216
20
-6.499998
30
0
11
-56.5
21
-10
31
0
39
0
210
0
220
0
230
1
0
LINE
5
135
100
AcDbEntity
8
1
62
256
6
ByLayer
370
18
48
1
60
1
100
AcDbLine
10
94
20
8.5
30
0
11
94.460784
21
5.000002
31
0
39
0
210
0
220
0
230
1
0
LINE
5
136
100
AcDbEntity
8
1
62
256
6
ByLayer
370
18
48
1
60
1
100
AcDbLine
10
94.460784
20
5.000002
30
0
11
93.539216
21
4.999998
31
0
39
0
210
0
220
0
230
1
0
LINE
5
137
100
AcDbEntity
8
1
62
256
6
ByLayer
370
18
48
1
60
1
100
AcDbLine
10
93.539216
20
4.999998
30
0
11
94
21
8.5
31
0
39
0
210
0
220
0
230
1
0
LINE
5
139
100
AcDbEntity
8
1
62
256
6
ByLayer
370
18
48
1
60
1
100
AcDbLine
10
94
20
-8.5
30
0
11
93.539216
21
-5.000002
31
0
39
0
210
0
220
0
230
1
0
LINE
5
13A
100
AcDbEntity
8
1
62
256
6
ByLayer
370
18
48
1
60
1
100
AcDbLine
10
93.539216
20
-5.000002
30
0
11
94.460784
21
-4.999998
31
0
39
0
210
0
220
0
230
1
0
LINE
5
13B
100
AcDbEntity
8
1
62
256
6
ByLayer
370
18
48
1
60
1
100
AcDbLine
10
94.460784
20
-4.999998
30
0
11
94
21
-8.5
31
0
39
0
210
0
220
0
230
1
0
LINE
5
13E
100
AcDbEntity
8
1
62
256
6
ByLayer
370
18
48
1
60
1
100
AcDbLine
10
92.998383
20
-17.85416
30
0
11
96.051575
21
-16.082064
31
0
39
0
210
0
220
0
230
1
0
LINE
5
13F
100
AcDbEntity
8
1
62
256
6
ByLayer
370
18
48
1
60
1
100
AcDbLine
10
96.051575
20
-16.082064
30
0
11
96.406196
21
-16.93267
31
0
39
0
210
0
220
0
230
1
0
LINE
5
140
100
AcDbEntity
8
1
62
256
6
ByLayer
370
18
48
1
60
1
100
AcDbLine
10
96.406196
20
-16.93267
30
0
11
92.998383
21
-17.85416
31
0
39
0
210
0
220
0
230
1
0
LINE
5
142
100
AcDbEntity
8
1
62
256
6
ByLayer
370
18
48
1
60
1
100
AcDbLine
10
92.998383
20
17.85416
30
0
11
96.406193
21
16.932671
31
0
39
0
210
0
220
0
230
1
0
LINE
5
143
100
AcDbEntity
8
1
62
256
6
ByLayer
370
18
48
1
60
1
100
AcDbLine
10
96.406193
20
16.932671
30
0
11
96.051579
21
16.082063
31
0
39
0
210
0
220
0
230
1
0
LINE
5
144
100
AcDbEntity
8
1
62
256
6
ByLayer
370
18
48
1
60
1
100
AcDbLine
10
96.051579
20
16.082063
30
0
11
92.998383
21
17.85416
31
0
39
0
210
0
220
0
230
1
0
MTEXT
5
127
100
AcDbEntity
8
SK2
62
256
6
ByLayer
370
18
48
1
60
0
100
AcDbMText
10
-57.841114
20
21.658438
30
0
210
0
220
0
230
1
1
%%c
40
3
41
0
44
1.084337
50
90
71
7
72
5
7
iso_b_vert
0
MTEXT
5
12A
100
AcDbEntity
8
SK2
62
256
6
ByLayer
370
18
48
1
60
0
100
AcDbMText
10
-57.841114
20
27.635
30
0
210
0
220
0
230
1
1
\W0.7513;20.000
40
3
41
0
44
1.084337
50
90
71
7
72
5
7
iso_b_vert
0
MTEXT
5
133
100
AcDbEntity
8
2
62
256
6
ByLayer
370
18
48
1
60
0
100
AcDbMText
10
92.658886
20
20.158438
30
0
210
0
220
0
230
1
1
%%c
40
3
41
0
44
1.084337
50
90
71
7
72
5
7
iso_b_vert
0
MTEXT
5
134
100
AcDbEntity
8
2
62
256
6
ByLayer
370
18
48
1
60
0
100
AcDbMText
10
92.658886
20
26.135
30
0
210
0
220
0
230
1
1
\W0.7022;17.000
40
3
41
0
44
1.084337
50
90
71
7
72
5
7
iso_b_vert
0
MTEXT
5
13D
100
AcDbEntity
8
SK2
62
256
6
ByLayer
370
18
48
1
60
0
100
AcDbMText
10
106.409114
20
3.734657
30
0
210
0
220
0
230
1
1
\W0.7071;140%%d
40
3
41
0
44
1.084337
50
270
71
7
72
5
7
iso_b_vert
0
MTEXT
5
146
100
AcDbEntity
8
SK6
62
256
6
ByLayer
370
18
48
1
60
0
100
AcDbMText
10
-5.287254
20
-67.114886
30
0
210
0
220
0
230
1
1
\W0.7358;H85317.0
40
3
41
0
44
1.084337
50
0
71
7
72
5
7
iso_b_vert
0
HATCH
5
12E
100
AcDbEntity
8
SK2
62
256
6
ByLayer
370
13
48
1
60
0
100
AcDbHatch
10
0
20
0
30
0
210
0
220
0
230
1
2
ANSI31
70
0
71
0
91
1
92
5
93
3
72
1
10
-56.5
20
10
11
-56.0392162584472
21
6.50000169255318
72
1
10
-56.0392162584472
20
6.50000169255318
11
-56.9607837415528
21
6.49999830744682
72
1
10
-56.9607837415528
20
6.49999830744682
11
-56.5
21
10
97
0
75
0
76
1
52
0
41
0.0062
77
0
78
1
53
45
43
0
44
0
45
-0.0139193969876572
46
0.0139193969876572
79
0
47
0
98
1
10
0
20
0
0
HATCH
5
132
100
AcDbEntity
8
SK2
62
256
6
ByLayer
370
13
48
1
60
0
100
AcDbHatch
10
0
20
0
30
0
210
0
220
0
230
1
2
ANSI31
70
0
71
0
91
1
92
5
93
3
72
1
10
-56.5
20
-10
11
-56.9607837415528
21
-6.50000169255318
72
1
10
-56.9607837415528
20
-6.50000169255318
11
-56.0392162584472
21
-6.49999830744682
72
1
10
-56.0392162584472
20
-6.49999830744682
11
-56.5
21
-10
97
0
75
0
76
1
52
0
41
0.0062
77
0
78
1
53
45
43
0
44
0
45
-0.0139193969876572
46
0.0139193969876572
79
0
47
0
98
1
10
0
20
0
0
HATCH
5
138
100
AcDbEntity
8
2
62
256
6
ByLayer
370
13
48
1
60
0
100
AcDbHatch
10
0
20
0
30
0
210
0
220
0
230
1
2
ANSI31
70
0
71
0
91
1
92
5
93
3
72
1
10
94
20
8.5
11
94.4607837415528
21
5.00000169255318
72
1
10
94.4607837415528
20
5.00000169255318
11
93.5392162584472
21
4.99999830744682
72
1
10
93.5392162584472
20
4.99999830744682
11
94
21
8.5
97
0
75
0
76
1
52
0
41
0.0062
77
0
78
1
53
45
43
0
44
0
45
-0.0139193969876572
46
0.0139193969876572
79
0
47
0
98
1
10
0
20
0
0
HATCH
5
13C
100
AcDbEntity
8
2
62
256
6
ByLayer
370
13
48
1
60
0
100
AcDbHatch
10
0
20
0
30
0
210
0
220
0
230
1
2
ANSI31
70
0
71
0
91
1
92
5
93
3
72
1
10
94
20
-8.5
11
93.5392162584472
21
-5.00000169255318
72
1
10
93.5392162584472
20
-5.00000169255318
11
94.4607837415528
21
-4.99999830744682
72
1
10
94.4607837415528
20
-4.99999830744682
11
94
21
-8.5
97
0
75
0
76
1
52
0
41
0.0062
77
0
78
1
53
45
43
0
44
0
45
-0.0139193969876572
46
0.0139193969876572
79
0
47
0
98
1
10
0
20
0
0
HATCH
5
141
100
AcDbEntity
8
SK2
62
256
6
ByLayer
370
13
48
1
60
0
100
AcDbHatch
10
0
20
0
30
0
210
0
220
0
230
1
2
ANSI31
70
0
71
0
91
1
92
5
93
3
72
1
10
92.9983827231877
20
-17.8541597949323
11
96.0515754256929
21
-16.0820638240608
72
1
10
96.0515754256929
20
-16.0820638240608
11
96.4061958339751
21
-16.9326700737196
72
1
10
96.4061958339751
20
-16.9326700737196
11
92.9983827231877
21
-17.8541597949323
97
0
75
0
76
1
52
0
41
0.0062
77
0
78
1
53
45
43
0
44
0
45
-0.0139193969876572
46
0.0139193969876572
79
0
47
0
98
1
10
0
20
0
0
HATCH
5
145
100
AcDbEntity
8
SK2
62
256
6
ByLayer
370
13
48
1
60
0
100
AcDbHatch
10
0
20
0
30
0
210
0
220
0
230
1
2
ANSI31
70
0
71
0
91
1
92
5
93
3
72
1
10
92.9983827231877
20
17.8541597949323
11
96.4061927095191
21
16.9326713763016
72
1
10
96.4061927095191
20
16.9326713763016
11
96.0515785501489
21
16.0820625214788
72
1
10
96.0515785501489
20
16.0820625214788
11
92.9983827231877
21
17.8541597949323
97
0
75
0
76
1
52
0
41
0.0062
77
0
78
1
53
45
43
0
44
0
45
-0.0139193969876572
46
0.0139193969876572
79
0
47
0
98
1
10
0
20
0
0
DIMENSION
5
149
100
AcDbEntity
8
SK2
62
256
6
ByLayer
370
18
48
1
60
0
100
AcDbDimension
2
_U0
10
86.5
20
-45.952229
30
0
11
18.25
21
-45.952229
31
0
70
32
71
1
72
1
41
1
210
0
220
0
230
1
3
Standard
100
AcDbAlignedDimension
13
-50
23
-10
33
0
14
86.5
24
0
34
0
50
0
100
AcDbRotatedDimension
1001
ACAD
1000
DSTYLE
1002
{
1070
   371
1070
    13
1070
   372
1070
    13
1070
     3
1000

1070
   170
1070
     0
1070
   144
1040
1.0
1070
   277
1070
     2
1070
   284
1070
     8
1070
   278
1070
    46
1070
   146
1040
1.166667
1070
   345
1005
16
1070
   347
1005
16
1070
   346
1005
16
1070
   344
1005
0
1070
   343
1005
0
1070
   172
1070
     1
1070
    76
1070
     0
1070
    75
1070
     0
1070
   282
1070
     0
1070
   281
1070
     0
1070
    71
1070
     0
1070
    74
1070
     0
1070
   279
1070
     0
1070
   173
1070
     1
1070
   340
1005
128
1070
   271
1070
     2
1070
   272
1070
     3
1070
    77
1070
     1
1070
    73
1070
     1
1070
   171
1070
     3
1070
   274
1070
     4
1070
   177
1070
     2
1070
   176
1070
     2
1070
   178
1070
     2
1070
    78
1070
     8
1070
    48
1040
-0.1
1070
    41
1040
3.5
1070
   147
1040
1.5
1070
    42
1040
1.5875
1070
    44
1040
2.0
1070
   140
1040
3.0
1002
}
1001
ACAD_DSTYLE_DIM_LINETYPE
1070
   380
1005
16
1001
ACAD_DSTYLE_DIM_EXT1_LINETYPE
1070
   381
1005
16
1001
ACAD_DSTYLE_DIM_EXT2_LINETYPE
1070
   382
1005
16
0
DIMENSION
5
162
100
AcDbEntity
8
SK2
62
256
6
ByLayer
370
18
48
1
60
0
100
AcDbDimension
2
_U1
10
3
20
-35.952229
30
0
11
44.75
21
-35.952229
31
0
70
32
71
1
72
1
41
1
210
0
220
0
230
1
3
Standard
100
AcDbAlignedDimension
13
86.5
23
0
33
0
14
3
24
-8.5
34
0
50
0
100
AcDbRotatedDimension
1001
ACAD
1000
DSTYLE
1002
{
1070
   371
1070
    13
1070
   372
1070
    13
1070
     3
1000

1070
   170
1070
     0
1070
   144
1040
1.0
1070
   277
1070
     2
1070
   284
1070
     8
1070
   278
1070
    46
1070
   146
1040
1.166667
1070
   345
1005
16
1070
   347
1005
16
1070
   346
1005
16
1070
   344
1005
0
1070
   343
1005
0
1070
   172
1070
     1
1070
    76
1070
     0
1070
    75
1070
     0
1070
   282
1070
     0
1070
   281
1070
     0
1070
    71
1070
     0
1070
    74
1070
     0
1070
   279
1070
     0
1070
   173
1070
     1
1070
   340
1005
128
1070
   271
1070
     2
1070
   272
1070
     3
1070
    77
1070
     1
1070
    73
1070
     1
1070
   171
1070
     3
1070
   274
1070
     4
1070
   177
1070
     2
1070
   176
1070
     2
1070
   178
1070
     2
1070
    78
1070
     8
1070
    48
1040
-0.1
1070
    41
1040
3.5
1070
   147
1040
1.5
1070
    42
1040
1.5875
1070
    44
1040
2.0
1070
   140
1040
3.0
1002
}
1001
ACAD_DSTYLE_DIM_LINETYPE
1070
   380
1005
16
1001
ACAD_DSTYLE_DIM_EXT1_LINETYPE
1070
   381
1005
16
1001
ACAD_DSTYLE_DIM_EXT2_LINETYPE
1070
   382
1005
16
0
DIMENSION
5
17A
100
AcDbEntity
8
SK2
62
256
6
ByLayer
370
18
48
1
60
0
100
AcDbDimension
2
_U2
10
0
20
-35.952229
30
0
11
-25
21
-35.952229
31
0
70
32
71
1
72
1
41
1
210
0
220
0
230
1
3
Standard
100
AcDbAlignedDimension
13
-50
23
-10
33
0
14
0
24
-10
34
0
50
0
100
AcDbRotatedDimension
1001
ACAD
1000
DSTYLE
1002
{
1070
   371
1070
    13
1070
   372
1070
    13
1070
     3
1000

1070
   170
1070
     0
1070
   144
1040
1.0
1070
   277
1070
     2
1070
   284
1070
     8
1070
   278
1070
    46
1070
   146
1040
1.166667
1070
   345
1005
16
1070
   347
1005
16
1070
   346
1005
16
1070
   344
1005
0
1070
   343
1005
0
1070
   172
1070
     1
1070
    76
1070
     0
1070
    75
1070
     0
1070
   282
1070
     0
1070
   281
1070
     0
1070
    71
1070
     0
1070
    74
1070
     0
1070
   279
1070
     0
1070
   173
1070
     1
1070
   340
1005
128
1070
   271
1070
     2
1070
   272
1070
     3
1070
    77
1070
     1
1070
    73
1070
     1
1070
   171
1070
     3
1070
   274
1070
     4
1070
   177
1070
     2
1070
   176
1070
     2
1070
   178
1070
     2
1070
    78
1070
     8
1070
    48
1040
-0.1
1070
    41
1040
3.5
1070
   147
1040
1.5
1070
    42
1040
1.5875
1070
    44
1040
2.0
1070
   140
1040
3.0
1002
}
1001
ACAD_DSTYLE_DIM_LINETYPE
1070
   380
1005
16
1001
ACAD_DSTYLE_DIM_EXT1_LINETYPE
1070
   381
1005
16
1001
ACAD_DSTYLE_DIM_EXT2_LINETYPE
1070
   382
1005
16
0
DIMENSION
5
192
100
AcDbEntity
8
SK2
62
256
6
ByLayer
370
18
48
1
60
0
100
AcDbDimension
2
_U3
10
24
20
32.952229
30
0
11
55.25
21
32.952229
31
0
70
32
71
1
72
1
41
1
210
0
220
0
230
1
3
Standard
100
AcDbAlignedDimension
13
86.5
23
0
33
0
14
24
24
8.5
34
0
50
0
100
AcDbRotatedDimension
1001
ACAD
1000
DSTYLE
1002
{
1070
   371
1070
    13
1070
   372
1070
    13
1070
     3
1000

1070
   170
1070
     0
1070
   144
1040
1.0
1070
   277
1070
     2
1070
   284
1070
     8
1070
   278
1070
    46
1070
   146
1040
1.166667
1070
   345
1005
16
1070
   347
1005
16
1070
   346
1005
16
1070
   344
1005
0
1070
   343
1005
0
1070
   172
1070
     1
1070
    76
1070
     0
1070
    75
1070
     0
1070
   282
1070
     0
1070
   281
1070
     0
1070
    71
1070
     0
1070
    74
1070
     0
1070
   279
1070
     0
1070
   173
1070
     1
1070
   340
1005
128
1070
   271
1070
     2
1070
   272
1070
     3
1070
    77
1070
     1
1070
    73
1070
     1
1070
   171
1070
     3
1070
   274
1070
     4
1070
   177
1070
     2
1070
   176
1070
     2
1070
   178
1070
     2
1070
    78
1070
     8
1070
    48
1040
-0.1
1070
    41
1040
3.5
1070
   147
1040
1.5
1070
    42
1040
1.5875
1070
    44
1040
2.0
1070
   140
1040
3.0
1002
}
1001
ACAD_DSTYLE_DIM_LINETYPE
1070
   380
1005
16
1001
ACAD_DSTYLE_DIM_EXT1_LINETYPE
1070
   381
1005
16
1001
ACAD_DSTYLE_DIM_EXT2_LINETYPE
1070
   382
1005
16
0
ENDSEC
0
SECTION
2
OBJECTS
0
DICTIONARY
5
21a
330
0
100
AcDbDictionary
280
0
281
1
3
ACAD_GROUP
350
21b
3
ACAD_MLINESTYLE
350
21c
0
DICTIONARY
5
21b
330
0
100
AcDbDictionary
280
0
281
1
0
DICTIONARY
5
21c
330
0
100
AcDbDictionary
280
0
281
1
3
Standard
350
18
0
MLINESTYLE
5
18
330
21c
100
AcDbMlineStyle
2
Standard
70
0
3

62
256
51
90
52
90
71
2
49
-0.5
62
256
6
ByLayer
49
0.5
62
256
6
ByLayer
0
RASTERVARIABLES
5
208
330

100
AcDbRasterVariables
90
0
70
1
71
1
72
1
0
ENDSEC
0
EOF
