0
SECTION
2
HEADER
9
$ACADVER
1
AC1015
9
$DWGCODEPAGE
3
ANSI_1252
9
$HANDSEED
5
212
9
$ANGBASE
50
0
9
$ANGDIR
70
0
9
$ATTMODE
70
1
9
$AUNITS
70
0
9
$AUPREC
70
0
9
$CECOLOR
62
256
9
$CELTSCALE
40
1
9
$CELTYPE
6
ByLayer
9
$CELWEIGHT
370
18
9
$CLAYER
8
0
9
$CMLJUST
70
0
9
$CMLSCALE
40
1
9
$CMLSTYLE
2
Standard
9
$DIMSTYLE
2
Standard
9
$TEXTSIZE
40
0.2
9
$TEXTSTYLE
7
Standard
9
$LUNITS
70
2
9
$LUPREC
70
4
9
$EXTNAMES
290
1
9
$INSUNITS
70
4
9
$LTSCALE
40
1
9
$LWDISPLAY
290
1
9
$PDMODE
70
0
9
$PDSIZE
40
0
9
$PLINEGEN
70
0
0
ENDSEC
0
SECTION
2
CLASSES
0
CLASS
1
RASTERVARIABLES
2
AcDbRasterVariables
3
ISM
90
0
280
0
281
0
0
ENDSEC
0
SECTION
2
TABLES
0
TABLE
2
VPORT
5
208
100
AcDbSymbolTable
0
VPORT
5
1
100
AcDbSymbolTableRecord
100
AcDbViewportTableRecord
2
*Active
70
0
10
0
20
0
11
1
21
1
12
-1
22
1
13
0
23
0
14
0.5
24
0.5
15
10
25
10
16
0
26
0
36
1
17
0
27
0
37
0
0
ENDTAB
0
TABLE
2
LTYPE
5
209
100
AcDbSymbolTable
0
LTYPE
5
14
100
AcDbSymbolTableRecord
100
AcDbLinetypeTableRecord
70
0
2
ByBlock
3

72
65
73
0
40
0
0
LTYPE
5
15
100
AcDbSymbolTableRecord
100
AcDbLinetypeTableRecord
70
0
2
ByLayer
3

72
65
73
0
40
0
0
LTYPE
5
16
100
AcDbSymbolTableRecord
100
AcDbLinetypeTableRecord
70
0
2
Continuous
3
Solid line
72
65
73
0
40
0
0
LTYPE
5
6E
100
AcDbSymbolTableRecord
100
AcDbLinetypeTableRecord
70
0
2
CENTER
3
____ _ ____ _ ____ _ ____
72
65
73
4
40
47.5
49
22
74
0
49
-8.5
74
0
49
8.5
74
0
49
-8.5
74
0
0
LTYPE
5
6F
100
AcDbSymbolTableRecord
100
AcDbLinetypeTableRecord
70
0
2
DASHED
3
__ __ __ __ __ __ __ __ __
72
65
73
2
40
25.72
49
12.86
74
0
49
-12.86
74
0
0
ENDTAB
0
TABLE
2
LAYER
5
20a
100
AcDbSymbolTable
0
LAYER
5
10
100
AcDbSymbolTableRecord
100
AcDbLayerTableRecord
2
0
70
0
62
7
6
Continuous
290
1
370
-3
390
0
0
LAYER
5
71
100
AcDbSymbolTableRecord
100
AcDbLayerTableRecord
2
80
70
0
62
-6
6
Continuous
290
1
370
-3
390
0
0
LAYER
5
73
100
AcDbSymbolTableRecord
100
AcDbLayerTableRecord
2
81
70
0
62
-3
6
Continuous
290
1
370
-3
390
0
0
LAYER
5
75
100
AcDbSymbolTableRecord
100
AcDbLayerTableRecord
2
1
70
0
62
4
6
Continuous
290
1
370
-3
390
0
0
LAYER
5
7E
100
AcDbSymbolTableRecord
100
AcDbLayerTableRecord
2
4
70
0
62
-2
6
CENTER
290
1
370
-3
390
0
0
LAYER
5
B0
100
AcDbSymbolTableRecord
100
AcDbLayerTableRecord
2
2
70
0
62
7
6
Continuous
290
1
370
-3
390
0
0
LAYER
5
137
100
AcDbSymbolTableRecord
100
AcDbLayerTableRecord
2
Defpoints
70
0
62
7
6
Continuous
290
0
370
-3
390
0
0
LAYER
5
1f4
100
AcDbSymbolTableRecord
100
AcDbLayerTableRecord
2
SK4
70
0
62
2
6
CENTER
290
1
370
-3
390
0
0
LAYER
5
1f5
100
AcDbSymbolTableRecord
100
AcDbLayerTableRecord
2
SK1
70
0
62
4
6
Continuous
290
1
370
-3
390
0
0
LAYER
5
1f6
100
AcDbSymbolTableRecord
100
AcDbLayerTableRecord
2
SK2
70
0
62
7
6
Continuous
290
1
370
-3
390
0
0
LAYER
5
1f7
100
AcDbSymbolTableRecord
100
AcDbLayerTableRecord
2
SK6
70
0
62
5
6
Continuous
290
1
370
-3
390
0
0
ENDTAB
0
TABLE
2
STYLE
5
20b
100
AcDbSymbolTable
0
STYLE
5
11
100
AcDbSymbolTableRecord
100
AcDbTextStyleTableRecord
2
Standard
3
txt
70
0
71
0
40
0
41
1
42
0
50
0
0
STYLE
5
113
100
AcDbSymbolTableRecord
100
AcDbTextStyleTableRecord
2
iso_b_vert
3
simplex.shx
70
0
71
0
40
0
41
1
42
0
50
0
0
STYLE
5
114
100
AcDbSymbolTableRecord
100
AcDbTextStyleTableRecord
2
DWGDirectTextStyle
3
simplex
70
0
71
0
40
0
41
1
42
0
50
0
0
ENDTAB
0
TABLE
2
DIMSTYLE
5
20c
100
AcDbSymbolTable
100
AcDbDimStyleTable
0
DIMSTYLE
105
27
100
AcDbSymbolTableRecord
100
AcDbDimStyleTableRecord
2
Standard
70
0
3
<>
41
0.18
42
0.0625
44
0.18
140
0.18
147
0.09
73
0
74
0
77
1
271
2
275
0
278
52
280
0
340
11
0
ENDTAB
0
TABLE
2
VIEW
5
20d
100
AcDbSymbolTable
0
ENDTAB
0
TABLE
2
UCS
5
20e
100
AcDbSymbolTable
0
ENDTAB
0
TABLE
2
APPID
5
20f
100
AcDbSymbolTable
0
APPID
5
12
100
AcDbSymbolTableRecord
100
AcDbRegAppTableRecord
2
ACAD
70
0
0
APPID
5
133
100
AcDbSymbolTableRecord
100
AcDbRegAppTableRecord
2
ACAD_DSTYLE_DIMBREAK
70
0
0
APPID
5
1B3
100
AcDbSymbolTableRecord
100
AcDbRegAppTableRecord
2
ACAD_DSTYLE_DIM_LINETYPE
70
0
0
APPID
5
1B4
100
AcDbSymbolTableRecord
100
AcDbRegAppTableRecord
2
ACAD_DSTYLE_DIM_EXT1_LINETYPE
70
0
0
APPID
5
1B5
100
AcDbSymbolTableRecord
100
AcDbRegAppTableRecord
2
ACAD_DSTYLE_DIM_EXT2_LINETYPE
70
0
0
APPID
5
1F0
100
AcDbSymbolTableRecord
100
AcDbRegAppTableRecord
2
ACAD_MLEADERVER
70
0
0
ENDTAB
0
TABLE
2
BLOCK_RECORD
5
210
100
AcDbSymbolTable
0
BLOCK_RECORD
5
1F
100
AcDbSymbolTableRecord
100
AcDbBlockTableRecord
2
*Model_Space
340
0
70
0
0
BLOCK_RECORD
5
1B
100
AcDbSymbolTableRecord
100
AcDbBlockTableRecord
2
*Paper_Space
340
0
70
0
0
BLOCK_RECORD
5
23
100
AcDbSymbolTableRecord
100
AcDbBlockTableRecord
2
*Paper_Space0
340
0
70
0
0
BLOCK_RECORD
5
138
100
AcDbSymbolTableRecord
100
AcDbBlockTableRecord
2
*D1
340
0
70
0
0
BLOCK_RECORD
5
144
100
AcDbSymbolTableRecord
100
AcDbBlockTableRecord
2
_U0
340
0
70
0
0
BLOCK_RECORD
5
150
100
AcDbSymbolTableRecord
100
AcDbBlockTableRecord
2
*D3
340
0
70
0
0
BLOCK_RECORD
5
15C
100
AcDbSymbolTableRecord
100
AcDbBlockTableRecord
2
_U1
340
0
70
0
0
BLOCK_RECORD
5
168
100
AcDbSymbolTableRecord
100
AcDbBlockTableRecord
2
*D5
340
0
70
0
0
BLOCK_RECORD
5
174
100
AcDbSymbolTableRecord
100
AcDbBlockTableRecord
2
_U2
340
0
70
0
0
BLOCK_RECORD
5
180
100
AcDbSymbolTableRecord
100
AcDbBlockTableRecord
2
*D7
340
0
70
0
0
BLOCK_RECORD
5
18C
100
AcDbSymbolTableRecord
100
AcDbBlockTableRecord
2
_U3
340
0
70
0
0
ENDTAB
0
ENDSEC
0
SECTION
2
BLOCKS
0
BLOCK
5
20
100
AcDbEntity
8
0
100
AcDbBlockBegin
2
*Model_Space
70
0
10
0
20
0
30
0
3
*Model_Space
0
ENDBLK
5
21
100
AcDbEntity
8
0
100
AcDbBlockEnd
0
BLOCK
5
1C
100
AcDbEntity
8
0
100
AcDbBlockBegin
2
*Paper_Space
70
0
10
0
20
0
30
0
3
*Paper_Space
0
ENDBLK
5
1D
100
AcDbEntity
8
0
100
AcDbBlockEnd
0
BLOCK
5
24
100
AcDbEntity
8
0
100
AcDbBlockBegin
2
*Paper_Space0
70
0
10
0
20
0
30
0
3
*Paper_Space0
0
ENDBLK
5
25
100
AcDbEntity
8
0
100
AcDbBlockEnd
0
BLOCK
5
139
100
AcDbEntity
8
0
100
AcDbBlockBegin
2
*D1
70
1
10
0
20
0
30
0
3
*D1
0
LINE
5
13B
100
AcDbEntity
8
0
62
256
6
ByLayer
370
-2
48
1
60
0
100
AcDbLine
10
-48
20
-9.525
30
0
11
-48
21
-47.952229
31
0
39
0
210
0
220
0
230
1
0
LINE
5
13C
100
AcDbEntity
8
0
62
256
6
ByLayer
370
-2
48
1
60
0
100
AcDbLine
10
62
20
-1.5875
30
0
11
62
21
-47.952229
31
0
39
0
210
0
220
0
230
1
0
LINE
5
13D
100
AcDbEntity
8
0
62
256
6
ByLayer
370
-2
48
1
60
0
100
AcDbLine
10
-44.5
20
-45.952229
30
0
11
58.5
21
-45.952229
31
0
39
0
210
0
220
0
230
1
0
SOLID
5
13E
100
AcDbEntity
8
0
62
256
6
ByLayer
370
-1
48
1
60
0
100
AcDbTrace
10
-44.5
20
-45.368896
30
0
11
-44.5
21
-46.535563
31
0
12
-48
22
-45.952229
32
0
13
-48
23
-45.952229
33
0
39
0
210
0
220
0
230
1
0
SOLID
5
13F
100
AcDbEntity
8
0
62
256
6
ByLayer
370
-1
48
1
60
0
100
AcDbTrace
10
58.5
20
-46.535563
30
0
11
58.5
21
-45.368896
31
0
12
62
22
-45.952229
32
0
13
62
23
-45.952229
33
0
39
0
210
0
220
0
230
1
0
MTEXT
5
140
100
AcDbEntity
8
0
62
256
6
ByLayer
370
18
48
1
60
0
100
AcDbMText
10
7
20
-39.952229
30
0
210
0
220
0
230
1
1
\A1;110
40
3
41
0
44
1
50
0
71
5
72
5
7
iso_b_vert
0
POINT
5
141
100
AcDbEntity
8
Defpoints
62
0
6
ByLayer
370
-1
48
1
60
0
100
AcDbPoint
10
-48
20
-7.9375
30
0
39
0
210
0
220
0
230
1
50
360
0
POINT
5
142
100
AcDbEntity
8
Defpoints
62
0
6
ByLayer
370
-1
48
1
60
0
100
AcDbPoint
10
62
20
0
30
0
39
0
210
0
220
0
230
1
50
360
0
POINT
5
143
100
AcDbEntity
8
Defpoints
62
0
6
ByLayer
370
-1
48
1
60
0
100
AcDbPoint
10
62
20
-45.952229
30
0
39
0
210
0
220
0
230
1
50
360
0
ENDBLK
5
13A
100
AcDbEntity
8
0
100
AcDbBlockEnd
0
BLOCK
5
14B
100
AcDbEntity
8
0
100
AcDbBlockBegin
2
_U0
70
0
10
0
20
0
30
0
3
_U0
0
MTEXT
5
145
100
AcDbEntity
8
SK2
62
256
6
ByLayer
370
18
48
1
60
0
100
AcDbMText
10
2.146601
20
-45.067115
30
0
210
0
220
0
230
1
1
\W0.6532;110.00
40
3
41
0
44
1.084337
50
0
71
7
72
5
7
iso_b_vert
0
LINE
5
146
100
AcDbEntity
8
SK2
62
256
6
ByLayer
370
13
48
1
60
0
100
AcDbLine
10
-48
20
-9.525
30
0
11
-48
21
-47.952229
31
0
39
0
210
0
220
0
230
1
0
LINE
5
147
100
AcDbEntity
8
SK2
62
256
6
ByLayer
370
13
48
1
60
0
100
AcDbLine
10
62
20
-1.5875
30
0
11
62
21
-47.952229
31
0
39
0
210
0
220
0
230
1
0
LINE
5
148
100
AcDbEntity
8
SK2
62
256
6
ByLayer
370
13
48
1
60
0
100
AcDbLine
10
-48
20
-45.952229
30
0
11
62
21
-45.952229
31
0
39
0
210
0
220
0
230
1
0
SOLID
5
149
100
AcDbEntity
8
SK2
62
256
6
ByLayer
370
18
48
1
60
0
100
AcDbTrace
10
-48
20
-45.952229
30
0
11
-44.500002
21
-45.491446
31
0
12
-44.499998
22
-46.413013
32
0
13
-44.499998
23
-46.413013
33
0
39
0
210
0
220
0
230
1
0
SOLID
5
14A
100
AcDbEntity
8
SK2
62
256
6
ByLayer
370
18
48
1
60
0
100
AcDbTrace
10
62
20
-45.952229
30
0
11
58.500002
21
-46.413013
31
0
12
58.499998
22
-45.491446
32
0
13
58.499998
23
-45.491446
33
0
39
0
210
0
220
0
230
1
0
ENDBLK
5
14C
100
AcDbEntity
8
0
100
AcDbBlockEnd
0
BLOCK
5
151
100
AcDbEntity
8
0
100
AcDbBlockBegin
2
*D3
70
1
10
0
20
0
30
0
3
*D3
0
LINE
5
153
100
AcDbEntity
8
0
62
256
6
ByLayer
370
-2
48
1
60
0
100
AcDbLine
10
62
20
-1.5875
30
0
11
62
21
-37.952229
31
0
39
0
210
0
220
0
230
1
0
LINE
5
154
100
AcDbEntity
8
0
62
256
6
ByLayer
370
-2
48
1
60
0
100
AcDbLine
10
3
20
-8.3345
30
0
11
3
21
-37.952229
31
0
39
0
210
0
220
0
230
1
0
LINE
5
155
100
AcDbEntity
8
0
62
256
6
ByLayer
370
-2
48
1
60
0
100
AcDbLine
10
58.5
20
-35.952229
30
0
11
6.5
21
-35.952229
31
0
39
0
210
0
220
0
230
1
0
SOLID
5
156
100
AcDbEntity
8
0
62
256
6
ByLayer
370
-1
48
1
60
0
100
AcDbTrace
10
58.5
20
-36.535563
30
0
11
58.5
21
-35.368896
31
0
12
62
22
-35.952229
32
0
13
62
23
-35.952229
33
0
39
0
210
0
220
0
230
1
0
SOLID
5
157
100
AcDbEntity
8
0
62
256
6
ByLayer
370
-1
48
1
60
0
100
AcDbTrace
10
6.5
20
-35.368896
30
0
11
6.5
21
-36.535563
31
0
12
3
22
-35.952229
32
0
13
3
23
-35.952229
33
0
39
0
210
0
220
0
230
1
0
MTEXT
5
158
100
AcDbEntity
8
0
62
256
6
ByLayer
370
18
48
1
60
0
100
AcDbMText
10
32.5
20
-29.952229
30
0
210
0
220
0
230
1
1
\A1;59
40
3
41
0
44
1
50
0
71
5
72
5
7
iso_b_vert
0
POINT
5
159
100
AcDbEntity
8
Defpoints
62
0
6
ByLayer
370
-1
48
1
60
0
100
AcDbPoint
10
62
20
0
30
0
39
0
210
0
220
0
230
1
50
360
0
POINT
5
15A
100
AcDbEntity
8
Defpoints
62
0
6
ByLayer
370
-1
48
1
60
0
100
AcDbPoint
10
3
20
-6.747
30
0
39
0
210
0
220
0
230
1
50
360
0
POINT
5
15B
100
AcDbEntity
8
Defpoints
62
0
6
ByLayer
370
-1
48
1
60
0
100
AcDbPoint
10
3
20
-35.952229
30
0
39
0
210
0
220
0
230
1
50
360
0
ENDBLK
5
152
100
AcDbEntity
8
0
100
AcDbBlockEnd
0
BLOCK
5
163
100
AcDbEntity
8
0
100
AcDbBlockBegin
2
_U1
70
0
10
0
20
0
30
0
3
_U1
0
MTEXT
5
15D
100
AcDbEntity
8
SK2
62
256
6
ByLayer
370
18
48
1
60
0
100
AcDbMText
10
28.01763
20
-35.067115
30
0
210
0
220
0
230
1
1
\W0.7468;59.00
40
3
41
0
44
1.084337
50
0
71
7
72
5
7
iso_b_vert
0
LINE
5
15E
100
AcDbEntity
8
SK2
62
256
6
ByLayer
370
13
48
1
60
0
100
AcDbLine
10
62
20
-1.5875
30
0
11
62
21
-37.952229
31
0
39
0
210
0
220
0
230
1
0
LINE
5
15F
100
AcDbEntity
8
SK2
62
256
6
ByLayer
370
13
48
1
60
0
100
AcDbLine
10
3
20
-8.3345
30
0
11
3
21
-37.952229
31
0
39
0
210
0
220
0
230
1
0
LINE
5
160
100
AcDbEntity
8
SK2
62
256
6
ByLayer
370
13
48
1
60
0
100
AcDbLine
10
62
20
-35.952229
30
0
11
3
21
-35.952229
31
0
39
0
210
0
220
0
230
1
0
SOLID
5
161
100
AcDbEntity
8
SK2
62
256
6
ByLayer
370
18
48
1
60
0
100
AcDbTrace
10
62
20
-35.952229
30
0
11
58.500002
21
-36.413013
31
0
12
58.499998
22
-35.491446
32
0
13
58.499998
23
-35.491446
33
0
39
0
210
0
220
0
230
1
0
SOLID
5
162
100
AcDbEntity
8
SK2
62
256
6
ByLayer
370
18
48
1
60
0
100
AcDbTrace
10
3
20
-35.952229
30
0
11
6.499998
21
-35.491446
31
0
12
6.500002
22
-36.413013
32
0
13
6.500002
23
-36.413013
33
0
39
0
210
0
220
0
230
1
0
ENDBLK
5
164
100
AcDbEntity
8
0
100
AcDbBlockEnd
0
BLOCK
5
169
100
AcDbEntity
8
0
100
AcDbBlockBegin
2
*D5
70
1
10
0
20
0
30
0
3
*D5
0
LINE
5
16B
100
AcDbEntity
8
0
62
256
6
ByLayer
370
-2
48
1
60
0
100
AcDbLine
10
-48
20
-9.525
30
0
11
-48
21
-37.952229
31
0
39
0
210
0
220
0
230
1
0
LINE
5
16C
100
AcDbEntity
8
0
62
256
6
ByLayer
370
-2
48
1
60
0
100
AcDbLine
10
0
20
-9.525
30
0
11
0
21
-37.952229
31
0
39
0
210
0
220
0
230
1
0
LINE
5
16D
100
AcDbEntity
8
0
62
256
6
ByLayer
370
-2
48
1
60
0
100
AcDbLine
10
-44.5
20
-35.952229
30
0
11
-3.5
21
-35.952229
31
0
39
0
210
0
220
0
230
1
0
SOLID
5
16E
100
AcDbEntity
8
0
62
256
6
ByLayer
370
-1
48
1
60
0
100
AcDbTrace
10
-44.5
20
-35.368896
30
0
11
-44.5
21
-36.535563
31
0
12
-48
22
-35.952229
32
0
13
-48
23
-35.952229
33
0
39
0
210
0
220
0
230
1
0
SOLID
5
16F
100
AcDbEntity
8
0
62
256
6
ByLayer
370
-1
48
1
60
0
100
AcDbTrace
10
-3.5
20
-36.535563
30
0
11
-3.5
21
-35.368896
31
0
12
0
22
-35.952229
32
0
13
0
23
-35.952229
33
0
39
0
210
0
220
0
230
1
0
MTEXT
5
170
100
AcDbEntity
8
0
62
256
6
ByLayer
370
18
48
1
60
0
100
AcDbMText
10
-24
20
-29.952229
30
0
210
0
220
0
230
1
1
\A1;48
40
3
41
0
44
1
50
0
71
5
72
5
7
iso_b_vert
0
POINT
5
171
100
AcDbEntity
8
Defpoints
62
0
6
ByLayer
370
-1
48
1
60
0
100
AcDbPoint
10
-48
20
-7.9375
30
0
39
0
210
0
220
0
230
1
50
360
0
POINT
5
172
100
AcDbEntity
8
Defpoints
62
0
6
ByLayer
370
-1
48
1
60
0
100
AcDbPoint
10
0
20
-7.9375
30
0
39
0
210
0
220
0
230
1
50
360
0
POINT
5
173
100
AcDbEntity
8
Defpoints
62
0
6
ByLayer
370
-1
48
1
60
0
100
AcDbPoint
10
0
20
-35.952229
30
0
39
0
210
0
220
0
230
1
50
360
0
ENDBLK
5
16A
100
AcDbEntity
8
0
100
AcDbBlockEnd
0
BLOCK
5
17B
100
AcDbEntity
8
0
100
AcDbBlockBegin
2
_U2
70
0
10
0
20
0
30
0
3
_U2
0
MTEXT
5
175
100
AcDbEntity
8
SK2
62
256
6
ByLayer
370
18
48
1
60
0
100
AcDbMText
10
-28.640313
20
-35.067115
30
0
210
0
220
0
230
1
1
\W0.7694;48.00
40
3
41
0
44
1.084337
50
0
71
7
72
5
7
iso_b_vert
0
LINE
5
176
100
AcDbEntity
8
SK2
62
256
6
ByLayer
370
13
48
1
60
0
100
AcDbLine
10
-48
20
-9.525
30
0
11
-48
21
-37.952229
31
0
39
0
210
0
220
0
230
1
0
LINE
5
177
100
AcDbEntity
8
SK2
62
256
6
ByLayer
370
13
48
1
60
0
100
AcDbLine
10
0
20
-9.525
30
0
11
0
21
-37.952229
31
0
39
0
210
0
220
0
230
1
0
LINE
5
178
100
AcDbEntity
8
SK2
62
256
6
ByLayer
370
13
48
1
60
0
100
AcDbLine
10
-48
20
-35.952229
30
0
11
0
21
-35.952229
31
0
39
0
210
0
220
0
230
1
0
SOLID
5
179
100
AcDbEntity
8
SK2
62
256
6
ByLayer
370
18
48
1
60
0
100
AcDbTrace
10
-48
20
-35.952229
30
0
11
-44.500002
21
-35.491446
31
0
12
-44.499998
22
-36.413013
32
0
13
-44.499998
23
-36.413013
33
0
39
0
210
0
220
0
230
1
0
SOLID
5
17A
100
AcDbEntity
8
SK2
62
256
6
ByLayer
370
18
48
1
60
0
100
AcDbTrace
10
0
20
-35.952229
30
0
11
-3.499998
21
-36.413013
31
0
12
-3.500002
22
-35.491446
32
0
13
-3.500002
23
-35.491446
33
0
39
0
210
0
220
0
230
1
0
ENDBLK
5
17C
100
AcDbEntity
8
0
100
AcDbBlockEnd
0
BLOCK
5
181
100
AcDbEntity
8
0
100
AcDbBlockBegin
2
*D7
70
1
10
0
20
0
30
0
3
*D7
0
LINE
5
183
100
AcDbEntity
8
0
62
256
6
ByLayer
370
-2
48
1
60
0
100
AcDbLine
10
62
20
1.5875
30
0
11
62
21
34.952229
31
0
39
0
210
0
220
0
230
1
0
LINE
5
184
100
AcDbEntity
8
0
62
256
6
ByLayer
370
-2
48
1
60
0
100
AcDbLine
10
15
20
8.3345
30
0
11
15
21
34.952229
31
0
39
0
210
0
220
0
230
1
0
LINE
5
185
100
AcDbEntity
8
0
62
256
6
ByLayer
370
-2
48
1
60
0
100
AcDbLine
10
58.5
20
32.952229
30
0
11
18.5
21
32.952229
31
0
39
0
210
0
220
0
230
1
0
SOLID
5
186
100
AcDbEntity
8
0
62
256
6
ByLayer
370
-1
48
1
60
0
100
AcDbTrace
10
58.5
20
32.368896
30
0
11
58.5
21
33.535563
31
0
12
62
22
32.952229
32
0
13
62
23
32.952229
33
0
39
0
210
0
220
0
230
1
0
SOLID
5
187
100
AcDbEntity
8
0
62
256
6
ByLayer
370
-1
48
1
60
0
100
AcDbTrace
10
18.5
20
33.535563
30
0
11
18.5
21
32.368896
31
0
12
15
22
32.952229
32
0
13
15
23
32.952229
33
0
39
0
210
0
220
0
230
1
0
MTEXT
5
188
100
AcDbEntity
8
0
62
256
6
ByLayer
370
18
48
1
60
0
100
AcDbMText
10
38.5
20
38.952229
30
0
210
0
220
0
230
1
1
\A1;47
40
3
41
0
44
1
50
0
71
5
72
5
7
iso_b_vert
0
POINT
5
189
100
AcDbEntity
8
Defpoints
62
0
6
ByLayer
370
-1
48
1
60
0
100
AcDbPoint
10
62
20
0
30
0
39
0
210
0
220
0
230
1
50
360
0
POINT
5
18A
100
AcDbEntity
8
Defpoints
62
0
6
ByLayer
370
-1
48
1
60
0
100
AcDbPoint
10
15
20
6.747
30
0
39
0
210
0
220
0
230
1
50
360
0
POINT
5
18B
100
AcDbEntity
8
Defpoints
62
0
6
ByLayer
370
-1
48
1
60
0
100
AcDbPoint
10
15
20
32.952229
30
0
39
0
210
0
220
0
230
1
50
360
0
ENDBLK
5
182
100
AcDbEntity
8
0
100
AcDbBlockEnd
0
BLOCK
5
193
100
AcDbEntity
8
0
100
AcDbBlockBegin
2
_U3
70
0
10
0
20
0
30
0
3
_U3
0
MTEXT
5
18D
100
AcDbEntity
8
SK2
62
256
6
ByLayer
370
18
48
1
60
0
100
AcDbMText
10
33.859687
20
33.837344
30
0
210
0
220
0
230
1
1
\W0.7694;47.00
40
3
41
0
44
1.084337
50
0
71
7
72
5
7
iso_b_vert
0
LINE
5
18E
100
AcDbEntity
8
SK2
62
256
6
ByLayer
370
13
48
1
60
0
100
AcDbLine
10
62
20
1.5875
30
0
11
62
21
34.952229
31
0
39
0
210
0
220
0
230
1
0
LINE
5
18F
100
AcDbEntity
8
SK2
62
256
6
ByLayer
370
13
48
1
60
0
100
AcDbLine
10
15
20
8.3345
30
0
11
15
21
34.952229
31
0
39
0
210
0
220
0
230
1
0
LINE
5
190
100
AcDbEntity
8
SK2
62
256
6
ByLayer
370
13
48
1
60
0
100
AcDbLine
10
62
20
32.952229
30
0
11
15
21
32.952229
31
0
39
0
210
0
220
0
230
1
0
SOLID
5
191
100
AcDbEntity
8
SK2
62
256
6
ByLayer
370
18
48
1
60
0
100
AcDbTrace
10
62
20
32.952229
30
0
11
58.500002
21
32.491446
31
0
12
58.499998
22
33.413013
32
0
13
58.499998
23
33.413013
33
0
39
0
210
0
220
0
230
1
0
SOLID
5
192
100
AcDbEntity
8
SK2
62
256
6
ByLayer
370
18
48
1
60
0
100
AcDbTrace
10
15
20
32.952229
30
0
11
18.499998
21
33.413013
31
0
12
18.500002
22
32.491446
32
0
13
18.500002
23
32.491446
33
0
39
0
210
0
220
0
230
1
0
ENDBLK
5
194
100
AcDbEntity
8
0
100
AcDbBlockEnd
0
ENDSEC
0
SECTION
2
ENTITIES
0
ARC
5
C1
100
AcDbEntity
8
SK2
62
256
6
ByLayer
370
13
48
1
60
0
100
AcDbCircle
39
0
10
62
20
0
30
0
40
18.9999999999999
210
0
220
0
230
1
100
AcDbArc
50
290
51
70
0
ELLIPSE
5
C2
100
AcDbEntity
8
SK1
62
256
6
ByLayer
370
18
48
1
60
0
100
AcDbEllipse
10
-15.511927
20
0
30
0
11
8.51192663582145
21
-9.64486143630667E-15
31
0
210
0
220
0
230
1
40
0.932515
41
-0.661655103696894
42
0.661655103696897
0
ELLIPSE
5
C3
100
AcDbEntity
8
SK1
62
256
6
ByLayer
370
18
48
1
60
0
100
AcDbEllipse
10
-33.598162
20
0
30
0
11
-1.45804694001977E-15
21
-7.93749999999999
31
0
210
0
220
0
230
1
40
0.932515
41
-2.23245143049182
42
-0.909141223097976
0
POINT
5
70
100
AcDbEntity
8
80
62
256
6
ByLayer
370
18
48
1
60
0
100
AcDbPoint
10
0
20
0
30
0
39
0
210
0
220
0
230
1
50
360
0
POINT
5
72
100
AcDbEntity
8
81
62
256
6
ByLayer
370
18
48
1
60
0
100
AcDbPoint
10
62
20
0
30
0
39
0
210
0
220
0
230
1
50
360
0
POINT
5
74
100
AcDbEntity
8
1
62
256
6
ByLayer
370
18
48
1
60
1
100
AcDbPoint
10
-48
20
-7.9375
30
0
39
0
210
0
220
0
230
1
50
360
0
POINT
5
76
100
AcDbEntity
8
1
62
256
6
ByLayer
370
18
48
1
60
1
100
AcDbPoint
10
62
20
0
30
0
39
0
210
0
220
0
230
1
50
360
0
POINT
5
77
100
AcDbEntity
8
1
62
256
6
ByLayer
370
18
48
1
60
1
100
AcDbPoint
10
62
20
0
30
0
39
0
210
0
220
0
230
1
50
360
0
POINT
5
78
100
AcDbEntity
8
1
62
256
6
ByLayer
370
18
48
1
60
1
100
AcDbPoint
10
3
20
-6.747
30
0
39
0
210
0
220
0
230
1
50
360
0
POINT
5
79
100
AcDbEntity
8
1
62
256
6
ByLayer
370
18
48
1
60
1
100
AcDbPoint
10
-48
20
-7.9375
30
0
39
0
210
0
220
0
230
1
50
360
0
POINT
5
7A
100
AcDbEntity
8
1
62
256
6
ByLayer
370
18
48
1
60
1
100
AcDbPoint
10
0
20
-7.9375
30
0
39
0
210
0
220
0
230
1
50
360
0
POINT
5
7B
100
AcDbEntity
8
1
62
256
6
ByLayer
370
18
48
1
60
1
100
AcDbPoint
10
62
20
0
30
0
39
0
210
0
220
0
230
1
50
360
0
POINT
5
7C
100
AcDbEntity
8
1
62
256
6
ByLayer
370
18
48
1
60
1
100
AcDbPoint
10
15
20
6.747
30
0
39
0
210
0
220
0
230
1
50
360
0
SPLINE
5
C4
100
AcDbEntity
8
1
62
256
6
ByLayer
370
18
48
1
60
0
100
AcDbSpline
70
4
71
3
72
24
73
20
40
0
40
0
40
0
40
0
40
0.124999999999995
40
0.124999999999995
40
0.249999999999991
40
0.249999999999991
40
0.312499999999988
40
0.312499999999988
40
0.374999999999986
40
0.374999999999986
40
0.499999999999986
40
0.499999999999986
40
0.624999999999986
40
0.624999999999986
40
0.687499999999988
40
0.687499999999988
40
0.749999999999991
40
0.749999999999991
40
1
40
1
40
1
40
1
41
1
10
59.5442928294236
20
-0.96311208712217
30
0
41
1
10
59.2168404531311
20
-0.845338325518668
30
0
41
1
10
58.8895617952572
20
-0.727298331317968
30
0
41
1
10
58.2354177024713
20
-0.490500594422542
30
0
41
1
10
57.9085790046418
20
-0.371668473899177
30
0
41
1
10
57.4185856645772
20
-0.193010850953556
30
0
41
1
10
57.2552891173182
20
-0.133416712909138
30
0
41
1
10
56.9286720582566
20
-0.0144036649485884
30
0
41
1
10
56.7653548175196
20
0.0450244240718973
30
0
41
1
10
56.2753993850554
20
0.223136702860728
30
0
41
1
10
55.9487551032379
20
0.341642476412858
30
0
41
1
10
55.2955177194794
20
0.578366016865886
30
0
41
1
10
54.9689228794248
20
0.696578951737365
30
0
41
1
10
54.4791019407098
20
0.873770164214989
30
0
41
1
10
54.3158512150932
20
0.932842767731188
30
0
41
1
10
53.9892802145568
20
1.05068793011668
30
0
41
1
10
53.8259483555193
20
1.10942875188835
30
0
41
1
10
53.0090544165974
20
1.40221779069242
30
0
41
1
10
52.3547842638907
20
1.63351340241459
30
0
41
1
10
51.7000000000006
20
1.86252653496084
30
0
0
SPLINE
5
C5
100
AcDbEntity
8
1
62
256
6
ByLayer
370
18
48
1
60
0
100
AcDbSpline
70
4
71
3
72
81
73
77
40
0
40
0
40
0
40
0
40
0.0624999999999947
40
0.0624999999999947
40
0.124999999999989
40
0.124999999999989
40
0.140624999999989
40
0.140624999999989
40
0.156249999999988
40
0.156249999999988
40
0.187499999999988
40
0.187499999999988
40
0.249999999999988
40
0.249999999999988
40
0.281249999999988
40
0.281249999999988
40
0.296874999999988
40
0.296874999999988
40
0.312499999999987
40
0.312499999999987
40
0.343749999999987
40
0.343749999999987
40
0.374999999999986
40
0.374999999999986
40
0.406249999999985
40
0.406249999999985
40
0.437499999999985
40
0.437499999999985
40
0.445312499999985
40
0.445312499999985
40
0.453124999999985
40
0.468749999999985
40
0.468749999999985
40
0.499999999999985
40
0.499999999999985
40
0.531249999999984
40
0.531249999999984
40
0.539062499999984
40
0.539062499999984
40
0.546874999999984
40
0.562499999999984
40
0.562499999999984
40
0.593749999999984
40
0.593749999999984
40
0.624999999999984
40
0.624999999999984
40
0.632812499999984
40
0.632812499999984
40
0.640624999999984
40
0.656249999999984
40
0.656249999999984
40
0.687499999999984
40
0.687499999999984
40
0.718749999999983
40
0.718749999999983
40
0.726562499999983
40
0.726562499999983
40
0.734374999999984
40
0.734374999999984
40
0.749999999999984
40
0.749999999999984
40
0.781249999999983
40
0.781249999999983
40
0.812499999999982
40
0.843749999999982
40
0.843749999999982
40
0.851562499999982
40
0.851562499999982
40
0.859374999999983
40
0.874999999999985
40
0.874999999999985
40
0.906249999999988
40
0.937499999999992
40
0.968749999999996
40
0.968749999999996
40
1
40
1
40
1
40
1
41
1
10
59.5442928294251
20
6.53277587895229
30
0
41
1
10
59.6285712633122
20
6.32380304096478
30
0
41
1
10
59.7131232172344
20
6.10858735955975
30
0
41
1
10
59.8832640139365
20
5.66736303638061
30
0
41
1
10
59.9688543892353
20
5.44134063691308
30
0
41
1
10
60.0765825287777
20
5.15255647856301
30
0
41
1
10
60.0981641904451
20
5.09448525682191
30
0
41
1
10
60.1413975558388
20
4.97772004751809
30
0
41
1
10
60.1630577383426
20
4.91900227555718
30
0
41
1
10
60.2277527555994
20
4.74296961232446
30
0
41
1
10
60.2706319399802
20
4.62543109394383
30
0
41
1
10
60.3984658695302
20
4.27226311819737
30
0
41
1
10
60.4826609151514
20
4.03609852635753
30
0
41
1
10
60.6065892200511
20
3.6805158247297
30
0
41
1
10
60.6474952702943
20
3.56176186248831
30
0
41
1
10
60.7080212847552
20
3.38321144463953
30
0
41
1
10
60.7280566880634
20
3.32362431900151
30
0
41
1
10
60.7677932721774
20
3.20429004325689
30
0
41
1
10
60.7874988374182
20
3.14452776749189
30
0
41
1
10
60.8457308018184
20
2.96583610926098
30
0
41
1
10
60.8834787472412
20
2.84721650627242
30
0
41
1
10
60.9561377680437
20
2.61079903718212
30
0
41
1
10
60.9910536227568
20
2.49300194381738
30
0
41
1
10
61.0569876724144
20
2.25798440716122
30
0
41
1
10
61.088011477037
20
2.14076445682195
30
0
41
1
10
61.1445632192827
20
1.9065831907518
30
0
41
1
10
61.1700937054234
20
1.78962095016124
30
0
41
1
10
61.1971478336797
20
1.64333594996865
30
0
41
1
10
61.202318964465
20
1.61404473370999
30
0
41
1
10
61.2121058828398
20
1.55559234893559
30
0
41
1
10
61.2259368890134
20
1.46821885387649
30
0
41
1
10
61.2370707760542
20
1.38177219456
30
0
41
1
10
61.2553790508416
20
1.21016208093692
30
0
41
1
10
61.2622663494997
20
1.09746028878749
30
0
41
1
10
61.2641093014344
20
0.875865160550234
30
0
41
1
10
61.2590540190362
20
0.766973639118561
30
0
41
1
10
61.2453185006425
20
0.633594863338288
30
0
41
1
10
61.2421987562739
20
0.607016625284359
30
0
41
1
10
61.2352657787119
20
0.554339024693945
30
0
41
1
10
61.2238459772441
20
0.476160241196197
30
0
41
1
10
61.2095414694985
20
0.400463769145574
30
0
41
1
10
61.1775649586004
20
0.252301449059473
30
0
41
1
10
61.1517756521829
20
0.157828088636194
30
0
41
1
10
61.0935738035655
20
-0.0228461892949099
30
0
41
1
10
61.0611662093448
20
-0.109049556209214
30
0
41
1
10
61.0175916099858
20
-0.211708903488898
30
0
41
1
10
61.0087120321565
20
-0.232006969627292
30
0
41
1
10
60.9907136144461
20
-0.271981614248972
30
0
41
1
10
60.9633785671625
20
-0.330966605719709
30
0
41
1
10
60.9351357106186
20
-0.387077792293638
30
0
41
1
10
60.877658528234
20
-0.495582472435814
30
0
41
1
10
60.8380315104397
20
-0.562972320641109
30
0
41
1
10
60.7569271309124
20
-0.688184310615782
30
0
41
1
10
60.7154443115355
20
-0.746004684060836
30
0
41
1
10
60.6626833081752
20
-0.812306691112866
30
0
41
1
10
60.6520850630778
20
-0.825267718736427
30
0
41
1
10
60.6308004111365
20
-0.850588472733051
30
0
41
1
10
60.6201124100523
20
-0.862949022870055
30
0
41
1
10
60.588063681632
20
-0.898968493676222
30
0
41
1
10
60.5666714149736
20
-0.921623110308559
30
0
41
1
10
60.5024487400222
20
-0.985602261011081
30
0
41
1
10
60.4595756466266
20
-1.02295029651921
30
0
41
1
10
60.37379142859
20
-1.08729959773819
30
0
41
1
10
60.2879671239261
20
-1.14130001017267
30
0
41
1
10
60.2020383241878
20
-1.17462352475411
30
0
41
1
10
60.1482556616231
20
-1.18884722586481
30
0
41
1
10
60.1374955771181
20
-1.19136006823734
30
0
41
1
10
60.1160653431624
20
-1.1957023056413
30
0
41
1
10
60.0840173490375
20
-1.2012009286247
30
0
41
1
10
60.0522509982208
20
-1.20368878285581
30
0
41
1
10
59.9890661416333
20
-1.20471727006301
30
0
41
1
10
59.9057470777666
20
-1.19557603536143
30
0
41
1
10
59.7831134450024
20
-1.1508819693756
30
0
41
1
10
59.7026335212279
20
-1.10038056166596
30
0
41
1
10
59.6226469464447
20
-1.03929423419822
30
0
41
1
10
59.5832153839415
20
-1.00369598609001
30
0
41
1
10
59.5442928294251
20
-0.963112087122653
30
0
0
SPLINE
5
C6
100
AcDbEntity
8
1
62
256
6
ByLayer
370
18
48
1
60
0
100
AcDbSpline
70
4
71
3
72
18
73
14
40
0
40
0
40
0
40
0
40
0.162720194614968
40
0.162720194614968
40
0.37204014596123
40
0.37204014596123
40
0.476700121634361
40
0.476700121634361
40
0.581360097307492
40
0.581360097307492
40
0.790680048653746
40
0.790680048653746
40
1
40
1
40
1
40
1
41
1
10
54.8604202639489
20
6.74615735298408
30
0
41
1
10
55.1143242155061
20
6.7461946516878
30
0
41
1
10
55.3682529153057
20
6.74433614803789
30
0
41
1
10
55.9488168386551
20
6.73577434468135
30
0
41
1
10
56.2754549649179
20
6.72783578891983
30
0
41
1
10
56.7653406239662
20
6.71119692065869
30
0
41
1
10
56.9286239347775
20
6.70486128385477
30
0
41
1
10
57.2551578985167
20
6.69059416403698
30
0
41
1
10
57.4184131747971
20
6.68266186416994
30
0
41
1
10
57.9084170784994
20
6.65657498428953
30
0
41
1
10
58.2353458656692
20
6.63612116661204
30
0
41
1
10
58.889570468396
20
6.58907920668489
30
0
41
1
10
59.2168622840942
20
6.56248724443086
30
0
41
1
10
59.5442928294237
20
6.53277587895241
30
0
0
SPLINE
5
C7
100
AcDbEntity
8
1
62
256
6
ByLayer
370
18
48
1
60
0
100
AcDbSpline
70
4
71
3
72
32
73
28
40
0
40
0
40
0
40
0
40
0.0149400494235912
40
0.0149400494235912
40
0.12439115504319
40
0.12439115504319
40
0.233842260662788
40
0.233842260662788
40
0.288567813472588
40
0.288567813472588
40
0.343293366282387
40
0.343293366282387
40
0.452744471901989
40
0.452744471901989
40
0.562195577521591
40
0.562195577521591
40
0.61692113033139
40
0.61692113033139
40
0.671646683141189
40
0.671646683141189
40
0.781097788760792
40
0.781097788760792
40
0.890548894380394
40
0.890548894380394
40
0.945274447190197
40
0.945274447190197
40
1
40
1
40
1
40
1
41
1
10
41.3148944598311
20
4.92791507438366
30
0
41
1
10
41.3666209402843
20
4.94041758835857
30
0
41
1
10
41.4183521856467
20
4.95285912860268
30
0
41
1
10
41.849122433092
20
5.05591125240679
30
0
41
1
10
42.2282609339654
20
5.14302126671481
30
0
41
1
10
42.9862419807465
20
5.3107204091325
30
0
41
1
10
43.3651399976357
20
5.39127423008821
30
0
41
1
10
43.9332429258394
20
5.50730013490238
30
0
41
1
10
44.1225624541372
20
5.54518460330056
30
0
41
1
10
44.5011408920859
20
5.61929992215178
30
0
41
1
10
44.6904444087199
20
5.65546186741679
30
0
41
1
10
45.2585861500955
20
5.76100344391833
30
0
41
1
10
45.6375718677561
20
5.8275737776226
30
0
41
1
10
46.3957707334001
20
5.95348824290923
30
0
41
1
10
46.7750879195588
20
6.01282925261
30
0
41
1
10
47.3434567591781
20
6.09637112126808
30
0
41
1
10
47.5328237657296
20
6.12331836282357
30
0
41
1
10
47.9115415782421
20
6.17522580618243
30
0
41
1
10
48.1009126587485
20
6.20016599055086
30
0
41
1
10
48.6691307700627
20
6.27191009893636
30
0
41
1
10
49.0479976480403
20
6.3157306466619
30
0
41
1
10
49.8056907383583
20
6.39552917324977
30
0
41
1
10
50.184517477601
20
6.43150628572764
30
0
41
1
10
50.752629631261
20
6.47957280687311
30
0
41
1
10
50.9419702632676
20
6.49461221315534
30
0
41
1
10
51.32086337468
20
6.52255917049186
30
0
41
1
10
51.5103961520886
20
6.53548223432651
30
0
41
1
10
51.7000000000001
20
6.54737119842821
30
0
0
SPLINE
5
C8
100
AcDbEntity
8
1
62
256
6
ByLayer
370
18
48
1
60
0
100
AcDbSpline
70
4
71
3
72
65
73
61
40
0
40
0
40
0
40
0
40
0.0511260517839585
40
0.0511260517839585
40
0.102252103567917
40
0.102252103567917
40
0.153378155351875
40
0.153378155351875
40
0.178941181243855
40
0.178941181243855
40
0.204504207135834
40
0.204504207135834
40
0.255630258919794
40
0.255630258919794
40
0.281193284811775
40
0.281193284811775
40
0.306756310703756
40
0.306756310703756
40
0.332319336595736
40
0.332319336595736
40
0.357882362487717
40
0.357882362487717
40
0.409008414271679
40
0.409008414271679
40
0.43457144016366
40
0.43457144016366
40
0.460134466055641
40
0.460134466055641
40
0.511260517839602
40
0.511260517839602
40
0.536823543731584
40
0.536823543731584
40
0.562386569623565
40
0.562386569623565
40
0.587949595515547
40
0.587949595515547
40
0.613512621407528
40
0.613512621407528
40
0.664638673191491
40
0.664638673191491
40
0.690201699083474
40
0.690201699083474
40
0.715764724975456
40
0.715764724975456
40
0.766890776759421
40
0.766890776759421
40
0.818016828543385
40
0.818016828543385
40
0.843579854435367
40
0.843579854435367
40
0.869142880327348
40
0.869142880327348
40
0.89470590621933
40
0.89470590621933
40
0.920268932111312
40
0.945831958003293
40
0.945831958003293
40
0.971394983895275
40
0.971394983895275
40
1
40
1
40
1
40
1
41
1
10
51.7000000000001
20
1.80104543325561
30
0
41
1
10
51.289990611245
20
1.94268793689597
30
0
41
1
10
50.8803609131895
20
2.08348522336897
30
0
41
1
10
50.0608514508108
20
2.36070017028553
30
0
41
1
10
49.651035480935
20
2.49729930920404
30
0
41
1
10
48.8314120622412
20
2.76684431505984
30
0
41
1
10
48.42160332888
20
2.8997862928411
30
0
41
1
10
47.8069524292705
20
3.09656403153374
30
0
41
1
10
47.6020389162904
20
3.1616596436989
30
0
41
1
10
47.1920805474091
20
3.29040189564262
30
0
41
1
10
46.987109895998
20
3.35408239593164
30
0
41
1
10
46.372234599095
20
3.54309384483594
30
0
41
1
10
45.9623630392747
20
3.66639042044119
30
0
41
1
10
45.3477172332835
20
3.84748909425059
30
0
41
1
10
45.142865080234
20
3.90721972646276
30
0
41
1
10
44.7332208557086
20
4.02540062372401
30
0
41
1
10
44.5284251142461
20
4.08384126753899
30
0
41
1
10
44.1187319539144
20
4.1990792420186
30
0
41
1
10
43.9138194661985
20
4.25584511040339
30
0
41
1
10
43.5038789020053
20
4.36771560371639
30
0
41
1
10
43.2988136535315
20
4.42283202790861
30
0
41
1
10
42.6837522542185
20
4.58567525109379
30
0
41
1
10
42.2740432474803
20
4.69086546177525
30
0
41
1
10
41.6600442101175
20
4.84370898183738
30
0
41
1
10
41.4554922775303
20
4.89386975798899
30
0
41
1
10
41.0464517136367
20
4.99229105467865
30
0
41
1
10
40.8419385510304
20
5.04050725649279
30
0
41
1
10
40.2284220375024
20
5.18220231492069
30
0
41
1
10
39.8194412591675
20
5.27273261458581
30
0
41
1
10
39.2060898829105
20
5.4027873766685
30
0
41
1
10
39.0016608125042
20
5.44518331126201
30
0
41
1
10
38.5928617916886
20
5.52808022261334
30
0
41
1
10
38.3885007688297
20
5.56859409114563
30
0
41
1
10
37.9797699970776
20
5.64760676982044
30
0
41
1
10
37.7753869397272
20
5.68608495088284
30
0
41
1
10
37.3664612957187
20
5.76081255920704
30
0
41
1
10
37.1619355380575
20
5.79708797146105
30
0
41
1
10
36.5481969385648
20
5.90270034055197
30
0
41
1
10
36.1388246323191
20
5.96883085831061
30
0
41
1
10
35.5245178820372
20
6.06166359523729
30
0
41
1
10
35.3197078504872
20
6.09154628018473
30
0
41
1
10
34.9100110209068
20
6.14917448974629
30
0
41
1
10
34.7050589687709
20
6.17689852666484
30
0
41
1
10
34.0901801296815
20
6.25645698991519
30
0
41
1
10
33.6802790069424
20
6.30478077755197
30
0
41
1
10
32.8605899204422
20
6.39215845977625
30
0
41
1
10
32.4508118087588
20
6.43122126732877
30
0
41
1
10
31.8363218911703
20
6.48286389887056
30
0
41
1
10
31.6315153731291
20
6.49891149710794
30
0
41
1
10
31.221795677794
20
6.52857699093963
30
0
41
1
10
31.0168668941064
20
6.54218860314225
30
0
41
1
10
30.6068863109308
20
6.56699361614545
30
0
41
1
10
30.4018015892016
20
6.57818890062617
30
0
41
1
10
29.9918233059944
20
6.5981599597244
30
0
41
1
10
29.5819847404814
20
6.61571573178912
30
0
41
1
10
29.1724472790385
20
6.62844956711672
30
0
41
1
10
28.7630719092996
20
6.63876470910202
30
0
41
1
10
28.5584853754658
20
6.64271419284162
30
0
41
1
10
28.1250086889911
20
6.64848813638406
30
0
41
1
10
27.8960892886097
20
6.65000517903817
30
0
41
1
10
27.6671648319416
20
6.65000126135553
30
0
0
SPLINE
5
C9
100
AcDbEntity
8
1
62
256
6
ByLayer
370
18
48
1
60
0
100
AcDbSpline
70
4
71
3
72
12
73
8
40
0
40
0
40
0
40
0
40
0.620612123236829
40
0.620612123236829
40
0.930918184855244
40
0.930918184855244
40
1
40
1
40
1
40
1
41
1
10
51.6999999999999
20
-6.64786116075274
30
0
41
1
10
52.3548913626108
20
-6.68835540581688
30
0
41
1
10
53.0092249049144
20
-6.71631664866706
30
0
41
1
10
53.9892569008321
20
-6.73959922654646
30
0
41
1
10
54.3156928628826
20
-6.74421284496952
30
0
41
1
10
54.7149965069343
20
-6.74598050909739
30
0
41
1
10
54.7877074852568
20
-6.74614667174276
30
0
41
1
10
54.8604204932684
20
-6.74615735301779
30
0
0
SPLINE
5
CA
100
AcDbEntity
8
1
62
256
6
ByLayer
370
18
48
1
60
0
100
AcDbSpline
70
4
71
3
72
92
73
88
40
0
40
0
40
0
40
0
40
0.0312499999999988
40
0.0312499999999988
40
0.0624999999999975
40
0.0624999999999975
40
0.0781249999999974
40
0.0781249999999974
40
0.0937499999999973
40
0.0937499999999973
40
0.124999999999996
40
0.124999999999996
40
0.156249999999995
40
0.156249999999995
40
0.171874999999994
40
0.171874999999994
40
0.187499999999993
40
0.187499999999993
40
0.218749999999991
40
0.218749999999991
40
0.24999999999999
40
0.24999999999999
40
0.265624999999989
40
0.265624999999989
40
0.281249999999988
40
0.281249999999988
40
0.312499999999986
40
0.312499999999986
40
0.343749999999983
40
0.343749999999983
40
0.359374999999982
40
0.359374999999982
40
0.374999999999981
40
0.374999999999981
40
0.437499999999979
40
0.437499999999979
40
0.453124999999979
40
0.453124999999979
40
0.468749999999979
40
0.468749999999979
40
0.499999999999978
40
0.499999999999978
40
0.515624999999978
40
0.515624999999978
40
0.531249999999977
40
0.531249999999977
40
0.546874999999977
40
0.546874999999977
40
0.562499999999977
40
0.562499999999977
40
0.593749999999976
40
0.593749999999976
40
0.609374999999976
40
0.609374999999976
40
0.624999999999976
40
0.624999999999976
40
0.656249999999976
40
0.656249999999976
40
0.687499999999977
40
0.687499999999977
40
0.703124999999977
40
0.703124999999977
40
0.718749999999978
40
0.718749999999978
40
0.749999999999979
40
0.749999999999979
40
0.781249999999981
40
0.781249999999981
40
0.796874999999982
40
0.796874999999982
40
0.812499999999983
40
0.812499999999983
40
0.843749999999985
40
0.843749999999985
40
0.874999999999987
40
0.874999999999987
40
0.890624999999989
40
0.890624999999989
40
0.906249999999991
40
0.906249999999991
40
0.937499999999994
40
0.937499999999994
40
0.968749999999998
40
0.968749999999998
40
0.984374999999999
40
0.984374999999999
40
1
40
1
40
1
40
1
41
1
10
15.3348945832855
20
3.5713228376618
30
0
41
1
10
15.7138453055096
20
3.45608206831906
30
0
41
1
10
16.0927262152776
20
3.33924252134847
30
0
41
1
10
16.850164139896
20
3.1019746170725
30
0
41
1
10
17.2287196252468
20
2.98154188008286
30
0
41
1
10
17.7961990049537
20
2.79792084313607
30
0
41
1
10
17.9853002022715
20
2.73621895719307
30
0
41
1
10
18.3633700625424
20
2.61178108327027
30
0
41
1
10
18.5523150937825
20
2.54898293985315
30
0
41
1
10
19.1192103187178
20
2.35970424174442
30
0
41
1
10
19.497304108113
20
2.23256472625519
30
0
41
1
10
20.253591617824
20
1.97582215735352
30
0
41
1
10
20.6317791084637
20
1.84620147130525
30
0
41
1
10
21.1990345588642
20
1.64963583056297
30
0
41
1
10
21.3881076140713
20
1.58373633182529
30
0
41
1
10
21.7662442212644
20
1.45121499696648
30
0
41
1
10
21.9553204283799
20
1.38462721573112
30
0
41
1
10
22.5228413236918
20
1.18462796980847
30
0
41
1
10
22.9015841810254
20
1.05100439704225
30
0
41
1
10
23.6595560660735
20
0.782342967758382
30
0
41
1
10
24.0389164933678
20
0.647329230231691
30
0
41
1
10
24.6074012520386
20
0.443846139032502
30
0
41
1
10
24.7968229734199
20
0.375820116245961
30
0
41
1
10
25.1755736097555
20
0.239521272436661
30
0
41
1
10
25.3649504192806
20
0.171382275516578
30
0
41
1
10
25.9332353955478
20
-0.0325843497336678
30
0
41
1
10
26.3122251210106
20
-0.168165599234328
30
0
41
1
10
27.0702508895268
20
-0.439149489095314
30
0
41
1
10
27.4492994111613
20
-0.574517274283437
30
0
41
1
10
28.0178010781616
20
-0.777730008466108
30
0
41
1
10
28.2072969193503
20
-0.845514766596892
30
0
41
1
10
28.5862217831082
20
-0.980634184117065
30
0
41
1
10
28.7756953046941
20
-1.04791795634853
30
0
41
1
10
29.7231818291471
20
-1.38279582518612
30
0
41
1
10
30.4812551345605
20
-1.64661445188094
30
0
41
1
10
31.4282589811499
20
-1.97311823723177
30
0
41
1
10
31.6176305324401
20
-2.03825240557893
30
0
41
1
10
31.9965775684914
20
-2.16748839051977
30
0
41
1
10
32.1861442204767
20
-2.23165871980763
30
0
41
1
10
32.7549370088142
20
-2.42290508076482
30
0
41
1
10
33.1340658509821
20
-2.54867115331635
30
0
41
1
10
33.7025268548811
20
-2.73507692749152
30
0
41
1
10
33.8919781606766
20
-2.79682978653756
30
0
41
1
10
34.2707883301482
20
-2.91961854282224
30
0
41
1
10
34.4601300844436
20
-2.9806968568904
30
0
41
1
10
34.8387890889016
20
-3.10195761847001
30
0
41
1
10
35.0281188810683
20
-3.16210852279823
30
0
41
1
10
35.4069352016379
20
-3.28107383396465
30
0
41
1
10
35.5963992468912
20
-3.33994460784356
30
0
41
1
10
36.1648858723398
20
-3.5149080621585
30
0
41
1
10
36.5440201674133
20
-3.62931639201037
30
0
41
1
10
37.1128264912281
20
-3.79780879210929
30
0
41
1
10
37.3023647850212
20
-3.85342847836628
30
0
41
1
10
37.6812970976755
20
-3.96360779994757
30
0
41
1
10
37.8706679384069
20
-4.01821803933777
30
0
41
1
10
38.4387853292045
20
-4.17994973287784
30
0
41
1
10
38.8176730913308
20
-4.2846839099895
30
0
41
1
10
39.5755216571472
20
-4.48853030962167
30
0
41
1
10
39.9544728866393
20
-4.58766096375638
30
0
41
1
10
40.5228450018032
20
-4.73233802468332
30
0
41
1
10
40.7122879765639
20
-4.77990328432173
30
0
41
1
10
41.0911459923868
20
-4.87369682362902
30
0
41
1
10
41.2805738111918
20
-4.91989874151457
30
0
41
1
10
41.849122433092
20
-5.05591125240676
30
0
41
1
10
42.2282609339654
20
-5.14302126671481
30
0
41
1
10
42.9862419807465
20
-5.3107204091325
30
0
41
1
10
43.3651399976358
20
-5.39127423008821
30
0
41
1
10
43.9332429258395
20
-5.50730013490238
30
0
41
1
10
44.1225624541372
20
-5.54518460330056
30
0
41
1
10
44.5011408920859
20
-5.61929992215181
30
0
41
1
10
44.6904444087199
20
-5.65546186741682
30
0
41
1
10
45.2585861500954
20
-5.76100344391833
30
0
41
1
10
45.637571867756
20
-5.8275737776226
30
0
41
1
10
46.3957707334001
20
-5.95348824290923
30
0
41
1
10
46.7750879195588
20
-6.01282925260998
30
0
41
1
10
47.343456759178
20
-6.09637112126808
30
0
41
1
10
47.5328237657295
20
-6.12331836282357
30
0
41
1
10
47.911541578242
20
-6.17522580618245
30
0
41
1
10
48.1009126587484
20
-6.20016599055086
30
0
41
1
10
48.6691307700627
20
-6.27191009893636
30
0
41
1
10
49.0479976480403
20
-6.3157306466619
30
0
41
1
10
49.8056907383583
20
-6.39552917324977
30
0
41
1
10
50.1845174776009
20
-6.43150628572764
30
0
41
1
10
50.7526296312609
20
-6.47957280687311
30
0
41
1
10
50.9419702632676
20
-6.49461221315534
30
0
41
1
10
51.32086337468
20
-6.52255917049186
30
0
41
1
10
51.5103961520886
20
-6.53548223432651
30
0
41
1
10
51.7000000000001
20
-6.54737119842821
30
0
0
SPLINE
5
CB
100
AcDbEntity
8
1
62
256
6
ByLayer
370
18
48
1
60
0
100
AcDbSpline
70
4
71
3
72
77
73
73
40
0
40
0
40
0
40
0
40
0.0022078965384952
40
0.0022078965384952
40
0.0234375157610808
40
0.0234375157610808
40
0.0658967542062518
40
0.0658967542062518
40
0.0871263734288373
40
0.0871263734288373
40
0.108355992651423
40
0.108355992651423
40
0.129585611874008
40
0.129585611874008
40
0.150815231096594
40
0.150815231096594
40
0.193274469541766
40
0.193274469541766
40
0.214504088764352
40
0.214504088764352
40
0.235733707986938
40
0.235733707986938
40
0.278192946432111
40
0.278192946432111
40
0.320652184877283
40
0.320652184877283
40
0.341881804099869
40
0.341881804099869
40
0.363111423322454
40
0.363111423322454
40
0.38434104254504
40
0.38434104254504
40
0.405570661767625
40
0.426800280990211
40
0.426800280990211
40
0.448029900212796
40
0.448029900212796
40
0.490489138657966
40
0.490489138657966
40
0.532948377103136
40
0.532948377103136
40
0.575407615548306
40
0.575407615548306
40
0.617866853993475
40
0.617866853993475
40
0.63909647321606
40
0.63909647321606
40
0.660326092438645
40
0.660326092438645
40
0.68155571166123
40
0.68155571166123
40
0.702785330883815
40
0.702785330883815
40
0.745244569328984
40
0.745244569328984
40
0.766474188551569
40
0.766474188551569
40
0.787703807774153
40
0.787703807774153
40
0.808933426996738
40
0.808933426996738
40
0.830163046219323
40
0.830163046219323
40
0.872622284664493
40
0.872622284664493
40
0.893851903887077
40
0.893851903887077
40
0.915081523109662
40
0.915081523109662
40
0.957540761554831
40
0.957540761554831
40
1
40
1
40
1
40
1
41
1
10
41.3147839101106
20
-4.92769592504732
30
0
41
1
10
41.2935128675308
20
-4.93283423992287
30
0
41
1
10
41.272242260388
20
-4.93796246149464
30
0
41
1
10
41.0464517136368
20
-4.99229105467865
30
0
41
1
10
40.8419385510304
20
-5.04050725649276
30
0
41
1
10
40.2284220375024
20
-5.18220231492069
30
0
41
1
10
39.8194412591675
20
-5.27273261458583
30
0
41
1
10
39.2060898829106
20
-5.40278737666847
30
0
41
1
10
39.0016608125043
20
-5.44518331126199
30
0
41
1
10
38.5928617916887
20
-5.52808022261334
30
0
41
1
10
38.3885007688298
20
-5.56859409114563
30
0
41
1
10
37.9797699970777
20
-5.64760676982041
30
0
41
1
10
37.7753869397272
20
-5.68608495088282
30
0
41
1
10
37.3664612957187
20
-5.76081255920704
30
0
41
1
10
37.1619355380575
20
-5.79708797146105
30
0
41
1
10
36.5481969385649
20
-5.90270034055197
30
0
41
1
10
36.1388246323191
20
-5.96883085831061
30
0
41
1
10
35.5245178820373
20
-6.06166359523729
30
0
41
1
10
35.3197078504872
20
-6.0915462801847
30
0
41
1
10
34.9100110209068
20
-6.14917448974626
30
0
41
1
10
34.705058968771
20
-6.17689852666481
30
0
41
1
10
34.0901801296816
20
-6.25645698991519
30
0
41
1
10
33.6802790069424
20
-6.30478077755197
30
0
41
1
10
32.8605899204423
20
-6.39215845977625
30
0
41
1
10
32.4508118087588
20
-6.43122126732877
30
0
41
1
10
31.8363218911703
20
-6.48286389887056
30
0
41
1
10
31.6315153731291
20
-6.49891149710794
30
0
41
1
10
31.221795677794
20
-6.5285769909396
30
0
41
1
10
31.0168668941064
20
-6.54218860314222
30
0
41
1
10
30.6068863109308
20
-6.56699361614545
30
0
41
1
10
30.4018015892017
20
-6.57818890062617
30
0
41
1
10
29.9918233059944
20
-6.5981599597244
30
0
41
1
10
29.5819847404814
20
-6.61571573178912
30
0
41
1
10
29.1724472790385
20
-6.62844956711672
30
0
41
1
10
28.7630719092996
20
-6.63876470910202
30
0
41
1
10
28.5584853754658
20
-6.64271419284162
30
0
41
1
10
27.944785377194
20
-6.65088872506581
30
0
41
1
10
27.5356220808027
20
-6.651444288991
30
0
41
1
10
26.7172849322895
20
-6.64289387967452
30
0
41
1
10
26.3081132978389
20
-6.63379029737141
30
0
41
1
10
25.4898999662339
20
-6.60584675332382
30
0
41
1
10
25.0809272404242
20
-6.58695305891922
30
0
41
1
10
24.2622490981529
20
-6.53966272735781
30
0
41
1
10
23.8526058253711
20
-6.51127315888527
30
0
41
1
10
23.2377826675279
20
-6.46153858023828
30
0
41
1
10
23.0327432248067
20
-6.44376381494055
30
0
41
1
10
22.6227383544195
20
-6.40582403689737
30
0
41
1
10
22.4178140465089
20
-6.38566267762414
30
0
41
1
10
22.0081292273121
20
-6.34293643708472
30
0
41
1
10
21.8033468968441
20
-6.32038669789307
30
0
41
1
10
21.3937257917748
20
-6.27307660641341
30
0
41
1
10
21.1889072735683
20
-6.24830063947584
30
0
41
1
10
20.5744391414518
20
-6.17062150238925
30
0
41
1
10
20.1647734660118
20
-6.11437729667853
30
0
41
1
10
19.5503376962382
20
-6.02321901822216
30
0
41
1
10
19.345538895743
20
-5.99169607159746
30
0
41
1
10
18.9359692674686
20
-5.92635685735161
30
0
41
1
10
18.7311950125935
20
-5.89254262797081
30
0
41
1
10
18.3215146856942
20
-5.82281784529866
30
0
41
1
10
18.1165928606732
20
-5.78693063888653
30
0
41
1
10
17.7066002419148
20
-5.71310177197404
30
0
41
1
10
17.5015255002525
20
-5.67515701215638
30
0
41
1
10
16.886543676492
20
-5.55829146205238
30
0
41
1
10
16.4767350976061
20
-5.47631542074359
30
0
41
1
10
15.8623589434424
20
-5.34711550042391
30
0
41
1
10
15.6576433110772
20
-5.30297295668117
30
0
41
1
10
15.2482017201072
20
-5.21280166627071
30
0
41
1
10
15.0434487354783
20
-5.16682120423607
30
0
41
1
10
14.4290950304855
20
-5.02621455163893
30
0
41
1
10
14.0194014392365
20
-4.92892524547014
30
0
41
1
10
13.1998687766838
20
-4.72707099388367
30
0
41
1
10
12.7900316281738
20
-4.62250289564625
30
0
41
1
10
12.3801820152425
20
-4.514111252258
30
0
0
SPLINE
5
CC
100
AcDbEntity
8
1
62
256
6
ByLayer
370
18
48
1
60
0
100
AcDbSpline
70
4
71
3
72
102
73
98
40
0
40
0
40
0
40
0
40
0.0624999999999869
40
0.0624999999999869
40
0.124999999999974
40
0.124999999999974
40
0.156249999999968
40
0.156249999999968
40
0.187499999999962
40
0.187499999999962
40
0.218749999999956
40
0.218749999999956
40
0.24999999999995
40
0.24999999999995
40
0.281249999999944
40
0.281249999999944
40
0.296874999999942
40
0.296874999999942
40
0.304687499999941
40
0.304687499999941
40
0.31249999999994
40
0.31249999999994
40
0.343749999999939
40
0.343749999999939
40
0.374999999999937
40
0.374999999999937
40
0.390624999999937
40
0.390624999999937
40
0.398437499999937
40
0.398437499999937
40
0.406249999999936
40
0.406249999999936
40
0.421874999999936
40
0.421874999999936
40
0.437499999999936
40
0.437499999999936
40
0.441406249999936
40
0.441406249999936
40
0.445312499999937
40
0.445312499999937
40
0.453124999999937
40
0.453124999999937
40
0.468749999999937
40
0.468749999999937
40
0.484374999999938
40
0.484374999999938
40
0.492187499999938
40
0.492187499999938
40
0.499999999999938
40
0.499999999999938
40
0.515624999999939
40
0.515624999999939
40
0.523437499999939
40
0.527343749999939
40
0.527343749999939
40
0.53124999999994
40
0.53124999999994
40
0.546874999999941
40
0.546874999999941
40
0.562499999999942
40
0.562499999999942
40
0.578124999999943
40
0.578124999999943
40
0.585937499999944
40
0.585937499999944
40
0.593749999999945
40
0.593749999999945
40
0.62499999999995
40
0.62499999999995
40
0.656249999999955
40
0.656249999999955
40
0.664062499999956
40
0.664062499999956
40
0.671874999999957
40
0.687499999999958
40
0.687499999999958
40
0.718749999999961
40
0.718749999999961
40
0.749999999999965
40
0.749999999999965
40
0.781249999999968
40
0.781249999999968
40
0.812499999999971
40
0.812499999999971
40
0.843749999999974
40
0.843749999999974
40
0.859374999999977
40
0.859374999999977
40
0.874999999999979
40
0.874999999999979
40
0.906249999999984
40
0.906249999999984
40
0.937499999999989
40
0.937499999999989
40
0.968749999999995
40
0.968749999999995
40
1
40
1
40
1
40
1
41
1
10
10
20
4.46310688733161
30
0
41
1
10
9.62077471396486
20
4.49002141547757
30
0
41
1
10
9.24480437594792
20
4.5042802655727
30
0
41
1
10
8.49967700512957
20
4.50502778705177
30
0
41
1
10
8.13051366542115
20
4.49155648639865
30
0
41
1
10
7.58212452207323
20
4.44713670915058
30
0
41
1
10
7.40022160028892
20
4.42827500156972
30
0
41
1
10
7.0382661716003
20
4.3815388989415
30
0
41
1
10
6.85821321710455
20
4.35366877316059
30
0
41
1
10
6.5000477317534
20
4.28768237882107
30
0
41
1
10
6.32191593374111
20
4.24956900862671
30
0
41
1
10
5.96780141539881
20
4.16137575958254
30
0
41
1
10
5.79367256862747
20
4.11175453327292
30
0
41
1
10
5.45169221500726
20
3.99995235365361
30
0
41
1
10
5.28383653734119
20
3.93778271741363
30
0
41
1
10
5.03726609712288
20
3.833463811808
30
0
41
1
10
4.95594716043536
20
3.79684038392028
30
0
41
1
10
4.83536786009245
20
3.73884511297749
30
0
41
1
10
4.79540817974907
20
3.71900269668259
30
0
41
1
10
4.71597433236209
20
3.67824022508822
30
0
41
1
10
4.6764935499923
20
3.65731435096595
30
0
41
1
10
4.4813549893606
20
3.55040132136756
30
0
41
1
10
4.33165691461193
20
3.45721280599011
30
0
41
1
10
4.04681540411434
20
3.25267639342775
30
0
41
1
10
3.91164209751381
20
3.14137048212621
30
0
41
1
10
3.72207029447282
20
2.95731055802426
30
0
41
1
10
3.66109028091259
20
2.8930896335018
30
0
41
1
10
3.57340184490511
20
2.79176863649491
30
0
41
1
10
3.54477446617028
20
2.75712322563396
30
0
41
1
10
3.48901079257479
20
2.68617820967165
30
0
41
1
10
3.462041705866
20
2.65009406797071
30
0
41
1
10
3.38397125715031
20
2.53992734815526
30
0
41
1
10
3.33569887674591
20
2.46393580882975
30
0
41
1
10
3.24739191829988
20
2.30632471056117
30
0
41
1
10
3.20735353111814
20
2.22470781162744
30
0
41
1
10
3.16306554124563
20
2.11871180064415
30
0
41
1
10
3.15449684324002
20
2.0973132360551
30
0
41
1
10
3.1379566012923
20
2.05410314915275
30
0
41
1
10
3.12998337118583
20
2.03228208434578
30
0
41
1
10
3.10714952357438
20
1.96665912432894
30
0
41
1
10
3.09331345712849
20
1.92254456367215
30
0
41
1
10
3.05600172114293
20
1.78908793972019
30
0
41
1
10
3.03671448923171
20
1.69863478879984
30
0
41
1
10
3.00969449048051
20
1.51464173977419
30
0
41
1
10
3.00196005217407
20
1.42110228676202
30
0
41
1
10
2.99951492670422
20
1.27833811976336
30
0
41
1
10
3.00024545667532
20
1.23017597415495
30
0
41
1
10
3.00476634309294
20
1.13453519232667
30
0
41
1
10
3.00854370277853
20
1.08691215561262
30
0
41
1
10
3.02426964924666
20
0.944614815650993
30
0
41
1
10
3.04060433152733
20
0.850511178926979
30
0
41
1
10
3.07341790520246
20
0.710439579876493
30
0
41
1
10
3.09190568503951
20
0.640675185280799
30
0
41
1
10
3.11345268287891
20
0.5713105447293
30
0
41
1
10
3.12849173182875
20
0.525155678174173
30
0
41
1
10
3.13633833529553
20
0.50215669122926
30
0
41
1
10
3.17695937323245
20
0.388119385066005
30
0
41
1
10
3.21405932552281
20
0.299395808538918
30
0
41
1
10
3.29630839576799
20
0.126327367602016
30
0
41
1
10
3.34146195099396
20
0.0419849136845869
30
0
41
1
10
3.43897340064495
20
-0.122784985352723
30
0
41
1
10
3.4913339567558
20
-0.203210984692021
30
0
41
1
10
3.57479106256182
20
-0.32118147421221
30
0
41
1
10
3.60328521563309
20
-0.359852489513543
30
0
41
1
10
3.6614052110861
20
-0.435831790176309
30
0
41
1
10
3.69105058141292
20
-0.473167478794437
30
0
41
1
10
3.84199294523961
20
-0.656817844347472
30
0
41
1
10
3.97135886321485
20
-0.794137513609542
30
0
41
1
10
4.2433969745129
20
-1.05405160639955
30
0
41
1
10
4.38610131444011
20
-1.17660955341802
30
0
41
1
10
4.57122893327491
20
-1.32238480859863
30
0
41
1
10
4.60854173588842
20
-1.35112403784504
30
0
41
1
10
4.68349018481271
20
-1.40765932996319
30
0
41
1
10
4.79649793869015
20
-1.49112560081164
30
0
41
1
10
4.91114519296798
20
-1.57085475610339
30
0
41
1
10
5.14236521804978
20
-1.72593722268743
30
0
41
1
10
5.29907012393727
20
-1.82351444156194
30
0
41
1
10
5.61650727026301
20
-2.00952464137396
30
0
41
1
10
5.7772437296731
20
-2.09794714309299
30
0
41
1
10
6.1019143256938
20
-2.2674601590235
30
0
41
1
10
6.26585048610659
20
-2.34854541224345
30
0
41
1
10
6.59624679284175
20
-2.50479065767829
30
0
41
1
10
6.76270781701626
20
-2.57994802051584
30
0
41
1
10
7.09759597921561
20
-2.72544869827715
30
0
41
1
10
7.26602332861
20
-2.79579082673848
30
0
41
1
10
7.51979634871739
20
-2.89834520619524
30
0
41
1
10
7.60457679957187
20
-2.93203506361237
30
0
41
1
10
7.77446895347566
20
-2.99851282996346
30
0
41
1
10
7.85960027955409
20
-3.03130803271091
30
0
41
1
10
8.1151836701784
20
-3.12835973081385
30
0
41
1
10
8.28588014343879
20
-3.19131340165012
30
0
41
1
10
8.62770119958054
20
-3.31420594339326
30
0
41
1
10
8.79882542493215
20
-3.37414447277405
30
0
41
1
10
9.14141016876022
20
-3.49125206059861
30
0
41
1
10
9.31287041040065
20
-3.54842061023112
30
0
41
1
10
9.65614117710714
20
-3.66001136785732
30
0
41
1
10
9.8279516207931
20
-3.71443269873828
30
0
41
1
10
10
20
-3.76739138781204
30
0
0
SPLINE
5
CD
100
AcDbEntity
8
1
62
256
6
ByLayer
370
18
48
1
60
0
100
AcDbSpline
70
4
71
3
72
14
73
10
40
0
40
0
40
0
40
0
40
0.25
40
0.25
40
0.5
40
0.5
40
0.75
40
0.75
40
1
40
1
40
1
40
1
41
1
10
12.3801820152425
20
-4.51411125225798
30
0
41
1
10
12.1796528732866
20
-4.45946538760663
30
0
41
1
10
11.9798935717751
20
-4.40262340346783
30
0
41
1
10
11.58151990273
20
-4.28507508237738
30
0
41
1
10
11.3829045058122
20
-4.22437143319866
30
0
41
1
10
10.9865196116099
20
-4.09951228934011
30
0
41
1
10
10.7887494308798
20
-4.0353592242343
30
0
41
1
10
10.393880432678
20
-3.90381477002194
30
0
41
1
10
10.1967813811079
20
-3.83642518076098
30
0
41
1
10
10
20
-3.76739138781201
30
0
0
SPLINE
5
CE
100
AcDbEntity
8
1
62
256
6
ByLayer
370
18
48
1
60
0
100
AcDbSpline
70
4
71
4
72
16
73
11
40
0
40
0
40
0
40
0
40
0
40
0.296066396217016
40
0.296066396217016
40
0.296066396217016
40
0.703933603782981
40
0.703933603782981
40
0.703933603782981
40
1
40
1
40
1
40
1
40
1
41
0.997157516894346
10
15.3348945832855
20
3.57132283766179
30
0
41
0.994815083929767
10
15.2524487349498
20
3.41998746133428
30
0
41
0.993694866153731
10
15.0951455596809
20
3.06029093411622
30
0
41
1
10
14.8685169979863
20
2.49490665242516
30
0
41
1
10
14.293666801353
20
1.00869547968409
30
0
41
0.988033871712585
10
13.857538299264
20
-0.158068540295344
30
0
41
1
10
13.421409797175
20
-1.37819541218477
30
0
41
1
10
12.8465596005417
20
-3.03808611529175
30
0
41
0.993694866153731
10
12.6199310388471
20
-3.71301895838197
30
0
41
0.994815083929767
10
12.4626278635782
20
-4.21422813788305
30
0
41
0.997157516894346
10
12.3801820152425
20
-4.51411125225801
30
0
0
SPLINE
5
CF
100
AcDbEntity
8
1
62
256
6
ByLayer
370
18
48
1
60
0
100
AcDbSpline
70
4
71
3
72
20
73
16
40
0
40
0
40
0
40
0
40
0.124999999999998
40
0.124999999999998
40
0.249999999999996
40
0.249999999999996
40
0.499999999999989
40
0.499999999999989
40
0.624999999999987
40
0.624999999999987
40
0.687499999999988
40
0.687499999999988
40
0.749999999999989
40
0.749999999999989
40
1
40
1
40
1
40
1
41
1
10
10
20
4.46310688733161
30
0
41
1
10
10.2303296879068
20
4.46353236214159
30
0
41
1
10
10.4594384253711
20
4.45839185312084
30
0
41
1
10
10.9154090756447
20
4.43778675024427
30
0
41
1
10
11.1422702324683
20
4.42231723022846
30
0
41
1
10
11.8197491688304
20
4.36128613834916
30
0
41
1
10
12.2672520362377
20
4.30108109670664
30
0
41
1
10
12.9334203025882
20
4.18449073215385
30
0
41
1
10
13.1546308104779
20
4.1412474993069
30
0
41
1
10
13.4853458127535
20
4.07027056648408
30
0
41
1
10
13.5954008952296
20
4.04559389881422
30
0
41
1
10
13.815174841208
20
3.99429459995974
30
0
41
1
10
13.9249442168906
20
3.96765881631524
30
0
41
1
10
14.4721282805025
20
3.83009306534399
30
0
41
1
10
14.9049433907865
20
3.70591916216836
30
0
41
1
10
15.3348945832855
20
3.57132283766185
30
0
0
SPLINE
5
D0
100
AcDbEntity
8
1
62
256
6
ByLayer
370
13
48
1
60
0
100
AcDbSpline
70
4
71
3
72
85
73
81
40
0
40
0
40
0
40
0
40
0.0312500000000015
40
0.0312500000000015
40
0.0625000000000031
40
0.0625000000000031
40
0.0937500000000046
40
0.0937500000000046
40
0.125000000000006
40
0.125000000000006
40
0.156250000000008
40
0.156250000000008
40
0.187500000000009
40
0.187500000000009
40
0.218750000000011
40
0.218750000000011
40
0.250000000000012
40
0.250000000000012
40
0.281250000000014
40
0.281250000000014
40
0.285156250000014
40
0.285156250000014
40
0.289062500000014
40
0.289062500000014
40
0.296875000000014
40
0.296875000000014
40
0.312500000000013
40
0.312500000000013
40
0.343750000000013
40
0.343750000000013
40
0.375000000000012
40
0.375000000000012
40
0.406250000000012
40
0.406250000000012
40
0.437500000000011
40
0.437500000000011
40
0.46875000000001
40
0.46875000000001
40
0.50000000000001
40
0.50000000000001
40
0.531250000000009
40
0.531250000000009
40
0.562500000000009
40
0.562500000000009
40
0.570312500000008
40
0.570312500000008
40
0.578125000000008
40
0.578125000000008
40
0.593750000000008
40
0.593750000000008
40
0.625000000000008
40
0.625000000000008
40
0.656250000000007
40
0.656250000000007
40
0.687500000000007
40
0.687500000000007
40
0.718750000000007
40
0.718750000000007
40
0.750000000000006
40
0.750000000000006
40
0.781250000000006
40
0.781250000000006
40
0.812500000000005
40
0.812500000000005
40
0.843750000000005
40
0.843750000000005
40
0.859375000000004
40
0.859375000000004
40
0.863281250000004
40
0.863281250000004
40
0.867187500000004
40
0.875000000000004
40
0.875000000000004
40
0.906250000000003
40
0.906250000000003
40
0.937500000000002
40
0.937500000000002
40
0.968750000000001
40
0.968750000000001
40
1
40
1
40
1
40
1
41
1
10
52.7055393097955
20
6.74700000000001
30
0
41
1
10
52.7767763256248
20
6.74700000000001
30
0
41
1
10
52.848013341454
20
6.72017936881156
30
0
41
1
10
52.9904873731126
20
6.60390231106197
30
0
41
1
10
53.0617243889419
20
6.51437597006682
30
0
41
1
10
53.2041984206004
20
6.26750806569234
30
0
41
1
10
53.2754354364297
20
6.11011639870836
30
0
41
1
10
53.4179094680882
20
5.72818334628806
30
0
41
1
10
53.4891464839175
20
5.50363550907818
30
0
41
1
10
53.631620515576
20
4.99483463580972
30
0
41
1
10
53.7028575314053
20
4.71062917031398
30
0
41
1
10
53.8453315630638
20
4.09613989244116
30
0
41
1
10
53.9165685788931
20
3.76594545656064
30
0
41
1
10
54.0590426105517
20
3.07716356343778
30
0
41
1
10
54.130279626381
20
2.71867729244818
30
0
41
1
10
54.2727536580396
20
1.99207105883573
30
0
41
1
10
54.3439906738688
20
1.62403258735489
30
0
41
1
10
54.4864647055273
20
0.89530069150149
30
0
41
1
10
54.5577017213567
20
0.534651206599136
30
0
41
1
10
54.6378433641646
20
0.140513390843864
30
0
41
1
10
54.6467479911432
20
0.0968785776458674
30
0
41
1
10
54.6645572451006
20
0.0099464772664817
30
0
41
1
10
54.6734618720793
20
-0.0333037929825082
30
0
41
1
10
54.7001757530152
20
-0.163882622424723
30
0
41
1
10
54.7179850069725
20
-0.251603402615416
30
0
41
1
10
54.7714127688445
20
-0.516509924243223
30
0
41
1
10
54.8070312767591
20
-0.695448201470441
30
0
41
1
10
54.913886800503
20
-1.23687350414087
30
0
41
1
10
54.9851238163323
20
-1.60407798965252
30
0
41
1
10
55.1275978479908
20
-2.33530557117842
30
0
41
1
10
55.1988348638201
20
-2.69925933204178
30
0
41
1
10
55.3413088954787
20
-3.4056193486451
30
0
41
1
10
55.4125459113079
20
-3.74792823502276
30
0
41
1
10
55.5550199429665
20
-4.39257951461497
30
0
41
1
10
55.6262569587958
20
-4.69482446893306
30
0
41
1
10
55.7687309904543
20
-5.24391870477095
30
0
41
1
10
55.8399680062836
20
-5.49070310955457
30
0
41
1
10
55.9824420379421
20
-5.91899334970677
30
0
41
1
10
56.0536790537714
20
-6.10048668866236
30
0
41
1
10
56.19615308543
20
-6.39507571929326
30
0
41
1
10
56.2673901012593
20
-6.5082084546456
30
0
41
1
10
56.4098641329178
20
-6.66932027284221
30
0
41
1
10
56.481101148747
20
-6.71736524214944
30
0
41
1
10
56.5701474185337
20
-6.74168322215598
30
0
41
1
10
56.587956672491
20
-6.74476846924202
30
0
41
1
10
56.6235751804056
20
-6.74753466637372
30
0
41
1
10
56.641384434363
20
-6.74723847771637
30
0
41
1
10
56.6948121962349
20
-6.74124922189594
30
0
41
1
10
56.7304307041496
20
-6.73038658987318
30
0
41
1
10
56.8372862278935
20
-6.675441783971
30
0
41
1
10
56.9085232437227
20
-6.60886230471652
30
0
41
1
10
57.0509972753813
20
-6.40913194415194
30
0
41
1
10
57.1222342912105
20
-6.27592100357367
30
0
41
1
10
57.2647083228691
20
-5.94136052326485
30
0
41
1
10
57.3359453386984
20
-5.73998696854238
30
0
41
1
10
57.478419370357
20
-5.27413810111076
30
0
41
1
10
57.5496563861862
20
-5.0096914875113
30
0
41
1
10
57.6921304178447
20
-4.4293156475658
30
0
41
1
10
57.7633674336741
20
-4.11346384121541
30
0
41
1
10
57.9058414653326
20
-3.4468484720573
30
0
41
1
10
57.9770784811619
20
-3.09618584524946
30
0
41
1
10
58.1195525128204
20
-2.37868289445905
30
0
41
1
10
58.1907895286497
20
-2.01193396299163
30
0
41
1
10
58.3332635603082
20
-1.28014449667484
30
0
41
1
10
58.4045005761375
20
-0.915162011112699
30
0
41
1
10
58.5113560998814
20
-0.380009119690158
30
0
41
1
10
58.5469746077961
20
-0.203648251593933
30
0
41
1
10
58.5914977426894
20
0.0133775784939303
30
0
41
1
10
58.600402369668
20
0.0566940190599325
30
0
41
1
10
58.6182116236254
20
0.143865696261855
30
0
41
1
10
58.6449255045613
20
0.275118129856651
30
0
41
1
10
58.6716393854972
20
0.407761069879769
30
0
41
1
10
58.7606856552839
20
0.852534887598466
30
0
41
1
10
58.8319226711131
20
1.21692908261113
30
0
41
1
10
58.9743967027717
20
1.94848967624199
30
0
41
1
10
59.045633718601
20
2.31560030737921
30
0
41
1
10
59.1881077502595
20
3.03490579351762
30
0
41
1
10
59.2593447660889
20
3.38701068808814
30
0
41
1
10
59.4018187977474
20
4.05756327261017
30
0
41
1
10
59.4730558135767
20
4.3759096947538
30
0
41
1
10
59.5442928294059
20
4.66901663509174
30
0
0
SPLINE
5
D1
100
AcDbEntity
8
1
62
256
6
ByLayer
370
13
48
1
60
0
100
AcDbSpline
70
4
71
3
72
84
73
80
40
0
40
0
40
0
40
0
40
0.0312500000000005
40
0.0312500000000005
40
0.0625000000000009
40
0.0625000000000009
40
0.0937500000000014
40
0.0937500000000014
40
0.125000000000002
40
0.125000000000002
40
0.156250000000002
40
0.156250000000002
40
0.187500000000003
40
0.187500000000003
40
0.218750000000003
40
0.218750000000003
40
0.250000000000004
40
0.250000000000004
40
0.265625000000004
40
0.265625000000004
40
0.269531250000004
40
0.269531250000004
40
0.273437500000004
40
0.281250000000005
40
0.281250000000005
40
0.312500000000006
40
0.312500000000006
40
0.343750000000006
40
0.343750000000006
40
0.375000000000007
40
0.375000000000007
40
0.406250000000008
40
0.406250000000008
40
0.437500000000009
40
0.437500000000009
40
0.46875000000001
40
0.46875000000001
40
0.500000000000011
40
0.500000000000011
40
0.531250000000012
40
0.531250000000012
40
0.535156250000012
40
0.535156250000012
40
0.539062500000012
40
0.546875000000012
40
0.546875000000012
40
0.562500000000012
40
0.562500000000012
40
0.593750000000011
40
0.593750000000011
40
0.62500000000001
40
0.62500000000001
40
0.65625000000001
40
0.65625000000001
40
0.687500000000009
40
0.687500000000009
40
0.718750000000009
40
0.718750000000009
40
0.750000000000008
40
0.750000000000008
40
0.781250000000007
40
0.781250000000007
40
0.796875000000007
40
0.796875000000007
40
0.804687500000007
40
0.804687500000007
40
0.812500000000006
40
0.812500000000006
40
0.843750000000005
40
0.843750000000005
40
0.875000000000004
40
0.875000000000004
40
0.906250000000003
40
0.906250000000003
40
0.937500000000002
40
0.937500000000002
40
0.968750000000001
40
0.968750000000001
40
1
40
1
40
1
40
1
41
1
10
52.2027698510051
20
6.74700000000001
30
0
41
1
10
52.2792440486967
20
6.74700000000001
30
0
41
1
10
52.3557182463884
20
6.71606771603317
30
0
41
1
10
52.5086666417717
20
6.58135440155988
30
0
41
1
10
52.5851408394635
20
6.47747477712039
30
0
41
1
10
52.7380892348468
20
6.19113704195087
30
0
41
1
10
52.8145634325385
20
6.00861499664239
30
0
41
1
10
52.9675118279218
20
5.56730356798039
30
0
41
1
10
53.0439860256135
20
5.3085218058184
30
0
41
1
10
53.1969344209969
20
4.72601463879377
30
0
41
1
10
53.2734086186885
20
4.40237765376995
30
0
41
1
10
53.4263570140719
20
3.70905315197504
30
0
41
1
10
53.5028312117635
20
3.33950456124202
30
0
41
1
10
53.6557796071469
20
2.57725733703808
30
0
41
1
10
53.7322538048386
20
2.18469503610004
30
0
41
1
10
53.8852022002219
20
1.3989885427896
30
0
41
1
10
53.9616763979136
20
1.00593440617894
30
0
41
1
10
54.0763876944511
20
0.429937368826501
30
0
41
1
10
54.1146247932969
20
0.240163790218389
30
0
41
1
10
54.1624211668542
20
0.0068544762618501
30
0
41
1
10
54.1719804415657
20
-0.0395763885683493
30
0
41
1
10
54.1910989909887
20
-0.13308083879096
30
0
41
1
10
54.219776815123
20
-0.273911684740256
30
0
41
1
10
54.2484546392574
20
-0.41634903628713
30
0
41
1
10
54.3440473863719
20
-0.89414091388457
30
0
41
1
10
54.4205215840636
20
-1.2861825786446
30
0
41
1
10
54.573469979447
20
-2.07185308025979
30
0
41
1
10
54.6499441771387
20
-2.46539753419663
30
0
41
1
10
54.802892572522
20
-3.23184435485675
30
0
41
1
10
54.8793667702137
20
-3.60461332022416
30
0
41
1
10
55.0323151655971
20
-4.30646972826599
30
0
41
1
10
55.1087893632887
20
-4.6354160989857
30
0
41
1
10
55.261737758672
20
-5.23007982496813
30
0
41
1
10
55.3382119563638
20
-5.49570203905114
30
0
41
1
10
55.4911603517472
20
-5.95140783297094
30
0
41
1
10
55.5676345494388
20
-6.14147583761897
30
0
41
1
10
55.7205829448222
20
-6.44275840231015
30
0
41
1
10
55.7970571425138
20
-6.5540313962961
30
0
41
1
10
55.9500055378972
20
-6.70270239359246
30
0
41
1
10
56.0264797355889
20
-6.74019750262258
30
0
41
1
10
56.112513207992
20
-6.74689210610788
30
0
41
1
10
56.1220724827035
20
-6.74714664471065
30
0
41
1
10
56.1411910321264
20
-6.74669480107403
30
0
41
1
10
56.1698688562607
20
-6.74456566916399
30
0
41
1
10
56.1985466803951
20
-6.73797186562177
30
0
41
1
10
56.2559023286639
20
-6.71855343078275
30
0
41
1
10
56.2941394275097
20
-6.6972911073147
30
0
41
1
10
56.4088507240472
20
-6.60660477723073
30
0
41
1
10
56.4853249217389
20
-6.51006423221517
30
0
41
1
10
56.6382733171222
20
-6.23863770587676
30
0
41
1
10
56.7147475148139
20
-6.06368264970962
30
0
41
1
10
56.8676959101973
20
-5.63689218651044
30
0
41
1
10
56.9441701078889
20
-5.38505654230704
30
0
41
1
10
57.0971185032723
20
-4.81498835632817
30
0
41
1
10
57.1735927009639
20
-4.49683722118613
30
0
41
1
10
57.3265410963473
20
-3.81243489077732
30
0
41
1
10
57.403015294039
20
-3.44631996122416
30
0
41
1
10
57.5559636894224
20
-2.68869517872977
30
0
41
1
10
57.6324378871141
20
-2.29732417257185
30
0
41
1
10
57.7853862824974
20
-1.51196306340714
30
0
41
1
10
57.8618604801891
20
-1.11806856492558
30
0
41
1
10
57.9765717767266
20
-0.539642739900245
30
0
41
1
10
58.0148088755724
20
-0.348866391339982
30
0
41
1
10
58.0721645238411
20
-0.0671535487576307
30
0
41
1
10
58.0912830732641
20
0.0255215105435127
30
0
41
1
10
58.1295201721099
20
0.212886242595687
30
0
41
1
10
58.1486387215328
20
0.307323288264882
30
0
41
1
10
58.2442314686475
20
0.782734130932681
30
0
41
1
10
58.3207056663391
20
1.17359589993092
30
0
41
1
10
58.4736540617225
20
1.958856098181
30
0
41
1
10
58.5501282594141
20
2.35317591226925
30
0
41
1
10
58.7030766547975
20
3.12340050521678
30
0
41
1
10
58.7795508524892
20
3.49917520747235
30
0
41
1
10
58.9324992478726
20
4.20916667392288
30
0
41
1
10
59.0089734455643
20
4.54324073919156
30
0
41
1
10
59.1619218409476
20
5.14976558553374
30
0
41
1
10
59.2383960386392
20
5.42211482880393
30
0
41
1
10
59.3913444340226
20
5.89207256135506
30
0
41
1
10
59.4678186317143
20
6.08965746173018
30
0
41
1
10
59.5442928294059
20
6.24778079849287
30
0
0
SPLINE
5
D2
100
AcDbEntity
8
1
62
256
6
ByLayer
370
13
48
1
60
0
100
AcDbSpline
70
4
71
3
72
70
73
66
40
0
40
0
40
0
40
0
40
0.03125
40
0.03125
40
0.0625
40
0.0625
40
0.09375
40
0.09375
40
0.125
40
0.125
40
0.15625
40
0.15625
40
0.1875
40
0.1875
40
0.21875
40
0.21875
40
0.25
40
0.25
40
0.28125
40
0.28125
40
0.3125
40
0.3125
40
0.34375
40
0.34375
40
0.375
40
0.375
40
0.40625
40
0.40625
40
0.4375
40
0.4375
40
0.46875
40
0.46875
40
0.5
40
0.5
40
0.53125
40
0.53125
40
0.5625
40
0.5625
40
0.59375
40
0.59375
40
0.625
40
0.625
40
0.65625
40
0.65625
40
0.6875
40
0.6875
40
0.71875
40
0.71875
40
0.75
40
0.75
40
0.78125
40
0.78125
40
0.8125
40
0.8125
40
0.84375
40
0.84375
40
0.875
40
0.875
40
0.90625
40
0.90625
40
0.9375
40
0.9375
40
0.96875
40
0.96875
40
1
40
1
40
1
40
1
41
1
10
51.7000003922146
20
6.74700000000001
30
0
41
1
10
51.7817117717687
20
6.74700000000001
30
0
41
1
10
51.8634231513228
20
6.71165687452378
30
0
41
1
10
52.026845910431
20
6.55706579007813
30
0
41
1
10
52.108557289985
20
6.43768234042403
30
0
41
1
10
52.2719800490931
20
6.10888109275277
30
0
41
1
10
52.3536914286472
20
5.89938571565338
30
0
41
1
10
52.5171141877554
20
5.39503193969028
30
0
41
1
10
52.5988255673094
20
5.100208044726
30
0
41
1
10
52.7622483264176
20
4.44149125583533
30
0
41
1
10
52.8439597059717
20
4.0777466551445
30
0
41
1
10
53.0073824650799
20
3.30630233561789
30
0
41
1
10
53.089093844634
20
2.89880291584083
30
0
41
1
10
53.2525166037421
20
2.06826784246866
30
0
41
1
10
53.3342279832961
20
1.64540053338101
30
0
41
1
10
53.4976507424043
20
0.810009773028781
30
0
41
1
10
53.5793621219584
20
0.397571256573116
30
0
41
1
10
53.7427848810666
20
-0.397570302403238
30
0
41
1
10
53.8244962606206
20
-0.810008778487571
30
0
41
1
10
53.9879190197288
20
-1.64539952298438
30
0
41
1
10
54.0696303992828
20
-2.06826683337172
30
0
41
1
10
54.233053158391
20
-2.89880193165354
30
0
41
1
10
54.3147645379451
20
-3.30630137509363
30
0
41
1
10
54.4781872970531
20
-4.07774576420226
30
0
41
1
10
54.5598986766073
20
-4.44149041080524
30
0
41
1
10
54.7233214357155
20
-5.10020730883568
30
0
41
1
10
54.8050328152696
20
-5.39503126695442
30
0
41
1
10
54.9684555743777
20
-5.89938517794005
30
0
41
1
10
55.0501669539318
20
-6.10888062680795
30
0
41
1
10
55.2135897130399
20
-6.43768201724569
30
0
41
1
10
55.295301092594
20
-6.55706553782554
30
0
41
1
10
55.4587238517022
20
-6.71165675575762
30
0
41
1
10
55.5404352312562
20
-6.74699994377494
30
0
41
1
10
55.7038579903644
20
-6.74700005622495
30
0
41
1
10
55.7855693699184
20
-6.71165699328981
30
0
41
1
10
55.9489921290266
20
-6.55706604233058
30
0
41
1
10
56.0307035085807
20
-6.4376826636022
30
0
41
1
10
56.1941262676888
20
-6.10888155869745
30
0
41
1
10
56.2758376472429
20
-5.89938625336657
30
0
41
1
10
56.439260406351
20
-5.39503261242604
30
0
41
1
10
56.5209717859051
20
-5.10020878061621
30
0
41
1
10
56.6843945450133
20
-4.44149210086533
30
0
41
1
10
56.7661059245673
20
-4.07774754608664
30
0
41
1
10
56.9295286836755
20
-3.30630329614206
30
0
41
1
10
57.0112400632296
20
-2.89880390002807
30
0
41
1
10
57.1746628223377
20
-2.06826885156559
30
0
41
1
10
57.2563742018918
20
-1.64540154377764
30
0
41
1
10
57.419796961
20
-0.810010767570049
30
0
41
1
10
57.5015083405541
20
-0.397572234032168
30
0
41
1
10
57.6649310996622
20
0.397569371522451
30
0
41
1
10
57.7466424792163
20
0.810007783946418
30
0
41
1
10
57.9100652383244
20
1.64539851258775
30
0
41
1
10
57.9917766178785
20
2.06826582427476
30
0
41
1
10
58.1551993769867
20
2.89880094746619
30
0
41
1
10
58.2369107565407
20
3.30630041456931
30
0
41
1
10
58.4003335156489
20
4.07774487325995
30
0
41
1
10
58.4820448952029
20
4.44148956577502
30
0
41
1
10
58.6454676543111
20
5.10020657294518
30
0
41
1
10
58.7271790338652
20
5.39503059421835
30
0
41
1
10
58.8906017929733
20
5.89938464022651
30
0
41
1
10
58.9723131725274
20
6.10888016086292
30
0
41
1
10
59.1357359316356
20
6.43768169406721
30
0
41
1
10
59.2174473111896
20
6.55706528557278
30
0
41
1
10
59.3808700702978
20
6.71165663699128
30
0
41
1
10
59.4625814498518
20
6.74699988754972
30
0
41
1
10
59.5442928294059
20
6.74699999999973
30
0
0
SPLINE
5
D3
100
AcDbEntity
8
1
62
256
6
ByLayer
370
13
48
1
60
0
100
AcDbSpline
70
4
71
3
72
84
73
80
40
0
40
0
40
0
40
0
40
0.03125
40
0.03125
40
0.0625
40
0.0625
40
0.09375
40
0.09375
40
0.125
40
0.125
40
0.15625
40
0.15625
40
0.1875
40
0.1875
40
0.1953125
40
0.1953125
40
0.203125
40
0.203125
40
0.21875
40
0.21875
40
0.25
40
0.25
40
0.28125
40
0.28125
40
0.312500000000001
40
0.312500000000001
40
0.343750000000001
40
0.343750000000001
40
0.375000000000001
40
0.375000000000001
40
0.406250000000001
40
0.406250000000001
40
0.437500000000001
40
0.437500000000001
40
0.453125000000001
40
0.453125000000001
40
0.460937500000001
40
0.464843750000001
40
0.464843750000001
40
0.468750000000001
40
0.468750000000001
40
0.5
40
0.5
40
0.53125
40
0.53125
40
0.5625
40
0.5625
40
0.59375
40
0.59375
40
0.625
40
0.625
40
0.65625
40
0.65625
40
0.6875
40
0.6875
40
0.718749999999999
40
0.718749999999999
40
0.726562499999999
40
0.730468749999999
40
0.730468749999999
40
0.734374999999999
40
0.734374999999999
40
0.749999999999999
40
0.749999999999999
40
0.781249999999999
40
0.781249999999999
40
0.812499999999999
40
0.812499999999999
40
0.843749999999999
40
0.843749999999999
40
0.875
40
0.875
40
0.90625
40
0.90625
40
0.9375
40
0.9375
40
0.96875
40
0.96875
40
1
40
1
40
1
40
1
41
1
10
51.7
20
6.24778242043166
30
0
41
1
10
51.7764742058628
20
6.08965933409596
30
0
41
1
10
51.8529484117257
20
5.89207467617876
30
0
41
1
10
52.0058968234513
20
5.4221173838971
30
0
41
1
10
52.0823710293141
20
5.1497683381732
30
0
41
1
10
52.2353194410397
20
4.54324381910371
30
0
41
1
10
52.3117936469025
20
4.20916988340687
30
0
41
1
10
52.4647420586281
20
3.49917859792743
30
0
41
1
10
52.5412162644909
20
3.12340394710253
30
0
41
1
10
52.6941646762166
20
2.35317938334697
30
0
41
1
10
52.7706388820794
20
1.95885954719893
30
0
41
1
10
52.923587293805
20
1.17359924711434
30
0
41
1
10
53.0000614996678
20
0.782737398558282
30
0
41
1
10
53.0956542569963
20
0.307326433512429
30
0
41
1
10
53.114772808462
20
0.212889362224473
30
0
41
1
10
53.1530099113934
20
0.0255245769727992
30
0
41
1
10
53.1721284628592
20
-0.0671504845590221
30
0
41
1
10
53.2294841172563
20
-0.348863308973108
30
0
41
1
10
53.2677212201877
20
-0.539639650662252
30
0
41
1
10
53.3824325289819
20
-1.11806547282944
30
0
41
1
10
53.4589067348447
20
-1.51195999331779
30
0
41
1
10
53.6118551465703
20
-2.2973212008171
30
0
41
1
10
53.6883293524332
20
-2.68869228339867
30
0
41
1
10
53.8412777641588
20
-3.44631727094122
30
0
41
1
10
53.9177519700216
20
-3.81243232910421
30
0
41
1
10
54.0707003817472
20
-4.49683495646144
30
0
41
1
10
54.1471745876101
20
-4.81498625979827
30
0
41
1
10
54.3001229993357
20
-5.38505480145443
30
0
41
1
10
54.3765972051984
20
-5.63689063292958
30
0
41
1
10
54.5295456169241
20
-6.06368146717924
30
0
41
1
10
54.606019822787
20
-6.23863670695098
30
0
41
1
10
54.7589682345126
20
-6.51006357805656
30
0
41
1
10
54.8354424403754
20
-6.60660428416605
30
0
41
1
10
54.9501537491695
20
-6.69729083060369
30
0
41
1
10
54.988390852101
20
-6.71855322204064
30
0
41
1
10
55.0457465064981
20
-6.73797175213551
30
0
41
1
10
55.0744243336967
20
-6.74456560163702
30
0
41
1
10
55.1031021608952
20
-6.74669477696349
30
0
41
1
10
55.1222207123609
20
-6.74714664897803
30
0
41
1
10
55.1317799880938
20
-6.74689212436431
30
0
41
1
10
55.2178134696895
20
-6.74019764841356
30
0
41
1
10
55.2942876755523
20
-6.70270265746586
30
0
41
1
10
55.4472360872779
20
-6.55403189491375
30
0
41
1
10
55.5237102931407
20
-6.44275901750828
30
0
41
1
10
55.6766587048663
20
-6.14147667103913
30
0
41
1
10
55.7531329107292
20
-5.95140876790677
30
0
41
1
10
55.9060813224548
20
-5.4957031491532
30
0
41
1
10
55.9825555283176
20
-5.23008100860426
30
0
41
1
10
56.1355039400432
20
-4.63541739336276
30
0
41
1
10
56.211978145906
20
-4.30647105980512
30
0
41
1
10
56.3649265576317
20
-3.60461468840276
30
0
41
1
10
56.4414007634945
20
-3.2318457225623
30
0
41
1
10
56.59434917522
20
-2.46539886897784
30
0
41
1
10
56.6708233810829
20
-2.07185438269906
30
0
41
1
10
56.8237717928085
20
-1.28618379463211
30
0
41
1
10
56.9002459986713
20
-0.894142075871144
30
0
41
1
10
56.9958387559998
20
-0.416350124174272
30
0
41
1
10
57.0245165831984
20
-0.273912749899949
30
0
41
1
10
57.0531944103969
20
-0.133081880656249
30
0
41
1
10
57.0723129618627
20
-0.0395774147970087
30
0
41
1
10
57.0818722375955
20
0.0068534570103225
30
0
41
1
10
57.1296686162598
20
0.240162781769044
30
0
41
1
10
57.1679057191912
20
0.429936371160096
30
0
41
1
10
57.2826170279854
20
1.00593344738513
30
0
41
1
10
57.3590912338482
20
1.39898761872428
30
0
41
1
10
57.5120396455739
20
2.18469419718585
30
0
41
1
10
57.5885138514367
20
2.57725654854247
30
0
41
1
10
57.7414622631623
20
3.3395038837308
30
0
41
1
10
57.8179364690251
20
3.70905253497557
30
0
41
1
10
57.9708848807507
20
4.40237715956118
30
0
41
1
10
58.0473590866135
20
4.72601420677699
30
0
41
1
10
58.2003074983392
20
5.30852149095637
30
0
41
1
10
58.276781704202
20
5.56730330800352
30
0
41
1
10
58.4297301159275
20
6.00861483223883
30
0
41
1
10
58.5062043217904
20
6.19113691820473
30
0
41
1
10
58.659152733516
20
6.47747471729829
30
0
41
1
10
58.7356269393788
20
6.58135436502621
30
0
41
1
10
58.8885753511045
20
6.71606770938513
30
0
41
1
10
58.9650495569674
20
6.74700000000001
30
0
41
1
10
59.0415237628301
20
6.74700000000001
30
0
0
SPLINE
5
D4
100
AcDbEntity
8
1
62
256
6
ByLayer
370
13
48
1
60
0
100
AcDbSpline
70
4
71
3
72
85
73
81
40
0
40
0
40
0
40
0
40
0.0312499999999981
40
0.0312499999999981
40
0.0624999999999963
40
0.0624999999999963
40
0.0937499999999944
40
0.0937499999999944
40
0.124999999999993
40
0.124999999999993
40
0.132812499999992
40
0.136718749999992
40
0.136718749999992
40
0.140624999999992
40
0.140624999999992
40
0.156249999999992
40
0.156249999999992
40
0.187499999999992
40
0.187499999999992
40
0.218749999999993
40
0.218749999999993
40
0.249999999999993
40
0.249999999999993
40
0.281249999999993
40
0.281249999999993
40
0.312499999999993
40
0.312499999999993
40
0.343749999999994
40
0.343749999999994
40
0.374999999999994
40
0.374999999999994
40
0.406249999999994
40
0.406249999999994
40
0.421874999999994
40
0.421874999999994
40
0.429687499999994
40
0.429687499999994
40
0.437499999999994
40
0.437499999999994
40
0.468749999999995
40
0.468749999999995
40
0.499999999999995
40
0.499999999999995
40
0.531249999999995
40
0.531249999999995
40
0.562499999999995
40
0.562499999999995
40
0.593749999999996
40
0.593749999999996
40
0.624999999999996
40
0.624999999999996
40
0.656249999999997
40
0.656249999999997
40
0.687499999999997
40
0.687499999999997
40
0.703124999999997
40
0.703124999999997
40
0.710937499999997
40
0.710937499999997
40
0.714843749999997
40
0.714843749999997
40
0.718749999999997
40
0.718749999999997
40
0.749999999999997
40
0.749999999999997
40
0.781249999999998
40
0.781249999999998
40
0.812499999999998
40
0.812499999999998
40
0.843749999999998
40
0.843749999999998
40
0.874999999999999
40
0.874999999999999
40
0.906249999999999
40
0.906249999999999
40
0.937499999999999
40
0.937499999999999
40
0.96875
40
0.96875
40
1
40
1
40
1
40
1
41
1
10
51.7
20
4.66901986264961
30
0
41
1
10
51.7712370240004
20
4.37591307283532
30
0
41
1
10
51.8424740480008
20
4.05756676813846
30
0
41
1
10
51.9849480960016
20
3.38701434563109
30
0
41
1
10
52.0561851200021
20
3.03490949566924
30
0
41
1
10
52.1986591680029
20
2.31560403084703
30
0
41
1
10
52.2698961920033
20
1.94849337655646
30
0
41
1
10
52.4123702400041
20
1.21693268269232
30
0
41
1
10
52.4836072640045
20
0.852538410763685
30
0
41
1
10
52.5726535440051
20
0.407764474527994
30
0
41
1
10
52.5993674280052
20
0.275121497276899
30
0
41
1
10
52.6260813120054
20
0.143869024263239
30
0
41
1
10
52.6438905680054
20
0.0566973203300734
30
0
41
1
10
52.6527951960055
20
0.0133808608245545
30
0
41
1
10
52.6973183360058
20
-0.203644951121049
30
0
41
1
10
52.7329368480059
20
-0.380005809420908
30
0
41
1
10
52.8397923840066
20
-0.915158687454664
30
0
41
1
10
52.911029408007
20
-1.28014118559801
30
0
41
1
10
53.0535034560079
20
-2.01193072683856
30
0
41
1
10
53.1247404800082
20
-2.37867972073275
30
0
41
1
10
53.267214528009
20
-3.09618284646552
30
0
41
1
10
53.3384515520095
20
-3.44684558580588
30
0
41
1
10
53.4809256000103
20
-4.11346122211955
30
0
41
1
10
53.5521626240107
20
-4.42931318301686
30
0
41
1
10
53.6946366720115
20
-5.00968935864873
30
0
41
1
10
53.765873696012
20
-5.27413615324085
30
0
41
1
10
53.9083477440128
20
-5.73998538973302
30
0
41
1
10
53.9795847680132
20
-5.94135913236883
30
0
41
1
10
54.1220588160141
20
-6.27591997682632
30
0
41
1
10
54.1932958400145
20
-6.40913109354017
30
0
41
1
10
54.3357698880153
20
-6.60886178074043
30
0
41
1
10
54.4070069120157
20
-6.67544141047492
30
0
41
1
10
54.5138624480164
20
-6.73038641738583
30
0
41
1
10
54.5494809600166
20
-6.74124911234588
30
0
41
1
10
54.6029087280169
20
-6.74723845623507
30
0
41
1
10
54.6207179840169
20
-6.74753467277631
30
0
41
1
10
54.6563364960172
20
-6.74476853232579
30
0
41
1
10
54.6741457520173
20
-6.74168331384664
30
0
41
1
10
54.7631920320178
20
-6.71736547788657
30
0
41
1
10
54.8344290560182
20
-6.66932062716222
30
0
41
1
10
54.976903104019
20
-6.5082090428098
30
0
41
1
10
55.0481401280195
20
-6.39507642265028
30
0
41
1
10
55.1906141760203
20
-6.10048760724413
30
0
41
1
10
55.2618512000207
20
-5.91899436822399
30
0
41
1
10
55.4043252480215
20
-5.49070430172517
30
0
41
1
10
55.4755622720219
20
-5.24391997057239
30
0
41
1
10
55.6180363200227
20
-4.69482584841947
30
0
41
1
10
55.6892733440232
20
-4.39258093411877
30
0
41
1
10
55.831747392024
20
-3.74792969932634
30
0
41
1
10
55.9029844160244
20
-3.4056208177613
30
0
41
1
10
56.0454584640252
20
-2.69926077971735
30
0
41
1
10
56.1166954880256
20
-2.33530699267865
30
0
41
1
10
56.2591695360265
20
-1.60407933600732
30
0
41
1
10
56.3304065600269
20
-1.2368748016118
30
0
41
1
10
56.4372620960275
20
-0.695449415837061
30
0
41
1
10
56.4728806080277
20
-0.516511109281623
30
0
41
1
10
56.526308376028
20
-0.251604542082134
30
0
41
1
10
56.5441176320281
20
-0.163883746437023
30
0
41
1
10
56.5708315160283
20
-0.0333048935182489
30
0
41
1
10
56.5797361440284
20
0.0099453832357881
30
0
41
1
10
56.5975454000284
20
0.0968774879356431
30
0
41
1
10
56.6064500280285
20
0.140512303418149
30
0
41
1
10
56.6865916800289
20
0.534650140860293
30
0
41
1
10
56.7578287040294
20
0.895299653155035
30
0
41
1
10
56.9003027520301
20
1.62403161958622
30
0
41
1
10
56.9715397760306
20
1.99207013426425
30
0
41
1
10
57.1140138240315
20
2.71867646678913
30
0
41
1
10
57.1852508480318
20
3.07716279347289
30
0
41
1
10
57.3277248960326
20
3.76594480442245
30
0
41
1
10
57.3989619200331
20
4.09613930238146
30
0
41
1
10
57.541435968034
20
4.71062870311218
30
0
41
1
10
57.6126729920343
20
4.99483422931999
30
0
41
1
10
57.7551470400352
20
5.50363521523272
30
0
41
1
10
57.8263840640356
20
5.7281831043239
30
0
41
1
10
57.9688581120364
20
6.11011624639082
30
0
41
1
10
58.0400951360368
20
6.26750795112574
30
0
41
1
10
58.1825691840377
20
6.51437591473368
30
0
41
1
10
58.253806208038
20
6.60390227723235
30
0
41
1
10
58.3962802560388
20
6.72017936262901
30
0
41
1
10
58.4675172800393
20
6.74700000000001
30
0
41
1
10
58.5387543040397
20
6.74700000000001
30
0
0
SPLINE
5
D5
100
AcDbEntity
8
1
62
256
6
ByLayer
370
13
48
1
60
0
100
AcDbSpline
70
4
71
3
72
84
73
80
40
0
40
0
40
0
40
0
40
0.0312500000000006
40
0.0312500000000006
40
0.0625000000000011
40
0.0625000000000011
40
0.0703125000000012
40
0.0703125000000012
40
0.0781250000000012
40
0.0781250000000012
40
0.0937500000000014
40
0.0937500000000014
40
0.125000000000002
40
0.125000000000002
40
0.156250000000002
40
0.156250000000002
40
0.187500000000002
40
0.187500000000002
40
0.218750000000002
40
0.218750000000002
40
0.250000000000003
40
0.250000000000003
40
0.281250000000003
40
0.281250000000003
40
0.312500000000003
40
0.312500000000003
40
0.343750000000004
40
0.343750000000004
40
0.375000000000004
40
0.375000000000004
40
0.378906250000004
40
0.378906250000004
40
0.382812500000004
40
0.382812500000004
40
0.390625000000004
40
0.390625000000004
40
0.406250000000004
40
0.406250000000004
40
0.437500000000004
40
0.437500000000004
40
0.468750000000004
40
0.468750000000004
40
0.500000000000004
40
0.500000000000004
40
0.531250000000004
40
0.531250000000004
40
0.562500000000004
40
0.562500000000004
40
0.593750000000004
40
0.593750000000004
40
0.625000000000004
40
0.625000000000004
40
0.656250000000003
40
0.656250000000003
40
0.687500000000003
40
0.687500000000003
40
0.695312500000003
40
0.695312500000003
40
0.703125000000003
40
0.703125000000003
40
0.718750000000003
40
0.718750000000003
40
0.750000000000003
40
0.750000000000003
40
0.781250000000002
40
0.781250000000002
40
0.812500000000002
40
0.812500000000002
40
0.843750000000002
40
0.843750000000002
40
0.875000000000001
40
0.875000000000001
40
0.906250000000001
40
0.906250000000001
40
0.937500000000001
40
0.937500000000001
40
0.96875
40
0.96875
40
1
40
1
40
1
40
1
41
1
10
51.7000000000001
20
2.29244215278771
30
0
41
1
10
51.765999842138
20
1.95535775574555
30
0
41
1
10
51.831999684276
20
1.61464265802499
30
0
41
1
10
51.9639993685522
20
0.939281095435007
30
0
41
1
10
52.0299992106901
20
0.604665058659407
30
0
41
1
10
52.1124990133626
20
0.19688580715291
30
0
41
1
10
52.1289989738971
20
0.115846904316697
30
0
41
1
10
52.1619988949661
20
-0.0450615949115445
30
0
41
1
10
52.1784988555006
20
-0.125498920726073
30
0
41
1
10
52.2279987371041
20
-0.369238620342259
30
0
41
1
10
52.2609986581731
20
-0.533887983741039
30
0
41
1
10
52.3599984213801
20
-1.03249617607639
30
0
41
1
10
52.4259982635181
20
-1.37120081315638
30
0
41
1
10
52.5579979477941
20
-2.04930246856387
30
0
41
1
10
52.6239977899322
20
-2.38865826379328
30
0
41
1
10
52.7559974742082
20
-3.05385797703349
30
0
41
1
10
52.8219973163462
20
-3.37963964480798
30
0
41
1
10
52.9539970006222
20
-4.00279883380202
30
0
41
1
10
53.0199968427603
20
-4.30010697833475
30
0
41
1
10
53.1519965270363
20
-4.85277581171286
30
0
41
1
10
53.2179963691743
20
-5.10807945804049
30
0
41
1
10
53.3499960534503
20
-5.56651814918382
30
0
41
1
10
53.4159958955883
20
-5.76962486756597
30
0
41
1
10
53.5479955798643
20
-6.11810714344065
30
0
41
1
10
53.6139954220023
20
-6.26348870340007
30
0
41
1
10
53.7459951062784
20
-6.4959609138279
30
0
41
1
10
53.8119949484164
20
-6.58308520229662
30
0
41
1
10
53.9439946326924
20
-6.70285535563312
30
0
41
1
10
54.0099944748304
20
-6.73554847295816
30
0
41
1
10
54.0842442972358
20
-6.7455731011986
30
0
41
1
10
54.092494277503
20
-6.74631677116949
30
0
41
1
10
54.1089942380376
20
-6.7470792804275
30
0
41
1
10
54.1172442183047
20
-6.74709998548786
30
0
41
1
10
54.1419941591065
20
-6.74608251262904
30
0
41
1
10
54.158494119641
20
-6.7439561674444
30
0
41
1
10
54.2079940012445
20
-6.73304883003428
30
0
41
1
10
54.2409939223135
20
-6.71973517909979
30
0
41
1
10
54.3399936855206
20
-6.66032821051789
30
0
41
1
10
54.4059935276585
20
-6.59466265312281
30
0
41
1
10
54.5379932119346
20
-6.40612283999332
30
0
41
1
10
54.6039930540726
20
-6.28320793064009
30
0
41
1
10
54.7359927383486
20
-5.97889341170281
30
0
41
1
10
54.8019925804866
20
-5.7974758883162
30
0
41
1
10
54.9339922647627
20
-5.37972336265878
30
0
41
1
10
54.9999921069007
20
-5.14340351104829
30
0
41
1
10
55.1319917911767
20
-4.62432988185503
30
0
41
1
10
55.1979916333147
20
-4.3416236388166
30
0
41
1
10
55.3299913175907
20
-3.74222146642893
30
0
41
1
10
55.3959911597288
20
-3.42559253942574
30
0
41
1
10
55.5279908440048
20
-2.77297176687423
30
0
41
1
10
55.5939906861428
20
-2.43704699554976
30
0
41
1
10
55.7259903704189
20
-1.76055577326778
30
0
41
1
10
55.7919902125569
20
-1.42003962363913
30
0
41
1
10
55.9239898968329
20
-0.747361824178995
30
0
41
1
10
55.9899897389709
20
-0.415225731884419
30
0
41
1
10
56.0724895416434
20
-0.0115970755215358
30
0
41
1
10
56.0889895021779
20
0.0684522683681621
30
0
41
1
10
56.1219894232469
20
0.230432053740401
30
0
41
1
10
56.1384893837814
20
0.311975509688438
30
0
41
1
10
56.1879892653849
20
0.558054428018693
30
0
41
1
10
56.2209891864539
20
0.724044565950919
30
0
41
1
10
56.319988949661
20
1.22590494999443
30
0
41
1
10
56.385988791799
20
1.56574488184458
30
0
41
1
10
56.5179884760749
20
2.24353832623836
30
0
41
1
10
56.583988318213
20
2.58144596754661
30
0
41
1
10
56.715988002489
20
3.24089738527223
30
0
41
1
10
56.781987844627
20
3.56237620862152
30
0
41
1
10
56.9139875289031
20
4.17417172414022
30
0
41
1
10
56.9799873710411
20
4.46441985432844
30
0
41
1
10
57.1119870553171
20
5.00070530540981
30
0
41
1
10
57.1779868974551
20
5.24669005675443
30
0
41
1
10
57.3099865817311
20
5.68504230929653
30
0
41
1
10
57.3759864238692
20
5.87738801444482
30
0
41
1
10
57.5079861081452
20
6.20386172674785
30
0
41
1
10
57.5739859502832
20
6.33800185916516
30
0
41
1
10
57.7059856345592
20
6.54841475718621
30
0
41
1
10
57.7719854766972
20
6.62472494613962
30
0
41
1
10
57.9039851609733
20
6.72399349540095
30
0
41
1
10
57.9699850031112
20
6.74700000000001
30
0
41
1
10
58.0359848452493
20
6.74700000000001
30
0
0
SPLINE
5
D6
100
AcDbEntity
8
1
62
256
6
ByLayer
370
13
48
1
60
0
100
AcDbSpline
70
4
71
3
72
78
73
74
40
0
40
0
40
0
40
0
40
0.0312500000000004
40
0.0312500000000004
40
0.0625000000000009
40
0.0625000000000009
40
0.0937500000000013
40
0.0937500000000013
40
0.125000000000002
40
0.125000000000002
40
0.156250000000002
40
0.156250000000002
40
0.187500000000003
40
0.187500000000003
40
0.218750000000003
40
0.218750000000003
40
0.250000000000004
40
0.250000000000004
40
0.281250000000004
40
0.281250000000004
40
0.312500000000004
40
0.312500000000004
40
0.320312500000004
40
0.320312500000004
40
0.328125000000005
40
0.328125000000005
40
0.343750000000005
40
0.343750000000005
40
0.375000000000004
40
0.375000000000004
40
0.406250000000004
40
0.406250000000004
40
0.437500000000004
40
0.437500000000004
40
0.468750000000004
40
0.468750000000004
40
0.500000000000004
40
0.500000000000004
40
0.531250000000004
40
0.531250000000004
40
0.562500000000004
40
0.562500000000004
40
0.593750000000004
40
0.593750000000004
40
0.625000000000004
40
0.625000000000004
40
0.656250000000003
40
0.656250000000003
40
0.664062500000003
40
0.664062500000003
40
0.671875000000003
40
0.671875000000003
40
0.687500000000003
40
0.687500000000003
40
0.718750000000003
40
0.718750000000003
40
0.750000000000003
40
0.750000000000003
40
0.781250000000002
40
0.781250000000002
40
0.812500000000002
40
0.812500000000002
40
0.843750000000002
40
0.843750000000002
40
0.875000000000001
40
0.875000000000001
40
0.906250000000001
40
0.906250000000001
40
0.937500000000001
40
0.937500000000001
40
0.96875
40
0.96875
40
1
40
1
40
1
40
1
41
1
10
51.7
20
-0.245047920168929
30
0
41
1
10
51.7607626602757
20
-0.544860599492239
30
0
41
1
10
51.8215253205512
20
-0.851901496137344
30
0
41
1
10
51.9430506411025
20
-1.47230099232669
30
0
41
1
10
52.0038133013781
20
-1.78564138839994
30
0
41
1
10
52.1253386219293
20
-2.40846702363066
30
0
41
1
10
52.1861012822049
20
-2.71791898039894
30
0
41
1
10
52.3076266027561
20
-3.32154272889079
30
0
41
1
10
52.3683892630318
20
-3.61567062191122
30
0
41
1
10
52.4899145835829
20
-4.17714946677984
30
0
41
1
10
52.5506772438586
20
-4.44445510527009
30
0
41
1
10
52.6722025644098
20
-4.94209850193835
30
0
41
1
10
52.7329652246854
20
-5.17240062375564
30
0
41
1
10
52.8544905452366
20
-5.58840892170073
30
0
41
1
10
52.9152532055123
20
-5.77409775348644
30
0
41
1
10
53.0367785260635
20
-6.09663793176628
30
0
41
1
10
53.0975411863391
20
-6.23349292991455
30
0
41
1
10
53.2190665068903
20
-6.45771982099413
30
0
41
1
10
53.2798291671659
20
-6.54511264566506
30
0
41
1
10
53.4013544877172
20
-6.67297703011195
30
0
41
1
10
53.4621171479928
20
-6.71347906851324
30
0
41
1
10
53.5380704733373
20
-6.73788461160842
30
0
41
1
10
53.5532611384062
20
-6.74145914301883
30
0
41
1
10
53.583642468544
20
-6.74608781223557
30
0
41
1
10
53.5988331336129
20
-6.74714237059535
30
0
41
1
10
53.6444051288196
20
-6.74666926584939
30
0
41
1
10
53.6747864589574
20
-6.74147994300031
30
0
41
1
10
53.7659304493708
20
-6.71015589529136
30
0
41
1
10
53.8266931096465
20
-6.66820118492569
30
0
41
1
10
53.9482184301977
20
-6.53730530492498
30
0
41
1
10
54.0089810904733
20
-6.44833383100431
30
0
41
1
10
54.1305064110245
20
-6.22091590425904
30
0
41
1
10
54.1912690713001
20
-6.08244897093559
30
0
41
1
10
54.3127943918514
20
-5.75676414353595
30
0
41
1
10
54.373557052127
20
-5.56954325091775
30
0
41
1
10
54.4950823726782
20
-5.15066657739223
30
0
41
1
10
54.5558450329538
20
-4.91902881320229
30
0
41
1
10
54.6773703535051
20
-4.41900929831834
30
0
41
1
10
54.7381330137806
20
-4.15066365773538
30
0
41
1
10
54.8596583343319
20
-3.58746427527174
30
0
41
1
10
54.9204209946075
20
-3.29265597576276
30
0
41
1
10
55.0419463151587
20
-2.68805057026535
30
0
41
1
10
55.1027089754343
20
-2.37829714242025
30
0
41
1
10
55.2242342959855
20
-1.75522429694084
30
0
41
1
10
55.2849969562611
20
-1.44193771382041
30
0
41
1
10
55.4065222768124
20
-0.821945625589819
30
0
41
1
10
55.467284937088
20
-0.515257820175805
30
0
41
1
10
55.5432382624325
20
-0.141074739509065
30
0
41
1
10
55.5584289275014
20
-0.066753486739799
30
0
41
1
10
55.5888102576392
20
0.0811335125960682
30
0
41
1
10
55.6040009227082
20
0.155578848527057
30
0
41
1
10
55.6495729179148
20
0.380264212935572
30
0
41
1
10
55.6799542480526
20
0.531858102760083
30
0
41
1
10
55.7710982384661
20
0.99063725533955
30
0
41
1
10
55.8318608987417
20
1.30188271340975
30
0
41
1
10
55.953386219293
20
1.92598592791771
30
0
41
1
10
56.0141488795685
20
2.23881796659106
30
0
41
1
10
56.1356742001198
20
2.8551908386944
30
0
41
1
10
56.1964368603954
20
3.15869236735747
30
0
41
1
10
56.3179621809466
20
3.74477834377422
30
0
41
1
10
56.3787248412223
20
4.02731684830732
30
0
41
1
10
56.5002501617735
20
4.56043912447328
30
0
41
1
10
56.5610128220491
20
4.81098092779555
30
0
41
1
10
56.6825381426003
20
5.27102222804047
30
0
41
1
10
56.7433008028759
20
5.48049417531283
30
0
41
1
10
56.8648261234271
20
5.85233912769138
30
0
41
1
10
56.9255887837028
20
6.01470503262291
30
0
41
1
10
57.047114104254
20
6.28984950268514
30
0
41
1
10
57.1078767645296
20
6.40264087192293
30
0
41
1
10
57.2294020850808
20
6.579622159292
30
0
41
1
10
57.2901647453564
20
6.64383870422623
30
0
41
1
10
57.4116900659076
20
6.72751159777599
30
0
41
1
10
57.4724527261832
20
6.74700000000001
30
0
41
1
10
57.5332153864588
20
6.74700000000001
30
0
0
SPLINE
5
D7
100
AcDbEntity
8
1
62
256
6
ByLayer
370
13
48
1
60
0
100
AcDbSpline
70
4
71
3
72
77
73
73
40
0
40
0
40
0
40
0
40
0.0312500000000011
40
0.0312500000000011
40
0.0625000000000022
40
0.0625000000000022
40
0.0937500000000033
40
0.0937500000000033
40
0.125000000000004
40
0.125000000000004
40
0.156250000000005
40
0.156250000000005
40
0.187500000000007
40
0.187500000000007
40
0.218750000000008
40
0.218750000000008
40
0.250000000000009
40
0.250000000000009
40
0.257812500000009
40
0.257812500000009
40
0.265625000000009
40
0.265625000000009
40
0.281250000000009
40
0.281250000000009
40
0.312500000000009
40
0.312500000000009
40
0.343750000000009
40
0.343750000000009
40
0.375000000000009
40
0.375000000000009
40
0.406250000000009
40
0.406250000000009
40
0.437500000000008
40
0.437500000000008
40
0.468750000000008
40
0.468750000000008
40
0.500000000000008
40
0.500000000000008
40
0.531250000000008
40
0.531250000000008
40
0.562500000000008
40
0.562500000000008
40
0.593750000000008
40
0.593750000000008
40
0.625000000000008
40
0.625000000000008
40
0.632812500000008
40
0.632812500000008
40
0.640625000000008
40
0.656250000000008
40
0.656250000000008
40
0.687500000000007
40
0.687500000000007
40
0.718750000000006
40
0.718750000000006
40
0.750000000000005
40
0.750000000000005
40
0.781250000000005
40
0.781250000000005
40
0.812500000000004
40
0.812500000000004
40
0.843750000000003
40
0.843750000000003
40
0.875000000000003
40
0.875000000000003
40
0.906250000000002
40
0.906250000000002
40
0.937500000000001
40
0.937500000000001
40
0.968750000000001
40
0.968750000000001
40
1
40
1
40
1
40
1
41
1
10
51.7
20
-2.79944744139101
30
0
41
1
10
51.7555254784132
20
-3.07832471205222
30
0
41
1
10
51.8110509568264
20
-3.35196688080825
30
0
41
1
10
51.9221019136529
20
-3.87997836272638
30
0
41
1
10
51.977627392066
20
-4.13431826762385
30
0
41
1
10
52.0886783488925
20
-4.6154636114008
30
0
41
1
10
52.1442038273057
20
-4.84224291467149
30
0
41
1
10
52.2552547841321
20
-5.26145667627972
30
0
41
1
10
52.3107802625453
20
-5.45387373473488
30
0
41
1
10
52.4218312193717
20
-5.79967672689912
30
0
41
1
10
52.477356697785
20
-5.95305718074317
30
0
41
1
10
52.5884076546114
20
-6.21857747214639
30
0
41
1
10
52.6439331330246
20
-6.33072369665163
30
0
41
1
10
52.754984089851
20
-6.51402589003385
30
0
41
1
10
52.8105095682643
20
-6.58519720450425
30
0
41
1
10
52.9215605250907
20
-6.68892035603201
30
0
41
1
10
52.9770860035039
20
-6.72149210826018
30
0
41
1
10
53.0464928515204
20
-6.74053500917469
30
0
41
1
10
53.0603742211237
20
-6.7432629785535
30
0
41
1
10
53.0881369603303
20
-6.74662936755354
30
0
41
1
10
53.1020183299336
20
-6.74726986753623
30
0
41
1
10
53.1436624387435
20
-6.74615556237055
30
0
41
1
10
53.1714251779501
20
-6.74132633692923
30
0
41
1
10
53.2547133955699
20
-6.71371457645699
30
0
41
1
10
53.3102388739832
20
-6.67776485968258
30
0
41
1
10
53.4212898308096
20
-6.56699457679233
30
0
41
1
10
53.4768153092228
20
-6.49215432295466
30
0
41
1
10
53.5878662660492
20
-6.3013951757859
30
0
41
1
10
53.6433917444624
20
-6.18546158276095
30
0
41
1
10
53.7544427012889
20
-5.9124613421402
30
0
41
1
10
53.8099681797021
20
-5.75538930498743
30
0
41
1
10
53.9210191365285
20
-5.40252847185698
30
0
41
1
10
53.9765446149418
20
-5.20674629132554
30
0
41
1
10
54.0875955717682
20
-4.78134187282416
30
0
41
1
10
54.1431210501814
20
-4.5517380090723
30
0
41
1
10
54.2541720070078
20
-4.06564827564
30
0
41
1
10
54.309697485421
20
-3.80918908771568
30
0
41
1
10
54.4207484422475
20
-3.27773605047128
30
0
41
1
10
54.4762739206607
20
-3.00277160591702
30
0
41
1
10
54.5873248774871
20
-2.44318050382125
30
0
41
1
10
54.6428503559003
20
-2.15858017704139
30
0
41
1
10
54.7539013127267
20
-1.588257067424
30
0
41
1
10
54.8094267911399
20
-1.30255334072402
30
0
41
1
10
54.9204777479663
20
-0.737535484919562
30
0
41
1
10
54.9760032263795
20
-0.458231439935929
30
0
41
1
10
55.0454100743961
20
-0.116871792317454
30
0
41
1
10
55.0592914439994
20
-0.0491168348614224
30
0
41
1
10
55.087054183206
20
0.086116849509267
30
0
41
1
10
55.1286982920159
20
0.290216446742846
30
0
41
1
10
55.1703424008258
20
0.497716564282598
30
0
41
1
10
55.2536306184456
20
0.916183315719991
30
0
41
1
10
55.3091560968588
20
1.19982807152411
30
0
41
1
10
55.4202070536853
20
1.76959880045334
30
0
41
1
10
55.4757325320985
20
2.05570973847929
30
0
41
1
10
55.5867834889249
20
2.62228465617929
30
0
41
1
10
55.6423089673381
20
2.90272523224351
30
0
41
1
10
55.7533599241645
20
3.44914909356191
30
0
41
1
10
55.8088854025778
20
3.71510371384676
30
0
41
1
10
55.9199363594042
20
4.22385882998265
30
0
41
1
10
55.9754618378174
20
4.46663065351518
30
0
41
1
10
56.0865127946438
20
4.92131888548761
30
0
41
1
10
56.142038273057
20
5.13321255029814
30
0
41
1
10
56.2530892298834
20
5.52023272688916
30
0
41
1
10
56.3086147082966
20
5.69534704767023
30
0
41
1
10
56.4196656651231
20
6.00522614688336
30
0
41
1
10
56.4751911435363
20
6.13999103911135
30
0
41
1
10
56.5862421003628
20
6.36810304435991
30
0
41
1
10
56.6417675787759
20
6.46146110268191
30
0
41
1
10
56.7528185356024
20
6.60803094426328
30
0
41
1
10
56.8083440140156
20
6.66126072137166
30
0
41
1
10
56.9193949708421
20
6.7307349904622
30
0
41
1
10
56.9749204492553
20
6.74700000000001
30
0
41
1
10
57.0304459276684
20
6.74700000000001
30
0
0
SPLINE
5
D8
100
AcDbEntity
8
1
62
256
6
ByLayer
370
13
48
1
60
0
100
AcDbSpline
70
4
71
3
72
70
73
66
40
0
40
0
40
0
40
0
40
0.03125
40
0.03125
40
0.0625
40
0.0625
40
0.09375
40
0.09375
40
0.125
40
0.125
40
0.15625
40
0.15625
40
0.1875
40
0.1875
40
0.21875
40
0.21875
40
0.25
40
0.25
40
0.28125
40
0.28125
40
0.3125
40
0.3125
40
0.34375
40
0.34375
40
0.375
40
0.375
40
0.40625
40
0.40625
40
0.4375
40
0.4375
40
0.46875
40
0.46875
40
0.5
40
0.5
40
0.53125
40
0.53125
40
0.5625
40
0.5625
40
0.59375
40
0.59375
40
0.625
40
0.625
40
0.65625
40
0.65625
40
0.6875
40
0.6875
40
0.71875
40
0.71875
40
0.75
40
0.75
40
0.78125
40
0.78125
40
0.8125
40
0.8125
40
0.84375
40
0.84375
40
0.875
40
0.875
40
0.90625
40
0.90625
40
0.9375
40
0.9375
40
0.96875
40
0.96875
40
1
40
1
40
1
40
1
41
1
10
51.7
20
-5.06330917579956
30
0
41
1
10
51.7502882965508
20
-5.25257989477976
30
0
41
1
10
51.8005765931016
20
-5.42772175632567
30
0
41
1
10
51.9011531862032
20
-5.74624088846784
30
0
41
1
10
51.951441482754
20
-5.88961424211536
30
0
41
1
10
52.0520180758557
20
-6.14272590820161
30
0
41
1
10
52.1023063724065
20
-6.25246697983639
30
0
41
1
10
52.2028829655081
20
-6.4381173471123
30
0
41
1
10
52.2531712620589
20
-6.51403481240899
30
0
41
1
10
52.3537478551606
20
-6.63334500269406
30
0
41
1
10
52.4040361517114
20
-6.67674921022538
30
0
41
1
10
52.504612744813
20
-6.73354027555618
30
0
41
1
10
52.5549010413638
20
-6.74693966798435
30
0
41
1
10
52.6554776344654
20
-6.7470599246513
30
0
41
1
10
52.7057659310163
20
-6.73378894916428
30
0
41
1
10
52.8063425241179
20
-6.67726825307241
30
0
41
1
10
52.8566308206687
20
-6.63400597947128
30
0
41
1
10
52.9572074137703
20
-6.51498856690466
30
0
41
1
10
53.0074957103212
20
-6.43922193567855
30
0
41
1
10
53.1080723034228
20
-6.2538759875645
30
0
41
1
10
53.1583605999736
20
-6.14428848096881
30
0
41
1
10
53.2589371930752
20
-5.89147941366508
30
0
41
1
10
53.309225489626
20
-5.74825506560899
30
0
41
1
10
53.4098020827276
20
-5.43002174244958
30
0
41
1
10
53.4600903792785
20
-5.25501665320576
30
0
41
1
10
53.5606669723801
20
-4.87672940932868
30
0
41
1
10
53.6109552689309
20
-4.67345772626263
30
0
41
1
10
53.7115318620325
20
-4.24358580796394
30
0
41
1
10
53.7618201585833
20
-4.01700106021914
30
0
41
1
10
53.8623967516849
20
-3.5464956433766
30
0
41
1
10
53.9126850482358
20
-3.30259281393649
30
0
41
1
10
54.0132616413374
20
-2.80397697840155
30
0
41
1
10
54.0635499378882
20
-2.5492811669026
30
0
41
1
10
54.1641265309898
20
-2.03560113549477
30
0
41
1
10
54.2144148275406
20
-1.77663094790736
30
0
41
1
10
54.3149914206423
20
-1.26044253019083
30
0
41
1
10
54.3652797171931
20
-1.00323368296182
30
0
41
1
10
54.4658563102947
20
-0.495770989579029
30
0
41
1
10
54.5161446068455
20
-0.245521555580979
30
0
41
1
10
54.6167211999471
20
0.243863741551252
30
0
41
1
10
54.667009496498
20
0.494067481898469
30
0
41
1
10
54.7675860895996
20
1.00149910442275
30
0
41
1
10
54.8178743861504
20
1.25869772526229
30
0
41
1
10
54.918450979252
20
1.77487846830624
30
0
41
1
10
54.9687392758028
20
2.03385121889244
30
0
41
1
10
55.0693158689044
20
2.54755070204533
30
0
41
1
10
55.1196041654553
20
2.80226341156072
30
0
41
1
10
55.2201807585568
20
3.30092796401331
30
0
41
1
10
55.2704690551077
20
3.54486261697375
30
0
41
1
10
55.3710456482093
20
4.01544602606765
30
0
41
1
10
55.4213339447602
20
4.24207694066089
30
0
41
1
10
55.5219105378617
20
4.67205374440991
30
0
41
1
10
55.5721988344126
20
4.87538413747842
30
0
41
1
10
55.6727754275142
20
5.25379850014608
30
0
41
1
10
55.723063724065
20
5.42887198455927
30
0
41
1
10
55.8236403171667
20
5.74724822597432
30
0
41
1
10
55.8739286137175
20
5.89054708157184
30
0
41
1
10
55.9745052068191
20
6.1435074534499
30
0
41
1
10
56.0247935033699
20
6.25317174300579
30
0
41
1
10
56.1253700964715
20
6.43866989771979
30
0
41
1
10
56.1756583930223
20
6.51451194256506
30
0
41
1
10
56.276234986124
20
6.6336757340857
30
0
41
1
10
56.3265232826747
20
6.67700896816876
30
0
41
1
10
56.4270998757764
20
6.73366483379581
30
0
41
1
10
56.4773881723272
20
6.74700000000001
30
0
41
1
10
56.527676468878
20
6.74700000000001
30
0
0
SPLINE
5
D9
100
AcDbEntity
8
1
62
256
6
ByLayer
370
13
48
1
60
0
100
AcDbSpline
70
4
71
3
72
10
73
6
40
0
40
0
40
0
40
0
40
0.5
40
0.5
40
1
40
1
40
1
40
1
41
1
10
59.241542274071
20
6.74700000000001
30
0
41
1
10
59.2920006999601
20
6.74700000000001
30
0
41
1
10
59.3424591258493
20
6.73357426040917
30
0
41
1
10
59.4433759776276
20
6.6765234998021
30
0
41
1
10
59.4938344035168
20
6.63288573133386
30
0
41
1
10
59.5442928294059
20
6.57288219043758
30
0
0
SPLINE
5
DA
100
AcDbEntity
8
1
62
256
6
ByLayer
370
13
48
1
60
0
100
AcDbSpline
70
4
71
3
72
74
73
70
40
0
40
0
40
0
40
0
40
0.0312499999999998
40
0.0312499999999998
40
0.0624999999999996
40
0.0624999999999996
40
0.0781249999999997
40
0.0781249999999997
40
0.0937499999999998
40
0.0937499999999998
40
0.125
40
0.125
40
0.15625
40
0.15625
40
0.1875
40
0.1875
40
0.21875
40
0.21875
40
0.250000000000001
40
0.250000000000001
40
0.281250000000001
40
0.281250000000001
40
0.312500000000001
40
0.312500000000001
40
0.343750000000001
40
0.343750000000001
40
0.375000000000001
40
0.375000000000001
40
0.406250000000002
40
0.406250000000002
40
0.437500000000002
40
0.437500000000002
40
0.468750000000002
40
0.468750000000002
40
0.500000000000002
40
0.500000000000002
40
0.531250000000002
40
0.531250000000002
40
0.546875000000003
40
0.546875000000003
40
0.562500000000003
40
0.562500000000003
40
0.593750000000003
40
0.593750000000003
40
0.625000000000002
40
0.625000000000002
40
0.656250000000002
40
0.656250000000002
40
0.687500000000002
40
0.687500000000002
40
0.718750000000002
40
0.718750000000002
40
0.750000000000002
40
0.750000000000002
40
0.781250000000001
40
0.781250000000001
40
0.812500000000001
40
0.812500000000001
40
0.843750000000001
40
0.843750000000001
40
0.875000000000001
40
0.875000000000001
40
0.906250000000001
40
0.906250000000001
40
0.9375
40
0.9375
40
0.96875
40
0.96875
40
1
40
1
40
1
40
1
41
1
10
51.7
20
-6.4323295200189
30
0
41
1
10
51.7450511146884
20
-6.50548390254309
30
0
41
1
10
51.7901022293768
20
-6.56519066441081
30
0
41
1
10
51.8802044587537
20
-6.65890349368181
30
0
41
1
10
51.9252555734421
20
-6.69291644879695
30
0
41
1
10
51.9928322454747
20
-6.72610495738854
30
0
41
1
10
52.0153578028189
20
-6.73420093079844
30
0
41
1
10
52.0604089175073
20
-6.74474850235629
30
0
41
1
10
52.0829344748515
20
-6.74720081797554
30
0
41
1
10
52.1505111468841
20
-6.74655998090611
30
0
41
1
10
52.1955622615726
20
-6.73540890623875
30
0
41
1
10
52.2856644909494
20
-6.68925859047715
30
0
41
1
10
52.3307156056378
20
-6.65425211001372
30
0
41
1
10
52.4208178350146
20
-6.55848879694071
30
0
41
1
10
52.465868949703
20
-6.49772511115856
30
0
41
1
10
52.5559711790798
20
-6.34927199052657
30
0
41
1
10
52.6010222937682
20
-6.2615771240296
30
0
41
1
10
52.691124523145
20
-6.05900145440197
30
0
41
1
10
52.7361756378335
20
-5.94411767486301
30
0
41
1
10
52.8262778672103
20
-5.68794923587058
30
0
41
1
10
52.8713289818987
20
-5.54666483978528
30
0
41
1
10
52.9614312112755
20
-5.23956885232732
30
0
41
1
10
53.006482325964
20
-5.07376106427134
30
0
41
1
10
53.0965845553408
20
-4.72052020915382
30
0
41
1
10
53.1416356700292
20
-4.53309416616196
30
0
41
1
10
53.231737899406
20
-4.1403826720331
30
0
41
1
10
53.2767890140945
20
-3.93510655629535
30
0
41
1
10
53.3668912434712
20
-3.51107530176094
30
0
41
1
10
53.4119423581597
20
-3.29233050744017
30
0
41
1
10
53.5020445875366
20
-2.84605627624413
30
0
41
1
10
53.5470957022249
20
-2.6185367998317
30
0
41
1
10
53.6371979316017
20
-2.15941164028894
30
0
41
1
10
53.6822490462901
20
-1.92781435300085
30
0
41
1
10
53.7723512756669
20
-1.46495643600636
30
0
41
1
10
53.8174023903554
20
-1.23370187929507
30
0
41
1
10
53.9075046197322
20
-0.77545718026991
30
0
41
1
10
53.9525557344206
20
-0.548470521692678
30
0
41
1
10
54.0201324064532
20
-0.213655375945393
30
0
41
1
10
54.0426579637975
20
-0.103074894137052
30
0
41
1
10
54.0877090784859
20
0.116211782849206
30
0
41
1
10
54.1102346358301
20
0.226959904723856
30
0
41
1
10
54.1778113078627
20
0.561998746338645
30
0
41
1
10
54.2228624225511
20
0.789105096484718
30
0
41
1
10
54.3129646519279
20
1.24751673712257
30
0
41
1
10
54.3580157666163
20
1.47881849253983
30
0
41
1
10
54.4481179959931
20
1.94168680404428
30
0
41
1
10
54.4931691106815
20
2.17324723652388
30
0
41
1
10
54.5832713400584
20
2.63220677466657
30
0
41
1
10
54.6283224547468
20
2.8595974441987
30
0
41
1
10
54.7184246841236
20
3.3055192956644
30
0
41
1
10
54.763475798812
20
3.52404049677134
30
0
41
1
10
54.8535780281888
20
3.94753294521323
30
0
41
1
10
54.8986291428773
20
4.1524938543599
30
0
41
1
10
54.9887313722541
20
4.54449269551321
30
0
41
1
10
55.0337824869425
20
4.73152132638739
30
0
41
1
10
55.1238847163194
20
5.0839001216269
30
0
41
1
10
55.1689358310078
20
5.24924331908898
30
0
41
1
10
55.2590380603846
20
5.55536212081032
30
0
41
1
10
55.304089175073
20
5.69613399146664
30
0
41
1
10
55.3941914044498
20
5.95125088568875
30
0
41
1
10
55.4392425191382
20
6.06559571546114
30
0
41
1
10
55.5293447485151
20
6.26708864259996
30
0
41
1
10
55.5743958632034
20
6.35423977434596
30
0
41
1
10
55.6644980925804
20
6.5016204186893
30
0
41
1
10
55.7095492072687
20
6.56185540183589
30
0
41
1
10
55.7996514366456
20
6.65659284666813
30
0
41
1
10
55.844702551334
20
6.69110217900524
30
0
41
1
10
55.9348047807107
20
6.73630213687565
30
0
41
1
10
55.9798558953992
20
6.74700000000001
30
0
41
1
10
56.0249070100876
20
6.74700000000001
30
0
0
SPLINE
5
DB
100
AcDbEntity
8
1
62
256
6
ByLayer
370
13
48
1
60
0
100
AcDbSpline
70
4
71
3
72
14
73
10
40
0
40
0
40
0
40
0
40
0.25
40
0.25
40
0.5
40
0.5
40
0.75
40
0.75
40
1
40
1
40
1
40
1
41
1
10
58.7387728152805
20
6.74700000000001
30
0
41
1
10
58.8058994831243
20
6.74700000000001
30
0
41
1
10
58.8730261509681
20
6.72319789418728
30
0
41
1
10
59.0072794866557
20
6.62038962553891
30
0
41
1
10
59.0744061544995
20
6.54133115451413
30
0
41
1
10
59.208659490187
20
6.32332979616649
30
0
41
1
10
59.2757861580308
20
6.18434689909756
30
0
41
1
10
59.4100394937184
20
5.84628277968653
30
0
41
1
10
59.4771661615621
20
5.64719012972307
30
0
41
1
10
59.5442928294059
20
5.42059046901011
30
0
0
SPLINE
5
DC
100
AcDbEntity
8
1
62
256
6
ByLayer
370
13
48
1
60
0
100
AcDbSpline
70
4
71
3
72
44
73
40
40
0
40
0
40
0
40
0
40
0.062499999999998
40
0.062499999999998
40
0.124999999999996
40
0.124999999999996
40
0.187499999999994
40
0.187499999999994
40
0.249999999999992
40
0.249999999999992
40
0.31249999999999
40
0.31249999999999
40
0.374999999999988
40
0.374999999999988
40
0.437499999999986
40
0.437499999999986
40
0.468749999999986
40
0.468749999999986
40
0.484374999999985
40
0.484374999999985
40
0.492187499999985
40
0.492187499999985
40
0.499999999999985
40
0.499999999999985
40
0.562499999999987
40
0.562499999999987
40
0.624999999999989
40
0.624999999999989
40
0.687499999999991
40
0.687499999999991
40
0.749999999999992
40
0.749999999999992
40
0.812499999999994
40
0.812499999999994
40
0.874999999999996
40
0.874999999999996
40
0.937499999999998
40
0.937499999999998
40
1
40
1
40
1
40
1
41
1
10
51.7
20
-6.72894114618455
30
0
41
1
10
51.779627865652
20
-6.69978695400022
30
0
41
1
10
51.8592557313041
20
-6.63417278879058
30
0
41
1
10
52.0185114626081
20
-6.42002608036449
30
0
41
1
10
52.0981393282601
20
-6.27138682272178
30
0
41
1
10
52.2573950595642
20
-5.88894385791752
30
0
41
1
10
52.3370229252162
20
-5.65510324794931
30
0
41
1
10
52.4962786565202
20
-5.11036982975278
30
0
41
1
10
52.5759065221723
20
-4.79954339734664
30
0
41
1
10
52.7351622534763
20
-4.11895545685022
30
0
41
1
10
52.8147901191283
20
-3.7493461302783
30
0
41
1
10
52.9740458504323
20
-2.97591335934686
30
0
41
1
10
53.0536737160844
20
-2.57226520221991
30
0
41
1
10
53.2129294473885
20
-1.75689959937387
30
0
41
1
10
53.2925573130405
20
-1.34531393979603
30
0
41
1
10
53.4119991115185
20
-0.738927637110521
30
0
41
1
10
53.4518130443446
20
-0.538591649623584
30
0
41
1
10
53.5115339435836
20
-0.242463751729986
30
0
41
1
10
53.5314409099966
20
-0.144480554856528
30
0
41
1
10
53.5613013596161
20
0.0012241608836234
30
0
41
1
10
53.5712548428225
20
0.0495879561126458
30
0
41
1
10
53.5911618092356
20
0.147016225750207
30
0
41
1
10
53.6011152924421
20
0.195936807973965
30
0
41
1
10
53.6906966413006
20
0.637945526352496
30
0
41
1
10
53.7703245069526
20
1.04336631479921
30
0
41
1
10
53.9295802382567
20
1.86018467162697
30
0
41
1
10
54.0092081039087
20
2.27149329357516
30
0
41
1
10
54.1684638352128
20
3.07557780491663
30
0
41
1
10
54.2480917008648
20
3.46819727158888
30
0
41
1
10
54.4073474321688
20
4.20873425529584
30
0
41
1
10
54.4869752978209
20
4.55647715068375
30
0
41
1
10
54.6462310291249
20
5.18462624150519
30
0
41
1
10
54.7258588947769
20
5.46491047554775
30
0
41
1
10
54.8851146260809
20
5.94376325697576
30
0
41
1
10
54.964742491733
20
6.14230985333111
30
0
41
1
10
55.123998223037
20
6.45386108528251
30
0
41
1
10
55.2036260886891
20
6.56693800952601
30
0
41
1
10
55.3628818199931
20
6.71344759596801
30
0
41
1
10
55.4425096856452
20
6.74700000000001
30
0
41
1
10
55.5221375512972
20
6.74700000000001
30
0
0
SPLINE
5
DD
100
AcDbEntity
8
1
62
256
6
ByLayer
370
13
48
1
60
0
100
AcDbSpline
70
4
71
3
72
22
73
18
40
0
40
0
40
0
40
0
40
0.125
40
0.125
40
0.25
40
0.25
40
0.375
40
0.375
40
0.5
40
0.5
40
0.625
40
0.625
40
0.75
40
0.75
40
0.875
40
0.875
40
1
40
1
40
1
40
1
41
1
10
58.2360033564901
20
6.74700000000001
30
0
41
1
10
58.2905154178616
20
6.74700000000001
30
0
41
1
10
58.3450274792331
20
6.7313247999717
30
0
41
1
10
58.4540516019761
20
6.66443810785105
30
0
41
1
10
58.5085636633476
20
6.61320789133322
30
0
41
1
10
58.6175877860906
20
6.4721751009539
30
0
41
1
10
58.6720998474621
20
6.38235595299582
30
0
41
1
10
58.781123970205
20
6.16283771995663
30
0
41
1
10
58.8356360315765
20
6.03312819219101
30
0
41
1
10
58.9446601543195
20
5.73467094047984
30
0
41
1
10
58.999172215691
20
5.56592231060225
30
0
41
1
10
59.108196338434
20
5.19256011887558
30
0
41
1
10
59.1627083998055
20
4.98795667392167
30
0
41
1
10
59.2717325225485
20
4.54825479153973
30
0
41
1
10
59.32624458392
20
4.31317621716789
30
0
41
1
10
59.435268706663
20
3.81963321614862
30
0
41
1
10
59.4897807680345
20
3.56119455243123
30
0
41
1
10
59.5442928294059
20
3.29513644648492
30
0
0
SPLINE
5
DE
100
AcDbEntity
8
1
62
256
6
ByLayer
370
13
48
1
60
0
100
AcDbSpline
70
4
71
3
72
43
73
39
40
0
40
0
40
0
40
0
40
0.0624999999999995
40
0.0624999999999995
40
0.124999999999999
40
0.124999999999999
40
0.187499999999998
40
0.187499999999998
40
0.249999999999998
40
0.249999999999998
40
0.312499999999997
40
0.312499999999997
40
0.374999999999997
40
0.374999999999997
40
0.406249999999997
40
0.406249999999997
40
0.414062499999997
40
0.414062499999997
40
0.421874999999996
40
0.437499999999996
40
0.437499999999996
40
0.499999999999997
40
0.499999999999997
40
0.562499999999997
40
0.562499999999997
40
0.624999999999997
40
0.624999999999997
40
0.687499999999998
40
0.687499999999998
40
0.749999999999998
40
0.749999999999998
40
0.812499999999999
40
0.812499999999999
40
0.874999999999999
40
0.874999999999999
40
0.937499999999999
40
0.937499999999999
40
1
40
1
40
1
40
1
41
1
10
51.7
20
-6.01873962190172
30
0
41
1
10
51.7691535019272
20
-5.84501953602671
30
0
41
1
10
51.8383070038544
20
-5.63937307967919
30
0
41
1
10
51.9766140077089
20
-5.16985944175448
30
0
41
1
10
52.0457675096362
20
-4.90602376023668
30
0
41
1
10
52.1840745134905
20
-4.33145934717385
30
0
41
1
10
52.2532280154178
20
-4.02080111462047
30
0
41
1
10
52.3915350192723
20
-3.3680703246477
30
0
41
1
10
52.4606885211995
20
-3.02608525086597
30
0
41
1
10
52.5989955250539
20
-2.32786453324761
30
0
41
1
10
52.6681490269811
20
-1.97170653256305
30
0
41
1
10
52.8064560308356
20
-1.26141046414236
30
0
41
1
10
52.8756095327628
20
-0.907321537404385
30
0
41
1
10
52.9793397856536
20
-0.387764664963299
30
0
41
1
10
53.0139165366173
20
-0.216481674646218
30
0
41
1
10
53.0571374753218
20
-0.0055789272518894
30
0
41
1
10
53.0657816630627
20
0.0364150789391715
30
0
41
1
10
53.0830700385445
20
0.120930691274765
30
0
41
1
10
53.1090026017672
20
0.248175351978432
30
0
41
1
10
53.1349351649899
20
0.376748280517205
30
0
41
1
10
53.221377042399
20
0.807860615852547
30
0
41
1
10
53.2905305443262
20
1.16100627074474
30
0
41
1
10
53.4288375481806
20
1.87082230656435
30
0
41
1
10
53.4979910501078
20
2.22744669370735
30
0
41
1
10
53.6362980539622
20
2.92820862568055
30
0
41
1
10
53.7054515558895
20
3.2722706288493
30
0
41
1
10
53.8437585597439
20
3.93074740158607
30
0
41
1
10
53.9129120616712
20
4.2450745124747
30
0
41
1
10
54.0512190655256
20
4.8283011455643
30
0
41
1
10
54.1203725674528
20
5.09712744195986
30
0
41
1
10
54.2586795713073
20
5.57747152743701
30
0
41
1
10
54.3278330732345
20
5.78895357797862
30
0
41
1
10
54.466140077089
20
6.14834095037651
30
0
41
1
10
54.5352935790162
20
6.29625577494568
30
0
41
1
10
54.6736005828706
20
6.52825885262311
30
0
41
1
10
54.7427540847978
20
6.61239197415469
30
0
41
1
10
54.8810610886523
20
6.72173229949789
30
0
41
1
10
54.9502145905795
20
6.74699999999999
30
0
41
1
10
55.0193680925067
20
6.74700000000001
30
0
0
SPLINE
5
DF
100
AcDbEntity
8
1
62
256
6
ByLayer
370
13
48
1
60
0
100
AcDbSpline
70
4
71
3
72
22
73
18
40
0
40
0
40
0
40
0
40
0.125
40
0.125
40
0.25
40
0.25
40
0.375
40
0.375
40
0.5
40
0.5
40
0.625
40
0.625
40
0.75
40
0.75
40
0.875
40
0.875
40
1
40
1
40
1
40
1
41
1
10
57.7332338976997
20
6.74700000000001
30
0
41
1
10
57.8086946865208
20
6.74700000000001
30
0
41
1
10
57.8841554753419
20
6.71688662323268
30
0
41
1
10
58.0350770529841
20
6.58585284221263
30
0
41
1
10
58.1105378418052
20
6.48483999333641
30
0
41
1
10
58.2614594194474
20
6.2063742049254
30
0
41
1
10
58.3369202082685
20
6.0288600438148
30
0
41
1
10
58.4878417859106
20
5.59933290788561
30
0
41
1
10
58.5633025747317
20
5.34732398260678
30
0
41
1
10
58.7142241523739
20
4.77929879754109
30
0
41
1
10
58.789684941195
20
4.46336168631095
30
0
41
1
10
58.9406065188372
20
3.78527787274001
30
0
41
1
10
59.0160673076583
20
3.42325952608746
30
0
41
1
10
59.1669888853005
20
2.6748723581087
30
0
41
1
10
59.2424496741216
20
2.28863311014425
30
0
41
1
10
59.3933712517638
20
1.51366304647897
30
0
41
1
10
59.4688320405849
20
1.12502152704323
30
0
41
1
10
59.5442928294059
20
0.744351458821512
30
0
0
SPLINE
5
E0
100
AcDbEntity
8
1
62
256
6
ByLayer
370
13
48
1
60
0
100
AcDbSpline
70
4
71
3
72
42
73
38
40
0
40
0
40
0
40
0
40
0.0625
40
0.0625
40
0.125
40
0.125
40
0.1875
40
0.1875
40
0.25
40
0.25
40
0.28125
40
0.28125
40
0.296875
40
0.296875
40
0.312500000000001
40
0.312500000000001
40
0.375
40
0.375
40
0.4375
40
0.4375
40
0.500000000000001
40
0.500000000000001
40
0.562500000000001
40
0.562500000000001
40
0.625000000000001
40
0.625000000000001
40
0.687500000000001
40
0.687500000000001
40
0.75
40
0.75
40
0.8125
40
0.8125
40
0.875
40
0.875
40
0.9375
40
0.9375
40
1
40
1
40
1
40
1
41
1
10
51.7
20
-4.24182561922765
30
0
41
1
10
51.7586791382024
20
-3.98243195155959
30
0
41
1
10
51.8173582764049
20
-3.70845331135706
30
0
41
1
10
51.9347165528097
20
-3.14124021716722
30
0
41
1
10
51.9933956910121
20
-2.84804433357542
30
0
41
1
10
52.1107539674169
20
-2.25287450012729
30
0
41
1
10
52.1694331056194
20
-1.95093361635031
30
0
41
1
10
52.2867913820243
20
-1.34813842621526
30
0
41
1
10
52.3454705202266
20
-1.0473062139624
30
0
41
1
10
52.4334892275303
20
-0.603177635562417
30
0
41
1
10
52.4628287966315
20
-0.45630798363905
30
0
41
1
10
52.5068381502834
20
-0.238415527910433
30
0
41
1
10
52.5215079348339
20
-0.166185741609837
30
0
41
1
10
52.5508475039351
20
-0.0226250945481183
30
0
41
1
10
52.5655172884857
20
0.0485383688953505
30
0
41
1
10
52.6388662112388
20
0.407978894905028
30
0
41
1
10
52.6975453494412
20
0.702710599461
30
0
41
1
10
52.814903625846
20
1.29951947549751
30
0
41
1
10
52.8735827640485
20
1.60158361357844
30
0
41
1
10
52.9909410404534
20
2.20420256266584
30
0
41
1
10
53.0496201786557
20
2.50473188086738
30
0
41
1
10
53.1669784550606
20
3.0941649718165
30
0
41
1
10
53.225657593263
20
3.38303342604172
30
0
41
1
10
53.3430158696679
20
3.93869358934603
30
0
41
1
10
53.4016950078703
20
4.2054466095895
30
0
41
1
10
53.5190532842751
20
4.70722822295036
30
0
41
1
10
53.5777324224775
20
4.94222338838361
30
0
41
1
10
53.6950906988824
20
5.37276115122401
30
0
41
1
10
53.7537698370849
20
5.5682833251586
30
0
41
1
10
53.8711281134896
20
5.91490183349646
30
0
41
1
10
53.9298072516921
20
6.06599465369916
30
0
41
1
10
54.0471655280969
20
6.32190560369952
30
0
41
1
10
54.1058446662993
20
6.42673599417293
30
0
41
1
10
54.2232029427042
20
6.59125742994308
30
0
41
1
10
54.2818820809067
20
6.65097140475092
30
0
41
1
10
54.3992403573115
20
6.72882920106287
30
0
41
1
10
54.4579194955139
20
6.74700000000001
30
0
41
1
10
54.5165986337163
20
6.74700000000001
30
0
0
SPLINE
5
E1
100
AcDbEntity
8
1
62
256
6
ByLayer
370
13
48
1
60
0
100
AcDbSpline
70
4
71
3
72
42
73
38
40
0
40
0
40
0
40
0
40
0.0625000000000003
40
0.0625000000000003
40
0.125000000000001
40
0.125000000000001
40
0.187500000000001
40
0.187500000000001
40
0.250000000000001
40
0.250000000000001
40
0.312500000000001
40
0.312500000000001
40
0.375000000000002
40
0.375000000000002
40
0.437500000000002
40
0.437500000000002
40
0.500000000000002
40
0.500000000000002
40
0.562500000000002
40
0.562500000000002
40
0.625000000000003
40
0.625000000000003
40
0.687500000000003
40
0.687500000000003
40
0.750000000000003
40
0.750000000000003
40
0.812500000000004
40
0.812500000000004
40
0.843750000000003
40
0.843750000000003
40
0.859375000000003
40
0.859375000000003
40
0.875000000000002
40
0.875000000000002
40
0.937500000000001
40
0.937500000000001
40
1
40
1
40
1
40
1
41
1
10
57.2304644389093
20
6.74700000000001
30
0
41
1
10
57.2786691970446
20
6.74700000000001
30
0
41
1
10
57.32687395518
20
6.73474903673079
30
0
41
1
10
57.4232834714507
20
6.68281292387093
30
0
41
1
10
57.471488229586
20
6.64311762490269
30
0
41
1
10
57.5678977458567
20
6.53402663516371
30
0
41
1
10
57.6161025039921
20
6.46462150245608
30
0
41
1
10
57.7125120202628
20
6.29482932358681
30
0
41
1
10
57.7607167783981
20
6.19443521761502
30
0
41
1
10
57.8571262946688
20
5.962622452315
30
0
41
1
10
57.9053310528041
20
5.83120072320355
30
0
41
1
10
58.0017405690748
20
5.53868687536706
30
0
41
1
10
58.0499453272102
20
5.37759675983659
30
0
41
1
10
58.1463548434808
20
5.02851658370696
30
0
41
1
10
58.1945596016162
20
4.84053376272431
30
0
41
1
10
58.290969117887
20
4.44171586266791
30
0
41
1
10
58.3391738760222
20
4.23089234918751
30
0
41
1
10
58.4355833922929
20
3.79143135215097
30
0
41
1
10
58.4837881504283
20
3.56280795822923
30
0
41
1
10
58.5801976666991
20
3.09338356992535
30
0
41
1
10
58.6284024248343
20
2.85259696477289
30
0
41
1
10
58.724811941105
20
2.36464462843998
30
0
41
1
10
58.7730166992404
20
2.11749151413747
30
0
41
1
10
58.8694262155111
20
1.62235397483309
30
0
41
1
10
58.9176309736464
20
1.37437893993152
30
0
41
1
10
59.0140404899171
20
0.882559673003442
30
0
41
1
10
59.0622452480524
20
0.638720980001153
30
0
41
1
10
59.1345523852555
20
0.279174165819427
30
0
41
1
10
59.1586547643232
20
0.160353601561752
30
0
41
1
10
59.1948083329247
20
-0.0160103389812321
30
0
41
1
10
59.2068595224586
20
-0.0746179694311309
30
0
41
1
10
59.2309619015261
20
-0.192819241514172
30
0
41
1
10
59.24301309106
20
-0.252217368937465
30
0
41
1
10
59.3032690387292
20
-0.550560184211463
30
0
41
1
10
59.3514737968645
20
-0.793596437908803
30
0
41
1
10
59.4478833131352
20
-1.28436045913412
30
0
41
1
10
59.4960880712705
20
-1.53208315845967
30
0
41
1
10
59.5442928294059
20
-1.77971884417462
30
0
0
SPLINE
5
E2
100
AcDbEntity
8
1
62
256
6
ByLayer
370
13
48
1
60
0
100
AcDbSpline
70
4
71
3
72
42
73
38
40
0
40
0
40
0
40
0
40
0.0625000000000031
40
0.0625000000000031
40
0.125000000000006
40
0.125000000000006
40
0.140625000000006
40
0.140625000000006
40
0.156250000000007
40
0.156250000000007
40
0.187500000000006
40
0.187500000000006
40
0.250000000000006
40
0.250000000000006
40
0.312500000000006
40
0.312500000000006
40
0.375000000000005
40
0.375000000000005
40
0.437500000000005
40
0.437500000000005
40
0.500000000000004
40
0.500000000000004
40
0.562500000000004
40
0.562500000000004
40
0.625000000000003
40
0.625000000000003
40
0.687500000000003
40
0.687500000000003
40
0.750000000000002
40
0.750000000000002
40
0.812500000000002
40
0.812500000000002
40
0.875000000000001
40
0.875000000000001
40
0.9375
40
0.9375
40
1
40
1
40
1
40
1
41
1
10
51.7000000000001
20
-1.7797228739154
30
0
41
1
10
51.7482047744776
20
-1.53208710551524
30
0
41
1
10
51.7964095489552
20
-1.28436430930825
30
0
41
1
10
51.8928190979104
20
-0.793600074735764
30
0
41
1
10
51.9410238723881
20
-0.550563704600904
30
0
41
1
10
52.0012798404851
20
-0.25222073686993
30
0
41
1
10
52.0133310341046
20
-0.192822578607775
30
0
41
1
10
52.0374334213433
20
-0.0746212442756473
30
0
41
1
10
52.0494846149628
20
-0.0160135762297386
30
0
41
1
10
52.0856381958209
20
0.160350389992971
30
0
41
1
10
52.1097405830598
20
0.279170974062168
30
0
41
1
10
52.1820477447762
20
0.638717855877132
30
0
41
1
10
52.2302525192538
20
0.882556604952498
30
0
41
1
10
52.326662068209
20
1.37437600550319
30
0
41
1
10
52.3748668426867
20
1.62235111796073
30
0
41
1
10
52.4712763916419
20
2.11748883161349
30
0
41
1
10
52.5194811661196
20
2.36464204270618
30
0
41
1
10
52.6158907150748
20
2.85259458776898
30
0
41
1
10
52.6640954895524
20
3.09338130484869
30
0
41
1
10
52.7605050385077
20
3.56280592643711
30
0
41
1
10
52.8087098129853
20
3.79142944169428
30
0
41
1
10
52.9051193619405
20
4.2308906840002
30
0
41
1
10
52.9533241364182
20
4.44171432138683
30
0
41
1
10
53.0497336853735
20
4.84053246467036
30
0
41
1
10
53.0979384598511
20
5.02851540494592
30
0
41
1
10
53.1943480088063
20
5.37759580839753
30
0
41
1
10
53.2425527832839
20
5.53868603193476
30
0
41
1
10
53.3389623322392
20
5.8312000791241
30
0
41
1
10
53.3871671067168
20
5.9626218995692
30
0
41
1
10
53.483576655672
20
6.19443482729648
30
0
41
1
10
53.5317814301497
20
6.29482900436065
30
0
41
1
10
53.6281909791049
20
6.46462130361883
30
0
41
1
10
53.6763957535826
20
6.53402648563153
30
0
41
1
10
53.7728053025378
20
6.64311755253203
30
0
41
1
10
53.8210100770154
20
6.68281287937165
30
0
41
1
10
53.9174196259707
20
6.73474902840823
30
0
41
1
10
53.9656244004482
20
6.74700000000001
30
0
41
1
10
54.0138291749259
20
6.74700000000001
30
0
0
SPLINE
5
E3
100
AcDbEntity
8
1
62
256
6
ByLayer
370
13
48
1
60
0
100
AcDbSpline
70
4
71
3
72
42
73
38
40
0
40
0
40
0
40
0
40
0.0624999999999999
40
0.0624999999999999
40
0.125
40
0.125
40
0.1875
40
0.1875
40
0.25
40
0.25
40
0.3125
40
0.3125
40
0.375
40
0.375
40
0.437499999999999
40
0.437499999999999
40
0.499999999999999
40
0.499999999999999
40
0.562499999999999
40
0.562499999999999
40
0.624999999999999
40
0.624999999999999
40
0.687499999999999
40
0.687499999999999
40
0.703124999999999
40
0.703124999999999
40
0.718749999999999
40
0.718749999999999
40
0.749999999999999
40
0.749999999999999
40
0.8125
40
0.8125
40
0.875
40
0.875
40
0.9375
40
0.9375
40
1
40
1
40
1
40
1
41
1
10
56.7276949801188
20
6.74700000000001
30
0
41
1
10
56.786374101979
20
6.74700000000001
30
0
41
1
10
56.8450532238392
20
6.72882921121487
30
0
41
1
10
56.9624114675594
20
6.65097145964961
30
0
41
1
10
57.0210905894196
20
6.59125751947366
30
0
41
1
10
57.1384488331399
20
6.42673617955992
30
0
41
1
10
57.197127955
20
6.32190585033871
30
0
41
1
10
57.3144861987203
20
6.06599504850604
30
0
41
1
10
57.3731653205805
20
5.91490231522434
30
0
41
1
10
57.4905235643008
20
5.56828400183929
30
0
41
1
10
57.5492026861609
20
5.37276193591254
30
0
41
1
10
57.6665609298812
20
4.94222440228142
30
0
41
1
10
57.7252400517414
20
4.70722935799938
30
0
41
1
10
57.8425982954617
20
4.20544798999248
30
0
41
1
10
57.9012774173218
20
3.93869509388949
30
0
41
1
10
58.0186356610421
20
3.38303517130362
30
0
41
1
10
58.0773147829022
20
3.09416683360115
30
0
41
1
10
58.1946730266226
20
2.50473395888625
30
0
41
1
10
58.2533521484827
20
2.20420474036308
30
0
41
1
10
58.3707103922029
20
1.60158596731222
30
0
41
1
10
58.4293895140631
20
1.29952190558365
30
0
41
1
10
58.5467477577835
20
0.70271315575485
30
0
41
1
10
58.6054268796436
20
0.407981501070736
30
0
41
1
10
58.6787757819687
20
0.0485410208199255
30
0
41
1
10
58.6934455624338
20
-0.0226224270136015
30
0
41
1
10
58.7227851233638
20
-0.166183011578283
30
0
41
1
10
58.7374549038289
20
-0.238412766961744
30
0
41
1
10
58.781464245224
20
-0.456305131206364
30
0
41
1
10
58.8108038061541
20
-0.603174723827209
30
0
41
1
10
58.8988224889443
20
-1.0473031316927
30
0
41
1
10
58.9575016108045
20
-1.34813524008234
30
0
41
1
10
59.0748598545247
20
-1.95093025516866
30
0
41
1
10
59.1335389763849
20
-2.25287106783566
30
0
41
1
10
59.2508972201051
20
-2.84804080410697
30
0
41
1
10
59.3095763419653
20
-3.14123666171241
30
0
41
1
10
59.4269345856856
20
-3.70844975815339
30
0
41
1
10
59.4856137075458
20
-3.9824284266538
30
0
41
1
10
59.5442928294059
20
-4.24182215162327
30
0
0
SPLINE
5
E4
100
AcDbEntity
8
1
62
256
6
ByLayer
370
13
48
1
60
0
100
AcDbSpline
70
4
71
3
72
22
73
18
40
0
40
0
40
0
40
0
40
0.125
40
0.125
40
0.25
40
0.25
40
0.375
40
0.375
40
0.5
40
0.5
40
0.625
40
0.625
40
0.75
40
0.75
40
0.875
40
0.875
40
1
40
1
40
1
40
1
41
1
10
51.7
20
0.744347501683933
30
0
41
1
10
51.7754608215056
20
1.12501768090939
30
0
41
1
10
51.8509216430113
20
1.51365934604846
30
0
41
1
10
52.0018432860226
20
2.28862976160846
30
0
41
1
10
52.0773041075282
20
2.67486921573197
30
0
41
1
10
52.2282257505395
20
3.42325683374335
30
0
41
1
10
52.3036865720451
20
3.7852754240501
30
0
41
1
10
52.4546082150565
20
4.4633597294937
30
0
41
1
10
52.530069036562
20
4.77929708860879
30
0
41
1
10
52.6809906795734
20
5.34732273917354
30
0
41
1
10
52.7564515010791
20
5.59933188177868
30
0
41
1
10
52.9073731440903
20
6.02885939554022
30
0
41
1
10
52.9828339655959
20
6.20637371704899
30
0
41
1
10
53.1337556086073
20
6.48483975753643
30
0
41
1
10
53.2092164301129
20
6.5858526981784
30
0
41
1
10
53.3601380731242
20
6.71688659700172
30
0
41
1
10
53.4355988946298
20
6.74700000000001
30
0
41
1
10
53.5110597161355
20
6.74700000000001
30
0
0
SPLINE
5
E5
100
AcDbEntity
8
1
62
256
6
ByLayer
370
13
48
1
60
0
100
AcDbSpline
70
4
71
3
72
43
73
39
40
0
40
0
40
0
40
0
40
0.0624999999999996
40
0.0624999999999996
40
0.124999999999999
40
0.124999999999999
40
0.187499999999999
40
0.187499999999999
40
0.249999999999998
40
0.249999999999998
40
0.312499999999998
40
0.312499999999998
40
0.374999999999998
40
0.374999999999998
40
0.437499999999997
40
0.437499999999997
40
0.499999999999997
40
0.499999999999997
40
0.562499999999996
40
0.562499999999996
40
0.578124999999996
40
0.585937499999997
40
0.585937499999997
40
0.593749999999997
40
0.593749999999997
40
0.624999999999997
40
0.624999999999997
40
0.687499999999998
40
0.687499999999998
40
0.749999999999998
40
0.749999999999998
40
0.812499999999999
40
0.812499999999999
40
0.874999999999999
40
0.874999999999999
40
0.9375
40
0.9375
40
1
40
1
40
1
40
1
41
1
10
56.2249255213284
20
6.74700000000001
30
0
41
1
10
56.2940790069134
20
6.74700000000001
30
0
41
1
10
56.3632324924983
20
6.72173231149409
30
0
41
1
10
56.5015394636682
20
6.61239203967605
30
0
41
1
10
56.5706929492532
20
6.52825895974325
30
0
41
1
10
56.708999920423
20
6.2962559967857
30
0
41
1
10
56.778153406008
20
6.14834124537776
30
0
41
1
10
56.9164603771779
20
5.78895404734735
30
0
41
1
10
56.9856138627629
20
5.57747209799254
30
0
41
1
10
57.1239208339327
20
5.09712823357654
30
0
41
1
10
57.1930743195177
20
4.82830205697124
30
0
41
1
10
57.3313812906877
20
4.24507566847933
30
0
41
1
10
57.4005347762725
20
3.93074868227942
30
0
41
1
10
57.5388417474425
20
3.27227214914438
30
0
41
1
10
57.6079952330274
20
2.92821026078497
30
0
41
1
10
57.7463022041973
20
2.22744853627125
30
0
41
1
10
57.8154556897822
20
1.87082424172783
30
0
41
1
10
57.9537626609521
20
1.16100836141121
30
0
41
1
10
58.022916146537
20
0.807862769431438
30
0
41
1
10
58.1093580035182
20
0.376750492881911
30
0
41
1
10
58.1352905606126
20
0.248177580508184
30
0
41
1
10
58.161223117707
20
0.120932933779329
30
0
41
1
10
58.1785114891032
20
0.0364173302772315
30
0
41
1
10
58.1871556748013
20
-0.0055766702286917
30
0
41
1
10
58.2303766032919
20
-0.216479339152357
30
0
41
1
10
58.2649533460844
20
-0.387762268157729
30
0
41
1
10
58.3686835744618
20
-0.90731896415079
30
0
41
1
10
58.4378370600468
20
-1.26140778322039
30
0
41
1
10
58.5761440312167
20
-1.97170367422535
30
0
41
1
10
58.6452975168016
20
-2.3278616053066
30
0
41
1
10
58.7836044879715
20
-3.02608223870871
30
0
41
1
10
58.8527579735564
20
-3.36806729802939
30
0
41
1
10
58.9910649447263
20
-4.02079812538679
30
0
41
1
10
59.0602184303113
20
-4.33145640987885
30
0
41
1
10
59.1985254014812
20
-4.90602099475319
30
0
41
1
10
59.2676788870661
20
-5.16985679612745
30
0
41
1
10
59.405985858236
20
-5.63937073233242
30
0
41
1
10
59.475139343821
20
-5.8450173669807
30
0
41
1
10
59.5442928294059
20
-6.01873765134042
30
0
0
SPLINE
5
E6
100
AcDbEntity
8
1
62
256
6
ByLayer
370
13
48
1
60
0
100
AcDbSpline
70
4
71
3
72
22
73
18
40
0
40
0
40
0
40
0
40
0.125
40
0.125
40
0.25
40
0.25
40
0.375
40
0.375
40
0.5
40
0.5
40
0.625
40
0.625
40
0.75
40
0.75
40
0.875
40
0.875
40
1
40
1
40
1
40
1
41
1
10
51.7
20
3.29513261790478
30
0
41
1
10
51.754512094056
20
3.56119095625056
30
0
41
1
10
51.8090241881121
20
3.81962986333667
30
0
41
1
10
51.9180483762241
20
4.31317335564967
30
0
41
1
10
51.9725604702802
20
4.54825217785532
30
0
41
1
10
52.0815846583923
20
4.98795454211802
30
0
41
1
10
52.1360967524483
20
5.19255822103017
30
0
41
1
10
52.2451209405604
20
5.56592085051744
30
0
41
1
10
52.2996330346165
20
5.73466968413462
30
0
41
1
10
52.4086572227286
20
6.0331273011337
30
0
41
1
10
52.4631693167846
20
6.16283699042467
30
0
41
1
10
52.5721935048967
20
6.38235549795107
30
0
41
1
10
52.6267055989528
20
6.47217475888763
30
0
41
1
10
52.7357297870649
20
6.61320772603341
30
0
41
1
10
52.7902418811209
20
6.66443800638376
30
0
41
1
10
52.8992660692329
20
6.73132478112643
30
0
41
1
10
52.953778163289
20
6.74700000000001
30
0
41
1
10
53.008290257345
20
6.74700000000001
30
0
0
SPLINE
5
E7
100
AcDbEntity
8
1
62
256
6
ByLayer
370
13
48
1
60
0
100
AcDbSpline
70
4
71
3
72
44
73
40
40
0
40
0
40
0
40
0
40
0.0625000000000014
40
0.0625000000000014
40
0.125000000000003
40
0.125000000000003
40
0.187500000000004
40
0.187500000000004
40
0.250000000000005
40
0.250000000000005
40
0.312500000000007
40
0.312500000000007
40
0.375000000000008
40
0.375000000000008
40
0.437500000000009
40
0.437500000000009
40
0.500000000000011
40
0.500000000000011
40
0.507812500000011
40
0.507812500000011
40
0.515625000000011
40
0.515625000000011
40
0.53125000000001
40
0.53125000000001
40
0.562500000000009
40
0.562500000000009
40
0.625000000000008
40
0.625000000000008
40
0.687500000000007
40
0.687500000000007
40
0.750000000000005
40
0.750000000000005
40
0.812500000000004
40
0.812500000000004
40
0.875000000000003
40
0.875000000000003
40
0.937500000000001
40
0.937500000000001
40
1
40
1
40
1
40
1
41
1
10
55.722156062538
20
6.74700000000001
30
0
41
1
10
55.8017839118478
20
6.74700000000001
30
0
41
1
10
55.8814117611576
20
6.7134476098272
30
0
41
1
10
56.040667459777
20
6.56693808587269
30
0
41
1
10
56.1202953090867
20
6.45386121037527
30
0
41
1
10
56.2795510077062
20
6.14231011188213
30
0
41
1
10
56.359178857016
20
5.94376360028141
30
0
41
1
10
56.5184345556355
20
5.4649110167301
30
0
41
1
10
56.5980624049453
20
5.18462689572146
30
0
41
1
10
56.7573181035648
20
4.55647804347143
30
0
41
1
10
56.8369459528745
20
4.20873527342795
30
0
41
1
10
56.9962016514939
20
3.46819853319752
30
0
41
1
10
57.0758295008038
20
3.0755791844621
30
0
41
1
10
57.2350851994232
20
2.27149488447574
30
0
41
1
10
57.314713048733
20
1.86018635584719
30
0
41
1
10
57.4739687473525
20
1.04336815098108
30
0
41
1
10
57.5535965966623
20
0.637947421197026
30
0
41
1
10
57.6431779271357
20
0.195938748274557
30
0
41
1
10
57.6531314082994
20
0.1470181708209
30
0
41
1
10
57.6730383706268
20
0.0495899101664463
30
0
41
1
10
57.6829918517906
20
0.0012261188155094
30
0
41
1
10
57.7128522952817
20
-0.144478549840443
30
0
41
1
10
57.7327592576091
20
-0.242461715747425
30
0
41
1
10
57.7924801445915
20
-0.538589522512808
30
0
41
1
10
57.8322940692464
20
-0.738925451602711
30
0
41
1
10
57.9517358432109
20
-1.34531159048157
30
0
41
1
10
58.0313636925207
20
-1.75689715609457
30
0
41
1
10
58.1906193911402
20
-2.57226262529795
30
0
41
1
10
58.27024724045
20
-2.97591074301911
30
0
41
1
10
58.4295029390694
20
-3.74934350838245
30
0
41
1
10
58.5091307883792
20
-4.11895286900136
30
0
41
1
10
58.6683864869987
20
-4.79954095674339
30
0
41
1
10
58.7480143363085
20
-5.11036750235712
30
0
41
1
10
58.9072700349279
20
-5.65510121524682
30
0
41
1
10
58.9868978842377
20
-5.88894200649051
30
0
41
1
10
59.1461535828572
20
-6.27138537756801
30
0
41
1
10
59.225781432167
20
-6.42002485990338
30
0
41
1
10
59.3850371307864
20
-6.63417203149933
30
0
41
1
10
59.4646649800962
20
-6.69978643494562
30
0
41
1
10
59.5442928294059
20
-6.72894085897988
30
0
0
SPLINE
5
E8
100
AcDbEntity
8
1
62
256
6
ByLayer
370
13
48
1
60
0
100
AcDbSpline
70
4
71
3
72
14
73
10
40
0
40
0
40
0
40
0
40
0.25
40
0.25
40
0.5
40
0.5
40
0.75
40
0.75
40
1
40
1
40
1
40
1
41
1
10
51.7
20
5.42058782100901
30
0
41
1
10
51.7671267332129
20
5.64718791496239
30
0
41
1
10
51.8342534664258
20
5.84628095928196
30
0
41
1
10
51.9685069328515
20
6.18434575658665
30
0
41
1
10
52.0356336660644
20
6.3233289371455
30
0
41
1
10
52.1698871324902
20
6.54133073977354
30
0
41
1
10
52.2370138657031
20
6.62038937174134
30
0
41
1
10
52.3712673321289
20
6.7231978476353
30
0
41
1
10
52.4383940653417
20
6.74700000000001
30
0
41
1
10
52.5055207985546
20
6.74700000000001
30
0
0
SPLINE
5
E9
100
AcDbEntity
8
1
62
256
6
ByLayer
370
13
48
1
60
0
100
AcDbSpline
70
4
71
3
72
74
73
70
40
0
40
0
40
0
40
0
40
0.0312499999999995
40
0.0312499999999995
40
0.0624999999999991
40
0.0624999999999991
40
0.0937499999999986
40
0.0937499999999986
40
0.124999999999998
40
0.124999999999998
40
0.156249999999998
40
0.156249999999998
40
0.187499999999997
40
0.187499999999997
40
0.218749999999997
40
0.218749999999997
40
0.249999999999996
40
0.249999999999996
40
0.281249999999996
40
0.281249999999996
40
0.312499999999996
40
0.312499999999996
40
0.343749999999995
40
0.343749999999995
40
0.374999999999995
40
0.374999999999995
40
0.406249999999994
40
0.406249999999994
40
0.437499999999994
40
0.437499999999994
40
0.453124999999994
40
0.453124999999994
40
0.468749999999994
40
0.468749999999994
40
0.499999999999994
40
0.499999999999994
40
0.531249999999994
40
0.531249999999994
40
0.562499999999995
40
0.562499999999995
40
0.593749999999995
40
0.593749999999995
40
0.624999999999995
40
0.624999999999995
40
0.656249999999996
40
0.656249999999996
40
0.687499999999996
40
0.687499999999996
40
0.718749999999996
40
0.718749999999996
40
0.749999999999996
40
0.749999999999996
40
0.781249999999996
40
0.781249999999996
40
0.812499999999997
40
0.812499999999997
40
0.843749999999997
40
0.843749999999997
40
0.874999999999997
40
0.874999999999997
40
0.906249999999997
40
0.906249999999997
40
0.921874999999998
40
0.921874999999998
40
0.937499999999998
40
0.937499999999998
40
0.968749999999999
40
0.968749999999999
40
1
40
1
40
1
40
1
41
1
10
55.2193866037476
20
6.74700000000001
30
0
41
1
10
55.2644377102649
20
6.74700000000001
30
0
41
1
10
55.3094888167822
20
6.73630214076266
30
0
41
1
10
55.3995910298167
20
6.69110219971265
30
0
41
1
10
55.444642136334
20
6.65659288031543
30
0
41
1
10
55.5347443493685
20
6.56185547128652
30
0
41
1
10
55.5797954558858
20
6.50162051100926
30
0
41
1
10
55.6698976689203
20
6.35423992260624
30
0
41
1
10
55.7149487754376
20
6.26708882393515
30
0
41
1
10
55.8050509884721
20
6.06559597267486
30
0
41
1
10
55.8501020949894
20
5.95125118570672
30
0
41
1
10
55.940204308024
20
5.69613438552534
30
0
41
1
10
55.9852554145413
20
5.55536256610213
30
0
41
1
10
56.0753576275758
20
5.24924387319749
30
0
41
1
10
56.1204087340931
20
5.08390073331179
30
0
41
1
10
56.2105109471276
20
4.73152205686787
30
0
41
1
10
56.2555620536449
20
4.54449348720297
30
0
41
1
10
56.3456642666794
20
4.15249476903938
30
0
41
1
10
56.3907153731967
20
3.94753392166228
30
0
41
1
10
56.4808175862313
20
3.5240415942157
30
0
41
1
10
56.5258686927485
20
3.30552045232463
30
0
41
1
10
56.6159709057831
20
2.85959871390836
30
0
41
1
10
56.6610220123004
20
2.63220809820254
30
0
41
1
10
56.7511242253349
20
2.17324866003023
30
0
41
1
10
56.7961753318522
20
1.941688273691
30
0
41
1
10
56.8862775448868
20
1.47882004518891
30
0
41
1
10
56.931328651404
20
1.24751832663353
30
0
41
1
10
57.0214308644386
20
0.789106749602837
30
0
41
1
10
57.0664819709559
20
0.562000426204861
30
0
41
1
10
57.1340586307318
20
0.226961617030582
30
0
41
1
10
57.1565841839904
20
0.116213504694429
30
0
41
1
10
57.2016352905077
20
-0.10307315572382
30
0
41
1
10
57.2241608437663
20
-0.213653584573393
30
0
41
1
10
57.2917375035422
20
-0.548468639003289
30
0
41
1
10
57.3367886100596
20
-0.775455239322469
30
0
41
1
10
57.4268908230941
20
-1.23369983076805
30
0
41
1
10
57.4719419296113
20
-1.46495433816838
30
0
41
1
10
57.5620441426459
20
-1.92781216934929
30
0
41
1
10
57.6070952491632
20
-2.15940942014802
30
0
41
1
10
57.6971974621977
20
-2.61853452319016
30
0
41
1
10
57.742248568715
20
-2.84605397960553
30
0
41
1
10
57.8323507817495
20
-3.29232819033248
30
0
41
1
10
57.8774018882668
20
-3.51107298419376
30
0
41
1
10
57.9675041013013
20
-3.93510425934625
30
0
41
1
10
58.0125552078186
20
-4.14038039616977
30
0
41
1
10
58.1026574208531
20
-4.53309195466176
30
0
41
1
10
58.1477085273704
20
-4.72051804093289
30
0
41
1
10
58.237810740405
20
-5.07375900393725
30
0
41
1
10
58.2828618469223
20
-5.23956685659581
30
0
41
1
10
58.3729640599568
20
-5.54666299225124
30
0
41
1
10
58.4180151664741
20
-5.68794747192038
30
0
41
1
10
58.5081173795086
20
-5.94411609351121
30
0
41
1
10
58.5531684860259
20
-6.05899997204983
30
0
41
1
10
58.6432706990605
20
-6.2615758507205
30
0
41
1
10
58.6883218055777
20
-6.34927082724499
30
0
41
1
10
58.7784240186122
20
-6.49772417423691
30
0
41
1
10
58.8234751251295
20
-6.5584879763374
30
0
41
1
10
58.9135773381642
20
-6.65425152372177
30
0
41
1
10
58.9586284446814
20
-6.68925812216773
30
0
41
1
10
59.048730657716
20
-6.73540867142387
30
0
41
1
10
59.0937817642332
20
-6.74655986159712
30
0
41
1
10
59.1613584240091
20
-6.74720086751651
30
0
41
1
10
59.1838839772677
20
-6.74474861032832
30
0
41
1
10
59.228935083785
20
-6.73420116143677
30
0
41
1
10
59.2514606370437
20
-6.72610525200696
30
0
41
1
10
59.3190372968195
20
-6.69291694307773
30
0
41
1
10
59.3640884033368
20
-6.65890413141889
30
0
41
1
10
59.4541906163713
20
-6.56519160740609
30
0
41
1
10
59.4992417228886
20
-6.50548500734172
30
0
41
1
10
59.5442928294059
20
-6.43233079378044
30
0
0
SPLINE
5
EA
100
AcDbEntity
8
1
62
256
6
ByLayer
370
13
48
1
60
0
100
AcDbSpline
70
4
71
3
72
10
73
6
40
0
40
0
40
0
40
0
40
0.5
40
0.5
40
1
40
1
40
1
40
1
41
1
10
51.7000000000001
20
6.57288125761818
30
0
41
1
10
51.7504585566274
20
6.63288512313827
30
0
41
1
10
51.8009171132547
20
6.67652312606552
30
0
41
1
10
51.9018342265094
20
6.7335741906881
30
0
41
1
10
51.9522927831368
20
6.74700000000001
30
0
41
1
10
52.0027513397642
20
6.74700000000001
30
0
0
SPLINE
5
EB
100
AcDbEntity
8
1
62
256
6
ByLayer
370
13
48
1
60
0
100
AcDbSpline
70
4
71
3
72
70
73
66
40
0
40
0
40
0
40
0
40
0.03125
40
0.03125
40
0.0625
40
0.0625
40
0.0937499999999999
40
0.0937499999999999
40
0.125
40
0.125
40
0.15625
40
0.15625
40
0.1875
40
0.1875
40
0.21875
40
0.21875
40
0.25
40
0.25
40
0.28125
40
0.28125
40
0.3125
40
0.3125
40
0.34375
40
0.34375
40
0.375
40
0.375
40
0.40625
40
0.40625
40
0.4375
40
0.4375
40
0.46875
40
0.46875
40
0.5
40
0.5
40
0.53125
40
0.53125
40
0.5625
40
0.5625
40
0.59375
40
0.59375
40
0.625
40
0.625
40
0.65625
40
0.65625
40
0.6875
40
0.6875
40
0.71875
40
0.71875
40
0.75
40
0.75
40
0.78125
40
0.78125
40
0.8125
40
0.8125
40
0.84375
40
0.84375
40
0.875
40
0.875
40
0.90625
40
0.90625
40
0.9375
40
0.9375
40
0.96875
40
0.96875
40
1
40
1
40
1
40
1
41
1
10
54.7166171449572
20
6.74700000000001
30
0
41
1
10
54.7669054333369
20
6.74700000000001
30
0
41
1
10
54.8171937217165
20
6.73366483813854
30
0
41
1
10
54.9177702984759
20
6.67700899144336
30
0
41
1
10
54.9680585868555
20
6.63367577195959
30
0
41
1
10
55.0686351636149
20
6.51451202086577
30
0
41
1
10
55.1189234519946
20
6.43867000185662
30
0
41
1
10
55.2195000287539
20
6.25317191013642
30
0
41
1
10
55.2697883171336
20
6.14350765774259
30
0
41
1
10
55.370364893893
20
5.89054737050901
30
0
41
1
10
55.4206531822726
20
5.74724856239203
30
0
41
1
10
55.521229759032
20
5.42887242411615
30
0
41
1
10
55.5715180474116
20
5.25379899535284
30
0
41
1
10
55.672094624171
20
4.87538474903744
30
0
41
1
10
55.7223829125506
20
4.67205441665698
30
0
41
1
10
55.82295948931
20
4.24207773558211
30
0
41
1
10
55.8732477776897
20
4.01544688295806
30
0
41
1
10
55.9738243544491
20
3.54486359519907
30
0
41
1
10
56.0241126428287
20
3.30092900158888
30
0
41
1
10
56.124689219588
20
2.80226456168575
30
0
41
1
10
56.1749775079677
20
2.54755190535869
30
0
41
1
10
56.275554084727
20
2.03385251964647
30
0
41
1
10
56.3258423731068
20
1.77487981330788
30
0
41
1
10
56.4264189498661
20
1.25869914803943
30
0
41
1
10
56.4767072382458
20
1.00150056072906
30
0
41
1
10
56.5772838150052
20
0.494068993809322
30
0
41
1
10
56.6275721033849
20
0.243865229114419
30
0
41
1
10
56.7281486801442
20
-0.245519941934418
30
0
41
1
10
56.7784369685239
20
-0.495769314876952
30
0
41
1
10
56.8790135452832
20
-1.00323189453204
30
0
41
1
10
56.9293018336629
20
-1.26044068910335
30
0
41
1
10
57.0298784104222
20
-1.77662901469503
30
0
41
1
10
57.0801666988019
20
-2.0355991628351
30
0
41
1
10
57.1807432755612
20
-2.54927913320603
30
0
41
1
10
57.2310315639409
20
-2.80397492313745
30
0
41
1
10
57.3316081407003
20
-3.30259073728061
30
0
41
1
10
57.3818964290799
20
-3.5464935669161
30
0
41
1
10
57.4824730058393
20
-4.01699900835288
30
0
41
1
10
57.532761294219
20
-4.24358378050857
30
0
41
1
10
57.6333378709783
20
-4.67345577237461
30
0
41
1
10
57.683626159358
20
-4.87672750459791
30
0
41
1
10
57.7842027361173
20
-5.25501486995543
30
0
41
1
10
57.834491024497
20
-5.43002003151136
30
0
41
1
10
57.9350676012564
20
-5.74825351891553
30
0
41
1
10
57.985355889636
20
-5.89147795888394
30
0
41
1
10
58.0859324663953
20
-6.14428722460696
30
0
41
1
10
58.136220754775
20
-6.25387483768509
30
0
41
1
10
58.2367973315344
20
-6.43922100754563
30
0
41
1
10
58.2870856199141
20
-6.51498775401262
30
0
41
1
10
58.3876621966734
20
-6.63400539997909
30
0
41
1
10
58.4379504850531
20
-6.67726779172153
30
0
41
1
10
58.5385270618124
20
-6.73378872172754
30
0
41
1
10
58.5888153501921
20
-6.74705981290884
30
0
41
1
10
58.6893919269515
20
-6.74693978124952
30
0
41
1
10
58.7396802153311
20
-6.73354051333371
30
0
41
1
10
58.8402567920905
20
-6.67674971989356
30
0
41
1
10
58.8905450804701
20
-6.63334565975057
30
0
41
1
10
58.9911216572295
20
-6.51403578379305
30
0
41
1
10
59.0414099456091
20
-6.43811848543504
30
0
41
1
10
59.1419865223685
20
-6.25246846591546
30
0
41
1
10
59.1922748107482
20
-6.14272757508394
30
0
41
1
10
59.2928513875075
20
-5.88961627666714
30
0
41
1
10
59.3431396758872
20
-5.74624310985763
30
0
41
1
10
59.4437162526466
20
-5.42772434813566
30
0
41
1
10
59.4940045410262
20
-5.2525826701341
30
0
41
1
10
59.5442928294059
20
-5.06331212816511
30
0
0
SPLINE
5
EC
100
AcDbEntity
8
1
62
256
6
ByLayer
370
13
48
1
60
0
100
AcDbSpline
70
4
71
3
72
78
73
74
40
0
40
0
40
0
40
0
40
0.03125
40
0.03125
40
0.0624999999999999
40
0.0624999999999999
40
0.0937499999999998
40
0.0937499999999998
40
0.125
40
0.125
40
0.15625
40
0.15625
40
0.1875
40
0.1875
40
0.21875
40
0.21875
40
0.25
40
0.25
40
0.281249999999999
40
0.281249999999999
40
0.312499999999999
40
0.312499999999999
40
0.343749999999999
40
0.343749999999999
40
0.359374999999999
40
0.359374999999999
40
0.367187499999999
40
0.367187499999999
40
0.374999999999999
40
0.374999999999999
40
0.406249999999999
40
0.406249999999999
40
0.437499999999999
40
0.437499999999999
40
0.468749999999999
40
0.468749999999999
40
0.499999999999998
40
0.499999999999998
40
0.531249999999998
40
0.531249999999998
40
0.562499999999998
40
0.562499999999998
40
0.593749999999998
40
0.593749999999998
40
0.624999999999998
40
0.624999999999998
40
0.656249999999998
40
0.656249999999998
40
0.687499999999998
40
0.687499999999998
40
0.718749999999998
40
0.718749999999998
40
0.734374999999998
40
0.734374999999998
40
0.742187499999998
40
0.742187499999998
40
0.749999999999998
40
0.749999999999998
40
0.781249999999998
40
0.781249999999998
40
0.812499999999999
40
0.812499999999999
40
0.843749999999999
40
0.843749999999999
40
0.874999999999999
40
0.874999999999999
40
0.906249999999999
40
0.906249999999999
40
0.9375
40
0.9375
40
0.96875
40
0.96875
40
1
40
1
40
1
40
1
41
1
10
54.2138476861667
20
6.74700000000001
30
0
41
1
10
54.2693731564088
20
6.74700000000001
30
0
41
1
10
54.324898626651
20
6.73073499526211
30
0
41
1
10
54.435949567135
20
6.66126074724326
30
0
41
1
10
54.4914750373771
20
6.60803098642171
30
0
41
1
10
54.6025259778613
20
6.46146118993894
30
0
41
1
10
54.6580514481033
20
6.36810316044054
30
0
41
1
10
54.7691023885875
20
6.13999122515168
30
0
41
1
10
54.8246278588296
20
6.00522637406377
30
0
41
1
10
54.9356787993137
20
5.69534736771206
30
0
41
1
10
54.9912042695558
20
5.52023309864529
30
0
41
1
10
55.1022552100399
20
5.13321303285119
30
0
41
1
10
55.1577806802821
20
4.92131942710549
30
0
41
1
10
55.2688316207662
20
4.46663131631314
30
0
41
1
10
55.3243570910082
20
4.22385955487155
30
0
41
1
10
55.4354080314924
20
3.71510456119591
30
0
41
1
10
55.4909335017345
20
3.44915000125624
30
0
41
1
10
55.6019844422187
20
2.90272625443285
30
0
41
1
10
55.6575099124607
20
2.6222857325009
30
0
41
1
10
55.7685608529448
20
2.05571091334355
30
0
41
1
10
55.8240863231869
20
1.76960001972046
30
0
41
1
10
55.9351372636711
20
1.19982936768355
30
0
41
1
10
55.9906627339132
20
0.916184644371185
30
0
41
1
10
56.0739509392763
20
0.497717932150948
30
0
41
1
10
56.1017136743973
20
0.359384531954106
30
0
41
1
10
56.1433577770788
20
0.15415196783394
30
0
41
1
10
56.1572391446394
20
0.086118248343098
30
0
41
1
10
56.1850018797605
20
-0.04911542765268
30
0
41
1
10
56.198883247321
20
-0.116870361039702
30
0
41
1
10
56.2682900851236
20
-0.458229931273536
30
0
41
1
10
56.3238155553656
20
-0.737533917118583
30
0
41
1
10
56.4348664958497
20
-1.3025516657485
30
0
41
1
10
56.4903919660918
20
-1.58825534443704
30
0
41
1
10
56.601442906576
20
-2.15857837501707
30
0
41
1
10
56.6569683768181
20
-2.44317867080258
30
0
41
1
10
56.7680193173022
20
-3.0027697332074
30
0
41
1
10
56.8235447875443
20
-3.27773416909665
30
0
41
1
10
56.9345957280285
20
-3.8091872150718
30
0
41
1
10
56.9901211982705
20
-4.06564642041414
30
0
41
1
10
57.1011721387546
20
-4.55173621611252
30
0
41
1
10
57.1566976089968
20
-4.78134012471767
30
0
41
1
10
57.2677485494809
20
-5.20674465889192
30
0
41
1
10
57.323274019723
20
-5.40252691022854
30
0
41
1
10
57.4343249602071
20
-5.75538790677277
30
0
41
1
10
57.4898504304492
20
-5.91246003650423
30
0
41
1
10
57.6009013709333
20
-6.18546047791037
30
0
41
1
10
57.6564268411754
20
-6.30139417910556
30
0
41
1
10
57.7674777816595
20
-6.49215355108862
30
0
41
1
10
57.8230032519016
20
-6.56699392153706
30
0
41
1
10
57.9340541923858
20
-6.67776443907246
30
0
41
1
10
57.9895796626278
20
-6.71371427385799
30
0
41
1
10
58.0728678679909
20
-6.74132620785659
30
0
41
1
10
58.100630603112
20
-6.74615549056804
30
0
41
1
10
58.1422747057935
20
-6.74726988031523
30
0
41
1
10
58.156156073354
20
-6.74662940869106
30
0
41
1
10
58.1839188084751
20
-6.74326307860326
30
0
41
1
10
58.1978001760356
20
-6.74053513950102
30
0
41
1
10
58.2672070138382
20
-6.72149239403024
30
0
41
1
10
58.3227324840802
20
-6.68892077926719
30
0
41
1
10
58.4337834245645
20
-6.58519792606117
30
0
41
1
10
58.4893088948065
20
-6.51402677245346
30
0
41
1
10
58.6003598352906
20
-6.33072491826306
30
0
41
1
10
58.6558853055328
20
-6.21857887207182
30
0
41
1
10
58.7669362460169
20
-5.95305894581045
30
0
41
1
10
58.822461716259
20
-5.79967867875598
30
0
41
1
10
58.9335126567431
20
-5.45387605750361
30
0
41
1
10
58.9890381269852
20
-5.26145918311548
30
0
41
1
10
59.1000890674693
20
-4.8422457749999
30
0
41
1
10
59.1556145377114
20
-4.61546664109588
30
0
41
1
10
59.2666654781956
20
-4.13432161041541
30
0
41
1
10
59.3221909484377
20
-3.87998184920107
30
0
41
1
10
59.4332418889218
20
-3.35197062064194
30
0
41
1
10
59.4887673591638
20
-3.07832856153917
30
0
41
1
10
59.5442928294059
20
-2.79945138119447
30
0
0
SPLINE
5
ED
100
AcDbEntity
8
1
62
256
6
ByLayer
370
13
48
1
60
0
100
AcDbSpline
70
4
71
3
72
78
73
74
40
0
40
0
40
0
40
0
40
0.03125
40
0.03125
40
0.0624999999999999
40
0.0624999999999999
40
0.0937499999999999
40
0.0937499999999999
40
0.125
40
0.125
40
0.15625
40
0.15625
40
0.1875
40
0.1875
40
0.21875
40
0.21875
40
0.25
40
0.25
40
0.28125
40
0.28125
40
0.3125
40
0.3125
40
0.328125
40
0.328125
40
0.3359375
40
0.3359375
40
0.34375
40
0.34375
40
0.375
40
0.375
40
0.40625
40
0.40625
40
0.4375
40
0.4375
40
0.46875
40
0.46875
40
0.5
40
0.5
40
0.53125
40
0.53125
40
0.5625
40
0.5625
40
0.59375
40
0.59375
40
0.625
40
0.625
40
0.65625
40
0.65625
40
0.671875
40
0.671875
40
0.6796875
40
0.6796875
40
0.6875
40
0.6875
40
0.718749999999999
40
0.718749999999999
40
0.749999999999999
40
0.749999999999999
40
0.78125
40
0.78125
40
0.8125
40
0.8125
40
0.84375
40
0.84375
40
0.875
40
0.875
40
0.90625
40
0.90625
40
0.9375
40
0.9375
40
0.96875
40
0.96875
40
1
40
1
40
1
40
1
41
1
10
53.7110782273763
20
6.74700000000001
30
0
41
1
10
53.7718408794808
20
6.74700000000001
30
0
41
1
10
53.8326035315852
20
6.72751160303474
30
0
41
1
10
53.9541288357942
20
6.64383873272351
30
0
41
1
10
54.0148914878987
20
6.57962220579029
30
0
41
1
10
54.1364167921076
20
6.40264096822335
30
0
41
1
10
54.1971794442121
20
6.28984963080183
30
0
41
1
10
54.3187047484211
20
6.01470523750987
30
0
41
1
10
54.3794674005255
20
5.85233937753378
30
0
41
1
10
54.5009927047344
20
5.48049452552243
30
0
41
1
10
54.561755356839
20
5.2710226336456
30
0
41
1
10
54.683280661048
20
4.81098145016023
30
0
41
1
10
54.7440433131524
20
4.56043970817106
30
0
41
1
10
54.8655686173613
20
4.02731755507114
30
0
41
1
10
54.9263312694658
20
3.74477911223505
30
0
41
1
10
55.0478565736748
20
3.15869325400482
30
0
41
1
10
55.1086192257793
20
2.85519178180198
30
0
41
1
10
55.2301445299882
20
2.2388190127846
30
0
41
1
10
55.2909071820927
20
1.9259870207224
30
0
41
1
10
55.4124324863016
20
1.30188388663669
30
0
41
1
10
55.4731951384061
20
0.990638462378854
30
0
41
1
10
55.5643391165628
20
0.531859350088268
30
0
41
1
10
55.594720442615
20
0.380265471969324
30
0
41
1
10
55.6402924316934
20
0.155580122546326
30
0
41
1
10
55.6554830947195
20
0.0811347911824214
30
0
41
1
10
55.6858644207717
20
-0.0667521998646805
30
0
41
1
10
55.7010550837979
20
-0.14107342651738
30
0
41
1
10
55.7770083989285
20
-0.515256430066501
30
0
41
1
10
55.837771051033
20
-0.821944176920169
30
0
41
1
10
55.959296355242
20
-1.44193616101722
30
0
41
1
10
56.0200590073464
20
-1.75522269860136
30
0
41
1
10
56.1415843115553
20
-2.3782954730068
30
0
41
1
10
56.2023469636598
20
-2.68804887536049
30
0
41
1
10
56.3238722678688
20
-3.29265425585314
30
0
41
1
10
56.3846349199733
20
-3.58746255589114
30
0
41
1
10
56.5061602241822
20
-4.15066196895185
30
0
41
1
10
56.5669228762866
20
-4.41900763962562
30
0
41
1
10
56.6884481804956
20
-4.91902724433714
30
0
41
1
10
56.7492108326001
20
-5.1506650682569
30
0
41
1
10
56.8707361368091
20
-5.569541887274
30
0
41
1
10
56.9314987889135
20
-5.75676286561878
30
0
41
1
10
57.0530240931224
20
-6.0824478838197
30
0
41
1
10
57.113786745227
20
-6.22091492216703
30
0
41
1
10
57.2353120494359
20
-6.44833306990296
30
0
41
1
10
57.2960747015404
20
-6.53730465974095
30
0
41
1
10
57.4176000057493
20
-6.66820077396503
30
0
41
1
10
57.4783626578537
20
-6.71015560260167
30
0
41
1
10
57.5695066360105
20
-6.74147982396687
30
0
41
1
10
57.5998879620627
20
-6.74666920408865
30
0
41
1
10
57.645459951141
20
-6.74714239326784
30
0
41
1
10
57.6606506141671
20
-6.74608786367082
30
0
41
1
10
57.6910319402194
20
-6.74145925404105
30
0
41
1
10
57.7062226032456
20
-6.73788475332066
30
0
41
1
10
57.7821759183761
20
-6.71347936810091
30
0
41
1
10
57.8429385704806
20
-6.67297747031446
30
0
41
1
10
57.9644638746896
20
-6.54511339189759
30
0
41
1
10
58.0252265267941
20
-6.45772073264601
30
0
41
1
10
58.146751831003
20
-6.23349418929183
30
0
41
1
10
58.2075144831075
20
-6.09663937341909
30
0
41
1
10
58.3290397873164
20
-5.7740995648829
30
0
41
1
10
58.3898024394209
20
-5.58841092050019
30
0
41
1
10
58.5113277436299
20
-5.17240298852883
30
0
41
1
10
58.5720903957343
20
-4.94210104519794
30
0
41
1
10
58.6936156999433
20
-4.44445798262998
30
0
41
1
10
58.7543783520478
20
-4.17715249967617
30
0
41
1
10
58.8759036562567
20
-3.61567393148431
30
0
41
1
10
58.9366663083612
20
-3.32154615955813
30
0
41
1
10
59.0581916125701
20
-2.71792261178999
30
0
41
1
10
59.1189542646745
20
-2.40847073464769
30
0
41
1
10
59.2404795688835
20
-1.78564521535895
30
0
41
1
10
59.301242220988
20
-1.47230485563486
30
0
41
1
10
59.422767525197
20
-0.851905391729616
30
0
41
1
10
59.4835301773014
20
-0.544864491072019
30
0
41
1
10
59.5442928294059
20
-0.245051790668725
30
0
0
SPLINE
5
EE
100
AcDbEntity
8
1
62
256
6
ByLayer
370
13
48
1
60
0
100
AcDbSpline
70
4
71
3
72
84
73
80
40
0
40
0
40
0
40
0
40
0.0312499999999994
40
0.0312499999999994
40
0.0624999999999989
40
0.0624999999999989
40
0.0937499999999983
40
0.0937499999999983
40
0.124999999999998
40
0.124999999999998
40
0.156249999999997
40
0.156249999999997
40
0.187499999999997
40
0.187499999999997
40
0.218749999999996
40
0.218749999999996
40
0.249999999999995
40
0.249999999999995
40
0.281249999999995
40
0.281249999999995
40
0.296874999999995
40
0.296874999999995
40
0.304687499999994
40
0.304687499999994
40
0.312499999999994
40
0.312499999999994
40
0.343749999999994
40
0.343749999999994
40
0.374999999999993
40
0.374999999999993
40
0.406249999999993
40
0.406249999999993
40
0.437499999999992
40
0.437499999999992
40
0.468749999999991
40
0.468749999999991
40
0.499999999999991
40
0.499999999999991
40
0.53124999999999
40
0.53124999999999
40
0.56249999999999
40
0.56249999999999
40
0.593749999999989
40
0.593749999999989
40
0.609374999999989
40
0.609374999999989
40
0.617187499999988
40
0.617187499999988
40
0.621093749999988
40
0.621093749999988
40
0.624999999999989
40
0.624999999999989
40
0.656249999999989
40
0.656249999999989
40
0.68749999999999
40
0.68749999999999
40
0.718749999999991
40
0.718749999999991
40
0.749999999999992
40
0.749999999999992
40
0.781249999999993
40
0.781249999999993
40
0.812499999999994
40
0.812499999999994
40
0.843749999999995
40
0.843749999999995
40
0.874999999999996
40
0.874999999999996
40
0.906249999999997
40
0.906249999999997
40
0.921874999999998
40
0.921874999999998
40
0.929687499999998
40
0.929687499999998
40
0.937499999999998
40
0.937499999999998
40
0.968749999999999
40
0.968749999999999
40
1
40
1
40
1
40
1
41
1
10
53.2083087685859
20
6.74700000000001
30
0
41
1
10
53.2743086025528
20
6.74700000000001
30
0
41
1
10
53.3403084365196
20
6.72399350112053
30
0
41
1
10
53.4723081044534
20
6.62472497729001
30
0
41
1
10
53.5383079384203
20
6.54841480807707
30
0
41
1
10
53.6703076063541
20
6.33800196457588
30
0
41
1
10
53.7363074403209
20
6.20386186695634
30
0
41
1
10
53.8683071082547
20
5.87738823800919
30
0
41
1
10
53.9343069422215
20
5.68504258141479
30
0
41
1
10
54.0663066101552
20
5.24669043588077
30
0
41
1
10
54.1323064441222
20
5.00070574295984
30
0
41
1
10
54.2643061120559
20
4.46442041270407
30
0
41
1
10
54.3303059460228
20
4.17417234486999
30
0
41
1
10
54.4623056139565
20
3.56237695127652
30
0
41
1
10
54.5283054479234
20
3.24089818745148
30
0
41
1
10
54.6603051158572
20
2.5814468798842
30
0
41
1
10
54.726304949824
20
2.24353928918094
30
0
41
1
10
54.8583046177578
20
1.56574593285003
30
0
41
1
10
54.9243044517247
20
1.22590603845296
30
0
41
1
10
55.023304202675
20
0.724045699313649
30
0
41
1
10
55.0563041196584
20
0.558055574488975
30
0
41
1
10
55.1058039951336
20
0.311976673009866
30
0
41
1
10
55.1223039536252
20
0.230433222211559
30
0
41
1
10
55.1553038706087
20
0.0684534462122315
30
0
41
1
10
55.1718038291004
20
-0.0115958918350714
30
0
41
1
10
55.2543036215591
20
-0.41522447006065
30
0
41
1
10
55.320303455526
20
-0.747360502774114
30
0
41
1
10
55.4523031234597
20
-1.42003819676583
30
0
41
1
10
55.5183029574265
20
-1.76055430055752
30
0
41
1
10
55.6503026253603
20
-2.43704545314191
30
0
41
1
10
55.7163024593272
20
-2.77297020067022
30
0
41
1
10
55.8483021272609
20
-3.42559095450801
30
0
41
1
10
55.9143019612278
20
-3.74221988665022
30
0
41
1
10
56.0463016291616
20
-4.34162210180702
30
0
41
1
10
56.1123014631284
20
-4.6243283824993
30
0
41
1
10
56.2443011310621
20
-5.14340211851774
30
0
41
1
10
56.3103009650291
20
-5.3797220392774
30
0
41
1
10
56.4423006329628
20
-5.79747472913562
30
0
41
1
10
56.5083004669296
20
-5.97889234751412
30
0
41
1
10
56.6403001348634
20
-6.28320707336292
30
0
41
1
10
56.7062999688303
20
-6.40612209456316
30
0
41
1
10
56.8382996367641
20
-6.59466213807059
30
0
41
1
10
56.9042994707309
20
-6.66032781393719
30
0
41
1
10
57.0032992216812
20
-6.7197349581599
30
0
41
1
10
57.0362991386646
20
-6.73304866730894
30
0
41
1
10
57.0857990141398
20
-6.74395609081108
30
0
41
1
10
57.1022989726315
20
-6.74608246448929
30
0
41
1
10
57.1270489103691
20
-6.74709997970254
30
0
41
1
10
57.135298889615
20
-6.74707928862722
30
0
41
1
10
57.1517988481067
20
-6.74631680799905
30
0
41
1
10
57.1600488273526
20
-6.74557315258747
30
0
41
1
10
57.2342986405653
20
-6.73554865757285
30
0
41
1
10
57.3002984745322
20
-6.70285567445498
30
0
41
1
10
57.4322981424659
20
-6.58308581764987
30
0
41
1
10
57.4982979764328
20
-6.49596169151874
30
0
41
1
10
57.6302976443666
20
-6.26348982527503
30
0
41
1
10
57.6962974783334
20
-6.118108447125
30
0
41
1
10
57.8282971462671
20
-5.76962654081586
30
0
41
1
10
57.8942969802341
20
-5.56652001010016
30
0
41
1
10
58.0262966481678
20
-5.10808168364085
30
0
41
1
10
58.0922964821347
20
-4.85277821421317
30
0
41
1
10
58.2242961500684
20
-4.30010970758806
30
0
41
1
10
58.2902959840353
20
-4.00280171280565
30
0
41
1
10
58.422295651969
20
-3.3796427835413
30
0
41
1
10
58.4882954859359
20
-3.05386122569595
30
0
41
1
10
58.6202951538697
20
-2.3886616859121
30
0
41
1
10
58.6862949878366
20
-2.04930595422357
30
0
41
1
10
58.8182946557703
20
-1.37120437952018
30
0
41
1
10
58.8842944897372
20
-1.03249975966381
30
0
41
1
10
58.9832942406875
20
-0.533891562492215
30
0
41
1
10
59.0162941576709
20
-0.369242192405551
30
0
41
1
10
59.0657940331461
20
-0.12550247589931
30
0
41
1
10
59.0822939916378
20
-0.0450651236989756
30
0
41
1
10
59.1152939086212
20
0.115843321184912
30
0
41
1
10
59.131793867113
20
0.196882197654418
30
0
41
1
10
59.2142936595716
20
0.604661321953643
30
0
41
1
10
59.2802934935385
20
0.939277271778707
30
0
41
1
10
59.4122931614722
20
1.6146387056333
30
0
41
1
10
59.478292995439
20
1.95535376168593
30
0
41
1
10
59.5442928294059
20
2.29243814643149
30
0
0
SPLINE
5
EF
100
AcDbEntity
8
1
62
256
6
ByLayer
370
13
48
1
60
0
100
AcDbSpline
70
4
71
3
72
8
73
4
40
0
40
0
40
0
40
0
40
1
40
1
40
1
40
1
41
1
10
59.544292829406
20
-6.14653323521477
30
0
41
1
10
60.3628618862707
20
-4.09541117979634
30
0
41
1
10
61.1814309431355
20
-2.04656059257448
30
0
41
1
10
62.0000000000002
20
4.832E-13
30
0
0
SPLINE
5
F0
100
AcDbEntity
8
1
62
256
6
ByLayer
370
13
48
1
60
0
100
AcDbSpline
70
4
71
3
72
8
73
4
40
0
40
0
40
0
40
0
40
1
40
1
40
1
40
1
41
1
10
59.544292829406
20
6.64277066682109
30
0
41
1
10
60.3628618862707
20
4.42754675472705
30
0
41
1
10
61.1814309431353
20
2.21328319022646
30
0
41
1
10
61.9999999999999
20
8.53E-14
30
0
0
SPLINE
5
F1
100
AcDbEntity
8
1
62
256
6
ByLayer
370
13
48
1
60
0
100
AcDbSpline
70
4
71
3
72
8
73
4
40
0
40
0
40
0
40
0
40
1
40
1
40
1
40
1
41
1
10
59.544292829406
20
2.14832884545123
30
0
41
1
10
60.3628618862707
20
1.42698379852016
30
0
41
1
10
61.1814309431353
20
0.710872029384177
30
0
41
1
10
61.9999999999999
20
2.84E-14
30
0
0
SPLINE
5
F2
100
AcDbEntity
8
1
62
256
6
ByLayer
370
13
48
1
60
0
100
AcDbSpline
70
4
71
3
72
8
73
4
40
0
40
0
40
0
40
0
40
1
40
1
40
1
40
1
41
1
10
59.544292829406
20
3.24954243426956
30
0
41
1
10
60.3628618862707
20
2.16152149918642
30
0
41
1
10
61.1814309431353
20
1.07833742656993
30
0
41
1
10
61.9999999999999
20
5.68E-14
30
0
0
SPLINE
5
F3
100
AcDbEntity
8
1
62
256
6
ByLayer
370
13
48
1
60
0
100
AcDbSpline
70
4
71
3
72
8
73
4
40
0
40
0
40
0
40
0
40
1
40
1
40
1
40
1
41
1
10
59.5442928294059
20
6.22338481896739
30
0
41
1
10
60.3628618862706
20
4.15105644356072
30
0
41
1
10
61.1814309431353
20
2.07658858007937
30
0
41
1
10
61.9999999999999
20
8.53E-14
30
0
0
SPLINE
5
F4
100
AcDbEntity
8
1
62
256
6
ByLayer
370
13
48
1
60
0
100
AcDbSpline
70
4
71
3
72
8
73
4
40
0
40
0
40
0
40
0
40
1
40
1
40
1
40
1
41
1
10
59.544292829406
20
0.696998247539113
30
0
41
1
10
60.3628618862707
20
0.470158834884444
30
0
41
1
10
61.1814309431353
20
0.237825379642771
30
0
41
1
10
61.9999999999999
20
0
30
0
0
SPLINE
5
F5
100
AcDbEntity
8
1
62
256
6
ByLayer
370
13
48
1
60
0
100
AcDbSpline
70
4
71
3
72
8
73
4
40
0
40
0
40
0
40
0
40
1
40
1
40
1
40
1
41
1
10
59.544292829406
20
5.81139297123718
30
0
41
1
10
60.3628618862705
20
3.8714561008097
30
0
41
1
10
61.181430943135
20
1.93431927228877
30
0
41
1
10
61.9999999999996
20
1.1653E-12
30
0
0
SPLINE
5
F6
100
AcDbEntity
8
1
62
256
6
ByLayer
370
13
48
1
60
0
100
AcDbSpline
70
4
71
3
72
8
73
4
40
0
40
0
40
0
40
0
40
1
40
1
40
1
40
1
41
1
10
59.544292829406
20
-6.73132687102128
30
0
41
1
10
60.3628618862707
20
-4.48717501929926
30
0
41
1
10
61.1814309431353
20
-2.2433926304652
30
0
41
1
10
61.9999999999999
20
-8.53E-14
30
0
0
SPLINE
5
F7
100
AcDbEntity
8
1
62
256
6
ByLayer
370
13
48
1
60
0
100
AcDbSpline
70
4
71
3
72
8
73
4
40
0
40
0
40
0
40
0
40
1
40
1
40
1
40
1
41
1
10
59.544292829406
20
6.32757127472206
30
0
41
1
10
60.3628618862705
20
4.21646395564147
30
0
41
1
10
61.181430943135
20
2.10726717293034
30
0
41
1
10
61.9999999999996
20
1.2506E-12
30
0
0
SPLINE
5
F8
100
AcDbEntity
8
1
62
256
6
ByLayer
370
13
48
1
60
0
100
AcDbSpline
70
4
71
3
72
8
73
4
40
0
40
0
40
0
40
0
40
1
40
1
40
1
40
1
41
1
10
59.5442928294059
20
6.58715260768815
30
0
41
1
10
60.3628618862706
20
4.392630134824
30
0
41
1
10
61.1814309431353
20
2.19690597709536
30
0
41
1
10
62
20
-5.68E-14
30
0
0
SPLINE
5
F9
100
AcDbEntity
8
1
62
256
6
ByLayer
370
13
48
1
60
0
100
AcDbSpline
70
4
71
3
72
8
73
4
40
0
40
0
40
0
40
0
40
1
40
1
40
1
40
1
41
1
10
59.544292829406
20
-0.221662095019013
30
0
41
1
10
60.3628618862707
20
-0.15329463407727
30
0
41
1
10
61.1814309431353
20
-0.0794070407343099
30
0
41
1
10
61.9999999999999
20
0
30
0
0
SPLINE
5
FA
100
AcDbEntity
8
1
62
256
6
ByLayer
370
13
48
1
60
0
100
AcDbSpline
70
4
71
3
72
8
73
4
40
0
40
0
40
0
40
0
40
1
40
1
40
1
40
1
41
1
10
59.544292829406
20
5.1106308231324
30
0
41
1
10
60.3628618862708
20
3.40348147107468
30
0
41
1
10
61.1814309431356
20
1.69993273038236
30
0
41
1
10
62.0000000000004
20
-8.811E-13
30
0
0
SPLINE
5
FB
100
AcDbEntity
8
1
62
256
6
ByLayer
370
13
48
1
60
0
100
AcDbSpline
70
4
71
3
72
8
73
4
40
0
40
0
40
0
40
0
40
1
40
1
40
1
40
1
41
1
10
59.544292829406
20
-2.56371457031355
30
0
41
1
10
60.3628618862707
20
-1.71425169016499
30
0
41
1
10
61.1814309431353
20
-0.859677584848043
30
0
41
1
10
61.9999999999999
20
-2.84E-14
30
0
0
SPLINE
5
FC
100
AcDbEntity
8
1
62
256
6
ByLayer
370
13
48
1
60
0
100
AcDbSpline
70
4
71
3
72
8
73
4
40
0
40
0
40
0
40
0
40
1
40
1
40
1
40
1
41
1
10
59.544292829406
20
2.99775521569384
30
0
41
1
10
60.3628618862707
20
2.00345128342391
30
0
41
1
10
61.1814309431353
20
1.00419652689521
30
0
41
1
10
61.9999999999999
20
5.68E-14
30
0
0
SPLINE
5
FD
100
AcDbEntity
8
1
62
256
6
ByLayer
370
13
48
1
60
0
100
AcDbSpline
70
4
71
3
72
8
73
4
40
0
40
0
40
0
40
0
40
1
40
1
40
1
40
1
41
1
10
59.544292829406
20
-6.54283820706348
30
0
41
1
10
60.3628618862707
20
-4.36054378876713
30
0
41
1
10
61.1814309431353
20
-2.17959114500937
30
0
41
1
10
61.9999999999999
20
-8.53E-14
30
0
0
SPLINE
5
FE
100
AcDbEntity
8
1
62
256
6
ByLayer
370
13
48
1
60
0
100
AcDbSpline
70
4
71
3
72
8
73
4
40
0
40
0
40
0
40
0
40
1
40
1
40
1
40
1
41
1
10
59.544292829406
20
-1.69160892912672
30
0
41
1
10
60.3628618862707
20
-1.1223928037947
30
0
41
1
10
61.1814309431353
20
-0.558521465919682
30
0
41
1
10
61.9999999999999
20
-2.84E-14
30
0
0
SPLINE
5
FF
100
AcDbEntity
8
1
62
256
6
ByLayer
370
13
48
1
60
0
100
AcDbSpline
70
4
71
3
72
8
73
4
40
0
40
0
40
0
40
0
40
1
40
1
40
1
40
1
41
1
10
59.544292829406
20
-6.02395545343995
30
0
41
1
10
60.3628618862706
20
-4.01845772472288
30
0
41
1
10
61.1814309431352
20
-2.01046651650449
30
0
41
1
10
61.9999999999997
20
-6.537E-13
30
0
0
SPLINE
5
100
100
AcDbEntity
8
1
62
256
6
ByLayer
370
13
48
1
60
0
100
AcDbSpline
70
4
71
3
72
8
73
4
40
0
40
0
40
0
40
0
40
1
40
1
40
1
40
1
41
1
10
59.5442928294059
20
4.92067275355785
30
0
41
1
10
60.3628618862707
20
3.2842271530308
30
0
41
1
10
61.1814309431353
20
1.64399795236514
30
0
41
1
10
62.0000000000001
20
-1.421E-13
30
0
0
SPLINE
5
101
100
AcDbEntity
8
1
62
256
6
ByLayer
370
13
48
1
60
0
100
AcDbSpline
70
4
71
3
72
8
73
4
40
0
40
0
40
0
40
0
40
1
40
1
40
1
40
1
41
1
10
59.5442928294059
20
4.02310575124295
30
0
41
1
10
60.3628618862706
20
2.68650414085096
30
0
41
1
10
61.1814309431353
20
1.3454648424275
30
0
41
1
10
61.9999999999999
20
5.68E-14
30
0
0
SPLINE
5
102
100
AcDbEntity
8
1
62
256
6
ByLayer
370
13
48
1
60
0
100
AcDbSpline
70
4
71
3
72
8
73
4
40
0
40
0
40
0
40
0
40
1
40
1
40
1
40
1
41
1
10
59.544292829406
20
-6.70601237291521
30
0
41
1
10
60.3628618862706
20
-4.47128275836508
30
0
41
1
10
61.1814309431352
20
-2.23593856002066
30
0
41
1
10
61.9999999999997
20
-7.105E-13
30
0
0
SPLINE
5
103
100
AcDbEntity
8
1
62
256
6
ByLayer
370
13
48
1
60
0
100
AcDbSpline
70
4
71
3
72
8
73
4
40
0
40
0
40
0
40
0
40
1
40
1
40
1
40
1
41
1
10
59.544292829406
20
-1.41516282337747
30
0
41
1
10
60.3628618862707
20
-0.948841914954187
30
0
41
1
10
61.1814309431353
20
-0.4771195460456
30
0
41
1
10
61.9999999999999
20
-2.84E-14
30
0
0
SPLINE
5
104
100
AcDbEntity
8
1
62
256
6
ByLayer
370
13
48
1
60
0
100
AcDbSpline
70
4
71
3
72
8
73
4
40
0
40
0
40
0
40
0
40
1
40
1
40
1
40
1
41
1
10
59.544292829406
20
-4.58263444038252
30
0
41
1
10
60.3628618862707
20
-3.0591431120086
30
0
41
1
10
61.1814309431355
20
-1.53159368854813
30
0
41
1
10
62.0000000000002
20
3.695E-13
30
0
0
SPLINE
5
105
100
AcDbEntity
8
1
62
256
6
ByLayer
370
13
48
1
60
0
100
AcDbSpline
70
4
71
3
72
8
73
4
40
0
40
0
40
0
40
0
40
1
40
1
40
1
40
1
41
1
10
59.544292829406
20
4.2475427248749
30
0
41
1
10
60.3628618862707
20
2.8274040683682
30
0
41
1
10
61.1814309431353
20
1.41155222859217
30
0
41
1
10
61.9999999999999
20
5.68E-14
30
0
0
SPLINE
5
106
100
AcDbEntity
8
1
62
256
6
ByLayer
370
13
48
1
60
0
100
AcDbSpline
70
4
71
3
72
8
73
4
40
0
40
0
40
0
40
0
40
1
40
1
40
1
40
1
41
1
10
59.544292829406
20
-6.46769876220606
30
0
41
1
10
60.3628618862706
20
-4.31337178246741
30
0
41
1
10
61.1814309431352
20
-2.15746569291454
30
0
41
1
10
61.9999999999997
20
-6.821E-13
30
0
0
SPLINE
5
107
100
AcDbEntity
8
1
62
256
6
ByLayer
370
13
48
1
60
0
100
AcDbSpline
70
4
71
3
72
8
73
4
40
0
40
0
40
0
40
0
40
1
40
1
40
1
40
1
41
1
10
59.544292829406
20
1.87718875073153
30
0
41
1
10
60.3628618862707
20
1.25676398547066
30
0
41
1
10
61.1814309431353
20
0.631032509832238
30
0
41
1
10
61.9999999999999
20
2.84E-14
30
0
0
SPLINE
5
108
100
AcDbEntity
8
1
62
256
6
ByLayer
370
13
48
1
60
0
100
AcDbSpline
70
4
71
3
72
8
73
4
40
0
40
0
40
0
40
0
40
1
40
1
40
1
40
1
41
1
10
59.544292829406
20
-3.63083656465179
30
0
41
1
10
60.3628618862707
20
-2.42521270082261
30
0
41
1
10
61.1814309431353
20
-1.21493019196996
30
0
41
1
10
61.9999999999999
20
-5.68E-14
30
0
0
SPLINE
5
109
100
AcDbEntity
8
1
62
256
6
ByLayer
370
13
48
1
60
0
100
AcDbSpline
70
4
71
3
72
8
73
4
40
0
40
0
40
0
40
0
40
1
40
1
40
1
40
1
41
1
10
59.544292829406
20
-5.3888768034023
30
0
41
1
10
60.3628618862707
20
-3.59590776626658
30
0
41
1
10
61.1814309431355
20
-1.79961007886007
30
0
41
1
10
62.0000000000002
20
4.263E-13
30
0
0
SPLINE
5
10A
100
AcDbEntity
8
1
62
256
6
ByLayer
370
13
48
1
60
0
100
AcDbSpline
70
4
71
3
72
8
73
4
40
0
40
0
40
0
40
0
40
1
40
1
40
1
40
1
41
1
10
59.544292829406
20
-2.82415768278503
30
0
41
1
10
60.3628618862707
20
-1.87775601423317
30
0
41
1
10
61.1814309431353
20
-0.936367286501451
30
0
41
1
10
61.9999999999999
20
-2.84E-14
30
0
0
SPLINE
5
10B
100
AcDbEntity
8
1
62
256
6
ByLayer
370
13
48
1
60
0
100
AcDbSpline
70
4
71
3
72
8
73
4
40
0
40
0
40
0
40
0
40
1
40
1
40
1
40
1
41
1
10
59.544292829406
20
-4.78702570559233
30
0
41
1
10
60.3628618862707
20
-3.18745848708792
30
0
41
1
10
61.1814309431353
20
-1.59177844444676
30
0
41
1
10
61.9999999999999
20
-5.68E-14
30
0
0
SPLINE
5
10C
100
AcDbEntity
8
1
62
256
6
ByLayer
370
13
48
1
60
0
100
AcDbSpline
70
4
71
3
72
8
73
4
40
0
40
0
40
0
40
0
40
1
40
1
40
1
40
1
41
1
10
59.544292829406
20
-5.55499955636665
30
0
41
1
10
60.3628618862707
20
-3.70019844294478
30
0
41
1
10
61.1814309431353
20
-1.84852634407389
30
0
41
1
10
61.9999999999999
20
-8.53E-14
30
0
0
SPLINE
5
10D
100
AcDbEntity
8
1
62
256
6
ByLayer
370
13
48
1
60
0
100
AcDbSpline
70
4
71
3
72
8
73
4
40
0
40
0
40
0
40
0
40
1
40
1
40
1
40
1
41
1
10
59.544292829406
20
-3.86700438299741
30
0
41
1
10
60.3628618862707
20
-2.57347716878576
30
0
41
1
10
61.1814309431353
20
-1.28447182567717
30
0
41
1
10
61.9999999999999
20
-5.68E-14
30
0
0
SPLINE
5
10E
100
AcDbEntity
8
1
62
256
6
ByLayer
370
13
48
1
60
0
100
AcDbSpline
70
4
71
3
72
8
73
4
40
0
40
0
40
0
40
0
40
1
40
1
40
1
40
1
41
1
10
59.544292829406
20
0.978879155621712
30
0
41
1
10
60.3628618862707
20
0.647121653775713
30
0
41
1
10
61.1814309431353
20
0.320827623539771
30
0
41
1
10
61.9999999999999
20
0
30
0
0
SPLINE
5
10F
100
AcDbEntity
8
1
62
256
6
ByLayer
370
13
48
1
60
0
100
AcDbSpline
70
4
71
3
72
8
73
4
40
0
40
0
40
0
40
0
40
1
40
1
40
1
40
1
41
1
10
59.5442928294059
20
5.66194733175627
30
0
41
1
10
60.3628618862706
20
3.77763519674934
30
0
41
1
10
61.1814309431353
20
1.89031372575445
30
0
41
1
10
62
20
-5.68E-14
30
0
0
SPLINE
5
110
100
AcDbEntity
8
1
62
256
6
ByLayer
370
13
48
1
60
0
100
AcDbSpline
70
4
71
3
72
8
73
4
40
0
40
0
40
0
40
0
40
1
40
1
40
1
40
1
41
1
10
59.5442928294059
20
6.74169655636859
30
0
41
1
10
60.3628618862706
20
4.49468330797885
30
0
41
1
10
61.1814309431353
20
2.24744434634175
30
0
41
1
10
62
20
0
30
0
0
SPLINE
5
111
100
AcDbEntity
8
1
62
256
6
ByLayer
370
13
48
1
60
0
100
AcDbSpline
70
4
71
3
72
8
73
4
40
0
40
0
40
0
40
0
40
1
40
1
40
1
40
1
41
1
10
59.544292829406
20
-0.505330599568595
30
0
41
1
10
60.3628618862707
20
-0.331379693250739
30
0
41
1
10
61.1814309431353
20
-0.162935657697659
30
0
41
1
10
61.9999999999999
20
0
30
0
0
LINE
5
7D
100
AcDbEntity
8
4
62
256
6
ByLayer
370
18
48
0.05
60
0
100
AcDbLine
10
-5
20
0
30
0
11
67
21
0
31
0
39
0
210
0
220
0
230
1
0
LINE
5
7F
100
AcDbEntity
8
81
62
256
6
ByLayer
370
18
48
1
60
0
100
AcDbLine
10
62
20
0
30
0
11
67
21
0
31
0
39
0
210
0
220
0
230
1
0
LINE
5
80
100
AcDbEntity
8
SK4
62
256
6
ByLayer
370
18
48
0.05
60
0
100
AcDbLine
10
-53
20
0
30
0
11
67
21
0
31
0
39
0
210
0
220
0
230
1
0
LINE
5
82
100
AcDbEntity
8
80
62
256
6
ByLayer
370
18
48
1
60
0
100
AcDbLine
10
0
20
0
30
0
11
-5
21
0
31
0
39
0
210
0
220
0
230
1
0
LINE
5
83
100
AcDbEntity
8
1
62
256
6
ByLayer
370
18
48
1
60
0
100
AcDbLine
10
10
20
-6.65
30
0
11
27.666609
21
-6.65
31
0
39
0
210
0
220
0
230
1
0
LINE
5
84
100
AcDbEntity
8
1
62
256
6
ByLayer
370
18
48
1
60
0
100
AcDbLine
10
27.666609
20
6.65
30
0
11
10
21
6.65
31
0
39
0
210
0
220
0
230
1
0
LINE
5
85
100
AcDbEntity
8
1
62
256
6
ByLayer
370
18
48
1
60
0
100
AcDbLine
10
62
20
0
30
0
11
59.544293
21
6.747
31
0
39
0
210
0
220
0
230
1
0
LINE
5
86
100
AcDbEntity
8
1
62
256
6
ByLayer
370
18
48
1
60
0
100
AcDbLine
10
59.544293
20
-6.747
30
0
11
62
21
0
31
0
39
0
210
0
220
0
230
1
0
LINE
5
87
100
AcDbEntity
8
1
62
256
6
ByLayer
370
18
48
1
60
0
100
AcDbLine
10
10
20
6.65
30
0
11
0
21
7.9375
31
0
39
0
210
0
220
0
230
1
0
LINE
5
88
100
AcDbEntity
8
1
62
256
6
ByLayer
370
18
48
1
60
0
100
AcDbLine
10
0
20
-7.9375
30
0
11
10
21
-6.65
31
0
39
0
210
0
220
0
230
1
0
LINE
5
89
100
AcDbEntity
8
1
62
256
6
ByLayer
370
18
48
1
60
0
100
AcDbLine
10
51.7
20
-6.747
30
0
11
59.544293
21
-6.747
31
0
39
0
210
0
220
0
230
1
0
LINE
5
8A
100
AcDbEntity
8
1
62
256
6
ByLayer
370
18
48
1
60
0
100
AcDbLine
10
62
20
0
30
0
11
59.544293
21
6.747
31
0
39
0
210
0
220
0
230
1
0
LINE
5
8B
100
AcDbEntity
8
1
62
256
6
ByLayer
370
18
48
1
60
0
100
AcDbLine
10
59.544293
20
-6.747
30
0
11
62
21
0
31
0
39
0
210
0
220
0
230
1
0
LINE
5
8C
100
AcDbEntity
8
SK1
62
256
6
ByLayer
370
18
48
1
60
0
100
AcDbLine
10
-48
20
-6.9375
30
0
11
-47
21
-7.9375
31
0
39
0
210
0
220
0
230
1
0
LINE
5
8E
100
AcDbEntity
8
SK1
62
256
6
ByLayer
370
18
48
1
60
0
100
AcDbLine
10
-47
20
7.9375
30
0
11
-48
21
6.9375
31
0
39
0
210
0
220
0
230
1
0
LINE
5
8F
100
AcDbEntity
8
SK1
62
256
6
ByLayer
370
18
48
1
60
0
100
AcDbLine
10
-47
20
-7.9375
30
0
11
0
21
-7.9375
31
0
39
0
210
0
220
0
230
1
0
LINE
5
90
100
AcDbEntity
8
SK1
62
256
6
ByLayer
370
18
48
1
60
0
100
AcDbLine
10
0
20
7.9375
30
0
11
-47
21
7.9375
31
0
39
0
210
0
220
0
230
1
0
LINE
5
91
100
AcDbEntity
8
1
62
256
6
ByLayer
370
18
48
1
60
0
100
AcDbLine
10
0
20
7.9375
30
0
11
0
21
-7.9375
31
0
39
0
210
0
220
0
230
1
0
LINE
5
92
100
AcDbEntity
8
1
62
256
6
ByLayer
370
18
48
1
60
0
100
AcDbLine
10
59.544293
20
6.747
30
0
11
59.544293
21
6.532776
31
0
39
0
210
0
220
0
230
1
0
LINE
5
93
100
AcDbEntity
8
1
62
256
6
ByLayer
370
18
48
1
60
0
100
AcDbLine
10
59.544293
20
-6.747
30
0
11
59.544293
21
-0.963112
31
0
39
0
210
0
220
0
230
1
0
LINE
5
94
100
AcDbEntity
8
1
62
256
6
ByLayer
370
18
48
1
60
0
100
AcDbLine
10
10
20
-6.65
30
0
11
10
21
-3.767391
31
0
39
0
210
0
220
0
230
1
0
LINE
5
95
100
AcDbEntity
8
1
62
256
6
ByLayer
370
18
48
1
60
0
100
AcDbLine
10
10
20
6.65
30
0
11
10
21
4.463107
31
0
39
0
210
0
220
0
230
1
0
LINE
5
96
100
AcDbEntity
8
SK1
62
256
6
ByLayer
370
18
48
1
60
0
100
AcDbLine
10
-8.796218
20
-4.876987
30
0
11
-8.796218
21
4.876987
31
0
39
0
210
0
220
0
230
1
0
LINE
5
97
100
AcDbEntity
8
SK1
62
256
6
ByLayer
370
18
48
1
60
0
100
AcDbLine
10
-48
20
-6.9375
30
0
11
-48
21
6.9375
31
0
39
0
210
0
220
0
230
1
0
LINE
5
98
100
AcDbEntity
8
SK1
62
256
6
ByLayer
370
18
48
1
60
0
100
AcDbLine
10
0
20
7.9375
30
0
11
0
21
-7.9375
31
0
39
0
210
0
220
0
230
1
0
LINE
5
99
100
AcDbEntity
8
SK1
62
256
6
ByLayer
370
18
48
1
60
0
100
AcDbLine
10
-47
20
-7.9375
30
0
11
-47
21
7.9375
31
0
39
0
210
0
220
0
230
1
0
LINE
5
9A
100
AcDbEntity
8
SK1
62
256
6
ByLayer
370
18
48
1
60
0
100
AcDbLine
10
-8.796218
20
-4.876987
30
0
11
-39.438037
21
-4.876987
31
0
39
0
210
0
220
0
230
1
0
LINE
5
9B
100
AcDbEntity
8
SK1
62
256
6
ByLayer
370
18
48
1
60
0
100
AcDbLine
10
-39.438037
20
4.876987
30
0
11
-8.796218
21
4.876987
31
0
39
0
210
0
220
0
230
1
0
LINE
5
9C
100
AcDbEntity
8
SK1
62
256
6
ByLayer
370
18
48
1
60
0
100
AcDbLine
10
-39.438037
20
-4.876987
30
0
11
-39.438037
21
4.876987
31
0
39
0
210
0
220
0
230
1
0
LINE
5
9D
100
AcDbEntity
8
1
62
256
6
ByLayer
370
18
48
1
60
0
100
AcDbLine
10
59.544293
20
6.747
30
0
11
59.544293
21
-6.747
31
0
39
0
210
0
220
0
230
1
0
LINE
5
9E
100
AcDbEntity
8
1
62
256
6
ByLayer
370
18
48
1
60
0
100
AcDbLine
10
59.544293
20
6.747
30
0
11
59.544293
21
-6.747
31
0
39
0
210
0
220
0
230
1
0
LINE
5
9F
100
AcDbEntity
8
1
62
256
6
ByLayer
370
18
48
1
60
0
100
AcDbLine
10
59.544293
20
6.747
30
0
11
59.544293
21
-6.747
31
0
39
0
210
0
220
0
230
1
0
LINE
5
A0
100
AcDbEntity
8
1
62
256
6
ByLayer
370
18
48
1
60
0
100
AcDbLine
10
51.7
20
6.747
30
0
11
51.7
21
-6.747
31
0
39
0
210
0
220
0
230
1
0
LINE
5
A1
100
AcDbEntity
8
1
62
256
6
ByLayer
370
18
48
1
60
0
100
AcDbLine
10
51.7
20
6.747
30
0
11
51.7
21
-6.747
31
0
39
0
210
0
220
0
230
1
0
LINE
5
A2
100
AcDbEntity
8
1
62
256
6
ByLayer
370
18
48
1
60
0
100
AcDbLine
10
59.544293
20
6.747
30
0
11
59.544293
21
-6.747
31
0
39
0
210
0
220
0
230
1
0
LINE
5
A3
100
AcDbEntity
8
1
62
256
6
ByLayer
370
18
48
1
60
0
100
AcDbLine
10
51.7
20
6.747
30
0
11
51.7
21
-6.747
31
0
39
0
210
0
220
0
230
1
0
LINE
5
A4
100
AcDbEntity
8
1
62
256
6
ByLayer
370
18
48
1
60
0
100
AcDbLine
10
59.544293
20
6.747
30
0
11
59.544293
21
-6.747
31
0
39
0
210
0
220
0
230
1
0
LINE
5
A5
100
AcDbEntity
8
SK2
62
256
6
ByLayer
370
13
48
1
60
0
100
AcDbLine
10
-54.5
20
-7.9375
30
0
11
-54.5
21
36.212183
31
0
39
0
210
0
220
0
230
1
0
LINE
5
A7
100
AcDbEntity
8
SK2
62
256
6
ByLayer
370
13
48
1
60
0
100
AcDbLine
10
-49.5875
20
7.9375
30
0
11
-56.5
21
7.9375
31
0
39
0
210
0
220
0
230
1
0
LINE
5
A8
100
AcDbEntity
8
SK2
62
256
6
ByLayer
370
13
48
1
60
0
100
AcDbLine
10
-49.5875
20
-7.9375
30
0
11
-56.5
21
-7.9375
31
0
39
0
210
0
220
0
230
1
0
LINE
5
A9
100
AcDbEntity
8
1
62
256
6
ByLayer
370
18
48
1
60
1
100
AcDbLine
10
-54.5
20
7.9375
30
0
11
-54.039216
21
4.437502
31
0
39
0
210
0
220
0
230
1
0
LINE
5
AA
100
AcDbEntity
8
1
62
256
6
ByLayer
370
18
48
1
60
1
100
AcDbLine
10
-54.039216
20
4.437502
30
0
11
-54.960784
21
4.437498
31
0
39
0
210
0
220
0
230
1
0
LINE
5
AB
100
AcDbEntity
8
1
62
256
6
ByLayer
370
18
48
1
60
1
100
AcDbLine
10
-54.960784
20
4.437498
30
0
11
-54.5
21
7.9375
31
0
39
0
210
0
220
0
230
1
0
LINE
5
AC
100
AcDbEntity
8
1
62
256
6
ByLayer
370
18
48
1
60
1
100
AcDbLine
10
-54.5
20
-7.9375
30
0
11
-54.960784
21
-4.437502
31
0
39
0
210
0
220
0
230
1
0
LINE
5
AD
100
AcDbEntity
8
1
62
256
6
ByLayer
370
18
48
1
60
1
100
AcDbLine
10
-54.960784
20
-4.437502
30
0
11
-54.039216
21
-4.437498
31
0
39
0
210
0
220
0
230
1
0
LINE
5
AE
100
AcDbEntity
8
1
62
256
6
ByLayer
370
18
48
1
60
1
100
AcDbLine
10
-54.039216
20
-4.437498
30
0
11
-54.5
21
-7.9375
31
0
39
0
210
0
220
0
230
1
0
LINE
5
AF
100
AcDbEntity
8
2
62
256
6
ByLayer
370
13
48
1
60
0
100
AcDbLine
10
69.5
20
-6.747
30
0
11
69.5
21
35.653455
31
0
39
0
210
0
220
0
230
1
0
LINE
5
B1
100
AcDbEntity
8
2
62
256
6
ByLayer
370
13
48
1
60
0
100
AcDbLine
10
61.131793
20
6.747
30
0
11
71.5
21
6.747
31
0
39
0
210
0
220
0
230
1
0
LINE
5
B2
100
AcDbEntity
8
2
62
256
6
ByLayer
370
13
48
1
60
0
100
AcDbLine
10
61.131793
20
-6.747
30
0
11
71.5
21
-6.747
31
0
39
0
210
0
220
0
230
1
0
LINE
5
B3
100
AcDbEntity
8
1
62
256
6
ByLayer
370
18
48
1
60
1
100
AcDbLine
10
69.5
20
6.747
30
0
11
69.960784
21
3.247002
31
0
39
0
210
0
220
0
230
1
0
LINE
5
B4
100
AcDbEntity
8
1
62
256
6
ByLayer
370
18
48
1
60
1
100
AcDbLine
10
69.960784
20
3.247002
30
0
11
69.039216
21
3.246998
31
0
39
0
210
0
220
0
230
1
0
LINE
5
B5
100
AcDbEntity
8
1
62
256
6
ByLayer
370
18
48
1
60
1
100
AcDbLine
10
69.039216
20
3.246998
30
0
11
69.5
21
6.747
31
0
39
0
210
0
220
0
230
1
0
LINE
5
B6
100
AcDbEntity
8
1
62
256
6
ByLayer
370
18
48
1
60
1
100
AcDbLine
10
69.5
20
-6.747
30
0
11
69.039216
21
-3.247002
31
0
39
0
210
0
220
0
230
1
0
LINE
5
B7
100
AcDbEntity
8
1
62
256
6
ByLayer
370
18
48
1
60
1
100
AcDbLine
10
69.039216
20
-3.247002
30
0
11
69.960784
21
-3.246998
31
0
39
0
210
0
220
0
230
1
0
LINE
5
B8
100
AcDbEntity
8
1
62
256
6
ByLayer
370
18
48
1
60
1
100
AcDbLine
10
69.960784
20
-3.246998
30
0
11
69.5
21
-6.747
31
0
39
0
210
0
220
0
230
1
0
LINE
5
B9
100
AcDbEntity
8
SK2
62
256
6
ByLayer
370
13
48
1
60
0
100
AcDbLine
10
62.542957
20
-1.491762
30
0
11
69.182423
21
-19.733545
31
0
39
0
210
0
220
0
230
1
0
LINE
5
BA
100
AcDbEntity
8
SK2
62
256
6
ByLayer
370
13
48
1
60
0
100
AcDbLine
10
62.542957
20
1.491762
30
0
11
69.182423
21
19.733545
31
0
39
0
210
0
220
0
230
1
0
LINE
5
BB
100
AcDbEntity
8
1
62
256
6
ByLayer
370
18
48
1
60
1
100
AcDbLine
10
68.498383
20
-17.85416
30
0
11
71.551575
21
-16.082064
31
0
39
0
210
0
220
0
230
1
0
LINE
5
BC
100
AcDbEntity
8
1
62
256
6
ByLayer
370
18
48
1
60
1
100
AcDbLine
10
71.551575
20
-16.082064
30
0
11
71.906196
21
-16.93267
31
0
39
0
210
0
220
0
230
1
0
LINE
5
BD
100
AcDbEntity
8
1
62
256
6
ByLayer
370
18
48
1
60
1
100
AcDbLine
10
71.906196
20
-16.93267
30
0
11
68.498383
21
-17.85416
31
0
39
0
210
0
220
0
230
1
0
LINE
5
BE
100
AcDbEntity
8
1
62
256
6
ByLayer
370
18
48
1
60
1
100
AcDbLine
10
68.498383
20
17.85416
30
0
11
71.906193
21
16.932671
31
0
39
0
210
0
220
0
230
1
0
LINE
5
BF
100
AcDbEntity
8
1
62
256
6
ByLayer
370
18
48
1
60
1
100
AcDbLine
10
71.906193
20
16.932671
30
0
11
71.551579
21
16.082063
31
0
39
0
210
0
220
0
230
1
0
LINE
5
C0
100
AcDbEntity
8
1
62
256
6
ByLayer
370
18
48
1
60
1
100
AcDbLine
10
71.551579
20
16.082063
30
0
11
68.498383
21
17.85416
31
0
39
0
210
0
220
0
230
1
0
LINE
5
116
100
AcDbEntity
8
1
62
256
6
ByLayer
370
18
48
1
60
1
100
AcDbLine
10
-54.5
20
7.9375
30
0
11
-54.039216
21
4.437502
31
0
39
0
210
0
220
0
230
1
0
LINE
5
117
100
AcDbEntity
8
1
62
256
6
ByLayer
370
18
48
1
60
1
100
AcDbLine
10
-54.039216
20
4.437502
30
0
11
-54.960784
21
4.437498
31
0
39
0
210
0
220
0
230
1
0
LINE
5
118
100
AcDbEntity
8
1
62
256
6
ByLayer
370
18
48
1
60
1
100
AcDbLine
10
-54.960784
20
4.437498
30
0
11
-54.5
21
7.9375
31
0
39
0
210
0
220
0
230
1
0
LINE
5
11A
100
AcDbEntity
8
1
62
256
6
ByLayer
370
18
48
1
60
1
100
AcDbLine
10
-54.5
20
-7.9375
30
0
11
-54.960784
21
-4.437502
31
0
39
0
210
0
220
0
230
1
0
LINE
5
11B
100
AcDbEntity
8
1
62
256
6
ByLayer
370
18
48
1
60
1
100
AcDbLine
10
-54.960784
20
-4.437502
30
0
11
-54.039216
21
-4.437498
31
0
39
0
210
0
220
0
230
1
0
LINE
5
11C
100
AcDbEntity
8
1
62
256
6
ByLayer
370
18
48
1
60
1
100
AcDbLine
10
-54.039216
20
-4.437498
30
0
11
-54.5
21
-7.9375
31
0
39
0
210
0
220
0
230
1
0
LINE
5
120
100
AcDbEntity
8
1
62
256
6
ByLayer
370
18
48
1
60
1
100
AcDbLine
10
69.5
20
6.747
30
0
11
69.960784
21
3.247002
31
0
39
0
210
0
220
0
230
1
0
LINE
5
121
100
AcDbEntity
8
1
62
256
6
ByLayer
370
18
48
1
60
1
100
AcDbLine
10
69.960784
20
3.247002
30
0
11
69.039216
21
3.246998
31
0
39
0
210
0
220
0
230
1
0
LINE
5
122
100
AcDbEntity
8
1
62
256
6
ByLayer
370
18
48
1
60
1
100
AcDbLine
10
69.039216
20
3.246998
30
0
11
69.5
21
6.747
31
0
39
0
210
0
220
0
230
1
0
LINE
5
124
100
AcDbEntity
8
1
62
256
6
ByLayer
370
18
48
1
60
1
100
AcDbLine
10
69.5
20
-6.747
30
0
11
69.039216
21
-3.247002
31
0
39
0
210
0
220
0
230
1
0
LINE
5
125
100
AcDbEntity
8
1
62
256
6
ByLayer
370
18
48
1
60
1
100
AcDbLine
10
69.039216
20
-3.247002
30
0
11
69.960784
21
-3.246998
31
0
39
0
210
0
220
0
230
1
0
LINE
5
126
100
AcDbEntity
8
1
62
256
6
ByLayer
370
18
48
1
60
1
100
AcDbLine
10
69.960784
20
-3.246998
30
0
11
69.5
21
-6.747
31
0
39
0
210
0
220
0
230
1
0
LINE
5
129
100
AcDbEntity
8
1
62
256
6
ByLayer
370
18
48
1
60
1
100
AcDbLine
10
68.498383
20
-17.85416
30
0
11
71.551575
21
-16.082064
31
0
39
0
210
0
220
0
230
1
0
LINE
5
12A
100
AcDbEntity
8
1
62
256
6
ByLayer
370
18
48
1
60
1
100
AcDbLine
10
71.551575
20
-16.082064
30
0
11
71.906196
21
-16.93267
31
0
39
0
210
0
220
0
230
1
0
LINE
5
12B
100
AcDbEntity
8
1
62
256
6
ByLayer
370
18
48
1
60
1
100
AcDbLine
10
71.906196
20
-16.93267
30
0
11
68.498383
21
-17.85416
31
0
39
0
210
0
220
0
230
1
0
LINE
5
12D
100
AcDbEntity
8
1
62
256
6
ByLayer
370
18
48
1
60
1
100
AcDbLine
10
68.498383
20
17.85416
30
0
11
71.906193
21
16.932671
31
0
39
0
210
0
220
0
230
1
0
LINE
5
12E
100
AcDbEntity
8
1
62
256
6
ByLayer
370
18
48
1
60
1
100
AcDbLine
10
71.906193
20
16.932671
30
0
11
71.551579
21
16.082063
31
0
39
0
210
0
220
0
230
1
0
LINE
5
12F
100
AcDbEntity
8
1
62
256
6
ByLayer
370
18
48
1
60
1
100
AcDbLine
10
71.551579
20
16.082063
30
0
11
68.498383
21
17.85416
31
0
39
0
210
0
220
0
230
1
0
MTEXT
5
112
100
AcDbEntity
8
SK2
62
256
6
ByLayer
370
18
48
1
60
0
100
AcDbMText
10
-55.841114
20
19.595938
30
0
210
0
220
0
230
1
1
%%c
40
3
41
0
44
1.084337
50
90
71
7
72
5
7
iso_b_vert
0
MTEXT
5
115
100
AcDbEntity
8
SK2
62
256
6
ByLayer
370
18
48
1
60
0
100
AcDbMText
10
-55.841114
20
25.5725
30
0
210
0
220
0
230
1
1
\W0.7022;15.875
40
3
41
0
44
1.084337
50
90
71
7
72
5
7
iso_b_vert
0
MTEXT
5
11E
100
AcDbEntity
8
2
62
256
6
ByLayer
370
18
48
1
60
0
100
AcDbMText
10
68.158886
20
18.405438
30
0
210
0
220
0
230
1
1
%%c
40
3
41
0
44
1.084337
50
90
71
7
72
5
7
iso_b_vert
0
MTEXT
5
11F
100
AcDbEntity
8
2
62
256
6
ByLayer
370
18
48
1
60
0
100
AcDbMText
10
68.158886
20
24.382
30
0
210
0
220
0
230
1
1
\W0.7383;13.494
40
3
41
0
44
1.084337
50
90
71
7
72
5
7
iso_b_vert
0
MTEXT
5
128
100
AcDbEntity
8
SK2
62
256
6
ByLayer
370
18
48
1
60
0
100
AcDbMText
10
81.909114
20
3.734657
30
0
210
0
220
0
230
1
1
\W0.7071;140%%d
40
3
41
0
44
1.084337
50
270
71
7
72
5
7
iso_b_vert
0
MTEXT
5
131
100
AcDbEntity
8
SK6
62
256
6
ByLayer
370
18
48
1
60
0
100
AcDbMText
10
-20.476626
20
-67.114886
30
0
210
0
220
0
230
1
1
\W0.7564;H85317/32
40
3
41
0
44
1.084337
50
0
71
7
72
5
7
iso_b_vert
0
HATCH
5
119
100
AcDbEntity
8
SK2
62
256
6
ByLayer
370
13
48
1
60
0
100
AcDbHatch
10
0
20
0
30
0
210
0
220
0
230
1
2
ANSI31
70
0
71
0
91
1
92
5
93
3
72
1
10
-54.5
20
7.9375
11
-54.0392162584472
21
4.43750169255318
72
1
10
-54.0392162584472
20
4.43750169255318
11
-54.9607837415528
21
4.43749830744682
72
1
10
-54.9607837415528
20
4.43749830744682
11
-54.5
21
7.9375
97
0
75
0
76
1
52
0
41
0.0062
77
0
78
1
53
45
43
0
44
0
45
-0.0139193969876572
46
0.0139193969876572
79
0
47
0
98
1
10
0
20
0
0
HATCH
5
11D
100
AcDbEntity
8
SK2
62
256
6
ByLayer
370
13
48
1
60
0
100
AcDbHatch
10
0
20
0
30
0
210
0
220
0
230
1
2
ANSI31
70
0
71
0
91
1
92
5
93
3
72
1
10
-54.5
20
-7.9375
11
-54.9607837415528
21
-4.43750169255318
72
1
10
-54.9607837415528
20
-4.43750169255318
11
-54.0392162584472
21
-4.43749830744682
72
1
10
-54.0392162584472
20
-4.43749830744682
11
-54.5
21
-7.9375
97
0
75
0
76
1
52
0
41
0.0062
77
0
78
1
53
45
43
0
44
0
45
-0.0139193969876572
46
0.0139193969876572
79
0
47
0
98
1
10
0
20
0
0
HATCH
5
123
100
AcDbEntity
8
2
62
256
6
ByLayer
370
13
48
1
60
0
100
AcDbHatch
10
0
20
0
30
0
210
0
220
0
230
1
2
ANSI31
70
0
71
0
91
1
92
5
93
3
72
1
10
69.5
20
6.74700000000001
11
69.9607837415528
21
3.2470016925532
72
1
10
69.9607837415528
20
3.2470016925532
11
69.0392162584472
21
3.24699830744683
72
1
10
69.0392162584472
20
3.24699830744683
11
69.5
21
6.74700000000001
97
0
75
0
76
1
52
0
41
0.0062
77
0
78
1
53
45
43
0
44
0
45
-0.0139193969876572
46
0.0139193969876572
79
0
47
0
98
1
10
0
20
0
0
HATCH
5
127
100
AcDbEntity
8
2
62
256
6
ByLayer
370
13
48
1
60
0
100
AcDbHatch
10
0
20
0
30
0
210
0
220
0
230
1
2
ANSI31
70
0
71
0
91
1
92
5
93
3
72
1
10
69.5
20
-6.74700000000001
11
69.0392162584472
21
-3.2470016925532
72
1
10
69.0392162584472
20
-3.2470016925532
11
69.9607837415528
21
-3.24699830744683
72
1
10
69.9607837415528
20
-3.24699830744683
11
69.5
21
-6.74700000000001
97
0
75
0
76
1
52
0
41
0.0062
77
0
78
1
53
45
43
0
44
0
45
-0.0139193969876572
46
0.0139193969876572
79
0
47
0
98
1
10
0
20
0
0
HATCH
5
12C
100
AcDbEntity
8
SK2
62
256
6
ByLayer
370
13
48
1
60
0
100
AcDbHatch
10
0
20
0
30
0
210
0
220
0
230
1
2
ANSI31
70
0
71
0
91
1
92
5
93
3
72
1
10
68.4983827231877
20
-17.8541597949322
11
71.5515754256929
21
-16.0820638240607
72
1
10
71.5515754256929
20
-16.0820638240607
11
71.9061958339751
21
-16.9326700737196
72
1
10
71.9061958339751
20
-16.9326700737196
11
68.4983827231877
21
-17.8541597949322
97
0
75
0
76
1
52
0
41
0.0062
77
0
78
1
53
45
43
0
44
0
45
-0.0139193969876572
46
0.0139193969876572
79
0
47
0
98
1
10
0
20
0
0
HATCH
5
130
100
AcDbEntity
8
SK2
62
256
6
ByLayer
370
13
48
1
60
0
100
AcDbHatch
10
0
20
0
30
0
210
0
220
0
230
1
2
ANSI31
70
0
71
0
91
1
92
5
93
3
72
1
10
68.4983827231877
20
17.8541597949322
11
71.9061927095191
21
16.9326713763016
72
1
10
71.9061927095191
20
16.9326713763016
11
71.5515785501489
21
16.0820625214788
72
1
10
71.5515785501489
20
16.0820625214788
11
68.4983827231877
21
17.8541597949322
97
0
75
0
76
1
52
0
41
0.0062
77
0
78
1
53
45
43
0
44
0
45
-0.0139193969876572
46
0.0139193969876572
79
0
47
0
98
1
10
0
20
0
0
DIMENSION
5
134
100
AcDbEntity
8
SK2
62
256
6
ByLayer
370
18
48
1
60
0
100
AcDbDimension
2
_U0
10
62
20
-45.952229
30
0
11
7
21
-45.952229
31
0
70
32
71
1
72
1
41
1
210
0
220
0
230
1
3
Standard
100
AcDbAlignedDimension
13
-48
23
-7.9375
33
0
14
62
24
0
34
0
50
0
100
AcDbRotatedDimension
1001
ACAD
1000
DSTYLE
1002
{
1070
   371
1070
    13
1070
   372
1070
    13
1070
     3
1000

1070
   170
1070
     0
1070
   144
1040
1.0
1070
   277
1070
     2
1070
   284
1070
     8
1070
   278
1070
    46
1070
   146
1040
1.166667
1070
   345
1005
16
1070
   347
1005
16
1070
   346
1005
16
1070
   344
1005
0
1070
   343
1005
0
1070
   172
1070
     1
1070
    76
1070
     0
1070
    75
1070
     0
1070
   282
1070
     0
1070
   281
1070
     0
1070
    71
1070
     0
1070
    74
1070
     0
1070
   279
1070
     0
1070
   173
1070
     1
1070
   340
1005
113
1070
   271
1070
     2
1070
   272
1070
     3
1070
    77
1070
     1
1070
    73
1070
     1
1070
   171
1070
     3
1070
   274
1070
     4
1070
   177
1070
     2
1070
   176
1070
     2
1070
   178
1070
     2
1070
    78
1070
     8
1070
    48
1040
-0.1
1070
    41
1040
3.5
1070
   147
1040
1.5
1070
    42
1040
1.5875
1070
    44
1040
2.0
1070
   140
1040
3.0
1002
}
1001
ACAD_DSTYLE_DIM_LINETYPE
1070
   380
1005
16
1001
ACAD_DSTYLE_DIM_EXT1_LINETYPE
1070
   381
1005
16
1001
ACAD_DSTYLE_DIM_EXT2_LINETYPE
1070
   382
1005
16
0
DIMENSION
5
14D
100
AcDbEntity
8
SK2
62
256
6
ByLayer
370
18
48
1
60
0
100
AcDbDimension
2
_U1
10
3
20
-35.952229
30
0
11
32.5
21
-35.952229
31
0
70
32
71
1
72
1
41
1
210
0
220
0
230
1
3
Standard
100
AcDbAlignedDimension
13
62
23
0
33
0
14
3
24
-6.747
34
0
50
0
100
AcDbRotatedDimension
1001
ACAD
1000
DSTYLE
1002
{
1070
   371
1070
    13
1070
   372
1070
    13
1070
     3
1000

1070
   170
1070
     0
1070
   144
1040
1.0
1070
   277
1070
     2
1070
   284
1070
     8
1070
   278
1070
    46
1070
   146
1040
1.166667
1070
   345
1005
16
1070
   347
1005
16
1070
   346
1005
16
1070
   344
1005
0
1070
   343
1005
0
1070
   172
1070
     1
1070
    76
1070
     0
1070
    75
1070
     0
1070
   282
1070
     0
1070
   281
1070
     0
1070
    71
1070
     0
1070
    74
1070
     0
1070
   279
1070
     0
1070
   173
1070
     1
1070
   340
1005
113
1070
   271
1070
     2
1070
   272
1070
     3
1070
    77
1070
     1
1070
    73
1070
     1
1070
   171
1070
     3
1070
   274
1070
     4
1070
   177
1070
     2
1070
   176
1070
     2
1070
   178
1070
     2
1070
    78
1070
     8
1070
    48
1040
-0.1
1070
    41
1040
3.5
1070
   147
1040
1.5
1070
    42
1040
1.5875
1070
    44
1040
2.0
1070
   140
1040
3.0
1002
}
1001
ACAD_DSTYLE_DIM_LINETYPE
1070
   380
1005
16
1001
ACAD_DSTYLE_DIM_EXT1_LINETYPE
1070
   381
1005
16
1001
ACAD_DSTYLE_DIM_EXT2_LINETYPE
1070
   382
1005
16
0
DIMENSION
5
165
100
AcDbEntity
8
SK2
62
256
6
ByLayer
370
18
48
1
60
0
100
AcDbDimension
2
_U2
10
0
20
-35.952229
30
0
11
-24
21
-35.952229
31
0
70
32
71
1
72
1
41
1
210
0
220
0
230
1
3
Standard
100
AcDbAlignedDimension
13
-48
23
-7.9375
33
0
14
0
24
-7.9375
34
0
50
0
100
AcDbRotatedDimension
1001
ACAD
1000
DSTYLE
1002
{
1070
   371
1070
    13
1070
   372
1070
    13
1070
     3
1000

1070
   170
1070
     0
1070
   144
1040
1.0
1070
   277
1070
     2
1070
   284
1070
     8
1070
   278
1070
    46
1070
   146
1040
1.166667
1070
   345
1005
16
1070
   347
1005
16
1070
   346
1005
16
1070
   344
1005
0
1070
   343
1005
0
1070
   172
1070
     1
1070
    76
1070
     0
1070
    75
1070
     0
1070
   282
1070
     0
1070
   281
1070
     0
1070
    71
1070
     0
1070
    74
1070
     0
1070
   279
1070
     0
1070
   173
1070
     1
1070
   340
1005
113
1070
   271
1070
     2
1070
   272
1070
     3
1070
    77
1070
     1
1070
    73
1070
     1
1070
   171
1070
     3
1070
   274
1070
     4
1070
   177
1070
     2
1070
   176
1070
     2
1070
   178
1070
     2
1070
    78
1070
     8
1070
    48
1040
-0.1
1070
    41
1040
3.5
1070
   147
1040
1.5
1070
    42
1040
1.5875
1070
    44
1040
2.0
1070
   140
1040
3.0
1002
}
1001
ACAD_DSTYLE_DIM_LINETYPE
1070
   380
1005
16
1001
ACAD_DSTYLE_DIM_EXT1_LINETYPE
1070
   381
1005
16
1001
ACAD_DSTYLE_DIM_EXT2_LINETYPE
1070
   382
1005
16
0
DIMENSION
5
17D
100
AcDbEntity
8
SK2
62
256
6
ByLayer
370
18
48
1
60
0
100
AcDbDimension
2
_U3
10
15
20
32.952229
30
0
11
38.5
21
32.952229
31
0
70
32
71
1
72
1
41
1
210
0
220
0
230
1
3
Standard
100
AcDbAlignedDimension
13
62
23
0
33
0
14
15
24
6.747
34
0
50
0
100
AcDbRotatedDimension
1001
ACAD
1000
DSTYLE
1002
{
1070
   371
1070
    13
1070
   372
1070
    13
1070
     3
1000

1070
   170
1070
     0
1070
   144
1040
1.0
1070
   277
1070
     2
1070
   284
1070
     8
1070
   278
1070
    46
1070
   146
1040
1.166667
1070
   345
1005
16
1070
   347
1005
16
1070
   346
1005
16
1070
   344
1005
0
1070
   343
1005
0
1070
   172
1070
     1
1070
    76
1070
     0
1070
    75
1070
     0
1070
   282
1070
     0
1070
   281
1070
     0
1070
    71
1070
     0
1070
    74
1070
     0
1070
   279
1070
     0
1070
   173
1070
     1
1070
   340
1005
113
1070
   271
1070
     2
1070
   272
1070
     3
1070
    77
1070
     1
1070
    73
1070
     1
1070
   171
1070
     3
1070
   274
1070
     4
1070
   177
1070
     2
1070
   176
1070
     2
1070
   178
1070
     2
1070
    78
1070
     8
1070
    48
1040
-0.1
1070
    41
1040
3.5
1070
   147
1040
1.5
1070
    42
1040
1.5875
1070
    44
1040
2.0
1070
   140
1040
3.0
1002
}
1001
ACAD_DSTYLE_DIM_LINETYPE
1070
   380
1005
16
1001
ACAD_DSTYLE_DIM_EXT1_LINETYPE
1070
   381
1005
16
1001
ACAD_DSTYLE_DIM_EXT2_LINETYPE
1070
   382
1005
16
0
ENDSEC
0
SECTION
2
OBJECTS
0
DICTIONARY
5
205
330
0
100
AcDbDictionary
280
0
281
1
3
ACAD_GROUP
350
206
3
ACAD_MLINESTYLE
350
207
0
DICTIONARY
5
206
330
0
100
AcDbDictionary
280
0
281
1
0
DICTIONARY
5
207
330
0
100
AcDbDictionary
280
0
281
1
3
Standard
350
18
0
MLINESTYLE
5
18
330
207
100
AcDbMlineStyle
2
Standard
70
0
3

62
256
51
90
52
90
71
2
49
-0.5
62
256
6
ByLayer
49
0.5
62
256
6
ByLayer
0
RASTERVARIABLES
5
1f3
330

100
AcDbRasterVariables
90
0
70
1
71
1
72
1
0
ENDSEC
0
EOF
