0
SECTION
2
HEADER
9
$ACADVER
1
AC1015
9
$DWGCODEPAGE
3
ANSI_1252
9
$HANDSEED
5
21e
9
$ANGBASE
50
0
9
$ANGDIR
70
0
9
$ATTMODE
70
1
9
$AUNITS
70
0
9
$AUPREC
70
0
9
$CECOLOR
62
256
9
$CELTSCALE
40
1
9
$CELTYPE
6
ByLayer
9
$CELWEIGHT
370
18
9
$CLAYER
8
0
9
$CMLJUST
70
0
9
$CMLSCALE
40
1
9
$CMLSTYLE
2
Standard
9
$DIMSTYLE
2
Standard
9
$TEXTSIZE
40
0.2
9
$TEXTSTYLE
7
Standard
9
$LUNITS
70
2
9
$LUPREC
70
4
9
$EXTNAMES
290
1
9
$INSUNITS
70
4
9
$LTSCALE
40
1
9
$LWDISPLAY
290
1
9
$PDMODE
70
0
9
$PDSIZE
40
0
9
$PLINEGEN
70
0
0
ENDSEC
0
SECTION
2
CLASSES
0
CLASS
1
RASTERVARIABLES
2
AcDbRasterVariables
3
ISM
90
0
280
0
281
0
0
ENDSEC
0
SECTION
2
TABLES
0
TABLE
2
VPORT
5
214
100
AcDbSymbolTable
0
VPORT
5
1
100
AcDbSymbolTableRecord
100
AcDbViewportTableRecord
2
*Active
70
0
10
0
20
0
11
1
21
1
12
-1
22
1
13
0
23
0
14
0.5
24
0.5
15
10
25
10
16
0
26
0
36
1
17
0
27
0
37
0
0
ENDTAB
0
TABLE
2
LTYPE
5
215
100
AcDbSymbolTable
0
LTYPE
5
14
100
AcDbSymbolTableRecord
100
AcDbLinetypeTableRecord
70
0
2
ByBlock
3

72
65
73
0
40
0
0
LTYPE
5
15
100
AcDbSymbolTableRecord
100
AcDbLinetypeTableRecord
70
0
2
ByLayer
3

72
65
73
0
40
0
0
LTYPE
5
16
100
AcDbSymbolTableRecord
100
AcDbLinetypeTableRecord
70
0
2
Continuous
3
Solid line
72
65
73
0
40
0
0
LTYPE
5
6E
100
AcDbSymbolTableRecord
100
AcDbLinetypeTableRecord
70
0
2
CENTER
3
____ _ ____ _ ____ _ ____
72
65
73
4
40
47.5
49
22
74
0
49
-8.5
74
0
49
8.5
74
0
49
-8.5
74
0
0
LTYPE
5
6F
100
AcDbSymbolTableRecord
100
AcDbLinetypeTableRecord
70
0
2
DASHED
3
__ __ __ __ __ __ __ __ __
72
65
73
2
40
25.72
49
12.86
74
0
49
-12.86
74
0
0
ENDTAB
0
TABLE
2
LAYER
5
216
100
AcDbSymbolTable
0
LAYER
5
10
100
AcDbSymbolTableRecord
100
AcDbLayerTableRecord
2
0
70
0
62
7
6
Continuous
290
1
370
-3
390
0
0
LAYER
5
71
100
AcDbSymbolTableRecord
100
AcDbLayerTableRecord
2
80
70
0
62
-6
6
Continuous
290
1
370
-3
390
0
0
LAYER
5
73
100
AcDbSymbolTableRecord
100
AcDbLayerTableRecord
2
81
70
0
62
-3
6
Continuous
290
1
370
-3
390
0
0
LAYER
5
75
100
AcDbSymbolTableRecord
100
AcDbLayerTableRecord
2
1
70
0
62
4
6
Continuous
290
1
370
-3
390
0
0
LAYER
5
82
100
AcDbSymbolTableRecord
100
AcDbLayerTableRecord
2
4
70
0
62
-2
6
CENTER
290
1
370
-3
390
0
0
LAYER
5
B0
100
AcDbSymbolTableRecord
100
AcDbLayerTableRecord
2
2
70
0
62
7
6
Continuous
290
1
370
-3
390
0
0
LAYER
5
143
100
AcDbSymbolTableRecord
100
AcDbLayerTableRecord
2
Defpoints
70
0
62
7
6
Continuous
290
0
370
-3
390
0
0
LAYER
5
200
100
AcDbSymbolTableRecord
100
AcDbLayerTableRecord
2
SK4
70
0
62
2
6
CENTER
290
1
370
-3
390
0
0
LAYER
5
201
100
AcDbSymbolTableRecord
100
AcDbLayerTableRecord
2
SK1
70
0
62
4
6
Continuous
290
1
370
-3
390
0
0
LAYER
5
202
100
AcDbSymbolTableRecord
100
AcDbLayerTableRecord
2
SK2
70
0
62
7
6
Continuous
290
1
370
-3
390
0
0
LAYER
5
203
100
AcDbSymbolTableRecord
100
AcDbLayerTableRecord
2
SK6
70
0
62
5
6
Continuous
290
1
370
-3
390
0
0
ENDTAB
0
TABLE
2
STYLE
5
217
100
AcDbSymbolTable
0
STYLE
5
11
100
AcDbSymbolTableRecord
100
AcDbTextStyleTableRecord
2
Standard
3
txt
70
0
71
0
40
0
41
1
42
0
50
0
0
STYLE
5
11F
100
AcDbSymbolTableRecord
100
AcDbTextStyleTableRecord
2
iso_b_vert
3
simplex.shx
70
0
71
0
40
0
41
1
42
0
50
0
0
STYLE
5
120
100
AcDbSymbolTableRecord
100
AcDbTextStyleTableRecord
2
DWGDirectTextStyle
3
simplex
70
0
71
0
40
0
41
1
42
0
50
0
0
ENDTAB
0
TABLE
2
DIMSTYLE
5
218
100
AcDbSymbolTable
100
AcDbDimStyleTable
0
DIMSTYLE
105
27
100
AcDbSymbolTableRecord
100
AcDbDimStyleTableRecord
2
Standard
70
0
3
<>
41
0.18
42
0.0625
44
0.18
140
0.18
147
0.09
73
0
74
0
77
1
271
2
275
0
278
52
280
0
340
11
0
ENDTAB
0
TABLE
2
VIEW
5
219
100
AcDbSymbolTable
0
ENDTAB
0
TABLE
2
UCS
5
21a
100
AcDbSymbolTable
0
ENDTAB
0
TABLE
2
APPID
5
21b
100
AcDbSymbolTable
0
APPID
5
12
100
AcDbSymbolTableRecord
100
AcDbRegAppTableRecord
2
ACAD
70
0
0
APPID
5
13F
100
AcDbSymbolTableRecord
100
AcDbRegAppTableRecord
2
ACAD_DSTYLE_DIMBREAK
70
0
0
APPID
5
1BF
100
AcDbSymbolTableRecord
100
AcDbRegAppTableRecord
2
ACAD_DSTYLE_DIM_LINETYPE
70
0
0
APPID
5
1C0
100
AcDbSymbolTableRecord
100
AcDbRegAppTableRecord
2
ACAD_DSTYLE_DIM_EXT1_LINETYPE
70
0
0
APPID
5
1C1
100
AcDbSymbolTableRecord
100
AcDbRegAppTableRecord
2
ACAD_DSTYLE_DIM_EXT2_LINETYPE
70
0
0
APPID
5
1FC
100
AcDbSymbolTableRecord
100
AcDbRegAppTableRecord
2
ACAD_MLEADERVER
70
0
0
ENDTAB
0
TABLE
2
BLOCK_RECORD
5
21c
100
AcDbSymbolTable
0
BLOCK_RECORD
5
1F
100
AcDbSymbolTableRecord
100
AcDbBlockTableRecord
2
*Model_Space
340
0
70
0
0
BLOCK_RECORD
5
1B
100
AcDbSymbolTableRecord
100
AcDbBlockTableRecord
2
*Paper_Space
340
0
70
0
0
BLOCK_RECORD
5
23
100
AcDbSymbolTableRecord
100
AcDbBlockTableRecord
2
*Paper_Space0
340
0
70
0
0
BLOCK_RECORD
5
144
100
AcDbSymbolTableRecord
100
AcDbBlockTableRecord
2
*D1
340
0
70
0
0
BLOCK_RECORD
5
150
100
AcDbSymbolTableRecord
100
AcDbBlockTableRecord
2
_U0
340
0
70
0
0
BLOCK_RECORD
5
15C
100
AcDbSymbolTableRecord
100
AcDbBlockTableRecord
2
*D3
340
0
70
0
0
BLOCK_RECORD
5
168
100
AcDbSymbolTableRecord
100
AcDbBlockTableRecord
2
_U1
340
0
70
0
0
BLOCK_RECORD
5
174
100
AcDbSymbolTableRecord
100
AcDbBlockTableRecord
2
*D5
340
0
70
0
0
BLOCK_RECORD
5
180
100
AcDbSymbolTableRecord
100
AcDbBlockTableRecord
2
_U2
340
0
70
0
0
BLOCK_RECORD
5
18C
100
AcDbSymbolTableRecord
100
AcDbBlockTableRecord
2
*D7
340
0
70
0
0
BLOCK_RECORD
5
198
100
AcDbSymbolTableRecord
100
AcDbBlockTableRecord
2
_U3
340
0
70
0
0
ENDTAB
0
ENDSEC
0
SECTION
2
BLOCKS
0
BLOCK
5
20
100
AcDbEntity
8
0
100
AcDbBlockBegin
2
*Model_Space
70
0
10
0
20
0
30
0
3
*Model_Space
0
ENDBLK
5
21
100
AcDbEntity
8
0
100
AcDbBlockEnd
0
BLOCK
5
1C
100
AcDbEntity
8
0
100
AcDbBlockBegin
2
*Paper_Space
70
0
10
0
20
0
30
0
3
*Paper_Space
0
ENDBLK
5
1D
100
AcDbEntity
8
0
100
AcDbBlockEnd
0
BLOCK
5
24
100
AcDbEntity
8
0
100
AcDbBlockBegin
2
*Paper_Space0
70
0
10
0
20
0
30
0
3
*Paper_Space0
0
ENDBLK
5
25
100
AcDbEntity
8
0
100
AcDbBlockEnd
0
BLOCK
5
145
100
AcDbEntity
8
0
100
AcDbBlockBegin
2
*D1
70
1
10
0
20
0
30
0
3
*D1
0
LINE
5
147
100
AcDbEntity
8
0
62
256
6
ByLayer
370
-2
48
1
60
0
100
AcDbLine
10
-50
20
-11.5875
30
0
11
-50
21
-47.952229
31
0
39
0
210
0
220
0
230
1
0
LINE
5
148
100
AcDbEntity
8
0
62
256
6
ByLayer
370
-2
48
1
60
0
100
AcDbLine
10
76.5
20
-1.5875
30
0
11
76.5
21
-47.952229
31
0
39
0
210
0
220
0
230
1
0
LINE
5
149
100
AcDbEntity
8
0
62
256
6
ByLayer
370
-2
48
1
60
0
100
AcDbLine
10
-46.5
20
-45.952229
30
0
11
73
21
-45.952229
31
0
39
0
210
0
220
0
230
1
0
SOLID
5
14A
100
AcDbEntity
8
0
62
256
6
ByLayer
370
-1
48
1
60
0
100
AcDbTrace
10
-46.5
20
-45.368896
30
0
11
-46.5
21
-46.535563
31
0
12
-50
22
-45.952229
32
0
13
-50
23
-45.952229
33
0
39
0
210
0
220
0
230
1
0
SOLID
5
14B
100
AcDbEntity
8
0
62
256
6
ByLayer
370
-1
48
1
60
0
100
AcDbTrace
10
73
20
-46.535563
30
0
11
73
21
-45.368896
31
0
12
76.5
22
-45.952229
32
0
13
76.5
23
-45.952229
33
0
39
0
210
0
220
0
230
1
0
MTEXT
5
14C
100
AcDbEntity
8
0
62
256
6
ByLayer
370
18
48
1
60
0
100
AcDbMText
10
13.25
20
-39.952229
30
0
210
0
220
0
230
1
1
\A1;126.5
40
3
41
0
44
1
50
0
71
5
72
5
7
iso_b_vert
0
POINT
5
14D
100
AcDbEntity
8
Defpoints
62
0
6
ByLayer
370
-1
48
1
60
0
100
AcDbPoint
10
-50
20
-10
30
0
39
0
210
0
220
0
230
1
50
360
0
POINT
5
14E
100
AcDbEntity
8
Defpoints
62
0
6
ByLayer
370
-1
48
1
60
0
100
AcDbPoint
10
76.5
20
0
30
0
39
0
210
0
220
0
230
1
50
360
0
POINT
5
14F
100
AcDbEntity
8
Defpoints
62
0
6
ByLayer
370
-1
48
1
60
0
100
AcDbPoint
10
76.5
20
-45.952229
30
0
39
0
210
0
220
0
230
1
50
360
0
ENDBLK
5
146
100
AcDbEntity
8
0
100
AcDbBlockEnd
0
BLOCK
5
157
100
AcDbEntity
8
0
100
AcDbBlockBegin
2
_U0
70
0
10
0
20
0
30
0
3
_U0
0
MTEXT
5
151
100
AcDbEntity
8
SK2
62
256
6
ByLayer
370
18
48
1
60
0
100
AcDbMText
10
8.021658
20
-45.067115
30
0
210
0
220
0
230
1
1
\W0.7022;126.50
40
3
41
0
44
1.084337
50
0
71
7
72
5
7
iso_b_vert
0
LINE
5
152
100
AcDbEntity
8
SK2
62
256
6
ByLayer
370
13
48
1
60
0
100
AcDbLine
10
-50
20
-11.5875
30
0
11
-50
21
-47.952229
31
0
39
0
210
0
220
0
230
1
0
LINE
5
153
100
AcDbEntity
8
SK2
62
256
6
ByLayer
370
13
48
1
60
0
100
AcDbLine
10
76.5
20
-1.5875
30
0
11
76.5
21
-47.952229
31
0
39
0
210
0
220
0
230
1
0
LINE
5
154
100
AcDbEntity
8
SK2
62
256
6
ByLayer
370
13
48
1
60
0
100
AcDbLine
10
-50
20
-45.952229
30
0
11
76.5
21
-45.952229
31
0
39
0
210
0
220
0
230
1
0
SOLID
5
155
100
AcDbEntity
8
SK2
62
256
6
ByLayer
370
18
48
1
60
0
100
AcDbTrace
10
-50
20
-45.952229
30
0
11
-46.500002
21
-45.491446
31
0
12
-46.499998
22
-46.413013
32
0
13
-46.499998
23
-46.413013
33
0
39
0
210
0
220
0
230
1
0
SOLID
5
156
100
AcDbEntity
8
SK2
62
256
6
ByLayer
370
18
48
1
60
0
100
AcDbTrace
10
76.5
20
-45.952229
30
0
11
73.000002
21
-46.413013
31
0
12
72.999998
22
-45.491446
32
0
13
72.999998
23
-45.491446
33
0
39
0
210
0
220
0
230
1
0
ENDBLK
5
158
100
AcDbEntity
8
0
100
AcDbBlockEnd
0
BLOCK
5
15D
100
AcDbEntity
8
0
100
AcDbBlockBegin
2
*D3
70
1
10
0
20
0
30
0
3
*D3
0
LINE
5
15F
100
AcDbEntity
8
0
62
256
6
ByLayer
370
-2
48
1
60
0
100
AcDbLine
10
76.5
20
-1.5875
30
0
11
76.5
21
-37.952229
31
0
39
0
210
0
220
0
230
1
0
LINE
5
160
100
AcDbEntity
8
0
62
256
6
ByLayer
370
-2
48
1
60
0
100
AcDbLine
10
3
20
-9.0875
30
0
11
3
21
-37.952229
31
0
39
0
210
0
220
0
230
1
0
LINE
5
161
100
AcDbEntity
8
0
62
256
6
ByLayer
370
-2
48
1
60
0
100
AcDbLine
10
73
20
-35.952229
30
0
11
6.5
21
-35.952229
31
0
39
0
210
0
220
0
230
1
0
SOLID
5
162
100
AcDbEntity
8
0
62
256
6
ByLayer
370
-1
48
1
60
0
100
AcDbTrace
10
73
20
-36.535563
30
0
11
73
21
-35.368896
31
0
12
76.5
22
-35.952229
32
0
13
76.5
23
-35.952229
33
0
39
0
210
0
220
0
230
1
0
SOLID
5
163
100
AcDbEntity
8
0
62
256
6
ByLayer
370
-1
48
1
60
0
100
AcDbTrace
10
6.5
20
-35.368896
30
0
11
6.5
21
-36.535563
31
0
12
3
22
-35.952229
32
0
13
3
23
-35.952229
33
0
39
0
210
0
220
0
230
1
0
MTEXT
5
164
100
AcDbEntity
8
0
62
256
6
ByLayer
370
18
48
1
60
0
100
AcDbMText
10
39.75
20
-29.952229
30
0
210
0
220
0
230
1
1
\A1;73.5
40
3
41
0
44
1
50
0
71
5
72
5
7
iso_b_vert
0
POINT
5
165
100
AcDbEntity
8
Defpoints
62
0
6
ByLayer
370
-1
48
1
60
0
100
AcDbPoint
10
76.5
20
0
30
0
39
0
210
0
220
0
230
1
50
360
0
POINT
5
166
100
AcDbEntity
8
Defpoints
62
0
6
ByLayer
370
-1
48
1
60
0
100
AcDbPoint
10
3
20
-7.5
30
0
39
0
210
0
220
0
230
1
50
360
0
POINT
5
167
100
AcDbEntity
8
Defpoints
62
0
6
ByLayer
370
-1
48
1
60
0
100
AcDbPoint
10
3
20
-35.952229
30
0
39
0
210
0
220
0
230
1
50
360
0
ENDBLK
5
15E
100
AcDbEntity
8
0
100
AcDbBlockEnd
0
BLOCK
5
16F
100
AcDbEntity
8
0
100
AcDbBlockBegin
2
_U1
70
0
10
0
20
0
30
0
3
_U1
0
MTEXT
5
169
100
AcDbEntity
8
SK2
62
256
6
ByLayer
370
18
48
1
60
0
100
AcDbMText
10
35.26763
20
-35.067115
30
0
210
0
220
0
230
1
1
\W0.7468;73.50
40
3
41
0
44
1.084337
50
0
71
7
72
5
7
iso_b_vert
0
LINE
5
16A
100
AcDbEntity
8
SK2
62
256
6
ByLayer
370
13
48
1
60
0
100
AcDbLine
10
76.5
20
-1.5875
30
0
11
76.5
21
-37.952229
31
0
39
0
210
0
220
0
230
1
0
LINE
5
16B
100
AcDbEntity
8
SK2
62
256
6
ByLayer
370
13
48
1
60
0
100
AcDbLine
10
3
20
-9.0875
30
0
11
3
21
-37.952229
31
0
39
0
210
0
220
0
230
1
0
LINE
5
16C
100
AcDbEntity
8
SK2
62
256
6
ByLayer
370
13
48
1
60
0
100
AcDbLine
10
76.5
20
-35.952229
30
0
11
3
21
-35.952229
31
0
39
0
210
0
220
0
230
1
0
SOLID
5
16D
100
AcDbEntity
8
SK2
62
256
6
ByLayer
370
18
48
1
60
0
100
AcDbTrace
10
76.5
20
-35.952229
30
0
11
73.000002
21
-36.413013
31
0
12
72.999998
22
-35.491446
32
0
13
72.999998
23
-35.491446
33
0
39
0
210
0
220
0
230
1
0
SOLID
5
16E
100
AcDbEntity
8
SK2
62
256
6
ByLayer
370
18
48
1
60
0
100
AcDbTrace
10
3
20
-35.952229
30
0
11
6.499998
21
-35.491446
31
0
12
6.500002
22
-36.413013
32
0
13
6.500002
23
-36.413013
33
0
39
0
210
0
220
0
230
1
0
ENDBLK
5
170
100
AcDbEntity
8
0
100
AcDbBlockEnd
0
BLOCK
5
175
100
AcDbEntity
8
0
100
AcDbBlockBegin
2
*D5
70
1
10
0
20
0
30
0
3
*D5
0
LINE
5
177
100
AcDbEntity
8
0
62
256
6
ByLayer
370
-2
48
1
60
0
100
AcDbLine
10
-50
20
-11.5875
30
0
11
-50
21
-37.952229
31
0
39
0
210
0
220
0
230
1
0
LINE
5
178
100
AcDbEntity
8
0
62
256
6
ByLayer
370
-2
48
1
60
0
100
AcDbLine
10
0
20
-11.5875
30
0
11
0
21
-37.952229
31
0
39
0
210
0
220
0
230
1
0
LINE
5
179
100
AcDbEntity
8
0
62
256
6
ByLayer
370
-2
48
1
60
0
100
AcDbLine
10
-46.5
20
-35.952229
30
0
11
-3.5
21
-35.952229
31
0
39
0
210
0
220
0
230
1
0
SOLID
5
17A
100
AcDbEntity
8
0
62
256
6
ByLayer
370
-1
48
1
60
0
100
AcDbTrace
10
-46.5
20
-35.368896
30
0
11
-46.5
21
-36.535563
31
0
12
-50
22
-35.952229
32
0
13
-50
23
-35.952229
33
0
39
0
210
0
220
0
230
1
0
SOLID
5
17B
100
AcDbEntity
8
0
62
256
6
ByLayer
370
-1
48
1
60
0
100
AcDbTrace
10
-3.5
20
-36.535563
30
0
11
-3.5
21
-35.368896
31
0
12
0
22
-35.952229
32
0
13
0
23
-35.952229
33
0
39
0
210
0
220
0
230
1
0
MTEXT
5
17C
100
AcDbEntity
8
0
62
256
6
ByLayer
370
18
48
1
60
0
100
AcDbMText
10
-25
20
-29.952229
30
0
210
0
220
0
230
1
1
\A1;50
40
3
41
0
44
1
50
0
71
5
72
5
7
iso_b_vert
0
POINT
5
17D
100
AcDbEntity
8
Defpoints
62
0
6
ByLayer
370
-1
48
1
60
0
100
AcDbPoint
10
-50
20
-10
30
0
39
0
210
0
220
0
230
1
50
360
0
POINT
5
17E
100
AcDbEntity
8
Defpoints
62
0
6
ByLayer
370
-1
48
1
60
0
100
AcDbPoint
10
0
20
-10
30
0
39
0
210
0
220
0
230
1
50
360
0
POINT
5
17F
100
AcDbEntity
8
Defpoints
62
0
6
ByLayer
370
-1
48
1
60
0
100
AcDbPoint
10
0
20
-35.952229
30
0
39
0
210
0
220
0
230
1
50
360
0
ENDBLK
5
176
100
AcDbEntity
8
0
100
AcDbBlockEnd
0
BLOCK
5
187
100
AcDbEntity
8
0
100
AcDbBlockBegin
2
_U2
70
0
10
0
20
0
30
0
3
_U2
0
MTEXT
5
181
100
AcDbEntity
8
SK2
62
256
6
ByLayer
370
18
48
1
60
0
100
AcDbMText
10
-29.48237
20
-35.067115
30
0
210
0
220
0
230
1
1
\W0.7468;50.00
40
3
41
0
44
1.084337
50
0
71
7
72
5
7
iso_b_vert
0
LINE
5
182
100
AcDbEntity
8
SK2
62
256
6
ByLayer
370
13
48
1
60
0
100
AcDbLine
10
-50
20
-11.5875
30
0
11
-50
21
-37.952229
31
0
39
0
210
0
220
0
230
1
0
LINE
5
183
100
AcDbEntity
8
SK2
62
256
6
ByLayer
370
13
48
1
60
0
100
AcDbLine
10
0
20
-11.5875
30
0
11
0
21
-37.952229
31
0
39
0
210
0
220
0
230
1
0
LINE
5
184
100
AcDbEntity
8
SK2
62
256
6
ByLayer
370
13
48
1
60
0
100
AcDbLine
10
-50
20
-35.952229
30
0
11
0
21
-35.952229
31
0
39
0
210
0
220
0
230
1
0
SOLID
5
185
100
AcDbEntity
8
SK2
62
256
6
ByLayer
370
18
48
1
60
0
100
AcDbTrace
10
-50
20
-35.952229
30
0
11
-46.500002
21
-35.491446
31
0
12
-46.499998
22
-36.413013
32
0
13
-46.499998
23
-36.413013
33
0
39
0
210
0
220
0
230
1
0
SOLID
5
186
100
AcDbEntity
8
SK2
62
256
6
ByLayer
370
18
48
1
60
0
100
AcDbTrace
10
0
20
-35.952229
30
0
11
-3.499998
21
-36.413013
31
0
12
-3.500002
22
-35.491446
32
0
13
-3.500002
23
-35.491446
33
0
39
0
210
0
220
0
230
1
0
ENDBLK
5
188
100
AcDbEntity
8
0
100
AcDbBlockEnd
0
BLOCK
5
18D
100
AcDbEntity
8
0
100
AcDbBlockBegin
2
*D7
70
1
10
0
20
0
30
0
3
*D7
0
LINE
5
18F
100
AcDbEntity
8
0
62
256
6
ByLayer
370
-2
48
1
60
0
100
AcDbLine
10
76.5
20
1.5875
30
0
11
76.5
21
34.952229
31
0
39
0
210
0
220
0
230
1
0
LINE
5
190
100
AcDbEntity
8
0
62
256
6
ByLayer
370
-2
48
1
60
0
100
AcDbLine
10
21
20
9.0875
30
0
11
21
21
34.952229
31
0
39
0
210
0
220
0
230
1
0
LINE
5
191
100
AcDbEntity
8
0
62
256
6
ByLayer
370
-2
48
1
60
0
100
AcDbLine
10
73
20
32.952229
30
0
11
24.5
21
32.952229
31
0
39
0
210
0
220
0
230
1
0
SOLID
5
192
100
AcDbEntity
8
0
62
256
6
ByLayer
370
-1
48
1
60
0
100
AcDbTrace
10
73
20
32.368896
30
0
11
73
21
33.535563
31
0
12
76.5
22
32.952229
32
0
13
76.5
23
32.952229
33
0
39
0
210
0
220
0
230
1
0
SOLID
5
193
100
AcDbEntity
8
0
62
256
6
ByLayer
370
-1
48
1
60
0
100
AcDbTrace
10
24.5
20
33.535563
30
0
11
24.5
21
32.368896
31
0
12
21
22
32.952229
32
0
13
21
23
32.952229
33
0
39
0
210
0
220
0
230
1
0
MTEXT
5
194
100
AcDbEntity
8
0
62
256
6
ByLayer
370
18
48
1
60
0
100
AcDbMText
10
48.75
20
38.952229
30
0
210
0
220
0
230
1
1
\A1;55.5
40
3
41
0
44
1
50
0
71
5
72
5
7
iso_b_vert
0
POINT
5
195
100
AcDbEntity
8
Defpoints
62
0
6
ByLayer
370
-1
48
1
60
0
100
AcDbPoint
10
76.5
20
0
30
0
39
0
210
0
220
0
230
1
50
360
0
POINT
5
196
100
AcDbEntity
8
Defpoints
62
0
6
ByLayer
370
-1
48
1
60
0
100
AcDbPoint
10
21
20
7.5
30
0
39
0
210
0
220
0
230
1
50
360
0
POINT
5
197
100
AcDbEntity
8
Defpoints
62
0
6
ByLayer
370
-1
48
1
60
0
100
AcDbPoint
10
21
20
32.952229
30
0
39
0
210
0
220
0
230
1
50
360
0
ENDBLK
5
18E
100
AcDbEntity
8
0
100
AcDbBlockEnd
0
BLOCK
5
19F
100
AcDbEntity
8
0
100
AcDbBlockBegin
2
_U3
70
0
10
0
20
0
30
0
3
_U3
0
MTEXT
5
199
100
AcDbEntity
8
SK2
62
256
6
ByLayer
370
18
48
1
60
0
100
AcDbMText
10
44.26763
20
33.837344
30
0
210
0
220
0
230
1
1
\W0.7468;55.50
40
3
41
0
44
1.084337
50
0
71
7
72
5
7
iso_b_vert
0
LINE
5
19A
100
AcDbEntity
8
SK2
62
256
6
ByLayer
370
13
48
1
60
0
100
AcDbLine
10
76.5
20
1.5875
30
0
11
76.5
21
34.952229
31
0
39
0
210
0
220
0
230
1
0
LINE
5
19B
100
AcDbEntity
8
SK2
62
256
6
ByLayer
370
13
48
1
60
0
100
AcDbLine
10
21
20
9.0875
30
0
11
21
21
34.952229
31
0
39
0
210
0
220
0
230
1
0
LINE
5
19C
100
AcDbEntity
8
SK2
62
256
6
ByLayer
370
13
48
1
60
0
100
AcDbLine
10
76.5
20
32.952229
30
0
11
21
21
32.952229
31
0
39
0
210
0
220
0
230
1
0
SOLID
5
19D
100
AcDbEntity
8
SK2
62
256
6
ByLayer
370
18
48
1
60
0
100
AcDbTrace
10
76.5
20
32.952229
30
0
11
73.000002
21
32.491446
31
0
12
72.999998
22
33.413013
32
0
13
72.999998
23
33.413013
33
0
39
0
210
0
220
0
230
1
0
SOLID
5
19E
100
AcDbEntity
8
SK2
62
256
6
ByLayer
370
18
48
1
60
0
100
AcDbTrace
10
21
20
32.952229
30
0
11
24.499998
21
33.413013
31
0
12
24.500002
22
32.491446
32
0
13
24.500002
23
32.491446
33
0
39
0
210
0
220
0
230
1
0
ENDBLK
5
1A0
100
AcDbEntity
8
0
100
AcDbBlockEnd
0
ENDSEC
0
SECTION
2
ENTITIES
0
ARC
5
C1
100
AcDbEntity
8
SK2
62
256
6
ByLayer
370
13
48
1
60
0
100
AcDbCircle
39
0
10
76.5
20
0
30
0
40
18.9999999999999
210
0
220
0
230
1
100
AcDbArc
50
290
51
70
0
ELLIPSE
5
C2
100
AcDbEntity
8
SK1
62
256
6
ByLayer
370
18
48
1
60
0
100
AcDbEllipse
10
209.817277
20
0
30
0
11
286.362532830084
21
-3.24477297310427E-13
31
0
210
0
220
0
230
1
40
0.034921
41
2.47357625657654
42
2.64710298745217
0
ELLIPSE
5
C3
100
AcDbEntity
8
SK1
62
256
6
ByLayer
370
18
48
1
60
0
100
AcDbEllipse
10
-22.723687
20
0
30
0
11
10.7236871002449
21
-1.21510065339267E-14
31
0
210
0
220
0
230
1
40
0.932515
41
-0.59537570803654
42
0.595375708036542
0
ELLIPSE
5
C4
100
AcDbEntity
8
SK1
62
256
6
ByLayer
370
18
48
1
60
0
100
AcDbEllipse
10
209.817277
20
0
30
0
11
286.362532824103
21
-3.2447729730365E-13
31
0
210
0
220
0
230
1
40
0.034921
41
-2.64710298745053
42
-2.47357625657208
0
ELLIPSE
5
C5
100
AcDbEntity
8
SK1
62
256
6
ByLayer
370
18
48
1
60
0
100
AcDbEllipse
10
-34.674849
20
0
30
0
11
-1.83690953073338E-15
21
-9.99999999999897
31
0
210
0
220
0
230
1
40
0.932515
41
-1.94446667349865
42
-1.19712598009114
0
POINT
5
70
100
AcDbEntity
8
80
62
256
6
ByLayer
370
18
48
1
60
0
100
AcDbPoint
10
0
20
0
30
0
39
0
210
0
220
0
230
1
50
360
0
POINT
5
72
100
AcDbEntity
8
81
62
256
6
ByLayer
370
18
48
1
60
0
100
AcDbPoint
10
76.5
20
0
30
0
39
0
210
0
220
0
230
1
50
360
0
POINT
5
74
100
AcDbEntity
8
1
62
256
6
ByLayer
370
18
48
1
60
1
100
AcDbPoint
10
-50
20
-10
30
0
39
0
210
0
220
0
230
1
50
360
0
POINT
5
76
100
AcDbEntity
8
1
62
256
6
ByLayer
370
18
48
1
60
1
100
AcDbPoint
10
76.5
20
0
30
0
39
0
210
0
220
0
230
1
50
360
0
POINT
5
77
100
AcDbEntity
8
1
62
256
6
ByLayer
370
18
48
1
60
1
100
AcDbPoint
10
76.5
20
0
30
0
39
0
210
0
220
0
230
1
50
360
0
POINT
5
78
100
AcDbEntity
8
1
62
256
6
ByLayer
370
18
48
1
60
1
100
AcDbPoint
10
3
20
-7.5
30
0
39
0
210
0
220
0
230
1
50
360
0
POINT
5
79
100
AcDbEntity
8
1
62
256
6
ByLayer
370
18
48
1
60
1
100
AcDbPoint
10
-50
20
-10
30
0
39
0
210
0
220
0
230
1
50
360
0
POINT
5
7A
100
AcDbEntity
8
1
62
256
6
ByLayer
370
18
48
1
60
1
100
AcDbPoint
10
0
20
-10
30
0
39
0
210
0
220
0
230
1
50
360
0
POINT
5
7B
100
AcDbEntity
8
1
62
256
6
ByLayer
370
18
48
1
60
1
100
AcDbPoint
10
76.5
20
0
30
0
39
0
210
0
220
0
230
1
50
360
0
POINT
5
7C
100
AcDbEntity
8
1
62
256
6
ByLayer
370
18
48
1
60
1
100
AcDbPoint
10
21
20
7.5
30
0
39
0
210
0
220
0
230
1
50
360
0
SPLINE
5
C6
100
AcDbEntity
8
1
62
256
6
ByLayer
370
18
48
1
60
0
100
AcDbSpline
70
4
71
3
72
12
73
8
40
0
40
0
40
0
40
0
40
0.337652490987785
40
0.337652490987785
40
0.67530498197557
40
0.67530498197557
40
1
40
1
40
1
40
1
41
1
10
65.5
20
-7.41575539038686
30
0
41
1
10
65.8452219735337
20
-7.43438939503287
30
0
41
1
10
66.1902029415899
20
-7.44992536597641
30
0
41
1
10
66.8795754629738
20
-7.47477934869849
30
0
41
1
10
67.2239199798672
20
-7.48408585260825
30
0
41
1
10
67.8996382819607
20
-7.49606237619082
30
0
41
1
10
68.2309235070942
20
-7.49900728095636
30
0
41
1
10
68.5621799950043
20
-7.49906257003693
30
0
0
SPLINE
5
C7
100
AcDbEntity
8
1
62
256
6
ByLayer
370
18
48
1
60
0
100
AcDbSpline
70
4
71
3
72
102
73
98
40
0
40
0
40
0
40
0
40
0.0312499999999967
40
0.0312499999999967
40
0.0624999999999934
40
0.0624999999999934
40
0.0781249999999921
40
0.0781249999999921
40
0.0859374999999918
40
0.0859374999999918
40
0.0937499999999915
40
0.0937499999999915
40
0.124999999999992
40
0.124999999999992
40
0.140624999999992
40
0.140624999999992
40
0.156249999999992
40
0.156249999999992
40
0.171874999999992
40
0.171874999999992
40
0.187499999999991
40
0.187499999999991
40
0.203124999999991
40
0.203124999999991
40
0.218749999999991
40
0.218749999999991
40
0.234374999999991
40
0.234374999999991
40
0.249999999999991
40
0.249999999999991
40
0.281249999999991
40
0.281249999999991
40
0.312499999999992
40
0.312499999999992
40
0.328124999999992
40
0.328124999999992
40
0.343749999999992
40
0.343749999999992
40
0.374999999999993
40
0.374999999999993
40
0.390624999999993
40
0.390624999999993
40
0.406249999999994
40
0.406249999999994
40
0.437499999999995
40
0.437499999999995
40
0.468749999999996
40
0.468749999999996
40
0.484374999999997
40
0.484374999999997
40
0.499999999999997
40
0.499999999999997
40
0.531249999999998
40
0.531249999999998
40
0.546874999999999
40
0.546874999999999
40
0.5625
40
0.5625
40
0.578125
40
0.578125
40
0.593750000000001
40
0.593750000000001
40
0.625000000000001
40
0.625000000000001
40
0.640625000000001
40
0.640625000000001
40
0.656250000000002
40
0.656250000000002
40
0.687500000000002
40
0.687500000000002
40
0.703125000000002
40
0.703125000000002
40
0.718750000000002
40
0.718750000000002
40
0.750000000000001
40
0.750000000000001
40
0.781249999999999
40
0.781249999999999
40
0.796874999999999
40
0.796874999999999
40
0.812499999999998
40
0.812499999999998
40
0.843749999999998
40
0.843749999999998
40
0.859374999999998
40
0.859374999999998
40
0.874999999999998
40
0.874999999999998
40
0.906249999999998
40
0.906249999999998
40
0.937499999999998
40
0.937499999999998
40
0.953124999999999
40
0.953124999999999
40
0.968749999999999
40
0.968749999999999
40
1
40
1
40
1
40
1
41
1
10
16.5331390033541
20
5.93522352117299
30
0
41
1
10
17.0439331684341
20
5.83359513683467
30
0
41
1
10
17.5546384076458
20
5.72718747618455
30
0
41
1
10
18.5755580199977
20
5.50451137540509
30
0
41
1
10
19.0857750680616
20
5.38824640463278
30
0
41
1
10
19.8505180415618
20
5.20601307338808
30
0
41
1
10
20.1053133755605
20
5.14391525060989
30
0
41
1
10
20.4874056045898
20
5.04887614664247
30
0
41
1
10
20.614759771333
20
5.01689504361235
30
0
41
1
10
20.8695061239544
20
4.95245160866435
30
0
41
1
10
20.9969010977615
20
4.91999550880192
30
0
41
1
10
21.6339549857865
20
4.75649156318792
30
0
41
1
10
22.1438107470108
20
4.62169951287527
30
0
41
1
10
22.9086995551726
20
4.4131067434061
30
0
41
1
10
23.1636804205962
20
4.34250688799744
30
0
41
1
10
23.6736409773698
20
4.19906663214346
30
0
41
1
10
23.9286045598311
20
4.12618739744519
30
0
41
1
10
24.438560597732
20
3.97822697816952
30
0
41
1
10
24.6936050974116
20
3.90326858444425
30
0
41
1
10
25.2041005838292
20
3.75208410316068
30
0
41
1
10
25.4595046398692
20
3.67574552822708
30
0
41
1
10
25.9705666155941
20
3.52144070462421
30
0
41
1
10
26.2262508586727
20
3.44347763698403
30
0
41
1
10
26.7372334009639
20
3.28605750236775
30
0
41
1
10
26.9926065850714
20
3.20657466983792
30
0
41
1
10
27.5030789560229
20
3.04596048821637
30
0
41
1
10
27.7581670154717
20
2.96479945374355
30
0
41
1
10
28.2680702721117
20
2.80082149220718
30
0
41
1
10
28.5229284472577
20
2.71811782437484
30
0
41
1
10
29.2877070714345
20
2.46917779020245
30
0
41
1
10
29.797625037646
20
2.30156614463689
30
0
41
1
10
30.8172715010922
20
1.96220676470864
30
0
41
1
10
31.3269998442552
20
1.79045795787039
30
0
41
1
10
32.091258850443
20
1.52914621383528
30
0
41
1
10
32.3459934751684
20
1.44152947039939
30
0
41
1
10
32.8557929097695
20
1.26631567219422
30
0
41
1
10
33.1108160597067
20
1.17860216637911
30
0
41
1
10
33.8761420620626
20
0.914827606869551
30
0
41
1
10
34.3867281203053
20
0.738212382523386
30
0
41
1
10
35.1529572986457
20
0.471531111038786
30
0
41
1
10
35.4084938991965
20
0.382309918817839
30
0
41
1
10
35.9192889045661
20
0.203292424821967
30
0
41
1
10
36.1745104773416
20
0.113572821345969
30
0
41
1
10
36.9402380728338
20
-0.154485538915395
30
0
41
1
10
37.4506438978026
20
-0.332211606379474
30
0
41
1
10
38.4709323120593
20
-0.686807353210725
30
0
41
1
10
38.9808360766639
20
-0.863615358133416
30
0
41
1
10
39.745082337577
20
-1.12878086194732
30
0
41
1
10
39.9997335929048
20
-1.21714781365637
30
0
41
1
10
40.5092582074836
20
-1.3926525534616
30
0
41
1
10
40.764111215482
20
-1.47984974403587
30
0
41
1
10
41.5288054372176
20
-1.74017284181991
30
0
41
1
10
42.0388098195931
20
-1.9119531904131
30
0
41
1
10
42.8039277061416
20
-2.16752860966991
30
0
41
1
10
43.0589853162558
20
-2.25237130629341
30
0
41
1
10
43.5690921676562
20
-2.42147515219648
30
0
41
1
10
43.8241306629822
20
-2.50576444247582
30
0
41
1
10
44.3345936807203
20
-2.67267267174998
30
0
41
1
10
44.5900159475473
20
-2.75529949829249
30
0
41
1
10
45.1011436647173
20
-2.91917300757095
30
0
41
1
10
45.3567448563796
20
-3.0003698954697
30
0
41
1
10
46.1230643677459
20
-3.24168709415429
30
0
41
1
10
46.6335275846204
20
-3.39960610144897
30
0
41
1
10
47.3983501869751
20
-3.63262428129303
30
0
41
1
10
47.6531228036529
20
-3.70970441275091
30
0
41
1
10
48.1627307503864
20
-3.86167927679009
30
0
41
1
10
48.417585655432
20
-3.93653113101658
30
0
41
1
10
49.1821557385738
20
-4.15808106823045
30
0
41
1
10
49.6918959779573
20
-4.30173155082028
30
0
41
1
10
50.4563512921779
20
-4.51159763022426
30
0
41
1
10
50.71114334837
20
-4.58061734002882
30
0
41
1
10
51.2206303035669
20
-4.71686303758491
30
0
41
1
10
51.4752964386583
20
-4.78414811529117
30
0
41
1
10
52.2396140231344
20
-4.98227454591577
30
0
41
1
10
52.7497127313719
20
-5.10914260103749
30
0
41
1
10
53.7705543611018
20
-5.35352817438744
30
0
41
1
10
54.2813303954111
20
-5.47097611857072
30
0
41
1
10
55.0478012305314
20
-5.64036362592188
30
0
41
1
10
55.3031135291784
20
-5.69570510227879
30
0
41
1
10
55.8135362161712
20
-5.80350333441328
30
0
41
1
10
56.0687257640752
20
-5.85588020552927
30
0
41
1
10
56.8341546462041
20
-6.0086493303713
30
0
41
1
10
57.3442267943546
20
-6.1047373173453
30
0
41
1
10
58.1088293586141
20
-6.24058213908879
30
0
41
1
10
58.363611576977
20
-6.28448113634849
30
0
41
1
10
58.8729626608119
20
-6.36954998993923
30
0
41
1
10
59.1274981229322
20
-6.41076075365015
30
0
41
1
10
59.891110630677
20
-6.52982009647295
30
0
41
1
10
60.4004684739955
20
-6.60277887533314
30
0
41
1
10
61.419395740772
20
-6.73652007040064
30
0
41
1
10
61.9289777179217
20
-6.79728723401723
30
0
41
1
10
62.6933006694732
20
-6.87939930002636
30
0
41
1
10
62.9480344238345
20
-6.90528442245898
30
0
41
1
10
63.4576546622241
20
-6.95385261806604
30
0
41
1
10
63.7126077241691
20
-6.97648586025696
30
0
41
1
10
64.4779662654157
20
-7.03943501001731
30
0
41
1
10
64.9887651960047
20
-7.07489184365787
30
0
41
1
10
65.5
20
-7.10391020377506
30
0
0
SPLINE
5
C8
100
AcDbEntity
8
1
62
256
6
ByLayer
370
18
48
1
60
0
100
AcDbSpline
70
4
71
3
72
83
73
79
40
0
40
0
40
0
40
0
40
0.0266455760158854
40
0.0266455760158854
40
0.0469237931822223
40
0.0469237931822223
40
0.0672020103485592
40
0.0672020103485592
40
0.107758444681233
40
0.107758444681233
40
0.12803666184757
40
0.12803666184757
40
0.148314879013907
40
0.148314879013907
40
0.168593096180244
40
0.168593096180244
40
0.178732204763412
40
0.178732204763412
40
0.188871313346581
40
0.209149530512917
40
0.209149530512917
40
0.229427747679253
40
0.229427747679253
40
0.249705964845589
40
0.249705964845589
40
0.269984182011925
40
0.269984182011925
40
0.310540616344596
40
0.310540616344596
40
0.330818833510932
40
0.330818833510932
40
0.351097050677267
40
0.351097050677267
40
0.391653485009938
40
0.391653485009938
40
0.411931702176273
40
0.411931702176273
40
0.432209919342609
40
0.432209919342609
40
0.47276635367528
40
0.47276635367528
40
0.513322788007951
40
0.513322788007951
40
0.533601005174286
40
0.533601005174286
40
0.553879222340621
40
0.553879222340621
40
0.594435656673292
40
0.594435656673292
40
0.614713873839627
40
0.614713873839627
40
0.634992091005963
40
0.634992091005963
40
0.655270308172298
40
0.655270308172298
40
0.675548525338634
40
0.675548525338634
40
0.69582674250497
40
0.69582674250497
40
0.716104959671306
40
0.716104959671306
40
0.756661394003976
40
0.756661394003976
40
0.797217828336648
40
0.797217828336648
40
0.817496045502983
40
0.817496045502983
40
0.837774262669318
40
0.837774262669318
40
0.878330697001987
40
0.878330697001987
40
0.898608914168322
40
0.898608914168322
40
0.918887131334657
40
0.918887131334657
40
0.959443565667329
40
0.959443565667329
40
1
40
1
40
1
40
1
41
1
10
53.5203672919396
20
-5.28598791633499
30
0
41
1
10
53.1631848160099
20
-5.37059120727207
30
0
41
1
10
52.8061445520761
20
-5.45285875660718
30
0
41
1
10
52.177674220669
20
-5.59367283851691
30
0
41
1
10
51.9061770340815
20
-5.65318613607334
30
0
41
1
10
51.3630516803917
20
-5.76894891220442
30
0
41
1
10
51.0914373395551
20
-5.82522812543374
30
0
41
1
10
50.2764809040083
20
-5.98936584192364
30
0
41
1
10
49.733012720101
20
-6.09251361202934
30
0
41
1
10
48.9176860425042
20
-6.23797924924574
30
0
41
1
10
48.6458977535
20
-6.28493341695892
30
0
41
1
10
48.1022581004903
20
-6.3756871517632
30
0
41
1
10
47.8303786274058
20
-6.41944422153
30
0
41
1
10
47.2862461207099
20
-6.50338784770747
30
0
41
1
10
47.0140243983055
20
-6.54361928289575
30
0
41
1
10
46.6054740171292
20
-6.60138383021177
30
0
41
1
10
46.4692390527482
20
-6.62020966047683
30
0
41
1
10
46.1968665893094
20
-6.65697882844188
30
0
41
1
10
45.7883996469176
20
-6.71081602716092
30
0
41
1
10
45.3802204421612
20
-6.76072477024883
30
0
41
1
10
44.8362620634413
20
-6.82379124678266
30
0
41
1
10
44.56443847295
20
-6.85359718906568
30
0
41
1
10
44.0209762061396
20
-6.90961668786659
30
0
41
1
10
43.7492863307048
20
-6.93578671671176
30
0
41
1
10
43.2058740263071
20
-6.98439171097368
30
0
41
1
10
42.934173069926
20
-7.00684501307811
30
0
41
1
10
42.1191063049684
20
-7.06870288529385
30
0
41
1
10
41.5757732582456
20
-7.10261736387736
30
0
41
1
10
40.7609708187471
20
-7.14248594954853
30
0
41
1
10
40.4894237476479
20
-7.15394171912257
30
0
41
1
10
39.9461940199943
20
-7.17308055773924
30
0
41
1
10
39.6744706349561
20
-7.18075644735094
30
0
41
1
10
38.8589846595881
20
-7.19815057222343
30
0
41
1
10
38.3149161905601
20
-7.20225067955801
30
0
41
1
10
37.498300674833
20
-7.19713404174141
30
0
41
1
10
37.2259521829
20
-7.19354586387843
30
0
41
1
10
36.6813760799798
20
-7.18256971097762
30
0
41
1
10
36.4092919728954
20
-7.17517728735322
30
0
41
1
10
35.5931668667741
20
-7.14741443040535
30
0
41
1
10
35.0492944730998
20
-7.12148554008311
30
0
41
1
10
33.9621112117535
20
-7.05493983160389
30
0
41
1
10
33.4188164775319
20
-7.01431139945061
30
0
41
1
10
32.6043688580526
20
-6.94218884034896
30
0
41
1
10
32.3329364803296
20
-6.91630060137291
30
0
41
1
10
31.7899011403252
20
-6.86106066736872
30
0
41
1
10
31.5183289900725
20
-6.83168840646283
30
0
41
1
10
30.7034809657232
20
-6.73831972762557
30
0
41
1
10
30.1600630861943
20
-6.66909454535735
30
0
41
1
10
29.3447861581398
20
-6.5545810074108
30
0
41
1
10
29.0730166866285
20
-6.5146077811826
30
0
41
1
10
28.5293449224858
20
-6.43115814737203
30
0
41
1
10
28.2573939285393
20
-6.38774363063891
30
0
41
1
10
27.7131254074475
20
-6.29773886898701
30
0
41
1
10
27.4408163388255
20
-6.25111494823958
30
0
41
1
10
26.8959596873516
20
-6.15462799872853
30
0
41
1
10
26.6236144239119
20
-6.10480238369885
30
0
41
1
10
26.0791095584399
20
-6.00196108735994
30
0
41
1
10
25.8069516746944
20
-5.94894269367217
30
0
41
1
10
25.262844439948
20
-5.83966343093655
30
0
41
1
10
24.9909167761911
20
-5.78336298628815
30
0
41
1
10
24.1751680908133
20
-5.61004436664143
30
0
41
1
10
23.6311864037988
20
-5.48897225616216
30
0
41
1
10
22.5430220972403
20
-5.23574874923074
30
0
41
1
10
21.9988458599262
20
-5.10358700256558
30
0
41
1
10
21.1825596550634
20
-4.89667587308651
30
0
41
1
10
20.9104715804209
20
-4.82623004324529
30
0
41
1
10
20.3659839320861
20
-4.68307896767914
30
0
41
1
10
20.0935552205853
20
-4.61036206029934
30
0
41
1
10
19.2766270295426
20
-4.38895231192438
30
0
41
1
10
18.732231592332
20
-4.23697410054692
30
0
41
1
10
17.9160920082186
20
-4.00218392081268
30
0
41
1
10
17.6441277803595
20
-3.92276535665661
30
0
41
1
10
17.1003434308138
20
-3.76165123561074
30
0
41
1
10
16.8285020153413
20
-3.68000496720413
30
0
41
1
10
16.0127069268687
20
-3.43285380860849
30
0
41
1
10
15.4686079983414
20
-3.26484164740649
30
0
41
1
10
14.3800742550508
20
-2.92203128702931
30
0
41
1
10
13.8356335185446
20
-2.74724975689458
30
0
41
1
10
13.2911082975525
20
-2.56877863868326
30
0
0
SPLINE
5
C9
100
AcDbEntity
8
1
62
256
6
ByLayer
370
18
48
1
60
0
100
AcDbSpline
70
4
71
3
72
24
73
20
40
0
40
0
40
0
40
0
40
0.249999999999991
40
0.249999999999991
40
0.31249999999999
40
0.31249999999999
40
0.374999999999989
40
0.374999999999989
40
0.499999999999991
40
0.499999999999991
40
0.624999999999993
40
0.624999999999993
40
0.749999999999996
40
0.749999999999996
40
0.812499999999997
40
0.812499999999997
40
0.874999999999998
40
0.874999999999998
40
1
40
1
40
1
40
1
41
1
10
73.7702232429996
20
-1.07084127207796
30
0
41
1
10
73.0798397019113
20
-0.822620456176196
30
0
41
1
10
72.3901508124756
20
-0.573197091430274
30
0
41
1
10
71.5291232097044
20
-0.259321082189245
30
0
41
1
10
71.3569642502938
20
-0.196462428842523
30
0
41
1
10
71.0126423383493
20
-0.0708478118258995
30
0
41
1
10
70.840470775629
20
-0.0081156710074595
30
0
41
1
10
70.323928251496
20
0.179867301589326
30
0
41
1
10
69.9795372548538
20
0.30492642276738
30
0
41
1
10
69.2907328277181
20
0.554621416082739
30
0
41
1
10
68.9463174227091
20
0.679251866034889
30
0
41
1
10
68.2575212161598
20
0.928245450467841
30
0
41
1
10
67.9131701476113
20
1.05269017310269
30
0
41
1
10
67.3965818096601
20
1.23891207510678
30
0
41
1
10
67.2243583475866
20
1.30086497206708
30
0
41
1
10
66.8797773737451
20
1.42431121518183
30
0
41
1
10
66.7074289458336
20
1.48582953435667
30
0
41
1
10
66.1902254788503
20
1.66981354148493
30
0
41
1
10
65.8452104578337
20
1.79170345943558
30
0
41
1
10
65.5
20
1.91287466208823
30
0
0
SPLINE
5
CA
100
AcDbEntity
8
1
62
256
6
ByLayer
370
18
48
1
60
0
100
AcDbSpline
70
4
71
3
72
83
73
79
40
0
40
0
40
0
40
0
40
0.0312499999999997
40
0.0312499999999997
40
0.0624999999999993
40
0.0624999999999993
40
0.124999999999998
40
0.124999999999998
40
0.140624999999997
40
0.140624999999997
40
0.156249999999997
40
0.156249999999997
40
0.187499999999997
40
0.187499999999997
40
0.249999999999999
40
0.249999999999999
40
0.28125
40
0.28125
40
0.296875000000002
40
0.296875000000002
40
0.312500000000004
40
0.312500000000004
40
0.343750000000005
40
0.343750000000005
40
0.375000000000007
40
0.375000000000007
40
0.406250000000009
40
0.406250000000009
40
0.437500000000011
40
0.437500000000011
40
0.445312500000011
40
0.445312500000011
40
0.453125000000011
40
0.468750000000011
40
0.468750000000011
40
0.500000000000011
40
0.500000000000011
40
0.531250000000012
40
0.531250000000012
40
0.539062500000012
40
0.539062500000012
40
0.546875000000012
40
0.562500000000011
40
0.562500000000011
40
0.593750000000011
40
0.593750000000011
40
0.625000000000011
40
0.625000000000011
40
0.632812500000011
40
0.632812500000011
40
0.64062500000001
40
0.65625000000001
40
0.65625000000001
40
0.687500000000008
40
0.687500000000008
40
0.718750000000007
40
0.718750000000007
40
0.726562500000006
40
0.726562500000006
40
0.734375000000005
40
0.734375000000005
40
0.750000000000004
40
0.750000000000004
40
0.781250000000002
40
0.781250000000002
40
0.8125
40
0.843749999999998
40
0.843749999999998
40
0.851562499999998
40
0.851562499999998
40
0.859374999999998
40
0.874999999999998
40
0.874999999999998
40
0.906249999999998
40
0.937499999999999
40
0.96875
40
0.96875
40
1
40
1
40
1
40
1
41
1
10
73.7702232430035
20
7.26184165602066
30
0
41
1
10
73.8170657579614
20
7.14569358041976
30
0
41
1
10
73.863981194326
20
7.02780062316194
30
0
41
1
10
73.9580380600751
20
6.78879866170155
30
0
41
1
10
74.0051794090551
20
6.66768904035948
30
0
41
1
10
74.1470267251221
20
6.29983167600571
30
0
41
1
10
74.2421694248359
20
6.04857789413492
30
0
41
1
10
74.3619200381844
20
5.72755514680628
30
0
41
1
10
74.3859101801002
20
5.6630011244018
30
0
41
1
10
74.4339682048077
20
5.53320110880799
30
0
41
1
10
74.4580455338795
20
5.46792861848115
30
0
41
1
10
74.5299604328341
20
5.27224473490128
30
0
41
1
10
74.5776251439113
20
5.14158465872046
30
0
41
1
10
74.7197276858116
20
4.7489902969271
30
0
41
1
10
74.8133232647887
20
4.48646143941448
30
0
41
1
10
74.951088641991
20
4.09118068136181
30
0
41
1
10
74.9965622683882
20
3.95916849253862
30
0
41
1
10
75.0638473058876
20
3.76068364227007
30
0
41
1
10
75.0861202018409
20
3.69444380901663
30
0
41
1
10
75.1302946927252
20
3.56178616004837
30
0
41
1
10
75.152200503373
20
3.49535352259096
30
0
41
1
10
75.2169351134225
20
3.296716254774
30
0
41
1
10
75.2588993446659
20
3.16485466190386
30
0
41
1
10
75.3396758037971
20
2.90204235777642
30
0
41
1
10
75.3784933534255
20
2.77109251298336
30
0
41
1
10
75.4517963019558
20
2.50983185246261
30
0
41
1
10
75.4862879213428
20
2.37952161275896
30
0
41
1
10
75.5491608087121
20
2.11918675307339
30
0
41
1
10
75.5775449458662
20
1.98916107452979
30
0
41
1
10
75.6076222627441
20
1.82653567282594
30
0
41
1
10
75.6133714860822
20
1.79397063910142
30
0
41
1
10
75.6242502902255
20
1.72899804273345
30
0
41
1
10
75.6396243216573
20
1.63187783430141
30
0
41
1
10
75.6520001357731
20
1.53578644786981
30
0
41
1
10
75.672350032413
20
1.34502785749933
30
0
41
1
10
75.6800044423426
20
1.21974768366164
30
0
41
1
10
75.6820475153409
20
0.973413735776347
30
0
41
1
10
75.6764239936146
20
0.852361969103953
30
0
41
1
10
75.6611478768144
20
0.704083785839856
30
0
41
1
10
75.6576779681329
20
0.674534165037784
30
0
41
1
10
75.6499694138964
20
0.6159839385071
30
0
41
1
10
75.6372725012949
20
0.529088849038772
30
0
41
1
10
75.6213691824111
20
0.444950697074205
30
0
41
1
10
75.585819231861
20
0.280262732801475
30
0
41
1
10
75.557148571653
20
0.175248572378393
30
0
41
1
10
75.4924436087527
20
-0.0255896752994715
30
0
41
1
10
75.4564148160032
20
-0.121416484853825
30
0
41
1
10
75.4079704332333
20
-0.235538991016199
30
0
41
1
10
75.3980980607229
20
-0.258104561814378
30
0
41
1
10
75.3780910890751
20
-0.302536695151588
30
0
41
1
10
75.3477054904387
20
-0.368099532380825
30
0
41
1
10
75.3163105077034
20
-0.430469610045748
30
0
41
1
10
75.2524179366104
20
-0.551079138248042
30
0
41
1
10
75.2083672623892
20
-0.625989448769673
30
0
41
1
10
75.1182072999248
20
-0.765178083413531
30
0
41
1
10
75.0720919514411
20
-0.829454450724057
30
0
41
1
10
75.013437720046
20
-0.903161033280639
30
0
41
1
10
75.0016556263065
20
-0.917569627076574
30
0
41
1
10
74.9779933046902
20
-0.945718506527726
30
0
41
1
10
74.9661133291046
20
-0.959457343616549
30
0
41
1
10
74.9304903466879
20
-0.999493589925379
30
0
41
1
10
74.9067120175893
20
-1.0246751480926
30
0
41
1
10
74.8353252035447
20
-1.09579206794237
30
0
41
1
10
74.7876684378274
20
-1.13730878387901
30
0
41
1
10
74.6923104038628
20
-1.20884314253385
30
0
41
1
10
74.596905585103
20
-1.26887608090959
30
0
41
1
10
74.5013801072386
20
-1.30592578846313
30
0
41
1
10
74.4415894429661
20
-1.32174061224265
30
0
41
1
10
74.4296297237947
20
-1.32453400766857
30
0
41
1
10
74.4058098297354
20
-1.32936140987235
30
0
41
1
10
74.3701879698925
20
-1.33547479418459
30
0
41
1
10
74.3348784858161
20
-1.33824203320313
30
0
41
1
10
74.2646453012293
20
-1.33938924507251
30
0
41
1
10
74.1720295572942
20
-1.32923480580951
30
0
41
1
10
74.0357061694701
20
-1.27956015538277
30
0
41
1
10
73.946238209409
20
-1.22342406654593
30
0
41
1
10
73.8573164583249
20
-1.15551749134576
30
0
41
1
10
73.8134897069943
20
-1.1159525696819
30
0
41
1
10
73.7702232430034
20
-1.07084127207938
30
0
0
SPLINE
5
CB
100
AcDbEntity
8
1
62
256
6
ByLayer
370
18
48
1
60
0
100
AcDbSpline
70
4
71
3
72
18
73
14
40
0
40
0
40
0
40
0
40
0.0076165519566505
40
0.0076165519566505
40
0.206093241565322
40
0.206093241565322
40
0.404569931173993
40
0.404569931173993
40
0.503808275978329
40
0.503808275978329
40
0.603046620782665
40
0.603046620782665
40
1
40
1
40
1
40
1
41
1
10
68.5621801275989
20
7.4990625700591
30
0
41
1
10
68.5753994022928
20
7.49906477641994
30
0
41
1
10
68.5886186312219
20
7.49906238099337
30
0
41
1
10
68.9463111254177
20
7.49887310909736
30
0
41
1
10
69.290763792004
20
7.49556630860744
30
0
41
1
10
69.9795374678563
20
7.48268451483094
30
0
41
1
10
70.3238513043212
20
7.47310790821049
30
0
41
1
10
70.840165576801
20
7.45395625285306
30
0
41
1
10
71.0122551854964
20
7.44677529817076
30
0
41
1
10
71.3565436433132
20
7.43086430400933
30
0
41
1
10
71.5287544192939
20
7.42214038446127
30
0
41
1
10
72.3900775927775
20
7.37469099796331
30
0
41
1
10
73.0799228927876
20
7.32450088973718
30
0
41
1
10
73.7702232429995
20
7.26184165602103
30
0
0
SPLINE
5
CC
100
AcDbEntity
8
1
62
256
6
ByLayer
370
18
48
1
60
0
100
AcDbSpline
70
4
71
3
72
28
73
24
40
0
40
0
40
0
40
0
40
0.106002589548449
40
0.106002589548449
40
0.169859547437849
40
0.169859547437849
40
0.233716505327248
40
0.233716505327248
40
0.361430421106045
40
0.361430421106045
40
0.425287378995442
40
0.425287378995442
40
0.489144336884839
40
0.489144336884839
40
0.616858252663629
40
0.616858252663629
40
0.744572168442419
40
0.744572168442419
40
0.808429126331815
40
0.808429126331815
40
0.87228608422121
40
0.87228608422121
40
1
40
1
40
1
40
1
41
1
10
53.5204777458371
20
5.29324330953199
30
0
41
1
10
53.9442238078739
20
5.39332969037724
30
0
41
1
10
54.3681969322084
20
5.49017333451957
30
0
41
1
10
55.0478012305284
20
5.64036362592122
30
0
41
1
10
55.3031135291754
20
5.69570510227814
30
0
41
1
10
55.8135362161681
20
5.80350333441262
30
0
41
1
10
56.0687257640721
20
5.85588020552865
30
0
41
1
10
56.834154646201
20
6.00864933037067
30
0
41
1
10
57.3442267943515
20
6.1047373173447
30
0
41
1
10
58.1088293586108
20
6.24058213908822
30
0
41
1
10
58.3636115769737
20
6.28448113634792
30
0
41
1
10
58.8729626608086
20
6.36954998993872
30
0
41
1
10
59.1274981229289
20
6.41076075364964
30
0
41
1
10
59.8911106306738
20
6.52982009647243
30
0
41
1
10
60.4004684739921
20
6.60277887533266
30
0
41
1
10
61.4193957407687
20
6.73652007040022
30
0
41
1
10
61.9289777179182
20
6.79728723401684
30
0
41
1
10
62.6933006694697
20
6.87939930002597
30
0
41
1
10
62.9480344238311
20
6.90528442245861
30
0
41
1
10
63.4576546622205
20
6.9538526180657
30
0
41
1
10
63.7126077241655
20
6.97648586025664
30
0
41
1
10
64.477966265412
20
7.03943501001703
30
0
41
1
10
64.9887651960047
20
7.07489184365787
30
0
41
1
10
65.5
20
7.10391020377506
30
0
0
SPLINE
5
CD
100
AcDbEntity
8
1
62
256
6
ByLayer
370
18
48
1
60
0
100
AcDbSpline
70
4
71
3
72
61
73
57
40
0
40
0
40
0
40
0
40
0.0298107016121385
40
0.0298107016121385
40
0.059621403224277
40
0.059621403224277
40
0.0894321048364154
40
0.0894321048364154
40
0.119242806448554
40
0.119242806448554
40
0.178864209672831
40
0.178864209672831
40
0.208674911284969
40
0.208674911284969
40
0.238485612897108
40
0.238485612897108
40
0.298107016121385
40
0.298107016121385
40
0.327917717733523
40
0.327917717733523
40
0.357728419345662
40
0.357728419345662
40
0.417349822569939
40
0.417349822569939
40
0.476971225794216
40
0.476971225794216
40
0.506781927406353
40
0.506781927406353
40
0.536592629018491
40
0.536592629018491
40
0.596214032242767
40
0.596214032242767
40
0.626024733854905
40
0.626024733854905
40
0.655835435467043
40
0.655835435467043
40
0.68564613707918
40
0.68564613707918
40
0.700551487885249
40
0.700551487885249
40
0.715456838691317
40
0.745267540303455
40
0.745267540303455
40
0.775078241915592
40
0.775078241915592
40
0.80488894352773
40
0.80488894352773
40
0.834699645139868
40
0.834699645139868
40
0.894321048364143
40
0.894321048364143
40
0.924131749976279
40
0.924131749976279
40
0.953942451588415
40
0.953942451588415
40
1
40
1
40
1
40
1
41
1
10
65.5
20
1.73314720308687
30
0
41
1
10
65.2275598853022
20
1.82535804696045
30
0
41
1
10
64.9552572731435
20
1.91708535966265
30
0
41
1
10
64.410953349525
20
2.09964521300626
30
0
41
1
10
64.1389598580539
20
2.19049917174479
30
0
41
1
10
63.5952432285251
20
2.37121327481776
30
0
41
1
10
63.3234879794626
20
2.46098279761003
30
0
41
1
10
62.7799452704667
20
2.63870623182402
30
0
41
1
10
62.5081889590773
20
2.72674702615083
30
0
41
1
10
61.6929924883017
20
2.98849889392196
30
0
41
1
10
61.1496155050049
20
3.15982108159159
30
0
41
1
10
60.3348132481535
20
3.41235854645072
30
0
41
1
10
60.0632733887124
20
3.49583733100485
30
0
41
1
10
59.5201735882492
20
3.66102109691994
30
0
41
1
10
59.248561266166
20
3.74259508824446
30
0
41
1
10
58.4333938524391
20
3.98392811343322
30
0
41
1
10
57.88958295691
20
4.14049112792409
30
0
41
1
10
57.0734140892471
20
4.36908204012099
30
0
41
1
10
56.8012852101532
20
4.44424196852816
30
0
41
1
10
56.2568969325733
20
4.59250518326181
30
0
41
1
10
55.9845712936714
20
4.66567735183514
30
0
41
1
10
55.1679510038031
20
4.88112512514783
30
0
41
1
10
54.6237766707214
20
5.01907102530544
30
0
41
1
10
53.5360297996813
20
5.28406368021351
30
0
41
1
10
52.9924585975446
20
5.41111352226841
30
0
41
1
10
52.1776742206689
20
5.59367283851694
30
0
41
1
10
51.9061770340815
20
5.65318613607337
30
0
41
1
10
51.3630516803916
20
5.76894891220445
30
0
41
1
10
51.0914373395551
20
5.82522812543377
30
0
41
1
10
50.2764809040082
20
5.98936584192367
30
0
41
1
10
49.7330127201009
20
6.09251361202936
30
0
41
1
10
48.9176860425041
20
6.23797924924574
30
0
41
1
10
48.6458977535
20
6.28493341695895
30
0
41
1
10
48.1022581004902
20
6.3756871517632
30
0
41
1
10
47.8303786274057
20
6.41944422153
30
0
41
1
10
47.2862461207099
20
6.5033878477075
30
0
41
1
10
47.0140243983055
20
6.54361928289578
30
0
41
1
10
46.6054740171291
20
6.6013838302118
30
0
41
1
10
46.469239052748
20
6.62020966047683
30
0
41
1
10
46.1968665893093
20
6.65697882844188
30
0
41
1
10
45.7883996469175
20
6.710816027161
30
0
41
1
10
45.3802204421611
20
6.76072477024883
30
0
41
1
10
44.8362620634412
20
6.82379124678266
30
0
41
1
10
44.5644384729499
20
6.85359718906571
30
0
41
1
10
44.0209762061395
20
6.90961668786659
30
0
41
1
10
43.7492863307047
20
6.93578671671176
30
0
41
1
10
43.205874026307
20
6.98439171097368
30
0
41
1
10
42.934173069926
20
7.00684501307813
30
0
41
1
10
42.1191063049684
20
7.06870288529385
30
0
41
1
10
41.5757732582455
20
7.10261736387736
30
0
41
1
10
40.7609708187471
20
7.14248594954853
30
0
41
1
10
40.4894237476479
20
7.15394171912257
30
0
41
1
10
39.9461940199943
20
7.17308055773924
30
0
41
1
10
39.674470634956
20
7.18075644735094
30
0
41
1
10
38.9826665676893
20
7.19551246608921
30
0
41
1
10
38.56244580113
20
7.19999716992572
30
0
41
1
10
38.1420116132977
20
7.2000015826257
30
0
0
SPLINE
5
CE
100
AcDbEntity
8
1
62
256
6
ByLayer
370
18
48
1
60
0
100
AcDbSpline
70
4
71
3
72
108
73
104
40
0
40
0
40
0
40
0
40
0.062500000000008
40
0.062500000000008
40
0.125000000000016
40
0.125000000000016
40
0.15625000000002
40
0.15625000000002
40
0.187500000000024
40
0.187500000000024
40
0.218750000000028
40
0.218750000000028
40
0.226562500000029
40
0.226562500000029
40
0.23437500000003
40
0.23437500000003
40
0.250000000000031
40
0.250000000000031
40
0.281250000000033
40
0.281250000000033
40
0.312500000000036
40
0.312500000000036
40
0.343750000000038
40
0.343750000000038
40
0.37500000000004
40
0.37500000000004
40
0.390625000000041
40
0.390625000000041
40
0.398437500000041
40
0.398437500000041
40
0.406250000000041
40
0.406250000000041
40
0.421875000000042
40
0.421875000000042
40
0.437500000000043
40
0.437500000000043
40
0.441406250000043
40
0.441406250000043
40
0.445312500000043
40
0.445312500000043
40
0.453125000000043
40
0.453125000000043
40
0.468750000000043
40
0.468750000000043
40
0.484375000000042
40
0.484375000000042
40
0.488281250000043
40
0.488281250000043
40
0.492187500000043
40
0.492187500000043
40
0.500000000000043
40
0.500000000000043
40
0.515625000000043
40
0.515625000000043
40
0.531250000000044
40
0.531250000000044
40
0.535156250000044
40
0.535156250000044
40
0.539062500000044
40
0.546875000000044
40
0.546875000000044
40
0.562500000000045
40
0.562500000000045
40
0.578125000000046
40
0.578125000000046
40
0.582031250000046
40
0.582031250000046
40
0.585937500000046
40
0.585937500000046
40
0.593750000000045
40
0.593750000000045
40
0.609375000000043
40
0.609375000000043
40
0.625000000000042
40
0.625000000000042
40
0.656250000000039
40
0.656250000000039
40
0.664062500000039
40
0.664062500000039
40
0.671875000000038
40
0.687500000000036
40
0.687500000000036
40
0.718750000000032
40
0.718750000000032
40
0.750000000000028
40
0.750000000000028
40
0.781250000000024
40
0.781250000000024
40
0.81250000000002
40
0.81250000000002
40
0.843750000000016
40
0.843750000000016
40
0.859375000000014
40
0.859375000000014
40
0.875000000000012
40
0.875000000000012
40
0.906250000000009
40
0.906250000000009
40
0.937500000000006
40
0.937500000000006
40
0.968750000000003
40
0.968750000000003
40
1
40
1
40
1
40
1
41
1
10
10
20
6.44631068226502
30
0
41
1
10
9.6146303594852
20
6.52068678014197
30
0
41
1
10
9.2338768834899
20
6.58634126053812
30
0
41
1
10
8.48168341848043
20
6.69699158779923
30
0
41
1
10
8.1102383279121
20
6.74201725081173
30
0
41
1
10
7.56021221072601
20
6.79018154176501
30
0
41
1
10
7.37806189944877
20
6.80298943752081
30
0
41
1
10
7.01620044776141
20
6.82116317499879
30
0
41
1
10
6.8364888442544
20
6.82653281929001
30
0
41
1
10
6.47959196827145
20
6.82858676783857
30
0
41
1
10
6.30240590610396
20
6.82527775277526
30
0
41
1
10
6.08258805521177
20
6.81465464106373
30
0
41
1
10
6.03870788172964
20
6.81220425318807
30
0
41
1
10
5.9511172139139
20
6.80661893711709
30
0
41
1
10
5.90737385539404
20
6.80348089369906
30
0
41
1
10
5.77686610508306
20
6.79302573098869
30
0
41
1
10
5.69070675940105
20
6.7846633312933
30
0
41
1
10
5.43485415841528
20
6.75507686918479
30
0
41
1
10
5.26777584184993
20
6.72937993701029
30
0
41
1
10
4.94127512073186
20
6.66380429901088
30
0
41
1
10
4.78180953366265
20
6.62393559853214
30
0
41
1
10
4.47177001930797
20
6.52676656709278
30
0
41
1
10
4.32340374456115
20
6.47015296316224
30
0
41
1
10
4.04158501774148
20
6.3378527291263
30
0
41
1
10
3.90810554452281
20
6.26220636362913
30
0
41
1
10
3.72118519290342
20
6.13085002631743
30
0
41
1
10
3.66110656581967
20
6.08406636724828
30
0
41
1
10
3.57476084109757
20
6.00870229675382
30
0
41
1
10
3.54654777463065
20
5.98264959969285
30
0
41
1
10
3.49194902270017
20
5.92914655774385
30
0
41
1
10
3.46552547780678
20
5.90167009608902
30
0
41
1
10
3.38896975787924
20
5.81697307865707
30
0
41
1
10
3.3415454530907
20
5.75749078167789
30
0
41
1
10
3.25453594783647
20
5.6318737126461
30
0
41
1
10
3.21494743169308
20
5.565741811706
30
0
41
1
10
3.17090672760958
20
5.4783971714956
30
0
41
1
10
3.16237163509319
20
5.4606935779926
30
0
41
1
10
3.1458647947712
20
5.42480095212662
30
0
41
1
10
3.13789004633895
20
5.40660105874608
30
0
41
1
10
3.11499137847869
20
5.35163419182806
30
0
41
1
10
3.10103523709327
20
5.31438086376946
30
0
41
1
10
3.06312632457477
20
5.20077059595963
30
0
41
1
10
3.04312550229622
20
5.12256632427048
30
0
41
1
10
3.01400302050848
20
4.96103518371595
30
0
41
1
10
3.00487979259907
20
4.87770903326657
30
0
41
1
10
3.00064648482237
20
4.77016452398269
30
0
41
1
10
3.00015907054561
20
4.74848599602183
30
0
41
1
10
2.99991505384779
20
4.70478383221197
30
0
41
1
10
3.00015973025725
20
4.68272091304775
30
0
41
1
10
3.00200131154079
20
4.61629301637817
30
0
41
1
10
3.00469448073781
20
4.57185892187797
30
0
41
1
10
3.01702690700742
20
4.43812622176551
30
0
41
1
10
3.03091139309555
20
4.34839762480445
30
0
41
1
10
3.06945420887746
20
4.16786732992185
30
0
41
1
10
3.09411447200657
20
4.07706551324426
30
0
41
1
10
3.13147145006937
20
3.962930868065
30
0
41
1
10
3.13928116050636
20
3.94004265668545
30
0
41
1
10
3.15544894570556
20
3.89448417076471
30
0
41
1
10
3.18054791006767
20
3.82639118108844
30
0
41
1
10
3.20810358262443
20
3.75900936585702
30
0
41
1
10
3.26629494823243
20
3.62514152507705
30
0
41
1
10
3.30918870412398
20
3.53708865469704
30
0
41
1
10
3.40234683264987
20
3.36314901900516
30
0
41
1
10
3.45261389534949
20
3.27726304155863
30
0
41
1
10
3.51966544565491
20
3.17115900913302
30
0
41
1
10
3.53328702979314
20
3.15000098243999
30
0
41
1
10
3.56094437546634
20
3.10780835184886
30
0
41
1
10
3.57499603613277
20
3.08675056036202
30
0
41
1
10
3.61762420644072
20
3.02395862280395
30
0
41
1
10
3.64666227848818
20
2.98261777443253
30
0
41
1
10
3.73550182418197
20
2.86004579705028
30
0
41
1
10
3.79702413826899
20
2.78026148796661
30
0
41
1
10
3.92408759357608
20
2.62407462208671
30
0
41
1
10
3.9896304137562
20
2.54767347094639
30
0
41
1
10
4.19162095285802
20
2.32298569869241
30
0
41
1
10
4.33340432384253
20
2.17919280255066
30
0
41
1
10
4.51788186082359
20
2.00556446309275
30
0
41
1
10
4.5551711346472
20
1.97111994278467
30
0
41
1
10
4.63031469086422
20
1.90293605044403
30
0
41
1
10
4.74365944754294
20
1.80191379060346
30
0
41
1
10
4.85876847894113
20
1.70439950293337
30
0
41
1
10
5.0910606351305
20
1.51348599052784
30
0
41
1
10
5.24867775107344
20
1.39167588983045
30
0
41
1
10
5.56826313546981
20
1.15668417813927
30
0
41
1
10
5.73023595005515
20
1.04351224483708
30
0
41
1
10
6.05765072768435
20
0.824097406849432
30
0
41
1
10
6.22309478597884
20
0.717859151639573
30
0
41
1
10
6.55673802387392
20
0.510978216053644
30
0
41
1
10
6.72493803566064
20
0.410337658492267
30
0
41
1
10
7.06350703638986
20
0.213591134183076
30
0
41
1
10
7.233876135163
20
0.117485902556126
30
0
41
1
10
7.49070358160398
20
-0.0238916837969896
30
0
41
1
10
7.57655202456169
20
-0.0705663813608339
30
0
41
1
10
7.7485028973833
20
-0.163001028924157
30
0
41
1
10
7.83457116130657
20
-0.208743058178669
30
0
41
1
10
8.0930104998622
20
-0.34466311714732
30
0
41
1
10
8.26561284134749
20
-0.433543535612131
30
0
41
1
10
8.61127680211087
20
-0.60827364525781
30
0
41
1
10
8.7843380037751
20
-0.69412322474443
30
0
41
1
10
9.13086938763891
20
-0.862958044903166
30
0
41
1
10
9.30433924448965
20
-0.945942996606476
30
0
41
1
10
9.65175936355433
20
-1.10895152398874
30
0
41
1
10
9.82570949620606
20
-1.18897443451769
30
0
41
1
10
10
20
-1.26734325739608
30
0
0
SPLINE
5
CF
100
AcDbEntity
8
1
62
256
6
ByLayer
370
18
48
1
60
0
100
AcDbSpline
70
4
71
3
72
14
73
10
40
0
40
0
40
0
40
0
40
0.249999999999996
40
0.249999999999996
40
0.499999999999997
40
0.499999999999997
40
0.749999999999999
40
0.749999999999999
40
1
40
1
40
1
40
1
41
1
10
13.2911082975524
20
-2.5687786386832
30
0
41
1
10
13.0118928598518
20
-2.47449524803858
30
0
41
1
10
12.7343724106471
20
-2.37576289609791
30
0
41
1
10
12.1818444659202
20
-2.17117670872517
30
0
41
1
10
11.9068331292846
20
-2.06533313379271
30
0
41
1
10
11.3587664860839
20
-1.84762870564933
30
0
41
1
10
11.0857092684886
20
-1.73577444677068
30
0
41
1
10
10.5414135254326
20
-1.50619525926095
30
0
41
1
10
10.2701751458864
20
-1.38847255573015
30
0
41
1
10
10
20
-1.26734325739608
30
0
0
SPLINE
5
D0
100
AcDbEntity
8
1
62
256
6
ByLayer
370
18
48
1
60
0
100
AcDbSpline
70
4
71
4
72
16
73
11
40
0
40
0
40
0
40
0
40
0
40
0.289325001548305
40
0.289325001548305
40
0.289325001548305
40
0.710674998451691
40
0.710674998451691
40
0.710674998451691
40
1
40
1
40
1
40
1
40
1
41
0.996676335528713
10
16.533139003354
20
5.93522352117298
30
0
41
0.99469636029557
10
16.4337054430977
20
5.41700592888371
30
0
41
0.994357915415869
10
16.2604225037813
20
4.72102782048728
30
0
41
1
10
16.021408985151
20
3.90615910758666
30
0
41
1
10
15.3969263428599
20
1.95446220076786
30
0
41
0.988033871712585
10
14.9121236504532
20
0.584191886648203
30
0
41
1
10
14.4273209580466
20
-0.588859264974303
30
0
41
1
10
13.8028383157555
20
-1.91325825035847
30
0
41
0.994357915415869
10
13.5638247971252
20
-2.35227740164738
30
0
41
0.99469636029557
10
13.3905418578088
20
-2.56535822818042
30
0
41
0.996676335528713
10
13.2911082975524
20
-2.56877863868325
30
0
0
SPLINE
5
D1
100
AcDbEntity
8
1
62
256
6
ByLayer
370
18
48
1
60
0
100
AcDbSpline
70
4
71
3
72
25
73
21
40
0
40
0
40
0
40
0
40
0.125000000000006
40
0.125000000000006
40
0.250000000000011
40
0.250000000000011
40
0.375000000000017
40
0.375000000000017
40
0.500000000000026
40
0.500000000000026
40
0.562500000000027
40
0.562500000000027
40
0.593750000000028
40
0.593750000000028
40
0.625000000000028
40
0.750000000000019
40
0.750000000000019
40
0.875000000000009
40
0.875000000000009
40
1
40
1
40
1
40
1
41
1
10
10
20
6.44631068226502
30
0
41
1
10
10.2784096057664
20
6.46054448009792
30
0
41
1
10
10.5561926265937
20
6.46944209957041
30
0
41
1
10
11.1106126931475
20
6.47795322749977
30
0
41
1
10
11.3872490833227
20
6.47755655908475
30
0
41
1
10
11.9394579728036
20
6.46812072518608
30
0
41
1
10
12.215029990551
20
6.4590741373018
30
0
41
1
10
12.7651855790242
20
6.43251778280464
30
0
41
1
10
13.0397687731528
20
6.41500141373206
30
0
41
1
10
13.4509633570917
20
6.38232048727633
30
0
41
1
10
13.5879149331581
20
6.37035770995107
30
0
41
1
10
13.7931810873998
20
6.35079708003818
30
0
41
1
10
13.8615427053297
20
6.34401036205887
30
0
41
1
10
13.9979339484156
20
6.32992712726957
30
0
41
1
10
14.3382425984374
20
6.29343033892062
30
0
41
1
10
14.6753308937769
20
6.25050979474767
30
0
41
1
10
15.2112325671629
20
6.17380860927855
30
0
41
1
10
15.4774646127212
20
6.13144236683965
30
0
41
1
10
16.0071881096278
20
6.03900106314217
30
0
41
1
10
16.2706816813781
20
5.98892820680445
30
0
41
1
10
16.5331390033539
20
5.93522352117301
30
0
0
SPLINE
5
D2
100
AcDbEntity
8
SK1
62
256
6
ByLayer
370
18
48
1
60
0
100
AcDbSpline
70
4
71
3
72
32
73
28
40
0
40
0
40
0
40
0
40
0.124999999999998
40
0.124999999999998
40
0.249999999999995
40
0.249999999999995
40
0.374999999999994
40
0.374999999999994
40
0.437499999999993
40
0.437499999999993
40
0.499999999999992
40
0.499999999999992
40
0.624999999999988
40
0.624999999999988
40
0.656249999999988
40
0.656249999999988
40
0.687499999999988
40
0.687499999999988
40
0.74999999999999
40
0.74999999999999
40
0.874999999999995
40
0.874999999999995
40
0.906249999999996
40
0.906249999999996
40
0.937499999999998
40
0.937499999999998
40
1
40
1
40
1
40
1
41
1
10
-43.3565069115799
20
-3.65034953143106
30
0
41
1
10
-43.3331458400142
20
-3.71424193668162
30
0
41
1
10
-43.3079887114829
20
-3.77702079626832
30
0
41
1
10
-43.2534212788423
20
-3.90009490817781
30
0
41
1
10
-43.2240149751524
20
-3.96039186522651
30
0
41
1
10
-43.1600568886594
20
-4.07814914960466
30
0
41
1
10
-43.1255132756746
20
-4.13561297938583
30
0
41
1
10
-43.0688646453433
20
-4.21928792338744
30
0
41
1
10
-43.0491724017425
20
-4.24675781820287
30
0
41
1
10
-43.0079384175976
20
-4.30075945417201
30
0
41
1
10
-42.9863407519915
20
-4.32734895814056
30
0
41
1
10
-42.9191284528727
20
-4.40464696643178
30
0
41
1
10
-42.8709653357112
20
-4.45314968312832
30
0
41
1
10
-42.8054200814028
20
-4.509129269905
30
0
41
1
10
-42.7920414880158
20
-4.52009075475445
30
0
41
1
10
-42.7647046009874
20
-4.54151368998052
30
0
41
1
10
-42.7507137384423
20
-4.55199803198428
30
0
41
1
10
-42.7080552923505
20
-4.58246627252342
30
0
41
1
10
-42.6787844981831
20
-4.60141919352105
30
0
41
1
10
-42.588250922941
20
-4.65388326760876
30
0
41
1
10
-42.5243097226538
20
-4.68306815187688
30
0
41
1
10
-42.4386823815538
20
-4.71050598268181
30
0
41
1
10
-42.4212064346087
20
-4.71554997578619
30
0
41
1
10
-42.3860524535981
20
-4.72455026306568
30
0
41
1
10
-42.3683576016114
20
-4.72851630488563
30
0
41
1
10
-42.3149119913326
20
-4.73878190613445
30
0
41
1
10
-42.2788010667419
20
-4.74345326345804
30
0
41
1
10
-42.2421801837133
20
-4.74582511601491
30
0
0
SPLINE
5
D3
100
AcDbEntity
8
SK1
62
256
6
ByLayer
370
18
48
1
60
0
100
AcDbSpline
70
4
71
3
72
32
73
28
40
0
40
0
40
0
40
0
40
0.125000000000003
40
0.125000000000003
40
0.156250000000003
40
0.156250000000003
40
0.187500000000004
40
0.187500000000004
40
0.250000000000005
40
0.250000000000005
40
0.312500000000005
40
0.312500000000005
40
0.343750000000005
40
0.343750000000005
40
0.375000000000006
40
0.375000000000006
40
0.500000000000003
40
0.500000000000003
40
0.625
40
0.625
40
0.6875
40
0.6875
40
0.749999999999999
40
0.749999999999999
40
0.875
40
0.875
40
1
40
1
40
1
40
1
41
1
10
-42.2421801837133
20
4.74582511601491
30
0
41
1
10
-42.3153322469605
20
4.74108722075121
30
0
41
1
10
-42.3858382182456
20
4.7272872503076
30
0
41
1
10
-42.4711061087408
20
4.70015187597528
30
0
41
1
10
-42.48801508965
20
4.69422552159887
30
0
41
1
10
-42.5215500807622
20
4.68139247012627
30
0
41
1
10
-42.538108088977
20
4.67450874413797
30
0
41
1
10
-42.5867495214036
20
4.65272655031879
30
0
41
1
10
-42.6179919315484
20
4.63663028483114
30
0
41
1
10
-42.6784054316375
20
4.60165673094545
30
0
41
1
10
-42.707575323895
20
4.58277786641952
30
0
41
1
10
-42.7499378830322
20
4.55256723042981
30
0
41
1
10
-42.7638261651475
20
4.54218093900309
30
0
41
1
10
-42.7911594285605
20
4.52080182261719
30
0
41
1
10
-42.8046315534326
20
4.50978473494575
30
0
41
1
10
-42.8704332773146
20
4.45367358335039
30
0
41
1
10
-42.9183823606968
20
4.40538606397868
30
0
41
1
10
-43.007200043589
20
4.30347549467811
30
0
41
1
10
-43.0480454261384
20
4.2498368571521
30
0
41
1
10
-43.1050091824334
20
4.16599396786131
30
0
41
1
10
-43.1233071500575
20
4.13742383693679
30
0
41
1
10
-43.1584042823023
20
4.07953032751405
30
0
41
1
10
-43.1751994309136
20
4.05022195040382
30
0
41
1
10
-43.2235710813646
20
3.96130068776944
30
0
41
1
10
-43.2531438067293
20
3.90069540381026
30
0
41
1
10
-43.3079263511211
20
3.77718661911314
30
0
41
1
10
-43.3331314373585
20
3.7142813278675
30
0
41
1
10
-43.3565069115799
20
3.65034953143106
30
0
0
SPLINE
5
D4
100
AcDbEntity
8
SK1
62
256
6
ByLayer
370
18
48
1
60
0
100
AcDbSpline
70
4
71
3
72
30
73
26
40
0
40
0
40
0
40
0
40
0.124999999999979
40
0.124999999999979
40
0.249999999999958
40
0.249999999999958
40
0.374999999999936
40
0.374999999999936
40
0.437499999999926
40
0.437499999999926
40
0.499999999999916
40
0.499999999999916
40
0.624999999999908
40
0.624999999999908
40
0.656249999999909
40
0.656249999999909
40
0.68749999999991
40
0.68749999999991
40
0.749999999999925
40
0.749999999999925
40
0.874999999999955
40
0.874999999999955
40
0.937499999999978
40
0.937499999999978
40
1
40
1
40
1
40
1
41
1
10
-13.8451406288876
20
5.60819856978108
30
0
41
1
10
-13.8759395902576
20
5.65059861248182
30
0
41
1
10
-13.9086043985849
20
5.69152013904011
30
0
41
1
10
-13.97811386775
20
5.77019024979575
30
0
41
1
10
-14.014955839279
20
5.80794050815649
30
0
41
1
10
-14.0934302354091
20
5.87995203844818
30
0
41
1
10
-14.1350574932389
20
5.91421654427231
30
0
41
1
10
-14.2017568377706
20
5.9626308553903
30
0
41
1
10
-14.2245427507748
20
5.97815093867467
30
0
41
1
10
-14.271111369383
20
6.00780504420359
30
0
41
1
10
-14.2949186549204
20
6.02195716348245
30
0
41
1
10
-14.3679929543377
20
6.06230994483028
30
0
41
1
10
-14.4189025587777
20
6.08641928516369
30
0
41
1
10
-14.4856782999412
20
6.11265441828212
30
0
41
1
10
-14.4991911565357
20
6.11770540783806
30
0
41
1
10
-14.5265457311327
20
6.12740066932034
30
0
41
1
10
-14.5403907312758
20
6.13204445753533
30
0
41
1
10
-14.5820565255816
20
6.14522762072318
30
0
41
1
10
-14.6101298025697
20
6.1530644585383
30
0
41
1
10
-14.6952537679042
20
6.17368858860661
30
0
41
1
10
-14.7532042147282
20
6.18360487337517
30
0
41
1
10
-14.8420639597241
20
6.19236276786617
30
0
41
1
10
-14.8721089186227
20
6.1942576600421
30
0
41
1
10
-14.9321260265236
20
6.19588455534111
30
0
41
1
10
-14.9621459212296
20
6.19562887243728
30
0
41
1
10
-14.9921771997116
20
6.19429975368809
30
0
0
SPLINE
5
D5
100
AcDbEntity
8
SK1
62
256
6
ByLayer
370
18
48
1
60
0
100
AcDbSpline
70
4
71
3
72
29
73
25
40
0
40
0
40
0
40
0
40
0.125000000000045
40
0.125000000000045
40
0.25000000000009
40
0.25000000000009
40
0.281250000000093
40
0.281250000000093
40
0.312500000000097
40
0.375000000000092
40
0.375000000000092
40
0.500000000000084
40
0.500000000000084
40
0.562500000000073
40
0.562500000000073
40
0.625000000000062
40
0.625000000000062
40
0.750000000000038
40
0.750000000000038
40
0.875000000000015
40
0.875000000000015
40
0.937500000000008
40
0.937500000000008
40
1
40
1
40
1
40
1
41
1
10
-14.9921771997116
20
-6.19429975368809
30
0
41
1
10
-14.9320573843484
20
-6.19696052531805
30
0
41
1
10
-14.8726744232101
20
-6.19530622075879
30
0
41
1
10
-14.7552923361598
20
-6.18388224594813
30
0
41
1
10
-14.6972937188803
20
-6.17410945589265
30
0
41
1
10
-14.6256493001772
20
-6.15684175670819
30
0
41
1
10
-14.6113371248737
20
-6.15312631775188
30
0
41
1
10
-14.5830607924918
20
-6.14526136952958
30
0
41
1
10
-14.5410867139313
20
-6.13279564418732
30
0
41
1
10
-14.500383626949
20
-6.118393573753
30
0
41
1
10
-14.4205661285236
20
-6.08714648466275
30
0
41
1
10
-14.3694669105832
20
-6.06306708368854
30
0
41
1
10
-14.2956992221607
20
-6.02241573888855
30
0
41
1
10
-14.2715415923124
20
-6.00806907471573
30
0
41
1
10
-14.2247924605031
20
-5.97831973436635
30
0
41
1
10
-14.2021202056678
20
-5.96287721339851
30
0
41
1
10
-14.1360355381032
20
-5.91496059376203
30
0
41
1
10
-14.0945476428777
20
-5.88090305019935
30
0
41
1
10
-14.0160214797599
20
-5.80899071657845
30
0
41
1
10
-13.9789867514485
20
-5.77113330484545
30
0
41
1
10
-13.9264169069796
20
-5.7117020344985
30
0
41
1
10
-13.9093970751005
20
-5.69145219620981
30
0
41
1
10
-13.8764815896183
20
-5.65032851626569
30
0
41
1
10
-13.8605603440826
20
-5.62942644739971
30
0
41
1
10
-13.845140628887
20
-5.60819856978154
30
0
0
SPLINE
5
D6
100
AcDbEntity
8
1
62
256
6
ByLayer
370
13
48
1
60
0
100
AcDbSpline
70
4
71
3
72
77
73
73
40
0
40
0
40
0
40
0
40
0.0312500000000007
40
0.0312500000000007
40
0.0625000000000015
40
0.0625000000000015
40
0.0937500000000023
40
0.0937500000000023
40
0.125000000000003
40
0.125000000000003
40
0.132812500000003
40
0.132812500000003
40
0.140625000000003
40
0.140625000000003
40
0.156250000000003
40
0.156250000000003
40
0.187500000000003
40
0.187500000000003
40
0.218750000000003
40
0.218750000000003
40
0.250000000000004
40
0.250000000000004
40
0.281250000000004
40
0.281250000000004
40
0.312500000000004
40
0.312500000000004
40
0.343750000000004
40
0.343750000000004
40
0.375000000000004
40
0.375000000000004
40
0.406250000000004
40
0.406250000000004
40
0.437500000000005
40
0.437500000000005
40
0.468750000000005
40
0.468750000000005
40
0.500000000000005
40
0.500000000000005
40
0.531250000000005
40
0.531250000000005
40
0.562500000000006
40
0.562500000000006
40
0.570312500000005
40
0.570312500000005
40
0.578125000000005
40
0.593750000000005
40
0.593750000000005
40
0.625000000000005
40
0.625000000000005
40
0.656250000000004
40
0.656250000000004
40
0.687500000000004
40
0.687500000000004
40
0.718750000000003
40
0.718750000000003
40
0.750000000000003
40
0.750000000000003
40
0.781250000000003
40
0.781250000000003
40
0.812500000000002
40
0.812500000000002
40
0.843750000000002
40
0.843750000000002
40
0.875000000000002
40
0.875000000000002
40
0.906250000000001
40
0.906250000000001
40
0.937500000000001
40
0.937500000000001
40
0.96875
40
0.96875
40
1
40
1
40
1
40
1
41
1
10
65.5
20
-6.66765935730567
30
0
41
1
10
65.5497829998522
20
-6.8013943296298
30
0
41
1
10
65.5995659997043
20
-6.91868166963658
30
0
41
1
10
65.6991319994086
20
-7.12006057566643
30
0
41
1
10
65.7489149992606
20
-7.20415838014367
30
0
41
1
10
65.848480998965
20
-7.34018323938935
30
0
41
1
10
65.8982639988171
20
-7.39211929847909
30
0
41
1
10
65.9978299985214
20
-7.46593249328811
30
0
41
1
10
66.0476129983735
20
-7.48781976339373
30
0
41
1
10
66.1098417481886
20
-7.49820777682913
30
0
41
1
10
66.1222874981518
20
-7.49943833486387
30
0
41
1
10
66.1471789980778
20
-7.50025586162354
30
0
41
1
10
66.1596247480408
20
-7.49985010969615
30
0
41
1
10
66.1969619979299
20
-7.49613649578217
30
0
41
1
10
66.221853497856
20
-7.49032153936079
30
0
41
1
10
66.2965279976343
20
-7.46227616131284
30
0
41
1
10
66.3463109974863
20
-7.42942073858575
30
0
41
1
10
66.4458769971906
20
-7.33276904881049
30
0
41
1
10
66.4956599970427
20
-7.26896288572772
30
0
41
1
10
66.595225996747
20
-7.10866979623134
30
0
41
1
10
66.6450089965991
20
-7.01217471122197
30
0
41
1
10
66.7445749963034
20
-6.78594504636334
30
0
41
1
10
66.7943579961556
20
-6.65620566694719
30
0
41
1
10
66.8939239958598
20
-6.36431045269427
30
0
41
1
10
66.943706995712
20
-6.20215446964437
30
0
41
1
10
67.0432729954162
20
-5.84770957129214
30
0
41
1
10
67.0930559952684
20
-5.65542571334041
30
0
41
1
10
67.1926219949726
20
-5.24439670394725
30
0
41
1
10
67.2424049948247
20
-5.02566138035524
30
0
41
1
10
67.341970994529
20
-4.56656321460665
30
0
41
1
10
67.3917539943812
20
-4.32621357851747
30
0
41
1
10
67.4913199940855
20
-3.82953095123403
30
0
41
1
10
67.5411029939376
20
-3.57321252480682
30
0
41
1
10
67.6406689936418
20
-3.05062206369905
30
0
41
1
10
67.690451993494
20
-2.78436381771962
30
0
41
1
10
67.7900179931983
20
-2.2478755744246
30
0
41
1
10
67.8398009930504
20
-1.97765684292577
30
0
41
1
10
67.9393669927547
20
-1.43879953012117
30
0
41
1
10
67.9891499926068
20
-1.17016865815344
30
0
41
1
10
68.0887159923111
20
-0.639321100320984
30
0
41
1
10
68.1384989921632
20
-0.377108321560002
30
0
41
1
10
68.2007277419784
20
-0.0558147533136548
30
0
41
1
10
68.2131734919414
20
0.0079010890897564
30
0
41
1
10
68.2380649918675
20
0.136094378195793
30
0
41
1
10
68.2754022417566
20
0.329367455367787
30
0
41
1
10
68.3127394916457
20
0.525348812502557
30
0
41
1
10
68.387413991424
20
0.920196340115069
30
0
41
1
10
68.437196991276
20
1.18730131804389
30
0
41
1
10
68.5367629909803
20
1.72470233091454
30
0
41
1
10
68.5865459908324
20
1.99499185276338
30
0
41
1
10
68.6861119905367
20
2.5334160060504
30
0
41
1
10
68.7358949903888
20
2.8015404096277
30
0
41
1
10
68.8354609900931
20
3.32975540559525
30
0
41
1
10
68.8852439899453
20
3.58983283916871
30
0
41
1
10
68.9848099896495
20
4.09589665997495
30
0
41
1
10
69.0345929895017
20
4.34186850494652
30
0
41
1
10
69.1341589892059
20
4.81390782588954
30
0
41
1
10
69.1839419890581
20
5.03996143807419
30
0
41
1
10
69.2835079887623
20
5.46702931741677
30
0
41
1
10
69.3332909886145
20
5.66803251335961
30
0
41
1
10
69.4328569883188
20
6.0409249824869
30
0
41
1
10
69.4826399881709
20
6.21280761261389
30
0
41
1
10
69.5822059878752
20
6.52471616223573
30
0
41
1
10
69.6319889877273
20
6.66474061937302
30
0
41
1
10
69.7315549874316
20
6.91164537497923
30
0
41
1
10
69.7813379872837
20
7.01852913127055
30
0
41
1
10
69.880903986988
20
7.19928850087638
30
0
41
1
10
69.9306869868401
20
7.27317139073682
30
0
41
1
10
70.0302529865444
20
7.38932256065297
30
0
41
1
10
70.0800359863965
20
7.4316003705531
30
0
41
1
10
70.1796019861007
20
7.48693400214754
30
0
41
1
10
70.2293849859529
20
7.5
30
0
41
1
10
70.2791679858051
20
7.5
30
0
0
SPLINE
5
D7
100
AcDbEntity
8
1
62
256
6
ByLayer
370
13
48
1
60
0
100
AcDbSpline
70
4
71
3
72
22
73
18
40
0
40
0
40
0
40
0
40
0.125
40
0.125
40
0.25
40
0.25
40
0.375
40
0.375
40
0.5
40
0.5
40
0.625
40
0.625
40
0.75
40
0.75
40
0.875
40
0.875
40
1
40
1
40
1
40
1
41
1
10
72.4821117549303
20
7.5
30
0
41
1
10
72.5357830669334
20
7.5
30
0
41
1
10
72.5894543789364
20
7.48480867968098
30
0
41
1
10
72.6967970029425
20
7.42022529281689
30
0
41
1
10
72.7504683149456
20
7.37081841697773
30
0
41
1
10
72.8578109389516
20
7.23492869806603
30
0
41
1
10
72.9114822509547
20
7.14843234686828
30
0
41
1
10
73.0188248749608
20
6.93689335590764
30
0
41
1
10
73.0724961869638
20
6.81184124854687
30
0
41
1
10
73.17983881097
20
6.52348079858007
30
0
41
1
10
73.233510122973
20
6.36016954493539
30
0
41
1
10
73.3408527469791
20
5.99753607250895
30
0
41
1
10
73.3945240589821
20
5.79821896402012
30
0
41
1
10
73.5018666829882
20
5.36774556184062
30
0
41
1
10
73.5555379949913
20
5.13660217689048
30
0
41
1
10
73.6628806189973
20
4.64830153638377
30
0
41
1
10
73.7165519310004
20
4.39116296397708
30
0
41
1
10
73.7702232430034
20
4.12451520381958
30
0
0
SPLINE
5
D8
100
AcDbEntity
8
1
62
256
6
ByLayer
370
13
48
1
60
0
100
AcDbSpline
70
4
71
3
72
71
73
67
40
0
40
0
40
0
40
0
40
0.0312500000000012
40
0.0312500000000012
40
0.0390625000000014
40
0.0390625000000014
40
0.0468750000000016
40
0.0625000000000021
40
0.0625000000000021
40
0.125000000000003
40
0.125000000000003
40
0.156250000000003
40
0.156250000000003
40
0.187500000000003
40
0.187500000000003
40
0.218750000000003
40
0.218750000000003
40
0.250000000000004
40
0.250000000000004
40
0.281250000000004
40
0.281250000000004
40
0.312500000000004
40
0.312500000000004
40
0.343750000000004
40
0.343750000000004
40
0.375000000000004
40
0.375000000000004
40
0.406250000000005
40
0.406250000000005
40
0.437500000000005
40
0.437500000000005
40
0.500000000000005
40
0.500000000000005
40
0.515625000000005
40
0.515625000000005
40
0.523437500000005
40
0.523437500000005
40
0.531250000000006
40
0.531250000000006
40
0.562500000000005
40
0.562500000000005
40
0.593750000000005
40
0.593750000000005
40
0.625000000000005
40
0.625000000000005
40
0.656250000000004
40
0.656250000000004
40
0.687500000000004
40
0.687500000000004
40
0.718750000000004
40
0.718750000000004
40
0.750000000000003
40
0.750000000000003
40
0.781250000000003
40
0.781250000000003
40
0.812500000000002
40
0.812500000000002
40
0.843750000000002
40
0.843750000000002
40
0.875000000000002
40
0.875000000000002
40
0.906250000000001
40
0.906250000000001
40
0.937500000000001
40
0.937500000000001
40
1
40
1
40
1
40
1
41
1
10
65.4999999999999
20
-7.46146686969385
30
0
41
1
10
65.5445879765326
20
-7.48554551558479
30
0
41
1
10
65.5891759530653
20
-7.4979452519465
30
0
41
1
10
65.6449109237311
20
-7.5002191389064
30
0
41
1
10
65.6560579178642
20
-7.50001896561432
30
0
41
1
10
65.6783519061305
20
-7.4982922414342
30
0
41
1
10
65.7117928885299
20
-7.49370420837661
30
0
41
1
10
65.7452338709294
20
-7.48295813615687
30
0
41
1
10
65.856703812261
20
-7.432774208305
30
0
41
1
10
65.9458797653263
20
-7.3463108394003
30
0
41
1
10
66.0796436949242
20
-7.13779180231558
30
0
41
1
10
66.1242316714568
20
-7.05521807324067
30
0
41
1
10
66.2134076245221
20
-6.86342558053573
30
0
41
1
10
66.2579956010546
20
-6.7542036252016
30
0
41
1
10
66.3471715541199
20
-6.50946574740081
30
0
41
1
10
66.3917595306526
20
-6.37394891091205
30
0
41
1
10
66.4809354837179
20
-6.0779072353221
30
0
41
1
10
66.5255234602505
20
-5.91738413440069
30
0
41
1
10
66.6146994133157
20
-5.57353955516808
30
0
41
1
10
66.6592873898484
20
-5.39022245243001
30
0
41
1
10
66.7484633429136
20
-5.00383097660983
30
0
41
1
10
66.7930513194462
20
-4.80076317866917
30
0
41
1
10
66.8822272725115
20
-4.37857653707366
30
0
41
1
10
66.9268152490442
20
-4.15946567832435
30
0
41
1
10
67.0159912021094
20
-3.70934249909644
30
0
41
1
10
67.060579178642
20
-3.47833859095618
30
0
41
1
10
67.1497551317073
20
-3.00877237277285
30
0
41
1
10
67.1943431082399
20
-2.77021792753797
30
0
41
1
10
67.2835190613051
20
-2.28983930906025
30
0
41
1
10
67.3281070378378
20
-2.04802166607621
30
0
41
1
10
67.4618709674356
20
-1.32368744822199
30
0
41
1
10
67.5510469205009
20
-0.84258138904724
30
0
41
1
10
67.6625168618324
20
-0.259884021808318
30
0
41
1
10
67.6848108500988
20
-0.144256825822339
30
0
41
1
10
67.7182518324983
20
0.0275755764106123
30
0
41
1
10
67.7293988266315
20
0.0848009800033083
30
0
41
1
10
67.7516928148978
20
0.200039835177051
30
0
41
1
10
67.7628398090309
20
0.257914477199421
30
0
41
1
10
67.8185747796967
20
0.548462844553086
30
0
41
1
10
67.8631627562294
20
0.784685315390135
30
0
41
1
10
67.9523387092946
20
1.26173744796452
30
0
41
1
10
67.9969266858272
20
1.50256454134188
30
0
41
1
10
68.0861026388924
20
1.98530213217481
30
0
41
1
10
68.130690615425
20
2.22720808822621
30
0
41
1
10
68.2198665684903
20
2.70812397937951
30
0
41
1
10
68.2644545450229
20
2.94712752722873
30
0
41
1
10
68.3536304980882
20
3.4179682785539
30
0
41
1
10
68.3982184746209
20
3.64979770534057
30
0
41
1
10
68.4873944276861
20
4.10194356477038
30
0
41
1
10
68.5319824042187
20
4.32225159550865
30
0
41
1
10
68.6211583572839
20
4.74717761503439
30
0
41
1
10
68.6657463338166
20
4.95178754184514
30
0
41
1
10
68.7549222868818
20
5.34156075329372
30
0
41
1
10
68.7995102634144
20
5.52671730560334
30
0
41
1
10
68.8886862164798
20
5.8744733187649
30
0
41
1
10
68.9332741930124
20
6.03706819066898
30
0
41
1
10
69.0224501460776
20
6.33740927855027
30
0
41
1
10
69.0670381226102
20
6.47515352152172
30
0
41
1
10
69.1562140756755
20
6.72442056159531
30
0
41
1
10
69.2008020522081
20
6.83594405315824
30
0
41
1
10
69.2899780052734
20
7.0323345463614
30
0
41
1
10
69.334565981806
20
7.11720456535932
30
0
41
1
10
69.4237419348713
20
7.26073345863361
30
0
41
1
10
69.4683299114039
20
7.31939704504413
30
0
41
1
10
69.6020938410017
20
7.45788180215413
30
0
41
1
10
69.691269794067
20
7.5
30
0
41
1
10
69.7804457471323
20
7.5
30
0
0
SPLINE
5
D9
100
AcDbEntity
8
1
62
256
6
ByLayer
370
13
48
1
60
0
100
AcDbSpline
70
4
71
3
72
22
73
18
40
0
40
0
40
0
40
0
40
0.125
40
0.125
40
0.25
40
0.25
40
0.375
40
0.375
40
0.5
40
0.5
40
0.625
40
0.625
40
0.75
40
0.75
40
0.875
40
0.875
40
1
40
1
40
1
40
1
41
1
10
71.9833895162575
20
7.5
30
0
41
1
10
72.0578409215386
20
7.5
30
0
41
1
10
72.1322923268197
20
7.47070518558974
30
0
41
1
10
72.2811951373818
20
7.34377172072411
30
0
41
1
10
72.3556465426628
20
7.24605859109494
30
0
41
1
10
72.5045493532251
20
6.97661137786025
30
0
41
1
10
72.5790007585061
20
6.80482335553612
30
0
41
1
10
72.7279035690684
20
6.38779502388368
30
0
41
1
10
72.8023549743494
20
6.14254639267827
30
0
41
1
10
72.9512577849115
20
5.58643580907795
30
0
41
1
10
73.0257091901926
20
5.275622558382
30
0
41
1
10
73.1746120007548
20
4.60290993979746
30
0
41
1
10
73.2490634060359
20
4.24110434502197
30
0
41
1
10
73.397966216598
20
3.48541567246079
30
0
41
1
10
73.4724176218791
20
3.09164053549668
30
0
41
1
10
73.6213204324413
20
2.29234640410002
30
0
41
1
10
73.6957718377224
20
1.88691615530456
30
0
41
1
10
73.7702232430034
20
1.4849070381677
30
0
0
SPLINE
5
DA
100
AcDbEntity
8
1
62
256
6
ByLayer
370
13
48
1
60
0
100
AcDbSpline
70
4
71
3
72
42
73
38
40
0
40
0
40
0
40
0
40
0.0625000000000002
40
0.0625000000000002
40
0.125
40
0.125
40
0.187500000000001
40
0.187500000000001
40
0.250000000000001
40
0.250000000000001
40
0.312500000000001
40
0.312500000000001
40
0.375000000000001
40
0.375000000000001
40
0.437500000000001
40
0.437500000000001
40
0.453125000000001
40
0.453125000000001
40
0.468750000000001
40
0.468750000000001
40
0.500000000000001
40
0.500000000000001
40
0.562500000000001
40
0.562500000000001
40
0.625000000000001
40
0.625000000000001
40
0.687500000000001
40
0.687500000000001
40
0.75
40
0.75
40
0.8125
40
0.8125
40
0.875
40
0.875
40
0.9375
40
0.9375
40
1
40
1
40
1
40
1
41
1
10
65.5
20
-7.26106156003019
30
0
41
1
10
65.5787859064263
20
-7.15069348462751
30
0
41
1
10
65.6575718128525
20
-6.99972985576386
30
0
41
1
10
65.815143625705
20
-6.61433803718074
30
0
41
1
10
65.8939295321312
20
-6.37987407993319
30
0
41
1
10
66.0515013449837
20
-5.83388702226821
30
0
41
1
10
66.13028725141
20
-5.522405884194
30
0
41
1
10
66.2878590642624
20
-4.83762660107885
30
0
41
1
10
66.3666449706886
20
-4.46444123820575
30
0
41
1
10
66.5242167835411
20
-3.67794669986458
30
0
41
1
10
66.6030026899674
20
-3.26478059896988
30
0
41
1
10
66.7605745028199
20
-2.42245077932086
30
0
41
1
10
66.8393604092461
20
-1.99340985042304
30
0
41
1
10
66.9969322220985
20
-1.14171214192856
30
0
41
1
10
67.0757181285248
20
-0.719125214106384
30
0
41
1
10
67.1742005115576
20
-0.205911326151494
30
0
41
1
10
67.1938969881642
20
-0.104005805076042
30
0
41
1
10
67.2332899413773
20
0.0981136736088217
30
0
41
1
10
67.2529864179838
20
0.199955910995129
30
0
41
1
10
67.3120758478035
20
0.507798251650286
30
0
41
1
10
67.3514688010166
20
0.715995718058934
30
0
41
1
10
67.469647660656
20
1.3464809900625
30
0
41
1
10
67.5484335670822
20
1.77480664207747
30
0
41
1
10
67.7060053799347
20
2.62740114983893
30
0
41
1
10
67.7847912863609
20
3.05157168519887
30
0
41
1
10
67.9423630992134
20
3.8722190904567
30
0
41
1
10
68.0211490056397
20
4.26855740484058
30
0
41
1
10
68.1787208184922
20
5.01006103149513
30
0
41
1
10
68.2575067249184
20
5.35509183603105
30
0
41
1
10
68.4150785377709
20
5.97494433451985
30
0
41
1
10
68.4938644441971
20
6.24968501884254
30
0
41
1
10
68.6514362570496
20
6.71777761055114
30
0
41
1
10
68.7302221634758
20
6.91112757824229
30
0
41
1
10
68.8877939763282
20
7.21442447653473
30
0
41
1
10
68.9665798827544
20
7.32443728566275
30
0
41
1
10
69.124151695607
20
7.46717603342321
30
0
41
1
10
69.2029376020332
20
7.5
30
0
41
1
10
69.2817235084594
20
7.5
30
0
0
SPLINE
5
DB
100
AcDbEntity
8
1
62
256
6
ByLayer
370
13
48
1
60
0
100
AcDbSpline
70
4
71
3
72
42
73
38
40
0
40
0
40
0
40
0
40
0.0624999999999999
40
0.0624999999999999
40
0.125
40
0.125
40
0.1875
40
0.1875
40
0.25
40
0.25
40
0.3125
40
0.3125
40
0.375
40
0.375
40
0.4375
40
0.4375
40
0.5
40
0.5
40
0.5625
40
0.5625
40
0.625
40
0.625
40
0.6875
40
0.6875
40
0.75
40
0.75
40
0.8125
40
0.8125
40
0.875
40
0.875
40
0.890625
40
0.890625
40
0.90625
40
0.90625
40
0.9375
40
0.9375
40
1
40
1
40
1
40
1
41
1
10
71.4846672775847
20
7.5
30
0
41
1
10
71.5322830268642
20
7.5
30
0
41
1
10
71.5798987761438
20
7.48804871931685
30
0
41
1
10
71.675130274703
20
7.43754679956231
30
0
41
1
10
71.7227460239825
20
7.39898801429038
30
0
41
1
10
71.8179775225416
20
7.29312943779843
30
0
41
1
10
71.8655932718211
20
7.22582191857313
30
0
41
1
10
71.9608247703802
20
7.06113672467527
30
0
41
1
10
72.0084405196598
20
6.96375290933904
30
0
41
1
10
72.103672018219
20
6.73861118982197
30
0
41
1
10
72.1512877674985
20
6.61084990309971
30
0
41
1
10
72.2465192660576
20
6.32582180792338
30
0
41
1
10
72.2941350153372
20
6.16855526654379
30
0
41
1
10
72.3893665138963
20
5.82660751964411
30
0
41
1
10
72.4369822631759
20
5.64193057513
30
0
41
1
10
72.532213761735
20
5.24840795026023
30
0
41
1
10
72.5798295110145
20
5.03957016740222
30
0
41
1
10
72.6750610095736
20
4.60194238857568
30
0
41
1
10
72.7226767588532
20
4.37316289951914
30
0
41
1
10
72.8179082574123
20
3.90055818461303
30
0
41
1
10
72.8655240066919
20
3.65674460227785
30
0
41
1
10
72.960755505251
20
3.15932985629777
30
0
41
1
10
73.0083712545305
20
2.90573989739642
30
0
41
1
10
73.1036027530896
20
2.3940334421589
30
0
41
1
10
73.1512185023692
20
2.13592637840952
30
0
41
1
10
73.2464500009283
20
1.62013525202659
30
0
41
1
10
73.2940657502079
20
1.36245799626397
30
0
41
1
10
73.389297248767
20
0.851918113321943
30
0
41
1
10
73.4369129980465
20
0.599059371294203
30
0
41
1
10
73.4964326846459
20
0.288290517925503
30
0
41
1
10
73.5083366219658
20
0.226400096197182
30
0
41
1
10
73.5321444966056
20
0.103195586957099
30
0
41
1
10
73.5440484339256
20
0.0419903316243619
30
0
41
1
10
73.5797602458853
20
-0.141404789370426
30
0
41
1
10
73.603568120525
20
-0.264896551121439
30
0
41
1
10
73.6749917444444
20
-0.638472142373189
30
0
41
1
10
73.7226074937239
20
-0.891679979333617
30
0
41
1
10
73.7702232430034
20
-1.14719289988145
30
0
0
SPLINE
5
DC
100
AcDbEntity
8
1
62
256
6
ByLayer
370
13
48
1
60
0
100
AcDbSpline
70
4
71
3
72
43
73
39
40
0
40
0
40
0
40
0
40
0.0625000000000011
40
0.0625000000000011
40
0.125000000000002
40
0.125000000000002
40
0.187500000000003
40
0.187500000000003
40
0.250000000000004
40
0.250000000000004
40
0.312500000000006
40
0.312500000000006
40
0.343750000000006
40
0.343750000000006
40
0.359375000000006
40
0.367187500000006
40
0.367187500000006
40
0.375000000000006
40
0.375000000000006
40
0.437500000000005
40
0.437500000000005
40
0.500000000000005
40
0.500000000000005
40
0.562500000000004
40
0.562500000000004
40
0.625000000000004
40
0.625000000000004
40
0.687500000000003
40
0.687500000000003
40
0.750000000000002
40
0.750000000000002
40
0.812500000000002
40
0.812500000000002
40
0.875000000000001
40
0.875000000000001
40
0.937500000000001
40
0.937500000000001
40
1
40
1
40
1
40
1
41
1
10
65.5
20
-6.015388713395
30
0
41
1
10
65.5683958597872
20
-5.77116798959202
30
0
41
1
10
65.6367917195744
20
-5.49848344712927
30
0
41
1
10
65.7735834391488
20
-4.90633917497064
30
0
41
1
10
65.8419792989361
20
-4.58693470506489
30
0
41
1
10
65.9787710185105
20
-3.9152541573209
30
0
41
1
10
66.0471668782978
20
-3.56304832031987
30
0
41
1
10
66.1839585978723
20
-2.84142018215246
30
0
41
1
10
66.2523544576595
20
-2.47206374901916
30
0
41
1
10
66.389146177234
20
-1.73142490162218
30
0
41
1
10
66.4575420370211
20
-1.36018894920699
30
0
41
1
10
66.560135826702
20
-0.811783007245225
30
0
41
1
10
66.5943337565956
20
-0.630368297049387
30
0
41
1
10
66.645630651436
20
-0.361344328948547
30
0
41
1
10
66.6712790988562
20
-0.227604488515681
30
0
41
1
10
66.6969275462764
20
-0.0951915695448236
30
0
41
1
10
66.7140265112232
20
-0.0072283543904064
30
0
41
1
10
66.7225759936966
20
0.0365648485837369
30
0
41
1
10
66.7995213359573
20
0.433021059170955
30
0
41
1
10
66.8679171957444
20
0.795430829739672
30
0
41
1
10
67.0047089153189
20
1.52973464004503
30
0
41
1
10
67.0731047751061
20
1.90160358567002
30
0
41
1
10
67.2098964946806
20
2.64127866767743
30
0
41
1
10
67.2782923544678
20
3.00903475171373
30
0
41
1
10
67.4150840740422
20
3.72504616002726
30
0
41
1
10
67.4834799338295
20
4.07323378375247
30
0
41
1
10
67.620271653404
20
4.73458405782995
30
0
41
1
10
67.6886675131911
20
5.0476775045156
30
0
41
1
10
67.8254592327655
20
5.62535190593761
30
0
41
1
10
67.8938550925528
20
5.88988144589086
30
0
41
1
10
68.0306468121273
20
6.36086007115654
30
0
41
1
10
68.0990426719145
20
6.56728933508654
30
0
41
1
10
68.2358343914889
20
6.91753177079624
30
0
41
1
10
68.3042302512762
20
7.06135894334514
30
0
41
1
10
68.4410219708507
20
7.28697775564396
30
0
41
1
10
68.5094178306378
20
7.36880821993853
30
0
41
1
10
68.6462095502122
20
7.47529475114865
30
0
41
1
10
68.7146054099994
20
7.5
30
0
41
1
10
68.7830012697867
20
7.5
30
0
0
SPLINE
5
DD
100
AcDbEntity
8
1
62
256
6
ByLayer
370
13
48
1
60
0
100
AcDbSpline
70
4
71
3
72
42
73
38
40
0
40
0
40
0
40
0
40
0.0625000000000001
40
0.0625000000000001
40
0.125
40
0.125
40
0.187500000000001
40
0.187500000000001
40
0.250000000000001
40
0.250000000000001
40
0.312500000000001
40
0.312500000000001
40
0.375000000000001
40
0.375000000000001
40
0.437500000000001
40
0.437500000000001
40
0.500000000000001
40
0.500000000000001
40
0.562500000000001
40
0.562500000000001
40
0.625000000000002
40
0.625000000000002
40
0.687500000000002
40
0.687500000000002
40
0.718750000000002
40
0.718750000000002
40
0.734375000000002
40
0.734375000000002
40
0.750000000000002
40
0.750000000000002
40
0.812500000000001
40
0.812500000000001
40
0.875000000000001
40
0.875000000000001
40
0.937500000000001
40
0.937500000000001
40
1
40
1
40
1
40
1
41
1
10
70.9859450389118
20
7.5
30
0
41
1
10
71.0439508348305
20
7.5
30
0
41
1
10
71.101956630749
20
7.48224931525908
30
0
41
1
10
71.2179682225862
20
7.40646776447727
30
0
41
1
10
71.2759740185048
20
7.34841510633049
30
0
41
1
10
71.3919856103419
20
7.18858270021943
30
0
41
1
10
71.4499914062604
20
7.08678375093959
30
0
41
1
10
71.5660029980976
20
6.83801625596118
30
0
41
1
10
71.6240087940162
20
6.69103581915385
30
0
41
1
10
71.7400203858534
20
6.35295207339868
30
0
41
1
10
71.7980261817719
20
6.16184817526815
30
0
41
1
10
71.9140377736091
20
5.73925462032932
30
0
41
1
10
71.9720435695277
20
5.50777732607764
30
0
41
1
10
72.0880551613648
20
5.01069131180094
30
0
41
1
10
72.1460609572834
20
4.74510623540132
30
0
41
1
10
72.2620725491205
20
4.18802627320929
30
0
41
1
10
72.3200783450391
20
3.89656161873722
30
0
41
1
10
72.4360899368763
20
3.29708269249827
30
0
41
1
10
72.4940957327948
20
2.98909907098644
30
0
41
1
10
72.6101073246319
20
2.36614335495685
30
0
41
1
10
72.6681131205506
20
2.0511967333307
30
0
41
1
10
72.7841247123877
20
1.42321495338703
30
0
41
1
10
72.8421305083063
20
1.11019663462389
30
0
41
1
10
72.9291392021842
20
0.64779753348904
30
0
41
1
10
72.9581421001434
20
0.494840816946919
30
0
41
1
10
73.0016464470824
20
0.267764751327206
30
0
41
1
10
73.016147896062
20
0.192465061484199
30
0
41
1
10
73.0451507940213
20
0.0427392554388462
30
0
41
1
10
73.0596522430009
20
-0.0314363665129349
30
0
41
1
10
73.1321594878991
20
-0.405529733830235
30
0
41
1
10
73.1901652838177
20
-0.711894902692933
30
0
41
1
10
73.3061768756548
20
-1.33248899654947
30
0
41
1
10
73.3641826715734
20
-1.64670834205847
30
0
41
1
10
73.4801942634106
20
-2.27508269376088
30
0
41
1
10
73.5382000593293
20
-2.58921864098906
30
0
41
1
10
73.6542116511663
20
-3.20831721748274
30
0
41
1
10
73.712217447085
20
-3.51325273534687
30
0
41
1
10
73.7702232430034
20
-3.80880704353604
30
0
0
SPLINE
5
DE
100
AcDbEntity
8
1
62
256
6
ByLayer
370
13
48
1
60
0
100
AcDbSpline
70
4
71
3
72
42
73
38
40
0
40
0
40
0
40
0
40
0.0624999999999992
40
0.0624999999999992
40
0.124999999999998
40
0.124999999999998
40
0.187499999999998
40
0.187499999999998
40
0.249999999999997
40
0.249999999999997
40
0.265624999999997
40
0.265624999999997
40
0.281249999999997
40
0.281249999999997
40
0.312499999999997
40
0.312499999999997
40
0.374999999999997
40
0.374999999999997
40
0.437499999999997
40
0.437499999999997
40
0.499999999999998
40
0.499999999999998
40
0.562499999999998
40
0.562499999999998
40
0.624999999999998
40
0.624999999999998
40
0.687499999999999
40
0.687499999999999
40
0.749999999999999
40
0.749999999999999
40
0.812499999999999
40
0.812499999999999
40
0.874999999999999
40
0.874999999999999
40
0.9375
40
0.9375
40
1
40
1
40
1
40
1
41
1
10
65.5
20
-3.80881125742477
30
0
41
1
10
65.5580058131482
20
-3.51325695059651
30
0
41
1
10
65.6160116262964
20
-3.20832140585128
30
0
41
1
10
65.7320232525928
20
-2.58922272778983
30
0
41
1
10
65.790029065741
20
-2.27508670594383
30
0
41
1
10
65.9060406920375
20
-1.64671216908621
30
0
41
1
10
65.9640465051857
20
-1.33249271310638
30
0
41
1
10
66.080058131482
20
-0.711898375274728
30
0
41
1
10
66.1380639446302
20
-0.40553307295815
30
0
41
1
10
66.2105712110655
20
-0.0314395319810217
30
0
41
1
10
66.2250726643526
20
0.0427361100085477
30
0
41
1
10
66.2540755709267
20
0.192461936152228
30
0
41
1
10
66.2685770242137
20
0.267761636900701
30
0
41
1
10
66.3120813840749
20
0.494837737829073
30
0
41
1
10
66.3410842906491
20
0.647794481371619
30
0
41
1
10
66.4280930103713
20
1.11019367390708
30
0
41
1
10
66.4860988235195
20
1.42321206756327
30
0
41
1
10
66.6021104498159
20
2.05119402321648
30
0
41
1
10
66.6601162629642
20
2.36614074566222
30
0
41
1
10
66.7761278892605
20
2.98909668424514
30
0
41
1
10
66.8341337024087
20
3.29708042747259
30
0
41
1
10
66.9501453287052
20
3.89655961020304
30
0
41
1
10
67.0081511418534
20
4.18802439941186
30
0
41
1
10
67.1241627681498
20
4.74510463430545
30
0
41
1
10
67.182168581298
20
5.01068984861769
30
0
41
1
10
67.2981802075944
20
5.50777613154409
30
0
41
1
10
67.3561860207426
20
5.7392535564812
30
0
41
1
10
67.472197647039
20
6.16184735625299
30
0
41
1
10
67.5302034601872
20
6.35295136849393
30
0
41
1
10
67.6462150864837
20
6.69103531899435
30
0
41
1
10
67.7042208996319
20
6.83801584642228
30
0
41
1
10
67.8202325259282
20
7.08678349544911
30
0
41
1
10
67.8782383390765
20
7.18858250816575
30
0
41
1
10
67.9942499653728
20
7.3484150135312
30
0
41
1
10
68.052255778521
20
7.40646770752107
30
0
41
1
10
68.1682674048175
20
7.48224930468643
30
0
41
1
10
68.2262732179657
20
7.5
30
0
41
1
10
68.2842790311139
20
7.5
30
0
0
SPLINE
5
DF
100
AcDbEntity
8
1
62
256
6
ByLayer
370
13
48
1
60
0
100
AcDbSpline
70
4
71
3
72
43
73
39
40
0
40
0
40
0
40
0
40
0.0624999999999986
40
0.0624999999999986
40
0.124999999999997
40
0.124999999999997
40
0.187499999999996
40
0.187499999999996
40
0.249999999999994
40
0.249999999999994
40
0.312499999999993
40
0.312499999999993
40
0.374999999999992
40
0.374999999999992
40
0.43749999999999
40
0.43749999999999
40
0.499999999999989
40
0.499999999999989
40
0.562499999999987
40
0.562499999999987
40
0.624999999999986
40
0.624999999999986
40
0.632812499999986
40
0.632812499999986
40
0.640624999999986
40
0.656249999999987
40
0.656249999999987
40
0.687499999999988
40
0.687499999999988
40
0.74999999999999
40
0.74999999999999
40
0.812499999999993
40
0.812499999999993
40
0.874999999999995
40
0.874999999999995
40
0.937499999999998
40
0.937499999999998
40
1
40
1
40
1
40
1
41
1
10
70.4872228002391
20
7.5
30
0
41
1
10
70.5556186427967
20
7.5
30
0
41
1
10
70.6240144853543
20
7.47529476364372
30
0
41
1
10
70.7608061704695
20
7.36880828791865
30
0
41
1
10
70.829202013027
20
7.28697786667493
30
0
41
1
10
70.9659936981423
20
7.06135917332853
30
0
41
1
10
71.0343895406999
20
6.91753207672076
30
0
41
1
10
71.171181225815
20
6.56728982322949
30
0
41
1
10
71.2395770683726
20
6.36086066557093
30
0
41
1
10
71.3763687534877
20
5.88988227520954
30
0
41
1
10
71.4447645960453
20
5.62535286382914
30
0
41
1
10
71.5815562811605
20
5.04767872945709
30
0
41
1
10
71.6499521237182
20
4.734585421151
30
0
41
1
10
71.7867438088333
20
4.07323541924993
30
0
41
1
10
71.8551396513909
20
3.72504792922228
30
0
41
1
10
71.9919313365061
20
3.00903677030433
30
0
41
1
10
72.0603271790637
20
2.64128080190011
30
0
41
1
10
72.1971188641788
20
1.90160592341238
30
0
41
1
10
72.2655147067364
20
1.52973706565842
30
0
41
1
10
72.4023063918516
20
0.795433398554025
30
0
41
1
10
72.4707022344093
20
0.433023683341048
30
0
41
1
10
72.5476475572866
20
0.0365675167064978
30
0
41
1
10
72.5561970376062
20
-0.0072256795384362
30
0
41
1
10
72.5732959982457
20
-0.0951888597960249
30
0
41
1
10
72.5989444392047
20
-0.227601726709139
30
0
41
1
10
72.6245928801638
20
-0.361341516081922
30
0
41
1
10
72.675889762082
20
-0.630365383769828
30
0
41
1
10
72.7100876833608
20
-0.811780029296187
30
0
41
1
10
72.8126814471972
20
-1.36018578725927
30
0
41
1
10
72.8810772897548
20
-1.7314216303707
30
0
41
1
10
73.01786897487
20
-2.47206030358279
30
0
41
1
10
73.0862648174276
20
-2.84141667196576
30
0
41
1
10
73.2230565025428
20
-3.56304474086508
30
0
41
1
10
73.2914523451003
20
-3.91525057347417
30
0
41
1
10
73.4282440302155
20
-4.58693118236991
30
0
41
1
10
73.4966398727731
20
-4.90633571788882
30
0
41
1
10
73.6334315578883
20
-5.49848019167942
30
0
41
1
10
73.7018274004459
20
-5.7711648701395
30
0
41
1
10
73.7702232430034
20
-6.01538576034957
30
0
0
SPLINE
5
E0
100
AcDbEntity
8
1
62
256
6
ByLayer
370
13
48
1
60
0
100
AcDbSpline
70
4
71
3
72
42
73
38
40
0
40
0
40
0
40
0
40
0.0625
40
0.0625
40
0.09375
40
0.09375
40
0.109375
40
0.109375
40
0.125
40
0.125
40
0.1875
40
0.1875
40
0.25
40
0.25
40
0.3125
40
0.3125
40
0.375
40
0.375
40
0.4375
40
0.4375
40
0.5
40
0.5
40
0.5625
40
0.5625
40
0.625
40
0.625
40
0.6875
40
0.6875
40
0.75
40
0.75
40
0.8125
40
0.8125
40
0.875
40
0.875
40
0.9375
40
0.9375
40
1
40
1
40
1
40
1
41
1
10
65.5
20
-1.14719733780166
30
0
41
1
10
65.5476157665092
20
-0.891684298469414
30
0
41
1
10
65.5952315330184
20
-0.638476332594962
30
0
41
1
10
65.6666551827822
20
-0.264900538990872
30
0
41
1
10
65.6904630660368
20
-0.141408708287344
30
0
41
1
10
65.7261748909187
20
0.0419865176722851
30
0
41
1
10
65.7380788325459
20
0.103191764854103
30
0
41
1
10
65.7618867158005
20
0.226396294911979
30
0
41
1
10
65.7737906574279
20
0.288286727753643
30
0
41
1
10
65.8333103655643
20
0.599055640235804
30
0
41
1
10
65.8809261320735
20
0.851914440960314
30
0
41
1
10
65.9761576650919
20
1.36245446386377
30
0
41
1
10
66.0237734316011
20
1.6201318008977
30
0
41
1
10
66.1190049646195
20
2.13592311058346
30
0
41
1
10
66.1666207311287
20
2.3940302763645
30
0
41
1
10
66.261852264147
20
2.90573695292341
30
0
41
1
10
66.3094680306563
20
3.15932703110653
30
0
41
1
10
66.4046995636746
20
3.65674202782287
30
0
41
1
10
66.4523153301838
20
3.9005557415966
30
0
41
1
10
66.5475468632022
20
4.37316072524482
30
0
41
1
10
66.5951626297114
20
4.60194035158281
30
0
41
1
10
66.6903941627297
20
5.03956840388801
30
0
41
1
10
66.738009929239
20
5.24840632291873
30
0
41
1
10
66.8332414622573
20
5.64192921217378
30
0
41
1
10
66.8808572287666
20
5.82660628487812
30
0
41
1
10
66.9760887617849
20
6.16855427411764
30
0
41
1
10
67.023704528294
20
6.32582092963059
30
0
41
1
10
67.1189360613124
20
6.6108492343424
30
0
41
1
10
67.1665518278217
20
6.73861061645914
30
0
41
1
10
67.26178336084
20
6.96375250509851
30
0
41
1
10
67.3093991273492
20
7.0611363941639
30
0
41
1
10
67.4046306603676
20
7.2258217127663
30
0
41
1
10
67.4522464268768
20
7.29312928297574
30
0
41
1
10
67.5474779598952
20
7.39898793928518
30
0
41
1
10
67.5950937264043
20
7.43754675340372
30
0
41
1
10
67.6903252594227
20
7.48804871065349
30
0
41
1
10
67.7379410259319
20
7.5
30
0
41
1
10
67.7855567924411
20
7.5
30
0
0
SPLINE
5
E1
100
AcDbEntity
8
1
62
256
6
ByLayer
370
13
48
1
60
0
100
AcDbSpline
70
4
71
3
72
42
73
38
40
0
40
0
40
0
40
0
40
0.0625000000000001
40
0.0625000000000001
40
0.125
40
0.125
40
0.1875
40
0.1875
40
0.25
40
0.25
40
0.312500000000001
40
0.312500000000001
40
0.375000000000001
40
0.375000000000001
40
0.437500000000001
40
0.437500000000001
40
0.500000000000001
40
0.500000000000001
40
0.531250000000001
40
0.531250000000001
40
0.546875000000001
40
0.546875000000001
40
0.562500000000001
40
0.562500000000001
40
0.625000000000001
40
0.625000000000001
40
0.687500000000001
40
0.687500000000001
40
0.75
40
0.75
40
0.8125
40
0.8125
40
0.875
40
0.875
40
0.9375
40
0.9375
40
1
40
1
40
1
40
1
41
1
10
69.9885005615663
20
7.5
30
0
41
1
10
70.0672864507629
20
7.5
30
0
41
1
10
70.1460723399596
20
7.46717604785755
30
0
41
1
10
70.3036441183528
20
7.32443736487474
30
0
41
1
10
70.3824300075493
20
7.21442460619377
30
0
41
1
10
70.5400017859425
20
6.91112784654985
30
0
41
1
10
70.6187876751392
20
6.71777796710864
30
0
41
1
10
70.7763594535325
20
6.24968558358634
30
0
41
1
10
70.855145342729
20
5.97494501914557
30
0
41
1
10
71.0127171211223
20
5.35509277806619
30
0
41
1
10
71.0915030103188
20
5.01006211090652
30
0
41
1
10
71.2490747887119
20
4.2685587578122
30
0
41
1
10
71.3278606779086
20
3.87222057943293
30
0
41
1
10
71.4854324563019
20
3.05157342662443
30
0
41
1
10
71.5642183454985
20
2.62740300758665
30
0
41
1
10
71.7217901238917
20
1.77480869984819
30
0
41
1
10
71.8005760130883
20
1.3464831315101
30
0
41
1
10
71.9187548468832
20
0.715997956463809
30
0
41
1
10
71.9581477914815
20
0.507800517675179
30
0
41
1
10
72.0172372083789
20
0.199958211395341
30
0
41
1
10
72.0369336806781
20
0.0981159591468099
30
0
41
1
10
72.0763266252764
20
-0.104003449471662
30
0
41
1
10
72.0960230975755
20
-0.205908935929472
30
0
41
1
10
72.1945054590713
20
-0.719122653683826
30
0
41
1
10
72.2732913482679
20
-1.14170945448171
30
0
41
1
10
72.4308631266611
20
-1.99340695015573
30
0
41
1
10
72.5096490158577
20
-2.42244779346365
30
0
41
1
10
72.667220794251
20
-3.26477750594688
30
0
41
1
10
72.7460066834476
20
-3.67794358549855
30
0
41
1
10
72.9035784618408
20
-4.4644381606463
30
0
41
1
10
72.9823643510374
20
-4.83762358181369
30
0
41
1
10
73.1399361294306
20
-5.52240306305663
30
0
41
1
10
73.2187220186273
20
-5.83388434093095
30
0
41
1
10
73.3762937970204
20
-6.37987174640512
30
0
41
1
10
73.455079686217
20
-6.61433591146013
30
0
41
1
10
73.6126514646103
20
-6.9997281888345
30
0
41
1
10
73.6914373538068
20
-7.1506920684179
30
0
41
1
10
73.7702232430034
20
-7.26106040148571
30
0
0
SPLINE
5
E2
100
AcDbEntity
8
1
62
256
6
ByLayer
370
13
48
1
60
0
100
AcDbSpline
70
4
71
3
72
22
73
18
40
0
40
0
40
0
40
0
40
0.125
40
0.125
40
0.25
40
0.25
40
0.375
40
0.375
40
0.5
40
0.5
40
0.625
40
0.625
40
0.75
40
0.75
40
0.875
40
0.875
40
1
40
1
40
1
40
1
41
1
10
65.5
20
1.48490257256361
30
0
41
1
10
65.5744514397404
20
1.88691185140919
30
0
41
1
10
65.6489028794807
20
2.29234229646701
30
0
41
1
10
65.7978057589614
20
3.09163687423876
30
0
41
1
10
65.8722571987017
20
3.48541226121546
30
0
41
1
10
66.0211600781824
20
4.24110146050165
30
0
41
1
10
66.0956115179227
20
4.6029073317516
30
0
41
1
10
66.2445143974035
20
5.27562049602875
30
0
41
1
10
66.3189658371438
20
5.58643401565405
30
0
41
1
10
66.4678687166245
20
6.1425450974032
30
0
41
1
10
66.5423201563648
20
6.38779395761384
30
0
41
1
10
66.6912230358456
20
6.80482268464019
30
0
41
1
10
66.7656744755859
20
6.9766108732756
30
0
41
1
10
66.9145773550666
20
7.24605834740993
30
0
41
1
10
66.9890287948069
20
7.34377157171954
30
0
41
1
10
67.1379316742876
20
7.47070515834372
30
0
41
1
10
67.2123831140279
20
7.5
30
0
41
1
10
67.2868345537683
20
7.5
30
0
0
SPLINE
5
E3
100
AcDbEntity
8
1
62
256
6
ByLayer
370
13
48
1
60
0
100
AcDbSpline
70
4
71
3
72
72
73
68
40
0
40
0
40
0
40
0
40
0.0624999999999985
40
0.0624999999999985
40
0.0937499999999978
40
0.0937499999999978
40
0.124999999999997
40
0.124999999999997
40
0.156249999999996
40
0.156249999999996
40
0.187499999999995
40
0.187499999999995
40
0.218749999999995
40
0.218749999999995
40
0.249999999999994
40
0.249999999999994
40
0.281249999999993
40
0.281249999999993
40
0.312499999999992
40
0.312499999999992
40
0.343749999999992
40
0.343749999999992
40
0.374999999999991
40
0.374999999999991
40
0.40624999999999
40
0.40624999999999
40
0.437499999999989
40
0.437499999999989
40
0.468749999999988
40
0.468749999999988
40
0.476562499999988
40
0.476562499999988
40
0.484374999999988
40
0.484374999999988
40
0.499999999999989
40
0.499999999999989
40
0.56249999999999
40
0.56249999999999
40
0.593749999999991
40
0.593749999999991
40
0.624999999999991
40
0.624999999999991
40
0.656249999999992
40
0.656249999999992
40
0.687499999999993
40
0.687499999999993
40
0.718749999999993
40
0.718749999999993
40
0.749999999999994
40
0.749999999999994
40
0.781249999999995
40
0.781249999999995
40
0.812499999999996
40
0.812499999999996
40
0.843749999999996
40
0.843749999999996
40
0.874999999999997
40
0.874999999999997
40
0.937499999999999
40
0.937499999999999
40
0.953124999999999
40
0.953124999999999
40
0.960937499999999
40
0.960937499999999
40
0.968749999999999
40
0.968749999999999
40
1
40
1
40
1
40
1
41
1
10
69.4897783228935
20
7.5
30
0
41
1
10
69.5789542587291
20
7.5
30
0
41
1
10
69.6681301945648
20
7.45788181854857
30
0
41
1
10
69.8018940983182
20
7.31939711711658
30
0
41
1
10
69.846482066236
20
7.26073355440471
30
0
41
1
10
69.9356580020716
20
7.11720471916837
30
0
41
1
10
69.9802459699895
20
7.03233473451351
30
0
41
1
10
70.0694219058251
20
6.83594432033991
30
0
41
1
10
70.1140098737429
20
6.72442087346479
30
0
41
1
10
70.2031858095785
20
6.47515393206317
30
0
41
1
10
70.2477737774963
20
6.33740974307406
30
0
41
1
10
70.3369497133319
20
6.03706877066199
30
0
41
1
10
70.3815376812498
20
5.87447396023973
30
0
41
1
10
70.4707136170854
20
5.52671807511265
30
0
41
1
10
70.5153015850032
20
5.34156158934792
30
0
41
1
10
70.6044775208388
20
4.95178851317905
30
0
41
1
10
70.6490654887566
20
4.74717865509388
30
0
41
1
10
70.7382414245923
20
4.32225277214081
30
0
41
1
10
70.7828293925101
20
4.10194480924039
30
0
41
1
10
70.8720053283457
20
3.64979908163519
30
0
41
1
10
70.9165932962635
20
3.41796971882749
30
0
41
1
10
71.0057692320992
20
2.94712908899322
30
0
41
1
10
71.050357200017
20
2.70812559865067
30
0
41
1
10
71.1395331358526
20
2.22720981398373
30
0
41
1
10
71.1841211037704
20
1.98530390690973
30
0
41
1
10
71.2732970396061
20
1.50256640411493
30
0
41
1
10
71.3178850075237
20
1.26173934979883
30
0
41
1
10
71.4070609433595
20
0.784687284735867
30
0
41
1
10
71.4516489112773
20
0.548464842351706
30
0
41
1
10
71.5073838711745
20
0.257916503900134
30
0
41
1
10
71.518530863154
20
0.200041867326434
30
0
41
1
10
71.5408248471128
20
0.0848030223910143
30
0
41
1
10
71.5519718390923
20
0.0275776173085092
30
0
41
1
10
71.5854128150307
20
-0.144254732486644
30
0
41
1
10
71.6077067989896
20
-0.259881893999932
30
0
41
1
10
71.7191767187841
20
-0.842579092351514
30
0
41
1
10
71.8083526546197
20
-1.32368502742028
30
0
41
1
10
71.9421165583732
20
-2.04801909787645
30
0
41
1
10
71.986704526291
20
-2.28983669821639
30
0
41
1
10
72.0758804621266
20
-2.77021524800313
30
0
41
1
10
72.1204684300444
20
-3.00876966720341
30
0
41
1
10
72.20964436588
20
-3.47833585304917
30
0
41
1
10
72.2542323337978
20
-3.70933975489777
30
0
41
1
10
72.3434082696335
20
-4.15946294353691
30
0
41
1
10
72.3879962375513
20
-4.37857381799748
30
0
41
1
10
72.4771721733869
20
-4.80076051409654
30
0
41
1
10
72.5217601413048
20
-5.00382835083315
30
0
41
1
10
72.6109360771403
20
-5.39021992704772
30
0
41
1
10
72.6555240450582
20
-5.57353709138232
30
0
41
1
10
72.7446999808938
20
-5.91738181493693
30
0
41
1
10
72.7892879488116
20
-6.07790499857657
30
0
41
1
10
72.8784638846472
20
-6.3739468578035
30
0
41
1
10
72.923051852565
20
-6.50946379519962
30
0
41
1
10
73.0122277884007
20
-6.75420188911963
30
0
41
1
10
73.0568157563185
20
-6.86342395965204
30
0
41
1
10
73.1459916921541
20
-7.05521669257723
30
0
41
1
10
73.1905796600719
20
-7.13779054666068
30
0
41
1
10
73.3243435638254
20
-7.34630996652842
30
0
41
1
10
73.4135194996609
20
-7.43277360067631
30
0
41
1
10
73.5249894194555
20
-7.48295785174233
30
0
41
1
10
73.5472834034144
20
-7.49012196413562
30
0
41
1
10
73.5807243793527
20
-7.49676264977407
30
0
41
1
10
73.5918713713322
20
-7.49829214838979
30
0
41
1
10
73.6141653552911
20
-7.50001893555094
30
0
41
1
10
73.6253123472706
20
-7.50021913985987
30
0
41
1
10
73.6810473071679
20
-7.49794541156007
30
0
41
1
10
73.7256352750856
20
-7.48554581332186
30
0
41
1
10
73.7702232430034
20
-7.46146731630569
30
0
0
SPLINE
5
E4
100
AcDbEntity
8
1
62
256
6
ByLayer
370
13
48
1
60
0
100
AcDbSpline
70
4
71
3
72
22
73
18
40
0
40
0
40
0
40
0
40
0.125
40
0.125
40
0.25
40
0.25
40
0.375
40
0.375
40
0.5
40
0.5
40
0.625
40
0.625
40
0.75
40
0.75
40
0.875
40
0.875
40
1
40
1
40
1
40
1
41
1
10
65.5
20
4.12451109503823
30
0
41
1
10
65.5536713464624
20
4.39115912373418
30
0
41
1
10
65.6073426929246
20
4.64829797137784
30
0
41
1
10
65.7146853858492
20
5.13659915818985
30
0
41
1
10
65.7683567323115
20
5.36774281412943
30
0
41
1
10
65.8756994252361
20
5.79821673685001
30
0
41
1
10
65.9293707716985
20
5.99753409482199
30
0
41
1
10
66.0367134646231
20
6.36016803022977
30
0
41
1
10
66.0903848110855
20
6.52347949732987
30
0
41
1
10
66.1977275040101
20
6.81184032812035
30
0
41
1
10
66.2513988504724
20
6.93689260283935
30
0
41
1
10
66.358741543397
20
7.14843187758294
30
0
41
1
10
66.4124128898593
20
7.23492834522523
30
0
41
1
10
66.519755582784
20
7.37081824633651
30
0
41
1
10
66.5734269292462
20
7.42022518797049
30
0
41
1
10
66.6807696221709
20
7.48480866013151
30
0
41
1
10
66.7344409686332
20
7.5
30
0
41
1
10
66.7881123150955
20
7.5
30
0
0
SPLINE
5
E5
100
AcDbEntity
8
1
62
256
6
ByLayer
370
13
48
1
60
0
100
AcDbSpline
70
4
71
3
72
78
73
74
40
0
40
0
40
0
40
0
40
0.0312499999999998
40
0.0312499999999998
40
0.0624999999999996
40
0.0624999999999996
40
0.0937499999999994
40
0.0937499999999994
40
0.124999999999999
40
0.124999999999999
40
0.156249999999999
40
0.156249999999999
40
0.187499999999999
40
0.187499999999999
40
0.218749999999999
40
0.218749999999999
40
0.249999999999998
40
0.249999999999998
40
0.281249999999998
40
0.281249999999998
40
0.312499999999998
40
0.312499999999998
40
0.343749999999998
40
0.343749999999998
40
0.374999999999997
40
0.374999999999997
40
0.406249999999997
40
0.406249999999997
40
0.421874999999997
40
0.421874999999997
40
0.429687499999997
40
0.429687499999997
40
0.437499999999997
40
0.437499999999997
40
0.468749999999997
40
0.468749999999997
40
0.499999999999997
40
0.499999999999997
40
0.531249999999997
40
0.531249999999997
40
0.562499999999997
40
0.562499999999997
40
0.593749999999997
40
0.593749999999997
40
0.624999999999997
40
0.624999999999997
40
0.656249999999997
40
0.656249999999997
40
0.687499999999997
40
0.687499999999997
40
0.718749999999997
40
0.718749999999997
40
0.749999999999997
40
0.749999999999997
40
0.781249999999997
40
0.781249999999997
40
0.812499999999997
40
0.812499999999997
40
0.843749999999997
40
0.843749999999997
40
0.859374999999997
40
0.859374999999997
40
0.867187499999997
40
0.867187499999997
40
0.874999999999997
40
0.874999999999997
40
0.906249999999998
40
0.906249999999998
40
0.937499999999999
40
0.937499999999999
40
0.968749999999999
40
0.968749999999999
40
1
40
1
40
1
40
1
41
1
10
68.9910560842207
20
7.5
30
0
41
1
10
69.040839075458
20
7.5
30
0
41
1
10
69.0906220666953
20
7.48693400667787
30
0
41
1
10
69.1901880491699
20
7.43160039474876
30
0
41
1
10
69.2399710404073
20
7.3893225999924
30
0
41
1
10
69.3395370228819
20
7.27317147199531
30
0
41
1
10
69.3893200141193
20
7.19928860891787
30
0
41
1
10
69.4888859965939
20
7.0185293047484
30
0
41
1
10
69.5386689878312
20
6.91164558711503
30
0
41
1
10
69.6382349703058
20
6.66474091995173
30
0
41
1
10
69.6880179615432
20
6.52471651259924
30
0
41
1
10
69.7875839440178
20
6.21280807187446
30
0
41
1
10
69.8373669352552
20
6.04092550085389
30
0
41
1
10
69.9369329177298
20
5.66803315649739
30
0
41
1
10
69.9867159089671
20
5.46703002620808
30
0
41
1
10
70.0862818914417
20
5.03996228124495
30
0
41
1
10
70.136064882679
20
4.81390873777224
30
0
41
1
10
70.2356308651537
20
4.34186955350731
30
0
41
1
10
70.285413856391
20
4.09589777648753
30
0
41
1
10
70.3849798388657
20
3.58983408712697
30
0
41
1
10
70.434762830103
20
3.32975671703551
30
0
41
1
10
70.5343288125777
20
2.80154184037338
30
0
41
1
10
70.5841118038149
20
2.5334174926121
30
0
41
1
10
70.6836777862895
20
1.99499344090629
30
0
41
1
10
70.7334607775269
20
1.72470396482038
30
0
41
1
10
70.8330267600016
20
1.18730303198745
30
0
41
1
10
70.8828097512389
20
0.920198088335752
30
0
41
1
10
70.9574842380949
20
0.525350603157563
30
0
41
1
10
70.9823757337136
20
0.394696377722767
30
0
41
1
10
71.0197129771416
20
0.200520862979999
30
0
41
1
10
71.0321587249509
20
0.13609620348447
30
0
41
1
10
71.0570502205695
20
0.0079029240800139
30
0
41
1
10
71.0694959683788
20
-0.0558129025319545
30
0
41
1
10
71.1317247074255
20
-0.377106384055736
30
0
41
1
10
71.1815076986628
20
-0.639319095831297
30
0
41
1
10
71.2810736811375
20
-1.17016652886414
30
0
41
1
10
71.3308566723748
20
-1.43879734303061
30
0
41
1
10
71.4304226548494
20
-1.97765455412079
30
0
41
1
10
71.4802056460867
20
-2.24787324172362
30
0
41
1
10
71.5797716285614
20
-2.78436141568946
30
0
41
1
10
71.6295546197987
20
-3.05061963625474
30
0
41
1
10
71.7291206022733
20
-3.57321006887483
30
0
41
1
10
71.7789035935107
20
-3.82952849224589
30
0
41
1
10
71.8784695759853
20
-4.32621113837749
30
0
41
1
10
71.9282525672226
20
-4.56656079638276
30
0
41
1
10
72.0278185496972
20
-5.02565903183537
30
0
41
1
10
72.0776015409346
20
-5.24439440321831
30
0
41
1
10
72.1771675234093
20
-5.65542353303729
30
0
41
1
10
72.2269505146465
20
-5.84770746361716
30
0
41
1
10
72.3265164971211
20
-6.20215252915878
30
0
41
1
10
72.3762994883584
20
-6.36430860675472
30
0
41
1
10
72.4758654708331
20
-6.65620402757855
30
0
41
1
10
72.5256484620704
20
-6.7859435189992
30
0
41
1
10
72.6252144445451
20
-7.01217341989658
30
0
41
1
10
72.6749974357824
20
-7.10866862891899
30
0
41
1
10
72.7745634182571
20
-7.26896197266629
30
0
41
1
10
72.8243464094944
20
-7.33276826596878
30
0
41
1
10
72.9239123919691
20
-7.42942021685079
30
0
41
1
10
72.9736953832063
20
-7.46227577045221
30
0
41
1
10
73.0483698700623
20
-7.49032134168226
30
0
41
1
10
73.0732613656809
20
-7.49613636198291
30
0
41
1
10
73.110598609109
20
-7.49985007056031
30
0
41
1
10
73.1230443569183
20
-7.50025585353907
30
0
41
1
10
73.147935852537
20
-7.49943839005627
30
0
41
1
10
73.1603816003463
20
-7.49820786443783
30
0
41
1
10
73.222610339393
20
-7.4878200169538
30
0
41
1
10
73.2723933306303
20
-7.46593289206831
30
0
41
1
10
73.3719593131049
20
-7.392120010963
30
0
41
1
10
73.4217423043423
20
-7.34018412036386
30
0
41
1
10
73.521308286817
20
-7.2041596176532
30
0
41
1
10
73.5710912780542
20
-7.12006200121812
30
0
41
1
10
73.6706572605289
20
-6.91868348495387
30
0
41
1
10
73.7204402517661
20
-6.80139634665679
30
0
41
1
10
73.7702232430034
20
-6.66766157898235
30
0
0
SPLINE
5
E6
100
AcDbEntity
8
1
62
256
6
ByLayer
370
13
48
1
60
0
100
AcDbSpline
70
4
71
3
72
14
73
10
40
0
40
0
40
0
40
0
40
0.25
40
0.25
40
0.5
40
0.5
40
0.75
40
0.75
40
1
40
1
40
1
40
1
41
1
10
65.5
20
6.23131152796626
30
0
41
1
10
65.5657825063685
20
6.44924631984068
30
0
41
1
10
65.6315650127372
20
6.63984136030138
30
0
41
1
10
65.7631300254742
20
6.96296834820552
30
0
41
1
10
65.8289125318428
20
7.09551470459988
30
0
41
1
10
65.9604775445799
20
7.30346764052098
30
0
41
1
10
66.0262600509485
20
7.37890730663173
30
0
41
1
10
66.1578250636856
20
7.47715318367162
30
0
41
1
10
66.2236075700541
20
7.5
30
0
41
1
10
66.2893900764227
20
7.5
30
0
0
SPLINE
5
E7
100
AcDbEntity
8
1
62
256
6
ByLayer
370
13
48
1
60
0
100
AcDbSpline
70
4
71
3
72
77
73
73
40
0
40
0
40
0
40
0
40
0.0312500000000002
40
0.0312500000000002
40
0.0625000000000004
40
0.0625000000000004
40
0.0937500000000006
40
0.0937500000000006
40
0.125000000000001
40
0.125000000000001
40
0.156250000000001
40
0.156250000000001
40
0.187500000000001
40
0.187500000000001
40
0.218750000000001
40
0.218750000000001
40
0.250000000000002
40
0.250000000000002
40
0.281250000000002
40
0.281250000000002
40
0.312500000000002
40
0.312500000000002
40
0.343750000000003
40
0.343750000000003
40
0.375000000000003
40
0.375000000000003
40
0.390625000000003
40
0.390625000000003
40
0.398437500000003
40
0.398437500000003
40
0.406250000000003
40
0.406250000000003
40
0.437500000000003
40
0.437500000000003
40
0.468750000000002
40
0.468750000000002
40
0.500000000000002
40
0.500000000000002
40
0.531250000000002
40
0.531250000000002
40
0.562500000000002
40
0.562500000000002
40
0.593750000000001
40
0.593750000000001
40
0.625000000000001
40
0.625000000000001
40
0.656250000000001
40
0.656250000000001
40
0.687500000000001
40
0.687500000000001
40
0.718750000000001
40
0.718750000000001
40
0.75
40
0.75
40
0.78125
40
0.78125
40
0.7890625
40
0.7890625
40
0.796875
40
0.8125
40
0.8125
40
0.84375
40
0.84375
40
0.875
40
0.875
40
0.90625
40
0.90625
40
0.9375
40
0.9375
40
0.96875
40
0.96875
40
1
40
1
40
1
40
1
41
1
10
68.4923338455479
20
7.5
30
0
41
1
10
68.5473118601047
20
7.5
30
0
41
1
10
68.6022898746616
20
7.48405824801503
30
0
41
1
10
68.7122459037752
20
7.41619785970249
30
0
41
1
10
68.767223918332
20
7.36426252948974
30
0
41
1
10
68.8771799474457
20
7.22137080422416
30
0
41
1
10
68.9321579620026
20
7.13039933089843
30
0
41
1
10
69.0421139911163
20
6.90795953220723
30
0
41
1
10
69.0970920056731
20
6.77648098892465
30
0
41
1
10
69.2070480347867
20
6.47351189352855
30
0
41
1
10
69.2620260493435
20
6.30201889688806
30
0
41
1
10
69.3719820784572
20
5.9216667975808
30
0
41
1
10
69.426960093014
20
5.71281458355881
30
0
41
1
10
69.5369161221277
20
5.26248862478229
30
0
41
1
10
69.5918941366845
20
5.02103057017513
30
0
41
1
10
69.7018501657982
20
4.51199321267441
30
0
41
1
10
69.756828180355
20
4.24443573505758
30
0
41
1
10
69.8667842094687
20
3.69088058758788
30
0
41
1
10
69.9217622240255
20
3.40490683079801
30
0
41
1
10
70.0317182531391
20
2.82267836456941
30
0
41
1
10
70.086696267696
20
2.52644546473502
30
0
41
1
10
70.1966522968096
20
1.93163446828484
30
0
41
1
10
70.2516303113664
20
1.63307291096797
30
0
41
1
10
70.3615863404801
20
1.04073069512353
30
0
41
1
10
70.4165643550369
20
0.746959804336313
30
0
41
1
10
70.4990313768722
20
0.314327368468071
30
0
41
1
10
70.5265203841506
20
0.171443562569294
30
0
41
1
10
70.5677538950682
20
-0.0404354301564354
30
0
41
1
10
70.5814983987074
20
-0.111059181740615
30
0
41
1
10
70.6089874059858
20
-0.253438426624058
30
0
41
1
10
70.622731909625
20
-0.325009240335561
30
0
41
1
10
70.691454427821
20
-0.68457620231905
30
0
41
1
10
70.7464324423779
20
-0.97776379996958
30
0
41
1
10
70.8563884714916
20
-1.56940383973713
30
0
41
1
10
70.9113664860485
20
-1.8678470085772
30
0
41
1
10
71.0213225151621
20
-2.46296113953446
30
0
41
1
10
71.0763005297188
20
-2.75961601652844
30
0
41
1
10
71.1862565588325
20
-3.34326893229297
30
0
41
1
10
71.2412345733893
20
-3.63024545003398
30
0
41
1
10
71.351190602503
20
-4.18638064850728
30
0
41
1
10
71.4061686170598
20
-4.45551543369044
30
0
41
1
10
71.5161246461735
20
-4.96822446327425
30
0
41
1
10
71.5711026607303
20
-5.21177659025588
30
0
41
1
10
71.681058689844
20
-5.66670282669551
30
0
41
1
10
71.7360367044008
20
-5.8780606979368
30
0
41
1
10
71.8459927335144
20
-6.26369677100882
30
0
41
1
10
71.9009707480713
20
-6.43796741203158
30
0
41
1
10
72.0109267771849
20
-6.74660930336876
30
0
41
1
10
72.0659047917418
20
-6.88098236257673
30
0
41
1
10
72.1758608208554
20
-7.10917810819365
30
0
41
1
10
72.2308388354123
20
-7.20301054441634
30
0
41
1
10
72.3407948645259
20
-7.35146209164705
30
0
41
1
10
72.3957728790828
20
-7.40609604358252
30
0
41
1
10
72.5057289081964
20
-7.47909488200631
30
0
41
1
10
72.5607069227532
20
-7.49747644700136
30
0
41
1
10
72.6294294409493
20
-7.50032655331898
30
0
41
1
10
72.6431739445885
20
-7.49990241981644
30
0
41
1
10
72.6706629518669
20
-7.49702421242765
30
0
41
1
10
72.7118964627846
20
-7.489650709931
30
0
41
1
10
72.7531299737021
20
-7.47280272408924
30
0
41
1
10
72.8355969955374
20
-7.42573360846217
30
0
41
1
10
72.8905750100942
20
-7.37648121929931
30
0
41
1
10
73.0005310392078
20
-7.23912596889386
30
0
41
1
10
73.0555090537647
20
-7.15100780890754
30
0
41
1
10
73.1654650828784
20
-6.93431870877029
30
0
41
1
10
73.2204430974352
20
-6.80573709786736
30
0
41
1
10
73.3303991265489
20
-6.50845673276763
30
0
41
1
10
73.3853771411057
20
-6.33975490667805
30
0
41
1
10
73.4953331702194
20
-5.96472462603867
30
0
41
1
10
73.5503111847762
20
-5.7584023852925
30
0
41
1
10
73.6602672138898
20
-5.3127343639928
30
0
41
1
10
73.7152452284466
20
-5.0734037116234
30
0
41
1
10
73.7702232430034
20
-4.8207572281155
30
0
0
SPLINE
5
E8
100
AcDbEntity
8
1
62
256
6
ByLayer
370
13
48
1
60
0
100
AcDbSpline
70
4
71
3
72
10
73
6
40
0
40
0
40
0
40
0
40
0.5
40
0.5
40
1
40
1
40
1
40
1
41
1
10
65.5
20
7.34047821325942
30
0
41
1
10
65.548444639625
20
7.39534590645505
30
0
41
1
10
65.59688927925
20
7.43530567807986
30
0
41
1
10
65.6937785585
20
7.48762828461426
30
0
41
1
10
65.7422231981249
20
7.5
30
0
41
1
10
65.7906678377499
20
7.5
30
0
0
SPLINE
5
E9
100
AcDbEntity
8
1
62
256
6
ByLayer
370
13
48
1
60
0
100
AcDbSpline
70
4
71
3
72
78
73
74
40
0
40
0
40
0
40
0
40
0.0312500000000002
40
0.0312500000000002
40
0.0625000000000004
40
0.0625000000000004
40
0.0937500000000006
40
0.0937500000000006
40
0.125000000000001
40
0.125000000000001
40
0.156250000000001
40
0.156250000000001
40
0.187500000000001
40
0.187500000000001
40
0.218750000000001
40
0.218750000000001
40
0.250000000000002
40
0.250000000000002
40
0.281250000000002
40
0.281250000000002
40
0.312500000000002
40
0.312500000000002
40
0.343750000000002
40
0.343750000000002
40
0.351562500000002
40
0.351562500000002
40
0.359375000000002
40
0.359375000000002
40
0.375000000000002
40
0.375000000000002
40
0.406250000000001
40
0.406250000000001
40
0.437500000000001
40
0.437500000000001
40
0.46875
40
0.46875
40
0.5
40
0.5
40
0.531249999999999
40
0.531249999999999
40
0.562499999999999
40
0.562499999999999
40
0.593749999999998
40
0.593749999999998
40
0.624999999999997
40
0.624999999999997
40
0.656249999999997
40
0.656249999999997
40
0.687499999999996
40
0.687499999999996
40
0.703124999999996
40
0.703124999999996
40
0.710937499999996
40
0.710937499999996
40
0.718749999999996
40
0.718749999999996
40
0.749999999999996
40
0.749999999999996
40
0.781249999999997
40
0.781249999999997
40
0.812499999999997
40
0.812499999999997
40
0.843749999999998
40
0.843749999999998
40
0.874999999999998
40
0.874999999999998
40
0.906249999999998
40
0.906249999999998
40
0.937499999999999
40
0.937499999999999
40
0.968749999999999
40
0.968749999999999
40
1
40
1
40
1
40
1
41
1
10
67.9936116068752
20
7.5
30
0
41
1
10
68.0537846447514
20
7.5
30
0
41
1
10
68.1139576826278
20
7.48089428976263
30
0
41
1
10
68.2343037583805
20
7.39916010642361
30
0
41
1
10
68.2944767962568
20
7.33650549275006
30
0
41
1
10
68.4148228720095
20
7.16393082274701
30
0
41
1
10
68.4749959098858
20
7.05398818016087
30
0
41
1
10
68.5953419856385
20
6.78546523380152
30
0
41
1
10
68.6555150235149
20
6.62687198159938
30
0
41
1
10
68.7758610992675
20
6.26260267982454
30
0
41
1
10
68.8360341371438
20
6.0569282174622
30
0
41
1
10
68.9563802128965
20
5.60316553710271
30
0
41
1
10
69.0165532507729
20
5.35509496846592
30
0
41
1
10
69.1368993265255
20
4.82403650191736
30
0
41
1
10
69.1970723644019
20
4.54107934853334
30
0
41
1
10
69.3174184401546
20
3.94982973225316
30
0
41
1
10
69.3775914780309
20
3.64157442060383
30
0
41
1
10
69.4979375537835
20
3.01034907015563
30
0
41
1
10
69.55811059166
20
2.68741458404108
30
0
41
1
10
69.6784566674126
20
2.03736852570643
30
0
41
1
10
69.738629705289
20
1.71028436003178
30
0
41
1
10
69.8589757810416
20
1.06142629083269
30
0
41
1
10
69.919148818918
20
0.739668331010563
30
0
41
1
10
69.9943651162633
20
0.345650591548861
30
0
41
1
10
70.0094083757324
20
0.2672513413861
30
0
41
1
10
70.0394948946706
20
0.111363267744565
30
0
41
1
10
70.0545381541397
20
0.034139472204572
30
0
41
1
10
70.0996679325469
20
-0.197924290566362
30
0
41
1
10
70.129754451485
20
-0.354577903536295
30
0
41
1
10
70.2200140082996
20
-0.829162241459301
30
0
41
1
10
70.2801870461759
20
-1.15177456347476
30
0
41
1
10
70.4005331219286
20
-1.80152390347354
30
0
41
1
10
70.460706159805
20
-2.12864386576274
30
0
41
1
10
70.5810522355577
20
-2.77781254180959
30
0
41
1
10
70.6412252734339
20
-3.09983289347645
30
0
41
1
10
70.7615713491866
20
-3.7282275923458
30
0
41
1
10
70.821744387063
20
-4.03456592098951
30
0
41
1
10
70.9420904628157
20
-4.62102648837992
30
0
41
1
10
71.002263500692
20
-4.90111183348896
30
0
41
1
10
71.1226095764446
20
-5.42562346023581
30
0
41
1
10
71.182782614321
20
-5.67001997863798
30
0
41
1
10
71.3031286900737
20
-6.11586890253056
30
0
41
1
10
71.36330172795
20
-6.31730510038824
30
0
41
1
10
71.4836478037026
20
-6.67281790289653
30
0
41
1
10
71.543820841579
20
-6.82689440508923
30
0
41
1
10
71.6641669173316
20
-7.0863921099278
30
0
41
1
10
71.724339955208
20
-7.19182740203638
30
0
41
1
10
71.8446860309607
20
-7.35564563119826
30
0
41
1
10
71.904859068837
20
-7.41405174261706
30
0
41
1
10
71.9951186256515
20
-7.46931224440499
30
0
41
1
10
72.0252051445897
20
-7.48235674387914
30
0
41
1
10
72.0703349229971
20
-7.49434035444179
30
0
41
1
10
72.085378182466
20
-7.49707171315075
30
0
41
1
10
72.1154647014042
20
-7.50009524576245
30
0
41
1
10
72.1305079608733
20
-7.50039541111448
30
0
41
1
10
72.2057242582187
20
-7.49592238183016
30
0
41
1
10
72.2658972960951
20
-7.47296453407597
30
0
41
1
10
72.3862433718477
20
-7.38309657380375
30
0
41
1
10
72.4464164097241
20
-7.31616040632144
30
0
41
1
10
72.5667624854767
20
-7.1347839323025
30
0
41
1
10
72.626935523353
20
-7.02032168202766
30
0
41
1
10
72.7472815991057
20
-6.74277468801563
30
0
41
1
10
72.8074546369821
20
-6.57967818114381
30
0
41
1
10
72.9278007127348
20
-6.20670678564085
30
0
41
1
10
72.9879737506111
20
-5.99683498313644
30
0
41
1
10
73.1083198263638
20
-5.53526530504189
30
0
41
1
10
73.1684928642401
20
-5.28358649417618
30
0
41
1
10
73.2888389399928
20
-4.74613115501017
30
0
41
1
10
73.3490119778691
20
-4.46038629254411
30
0
41
1
10
73.4693580536218
20
-3.86452490390087
30
0
41
1
10
73.5295310914981
20
-3.55444571487521
30
0
41
1
10
73.6498771672508
20
-2.92057508475952
30
0
41
1
10
73.7100502051272
20
-2.59681867224992
30
0
41
1
10
73.7702232430034
20
-2.27144448064746
30
0
0
SPLINE
5
EA
100
AcDbEntity
8
1
62
256
6
ByLayer
370
13
48
1
60
0
100
AcDbSpline
70
4
71
3
72
83
73
79
40
0
40
0
40
0
40
0
40
0.0312500000000007
40
0.0312500000000007
40
0.0625000000000013
40
0.0625000000000013
40
0.093750000000002
40
0.093750000000002
40
0.125000000000003
40
0.125000000000003
40
0.156250000000003
40
0.156250000000003
40
0.187500000000004
40
0.187500000000004
40
0.218750000000005
40
0.218750000000005
40
0.250000000000005
40
0.250000000000005
40
0.281250000000006
40
0.281250000000006
40
0.312500000000007
40
0.312500000000007
40
0.328125000000007
40
0.328125000000007
40
0.332031250000007
40
0.332031250000007
40
0.335937500000007
40
0.343750000000007
40
0.343750000000007
40
0.375000000000007
40
0.375000000000007
40
0.406250000000007
40
0.406250000000007
40
0.437500000000006
40
0.437500000000006
40
0.468750000000006
40
0.468750000000006
40
0.500000000000006
40
0.500000000000006
40
0.531250000000006
40
0.531250000000006
40
0.562500000000005
40
0.562500000000005
40
0.593750000000005
40
0.593750000000005
40
0.625000000000005
40
0.625000000000005
40
0.656250000000005
40
0.656250000000005
40
0.664062500000005
40
0.664062500000005
40
0.671875000000005
40
0.671875000000005
40
0.687500000000004
40
0.687500000000004
40
0.718750000000004
40
0.718750000000004
40
0.750000000000004
40
0.750000000000004
40
0.781250000000003
40
0.781250000000003
40
0.812500000000003
40
0.812500000000003
40
0.843750000000002
40
0.843750000000002
40
0.875000000000002
40
0.875000000000002
40
0.906250000000001
40
0.906250000000001
40
0.937500000000001
40
0.937500000000001
40
0.96875
40
0.96875
40
0.984375
40
0.984375
40
0.9921875
40
0.9921875
40
1
40
1
40
1
40
1
41
1
10
67.4948893682023
20
7.5
30
0
41
1
10
67.5602574293982
20
7.5
30
0
41
1
10
67.625625490594
20
7.47744115318528
30
0
41
1
10
67.7563616129857
20
7.38047001585892
30
0
41
1
10
67.8217296741816
20
7.30601836498167
30
0
41
1
10
67.9524657965733
20
7.10079783795831
30
0
41
1
10
68.0178338577691
20
6.96999673682711
30
0
41
1
10
68.1485699801608
20
6.65107311274534
30
0
41
1
10
68.2139380413566
20
6.46293619506443
30
0
41
1
10
68.3446741637484
20
6.03253626134133
30
0
41
1
10
68.4100422249442
20
5.79028411299373
30
0
41
1
10
68.5407783473359
20
5.25912462816493
30
0
41
1
10
68.6061464085317
20
4.97025342327217
30
0
41
1
10
68.7368825309234
20
4.35688874567191
30
0
41
1
10
68.8022505921192
20
4.03244819694771
30
0
41
1
10
68.9329867145109
20
3.36116376283815
30
0
41
1
10
68.9983547757067
20
3.0143759148211
30
0
41
1
10
69.1290908980985
20
2.31211203459031
30
0
41
1
10
69.1944589592944
20
1.95668201222392
30
0
41
1
10
69.3251950816859
20
1.24976673469956
30
0
41
1
10
69.3905631428818
20
0.898309615686486
30
0
41
1
10
69.4886152346756
20
0.381893294370883
30
0
41
1
10
69.5212992652735
20
0.211529545400282
30
0
41
1
10
69.562154303521
20
0.0014443128023629
30
0
41
1
10
69.5703253111705
20
-0.0404229395159348
30
0
41
1
10
69.5866673264694
20
-0.124632706132132
30
0
41
1
10
69.6111803494178
20
-0.251369346082072
30
0
41
1
10
69.6356933723662
20
-0.37930365630649
30
0
41
1
10
69.7174034488611
20
-0.808083411297702
30
0
41
1
10
69.7827715100569
20
-1.15867293201862
30
0
41
1
10
69.9135076324486
20
-1.86484786677102
30
0
41
1
10
69.9788756936445
20
-2.22040682965874
30
0
41
1
10
70.1096118160362
20
-2.92407874649814
30
0
41
1
10
70.174979877232
20
-3.27214702071785
30
0
41
1
10
70.3057159996237
20
-3.94718002303304
30
0
41
1
10
70.3710840608195
20
-4.27408911185594
30
0
41
1
10
70.5018201832112
20
-4.89347035743114
30
0
41
1
10
70.567188244407
20
-5.18588874854015
30
0
41
1
10
70.6979243667988
20
-5.72497396083034
30
0
41
1
10
70.7632924279946
20
-5.97160275921124
30
0
41
1
10
70.8940285503863
20
-6.41124155879729
30
0
41
1
10
70.9593966115821
20
-6.60423838584248
30
0
41
1
10
71.0901327339739
20
-6.93298966596512
30
0
41
1
10
71.1555007951697
20
-7.0687565438144
30
0
41
1
10
71.2862369175614
20
-7.28367376184502
30
0
41
1
10
71.3516049787572
20
-7.36285519690108
30
0
41
1
10
71.482341101149
20
-7.46879145881164
30
0
41
1
10
71.5477091623447
20
-7.49558544674306
30
0
41
1
10
71.6294192388395
20
-7.50047250500256
30
0
41
1
10
71.6457612541384
20
-7.50004132058663
30
0
41
1
10
71.6784452847364
20
-7.49630983995277
30
0
41
1
10
71.6947873000355
20
-7.49300036659065
30
0
41
1
10
71.7438133459323
20
-7.47857414637636
30
0
41
1
10
71.7764973765302
20
-7.46295567336165
30
0
41
1
10
71.8745494683239
20
-7.39688707138777
30
0
41
1
10
71.9399175295198
20
-7.32713129875106
30
0
41
1
10
72.0706536519115
20
-7.13156564846085
30
0
41
1
10
72.1360217131074
20
-7.0057224982896
30
0
41
1
10
72.2667578354991
20
-6.69664257847433
30
0
41
1
10
72.3321258966949
20
-6.51338950233352
30
0
41
1
10
72.4628620190866
20
-6.09230865094724
30
0
41
1
10
72.5282300802824
20
-5.85448943770393
30
0
41
1
10
72.6589662026742
20
-5.33139520708485
30
0
41
1
10
72.72433426387
20
-5.04615436480941
30
0
41
1
10
72.8550703862617
20
-4.43898908861163
30
0
41
1
10
72.9204384474575
20
-4.11711663126692
30
0
41
1
10
73.0511745698492
20
-3.44978348614262
30
0
41
1
10
73.116542631045
20
-3.10437913281578
30
0
41
1
10
73.2472787534367
20
-2.40372107647744
30
0
41
1
10
73.3126468146326
20
-2.04851465414288
30
0
41
1
10
73.4433829370242
20
-1.34103145686788
30
0
41
1
10
73.5087509982201
20
-0.988784495969327
30
0
41
1
10
73.6068030900138
20
-0.47058843538224
30
0
41
1
10
73.6394871206118
20
-0.299532700340819
30
0
41
1
10
73.6885131665086
20
-0.0462671053242332
30
0
41
1
10
73.7048551818076
20
0.0372926531434814
30
0
41
1
10
73.7375392124056
20
0.2060577446737
30
0
41
1
10
73.7538812277045
20
0.290994103046046
30
0
41
1
10
73.7702232430034
20
0.376420252877409
30
0
0
SPLINE
5
EB
100
AcDbEntity
8
1
62
256
6
ByLayer
370
13
48
1
60
0
100
AcDbSpline
70
4
71
3
72
84
73
80
40
0
40
0
40
0
40
0
40
0.0312499999999995
40
0.0312499999999995
40
0.062499999999999
40
0.062499999999999
40
0.0937499999999986
40
0.0937499999999986
40
0.124999999999998
40
0.124999999999998
40
0.156249999999998
40
0.156249999999998
40
0.187499999999997
40
0.187499999999997
40
0.218749999999997
40
0.218749999999997
40
0.249999999999996
40
0.249999999999996
40
0.281249999999996
40
0.281249999999996
40
0.296874999999995
40
0.296874999999995
40
0.304687499999995
40
0.304687499999995
40
0.312499999999995
40
0.312499999999995
40
0.343749999999995
40
0.343749999999995
40
0.374999999999995
40
0.374999999999995
40
0.406249999999996
40
0.406249999999996
40
0.437499999999996
40
0.437499999999996
40
0.468749999999996
40
0.468749999999996
40
0.499999999999996
40
0.499999999999996
40
0.531249999999996
40
0.531249999999996
40
0.562499999999996
40
0.562499999999996
40
0.593749999999997
40
0.593749999999997
40
0.609374999999997
40
0.609374999999997
40
0.613281249999997
40
0.613281249999997
40
0.617187499999997
40
0.624999999999997
40
0.624999999999997
40
0.656249999999997
40
0.656249999999997
40
0.687499999999997
40
0.687499999999997
40
0.718749999999998
40
0.718749999999998
40
0.749999999999998
40
0.749999999999998
40
0.781249999999998
40
0.781249999999998
40
0.812499999999998
40
0.812499999999998
40
0.843749999999998
40
0.843749999999998
40
0.874999999999999
40
0.874999999999999
40
0.906249999999999
40
0.906249999999999
40
0.914062499999999
40
0.914062499999999
40
0.917968749999999
40
0.917968749999999
40
0.921874999999999
40
0.937499999999999
40
0.937499999999999
40
0.96875
40
0.96875
40
1
40
1
40
1
40
1
41
1
10
66.9961671295296
20
7.5
30
0
41
1
10
67.0667302140449
20
7.5
30
0
41
1
10
67.1372932985602
20
7.47369772544269
30
0
41
1
10
67.2784194675909
20
7.36011114380716
30
0
41
1
10
67.3489825521062
20
7.27276952445092
30
0
41
1
10
67.4901087211371
20
7.03192932732679
30
0
41
1
10
67.5606718056524
20
6.87838678585115
30
0
41
1
10
67.7017979746831
20
6.5048687436055
30
0
41
1
10
67.7723610591984
20
6.284880384026
30
0
41
1
10
67.9134872282291
20
5.7840116918789
30
0
41
1
10
67.9840503127444
20
5.50315964856247
30
0
41
1
10
68.1251764817752
20
4.89171676999362
30
0
41
1
10
68.1957395662906
20
4.56119062188296
30
0
41
1
10
68.3368657353213
20
3.86573600932797
30
0
41
1
10
68.4074288198366
20
3.50088978220754
30
0
41
1
10
68.5485549888674
20
2.75402769559145
30
0
41
1
10
68.6191180733827
20
2.37208766222182
30
0
41
1
10
68.7602442424134
20
1.60770405369354
30
0
41
1
10
68.8308073269288
20
1.22531191411372
30
0
41
1
10
68.9366519537018
20
0.661944087828346
30
0
41
1
10
68.9719334959594
20
0.475833651384761
30
0
41
1
10
69.0248558093459
20
0.200255736268247
30
0
41
1
10
69.0424965804748
20
0.108992556456627
30
0
41
1
10
69.0777781227325
20
-0.0721856361422795
30
0
41
1
10
69.0954188938613
20
-0.163109750961809
30
0
41
1
10
69.1836227495054
20
-0.621591881923024
30
0
41
1
10
69.2541858340208
20
-0.998235397651655
30
0
41
1
10
69.3953120030516
20
-1.75904067980861
30
0
41
1
10
69.4658750875669
20
-2.14316727741519
30
0
41
1
10
69.6070012565976
20
-2.90349069215196
30
0
41
1
10
69.677564341113
20
-3.2796231810027
30
0
41
1
10
69.8186905101437
20
-4.00677472529875
30
0
41
1
10
69.8892535946591
20
-4.35771214038218
30
0
41
1
10
70.0303797636898
20
-5.01780219362061
30
0
41
1
10
70.1009428482051
20
-5.32687782901581
30
0
41
1
10
70.2420690172358
20
-5.88955641249765
30
0
41
1
10
70.3126321017511
20
-6.14311002035876
30
0
41
1
10
70.4537582707819
20
-6.58601949976918
30
0
41
1
10
70.5243213552973
20
-6.77536666488126
30
0
41
1
10
70.6654475243279
20
-7.08700803437029
30
0
41
1
10
70.7360106088432
20
-7.2093315354841
30
0
41
1
10
70.8771367778739
20
-7.38960657243589
30
0
41
1
10
70.9476998623893
20
-7.44761061393643
30
0
41
1
10
71.0535444891623
20
-7.49153174892976
30
0
41
1
10
71.08882603142
20
-7.49901909200963
30
0
41
1
10
71.1329279592421
20
-7.50013221672216
30
0
41
1
10
71.1417483448066
20
-7.49994549926365
30
0
41
1
10
71.1593891159354
20
-7.49874170217089
30
0
41
1
10
71.1858502726286
20
-7.49568763485712
30
0
41
1
10
71.2123114293219
20
-7.48880695386623
30
0
41
1
10
71.3005152849661
20
-7.45702443335529
30
0
41
1
10
71.3710783694814
20
-7.4031653100345
30
0
41
1
10
71.5122045385122
20
-7.23153536534346
30
0
41
1
10
71.5827676230276
20
-7.11371113872124
30
0
41
1
10
71.7238937920583
20
-6.81108975488493
30
0
41
1
10
71.7944568765736
20
-6.62626117130921
30
0
41
1
10
71.9355830456043
20
-6.19201290564175
30
0
41
1
10
72.0061461301196
20
-5.94259909780018
30
0
41
1
10
72.1472722991504
20
-5.38744032607204
30
0
41
1
10
72.2178353836657
20
-5.08174219376204
30
0
41
1
10
72.3589615526965
20
-4.427361410798
30
0
41
1
10
72.4295246372118
20
-4.07875455875555
30
0
41
1
10
72.5706508062426
20
-3.35508944613551
30
0
41
1
10
72.6412138907579
20
-2.98011327901975
30
0
41
1
10
72.7823400597885
20
-2.22096769377077
30
0
41
1
10
72.8529031443039
20
-1.83686429262136
30
0
41
1
10
72.9940293133346
20
-1.0751449360861
30
0
41
1
10
73.0645923978499
20
-0.697566241193499
30
0
41
1
10
73.1527962534941
20
-0.237470325855554
30
0
41
1
10
73.170437024623
20
-0.146036125687175
30
0
41
1
10
73.1968981813162
20
-0.0098807663926834
30
0
41
1
10
73.2057185668806
20
0.0352943181247838
30
0
41
1
10
73.2233593380095
20
0.126187926266397
30
0
41
1
10
73.2674612658315
20
0.354240162887237
30
0
41
1
10
73.3115631936537
20
0.586165830609616
30
0
41
1
10
73.4174078204267
20
1.14813444518495
30
0
41
1
10
73.4879709049421
20
1.53001018726252
30
0
41
1
10
73.6290970739728
20
2.29441190532816
30
0
41
1
10
73.6996601584881
20
2.67688845727986
30
0
41
1
10
73.7702232430034
20
3.0514413769402
30
0
0
SPLINE
5
EC
100
AcDbEntity
8
1
62
256
6
ByLayer
370
13
48
1
60
0
100
AcDbSpline
70
4
71
3
72
86
73
82
40
0
40
0
40
0
40
0
40
0.0312500000000001
40
0.0312500000000001
40
0.0625000000000001
40
0.0625000000000001
40
0.0937500000000002
40
0.0937500000000002
40
0.125
40
0.125
40
0.15625
40
0.15625
40
0.1875
40
0.1875
40
0.21875
40
0.21875
40
0.25
40
0.25
40
0.28125
40
0.28125
40
0.28515625
40
0.28515625
40
0.289062500000001
40
0.296875
40
0.296875
40
0.3125
40
0.3125
40
0.343750000000001
40
0.343750000000001
40
0.375000000000001
40
0.375000000000001
40
0.406250000000001
40
0.406250000000001
40
0.437500000000001
40
0.437500000000001
40
0.468750000000001
40
0.468750000000001
40
0.500000000000001
40
0.500000000000001
40
0.531250000000001
40
0.531250000000001
40
0.5625
40
0.5625
40
0.56640625
40
0.56640625
40
0.5703125
40
0.5703125
40
0.578125
40
0.578125
40
0.59375
40
0.59375
40
0.625
40
0.625
40
0.65625
40
0.65625
40
0.6875
40
0.6875
40
0.71875
40
0.71875
40
0.75
40
0.75
40
0.78125
40
0.78125
40
0.8125
40
0.8125
40
0.84375
40
0.84375
40
0.8515625
40
0.8515625
40
0.85546875
40
0.85546875
40
0.859375
40
0.875
40
0.875
40
0.90625
40
0.90625
40
0.9375
40
0.9375
40
0.96875
40
0.96875
40
1
40
1
40
1
40
1
41
1
10
66.4974448908567
20
7.5
30
0
41
1
10
66.5732029986917
20
7.5
30
0
41
1
10
66.6489611065265
20
7.46966275213043
30
0
41
1
10
66.8004773221962
20
7.33806775113405
30
0
41
1
10
66.8762354300311
20
7.23672893823525
30
0
41
1
10
67.0277516457008
20
6.95729446448641
30
0
41
1
10
67.1035097535356
20
6.77914133442178
30
0
41
1
10
67.2550259692053
20
6.34699795759101
30
0
41
1
10
67.3307840770402
20
6.09300181737888
30
0
41
1
10
67.48230029271
20
5.51789885941818
30
0
41
1
10
67.5580584005448
20
5.19684933010248
30
0
41
1
10
67.7095746162146
20
4.50342257783069
30
0
41
1
10
67.7853327240495
20
4.13115048012045
30
0
41
1
10
67.9368489397191
20
3.35559617148644
30
0
41
1
10
68.012607047554
20
2.95243101603049
30
0
41
1
10
68.1641232632238
20
2.13646021316819
30
0
41
1
10
68.2398813710586
20
1.72374686667348
30
0
41
1
10
68.3913975867283
20
0.907828890291142
30
0
41
1
10
68.4671556945631
20
0.504672015736332
30
0
41
1
10
68.5523835658773
20
0.064778245831036
30
0
41
1
10
68.5618533293567
20
0.016203611708363
30
0
41
1
10
68.5807928563154
20
-0.0811294391810407
30
0
41
1
10
68.6092021467535
20
-0.227707737973532
30
0
41
1
10
68.6376114371917
20
-0.37591772640485
30
0
41
1
10
68.6944300180677
20
-0.674206647356328
30
0
41
1
10
68.7323090719852
20
-0.875567334702424
30
0
41
1
10
68.8459462337374
20
-1.48434822911395
30
0
41
1
10
68.9217043415723
20
-1.8965848850238
30
0
41
1
10
69.073220557242
20
-2.71556907743272
30
0
41
1
10
69.1489786650769
20
-3.12223211243028
30
0
41
1
10
69.3004948807466
20
-3.90896078196795
30
0
41
1
10
69.3762529885815
20
-4.28891164578326
30
0
41
1
10
69.5277692042512
20
-5.00140291131541
30
0
41
1
10
69.6035273120861
20
-5.33383271749634
30
0
41
1
10
69.7550435277558
20
-5.9342907706752
30
0
41
1
10
69.8308016355907
20
-6.20225038287711
30
0
41
1
10
69.9823178512603
20
-6.66342566562102
30
0
41
1
10
70.0580759590953
20
-6.8566350797048
30
0
41
1
10
70.209592174765
20
-7.16579389296118
30
0
41
1
10
70.2853502825999
20
-7.2817926587318
30
0
41
1
10
70.4368664982696
20
-7.44114304376737
30
0
41
1
10
70.5126246061045
20
-7.48457352099263
30
0
41
1
10
70.5978524774187
20
-7.49802906146959
30
0
41
1
10
70.607322240898
20
-7.49903470589291
30
0
41
1
10
70.6262617678567
20
-7.50008936923027
30
0
41
1
10
70.6357315313361
20
-7.50014089627038
30
0
41
1
10
70.6641408217741
20
-7.49887362921689
30
0
41
1
10
70.6830803487329
20
-7.49612017284068
30
0
41
1
10
70.739898929609
20
-7.48187041920124
30
0
41
1
10
70.7777779835264
20
-7.46437770642044
30
0
41
1
10
70.8914151452788
20
-7.38602664138827
30
0
41
1
10
70.9671732531136
20
-7.29912116256864
30
0
41
1
10
71.1186894687833
20
-7.04921655946328
30
0
41
1
10
71.1944475766182
20
-6.88615297719423
30
0
41
1
10
71.3459637922879
20
-6.48340870585312
30
0
41
1
10
71.4217219001227
20
-6.24371044929055
30
0
41
1
10
71.5732381157925
20
-5.69490370559029
30
0
41
1
10
71.6489962236274
20
-5.38584055988366
30
0
41
1
10
71.8005124392971
20
-4.71286490714439
30
0
41
1
10
71.8762705471319
20
-4.3490506311382
30
0
41
1
10
72.0277867628016
20
-3.58626777325955
30
0
41
1
10
72.1035448706365
20
-3.18741708689689
30
0
41
1
10
72.2550610863063
20
-2.37600531101384
30
0
41
1
10
72.3308191941411
20
-1.96354356323539
30
0
41
1
10
72.4823354098108
20
-1.1447022111999
30
0
41
1
10
72.5580935176457
20
-0.738379522669646
30
0
41
1
10
72.6527911524393
20
-0.244105258920058
30
0
41
1
10
72.671730679398
20
-0.145920143442652
30
0
41
1
10
72.7001399698361
20
0.0002061516206879
30
0
41
1
10
72.7096097333154
20
0.0487240005885781
30
0
41
1
10
72.7285492602741
20
0.146395982068981
30
0
41
1
10
72.7758980776709
20
0.391511938870707
30
0
41
1
10
72.8232468950677
20
0.641038428137421
30
0
41
1
10
72.93688405682
20
1.24574633698637
30
0
41
1
10
73.0126421646548
20
1.65680634296564
30
0
41
1
10
73.1641583803246
20
2.47729513051587
30
0
41
1
10
73.2399164881595
20
2.88664779935519
30
0
41
1
10
73.3914327038291
20
3.68294393036481
30
0
41
1
10
73.4671908116641
20
4.06977625893379
30
0
41
1
10
73.6187070273338
20
4.79988402538578
30
0
41
1
10
73.6944651351686
20
5.1430448954105
30
0
41
1
10
73.7702232430034
20
5.45543050213678
30
0
0
SPLINE
5
ED
100
AcDbEntity
8
1
62
256
6
ByLayer
370
13
48
1
60
0
100
AcDbSpline
70
4
71
3
72
84
73
80
40
0
40
0
40
0
40
0
40
0.0312500000000006
40
0.0312500000000006
40
0.0625000000000011
40
0.0625000000000011
40
0.0937500000000017
40
0.0937500000000017
40
0.125000000000002
40
0.125000000000002
40
0.156250000000003
40
0.156250000000003
40
0.187500000000003
40
0.187500000000003
40
0.218750000000004
40
0.218750000000004
40
0.250000000000004
40
0.250000000000004
40
0.265625000000005
40
0.265625000000005
40
0.273437500000005
40
0.273437500000005
40
0.281250000000005
40
0.281250000000005
40
0.312500000000006
40
0.312500000000006
40
0.343750000000007
40
0.343750000000007
40
0.375000000000008
40
0.375000000000008
40
0.406250000000009
40
0.406250000000009
40
0.43750000000001
40
0.43750000000001
40
0.468750000000011
40
0.468750000000011
40
0.500000000000012
40
0.500000000000012
40
0.531250000000013
40
0.531250000000013
40
0.535156250000013
40
0.535156250000013
40
0.539062500000013
40
0.546875000000012
40
0.546875000000012
40
0.562500000000012
40
0.562500000000012
40
0.593750000000011
40
0.593750000000011
40
0.62500000000001
40
0.62500000000001
40
0.656250000000009
40
0.656250000000009
40
0.687500000000008
40
0.687500000000008
40
0.718750000000007
40
0.718750000000007
40
0.750000000000006
40
0.750000000000006
40
0.781250000000005
40
0.781250000000005
40
0.796875000000005
40
0.796875000000005
40
0.800781250000005
40
0.800781250000005
40
0.804687500000005
40
0.812500000000004
40
0.812500000000004
40
0.843750000000004
40
0.843750000000004
40
0.875000000000003
40
0.875000000000003
40
0.906250000000002
40
0.906250000000002
40
0.937500000000001
40
0.937500000000001
40
0.968750000000001
40
0.968750000000001
40
1
40
1
40
1
40
1
41
1
10
65.9987226521839
20
7.5
30
0
41
1
10
66.0796757833383
20
7.5
30
0
41
1
10
66.1606289144927
20
7.46533482993456
30
0
41
1
10
66.3225351768015
20
7.31432483379433
30
0
41
1
10
66.4034883079559
20
7.19786825343724
30
0
41
1
10
66.5653945702646
20
6.87687460615786
30
0
41
1
10
66.6463477014189
20
6.6722655479756
30
0
41
1
10
66.8082539637277
20
6.17766755899268
30
0
41
1
10
66.889207094882
20
5.88768841719133
30
0
41
1
10
67.0511133571908
20
5.23522949547089
30
0
41
1
10
67.1320664883452
20
4.87285131013826
30
0
41
1
10
67.293972750654
20
4.09697609610109
30
0
41
1
10
67.3749258818082
20
3.68363718985185
30
0
41
1
10
67.5368321441169
20
2.83165327716838
30
0
41
1
10
67.6177852752713
20
2.39316209247423
30
0
41
1
10
67.7796915375801
20
1.51619743879277
30
0
41
1
10
67.8606446687345
20
1.07782422192744
30
0
41
1
10
67.982074365466
20
0.435922865884919
30
0
41
1
10
68.0225509310432
20
0.224521374401462
30
0
41
1
10
68.083265779409
20
-0.0872329108405836
30
0
41
1
10
68.1035040621976
20
-0.191683857614095
30
0
41
1
10
68.1439806277748
20
-0.402503378420903
30
0
41
1
10
68.1642189105634
20
-0.508696044773814
30
0
41
1
10
68.2654103245063
20
-1.04292368631658
30
0
41
1
10
68.3463634556607
20
-1.48098163324167
30
0
41
1
10
68.5082697179694
20
-2.35794244283736
30
0
41
1
10
68.5892228491238
20
-2.79674685799512
30
0
41
1
10
68.7511291114325
20
-3.65006094000503
30
0
41
1
10
68.8320822425869
20
-4.06441770500268
30
0
41
1
10
68.9939885048957
20
-4.84298519079266
30
0
41
1
10
69.0749416360501
20
-5.20703708125637
30
0
41
1
10
69.2368478983587
20
-5.86332326085684
30
0
41
1
10
69.3178010295131
20
-6.15545379609182
30
0
41
1
10
69.4797072918219
20
-6.65457292232213
30
0
41
1
10
69.5606604229762
20
-6.86154919698967
30
0
41
1
10
69.7225666852851
20
-7.18722435160174
30
0
41
1
10
69.8035198164394
20
-7.30599350193808
30
0
41
1
10
69.9654260787481
20
-7.46136249619008
30
0
41
1
10
70.0463792099025
20
-7.49807365793876
30
0
41
1
10
70.1374514824511
20
-7.50015719733747
30
0
41
1
10
70.1475706238454
20
-7.4998504219507
30
0
41
1
10
70.167808906634
20
-7.49813926033937
30
0
41
1
10
70.1981663308169
20
-7.4939233293872
30
0
41
1
10
70.2285237549998
20
-7.48463725329603
30
0
41
1
10
70.2892386033656
20
-7.45899845353918
30
0
41
1
10
70.3297151689427
20
-7.43247314371388
30
0
41
1
10
70.4511448656743
20
-7.32247439354802
30
0
41
1
10
70.5320979968287
20
-7.20832563619936
30
0
41
1
10
70.6940042591374
20
-6.89201064093399
30
0
41
1
10
70.7749573902918
20
-6.68977072302789
30
0
41
1
10
70.9368636526005
20
-6.1997051900313
30
0
41
1
10
71.0178167837549
20
-5.91188684476705
30
0
41
1
10
71.1797230460636
20
-5.26328023529959
30
0
41
1
10
71.260676177218
20
-4.90259137975005
30
0
41
1
10
71.4225824395267
20
-4.12944291536957
30
0
41
1
10
71.5035355706811
20
-3.71714067499292
30
0
41
1
10
71.6654418329898
20
-2.86652413174485
30
0
41
1
10
71.7463949641442
20
-2.42836453371885
30
0
41
1
10
71.9083012264529
20
-1.55142942190261
30
0
41
1
10
71.9892543576073
20
-1.11275595452526
30
0
41
1
10
72.1106840543389
20
-0.470045374206222
30
0
41
1
10
72.151160619916
20
-0.258314790193367
30
0
41
1
10
72.2017563268876
20
0.0019521670232621
30
0
41
1
10
72.2118754682818
20
0.053797808105827
30
0
41
1
10
72.2321137510704
20
0.158213701509169
30
0
41
1
10
72.2624711752533
20
0.315478194155531
30
0
41
1
10
72.2928285994362
20
0.474533642181257
30
0
41
1
10
72.3940200133792
20
1.00805548222544
30
0
41
1
10
72.4749731445335
20
1.44578325552152
30
0
41
1
10
72.6368794068422
20
2.32270700903851
30
0
41
1
10
72.7178325379966
20
2.76180635594014
30
0
41
1
10
72.8797388003053
20
3.61641343063744
30
0
41
1
10
72.9606919314598
20
4.03176921266217
30
0
41
1
10
73.1225981937685
20
4.81299432696866
30
0
41
1
10
73.2035513249228
20
5.17870416730193
30
0
41
1
10
73.3654575872316
20
5.83879222644734
30
0
41
1
10
73.4464107183859
20
6.13306455949365
30
0
41
1
10
73.6083169806947
20
6.63669311271738
30
0
41
1
10
73.6892701118491
20
6.84603448197856
30
0
41
1
10
73.7702232430034
20
7.01121406446183
30
0
0
SPLINE
5
EE
100
AcDbEntity
8
1
62
256
6
ByLayer
370
13
48
1
60
0
100
AcDbSpline
70
4
71
3
72
102
73
98
40
0
40
0
40
0
40
0
40
0.03125
40
0.03125
40
0.0624999999999999
40
0.0624999999999999
40
0.0781249999999999
40
0.0781249999999999
40
0.0937499999999999
40
0.0937499999999999
40
0.109375
40
0.109375
40
0.125
40
0.125
40
0.140625
40
0.140625
40
0.15625
40
0.15625
40
0.171875
40
0.171875
40
0.1875
40
0.1875
40
0.21875
40
0.21875
40
0.25
40
0.25
40
0.28125
40
0.28125
40
0.3125
40
0.3125
40
0.328125
40
0.328125
40
0.34375
40
0.34375
40
0.359375
40
0.359375
40
0.375
40
0.375
40
0.390625
40
0.390625
40
0.40625
40
0.40625
40
0.421875
40
0.421875
40
0.4375
40
0.4375
40
0.46875
40
0.46875
40
0.5
40
0.5
40
0.53125
40
0.53125
40
0.5625
40
0.5625
40
0.578125
40
0.578125
40
0.59375
40
0.59375
40
0.609375
40
0.609375
40
0.625
40
0.625
40
0.640625
40
0.640625
40
0.65625
40
0.65625
40
0.671875
40
0.671875
40
0.6875
40
0.6875
40
0.71875
40
0.71875
40
0.75
40
0.75
40
0.78125
40
0.78125
40
0.8125
40
0.8125
40
0.828125
40
0.828125
40
0.84375
40
0.84375
40
0.859375
40
0.859375
40
0.875
40
0.875
40
0.890625
40
0.890625
40
0.90625
40
0.90625
40
0.921875
40
0.921875
40
0.9375
40
0.9375
40
0.96875
40
0.96875
40
1
40
1
40
1
40
1
41
1
10
65.5000004135111
20
7.5
30
0
41
1
10
65.586148567985
20
7.5
30
0
41
1
10
65.672296722459
20
7.46071239942617
30
0
41
1
10
65.8445930314067
20
7.28886815259909
30
0
41
1
10
65.9307411858805
20
7.15616089420192
30
0
41
1
10
66.0599634175913
20
6.88203802208827
30
0
41
1
10
66.1030374948283
20
6.77823265115526
30
0
41
1
10
66.1891856493023
20
6.54602762544479
30
0
41
1
10
66.2322597265392
20
6.41762702496956
30
0
41
1
10
66.3184078810131
20
6.13730589559924
30
0
41
1
10
66.36148195825
20
5.98538656123404
30
0
41
1
10
66.4476301127238
20
5.65991159413735
30
0
41
1
10
66.4907041899608
20
5.48635932359198
30
0
41
1
10
66.5768523444346
20
5.12024283354603
30
0
41
1
10
66.6199264216716
20
4.9276838483749
30
0
41
1
10
66.7060745761454
20
4.52678858882217
30
0
41
1
10
66.7491486533824
20
4.31845884311122
30
0
41
1
10
66.8352968078563
20
3.88968810082207
30
0
41
1
10
66.8783708850932
20
3.66925417459743
30
0
41
1
10
66.9645190395671
20
3.22016546223904
30
0
41
1
10
67.0075931168041
20
2.99151750499976
30
0
41
1
10
67.1368153485149
20
2.29909720149919
30
0
41
1
10
67.2229635029888
20
1.82903571963206
30
0
41
1
10
67.3952598119365
20
0.900411041606048
30
0
41
1
10
67.4814079664104
20
0.441942259418738
30
0
41
1
10
67.6537042753581
20
-0.441941198758599
30
0
41
1
10
67.739852429832
20
-0.900409936068911
30
0
41
1
10
67.9121487387798
20
-1.82903459646997
30
0
41
1
10
67.9982968932536
20
-2.29909607978181
30
0
41
1
10
68.1275191249645
20
-2.99151640404966
30
0
41
1
10
68.1705932022014
20
-3.22016437128548
30
0
41
1
10
68.2567413566753
20
-3.66925310992505
30
0
41
1
10
68.2998154339122
20
-3.88968705243528
30
0
41
1
10
68.3859635883861
20
-4.3184578333983
30
0
41
1
10
68.429037665623
20
-4.52678760149732
30
0
41
1
10
68.5151858200969
20
-4.92768291140237
30
0
41
1
10
68.5582598973339
20
-5.12024192453629
30
0
41
1
10
68.6444080518077
20
-5.48635847524241
30
0
41
1
10
68.6874821290446
20
-5.65991077848253
30
0
41
1
10
68.7736302835185
20
-5.9853858146088
30
0
41
1
10
68.8167043607555
20
-6.13730518530548
30
0
41
1
10
68.9028525152294
20
-6.4176263897217
30
0
41
1
10
68.9459265924663
20
-6.54602702890779
30
0
41
1
10
69.0320747469402
20
-6.77823213310796
30
0
41
1
10
69.0751488241771
20
-6.88203754381655
30
0
41
1
10
69.2043710558879
20
-7.15616053495521
30
0
41
1
10
69.2905192103618
20
-7.2888678721938
30
0
41
1
10
69.4628155193095
20
-7.46071226740509
30
0
41
1
10
69.5489636737834
20
-7.49999993749992
30
0
41
1
10
69.7212599827312
20
-7.50000006249994
30
0
41
1
10
69.8074081372051
20
-7.46071253144709
30
0
41
1
10
69.9797044461528
20
-7.28886843300418
30
0
41
1
10
70.0658526006267
20
-7.15616125344843
30
0
41
1
10
70.1950748323375
20
-6.88203850035976
30
0
41
1
10
70.2381489095745
20
-6.77823316920239
30
0
41
1
10
70.3242970640484
20
-6.54602822198163
30
0
41
1
10
70.3673711412853
20
-6.41762766021725
30
0
41
1
10
70.4535192957592
20
-6.1373066058928
30
0
41
1
10
70.4965933729961
20
-5.9853873078591
30
0
41
1
10
70.58274152747
20
-5.65991240979199
30
0
41
1
10
70.6258156047069
20
-5.48636017194141
30
0
41
1
10
70.7119637591808
20
-5.12024374255563
30
0
41
1
10
70.7550378364177
20
-4.92768478534728
30
0
41
1
10
70.8411859908916
20
-4.52678957614694
30
0
41
1
10
70.8842600681286
20
-4.31845985282402
30
0
41
1
10
70.9704082226024
20
-3.88968914920875
30
0
41
1
10
71.0134822998393
20
-3.66925523926972
30
0
41
1
10
71.0996304543132
20
-3.22016655319251
30
0
41
1
10
71.1427045315502
20
-2.99151860594981
30
0
41
1
10
71.271926763261
20
-2.29909832321653
30
0
41
1
10
71.3580749177349
20
-1.82903684279415
30
0
41
1
10
71.5303712266826
20
-0.900412147143186
30
0
41
1
10
71.6165193811566
20
-0.441943345967275
30
0
41
1
10
71.7888156901043
20
0.441940163986743
30
0
41
1
10
71.8749638445781
20
0.900408830531802
30
0
41
1
10
72.0472601535259
20
1.82903347330785
30
0
41
1
10
72.1334083079998
20
2.29909495806444
30
0
41
1
10
72.2626305397106
20
2.99151530309953
30
0
41
1
10
72.3057046169475
20
3.22016328033189
30
0
41
1
10
72.3918527714214
20
3.66925204525259
30
0
41
1
10
72.4349268486584
20
3.88968600404843
30
0
41
1
10
72.5210750031322
20
4.3184568236853
30
0
41
1
10
72.5641490803691
20
4.52678661417235
30
0
41
1
10
72.650297234843
20
4.9276819744297
30
0
41
1
10
72.69337131208
20
5.1202410155264
30
0
41
1
10
72.7795194665539
20
5.48635762689267
30
0
41
1
10
72.8225935437908
20
5.65990996282758
30
0
41
1
10
72.9087416982646
20
5.9853850679834
30
0
41
1
10
72.9518157755017
20
6.13730447501158
30
0
41
1
10
73.0379639299755
20
6.41762575447365
30
0
41
1
10
73.0810380072124
20
6.54602643237058
30
0
41
1
10
73.1671861616863
20
6.77823161506046
30
0
41
1
10
73.2102602389232
20
6.88203706554467
30
0
41
1
10
73.3394824706341
20
7.15616017570832
30
0
41
1
10
73.4256306251079
20
7.28886759178832
30
0
41
1
10
73.5979269340557
20
7.46071213538383
30
0
41
1
10
73.6840750885296
20
7.4999998749997
30
0
41
1
10
73.7702232430034
20
7.49999999999969
30
0
0
SPLINE
5
EF
100
AcDbEntity
8
1
62
256
6
ByLayer
370
13
48
1
60
0
100
AcDbSpline
70
4
71
3
72
84
73
80
40
0
40
0
40
0
40
0
40
0.0312500000000005
40
0.0312500000000005
40
0.0625000000000011
40
0.0625000000000011
40
0.0937500000000016
40
0.0937500000000016
40
0.125000000000002
40
0.125000000000002
40
0.156250000000003
40
0.156250000000003
40
0.187500000000003
40
0.187500000000003
40
0.195312500000003
40
0.199218750000003
40
0.199218750000003
40
0.203125000000003
40
0.203125000000003
40
0.218750000000003
40
0.218750000000003
40
0.250000000000003
40
0.250000000000003
40
0.281250000000003
40
0.281250000000003
40
0.312500000000003
40
0.312500000000003
40
0.343750000000003
40
0.343750000000003
40
0.375000000000003
40
0.375000000000003
40
0.406250000000003
40
0.406250000000003
40
0.437500000000003
40
0.437500000000003
40
0.453125000000003
40
0.453125000000003
40
0.460937500000003
40
0.464843750000003
40
0.464843750000003
40
0.468750000000003
40
0.468750000000003
40
0.500000000000003
40
0.500000000000003
40
0.531250000000004
40
0.531250000000004
40
0.562500000000004
40
0.562500000000004
40
0.593750000000004
40
0.593750000000004
40
0.625000000000004
40
0.625000000000004
40
0.656250000000004
40
0.656250000000004
40
0.687500000000004
40
0.687500000000004
40
0.718750000000004
40
0.718750000000004
40
0.726562500000004
40
0.726562500000004
40
0.734375000000004
40
0.734375000000004
40
0.750000000000004
40
0.750000000000004
40
0.781250000000003
40
0.781250000000003
40
0.812500000000003
40
0.812500000000003
40
0.843750000000002
40
0.843750000000002
40
0.875000000000002
40
0.875000000000002
40
0.906250000000001
40
0.906250000000001
40
0.937500000000001
40
0.937500000000001
40
0.96875
40
0.96875
40
1
40
1
40
1
40
1
41
1
10
65.5
20
7.01121575194537
30
0
41
1
10
65.5809531397692
20
6.84603644985083
30
0
41
1
10
65.6619062795384
20
6.6366953542113
30
0
41
1
10
65.8238125590768
20
6.13306730231369
30
0
41
1
10
65.9047656988459
20
5.83879519666715
30
0
41
1
10
66.0666719783843
20
5.17870751911249
30
0
41
1
10
66.1476251181535
20
4.81299783277359
30
0
41
1
10
66.3095313976918
20
4.03177293967801
30
0
41
1
10
66.3904845374611
20
3.61641722488037
30
0
41
1
10
66.5523908169995
20
2.76181020107649
30
0
41
1
10
66.6333439567686
20
2.32271083802991
30
0
41
1
10
66.795250236307
20
1.44578698544044
30
0
41
1
10
66.8762033760761
20
1.00805912946328
30
0
41
1
10
66.9773948007876
20
0.474537158897561
30
0
41
1
10
67.0077522282011
20
0.315481669685937
30
0
41
1
10
67.0381096556146
20
0.158217133221115
30
0
41
1
10
67.0583479405568
20
0.0538012100654441
30
0
41
1
10
67.068467083028
20
0.0019555531674769
30
0
41
1
10
67.1190627953837
20
-0.258311384260765
30
0
41
1
10
67.1595393652683
20
-0.470041958119594
30
0
41
1
10
67.280969074922
20
-1.112752527368
30
0
41
1
10
67.3619222146913
20
-1.55142601347487
30
0
41
1
10
67.5238284942296
20
-2.42836122302819
30
0
41
1
10
67.6047816339989
20
-2.86652090017827
30
0
41
1
10
67.7666879135372
20
-3.71713766065579
30
0
41
1
10
67.8476410533064
20
-4.12944003913503
30
0
41
1
10
68.0095473328448
20
-4.90258882574187
30
0
41
1
10
68.090500472614
20
-5.26327786526409
30
0
41
1
10
68.2524067521523
20
-5.91188486635369
30
0
41
1
10
68.3333598919216
20
-6.19970341903132
30
0
41
1
10
68.4952661714599
20
-6.68976936493894
30
0
41
1
10
68.5762193112291
20
-6.89200948813871
30
0
41
1
10
68.7381255907674
20
-7.20832487029404
30
0
41
1
10
68.8190787305367
20
-7.32247380915135
30
0
41
1
10
68.9405084401904
20
-7.43247280379981
30
0
41
1
10
68.980985010075
20
-7.45899819056254
30
0
41
1
10
69.0416998649019
20
-7.48463709830045
30
0
41
1
10
69.0720572923153
20
-7.49392322653244
30
0
41
1
10
69.1024147197288
20
-7.49813920679637
30
0
41
1
10
69.1226530046711
20
-7.49985040065104
30
0
41
1
10
69.1327721471422
20
-7.50015719172686
30
0
41
1
10
69.2238444293825
20
-7.49807379328419
30
0
41
1
10
69.3047975691517
20
-7.46136276243925
30
0
41
1
10
69.46670384869
20
-7.3059940293179
30
0
41
1
10
69.5476569884593
20
-7.18722500912088
30
0
41
1
10
69.7095632679976
20
-6.86155009905642
30
0
41
1
10
69.7905164077668
20
-6.65457393865668
30
0
41
1
10
69.9524226873052
20
-6.15545501058344
30
0
41
1
10
70.0333758270744
20
-5.86332455910349
30
0
41
1
10
70.1952821066128
20
-5.20703850677788
30
0
41
1
10
70.276235246382
20
-4.84298665977792
30
0
41
1
10
70.4381415259203
20
-4.06441921872769
30
0
41
1
10
70.5190946656895
20
-3.65006245505728
30
0
41
1
10
70.6810009452279
20
-2.79674833958705
30
0
41
1
10
70.761954084997
20
-2.35794388976365
30
0
41
1
10
70.9238603645354
20
-1.48098298603011
30
0
41
1
10
71.0048135043047
20
-1.04292497975703
30
0
41
1
10
71.1060049290161
20
-0.508697256392821
30
0
41
1
10
71.1262432139584
20
-0.402504573292021
30
0
41
1
10
71.166719783843
20
-0.191685018402268
30
0
41
1
10
71.1869580687853
20
-0.0872340434665091
30
0
41
1
10
71.2476729236122
20
0.22452025569558
30
0
41
1
10
71.2881494934968
20
0.43592175884271
30
0
41
1
10
71.4095792031505
20
1.07782315715954
30
0
41
1
10
71.4905323429197
20
1.51619641204786
30
0
41
1
10
71.6524386224581
20
2.39316115941025
30
0
41
1
10
71.7333917622273
20
2.83165239975924
30
0
41
1
10
71.8952980417656
20
3.68363643527567
30
0
41
1
10
71.9762511815348
20
4.09697540864326
30
0
41
1
10
72.1381574610732
20
4.87285075909756
30
0
41
1
10
72.2191106008424
20
5.23522901363094
30
0
41
1
10
72.3810168803808
20
5.88768806583604
30
0
41
1
10
72.46197002015
20
6.17766726883303
30
0
41
1
10
72.6238762996883
20
6.67226536443107
30
0
41
1
10
72.7048294394576
20
6.87687446799731
30
0
41
1
10
72.8667357189959
20
7.19786818664204
30
0
41
1
10
72.947688858765
20
7.31432479300474
30
0
41
1
10
73.1095951383035
20
7.46533482251391
30
0
41
1
10
73.1905482780727
20
7.5
30
0
41
1
10
73.2715014178418
20
7.5
30
0
0
SPLINE
5
F0
100
AcDbEntity
8
1
62
256
6
ByLayer
370
13
48
1
60
0
100
AcDbSpline
70
4
71
3
72
87
73
83
40
0
40
0
40
0
40
0
40
0.0312499999999999
40
0.0312499999999999
40
0.0624999999999998
40
0.0624999999999998
40
0.0937499999999997
40
0.0937499999999997
40
0.125
40
0.125
40
0.140625
40
0.140625
40
0.14453125
40
0.14453125
40
0.1484375
40
0.1484375
40
0.15625
40
0.15625
40
0.187499999999999
40
0.187499999999999
40
0.218749999999999
40
0.218749999999999
40
0.249999999999999
40
0.249999999999999
40
0.281249999999999
40
0.281249999999999
40
0.312499999999999
40
0.312499999999999
40
0.343749999999999
40
0.343749999999999
40
0.374999999999999
40
0.374999999999999
40
0.406249999999998
40
0.406249999999998
40
0.421874999999998
40
0.421874999999998
40
0.429687499999998
40
0.429687499999998
40
0.433593749999998
40
0.433593749999998
40
0.437499999999998
40
0.437499999999998
40
0.468749999999998
40
0.468749999999998
40
0.499999999999998
40
0.499999999999998
40
0.531249999999998
40
0.531249999999998
40
0.562499999999998
40
0.562499999999998
40
0.593749999999999
40
0.593749999999999
40
0.624999999999999
40
0.624999999999999
40
0.656249999999999
40
0.656249999999999
40
0.687499999999999
40
0.687499999999999
40
0.703124999999999
40
0.703124999999999
40
0.710937499999999
40
0.714843749999999
40
0.714843749999999
40
0.718749999999999
40
0.718749999999999
40
0.749999999999999
40
0.749999999999999
40
0.781249999999999
40
0.781249999999999
40
0.812499999999999
40
0.812499999999999
40
0.843749999999999
40
0.843749999999999
40
0.874999999999999
40
0.874999999999999
40
0.90625
40
0.90625
40
0.9375
40
0.9375
40
0.96875
40
0.96875
40
1
40
1
40
1
40
1
41
1
10
65.5
20
5.45543391232982
30
0
41
1
10
65.5757581164497
20
5.14304849249856
30
0
41
1
10
65.6515162328994
20
4.79988777448943
30
0
41
1
10
65.8030324657987
20
4.06978023106385
30
0
41
1
10
65.8787905822484
20
3.68294797351223
30
0
41
1
10
66.0303068151478
20
2.88665190576373
30
0
41
1
10
66.1060649315974
20
2.477299229306
30
0
41
1
10
66.2575811644967
20
1.65681036142269
30
0
41
1
10
66.3333392809465
20
1.24575028291821
30
0
41
1
10
66.446976455621
20
0.641042231366328
30
0
41
1
10
66.4848555138459
20
0.441420986761784
30
0
41
1
10
66.5322043366269
20
0.195423464742106
30
0
41
1
10
66.541674101183
20
0.146399645540896
30
0
41
1
10
66.5606136302955
20
0.0487276342500138
30
0
41
1
10
66.5700833948517
20
0.0002097700999002
30
0
41
1
10
66.5984926885204
20
-0.14591651306867
30
0
41
1
10
66.6174322176328
20
-0.244101621941866
30
0
41
1
10
66.7121298631949
20
-0.738375859748061
30
0
41
1
10
66.7878879796446
20
-1.14469855036396
30
0
41
1
10
66.9394042125439
20
-1.96353996115184
30
0
41
1
10
67.0151623289935
20
-2.37600176570388
30
0
41
1
10
67.1666785618929
20
-3.18741371199383
30
0
41
1
10
67.2424366783426
20
-3.5862645120302
30
0
41
1
10
67.393952911242
20
-4.34904764711007
30
0
41
1
10
67.4697110276916
20
-4.71286208657853
30
0
41
1
10
67.621227260591
20
-5.38583810006671
30
0
41
1
10
67.6969853770406
20
-5.69490144290262
30
0
41
1
10
67.84850160994
20
-6.24370859308644
30
0
41
1
10
67.9242597263897
20
-6.48340705882097
30
0
41
1
10
68.075775959289
20
-6.88615173895286
30
0
41
1
10
68.1515340757387
20
-7.04921552071079
30
0
41
1
10
68.3030503086381
20
-7.29912049624932
30
0
41
1
10
68.3788084250878
20
-7.38602614797446
30
0
41
1
10
68.4924455997623
20
-7.46437744527523
30
0
41
1
10
68.5303246579871
20
-7.48187023102469
30
0
41
1
10
68.5871432453244
20
-7.4961200870631
30
0
41
1
10
68.6060827744368
20
-7.49887357640009
30
0
41
1
10
68.6344920681054
20
-7.50014089111878
30
0
41
1
10
68.6439618326617
20
-7.50008937960214
30
0
41
1
10
68.662901361774
20
-7.49903474769016
30
0
41
1
10
68.6723711263302
20
-7.49802911905624
30
0
41
1
10
68.7575990073361
20
-7.48457372129639
30
0
41
1
10
68.8333571237858
20
-7.4411433754232
30
0
41
1
10
68.9848733566852
20
-7.28179325122028
30
0
41
1
10
69.0606314731349
20
-7.16579461485827
30
0
41
1
10
69.2121477060342
20
-6.85663604529122
30
0
41
1
10
69.2879058224839
20
-6.66342674537944
30
0
41
1
10
69.4394220553832
20
-6.20225166302788
30
0
41
1
10
69.5151801718329
20
-5.93429213694174
30
0
41
1
10
69.6666964047324
20
-5.33383421902917
30
0
41
1
10
69.742454521182
20
-5.0014044619476
30
0
41
1
10
69.8939707540813
20
-4.28891325496116
30
0
41
1
10
69.969728870531
20
-3.90896240061861
30
0
41
1
10
70.1212451034303
20
-3.12223371443554
30
0
41
1
10
70.19700321988
20
-2.71557065340556
30
0
41
1
10
70.3485194527793
20
-1.89658638236065
30
0
41
1
10
70.424277569229
20
-1.48434967394741
30
0
41
1
10
70.5379147439036
20
-0.875568689107098
30
0
41
1
10
70.5757938021284
20
-0.674207969677838
30
0
41
1
10
70.6326123894657
20
-0.375918998675928
30
0
41
1
10
70.6610216831342
20
-0.227708984737063
30
0
41
1
10
70.6894309768029
20
-0.0811306598872648
30
0
41
1
10
70.7083705059154
20
0.0162024084775112
30
0
41
1
10
70.7178402704715
20
0.0647770427882506
30
0
41
1
10
70.8030681514774
20
0.504670835236482
30
0
41
1
10
70.8788262679271
20
0.907827738889296
30
0
41
1
10
71.0303425008265
20
1.72374579130917
30
0
41
1
10
71.1061006172761
20
2.1364591847591
30
0
41
1
10
71.2576168501755
20
2.95243009589299
30
0
41
1
10
71.3333749666252
20
3.35559531264357
30
0
41
1
10
71.4848911995245
20
4.13114975150765
30
0
41
1
10
71.5606493159742
20
4.50342191809276
30
0
41
1
10
71.7121655488735
20
5.19684880704742
30
0
41
1
10
71.7879236653232
20
5.51789840409367
30
0
41
1
10
71.9394398982226
20
6.09300148793093
30
0
41
1
10
72.0151980146723
20
6.3469976862294
30
0
41
1
10
72.1667142475716
20
6.7791411635136
30
0
41
1
10
72.2424723640214
20
6.95729433592757
30
0
41
1
10
72.3939885969206
20
7.2367288761391
30
0
41
1
10
72.4697467133703
20
7.33806771317478
30
0
41
1
10
72.6212629462696
20
7.46966274519681
30
0
41
1
10
72.6970210627193
20
7.5
30
0
41
1
10
72.772779179169
20
7.5
30
0
0
SPLINE
5
F1
100
AcDbEntity
8
1
62
256
6
ByLayer
370
13
48
1
60
0
100
AcDbSpline
70
4
71
3
72
85
73
81
40
0
40
0
40
0
40
0
40
0.0312499999999976
40
0.0312499999999976
40
0.0624999999999952
40
0.0624999999999952
40
0.0781249999999939
40
0.0781249999999939
40
0.0820312499999937
40
0.0820312499999937
40
0.0859374999999936
40
0.0859374999999936
40
0.0937499999999935
40
0.0937499999999935
40
0.124999999999994
40
0.124999999999994
40
0.156249999999994
40
0.156249999999994
40
0.187499999999994
40
0.187499999999994
40
0.218749999999994
40
0.218749999999994
40
0.249999999999994
40
0.249999999999994
40
0.281249999999993
40
0.281249999999993
40
0.312499999999993
40
0.312499999999993
40
0.343749999999993
40
0.343749999999993
40
0.374999999999993
40
0.374999999999993
40
0.382812499999993
40
0.386718749999993
40
0.386718749999993
40
0.390624999999993
40
0.390624999999993
40
0.406249999999994
40
0.406249999999994
40
0.437499999999995
40
0.437499999999995
40
0.468749999999995
40
0.468749999999995
40
0.499999999999996
40
0.499999999999996
40
0.531249999999997
40
0.531249999999997
40
0.562499999999998
40
0.562499999999998
40
0.593749999999999
40
0.593749999999999
40
0.625
40
0.625
40
0.65625
40
0.65625
40
0.687500000000001
40
0.687500000000001
40
0.695312500000001
40
0.695312500000001
40
0.703125000000001
40
0.703125000000001
40
0.718750000000001
40
0.718750000000001
40
0.750000000000001
40
0.750000000000001
40
0.781250000000001
40
0.781250000000001
40
0.812500000000001
40
0.812500000000001
40
0.843750000000001
40
0.843750000000001
40
0.875000000000001
40
0.875000000000001
40
0.90625
40
0.90625
40
0.9375
40
0.9375
40
0.96875
40
0.96875
40
1
40
1
40
1
40
1
41
1
10
65.5
20
3.05144576682193
30
0
41
1
10
65.5705630931301
20
2.67689286386079
30
0
41
1
10
65.6411261862603
20
2.29441629299001
30
0
41
1
10
65.7822523725207
20
1.5300144786676
30
0
41
1
10
65.8528154656508
20
1.14813865939556
30
0
41
1
10
65.9586601053461
20
0.586169898306309
30
0
41
1
10
65.9939416519112
20
0.400629310190055
30
0
41
1
10
66.0380435851175
20
0.171802778180449
30
0
41
1
10
66.0468639717589
20
0.126191852887757
30
0
41
1
10
66.0645047450414
20
0.0352982148206422
30
0
41
1
10
66.0733251316826
20
-0.0098768806011265
30
0
41
1
10
66.0997862916064
20
-0.146032228092906
30
0
41
1
10
66.1174270648889
20
-0.237466421629506
30
0
41
1
10
66.2056309313018
20
-0.697562310381983
30
0
41
1
10
66.2761940244319
20
-1.07514100519205
30
0
41
1
10
66.4173202106922
20
-1.83686041186681
30
0
41
1
10
66.4878833038223
20
-2.22096386332109
30
0
41
1
10
66.6290094900827
20
-2.98010960225986
30
0
41
1
10
66.6995725832129
20
-3.3550858728012
30
0
41
1
10
66.8406987694732
20
-4.07875124079675
30
0
41
1
10
66.9112618626033
20
-4.42735824475804
30
0
41
1
10
67.0523880488637
20
-5.08173936796044
30
0
41
1
10
67.1229511419939
20
-5.38743768848727
30
0
41
1
10
67.2640773282542
20
-5.94259685540246
30
0
41
1
10
67.3346404213844
20
-6.1920108700761
30
0
41
1
10
67.4757666076447
20
-6.62625954877299
30
0
41
1
10
67.5463297007749
20
-6.81108833842541
30
0
41
1
10
67.6874558870352
20
-7.11371011673984
30
0
41
1
10
67.7580189801654
20
-7.23153453169948
30
0
41
1
10
67.8991451664257
20
-7.40316482359177
30
0
41
1
10
67.9697082595559
20
-7.45702410577636
30
0
41
1
10
68.0579121259686
20
-7.4888068029469
30
0
41
1
10
68.0843732858924
20
-7.49568753531327
30
0
41
1
10
68.1108344458162
20
-7.49874165153284
30
0
41
1
10
68.1284752190988
20
-7.49994548067903
30
0
41
1
10
68.1372956057401
20
-7.50013221377623
30
0
41
1
10
68.1813975389465
20
-7.49901916739128
30
0
41
1
10
68.2166790855115
20
-7.49153188816197
30
0
41
1
10
68.3225237252067
20
-7.44761094675999
30
0
41
1
10
68.3930868183369
20
-7.38960703710839
30
0
41
1
10
68.5342130045972
20
-7.20933225930685
30
0
41
1
10
68.6047760977274
20
-7.08700888543191
30
0
41
1
10
68.7459022839878
20
-6.77536775422973
30
0
41
1
10
68.816465377118
20
-6.58602070008163
30
0
41
1
10
68.9575915633783
20
-6.14311141556718
30
0
41
1
10
69.0281546565085
20
-5.88955789156157
30
0
41
1
10
69.1692808427688
20
-5.32687944125263
30
0
41
1
10
69.239843935899
20
-5.0178038551378
30
0
41
1
10
69.3809701221593
20
-4.3577138635703
30
0
41
1
10
69.4515332152895
20
-4.00677646089514
30
0
41
1
10
69.5926594015498
20
-3.2796249076525
30
0
41
1
10
69.66322249468
20
-2.90349239750833
30
0
41
1
10
69.8043486809403
20
-2.14316891377294
30
0
41
1
10
69.8749117740705
20
-1.7590422685374
30
0
41
1
10
70.0160379603309
20
-0.998236874102275
30
0
41
1
10
70.086601053461
20
-0.621593293787356
30
0
41
1
10
70.1748049198737
20
-0.163111077233225
30
0
41
1
10
70.1924456931562
20
-0.0721869347767097
30
0
41
1
10
70.2277272397214
20
0.108991267115329
30
0
41
1
10
70.2453680130039
20
0.200254452091485
30
0
41
1
10
70.2982903328515
20
0.475832384276259
30
0
41
1
10
70.3335718794166
20
0.661942834202591
30
0
41
1
10
70.4394165191118
20
1.22531070725981
30
0
41
1
10
70.509979612242
20
1.60770288653839
30
0
41
1
10
70.6511057985023
20
2.37208658967083
30
0
41
1
10
70.7216688916325
20
2.75402667794336
30
0
41
1
10
70.8627950778929
20
3.50088888503478
30
0
41
1
10
70.933358171023
20
3.86573517769622
30
0
41
1
10
71.0744843572834
20
4.56118992521073
30
0
41
1
10
71.1450474504135
20
4.89171614268602
30
0
41
1
10
71.2861736366739
20
5.50315915613416
30
0
41
1
10
71.3567367298041
20
5.78401126490843
30
0
41
1
10
71.4978629160644
20
6.28488007720344
30
0
41
1
10
71.5684260091945
20
6.50486849143553
30
0
41
1
10
71.7095521954549
20
6.87838662760674
30
0
41
1
10
71.7801152885851
20
7.03192920834911
30
0
41
1
10
71.9212414748454
20
7.27276946700826
30
0
41
1
10
71.9918045679756
20
7.36011110865394
30
0
41
1
10
72.1329307542359
20
7.47369771899366
30
0
41
1
10
72.2034938473661
20
7.5
30
0
41
1
10
72.2740569404962
20
7.5
30
0
0
SPLINE
5
F2
100
AcDbEntity
8
1
62
256
6
ByLayer
370
13
48
1
60
0
100
AcDbSpline
70
4
71
3
72
83
73
79
40
0
40
0
40
0
40
0
40
0.0078124999999999
40
0.0078124999999999
40
0.0156249999999997
40
0.0156249999999997
40
0.0312499999999995
40
0.0312499999999995
40
0.062499999999999
40
0.062499999999999
40
0.0937499999999985
40
0.0937499999999985
40
0.124999999999998
40
0.124999999999998
40
0.156249999999998
40
0.156249999999998
40
0.187499999999997
40
0.187499999999997
40
0.218749999999996
40
0.218749999999996
40
0.249999999999996
40
0.249999999999996
40
0.281249999999995
40
0.281249999999995
40
0.312499999999995
40
0.312499999999995
40
0.328124999999995
40
0.328124999999995
40
0.335937499999994
40
0.335937499999994
40
0.343749999999994
40
0.343749999999994
40
0.374999999999993
40
0.374999999999993
40
0.406249999999992
40
0.406249999999992
40
0.437499999999991
40
0.437499999999991
40
0.46874999999999
40
0.46874999999999
40
0.499999999999989
40
0.499999999999989
40
0.531249999999988
40
0.531249999999988
40
0.562499999999987
40
0.562499999999987
40
0.593749999999986
40
0.593749999999986
40
0.624999999999986
40
0.624999999999986
40
0.656249999999985
40
0.656249999999985
40
0.664062499999984
40
0.667968749999984
40
0.667968749999984
40
0.671874999999985
40
0.671874999999985
40
0.687499999999985
40
0.687499999999985
40
0.718749999999987
40
0.718749999999987
40
0.749999999999988
40
0.749999999999988
40
0.78124999999999
40
0.78124999999999
40
0.812499999999991
40
0.812499999999991
40
0.843749999999993
40
0.843749999999993
40
0.874999999999994
40
0.874999999999994
40
0.906249999999996
40
0.906249999999996
40
0.937499999999997
40
0.937499999999997
40
0.968749999999999
40
0.968749999999999
40
1
40
1
40
1
40
1
41
1
10
65.5
20
0.376424576049118
30
0
41
1
10
65.5163420174527
20
0.290998398450427
30
0
41
1
10
65.5326840349053
20
0.20606201131335
30
0
41
1
10
65.5653680698107
20
0.0372968604954167
30
0
41
1
10
65.5817100872633
20
-0.0462629069116929
30
0
41
1
10
65.6307361396214
20
-0.299528480391558
30
0
41
1
10
65.6634201745267
20
-0.470584205743478
30
0
41
1
10
65.7614722792426
20
-0.988780252799501
30
0
41
1
10
65.8268403490533
20
-1.34102722551688
30
0
41
1
10
65.9575764886746
20
-2.04851049400506
30
0
41
1
10
66.0229445584853
20
-2.40371697579099
30
0
41
1
10
66.1536806981067
20
-3.10437519998402
30
0
41
1
10
66.2190487679173
20
-3.44977966173806
30
0
41
1
10
66.3497849075386
20
-4.11711306808763
30
0
41
1
10
66.4151529773492
20
-4.43898567820401
30
0
41
1
10
66.5458891169706
20
-5.04615129376333
30
0
41
1
10
66.6112571867812
20
-5.3313923225534
30
0
41
1
10
66.7419933264026
20
-5.85448694504944
30
0
41
1
10
66.8073613962133
20
-6.09230636355375
30
0
41
1
10
66.9380975358345
20
-6.51338762767668
30
0
41
1
10
67.0034656056452
20
-6.69664091119952
30
0
41
1
10
67.1342017452665
20
-7.00572123275441
30
0
41
1
10
67.1995698150772
20
-7.13156457722491
30
0
41
1
10
67.3303059546985
20
-7.32713059161574
30
0
41
1
10
67.3956740245092
20
-7.39688653404022
30
0
41
1
10
67.4937261292251
20
-7.46295536736326
30
0
41
1
10
67.5264101641305
20
-7.4785739136444
30
0
41
1
10
67.5754362164885
20
-7.49300023769806
30
0
41
1
10
67.5917782339411
20
-7.49630974466544
30
0
41
1
10
67.6244622688465
20
-7.50004129047167
30
0
41
1
10
67.6408042862991
20
-7.50047250602492
30
0
41
1
10
67.7225143735624
20
-7.4955856049547
30
0
41
1
10
67.7878824433731
20
-7.46879174708573
30
0
41
1
10
67.9186185829944
20
-7.36285574630233
30
0
41
1
10
67.9839866528051
20
-7.28367444227808
30
0
41
1
10
68.1147227924264
20
-7.06875747783718
30
0
41
1
10
68.1800908622371
20
-6.9329907224915
30
0
41
1
10
68.3108270018584
20
-6.60423966891508
30
0
41
1
10
68.376195071669
20
-6.41124294584949
30
0
41
1
10
68.5069312112904
20
-5.97160432708398
30
0
41
1
10
68.5722992811011
20
-5.72497560549283
30
0
41
1
10
68.7030354207224
20
-5.18589051407071
30
0
41
1
10
68.768403490533
20
-4.89347216701964
30
0
41
1
10
68.8991396301543
20
-4.27409097552098
30
0
41
1
10
68.964507699965
20
-3.9471818967339
30
0
41
1
10
69.0952438395863
20
-3.27214888342812
30
0
41
1
10
69.1606119093971
20
-2.92408058822806
30
0
41
1
10
69.2913480490184
20
-2.22040860465145
30
0
41
1
10
69.356716118829
20
-1.86484959606315
30
0
41
1
10
69.4874522584503
20
-1.15867455311513
30
0
41
1
10
69.5528203282609
20
-0.808084969947515
30
0
41
1
10
69.6345304155242
20
-0.379305131428367
30
0
41
1
10
69.6590434417033
20
-0.251370795732782
30
0
41
1
10
69.6835564678823
20
-0.124634129822141
30
0
41
1
10
69.699898485335
20
-0.0404243458038422
30
0
41
1
10
69.7080694940613
20
0.0014429150065496
30
0
41
1
10
69.748924537693
20
0.21152815945959
30
0
41
1
10
69.7816085725983
20
0.381891919839745
30
0
41
1
10
69.8796606773143
20
0.898308281257897
30
0
41
1
10
69.9450287471249
20
1.24976543490314
30
0
41
1
10
70.0757648867462
20
1.9566807965945
30
0
41
1
10
70.1411329565569
20
2.3121108685003
30
0
41
1
10
70.2718690961783
20
3.01437485968913
30
0
41
1
10
70.3372371659889
20
3.36116276911048
30
0
41
1
10
70.4679733056103
20
4.03244733284413
30
0
41
1
10
70.5333413754209
20
4.35688794975508
30
0
41
1
10
70.6640775150422
20
4.97025276415991
30
0
41
1
10
70.7294455848528
20
5.2591240376276
30
0
41
1
10
70.8601817244742
20
5.79028365351337
30
0
41
1
10
70.9255497942848
20
6.03253586430458
30
0
41
1
10
71.0562859339062
20
6.46293591143547
30
0
41
1
10
71.1216540037169
20
6.65107288005927
30
0
41
1
10
71.2523901433381
20
6.96999659123642
30
0
41
1
10
71.3177582131489
20
7.10079772852057
30
0
41
1
10
71.4484943527702
20
7.30601831214409
30
0
41
1
10
71.5138624225808
20
7.38046998348628
30
0
41
1
10
71.6445985622021
20
7.47744114721863
30
0
41
1
10
71.7099666320127
20
7.5
30
0
41
1
10
71.7753347018235
20
7.5
30
0
0
SPLINE
5
F3
100
AcDbEntity
8
1
62
256
6
ByLayer
370
13
48
1
60
0
100
AcDbSpline
70
4
71
3
72
78
73
74
40
0
40
0
40
0
40
0
40
0.0312500000000003
40
0.0312500000000003
40
0.0625000000000005
40
0.0625000000000005
40
0.0937500000000007
40
0.0937500000000007
40
0.125000000000001
40
0.125000000000001
40
0.156250000000001
40
0.156250000000001
40
0.187500000000001
40
0.187500000000001
40
0.218750000000001
40
0.218750000000001
40
0.250000000000002
40
0.250000000000002
40
0.281250000000002
40
0.281250000000002
40
0.289062500000002
40
0.289062500000002
40
0.296875000000002
40
0.296875000000002
40
0.312500000000002
40
0.312500000000002
40
0.343750000000002
40
0.343750000000002
40
0.375000000000002
40
0.375000000000002
40
0.406250000000002
40
0.406250000000002
40
0.437500000000002
40
0.437500000000002
40
0.468750000000002
40
0.468750000000002
40
0.500000000000001
40
0.500000000000001
40
0.531250000000001
40
0.531250000000001
40
0.562500000000001
40
0.562500000000001
40
0.593750000000001
40
0.593750000000001
40
0.625000000000001
40
0.625000000000001
40
0.640625000000001
40
0.640625000000001
40
0.648437500000001
40
0.648437500000001
40
0.656250000000001
40
0.656250000000001
40
0.687500000000001
40
0.687500000000001
40
0.718750000000001
40
0.718750000000001
40
0.750000000000001
40
0.750000000000001
40
0.781250000000001
40
0.781250000000001
40
0.8125
40
0.8125
40
0.84375
40
0.84375
40
0.875
40
0.875
40
0.90625
40
0.90625
40
0.9375
40
0.9375
40
0.96875
40
0.96875
40
1
40
1
40
1
40
1
41
1
10
65.5
20
-2.27144000868245
30
0
41
1
10
65.5601730464912
20
-2.59681426198929
30
0
41
1
10
65.6203460929823
20
-2.92057075876261
30
0
41
1
10
65.7406921859646
20
-3.55444160115923
30
0
41
1
10
65.8008652324558
20
-3.86452091820343
30
0
41
1
10
65.9212113254381
20
-4.46038260052842
30
0
41
1
10
65.9813843719292
20
-4.74612762862424
30
0
41
1
10
66.1017304649115
20
-5.28358332625243
30
0
41
1
10
66.1619035114027
20
-5.53526232988835
30
0
41
1
10
66.282249604385
20
-5.99683240742365
30
0
41
1
10
66.3424226508761
20
-6.20670441652476
30
0
41
1
10
66.4627687438585
20
-6.57967622507371
30
0
41
1
10
66.5229417903496
20
-6.74277293833029
30
0
41
1
10
66.6432878833319
20
-7.02032033232842
30
0
41
1
10
66.7034609298231
20
-7.13478277616485
30
0
41
1
10
66.8238070228053
20
-7.31615961491781
30
0
41
1
10
66.8839800692966
20
-7.38309595356245
30
0
41
1
10
67.0043261622789
20
-7.47296422795222
30
0
41
1
10
67.06449920877
20
-7.4959222186761
30
0
41
1
10
67.1397155168839
20
-7.50039540771519
30
0
41
1
10
67.1547587785067
20
-7.50009527329132
30
0
41
1
10
67.1848453017523
20
-7.49707180379446
30
0
41
1
10
67.1998885633751
20
-7.4943404768749
30
0
41
1
10
67.2450183482434
20
-7.48235696223981
30
0
41
1
10
67.275104871489
20
-7.4693125274666
30
0
41
1
10
67.3653644412257
20
-7.41405222081008
30
0
41
1
10
67.4255374877168
20
-7.35564624088795
30
0
41
1
10
67.5458835806992
20
-7.19182826991118
30
0
41
1
10
67.6060566271904
20
-7.08639310445645
30
0
41
1
10
67.7264027201727
20
-6.82689563965567
30
0
41
1
10
67.7865757666638
20
-6.67281925080252
30
0
41
1
10
67.9069218596461
20
-6.31730665365768
30
0
41
1
10
67.9670949061373
20
-6.11587054778087
30
0
41
1
10
68.0874409991196
20
-5.67002178026181
30
0
41
1
10
68.1476140456107
20
-5.42562532622367
30
0
41
1
10
68.267960138593
20
-4.90111379724098
30
0
41
1
10
68.3281331850842
20
-4.62102848552686
30
0
41
1
10
68.4484792780665
20
-4.034567954019
30
0
41
1
10
68.5086523245576
20
-3.72822962788197
30
0
41
1
10
68.6289984175399
20
-3.09983490639286
30
0
41
1
10
68.6891714640311
20
-2.77781452963527
30
0
41
1
10
68.8095175570134
20
-2.1286457814075
30
0
41
1
10
68.8696906035045
20
-1.80152577206852
30
0
41
1
10
68.9900366964869
20
-1.15177632277317
30
0
41
1
10
69.050209742978
20
-0.829163938545292
30
0
41
1
10
69.1404693127147
20
-0.35457950101312
30
0
41
1
10
69.1705558359603
20
-0.197925853788462
30
0
41
1
10
69.2156856208287
20
0.0341379613623758
30
0
41
1
10
69.2307288824515
20
0.111361755975992
30
0
41
1
10
69.260815405697
20
0.267249840213225
30
0
41
1
10
69.2758586673198
20
0.34564909611953
30
0
41
1
10
69.3510749754338
20
0.739666866544241
30
0
41
1
10
69.4112480219249
20
1.06142485838103
30
0
41
1
10
69.5315941149073
20
1.71028300562435
30
0
41
1
10
69.5917671613984
20
2.03736721733424
30
0
41
1
10
69.7121132543808
20
2.68741337964784
30
0
41
1
10
69.7722863008718
20
3.01034792369995
30
0
41
1
10
69.8926323938541
20
3.6415733981585
30
0
41
1
10
69.9528054403453
20
3.94982877586133
30
0
41
1
10
70.0731515333276
20
4.5410785273244
30
0
41
1
10
70.1333245798187
20
4.82403574980896
30
0
41
1
10
70.2536706728011
20
5.35509435202982
30
0
41
1
10
70.3138437192922
20
5.60316498720772
30
0
41
1
10
70.4341898122746
20
6.05692779289697
30
0
41
1
10
70.4943628587657
20
6.26260231402438
30
0
41
1
10
70.614708951748
20
6.62687172158175
30
0
41
1
10
70.6748819982392
20
6.78546502079098
30
0
41
1
10
70.7952280912215
20
7.05398804717788
30
0
41
1
10
70.8554011377126
20
7.16393072278831
30
0
41
1
10
70.9757472306949
20
7.33650544446635
30
0
41
1
10
71.0359202771861
20
7.3991600768048
30
0
41
1
10
71.1562663701684
20
7.48089428427642
30
0
41
1
10
71.2164394166595
20
7.5
30
0
41
1
10
71.2766124631506
20
7.5
30
0
0
SPLINE
5
F4
100
AcDbEntity
8
1
62
256
6
ByLayer
370
13
48
1
60
0
100
AcDbSpline
70
4
71
3
72
10
73
6
40
0
40
0
40
0
40
0
40
0.5
40
0.5
40
1
40
1
40
1
40
1
41
1
10
73.4795562322759
20
7.5
30
0
41
1
10
73.5280007340638
20
7.5
30
0
41
1
10
73.5764452358517
20
7.48762835513639
30
0
41
1
10
73.6733342394276
20
7.43530605416956
30
0
41
1
10
73.7217787412155
20
7.39534651771652
30
0
41
1
10
73.7702232430034
20
7.34047914993138
30
0
0
SPLINE
5
F5
100
AcDbEntity
8
1
62
256
6
ByLayer
370
13
48
1
60
0
100
AcDbSpline
70
4
71
3
72
78
73
74
40
0
40
0
40
0
40
0
40
0.0312499999999995
40
0.0312499999999995
40
0.0624999999999989
40
0.0624999999999989
40
0.0937499999999984
40
0.0937499999999984
40
0.124999999999998
40
0.124999999999998
40
0.156249999999998
40
0.156249999999998
40
0.187499999999997
40
0.187499999999997
40
0.203124999999997
40
0.203124999999997
40
0.210937499999997
40
0.210937499999997
40
0.218749999999996
40
0.218749999999996
40
0.249999999999996
40
0.249999999999996
40
0.281249999999995
40
0.281249999999995
40
0.312499999999995
40
0.312499999999995
40
0.343749999999994
40
0.343749999999994
40
0.374999999999994
40
0.374999999999994
40
0.406249999999993
40
0.406249999999993
40
0.437499999999993
40
0.437499999999993
40
0.468749999999992
40
0.468749999999992
40
0.499999999999992
40
0.499999999999992
40
0.531249999999991
40
0.531249999999991
40
0.562499999999991
40
0.562499999999991
40
0.59374999999999
40
0.59374999999999
40
0.60156249999999
40
0.60156249999999
40
0.60937499999999
40
0.60937499999999
40
0.62499999999999
40
0.62499999999999
40
0.656249999999991
40
0.656249999999991
40
0.687499999999992
40
0.687499999999992
40
0.718749999999993
40
0.718749999999993
40
0.749999999999993
40
0.749999999999993
40
0.781249999999994
40
0.781249999999994
40
0.812499999999995
40
0.812499999999995
40
0.843749999999996
40
0.843749999999996
40
0.874999999999997
40
0.874999999999997
40
0.906249999999997
40
0.906249999999997
40
0.937499999999998
40
0.937499999999998
40
0.968749999999999
40
0.968749999999999
40
1
40
1
40
1
40
1
41
1
10
65.5
20
-4.82075342760845
30
0
41
1
10
65.5549780231717
20
-5.07340008362942
30
0
41
1
10
65.6099560463433
20
-5.31273092215554
30
0
41
1
10
65.7199120926866
20
-5.75839933254312
30
0
41
1
10
65.7748901158582
20
-5.96472177616997
30
0
41
1
10
65.8848461622015
20
-6.3397524676391
30
0
41
1
10
65.9398241853732
20
-6.50845450162834
30
0
41
1
10
66.0497802317165
20
-6.80573527632322
30
0
41
1
10
66.1047582548881
20
-6.93431708888428
30
0
41
1
10
66.2147143012314
20
-7.1510065766351
30
0
41
1
10
66.269692324403
20
-7.23912492255772
30
0
41
1
10
66.3796483707463
20
-7.37648052227274
30
0
41
1
10
66.4346263939179
20
-7.42573307480825
30
0
41
1
10
66.5170934286755
20
-7.47280241562387
30
0
41
1
10
66.5445824402613
20
-7.48403447795892
30
0
41
1
10
66.58581595764
20
-7.4945659363259
30
0
41
1
10
66.5995604634329
20
-7.49702411162306
30
0
41
1
10
66.6270494750187
20
-7.49990238396569
30
0
41
1
10
66.6407939808117
20
-7.5003265487324
30
0
41
1
10
66.7095165097762
20
-7.49747659932376
30
0
41
1
10
66.7644945329479
20
-7.47909516353062
30
0
41
1
10
66.8744505792912
20
-7.40609658563594
30
0
41
1
10
66.9294286024628
20
-7.35146276501348
30
0
41
1
10
67.039384648806
20
-7.20301147610652
30
0
41
1
10
67.0943626719777
20
-7.10917916687058
30
0
41
1
10
67.204318718321
20
-6.88098366387888
30
0
41
1
10
67.2592967414926
20
-6.7466107202788
30
0
41
1
10
67.3692527878359
20
-6.4379690419793
30
0
41
1
10
67.4242308110075
20
-6.26369849835541
30
0
41
1
10
67.5341868573508
20
-5.87806259623881
30
0
41
1
10
67.5891648805224
20
-5.66670479853053
30
0
41
1
10
67.6991209268658
20
-5.21177868166282
30
0
41
1
10
67.7540989500375
20
-4.96822660071024
30
0
41
1
10
67.8640549963808
20
-4.45551763457468
30
0
41
1
10
67.9190330195523
20
-4.1863828668169
30
0
41
1
10
68.0289890658956
20
-3.63024767606626
30
0
41
1
10
68.0839670890673
20
-3.34327114864223
30
0
41
1
10
68.1939231354106
20
-2.7596181900609
30
0
41
1
10
68.2489011585822
20
-2.46296327996035
30
0
41
1
10
68.3588572049255
20
-1.86784906448204
30
0
41
1
10
68.4138352280971
20
-1.56940584425513
30
0
41
1
10
68.5237912744404
20
-0.977765689163277
30
0
41
1
10
68.5787692976121
20
-0.68457802759778
30
0
41
1
10
68.6474918265767
20
-0.325010981376522
30
0
41
1
10
68.6612363323695
20
-0.253440150599062
30
0
41
1
10
68.6887253439554
20
-0.111060871227636
30
0
41
1
10
68.7024698497483
20
-0.0404370948736528
30
0
41
1
10
68.743703367127
20
0.171441911926507
30
0
41
1
10
68.7711923787128
20
0.314325728825281
30
0
41
1
10
68.8536594134703
20
0.746958202625393
30
0
41
1
10
68.9086374366419
20
1.04072912531373
30
0
41
1
10
69.0185934829852
20
1.633071417802
30
0
41
1
10
69.0735715061568
20
1.93163301986584
30
0
41
1
10
69.1835275525002
20
2.52644411702514
30
0
41
1
10
69.2385055756718
20
2.82267707281866
30
0
41
1
10
69.3484616220151
20
3.40490565926669
30
0
41
1
10
69.4034396451867
20
3.69087948030531
30
0
41
1
10
69.51339569153
20
4.24443476058764
30
0
41
1
10
69.5683737147017
20
4.51199230674979
30
0
41
1
10
69.678329761045
20
5.02102980105693
30
0
41
1
10
69.7333077842166
20
5.26248792390354
30
0
41
1
10
69.8432638305599
20
5.71281401428334
30
0
41
1
10
69.8982418537316
20
5.92166629164964
30
0
41
1
10
70.0081979000748
20
6.30201850882636
30
0
41
1
10
70.0631759232465
20
6.47351155997916
30
0
41
1
10
70.1731319695898
20
6.77648075278674
30
0
41
1
10
70.2281099927614
20
6.90795933896482
30
0
41
1
10
70.3380660391047
20
7.1303992104427
30
0
41
1
10
70.3930440622764
20
7.22137071366456
30
0
41
1
10
70.5030001086197
20
7.36426248570623
30
0
41
1
10
70.5579781317913
20
7.41619783280973
30
0
41
1
10
70.6679341781346
20
7.4840582430075
30
0
41
1
10
70.7229122013062
20
7.5
30
0
41
1
10
70.7778902244779
20
7.5
30
0
0
SPLINE
5
F6
100
AcDbEntity
8
1
62
256
6
ByLayer
370
13
48
1
60
0
100
AcDbSpline
70
4
71
3
72
14
73
10
40
0
40
0
40
0
40
0
40
0.25
40
0.25
40
0.5
40
0.5
40
0.75
40
0.75
40
1
40
1
40
1
40
1
41
1
10
72.980833993603
20
7.5
30
0
41
1
10
73.0466164310531
20
7.5
30
0
41
1
10
73.1123988685031
20
7.47715323171201
30
0
41
1
10
73.2439637434032
20
7.37890756737974
30
0
41
1
10
73.3097461808533
20
7.30346806614577
30
0
41
1
10
73.4413110557533
20
7.09551558617383
30
0
41
1
10
73.5070934932033
20
6.96296952099624
30
0
41
1
10
73.6386583681034
20
6.63984323429042
30
0
41
1
10
73.7044408055535
20
6.44924860381204
30
0
41
1
10
73.7702232430034
20
6.23131426785639
30
0
0
SPLINE
5
F7
100
AcDbEntity
8
1
62
256
6
ByLayer
370
13
48
1
60
0
100
AcDbSpline
70
4
71
3
72
8
73
4
40
0
40
0
40
0
40
0
40
1
40
1
40
1
40
1
41
1
10
73.7702232430034
20
-6.94001423337482
30
0
41
1
10
74.680148828669
20
-4.62408866855162
30
0
41
1
10
75.5900744143345
20
-2.31074197484995
30
0
41
1
10
76.5000000000001
20
1.99E-13
30
0
0
SPLINE
5
F8
100
AcDbEntity
8
1
62
256
6
ByLayer
370
13
48
1
60
0
100
AcDbSpline
70
4
71
3
72
8
73
4
40
0
40
0
40
0
40
0
40
1
40
1
40
1
40
1
41
1
10
73.7702232430035
20
1.95332382935624
30
0
41
1
10
74.680148828669
20
1.30880481102559
30
0
41
1
10
75.5900744143345
20
0.657694433800884
30
0
41
1
10
76.5
20
2.84E-14
30
0
0
SPLINE
5
F9
100
AcDbEntity
8
1
62
256
6
ByLayer
370
13
48
1
60
0
100
AcDbSpline
70
4
71
3
72
8
73
4
40
0
40
0
40
0
40
0
40
1
40
1
40
1
40
1
41
1
10
73.7702232430034
20
7.49809908809399
30
0
41
1
10
74.680148828669
20
4.99888636563765
30
0
41
1
10
75.5900744143345
20
2.49951069051403
30
0
41
1
10
76.5
20
0
30
0
0
SPLINE
5
FA
100
AcDbEntity
8
1
62
256
6
ByLayer
370
13
48
1
60
0
100
AcDbSpline
70
4
71
3
72
8
73
4
40
0
40
0
40
0
40
0
40
1
40
1
40
1
40
1
41
1
10
73.7702232430036
20
6.6556793543443
30
0
41
1
10
74.6801488286691
20
4.4339738142433
30
0
41
1
10
75.5900744143345
20
2.21540576737394
30
0
41
1
10
76.4999999999999
20
3.695E-13
30
0
0
SPLINE
5
FB
100
AcDbEntity
8
1
62
256
6
ByLayer
370
13
48
1
60
0
100
AcDbSpline
70
4
71
3
72
8
73
4
40
0
40
0
40
0
40
0
40
1
40
1
40
1
40
1
41
1
10
73.7702232430036
20
-0.243511043970813
30
0
41
1
10
74.6801488286689
20
-0.169161539829247
30
0
41
1
10
75.5900744143341
20
-0.0879908809403105
30
0
41
1
10
76.4999999999994
20
-5.68E-14
30
0
0
SPLINE
5
FC
100
AcDbEntity
8
1
62
256
6
ByLayer
370
13
48
1
60
0
100
AcDbSpline
70
4
71
3
72
8
73
4
40
0
40
0
40
0
40
0
40
1
40
1
40
1
40
1
41
1
10
73.7702232430036
20
6.01719513966094
30
0
41
1
10
74.6801488286692
20
4.00738970649815
30
0
41
1
10
75.5900744143348
20
2.001650525305
30
0
41
1
10
76.5000000000003
20
-6.537E-13
30
0
0
SPLINE
5
FD
100
AcDbEntity
8
1
62
256
6
ByLayer
370
13
48
1
60
0
100
AcDbSpline
70
4
71
3
72
8
73
4
40
0
40
0
40
0
40
0
40
1
40
1
40
1
40
1
41
1
10
73.7702232430035
20
7.06131909839033
30
0
41
1
10
74.680148828669
20
4.70984581544857
30
0
41
1
10
75.5900744143345
20
2.356064010018
30
0
41
1
10
76.5
20
2.84E-14
30
0
0
SPLINE
5
FE
100
AcDbEntity
8
1
62
256
6
ByLayer
370
13
48
1
60
0
100
AcDbSpline
70
4
71
3
72
8
73
4
40
0
40
0
40
0
40
0
40
1
40
1
40
1
40
1
41
1
10
73.7702232430034
20
-6.29507396208862
30
0
41
1
10
74.680148828669
20
-4.20042575415059
30
0
41
1
10
75.5900744143345
20
-2.10205994403782
30
0
41
1
10
76.5000000000001
20
1.705E-13
30
0
0
SPLINE
5
FF
100
AcDbEntity
8
1
62
256
6
ByLayer
370
13
48
1
60
0
100
AcDbSpline
70
4
71
3
72
8
73
4
40
0
40
0
40
0
40
0
40
1
40
1
40
1
40
1
41
1
10
73.7702232430035
20
3.08612654193794
30
0
41
1
10
74.680148828669
20
2.06363760828938
30
0
41
1
10
75.5900744143345
20
1.03492492044919
30
0
41
1
10
76.5
20
5.68E-14
30
0
0
SPLINE
5
100
100
AcDbEntity
8
1
62
256
6
ByLayer
370
13
48
1
60
0
100
AcDbSpline
70
4
71
3
72
8
73
4
40
0
40
0
40
0
40
0
40
1
40
1
40
1
40
1
41
1
10
73.7702232430034
20
-4.6859911710043
30
0
41
1
10
74.6801488286689
20
-3.12932254117496
30
0
41
1
10
75.5900744143344
20
-1.56731965780759
30
0
41
1
10
76.4999999999999
20
-2.558E-13
30
0
0
SPLINE
5
101
100
AcDbEntity
8
1
62
256
6
ByLayer
370
13
48
1
60
0
100
AcDbSpline
70
4
71
3
72
8
73
4
40
0
40
0
40
0
40
0
40
1
40
1
40
1
40
1
41
1
10
73.7702232430034
20
-7.48283062983145
30
0
41
1
10
74.680148828669
20
-4.98809224441297
30
0
41
1
10
75.5900744143345
20
-2.49380607510338
30
0
41
1
10
76.5000000000001
20
1.99E-13
30
0
0
SPLINE
5
102
100
AcDbEntity
8
1
62
256
6
ByLayer
370
13
48
1
60
0
100
AcDbSpline
70
4
71
3
72
8
73
4
40
0
40
0
40
0
40
0
40
1
40
1
40
1
40
1
41
1
10
73.7702232430034
20
-3.85292406640394
30
0
41
1
10
74.680148828669
20
-2.56276097353319
30
0
41
1
10
75.5900744143345
20
-1.27844817354622
30
0
41
1
10
76.5000000000001
20
1.137E-13
30
0
0
SPLINE
5
103
100
AcDbEntity
8
1
62
256
6
ByLayer
370
13
48
1
60
0
100
AcDbSpline
70
4
71
3
72
8
73
4
40
0
40
0
40
0
40
0
40
1
40
1
40
1
40
1
41
1
10
73.7702232430036
20
5.22384655125344
30
0
41
1
10
74.6801488286691
20
3.47766752814749
30
0
41
1
10
75.5900744143345
20
1.7363788627423
30
0
41
1
10
76.4999999999999
20
2.842E-13
30
0
0
SPLINE
5
104
100
AcDbEntity
8
1
62
256
6
ByLayer
370
13
48
1
60
0
100
AcDbSpline
70
4
71
3
72
8
73
4
40
0
40
0
40
0
40
0
40
1
40
1
40
1
40
1
41
1
10
73.7702232430035
20
0.770248479026776
30
0
41
1
10
74.680148828669
20
0.52028734296718
30
0
41
1
10
75.5900744143344
20
0.263536884920427
30
0
41
1
10
76.4999999999999
20
5.68E-14
30
0
0
SPLINE
5
105
100
AcDbEntity
8
1
62
256
6
ByLayer
370
13
48
1
60
0
100
AcDbSpline
70
4
71
3
72
8
73
4
40
0
40
0
40
0
40
0
40
1
40
1
40
1
40
1
41
1
10
73.7702232430034
20
-5.56210847741085
30
0
41
1
10
74.680148828669
20
-3.71265033369619
30
0
41
1
10
75.5900744143345
20
-1.85860726103471
30
0
41
1
10
76.5000000000001
20
1.421E-13
30
0
0
SPLINE
5
106
100
AcDbEntity
8
1
62
256
6
ByLayer
370
13
48
1
60
0
100
AcDbSpline
70
4
71
3
72
8
73
4
40
0
40
0
40
0
40
0
40
1
40
1
40
1
40
1
41
1
10
73.7702232430034
20
-4.8323141355375
30
0
41
1
10
74.680148828669
20
-3.21632365832457
30
0
41
1
10
75.5900744143345
20
-1.60554628482024
30
0
41
1
10
76.5000000000001
20
1.421E-13
30
0
0
SPLINE
5
107
100
AcDbEntity
8
1
62
256
6
ByLayer
370
13
48
1
60
0
100
AcDbSpline
70
4
71
3
72
8
73
4
40
0
40
0
40
0
40
0
40
1
40
1
40
1
40
1
41
1
10
73.7702232430036
20
2.13548503404428
30
0
41
1
10
74.6801488286691
20
1.41711472915614
30
0
41
1
10
75.5900744143345
20
0.705283740442212
30
0
41
1
10
76.4999999999999
20
1.137E-13
30
0
0
SPLINE
5
108
100
AcDbEntity
8
1
62
256
6
ByLayer
370
13
48
1
60
0
100
AcDbSpline
70
4
71
3
72
8
73
4
40
0
40
0
40
0
40
0
40
1
40
1
40
1
40
1
41
1
10
73.7702232430034
20
-5.68733507838067
30
0
41
1
10
74.680148828669
20
-3.7871079160449
30
0
41
1
10
75.5900744143345
20
-1.89132249874626
30
0
41
1
10
76.5000000000001
20
1.705E-13
30
0
0
SPLINE
5
109
100
AcDbEntity
8
1
62
256
6
ByLayer
370
13
48
1
60
0
100
AcDbSpline
70
4
71
3
72
8
73
4
40
0
40
0
40
0
40
0
40
1
40
1
40
1
40
1
41
1
10
73.7702232430034
20
-7.26026202649703
30
0
41
1
10
74.680148828669
20
-4.84188635940166
30
0
41
1
10
75.5900744143345
20
-2.42178999825612
30
0
41
1
10
76.5000000000001
20
1.99E-13
30
0
0
SPLINE
5
10A
100
AcDbEntity
8
1
62
256
6
ByLayer
370
13
48
1
60
0
100
AcDbSpline
70
4
71
3
72
8
73
4
40
0
40
0
40
0
40
0
40
1
40
1
40
1
40
1
41
1
10
73.7702232430035
20
6.56629209338118
30
0
41
1
10
74.680148828669
20
4.38082568682827
30
0
41
1
10
75.5900744143345
20
2.19205349662499
30
0
41
1
10
76.5
20
8.53E-14
30
0
0
SPLINE
5
10B
100
AcDbEntity
8
1
62
256
6
ByLayer
370
13
48
1
60
0
100
AcDbSpline
70
4
71
3
72
8
73
4
40
0
40
0
40
0
40
0
40
1
40
1
40
1
40
1
41
1
10
73.7702232430035
20
-1.62441482721312
30
0
41
1
10
74.680148828669
20
-1.0762807683264
30
0
41
1
10
75.5900744143345
20
-0.534807150094139
30
0
41
1
10
76.5
20
-2.84E-14
30
0
0
SPLINE
5
10C
100
AcDbEntity
8
1
62
256
6
ByLayer
370
13
48
1
60
0
100
AcDbSpline
70
4
71
3
72
8
73
4
40
0
40
0
40
0
40
0
40
1
40
1
40
1
40
1
41
1
10
73.7702232430034
20
5.08633863838469
30
0
41
1
10
74.680148828669
20
3.39590768904984
30
0
41
1
10
75.5900744143345
20
1.70045515306782
30
0
41
1
10
76.5000000000001
20
-1.421E-13
30
0
0
SPLINE
5
10D
100
AcDbEntity
8
1
62
256
6
ByLayer
370
13
48
1
60
0
100
AcDbSpline
70
4
71
3
72
8
73
4
40
0
40
0
40
0
40
0
40
1
40
1
40
1
40
1
41
1
10
73.7702232430036
20
-3.68927064812687
30
0
41
1
10
74.6801488286691
20
-2.46545546676677
30
0
41
1
10
75.5900744143345
20
-1.23569399480337
30
0
41
1
10
76.4999999999999
20
-1.99E-13
30
0
0
SPLINE
5
10E
100
AcDbEntity
8
1
62
256
6
ByLayer
370
13
48
1
60
0
100
AcDbSpline
70
4
71
3
72
8
73
4
40
0
40
0
40
0
40
0
40
1
40
1
40
1
40
1
41
1
10
73.7702232430034
20
-7.46764358949952
30
0
41
1
10
74.680148828669
20
-4.97906229153242
30
0
41
1
10
75.5900744143345
20
-2.48983848650201
30
0
41
1
10
76.5000000000001
20
1.99E-13
30
0
0
SPLINE
5
10F
100
AcDbEntity
8
1
62
256
6
ByLayer
370
13
48
1
60
0
100
AcDbSpline
70
4
71
3
72
8
73
4
40
0
40
0
40
0
40
0
40
1
40
1
40
1
40
1
41
1
10
73.7702232430036
20
7.40673273140817
30
0
41
1
10
74.6801488286689
20
4.93674891478005
30
0
41
1
10
75.5900744143341
20
2.46782880688099
30
0
41
1
10
76.4999999999994
20
1.6485E-12
30
0
0
SPLINE
5
110
100
AcDbEntity
8
1
62
256
6
ByLayer
370
13
48
1
60
0
100
AcDbSpline
70
4
71
3
72
8
73
4
40
0
40
0
40
0
40
0
40
1
40
1
40
1
40
1
41
1
10
73.7702232430036
20
3.25769004242483
30
0
41
1
10
74.6801488286691
20
2.16564631384085
30
0
41
1
10
75.5900744143345
20
1.07974559479155
30
0
41
1
10
76.4999999999999
20
1.705E-13
30
0
0
SPLINE
5
111
100
AcDbEntity
8
1
62
256
6
ByLayer
370
13
48
1
60
0
100
AcDbSpline
70
4
71
3
72
8
73
4
40
0
40
0
40
0
40
0
40
1
40
1
40
1
40
1
41
1
10
73.7702232430034
20
-6.39598124616177
30
0
41
1
10
74.680148828669
20
-4.26042348909886
30
0
41
1
10
75.5900744143345
20
-2.12842180134064
30
0
41
1
10
76.5000000000001
20
1.705E-13
30
0
0
SPLINE
5
112
100
AcDbEntity
8
1
62
256
6
ByLayer
370
13
48
1
60
0
100
AcDbSpline
70
4
71
3
72
8
73
4
40
0
40
0
40
0
40
0
40
1
40
1
40
1
40
1
41
1
10
73.7702232430035
20
-0.432650733675075
30
0
41
1
10
74.680148828669
20
-0.281620745081966
30
0
41
1
10
75.5900744143344
20
-0.137403304989561
30
0
41
1
10
76.4999999999999
20
-2.84E-14
30
0
0
SPLINE
5
113
100
AcDbEntity
8
1
62
256
6
ByLayer
370
13
48
1
60
0
100
AcDbSpline
70
4
71
3
72
8
73
4
40
0
40
0
40
0
40
0
40
1
40
1
40
1
40
1
41
1
10
73.7702232430034
20
7.37460914216481
30
0
41
1
10
74.680148828669
20
4.91764878131829
30
0
41
1
10
75.5900744143345
20
2.4594365735197
30
0
41
1
10
76.5
20
0
30
0
0
SPLINE
5
114
100
AcDbEntity
8
1
62
256
6
ByLayer
370
13
48
1
60
0
100
AcDbSpline
70
4
71
3
72
8
73
4
40
0
40
0
40
0
40
0
40
1
40
1
40
1
40
1
41
1
10
73.7702232430036
20
0.958319110367057
30
0
41
1
10
74.6801488286692
20
0.632110904510341
30
0
41
1
10
75.5900744143348
20
0.312670019280063
30
0
41
1
10
76.5000000000003
20
-1.137E-13
30
0
0
SPLINE
5
115
100
AcDbEntity
8
1
62
256
6
ByLayer
370
13
48
1
60
0
100
AcDbSpline
70
4
71
3
72
8
73
4
40
0
40
0
40
0
40
0
40
1
40
1
40
1
40
1
41
1
10
73.7702232430034
20
5.90226862255557
30
0
41
1
10
74.680148828669
20
3.93905637679728
30
0
41
1
10
75.5900744143345
20
1.97162616708334
30
0
41
1
10
76.5
20
8.53E-14
30
0
0
SPLINE
5
116
100
AcDbEntity
8
1
62
256
6
ByLayer
370
13
48
1
60
0
100
AcDbSpline
70
4
71
3
72
8
73
4
40
0
40
0
40
0
40
0
40
1
40
1
40
1
40
1
41
1
10
73.7702232430036
20
7.12286654591384
30
0
41
1
10
74.6801488286692
20
4.74644086879033
30
0
41
1
10
75.5900744143348
20
2.3721431765897
30
0
41
1
10
76.5000000000003
20
-7.958E-13
30
0
0
SPLINE
5
117
100
AcDbEntity
8
1
62
256
6
ByLayer
370
13
48
1
60
0
100
AcDbSpline
70
4
71
3
72
8
73
4
40
0
40
0
40
0
40
0
40
1
40
1
40
1
40
1
41
1
10
73.7702232430036
20
-1.43907396175675
30
0
41
1
10
74.6801488286691
20
-0.966080278610775
30
0
41
1
10
75.5900744143345
20
-0.486387162454832
30
0
41
1
10
76.4999999999999
20
-8.53E-14
30
0
0
SPLINE
5
118
100
AcDbEntity
8
1
62
256
6
ByLayer
370
13
48
1
60
0
100
AcDbSpline
70
4
71
3
72
8
73
4
40
0
40
0
40
0
40
0
40
1
40
1
40
1
40
1
41
1
10
73.7702232430034
20
-6.86602331399052
30
0
41
1
10
74.680148828669
20
-4.58009494093747
30
0
41
1
10
75.5900744143345
20
-2.2914119722993
30
0
41
1
10
76.5000000000001
20
1.99E-13
30
0
0
SPLINE
5
119
100
AcDbEntity
8
1
62
256
6
ByLayer
370
13
48
1
60
0
100
AcDbSpline
70
4
71
3
72
8
73
4
40
0
40
0
40
0
40
0
40
1
40
1
40
1
40
1
41
1
10
73.7702232430034
20
4.13950170679067
30
0
41
1
10
74.680148828669
20
2.76535862533274
30
0
41
1
10
75.5900744143345
20
1.38551957496355
30
0
41
1
10
76.5
20
-2.84E-14
30
0
0
SPLINE
5
11A
100
AcDbEntity
8
1
62
256
6
ByLayer
370
13
48
1
60
0
100
AcDbSpline
70
4
71
3
72
8
73
4
40
0
40
0
40
0
40
0
40
1
40
1
40
1
40
1
41
1
10
73.7702232430036
20
-2.59759947546033
30
0
41
1
10
74.6801488286689
20
-1.73813503777373
30
0
41
1
10
75.5900744143341
20
-0.872265311924309
30
0
41
1
10
76.4999999999994
20
-5.684E-13
30
0
0
SPLINE
5
11B
100
AcDbEntity
8
1
62
256
6
ByLayer
370
13
48
1
60
0
100
AcDbSpline
70
4
71
3
72
8
73
4
40
0
40
0
40
0
40
0
40
1
40
1
40
1
40
1
41
1
10
73.7702232430034
20
-7.30543227908399
30
0
41
1
10
74.680148828669
20
-4.86874381441251
30
0
41
1
10
75.5900744143345
20
-2.43359065034943
30
0
41
1
10
76.5000000000001
20
1.99E-13
30
0
0
SPLINE
5
11C
100
AcDbEntity
8
1
62
256
6
ByLayer
370
13
48
1
60
0
100
AcDbSpline
70
4
71
3
72
8
73
4
40
0
40
0
40
0
40
0
40
1
40
1
40
1
40
1
41
1
10
73.7702232430035
20
-2.77437140428449
30
0
41
1
10
74.680148828669
20
-1.8432405852007
30
0
41
1
10
75.5900744143344
20
-0.918446679360585
30
0
41
1
10
76.4999999999999
20
-1.421E-13
30
0
0
SPLINE
5
11D
100
AcDbEntity
8
1
62
256
6
ByLayer
370
13
48
1
60
0
100
AcDbSpline
70
4
71
3
72
8
73
4
40
0
40
0
40
0
40
0
40
1
40
1
40
1
40
1
41
1
10
73.7702232430036
20
4.2960519783276
30
0
41
1
10
74.6801488286692
20
2.85844072326069
30
0
41
1
10
75.5900744143348
20
1.42641806863372
30
0
41
1
10
76.5000000000003
20
-4.832E-13
30
0
0
LINE
5
7D
100
AcDbEntity
8
81
62
256
6
ByLayer
370
18
48
1
60
0
100
AcDbLine
10
76.5
20
0
30
0
11
81.5
21
0
31
0
39
0
210
0
220
0
230
1
0
LINE
5
7E
100
AcDbEntity
8
SK4
62
256
6
ByLayer
370
18
48
0.05
60
0
100
AcDbLine
10
-55
20
0
30
0
11
81.5
21
0
31
0
39
0
210
0
220
0
230
1
0
LINE
5
80
100
AcDbEntity
8
80
62
256
6
ByLayer
370
18
48
1
60
0
100
AcDbLine
10
0
20
0
30
0
11
-5
21
0
31
0
39
0
210
0
220
0
230
1
0
LINE
5
81
100
AcDbEntity
8
4
62
256
6
ByLayer
370
18
48
0.05
60
0
100
AcDbLine
10
-5
20
0
30
0
11
81.5
21
0
31
0
39
0
210
0
220
0
230
1
0
LINE
5
83
100
AcDbEntity
8
1
62
256
6
ByLayer
370
18
48
1
60
0
100
AcDbLine
10
10
20
-7.2
30
0
11
38.141613
21
-7.2
31
0
39
0
210
0
220
0
230
1
0
LINE
5
84
100
AcDbEntity
8
1
62
256
6
ByLayer
370
18
48
1
60
0
100
AcDbLine
10
38.141613
20
7.2
30
0
11
10
21
7.2
31
0
39
0
210
0
220
0
230
1
0
LINE
5
85
100
AcDbEntity
8
1
62
256
6
ByLayer
370
18
48
1
60
0
100
AcDbLine
10
76.5
20
0
30
0
11
73.770223
21
7.5
31
0
39
0
210
0
220
0
230
1
0
LINE
5
86
100
AcDbEntity
8
1
62
256
6
ByLayer
370
18
48
1
60
0
100
AcDbLine
10
73.770223
20
-7.5
30
0
11
76.5
21
0
31
0
39
0
210
0
220
0
230
1
0
LINE
5
87
100
AcDbEntity
8
1
62
256
6
ByLayer
370
18
48
1
60
0
100
AcDbLine
10
10
20
7.2
30
0
11
0
21
10
31
0
39
0
210
0
220
0
230
1
0
LINE
5
88
100
AcDbEntity
8
1
62
256
6
ByLayer
370
18
48
1
60
0
100
AcDbLine
10
0
20
-10
30
0
11
10
21
-7.2
31
0
39
0
210
0
220
0
230
1
0
LINE
5
89
100
AcDbEntity
8
1
62
256
6
ByLayer
370
18
48
1
60
0
100
AcDbLine
10
65.5
20
-7.5
30
0
11
73.770223
21
-7.5
31
0
39
0
210
0
220
0
230
1
0
LINE
5
8A
100
AcDbEntity
8
1
62
256
6
ByLayer
370
18
48
1
60
0
100
AcDbLine
10
76.5
20
0
30
0
11
73.770223
21
7.5
31
0
39
0
210
0
220
0
230
1
0
LINE
5
8B
100
AcDbEntity
8
1
62
256
6
ByLayer
370
18
48
1
60
0
100
AcDbLine
10
73.770223
20
-7.5
30
0
11
76.5
21
0
31
0
39
0
210
0
220
0
230
1
0
LINE
5
8C
100
AcDbEntity
8
SK1
62
256
6
ByLayer
370
18
48
1
60
0
100
AcDbLine
10
-49
20
-10
30
0
11
0
21
-10
31
0
39
0
210
0
220
0
230
1
0
LINE
5
8E
100
AcDbEntity
8
SK1
62
256
6
ByLayer
370
18
48
1
60
0
100
AcDbLine
10
0
20
10
30
0
11
-49
21
10
31
0
39
0
210
0
220
0
230
1
0
LINE
5
8F
100
AcDbEntity
8
SK1
62
256
6
ByLayer
370
18
48
1
60
0
100
AcDbLine
10
-50
20
-9
30
0
11
-49
21
-10
31
0
39
0
210
0
220
0
230
1
0
LINE
5
90
100
AcDbEntity
8
SK1
62
256
6
ByLayer
370
18
48
1
60
0
100
AcDbLine
10
-49
20
10
30
0
11
-50
21
9
31
0
39
0
210
0
220
0
230
1
0
LINE
5
91
100
AcDbEntity
8
1
62
256
6
ByLayer
370
18
48
1
60
0
100
AcDbLine
10
0
20
10
30
0
11
0
21
-10
31
0
39
0
210
0
220
0
230
1
0
LINE
5
92
100
AcDbEntity
8
1
62
256
6
ByLayer
370
18
48
1
60
0
100
AcDbLine
10
73.770223
20
7.5
30
0
11
73.770223
21
7.261842
31
0
39
0
210
0
220
0
230
1
0
LINE
5
93
100
AcDbEntity
8
1
62
256
6
ByLayer
370
18
48
1
60
0
100
AcDbLine
10
73.770223
20
-7.5
30
0
11
73.770223
21
-1.070841
31
0
39
0
210
0
220
0
230
1
0
LINE
5
94
100
AcDbEntity
8
1
62
256
6
ByLayer
370
18
48
1
60
0
100
AcDbLine
10
10
20
-7.2
30
0
11
10
21
-1.267343
31
0
39
0
210
0
220
0
230
1
0
LINE
5
95
100
AcDbEntity
8
1
62
256
6
ByLayer
370
18
48
1
60
0
100
AcDbLine
10
10
20
7.2
30
0
11
10
21
6.446311
31
0
39
0
210
0
220
0
230
1
0
LINE
5
96
100
AcDbEntity
8
SK1
62
256
6
ByLayer
370
13
48
1
60
0
100
AcDbLine
10
-14.992177
20
-6.1943
30
0
11
-14.992177
21
6.1943
31
0
39
0
210
0
220
0
230
1
0
LINE
5
97
100
AcDbEntity
8
SK1
62
256
6
ByLayer
370
13
48
1
60
0
100
AcDbLine
10
-42.24218
20
4.745825
30
0
11
-42.24218
21
-4.745825
31
0
39
0
210
0
220
0
230
1
0
LINE
5
98
100
AcDbEntity
8
SK1
62
256
6
ByLayer
370
13
48
1
60
0
100
AcDbLine
10
-13.845141
20
5.608199
30
0
11
-13.845141
21
-5.608199
31
0
39
0
210
0
220
0
230
1
0
LINE
5
99
100
AcDbEntity
8
SK1
62
256
6
ByLayer
370
18
48
1
60
0
100
AcDbLine
10
0
20
10
30
0
11
0
21
-10
31
0
39
0
210
0
220
0
230
1
0
LINE
5
9A
100
AcDbEntity
8
SK1
62
256
6
ByLayer
370
18
48
1
60
0
100
AcDbLine
10
-50
20
-9
30
0
11
-50
21
9
31
0
39
0
210
0
220
0
230
1
0
LINE
5
9B
100
AcDbEntity
8
SK1
62
256
6
ByLayer
370
18
48
1
60
0
100
AcDbLine
10
-49
20
-10
30
0
11
-49
21
10
31
0
39
0
210
0
220
0
230
1
0
LINE
5
9C
100
AcDbEntity
8
SK1
62
256
6
ByLayer
370
13
48
1
60
0
100
AcDbLine
10
-43.356507
20
-3.65035
30
0
11
-43.356507
21
3.65035
31
0
39
0
210
0
220
0
230
1
0
LINE
5
9D
100
AcDbEntity
8
1
62
256
6
ByLayer
370
18
48
1
60
0
100
AcDbLine
10
73.770223
20
7.5
30
0
11
73.770223
21
-7.5
31
0
39
0
210
0
220
0
230
1
0
LINE
5
9E
100
AcDbEntity
8
1
62
256
6
ByLayer
370
18
48
1
60
0
100
AcDbLine
10
73.770223
20
7.5
30
0
11
73.770223
21
-7.5
31
0
39
0
210
0
220
0
230
1
0
LINE
5
9F
100
AcDbEntity
8
1
62
256
6
ByLayer
370
18
48
1
60
0
100
AcDbLine
10
73.770223
20
7.5
30
0
11
73.770223
21
-7.5
31
0
39
0
210
0
220
0
230
1
0
LINE
5
A0
100
AcDbEntity
8
1
62
256
6
ByLayer
370
18
48
1
60
0
100
AcDbLine
10
65.5
20
7.5
30
0
11
65.5
21
-7.5
31
0
39
0
210
0
220
0
230
1
0
LINE
5
A1
100
AcDbEntity
8
1
62
256
6
ByLayer
370
18
48
1
60
0
100
AcDbLine
10
65.5
20
7.5
30
0
11
65.5
21
-7.5
31
0
39
0
210
0
220
0
230
1
0
LINE
5
A2
100
AcDbEntity
8
1
62
256
6
ByLayer
370
18
48
1
60
0
100
AcDbLine
10
73.770223
20
7.5
30
0
11
73.770223
21
-7.5
31
0
39
0
210
0
220
0
230
1
0
LINE
5
A3
100
AcDbEntity
8
1
62
256
6
ByLayer
370
18
48
1
60
0
100
AcDbLine
10
65.5
20
7.5
30
0
11
65.5
21
-7.5
31
0
39
0
210
0
220
0
230
1
0
LINE
5
A4
100
AcDbEntity
8
1
62
256
6
ByLayer
370
18
48
1
60
0
100
AcDbLine
10
73.770223
20
7.5
30
0
11
73.770223
21
-7.5
31
0
39
0
210
0
220
0
230
1
0
LINE
5
A5
100
AcDbEntity
8
SK2
62
256
6
ByLayer
370
13
48
1
60
0
100
AcDbLine
10
-56.5
20
-10
30
0
11
-56.5
21
39.024569
31
0
39
0
210
0
220
0
230
1
0
LINE
5
A7
100
AcDbEntity
8
SK2
62
256
6
ByLayer
370
13
48
1
60
0
100
AcDbLine
10
-51.5875
20
10
30
0
11
-58.5
21
10
31
0
39
0
210
0
220
0
230
1
0
LINE
5
A8
100
AcDbEntity
8
SK2
62
256
6
ByLayer
370
13
48
1
60
0
100
AcDbLine
10
-51.5875
20
-10
30
0
11
-58.5
21
-10
31
0
39
0
210
0
220
0
230
1
0
LINE
5
A9
100
AcDbEntity
8
1
62
256
6
ByLayer
370
18
48
1
60
1
100
AcDbLine
10
-56.5
20
10
30
0
11
-56.039216
21
6.500002
31
0
39
0
210
0
220
0
230
1
0
LINE
5
AA
100
AcDbEntity
8
1
62
256
6
ByLayer
370
18
48
1
60
1
100
AcDbLine
10
-56.039216
20
6.500002
30
0
11
-56.960784
21
6.499998
31
0
39
0
210
0
220
0
230
1
0
LINE
5
AB
100
AcDbEntity
8
1
62
256
6
ByLayer
370
18
48
1
60
1
100
AcDbLine
10
-56.960784
20
6.499998
30
0
11
-56.5
21
10
31
0
39
0
210
0
220
0
230
1
0
LINE
5
AC
100
AcDbEntity
8
1
62
256
6
ByLayer
370
18
48
1
60
1
100
AcDbLine
10
-56.5
20
-10
30
0
11
-56.960784
21
-6.500002
31
0
39
0
210
0
220
0
230
1
0
LINE
5
AD
100
AcDbEntity
8
1
62
256
6
ByLayer
370
18
48
1
60
1
100
AcDbLine
10
-56.960784
20
-6.500002
30
0
11
-56.039216
21
-6.499998
31
0
39
0
210
0
220
0
230
1
0
LINE
5
AE
100
AcDbEntity
8
1
62
256
6
ByLayer
370
18
48
1
60
1
100
AcDbLine
10
-56.039216
20
-6.499998
30
0
11
-56.5
21
-10
31
0
39
0
210
0
220
0
230
1
0
LINE
5
AF
100
AcDbEntity
8
2
62
256
6
ByLayer
370
13
48
1
60
0
100
AcDbLine
10
84
20
-7.5
30
0
11
84
21
35.774683
31
0
39
0
210
0
220
0
230
1
0
LINE
5
B1
100
AcDbEntity
8
2
62
256
6
ByLayer
370
13
48
1
60
0
100
AcDbLine
10
75.357723
20
7.5
30
0
11
86
21
7.5
31
0
39
0
210
0
220
0
230
1
0
LINE
5
B2
100
AcDbEntity
8
2
62
256
6
ByLayer
370
13
48
1
60
0
100
AcDbLine
10
75.357723
20
-7.5
30
0
11
86
21
-7.5
31
0
39
0
210
0
220
0
230
1
0
LINE
5
B3
100
AcDbEntity
8
1
62
256
6
ByLayer
370
18
48
1
60
1
100
AcDbLine
10
84
20
7.5
30
0
11
84.460784
21
4.000002
31
0
39
0
210
0
220
0
230
1
0
LINE
5
B4
100
AcDbEntity
8
1
62
256
6
ByLayer
370
18
48
1
60
1
100
AcDbLine
10
84.460784
20
4.000002
30
0
11
83.539216
21
3.999998
31
0
39
0
210
0
220
0
230
1
0
LINE
5
B5
100
AcDbEntity
8
1
62
256
6
ByLayer
370
18
48
1
60
1
100
AcDbLine
10
83.539216
20
3.999998
30
0
11
84
21
7.5
31
0
39
0
210
0
220
0
230
1
0
LINE
5
B6
100
AcDbEntity
8
1
62
256
6
ByLayer
370
18
48
1
60
1
100
AcDbLine
10
84
20
-7.5
30
0
11
83.539216
21
-4.000002
31
0
39
0
210
0
220
0
230
1
0
LINE
5
B7
100
AcDbEntity
8
1
62
256
6
ByLayer
370
18
48
1
60
1
100
AcDbLine
10
83.539216
20
-4.000002
30
0
11
84.460784
21
-3.999998
31
0
39
0
210
0
220
0
230
1
0
LINE
5
B8
100
AcDbEntity
8
1
62
256
6
ByLayer
370
18
48
1
60
1
100
AcDbLine
10
84.460784
20
-3.999998
30
0
11
84
21
-7.5
31
0
39
0
210
0
220
0
230
1
0
LINE
5
B9
100
AcDbEntity
8
SK2
62
256
6
ByLayer
370
13
48
1
60
0
100
AcDbLine
10
77.042957
20
-1.491762
30
0
11
83.682423
21
-19.733545
31
0
39
0
210
0
220
0
230
1
0
LINE
5
BA
100
AcDbEntity
8
SK2
62
256
6
ByLayer
370
13
48
1
60
0
100
AcDbLine
10
77.042957
20
1.491762
30
0
11
83.682423
21
19.733545
31
0
39
0
210
0
220
0
230
1
0
LINE
5
BB
100
AcDbEntity
8
1
62
256
6
ByLayer
370
18
48
1
60
1
100
AcDbLine
10
82.998383
20
-17.85416
30
0
11
86.051575
21
-16.082064
31
0
39
0
210
0
220
0
230
1
0
LINE
5
BC
100
AcDbEntity
8
1
62
256
6
ByLayer
370
18
48
1
60
1
100
AcDbLine
10
86.051575
20
-16.082064
30
0
11
86.406196
21
-16.93267
31
0
39
0
210
0
220
0
230
1
0
LINE
5
BD
100
AcDbEntity
8
1
62
256
6
ByLayer
370
18
48
1
60
1
100
AcDbLine
10
86.406196
20
-16.93267
30
0
11
82.998383
21
-17.85416
31
0
39
0
210
0
220
0
230
1
0
LINE
5
BE
100
AcDbEntity
8
1
62
256
6
ByLayer
370
18
48
1
60
1
100
AcDbLine
10
82.998383
20
17.85416
30
0
11
86.406193
21
16.932671
31
0
39
0
210
0
220
0
230
1
0
LINE
5
BF
100
AcDbEntity
8
1
62
256
6
ByLayer
370
18
48
1
60
1
100
AcDbLine
10
86.406193
20
16.932671
30
0
11
86.051579
21
16.082063
31
0
39
0
210
0
220
0
230
1
0
LINE
5
C0
100
AcDbEntity
8
1
62
256
6
ByLayer
370
18
48
1
60
1
100
AcDbLine
10
86.051579
20
16.082063
30
0
11
82.998383
21
17.85416
31
0
39
0
210
0
220
0
230
1
0
LINE
5
122
100
AcDbEntity
8
1
62
256
6
ByLayer
370
18
48
1
60
1
100
AcDbLine
10
-56.5
20
10
30
0
11
-56.039216
21
6.500002
31
0
39
0
210
0
220
0
230
1
0
LINE
5
123
100
AcDbEntity
8
1
62
256
6
ByLayer
370
18
48
1
60
1
100
AcDbLine
10
-56.039216
20
6.500002
30
0
11
-56.960784
21
6.499998
31
0
39
0
210
0
220
0
230
1
0
LINE
5
124
100
AcDbEntity
8
1
62
256
6
ByLayer
370
18
48
1
60
1
100
AcDbLine
10
-56.960784
20
6.499998
30
0
11
-56.5
21
10
31
0
39
0
210
0
220
0
230
1
0
LINE
5
126
100
AcDbEntity
8
1
62
256
6
ByLayer
370
18
48
1
60
1
100
AcDbLine
10
-56.5
20
-10
30
0
11
-56.960784
21
-6.500002
31
0
39
0
210
0
220
0
230
1
0
LINE
5
127
100
AcDbEntity
8
1
62
256
6
ByLayer
370
18
48
1
60
1
100
AcDbLine
10
-56.960784
20
-6.500002
30
0
11
-56.039216
21
-6.499998
31
0
39
0
210
0
220
0
230
1
0
LINE
5
128
100
AcDbEntity
8
1
62
256
6
ByLayer
370
18
48
1
60
1
100
AcDbLine
10
-56.039216
20
-6.499998
30
0
11
-56.5
21
-10
31
0
39
0
210
0
220
0
230
1
0
LINE
5
12C
100
AcDbEntity
8
1
62
256
6
ByLayer
370
18
48
1
60
1
100
AcDbLine
10
84
20
7.5
30
0
11
84.460784
21
4.000002
31
0
39
0
210
0
220
0
230
1
0
LINE
5
12D
100
AcDbEntity
8
1
62
256
6
ByLayer
370
18
48
1
60
1
100
AcDbLine
10
84.460784
20
4.000002
30
0
11
83.539216
21
3.999998
31
0
39
0
210
0
220
0
230
1
0
LINE
5
12E
100
AcDbEntity
8
1
62
256
6
ByLayer
370
18
48
1
60
1
100
AcDbLine
10
83.539216
20
3.999998
30
0
11
84
21
7.5
31
0
39
0
210
0
220
0
230
1
0
LINE
5
130
100
AcDbEntity
8
1
62
256
6
ByLayer
370
18
48
1
60
1
100
AcDbLine
10
84
20
-7.5
30
0
11
83.539216
21
-4.000002
31
0
39
0
210
0
220
0
230
1
0
LINE
5
131
100
AcDbEntity
8
1
62
256
6
ByLayer
370
18
48
1
60
1
100
AcDbLine
10
83.539216
20
-4.000002
30
0
11
84.460784
21
-3.999998
31
0
39
0
210
0
220
0
230
1
0
LINE
5
132
100
AcDbEntity
8
1
62
256
6
ByLayer
370
18
48
1
60
1
100
AcDbLine
10
84.460784
20
-3.999998
30
0
11
84
21
-7.5
31
0
39
0
210
0
220
0
230
1
0
LINE
5
135
100
AcDbEntity
8
1
62
256
6
ByLayer
370
18
48
1
60
1
100
AcDbLine
10
82.998383
20
-17.85416
30
0
11
86.051575
21
-16.082064
31
0
39
0
210
0
220
0
230
1
0
LINE
5
136
100
AcDbEntity
8
1
62
256
6
ByLayer
370
18
48
1
60
1
100
AcDbLine
10
86.051575
20
-16.082064
30
0
11
86.406196
21
-16.93267
31
0
39
0
210
0
220
0
230
1
0
LINE
5
137
100
AcDbEntity
8
1
62
256
6
ByLayer
370
18
48
1
60
1
100
AcDbLine
10
86.406196
20
-16.93267
30
0
11
82.998383
21
-17.85416
31
0
39
0
210
0
220
0
230
1
0
LINE
5
139
100
AcDbEntity
8
1
62
256
6
ByLayer
370
18
48
1
60
1
100
AcDbLine
10
82.998383
20
17.85416
30
0
11
86.406193
21
16.932671
31
0
39
0
210
0
220
0
230
1
0
LINE
5
13A
100
AcDbEntity
8
1
62
256
6
ByLayer
370
18
48
1
60
1
100
AcDbLine
10
86.406193
20
16.932671
30
0
11
86.051579
21
16.082063
31
0
39
0
210
0
220
0
230
1
0
LINE
5
13B
100
AcDbEntity
8
1
62
256
6
ByLayer
370
18
48
1
60
1
100
AcDbLine
10
86.051579
20
16.082063
30
0
11
82.998383
21
17.85416
31
0
39
0
210
0
220
0
230
1
0
MTEXT
5
11E
100
AcDbEntity
8
SK2
62
256
6
ByLayer
370
18
48
1
60
0
100
AcDbMText
10
-57.841114
20
21.658438
30
0
210
0
220
0
230
1
1
%%c
40
3
41
0
44
1.084337
50
90
71
7
72
5
7
iso_b_vert
0
MTEXT
5
121
100
AcDbEntity
8
SK2
62
256
6
ByLayer
370
18
48
1
60
0
100
AcDbMText
10
-57.841114
20
27.635
30
0
210
0
220
0
230
1
1
\W0.7513;20.000
40
3
41
0
44
1.084337
50
90
71
7
72
5
7
iso_b_vert
0
MTEXT
5
12A
100
AcDbEntity
8
2
62
256
6
ByLayer
370
18
48
1
60
0
100
AcDbMText
10
82.658886
20
19.158438
30
0
210
0
220
0
230
1
1
%%c
40
3
41
0
44
1.084337
50
90
71
7
72
5
7
iso_b_vert
0
MTEXT
5
12B
100
AcDbEntity
8
2
62
256
6
ByLayer
370
18
48
1
60
0
100
AcDbMText
10
82.658886
20
25.135
30
0
210
0
220
0
230
1
1
\W0.7022;15.000
40
3
41
0
44
1.084337
50
90
71
7
72
5
7
iso_b_vert
0
MTEXT
5
134
100
AcDbEntity
8
SK2
62
256
6
ByLayer
370
18
48
1
60
0
100
AcDbMText
10
96.409114
20
3.734657
30
0
210
0
220
0
230
1
1
\W0.7071;140%%d
40
3
41
0
44
1.084337
50
270
71
7
72
5
7
iso_b_vert
0
MTEXT
5
13D
100
AcDbEntity
8
SK6
62
256
6
ByLayer
370
18
48
1
60
0
100
AcDbMText
10
-10.287254
20
-67.114886
30
0
210
0
220
0
230
1
1
\W0.7358;H85315.0
40
3
41
0
44
1.084337
50
0
71
7
72
5
7
iso_b_vert
0
HATCH
5
125
100
AcDbEntity
8
SK2
62
256
6
ByLayer
370
13
48
1
60
0
100
AcDbHatch
10
0
20
0
30
0
210
0
220
0
230
1
2
ANSI31
70
0
71
0
91
1
92
5
93
3
72
1
10
-56.5
20
10
11
-56.0392162584472
21
6.50000169255318
72
1
10
-56.0392162584472
20
6.50000169255318
11
-56.9607837415528
21
6.49999830744682
72
1
10
-56.9607837415528
20
6.49999830744682
11
-56.5
21
10
97
0
75
0
76
1
52
0
41
0.0062
77
0
78
1
53
45
43
0
44
0
45
-0.0139193969876572
46
0.0139193969876572
79
0
47
0
98
1
10
0
20
0
0
HATCH
5
129
100
AcDbEntity
8
SK2
62
256
6
ByLayer
370
13
48
1
60
0
100
AcDbHatch
10
0
20
0
30
0
210
0
220
0
230
1
2
ANSI31
70
0
71
0
91
1
92
5
93
3
72
1
10
-56.5
20
-10
11
-56.9607837415528
21
-6.50000169255318
72
1
10
-56.9607837415528
20
-6.50000169255318
11
-56.0392162584472
21
-6.49999830744682
72
1
10
-56.0392162584472
20
-6.49999830744682
11
-56.5
21
-10
97
0
75
0
76
1
52
0
41
0.0062
77
0
78
1
53
45
43
0
44
0
45
-0.0139193969876572
46
0.0139193969876572
79
0
47
0
98
1
10
0
20
0
0
HATCH
5
12F
100
AcDbEntity
8
2
62
256
6
ByLayer
370
13
48
1
60
0
100
AcDbHatch
10
0
20
0
30
0
210
0
220
0
230
1
2
ANSI31
70
0
71
0
91
1
92
5
93
3
72
1
10
84
20
7.5
11
84.4607837415528
21
4.00000169255318
72
1
10
84.4607837415528
20
4.00000169255318
11
83.5392162584472
21
3.99999830744682
72
1
10
83.5392162584472
20
3.99999830744682
11
84
21
7.5
97
0
75
0
76
1
52
0
41
0.0062
77
0
78
1
53
45
43
0
44
0
45
-0.0139193969876572
46
0.0139193969876572
79
0
47
0
98
1
10
0
20
0
0
HATCH
5
133
100
AcDbEntity
8
2
62
256
6
ByLayer
370
13
48
1
60
0
100
AcDbHatch
10
0
20
0
30
0
210
0
220
0
230
1
2
ANSI31
70
0
71
0
91
1
92
5
93
3
72
1
10
84
20
-7.5
11
83.5392162584472
21
-4.00000169255318
72
1
10
83.5392162584472
20
-4.00000169255318
11
84.4607837415528
21
-3.99999830744682
72
1
10
84.4607837415528
20
-3.99999830744682
11
84
21
-7.5
97
0
75
0
76
1
52
0
41
0.0062
77
0
78
1
53
45
43
0
44
0
45
-0.0139193969876572
46
0.0139193969876572
79
0
47
0
98
1
10
0
20
0
0
HATCH
5
138
100
AcDbEntity
8
SK2
62
256
6
ByLayer
370
13
48
1
60
0
100
AcDbHatch
10
0
20
0
30
0
210
0
220
0
230
1
2
ANSI31
70
0
71
0
91
1
92
5
93
3
72
1
10
82.9983827231877
20
-17.8541597949322
11
86.0515754256929
21
-16.0820638240607
72
1
10
86.0515754256929
20
-16.0820638240607
11
86.4061958339751
21
-16.9326700737196
72
1
10
86.4061958339751
20
-16.9326700737196
11
82.9983827231877
21
-17.8541597949322
97
0
75
0
76
1
52
0
41
0.0062
77
0
78
1
53
45
43
0
44
0
45
-0.0139193969876572
46
0.0139193969876572
79
0
47
0
98
1
10
0
20
0
0
HATCH
5
13C
100
AcDbEntity
8
SK2
62
256
6
ByLayer
370
13
48
1
60
0
100
AcDbHatch
10
0
20
0
30
0
210
0
220
0
230
1
2
ANSI31
70
0
71
0
91
1
92
5
93
3
72
1
10
82.9983827231877
20
17.8541597949322
11
86.4061927095191
21
16.9326713763016
72
1
10
86.4061927095191
20
16.9326713763016
11
86.0515785501489
21
16.0820625214788
72
1
10
86.0515785501489
20
16.0820625214788
11
82.9983827231877
21
17.8541597949322
97
0
75
0
76
1
52
0
41
0.0062
77
0
78
1
53
45
43
0
44
0
45
-0.0139193969876572
46
0.0139193969876572
79
0
47
0
98
1
10
0
20
0
0
DIMENSION
5
140
100
AcDbEntity
8
SK2
62
256
6
ByLayer
370
18
48
1
60
0
100
AcDbDimension
2
_U0
10
76.5
20
-45.952229
30
0
11
13.25
21
-45.952229
31
0
70
32
71
1
72
1
41
1
210
0
220
0
230
1
3
Standard
100
AcDbAlignedDimension
13
-50
23
-10
33
0
14
76.5
24
0
34
0
50
0
100
AcDbRotatedDimension
1001
ACAD
1000
DSTYLE
1002
{
1070
   371
1070
    13
1070
   372
1070
    13
1070
     3
1000

1070
   170
1070
     0
1070
   144
1040
1.0
1070
   277
1070
     2
1070
   284
1070
     8
1070
   278
1070
    46
1070
   146
1040
1.166667
1070
   345
1005
16
1070
   347
1005
16
1070
   346
1005
16
1070
   344
1005
0
1070
   343
1005
0
1070
   172
1070
     1
1070
    76
1070
     0
1070
    75
1070
     0
1070
   282
1070
     0
1070
   281
1070
     0
1070
    71
1070
     0
1070
    74
1070
     0
1070
   279
1070
     0
1070
   173
1070
     1
1070
   340
1005
11F
1070
   271
1070
     2
1070
   272
1070
     3
1070
    77
1070
     1
1070
    73
1070
     1
1070
   171
1070
     3
1070
   274
1070
     4
1070
   177
1070
     2
1070
   176
1070
     2
1070
   178
1070
     2
1070
    78
1070
     8
1070
    48
1040
-0.1
1070
    41
1040
3.5
1070
   147
1040
1.5
1070
    42
1040
1.5875
1070
    44
1040
2.0
1070
   140
1040
3.0
1002
}
1001
ACAD_DSTYLE_DIM_LINETYPE
1070
   380
1005
16
1001
ACAD_DSTYLE_DIM_EXT1_LINETYPE
1070
   381
1005
16
1001
ACAD_DSTYLE_DIM_EXT2_LINETYPE
1070
   382
1005
16
0
DIMENSION
5
159
100
AcDbEntity
8
SK2
62
256
6
ByLayer
370
18
48
1
60
0
100
AcDbDimension
2
_U1
10
3
20
-35.952229
30
0
11
39.75
21
-35.952229
31
0
70
32
71
1
72
1
41
1
210
0
220
0
230
1
3
Standard
100
AcDbAlignedDimension
13
76.5
23
0
33
0
14
3
24
-7.5
34
0
50
0
100
AcDbRotatedDimension
1001
ACAD
1000
DSTYLE
1002
{
1070
   371
1070
    13
1070
   372
1070
    13
1070
     3
1000

1070
   170
1070
     0
1070
   144
1040
1.0
1070
   277
1070
     2
1070
   284
1070
     8
1070
   278
1070
    46
1070
   146
1040
1.166667
1070
   345
1005
16
1070
   347
1005
16
1070
   346
1005
16
1070
   344
1005
0
1070
   343
1005
0
1070
   172
1070
     1
1070
    76
1070
     0
1070
    75
1070
     0
1070
   282
1070
     0
1070
   281
1070
     0
1070
    71
1070
     0
1070
    74
1070
     0
1070
   279
1070
     0
1070
   173
1070
     1
1070
   340
1005
11F
1070
   271
1070
     2
1070
   272
1070
     3
1070
    77
1070
     1
1070
    73
1070
     1
1070
   171
1070
     3
1070
   274
1070
     4
1070
   177
1070
     2
1070
   176
1070
     2
1070
   178
1070
     2
1070
    78
1070
     8
1070
    48
1040
-0.1
1070
    41
1040
3.5
1070
   147
1040
1.5
1070
    42
1040
1.5875
1070
    44
1040
2.0
1070
   140
1040
3.0
1002
}
1001
ACAD_DSTYLE_DIM_LINETYPE
1070
   380
1005
16
1001
ACAD_DSTYLE_DIM_EXT1_LINETYPE
1070
   381
1005
16
1001
ACAD_DSTYLE_DIM_EXT2_LINETYPE
1070
   382
1005
16
0
DIMENSION
5
171
100
AcDbEntity
8
SK2
62
256
6
ByLayer
370
18
48
1
60
0
100
AcDbDimension
2
_U2
10
0
20
-35.952229
30
0
11
-25
21
-35.952229
31
0
70
32
71
1
72
1
41
1
210
0
220
0
230
1
3
Standard
100
AcDbAlignedDimension
13
-50
23
-10
33
0
14
0
24
-10
34
0
50
0
100
AcDbRotatedDimension
1001
ACAD
1000
DSTYLE
1002
{
1070
   371
1070
    13
1070
   372
1070
    13
1070
     3
1000

1070
   170
1070
     0
1070
   144
1040
1.0
1070
   277
1070
     2
1070
   284
1070
     8
1070
   278
1070
    46
1070
   146
1040
1.166667
1070
   345
1005
16
1070
   347
1005
16
1070
   346
1005
16
1070
   344
1005
0
1070
   343
1005
0
1070
   172
1070
     1
1070
    76
1070
     0
1070
    75
1070
     0
1070
   282
1070
     0
1070
   281
1070
     0
1070
    71
1070
     0
1070
    74
1070
     0
1070
   279
1070
     0
1070
   173
1070
     1
1070
   340
1005
11F
1070
   271
1070
     2
1070
   272
1070
     3
1070
    77
1070
     1
1070
    73
1070
     1
1070
   171
1070
     3
1070
   274
1070
     4
1070
   177
1070
     2
1070
   176
1070
     2
1070
   178
1070
     2
1070
    78
1070
     8
1070
    48
1040
-0.1
1070
    41
1040
3.5
1070
   147
1040
1.5
1070
    42
1040
1.5875
1070
    44
1040
2.0
1070
   140
1040
3.0
1002
}
1001
ACAD_DSTYLE_DIM_LINETYPE
1070
   380
1005
16
1001
ACAD_DSTYLE_DIM_EXT1_LINETYPE
1070
   381
1005
16
1001
ACAD_DSTYLE_DIM_EXT2_LINETYPE
1070
   382
1005
16
0
DIMENSION
5
189
100
AcDbEntity
8
SK2
62
256
6
ByLayer
370
18
48
1
60
0
100
AcDbDimension
2
_U3
10
21
20
32.952229
30
0
11
48.75
21
32.952229
31
0
70
32
71
1
72
1
41
1
210
0
220
0
230
1
3
Standard
100
AcDbAlignedDimension
13
76.5
23
0
33
0
14
21
24
7.5
34
0
50
0
100
AcDbRotatedDimension
1001
ACAD
1000
DSTYLE
1002
{
1070
   371
1070
    13
1070
   372
1070
    13
1070
     3
1000

1070
   170
1070
     0
1070
   144
1040
1.0
1070
   277
1070
     2
1070
   284
1070
     8
1070
   278
1070
    46
1070
   146
1040
1.166667
1070
   345
1005
16
1070
   347
1005
16
1070
   346
1005
16
1070
   344
1005
0
1070
   343
1005
0
1070
   172
1070
     1
1070
    76
1070
     0
1070
    75
1070
     0
1070
   282
1070
     0
1070
   281
1070
     0
1070
    71
1070
     0
1070
    74
1070
     0
1070
   279
1070
     0
1070
   173
1070
     1
1070
   340
1005
11F
1070
   271
1070
     2
1070
   272
1070
     3
1070
    77
1070
     1
1070
    73
1070
     1
1070
   171
1070
     3
1070
   274
1070
     4
1070
   177
1070
     2
1070
   176
1070
     2
1070
   178
1070
     2
1070
    78
1070
     8
1070
    48
1040
-0.1
1070
    41
1040
3.5
1070
   147
1040
1.5
1070
    42
1040
1.5875
1070
    44
1040
2.0
1070
   140
1040
3.0
1002
}
1001
ACAD_DSTYLE_DIM_LINETYPE
1070
   380
1005
16
1001
ACAD_DSTYLE_DIM_EXT1_LINETYPE
1070
   381
1005
16
1001
ACAD_DSTYLE_DIM_EXT2_LINETYPE
1070
   382
1005
16
0
ENDSEC
0
SECTION
2
OBJECTS
0
DICTIONARY
5
211
330
0
100
AcDbDictionary
280
0
281
1
3
ACAD_GROUP
350
212
3
ACAD_MLINESTYLE
350
213
0
DICTIONARY
5
212
330
0
100
AcDbDictionary
280
0
281
1
0
DICTIONARY
5
213
330
0
100
AcDbDictionary
280
0
281
1
3
Standard
350
18
0
MLINESTYLE
5
18
330
213
100
AcDbMlineStyle
2
Standard
70
0
3

62
256
51
90
52
90
71
2
49
-0.5
62
256
6
ByLayer
49
0.5
62
256
6
ByLayer
0
RASTERVARIABLES
5
1ff
330

100
AcDbRasterVariables
90
0
70
1
71
1
72
1
0
ENDSEC
0
EOF
