0
SECTION
2
HEADER
9
$ACADVER
1
AC1015
9
$DWGCODEPAGE
3
ANSI_1252
9
$HANDSEED
5
219
9
$ANGBASE
50
0
9
$ANGDIR
70
0
9
$ATTMODE
70
1
9
$AUNITS
70
0
9
$AUPREC
70
0
9
$CECOLOR
62
256
9
$CELTSCALE
40
1
9
$CELTYPE
6
ByLayer
9
$CELWEIGHT
370
18
9
$CLAYER
8
0
9
$CMLJUST
70
0
9
$CMLSCALE
40
1
9
$CMLSTYLE
2
Standard
9
$DIMSTYLE
2
Standard
9
$TEXTSIZE
40
0.2
9
$TEXTSTYLE
7
Standard
9
$LUNITS
70
2
9
$LUPREC
70
4
9
$EXTNAMES
290
1
9
$INSUNITS
70
4
9
$LTSCALE
40
1
9
$LWDISPLAY
290
1
9
$PDMODE
70
0
9
$PDSIZE
40
0
9
$PLINEGEN
70
0
0
ENDSEC
0
SECTION
2
CLASSES
0
CLASS
1
RASTERVARIABLES
2
AcDbRasterVariables
3
ISM
90
0
280
0
281
0
0
ENDSEC
0
SECTION
2
TABLES
0
TABLE
2
VPORT
5
20f
100
AcDbSymbolTable
0
VPORT
5
1
100
AcDbSymbolTableRecord
100
AcDbViewportTableRecord
2
*Active
70
0
10
0
20
0
11
1
21
1
12
-1
22
1
13
0
23
0
14
0.5
24
0.5
15
10
25
10
16
0
26
0
36
1
17
0
27
0
37
0
0
ENDTAB
0
TABLE
2
LTYPE
5
210
100
AcDbSymbolTable
0
LTYPE
5
14
100
AcDbSymbolTableRecord
100
AcDbLinetypeTableRecord
70
0
2
ByBlock
3

72
65
73
0
40
0
0
LTYPE
5
15
100
AcDbSymbolTableRecord
100
AcDbLinetypeTableRecord
70
0
2
ByLayer
3

72
65
73
0
40
0
0
LTYPE
5
16
100
AcDbSymbolTableRecord
100
AcDbLinetypeTableRecord
70
0
2
Continuous
3
Solid line
72
65
73
0
40
0
0
LTYPE
5
6E
100
AcDbSymbolTableRecord
100
AcDbLinetypeTableRecord
70
0
2
CENTER
3
____ _ ____ _ ____ _ ____
72
65
73
4
40
47.5
49
22
74
0
49
-8.5
74
0
49
8.5
74
0
49
-8.5
74
0
0
LTYPE
5
6F
100
AcDbSymbolTableRecord
100
AcDbLinetypeTableRecord
70
0
2
DASHED
3
__ __ __ __ __ __ __ __ __
72
65
73
2
40
25.72
49
12.86
74
0
49
-12.86
74
0
0
ENDTAB
0
TABLE
2
LAYER
5
211
100
AcDbSymbolTable
0
LAYER
5
10
100
AcDbSymbolTableRecord
100
AcDbLayerTableRecord
2
0
70
0
62
7
6
Continuous
290
1
370
-3
390
0
0
LAYER
5
71
100
AcDbSymbolTableRecord
100
AcDbLayerTableRecord
2
80
70
0
62
-6
6
Continuous
290
1
370
-3
390
0
0
LAYER
5
73
100
AcDbSymbolTableRecord
100
AcDbLayerTableRecord
2
81
70
0
62
-3
6
Continuous
290
1
370
-3
390
0
0
LAYER
5
75
100
AcDbSymbolTableRecord
100
AcDbLayerTableRecord
2
1
70
0
62
4
6
Continuous
290
1
370
-3
390
0
0
LAYER
5
7F
100
AcDbSymbolTableRecord
100
AcDbLayerTableRecord
2
4
70
0
62
-2
6
CENTER
290
1
370
-3
390
0
0
LAYER
5
B0
100
AcDbSymbolTableRecord
100
AcDbLayerTableRecord
2
2
70
0
62
7
6
Continuous
290
1
370
-3
390
0
0
LAYER
5
13E
100
AcDbSymbolTableRecord
100
AcDbLayerTableRecord
2
Defpoints
70
0
62
7
6
Continuous
290
0
370
-3
390
0
0
LAYER
5
1fb
100
AcDbSymbolTableRecord
100
AcDbLayerTableRecord
2
SK4
70
0
62
2
6
CENTER
290
1
370
-3
390
0
0
LAYER
5
1fc
100
AcDbSymbolTableRecord
100
AcDbLayerTableRecord
2
SK1
70
0
62
4
6
Continuous
290
1
370
-3
390
0
0
LAYER
5
1fd
100
AcDbSymbolTableRecord
100
AcDbLayerTableRecord
2
SK2
70
0
62
7
6
Continuous
290
1
370
-3
390
0
0
LAYER
5
1fe
100
AcDbSymbolTableRecord
100
AcDbLayerTableRecord
2
SK6
70
0
62
5
6
Continuous
290
1
370
-3
390
0
0
ENDTAB
0
TABLE
2
STYLE
5
212
100
AcDbSymbolTable
0
STYLE
5
11
100
AcDbSymbolTableRecord
100
AcDbTextStyleTableRecord
2
Standard
3
txt
70
0
71
0
40
0
41
1
42
0
50
0
0
STYLE
5
11A
100
AcDbSymbolTableRecord
100
AcDbTextStyleTableRecord
2
iso_b_vert
3
simplex.shx
70
0
71
0
40
0
41
1
42
0
50
0
0
STYLE
5
11B
100
AcDbSymbolTableRecord
100
AcDbTextStyleTableRecord
2
DWGDirectTextStyle
3
simplex
70
0
71
0
40
0
41
1
42
0
50
0
0
ENDTAB
0
TABLE
2
DIMSTYLE
5
213
100
AcDbSymbolTable
100
AcDbDimStyleTable
0
DIMSTYLE
105
27
100
AcDbSymbolTableRecord
100
AcDbDimStyleTableRecord
2
Standard
70
0
3
<>
41
0.18
42
0.0625
44
0.18
140
0.18
147
0.09
73
0
74
0
77
1
271
2
275
0
278
52
280
0
340
11
0
ENDTAB
0
TABLE
2
VIEW
5
214
100
AcDbSymbolTable
0
ENDTAB
0
TABLE
2
UCS
5
215
100
AcDbSymbolTable
0
ENDTAB
0
TABLE
2
APPID
5
216
100
AcDbSymbolTable
0
APPID
5
12
100
AcDbSymbolTableRecord
100
AcDbRegAppTableRecord
2
ACAD
70
0
0
APPID
5
13A
100
AcDbSymbolTableRecord
100
AcDbRegAppTableRecord
2
ACAD_DSTYLE_DIMBREAK
70
0
0
APPID
5
1BA
100
AcDbSymbolTableRecord
100
AcDbRegAppTableRecord
2
ACAD_DSTYLE_DIM_LINETYPE
70
0
0
APPID
5
1BB
100
AcDbSymbolTableRecord
100
AcDbRegAppTableRecord
2
ACAD_DSTYLE_DIM_EXT1_LINETYPE
70
0
0
APPID
5
1BC
100
AcDbSymbolTableRecord
100
AcDbRegAppTableRecord
2
ACAD_DSTYLE_DIM_EXT2_LINETYPE
70
0
0
APPID
5
1F7
100
AcDbSymbolTableRecord
100
AcDbRegAppTableRecord
2
ACAD_MLEADERVER
70
0
0
ENDTAB
0
TABLE
2
BLOCK_RECORD
5
217
100
AcDbSymbolTable
0
BLOCK_RECORD
5
1F
100
AcDbSymbolTableRecord
100
AcDbBlockTableRecord
2
*Model_Space
340
0
70
0
0
BLOCK_RECORD
5
1B
100
AcDbSymbolTableRecord
100
AcDbBlockTableRecord
2
*Paper_Space
340
0
70
0
0
BLOCK_RECORD
5
23
100
AcDbSymbolTableRecord
100
AcDbBlockTableRecord
2
*Paper_Space0
340
0
70
0
0
BLOCK_RECORD
5
13F
100
AcDbSymbolTableRecord
100
AcDbBlockTableRecord
2
*D1
340
0
70
0
0
BLOCK_RECORD
5
14B
100
AcDbSymbolTableRecord
100
AcDbBlockTableRecord
2
_U0
340
0
70
0
0
BLOCK_RECORD
5
157
100
AcDbSymbolTableRecord
100
AcDbBlockTableRecord
2
*D3
340
0
70
0
0
BLOCK_RECORD
5
163
100
AcDbSymbolTableRecord
100
AcDbBlockTableRecord
2
_U1
340
0
70
0
0
BLOCK_RECORD
5
16F
100
AcDbSymbolTableRecord
100
AcDbBlockTableRecord
2
*D5
340
0
70
0
0
BLOCK_RECORD
5
17B
100
AcDbSymbolTableRecord
100
AcDbBlockTableRecord
2
_U2
340
0
70
0
0
BLOCK_RECORD
5
187
100
AcDbSymbolTableRecord
100
AcDbBlockTableRecord
2
*D7
340
0
70
0
0
BLOCK_RECORD
5
193
100
AcDbSymbolTableRecord
100
AcDbBlockTableRecord
2
_U3
340
0
70
0
0
ENDTAB
0
ENDSEC
0
SECTION
2
BLOCKS
0
BLOCK
5
20
100
AcDbEntity
8
0
100
AcDbBlockBegin
2
*Model_Space
70
0
10
0
20
0
30
0
3
*Model_Space
0
ENDBLK
5
21
100
AcDbEntity
8
0
100
AcDbBlockEnd
0
BLOCK
5
1C
100
AcDbEntity
8
0
100
AcDbBlockBegin
2
*Paper_Space
70
0
10
0
20
0
30
0
3
*Paper_Space
0
ENDBLK
5
1D
100
AcDbEntity
8
0
100
AcDbBlockEnd
0
BLOCK
5
24
100
AcDbEntity
8
0
100
AcDbBlockBegin
2
*Paper_Space0
70
0
10
0
20
0
30
0
3
*Paper_Space0
0
ENDBLK
5
25
100
AcDbEntity
8
0
100
AcDbBlockEnd
0
BLOCK
5
140
100
AcDbEntity
8
0
100
AcDbBlockBegin
2
*D1
70
1
10
0
20
0
30
0
3
*D1
0
LINE
5
142
100
AcDbEntity
8
0
62
256
6
ByLayer
370
-2
48
1
60
0
100
AcDbLine
10
-48
20
-9.5875
30
0
11
-48
21
-47.952229
31
0
39
0
210
0
220
0
230
1
0
LINE
5
143
100
AcDbEntity
8
0
62
256
6
ByLayer
370
-2
48
1
60
0
100
AcDbLine
10
68.5
20
-1.5875
30
0
11
68.5
21
-47.952229
31
0
39
0
210
0
220
0
230
1
0
LINE
5
144
100
AcDbEntity
8
0
62
256
6
ByLayer
370
-2
48
1
60
0
100
AcDbLine
10
-44.5
20
-45.952229
30
0
11
65
21
-45.952229
31
0
39
0
210
0
220
0
230
1
0
SOLID
5
145
100
AcDbEntity
8
0
62
256
6
ByLayer
370
-1
48
1
60
0
100
AcDbTrace
10
-44.5
20
-45.368896
30
0
11
-44.5
21
-46.535563
31
0
12
-48
22
-45.952229
32
0
13
-48
23
-45.952229
33
0
39
0
210
0
220
0
230
1
0
SOLID
5
146
100
AcDbEntity
8
0
62
256
6
ByLayer
370
-1
48
1
60
0
100
AcDbTrace
10
65
20
-46.535563
30
0
11
65
21
-45.368896
31
0
12
68.5
22
-45.952229
32
0
13
68.5
23
-45.952229
33
0
39
0
210
0
220
0
230
1
0
MTEXT
5
147
100
AcDbEntity
8
0
62
256
6
ByLayer
370
18
48
1
60
0
100
AcDbMText
10
10.25
20
-39.952229
30
0
210
0
220
0
230
1
1
\A1;116.5
40
3
41
0
44
1
50
0
71
5
72
5
7
iso_b_vert
0
POINT
5
148
100
AcDbEntity
8
Defpoints
62
0
6
ByLayer
370
-1
48
1
60
0
100
AcDbPoint
10
-48
20
-8
30
0
39
0
210
0
220
0
230
1
50
360
0
POINT
5
149
100
AcDbEntity
8
Defpoints
62
0
6
ByLayer
370
-1
48
1
60
0
100
AcDbPoint
10
68.5
20
0
30
0
39
0
210
0
220
0
230
1
50
360
0
POINT
5
14A
100
AcDbEntity
8
Defpoints
62
0
6
ByLayer
370
-1
48
1
60
0
100
AcDbPoint
10
68.5
20
-45.952229
30
0
39
0
210
0
220
0
230
1
50
360
0
ENDBLK
5
141
100
AcDbEntity
8
0
100
AcDbBlockEnd
0
BLOCK
5
152
100
AcDbEntity
8
0
100
AcDbBlockBegin
2
_U0
70
0
10
0
20
0
30
0
3
_U0
0
MTEXT
5
14C
100
AcDbEntity
8
SK2
62
256
6
ByLayer
370
18
48
1
60
0
100
AcDbMText
10
5.396601
20
-45.067115
30
0
210
0
220
0
230
1
1
\W0.6532;116.50
40
3
41
0
44
1.084337
50
0
71
7
72
5
7
iso_b_vert
0
LINE
5
14D
100
AcDbEntity
8
SK2
62
256
6
ByLayer
370
13
48
1
60
0
100
AcDbLine
10
-48
20
-9.5875
30
0
11
-48
21
-47.952229
31
0
39
0
210
0
220
0
230
1
0
LINE
5
14E
100
AcDbEntity
8
SK2
62
256
6
ByLayer
370
13
48
1
60
0
100
AcDbLine
10
68.5
20
-1.5875
30
0
11
68.5
21
-47.952229
31
0
39
0
210
0
220
0
230
1
0
LINE
5
14F
100
AcDbEntity
8
SK2
62
256
6
ByLayer
370
13
48
1
60
0
100
AcDbLine
10
-48
20
-45.952229
30
0
11
68.5
21
-45.952229
31
0
39
0
210
0
220
0
230
1
0
SOLID
5
150
100
AcDbEntity
8
SK2
62
256
6
ByLayer
370
18
48
1
60
0
100
AcDbTrace
10
-48
20
-45.952229
30
0
11
-44.500002
21
-45.491446
31
0
12
-44.499998
22
-46.413013
32
0
13
-44.499998
23
-46.413013
33
0
39
0
210
0
220
0
230
1
0
SOLID
5
151
100
AcDbEntity
8
SK2
62
256
6
ByLayer
370
18
48
1
60
0
100
AcDbTrace
10
68.5
20
-45.952229
30
0
11
65.000002
21
-46.413013
31
0
12
64.999998
22
-45.491446
32
0
13
64.999998
23
-45.491446
33
0
39
0
210
0
220
0
230
1
0
ENDBLK
5
153
100
AcDbEntity
8
0
100
AcDbBlockEnd
0
BLOCK
5
158
100
AcDbEntity
8
0
100
AcDbBlockBegin
2
*D3
70
1
10
0
20
0
30
0
3
*D3
0
LINE
5
15A
100
AcDbEntity
8
0
62
256
6
ByLayer
370
-2
48
1
60
0
100
AcDbLine
10
68.5
20
-1.5875
30
0
11
68.5
21
-37.952229
31
0
39
0
210
0
220
0
230
1
0
LINE
5
15B
100
AcDbEntity
8
0
62
256
6
ByLayer
370
-2
48
1
60
0
100
AcDbLine
10
3
20
-8.5875
30
0
11
3
21
-37.952229
31
0
39
0
210
0
220
0
230
1
0
LINE
5
15C
100
AcDbEntity
8
0
62
256
6
ByLayer
370
-2
48
1
60
0
100
AcDbLine
10
65
20
-35.952229
30
0
11
6.5
21
-35.952229
31
0
39
0
210
0
220
0
230
1
0
SOLID
5
15D
100
AcDbEntity
8
0
62
256
6
ByLayer
370
-1
48
1
60
0
100
AcDbTrace
10
65
20
-36.535563
30
0
11
65
21
-35.368896
31
0
12
68.5
22
-35.952229
32
0
13
68.5
23
-35.952229
33
0
39
0
210
0
220
0
230
1
0
SOLID
5
15E
100
AcDbEntity
8
0
62
256
6
ByLayer
370
-1
48
1
60
0
100
AcDbTrace
10
6.5
20
-35.368896
30
0
11
6.5
21
-36.535563
31
0
12
3
22
-35.952229
32
0
13
3
23
-35.952229
33
0
39
0
210
0
220
0
230
1
0
MTEXT
5
15F
100
AcDbEntity
8
0
62
256
6
ByLayer
370
18
48
1
60
0
100
AcDbMText
10
35.75
20
-29.952229
30
0
210
0
220
0
230
1
1
\A1;65.5
40
3
41
0
44
1
50
0
71
5
72
5
7
iso_b_vert
0
POINT
5
160
100
AcDbEntity
8
Defpoints
62
0
6
ByLayer
370
-1
48
1
60
0
100
AcDbPoint
10
68.5
20
0
30
0
39
0
210
0
220
0
230
1
50
360
0
POINT
5
161
100
AcDbEntity
8
Defpoints
62
0
6
ByLayer
370
-1
48
1
60
0
100
AcDbPoint
10
3
20
-7
30
0
39
0
210
0
220
0
230
1
50
360
0
POINT
5
162
100
AcDbEntity
8
Defpoints
62
0
6
ByLayer
370
-1
48
1
60
0
100
AcDbPoint
10
3
20
-35.952229
30
0
39
0
210
0
220
0
230
1
50
360
0
ENDBLK
5
159
100
AcDbEntity
8
0
100
AcDbBlockEnd
0
BLOCK
5
16A
100
AcDbEntity
8
0
100
AcDbBlockBegin
2
_U1
70
0
10
0
20
0
30
0
3
_U1
0
MTEXT
5
164
100
AcDbEntity
8
SK2
62
256
6
ByLayer
370
18
48
1
60
0
100
AcDbMText
10
31.26763
20
-35.067115
30
0
210
0
220
0
230
1
1
\W0.7468;65.50
40
3
41
0
44
1.084337
50
0
71
7
72
5
7
iso_b_vert
0
LINE
5
165
100
AcDbEntity
8
SK2
62
256
6
ByLayer
370
13
48
1
60
0
100
AcDbLine
10
68.5
20
-1.5875
30
0
11
68.5
21
-37.952229
31
0
39
0
210
0
220
0
230
1
0
LINE
5
166
100
AcDbEntity
8
SK2
62
256
6
ByLayer
370
13
48
1
60
0
100
AcDbLine
10
3
20
-8.5875
30
0
11
3
21
-37.952229
31
0
39
0
210
0
220
0
230
1
0
LINE
5
167
100
AcDbEntity
8
SK2
62
256
6
ByLayer
370
13
48
1
60
0
100
AcDbLine
10
68.5
20
-35.952229
30
0
11
3
21
-35.952229
31
0
39
0
210
0
220
0
230
1
0
SOLID
5
168
100
AcDbEntity
8
SK2
62
256
6
ByLayer
370
18
48
1
60
0
100
AcDbTrace
10
68.5
20
-35.952229
30
0
11
65.000002
21
-36.413013
31
0
12
64.999998
22
-35.491446
32
0
13
64.999998
23
-35.491446
33
0
39
0
210
0
220
0
230
1
0
SOLID
5
169
100
AcDbEntity
8
SK2
62
256
6
ByLayer
370
18
48
1
60
0
100
AcDbTrace
10
3
20
-35.952229
30
0
11
6.499998
21
-35.491446
31
0
12
6.500002
22
-36.413013
32
0
13
6.500002
23
-36.413013
33
0
39
0
210
0
220
0
230
1
0
ENDBLK
5
16B
100
AcDbEntity
8
0
100
AcDbBlockEnd
0
BLOCK
5
170
100
AcDbEntity
8
0
100
AcDbBlockBegin
2
*D5
70
1
10
0
20
0
30
0
3
*D5
0
LINE
5
172
100
AcDbEntity
8
0
62
256
6
ByLayer
370
-2
48
1
60
0
100
AcDbLine
10
-48
20
-9.5875
30
0
11
-48
21
-37.952229
31
0
39
0
210
0
220
0
230
1
0
LINE
5
173
100
AcDbEntity
8
0
62
256
6
ByLayer
370
-2
48
1
60
0
100
AcDbLine
10
0
20
-9.5875
30
0
11
0
21
-37.952229
31
0
39
0
210
0
220
0
230
1
0
LINE
5
174
100
AcDbEntity
8
0
62
256
6
ByLayer
370
-2
48
1
60
0
100
AcDbLine
10
-44.5
20
-35.952229
30
0
11
-3.5
21
-35.952229
31
0
39
0
210
0
220
0
230
1
0
SOLID
5
175
100
AcDbEntity
8
0
62
256
6
ByLayer
370
-1
48
1
60
0
100
AcDbTrace
10
-44.5
20
-35.368896
30
0
11
-44.5
21
-36.535563
31
0
12
-48
22
-35.952229
32
0
13
-48
23
-35.952229
33
0
39
0
210
0
220
0
230
1
0
SOLID
5
176
100
AcDbEntity
8
0
62
256
6
ByLayer
370
-1
48
1
60
0
100
AcDbTrace
10
-3.5
20
-36.535563
30
0
11
-3.5
21
-35.368896
31
0
12
0
22
-35.952229
32
0
13
0
23
-35.952229
33
0
39
0
210
0
220
0
230
1
0
MTEXT
5
177
100
AcDbEntity
8
0
62
256
6
ByLayer
370
18
48
1
60
0
100
AcDbMText
10
-24
20
-29.952229
30
0
210
0
220
0
230
1
1
\A1;48
40
3
41
0
44
1
50
0
71
5
72
5
7
iso_b_vert
0
POINT
5
178
100
AcDbEntity
8
Defpoints
62
0
6
ByLayer
370
-1
48
1
60
0
100
AcDbPoint
10
-48
20
-8
30
0
39
0
210
0
220
0
230
1
50
360
0
POINT
5
179
100
AcDbEntity
8
Defpoints
62
0
6
ByLayer
370
-1
48
1
60
0
100
AcDbPoint
10
0
20
-8
30
0
39
0
210
0
220
0
230
1
50
360
0
POINT
5
17A
100
AcDbEntity
8
Defpoints
62
0
6
ByLayer
370
-1
48
1
60
0
100
AcDbPoint
10
0
20
-35.952229
30
0
39
0
210
0
220
0
230
1
50
360
0
ENDBLK
5
171
100
AcDbEntity
8
0
100
AcDbBlockEnd
0
BLOCK
5
182
100
AcDbEntity
8
0
100
AcDbBlockBegin
2
_U2
70
0
10
0
20
0
30
0
3
_U2
0
MTEXT
5
17C
100
AcDbEntity
8
SK2
62
256
6
ByLayer
370
18
48
1
60
0
100
AcDbMText
10
-28.640313
20
-35.067115
30
0
210
0
220
0
230
1
1
\W0.7694;48.00
40
3
41
0
44
1.084337
50
0
71
7
72
5
7
iso_b_vert
0
LINE
5
17D
100
AcDbEntity
8
SK2
62
256
6
ByLayer
370
13
48
1
60
0
100
AcDbLine
10
-48
20
-9.5875
30
0
11
-48
21
-37.952229
31
0
39
0
210
0
220
0
230
1
0
LINE
5
17E
100
AcDbEntity
8
SK2
62
256
6
ByLayer
370
13
48
1
60
0
100
AcDbLine
10
0
20
-9.5875
30
0
11
0
21
-37.952229
31
0
39
0
210
0
220
0
230
1
0
LINE
5
17F
100
AcDbEntity
8
SK2
62
256
6
ByLayer
370
13
48
1
60
0
100
AcDbLine
10
-48
20
-35.952229
30
0
11
0
21
-35.952229
31
0
39
0
210
0
220
0
230
1
0
SOLID
5
180
100
AcDbEntity
8
SK2
62
256
6
ByLayer
370
18
48
1
60
0
100
AcDbTrace
10
-48
20
-35.952229
30
0
11
-44.500002
21
-35.491446
31
0
12
-44.499998
22
-36.413013
32
0
13
-44.499998
23
-36.413013
33
0
39
0
210
0
220
0
230
1
0
SOLID
5
181
100
AcDbEntity
8
SK2
62
256
6
ByLayer
370
18
48
1
60
0
100
AcDbTrace
10
0
20
-35.952229
30
0
11
-3.499998
21
-36.413013
31
0
12
-3.500002
22
-35.491446
32
0
13
-3.500002
23
-35.491446
33
0
39
0
210
0
220
0
230
1
0
ENDBLK
5
183
100
AcDbEntity
8
0
100
AcDbBlockEnd
0
BLOCK
5
188
100
AcDbEntity
8
0
100
AcDbBlockBegin
2
*D7
70
1
10
0
20
0
30
0
3
*D7
0
LINE
5
18A
100
AcDbEntity
8
0
62
256
6
ByLayer
370
-2
48
1
60
0
100
AcDbLine
10
68.5
20
1.5875
30
0
11
68.5
21
34.952229
31
0
39
0
210
0
220
0
230
1
0
LINE
5
18B
100
AcDbEntity
8
0
62
256
6
ByLayer
370
-2
48
1
60
0
100
AcDbLine
10
16
20
8.5875
30
0
11
16
21
34.952229
31
0
39
0
210
0
220
0
230
1
0
LINE
5
18C
100
AcDbEntity
8
0
62
256
6
ByLayer
370
-2
48
1
60
0
100
AcDbLine
10
65
20
32.952229
30
0
11
19.5
21
32.952229
31
0
39
0
210
0
220
0
230
1
0
SOLID
5
18D
100
AcDbEntity
8
0
62
256
6
ByLayer
370
-1
48
1
60
0
100
AcDbTrace
10
65
20
32.368896
30
0
11
65
21
33.535563
31
0
12
68.5
22
32.952229
32
0
13
68.5
23
32.952229
33
0
39
0
210
0
220
0
230
1
0
SOLID
5
18E
100
AcDbEntity
8
0
62
256
6
ByLayer
370
-1
48
1
60
0
100
AcDbTrace
10
19.5
20
33.535563
30
0
11
19.5
21
32.368896
31
0
12
16
22
32.952229
32
0
13
16
23
32.952229
33
0
39
0
210
0
220
0
230
1
0
MTEXT
5
18F
100
AcDbEntity
8
0
62
256
6
ByLayer
370
18
48
1
60
0
100
AcDbMText
10
42.25
20
38.952229
30
0
210
0
220
0
230
1
1
\A1;52.5
40
3
41
0
44
1
50
0
71
5
72
5
7
iso_b_vert
0
POINT
5
190
100
AcDbEntity
8
Defpoints
62
0
6
ByLayer
370
-1
48
1
60
0
100
AcDbPoint
10
68.5
20
0
30
0
39
0
210
0
220
0
230
1
50
360
0
POINT
5
191
100
AcDbEntity
8
Defpoints
62
0
6
ByLayer
370
-1
48
1
60
0
100
AcDbPoint
10
16
20
7
30
0
39
0
210
0
220
0
230
1
50
360
0
POINT
5
192
100
AcDbEntity
8
Defpoints
62
0
6
ByLayer
370
-1
48
1
60
0
100
AcDbPoint
10
16
20
32.952229
30
0
39
0
210
0
220
0
230
1
50
360
0
ENDBLK
5
189
100
AcDbEntity
8
0
100
AcDbBlockEnd
0
BLOCK
5
19A
100
AcDbEntity
8
0
100
AcDbBlockBegin
2
_U3
70
0
10
0
20
0
30
0
3
_U3
0
MTEXT
5
194
100
AcDbEntity
8
SK2
62
256
6
ByLayer
370
18
48
1
60
0
100
AcDbMText
10
37.76763
20
33.837344
30
0
210
0
220
0
230
1
1
\W0.7468;52.50
40
3
41
0
44
1.084337
50
0
71
7
72
5
7
iso_b_vert
0
LINE
5
195
100
AcDbEntity
8
SK2
62
256
6
ByLayer
370
13
48
1
60
0
100
AcDbLine
10
68.5
20
1.5875
30
0
11
68.5
21
34.952229
31
0
39
0
210
0
220
0
230
1
0
LINE
5
196
100
AcDbEntity
8
SK2
62
256
6
ByLayer
370
13
48
1
60
0
100
AcDbLine
10
16
20
8.5875
30
0
11
16
21
34.952229
31
0
39
0
210
0
220
0
230
1
0
LINE
5
197
100
AcDbEntity
8
SK2
62
256
6
ByLayer
370
13
48
1
60
0
100
AcDbLine
10
68.5
20
32.952229
30
0
11
16
21
32.952229
31
0
39
0
210
0
220
0
230
1
0
SOLID
5
198
100
AcDbEntity
8
SK2
62
256
6
ByLayer
370
18
48
1
60
0
100
AcDbTrace
10
68.5
20
32.952229
30
0
11
65.000002
21
32.491446
31
0
12
64.999998
22
33.413013
32
0
13
64.999998
23
33.413013
33
0
39
0
210
0
220
0
230
1
0
SOLID
5
199
100
AcDbEntity
8
SK2
62
256
6
ByLayer
370
18
48
1
60
0
100
AcDbTrace
10
16
20
32.952229
30
0
11
19.499998
21
33.413013
31
0
12
19.500002
22
32.491446
32
0
13
19.500002
23
32.491446
33
0
39
0
210
0
220
0
230
1
0
ENDBLK
5
19B
100
AcDbEntity
8
0
100
AcDbBlockEnd
0
ENDSEC
0
SECTION
2
ENTITIES
0
ARC
5
C1
100
AcDbEntity
8
SK2
62
256
6
ByLayer
370
13
48
1
60
0
100
AcDbCircle
39
0
10
68.5
20
0
30
0
40
19
210
0
220
0
230
1
100
AcDbArc
50
290
51
70
0
ELLIPSE
5
C2
100
AcDbEntity
8
SK1
62
256
6
ByLayer
370
18
48
1
60
0
100
AcDbEllipse
10
153.54477
20
0
30
0
11
229.090026261202
21
-2.59581837845095E-13
31
0
210
0
220
0
230
1
40
0.034921
41
2.39723378988983
42
2.57876881051445
0
ELLIPSE
5
C3
100
AcDbEntity
8
SK1
62
256
6
ByLayer
370
18
48
1
60
0
100
AcDbEllipse
10
-20.57895
20
0
30
0
11
8.57894968019762
21
-9.72080522714331E-15
31
0
210
0
220
0
230
1
40
0.932515
41
-0.661405283579246
42
0.661405283579253
0
ELLIPSE
5
C4
100
AcDbEntity
8
SK1
62
256
6
ByLayer
370
18
48
1
60
0
100
AcDbEllipse
10
153.54477
20
0
30
0
11
229.090026264126
21
-2.59581837848408E-13
31
0
210
0
220
0
230
1
40
0.034921
41
-2.57876881051488
42
-2.39723378989224
0
ELLIPSE
5
C5
100
AcDbEntity
8
SK1
62
256
6
ByLayer
370
18
48
1
60
0
100
AcDbEllipse
10
-34.539879
20
0
30
0
11
-1.46952762458688E-15
21
-8.00000000000015
31
0
210
0
220
0
230
1
40
0.932515
41
-2.00016141679846
42
-1.14143123679134
0
POINT
5
70
100
AcDbEntity
8
80
62
256
6
ByLayer
370
18
48
1
60
0
100
AcDbPoint
10
0
20
0
30
0
39
0
210
0
220
0
230
1
50
360
0
POINT
5
72
100
AcDbEntity
8
81
62
256
6
ByLayer
370
18
48
1
60
0
100
AcDbPoint
10
68.5
20
0
30
0
39
0
210
0
220
0
230
1
50
360
0
POINT
5
74
100
AcDbEntity
8
1
62
256
6
ByLayer
370
18
48
1
60
1
100
AcDbPoint
10
-48
20
-8
30
0
39
0
210
0
220
0
230
1
50
360
0
POINT
5
76
100
AcDbEntity
8
1
62
256
6
ByLayer
370
18
48
1
60
1
100
AcDbPoint
10
68.5
20
0
30
0
39
0
210
0
220
0
230
1
50
360
0
POINT
5
77
100
AcDbEntity
8
1
62
256
6
ByLayer
370
18
48
1
60
1
100
AcDbPoint
10
68.5
20
0
30
0
39
0
210
0
220
0
230
1
50
360
0
POINT
5
78
100
AcDbEntity
8
1
62
256
6
ByLayer
370
18
48
1
60
1
100
AcDbPoint
10
3
20
-7
30
0
39
0
210
0
220
0
230
1
50
360
0
POINT
5
79
100
AcDbEntity
8
1
62
256
6
ByLayer
370
18
48
1
60
1
100
AcDbPoint
10
-48
20
-8
30
0
39
0
210
0
220
0
230
1
50
360
0
POINT
5
7A
100
AcDbEntity
8
1
62
256
6
ByLayer
370
18
48
1
60
1
100
AcDbPoint
10
0
20
-8
30
0
39
0
210
0
220
0
230
1
50
360
0
POINT
5
7B
100
AcDbEntity
8
1
62
256
6
ByLayer
370
18
48
1
60
1
100
AcDbPoint
10
68.5
20
0
30
0
39
0
210
0
220
0
230
1
50
360
0
POINT
5
7C
100
AcDbEntity
8
1
62
256
6
ByLayer
370
18
48
1
60
1
100
AcDbPoint
10
16
20
7
30
0
39
0
210
0
220
0
230
1
50
360
0
SPLINE
5
C6
100
AcDbEntity
8
1
62
256
6
ByLayer
370
18
48
1
60
0
100
AcDbSpline
70
4
71
3
72
18
73
14
40
0
40
0
40
0
40
0
40
0.124999999999998
40
0.124999999999998
40
0.249999999999995
40
0.249999999999995
40
0.499999999999995
40
0.499999999999995
40
0.624999999999998
40
0.624999999999998
40
0.75
40
0.75
40
1
40
1
40
1
40
1
41
1
10
65.9522083601037
20
-0.999365075786869
30
0
41
1
10
65.6286261251132
20
-0.883051947514758
30
0
41
1
10
65.3052359076351
20
-0.7663789488509
30
0
41
1
10
64.658907967452
20
-0.532123185191551
30
0
41
1
10
64.336016420401
20
-0.414412426356307
30
0
41
1
10
63.3674875596446
20
-0.0614023843583595
30
0
41
1
10
62.7217233866106
20
0.173022020774738
30
0
41
1
10
61.7532950208494
20
0.524227626806322
30
0
41
1
10
61.4305291246087
20
0.641243739428148
30
0
41
1
10
60.7851098356956
20
0.875237379596797
30
0
41
1
10
60.4624169667336
20
0.992105430118357
30
0
41
1
10
59.4936211338928
20
1.34021441284983
30
0
41
1
10
58.8470530874243
20
1.56965800637977
30
0
41
1
10
58.2
20
1.79707000474679
30
0
0
SPLINE
5
C7
100
AcDbEntity
8
1
62
256
6
ByLayer
370
18
48
1
60
0
100
AcDbSpline
70
4
71
3
72
82
73
78
40
0
40
0
40
0
40
0
40
0.0625000000000032
40
0.0625000000000032
40
0.125000000000006
40
0.125000000000006
40
0.140625000000007
40
0.140625000000007
40
0.156250000000008
40
0.156250000000008
40
0.187500000000009
40
0.187500000000009
40
0.25000000000001
40
0.25000000000001
40
0.281250000000011
40
0.281250000000011
40
0.296875000000011
40
0.296875000000011
40
0.312500000000011
40
0.312500000000011
40
0.34375000000001
40
0.34375000000001
40
0.37500000000001
40
0.37500000000001
40
0.40625000000001
40
0.40625000000001
40
0.437500000000009
40
0.437500000000009
40
0.453125000000009
40
0.453125000000009
40
0.468750000000009
40
0.468750000000009
40
0.50000000000001
40
0.50000000000001
40
0.53125000000001
40
0.53125000000001
40
0.53906250000001
40
0.53906250000001
40
0.54687500000001
40
0.56250000000001
40
0.56250000000001
40
0.593750000000011
40
0.593750000000011
40
0.625000000000011
40
0.625000000000011
40
0.632812500000011
40
0.632812500000011
40
0.64062500000001
40
0.656250000000009
40
0.656250000000009
40
0.687500000000005
40
0.687500000000005
40
0.718750000000002
40
0.718750000000002
40
0.726562500000002
40
0.726562500000002
40
0.734375000000002
40
0.734375000000002
40
0.750000000000001
40
0.750000000000001
40
0.781250000000002
40
0.781250000000002
40
0.812500000000002
40
0.843750000000003
40
0.843750000000003
40
0.851562500000002
40
0.851562500000002
40
0.859375000000002
40
0.875000000000001
40
0.875000000000001
40
0.906250000000001
40
0.9375
40
0.96875
40
0.96875
40
0.984375
40
0.984375
40
1
40
1
40
1
40
1
41
1
10
65.9522083601048
20
6.77772984627441
30
0
41
1
10
66.0396472296407
20
6.5609335992375
30
0
41
1
10
66.1273712992287
20
6.33765872397257
30
0
41
1
10
66.3038975196075
20
5.87991078664501
30
0
41
1
10
66.3927007871199
20
5.64542734187887
30
0
41
1
10
66.5044756063467
20
5.3458263175423
30
0
41
1
10
66.5268681379304
20
5.28557931625735
30
0
41
1
10
66.5717263913482
20
5.16443687721204
30
0
41
1
10
66.5942008287287
20
5.1035169773553
30
0
41
1
10
66.6613262915598
20
4.92088433575518
30
0
41
1
10
66.7058148924683
20
4.79893925464262
30
0
41
1
10
66.8384415292638
20
4.43253092509318
30
0
41
1
10
66.9257852588015
20
4.18751200290635
30
0
41
1
10
67.0543414159654
20
3.81860179433494
30
0
41
1
10
67.0967742504504
20
3.69539779383052
30
0
41
1
10
67.1595601838847
20
3.51015933325485
30
0
41
1
10
67.1803437641464
20
3.44834064757501
30
0
41
1
10
67.221564396652
20
3.32453807835822
30
0
41
1
10
67.2420067601601
20
3.26253620800094
30
0
41
1
10
67.3024172892881
20
3.07714605111602
30
0
41
1
10
67.3415784563541
20
2.95407924331852
30
0
41
1
10
67.4169590490296
20
2.70879867716206
30
0
41
1
10
67.45318346545
20
2.58658568249336
30
0
41
1
10
67.5215899206464
20
2.34275978832113
30
0
41
1
10
67.5537777538565
20
2.22114741823134
30
0
41
1
10
67.6124528892611
20
1.97819443924175
30
0
41
1
10
67.6389428495142
20
1.8568528522965
30
0
41
1
10
67.6726299185725
20
1.67474190997225
30
0
41
1
10
67.6828500960033
20
1.61394669752593
30
0
41
1
10
67.7007479608193
20
1.49348623324244
30
0
41
1
10
67.7084525755395
20
1.43368504770845
30
0
41
1
10
67.727457087399
20
1.25561828985215
30
0
41
1
10
67.7346072489686
20
1.13868334554857
30
0
41
1
10
67.7365279595306
20
0.908779704450609
30
0
41
1
10
67.7312872228788
20
0.795812901424739
30
0
41
1
10
67.7170441825011
20
0.657451169497733
30
0
41
1
10
67.7138097341133
20
0.629884936473076
30
0
41
1
10
67.7066174269156
20
0.575219879622239
30
0
41
1
10
67.6947699523562
20
0.494092987589227
30
0
41
1
10
67.6799287391457
20
0.415546108492265
30
0
41
1
10
67.6467522667884
20
0.261809325100245
30
0
41
1
10
67.6199950020596
20
0.163787865712862
30
0
41
1
10
67.5596113483939
20
-0.0236629240001776
30
0
41
1
10
67.5259900623032
20
-0.113094785469343
30
0
41
1
10
67.480785905766
20
-0.219594908060486
30
0
41
1
10
67.4715751352407
20
-0.240650521640902
30
0
41
1
10
67.4528996023171
20
-0.282129738323846
30
0
41
1
10
67.424536403385
20
-0.343334080750765
30
0
41
1
10
67.3952319740994
20
-0.401554520018891
30
0
41
1
10
67.3355954757038
20
-0.514135828983058
30
0
41
1
10
67.2944811853644
20
-0.584054663931568
30
0
41
1
10
67.2103361275975
20
-0.713962130735069
30
0
41
1
10
67.1672996873396
20
-0.773948912856753
30
0
41
1
10
67.1125648731759
20
-0.842734139943047
30
0
41
1
10
67.1015702514696
20
-0.856180545490417
30
0
41
1
10
67.0794897704009
20
-0.882449465863317
30
0
41
1
10
67.0683996101818
20
-0.895275934136066
30
0
41
1
10
67.0351441203504
20
-0.932653932389513
30
0
41
1
10
67.0129467864577
20
-0.956162536749702
30
0
41
1
10
66.9463084820602
20
-1.02255252292255
30
0
41
1
10
66.9018245169528
20
-1.0613065967259
30
0
41
1
10
66.8128205433127
20
-1.12807811501477
30
0
41
1
10
66.7237783908788
20
-1.18411079379666
30
0
41
1
10
66.6346347078687
20
-1.21869227419239
30
0
41
1
10
66.5788420937718
20
-1.23345646978888
30
0
41
1
10
66.5676766310049
20
-1.23606588594751
30
0
41
1
10
66.5454388876899
20
-1.24057535657155
30
0
41
1
10
66.5121836499406
20
-1.24628643944976
30
0
41
1
10
66.4792216949293
20
-1.24887303028086
30
0
41
1
10
66.413660043506
20
-1.24995035012739
30
0
41
1
10
66.3272102789954
20
-1.24047881116101
30
0
41
1
10
66.1999787365994
20
-1.19412796471366
30
0
41
1
10
66.1164881271895
20
-1.14175208362161
30
0
41
1
10
66.0542564254638
20
-1.09423746174156
30
0
41
1
10
66.0336448689065
20
-1.07707597655346
30
0
41
1
10
65.9927214412706
20
-1.04016844198111
30
0
41
1
10
65.9724001698721
20
-1.02041523881715
30
0
41
1
10
65.9522083601049
20
-0.999365075787296
30
0
0
SPLINE
5
C8
100
AcDbEntity
8
1
62
256
6
ByLayer
370
18
48
1
60
0
100
AcDbSpline
70
4
71
3
72
22
73
18
40
0
40
0
40
0
40
0
40
0.0030158987390665
40
0.0030158987390665
40
0.202412718991252
40
0.202412718991252
40
0.401809539243437
40
0.401809539243437
40
0.501507949369529
40
0.501507949369529
40
0.601206359495622
40
0.601206359495622
40
0.700904769621715
40
0.700904769621715
40
0.800603179747807
40
0.800603179747807
40
1
40
1
40
1
40
1
41
1
10
61.0930064137883
20
6.99912530489542
30
0
41
1
10
61.0978885928459
20
6.99912599763403
30
0
41
1
10
61.1027707951234
20
6.99912601314412
30
0
41
1
10
61.4304424743776
20
6.99908161534501
30
0
41
1
10
61.7532828978555
20
6.99608307565009
30
0
41
1
10
62.3989680069766
20
6.98421386239593
30
0
41
1
10
62.7218189361713
20
6.97534403013196
30
0
41
1
10
63.2060358711439
20
6.95759470925734
30
0
41
1
10
63.3674317125662
20
6.95093684160088
30
0
41
1
10
63.6901858476347
20
6.93611953574953
30
0
41
1
10
63.8515431019022
20
6.92795829013124
30
0
41
1
10
64.174323216767
20
6.91016394320039
30
0
41
1
10
64.3357566108808
20
6.90053576359358
30
0
41
1
10
64.6587729898501
20
6.87985825069458
30
0
41
1
10
64.8203423330897
20
6.8688032945085
30
0
41
1
10
65.3051904032672
20
6.83347776699429
30
0
41
1
10
65.628619021397
20
6.80705386020233
30
0
41
1
10
65.9522083601037
20
6.77772984627453
30
0
0
SPLINE
5
C9
100
AcDbEntity
8
1
62
256
6
ByLayer
370
18
48
1
60
0
100
AcDbSpline
70
4
71
3
72
34
73
30
40
0
40
0
40
0
40
0
40
0.0389235979793107
40
0.0389235979793107
40
0.159058148231895
40
0.159058148231895
40
0.219125423358189
40
0.219125423358189
40
0.279192698484483
40
0.279192698484483
40
0.339259973610776
40
0.339259973610776
40
0.39932724873707
40
0.39932724873707
40
0.519461798989657
40
0.519461798989657
40
0.579529074115951
40
0.579529074115951
40
0.639596349242244
40
0.639596349242244
40
0.759730899494831
40
0.759730899494831
40
0.819798174621124
40
0.819798174621124
40
0.879865449747416
40
0.879865449747416
40
0.939932724873708
40
0.939932724873708
40
1
40
1
40
1
40
1
41
1
10
47.0506957082939
20
4.87313807748953
30
0
41
1
10
47.1954292565536
20
4.90723563573997
30
0
41
1
10
47.3401755014784
20
4.94086290553113
30
0
41
1
10
47.9316847135112
20
5.07644371389955
30
0
41
1
10
48.3784762245696
20
5.17458247102579
30
0
41
1
10
49.0485567727645
20
5.31569434067069
30
0
41
1
10
49.2718990486033
20
5.3617140114535
30
0
41
1
10
49.718508516007
20
5.45176576903319
30
0
41
1
10
49.9417536341663
20
5.49583152248047
30
0
41
1
10
50.3883578139404
20
5.58164277256446
30
0
41
1
10
50.6117832975984
20
5.62333154893773
30
0
41
1
10
51.0587206349145
20
5.70425342325757
30
0
41
1
10
51.282145850953
20
5.74350238765436
30
0
41
1
10
51.9522566134592
20
5.85769127178787
30
0
41
1
10
52.3987842537904
20
5.92907406594887
30
0
41
1
10
53.0680671807707
20
6.0292422928996
30
0
41
1
10
53.291052260582
20
6.06150597185081
30
0
41
1
10
53.7369623012432
20
6.12356740908001
30
0
41
1
10
53.9599274121053
20
6.15331895781202
30
0
41
1
10
54.6290278847893
20
6.23858660499855
30
0
41
1
10
55.075234783787
20
6.29027769383225
30
0
41
1
10
55.744593290159
20
6.36028415039425
30
0
41
1
10
55.967720686823
20
6.38236239373714
30
0
41
1
10
56.4139603257093
20
6.42401156855527
30
0
41
1
10
56.6370550026101
20
6.44359461579236
30
0
41
1
10
57.0832733282748
20
6.48018747489633
30
0
41
1
10
57.306428652887
20
6.49717307808933
30
0
41
1
10
57.7530486492222
20
6.52840317132524
30
0
41
1
10
57.9764778219759
20
6.54267317038747
30
0
41
1
10
58.1999999999996
20
6.55561980807471
30
0
0
SPLINE
5
CA
100
AcDbEntity
8
1
62
256
6
ByLayer
370
18
48
1
60
0
100
AcDbSpline
70
4
71
3
72
62
73
58
40
0
40
0
40
0
40
0
40
0.0280276911442154
40
0.0280276911442154
40
0.0560553822884308
40
0.0560553822884308
40
0.112110764576862
40
0.112110764576862
40
0.140138455721077
40
0.140138455721077
40
0.168166146865292
40
0.168166146865292
40
0.196193838009508
40
0.196193838009508
40
0.224221529153723
40
0.224221529153723
40
0.280276911442153
40
0.280276911442153
40
0.308304602586368
40
0.308304602586368
40
0.336332293730584
40
0.336332293730584
40
0.392387676019016
40
0.392387676019016
40
0.420415367163232
40
0.420415367163232
40
0.448443058307448
40
0.448443058307448
40
0.504498440595882
40
0.504498440595882
40
0.532526131740099
40
0.532526131740099
40
0.560553822884316
40
0.560553822884316
40
0.588581514028533
40
0.588581514028533
40
0.616609205172749
40
0.616609205172749
40
0.672664587461183
40
0.672664587461183
40
0.7006922786054
40
0.7006922786054
40
0.728719969749617
40
0.728719969749617
40
0.784775352038051
40
0.784775352038051
40
0.812803043182268
40
0.812803043182268
40
0.840830734326486
40
0.840830734326486
40
0.868858425470704
40
0.868858425470704
40
0.896886116614921
40
0.896886116614921
40
0.952941498903358
40
0.952941498903358
40
1
40
1
40
1
40
1
41
1
10
58.2000000000002
20
1.58970523608417
30
0
41
1
10
57.9608760836412
20
1.6699768685678
30
0
41
1
10
57.7218518311688
20
1.74998939670564
30
0
41
1
10
57.2439372061646
20
1.90930480868488
30
0
41
1
10
57.0050248208216
20
1.9885454433761
30
0
41
1
10
56.2881449102202
20
2.22425712499788
30
0
41
1
10
55.8101391516474
20
2.37901460631903
30
0
41
1
10
55.0931039614406
20
2.6078727288961
30
0
41
1
10
54.8540885797732
20
2.68361364462862
30
0
41
1
10
54.3760714896293
20
2.83405433807883
30
0
41
1
10
54.1370814501169
20
2.90878410993426
30
0
41
1
10
53.6590247318888
20
3.05695556350949
30
0
41
1
10
53.4199985306781
20
3.13028852167645
30
0
41
1
10
52.9421012277904
20
3.27510148859113
30
0
41
1
10
52.7032112641882
20
3.34664838888935
30
0
41
1
10
51.9867388456037
20
3.5587862721043
30
0
41
1
10
51.5093505421639
20
3.69687315512391
30
0
41
1
10
50.7937775301432
20
3.89926529740066
30
0
41
1
10
50.5553507827047
20
3.9659661479553
30
0
41
1
10
50.0785307715703
20
4.09745113842806
30
0
41
1
10
49.8401028397943
20
4.16215621872502
30
0
41
1
10
49.1247122627089
20
4.35306519809723
30
0
41
1
10
48.6476840393805
20
4.4761644677935
30
0
41
1
10
47.9320889886919
20
4.65478004268149
30
0
41
1
10
47.6935513564912
20
4.71331735271516
30
0
41
1
10
47.216474901557
20
4.82839533625437
30
0
41
1
10
46.9779465465587
20
4.88495482979022
30
0
41
1
10
46.2620823380034
20
5.05106196849681
30
0
41
1
10
45.7843647056819
20
5.15685333697289
30
0
41
1
10
45.0671891129271
20
5.30838287083037
30
0
41
1
10
44.8279852872009
20
5.35770438595463
30
0
41
1
10
44.349794568808
20
5.45390118785539
30
0
41
1
10
44.1107734599722
20
5.50078825579382
30
0
41
1
10
43.6328845446285
20
5.5921285375789
30
0
41
1
10
43.3940177477963
20
5.63657957754907
30
0
41
1
10
42.9162015762423
20
5.72267558843066
30
0
41
1
10
42.6772482367385
20
5.76431884337978
30
0
41
1
10
41.9603047248864
20
5.88514315547826
30
0
41
1
10
41.4822182462862
20
5.9602087038395
30
0
41
1
10
40.7650157222574
20
6.06471042351274
30
0
41
1
10
40.5259055705948
20
6.09820400474939
30
0
41
1
10
40.0478632123462
20
6.16242051877978
30
0
41
1
10
39.808924794255
20
6.19312932842627
30
0
41
1
10
39.0920037538999
20
6.28069614416165
30
0
41
1
10
38.6139938141267
20
6.33310266863799
30
0
41
1
10
37.8969982610435
20
6.40293860671827
30
0
41
1
10
37.6580021658593
20
6.42475186461846
30
0
41
1
10
37.1800386886791
20
6.46545161850881
30
0
41
1
10
36.9410794681449
20
6.48434247908096
30
0
41
1
10
36.4631443245533
20
6.51913931003543
30
0
41
1
10
36.224107210074
20
6.53503264458647
30
0
41
1
10
35.7459713928279
20
6.56370106142757
30
0
41
1
10
35.5069679178244
20
6.57648905899288
30
0
41
1
10
34.7901799937992
20
6.61026689217869
30
0
41
1
10
34.3126091902102
20
6.62667781373713
30
0
41
1
10
33.4347959935516
20
6.64565620011933
30
0
41
1
10
33.0345050269811
20
6.64999690873955
30
0
41
1
10
32.6341570307589
20
6.64999793791395
30
0
0
SPLINE
5
CB
100
AcDbEntity
8
1
62
256
6
ByLayer
370
18
48
1
60
0
100
AcDbSpline
70
4
71
3
72
12
73
8
40
0
40
0
40
0
40
0
40
0.6700448470035
40
0.6700448470035
40
0.837556058754369
40
0.837556058754369
40
1
40
1
40
1
40
1
41
1
10
58.2
20
-6.91961925910462
30
0
41
1
10
58.8471707198279
20
-6.95495149303744
30
0
41
1
10
59.4937713513534
20
-6.97852067872594
30
0
41
1
10
60.3008236454048
20
-6.99328651828628
30
0
41
1
10
60.4621789935845
20
-6.99549891392076
30
0
41
1
10
60.7800082544838
20
-6.99838490833662
30
0
41
1
10
60.9364953743122
20
-6.99910309717618
30
0
41
1
10
61.0930063569426
20
-6.9991253048874
30
0
0
SPLINE
5
CC
100
AcDbEntity
8
1
62
256
6
ByLayer
370
18
48
1
60
0
100
AcDbSpline
70
4
71
3
72
104
73
100
40
0
40
0
40
0
40
0
40
0.0312499999999998
40
0.0312499999999998
40
0.0624999999999995
40
0.0624999999999995
40
0.0781249999999998
40
0.0781249999999998
40
0.0937500000000002
40
0.0937500000000002
40
0.125000000000001
40
0.125000000000001
40
0.156250000000001
40
0.156250000000001
40
0.171875000000002
40
0.171875000000002
40
0.187500000000002
40
0.187500000000002
40
0.203125000000002
40
0.203125000000002
40
0.218750000000003
40
0.218750000000003
40
0.234375000000003
40
0.234375000000003
40
0.250000000000003
40
0.250000000000003
40
0.281250000000005
40
0.281250000000005
40
0.312500000000006
40
0.312500000000006
40
0.328125000000007
40
0.328125000000007
40
0.343750000000007
40
0.343750000000007
40
0.375000000000007
40
0.375000000000007
40
0.390625000000006
40
0.390625000000006
40
0.406250000000006
40
0.406250000000006
40
0.421875000000005
40
0.421875000000005
40
0.437500000000004
40
0.437500000000004
40
0.468750000000003
40
0.468750000000003
40
0.484375000000003
40
0.484375000000003
40
0.500000000000002
40
0.500000000000002
40
0.531250000000001
40
0.531250000000001
40
0.546875000000001
40
0.546875000000001
40
0.5625
40
0.5625
40
0.578124999999999
40
0.578124999999999
40
0.593749999999999
40
0.593749999999999
40
0.624999999999999
40
0.624999999999999
40
0.640624999999999
40
0.640624999999999
40
0.656249999999999
40
0.656249999999999
40
0.6875
40
0.6875
40
0.718750000000001
40
0.718750000000001
40
0.734375
40
0.734375
40
0.75
40
0.75
40
0.781250000000001
40
0.781250000000001
40
0.796875000000001
40
0.796875000000001
40
0.812500000000002
40
0.812500000000002
40
0.828125000000002
40
0.828125000000002
40
0.843750000000002
40
0.843750000000002
40
0.875000000000002
40
0.875000000000002
40
0.890625000000001
40
0.890625000000001
40
0.906250000000001
40
0.906250000000001
40
0.9375
40
0.9375
40
0.953125
40
0.953125
40
0.96875
40
0.96875
40
0.984375
40
0.984375
40
1
40
1
40
1
40
1
41
1
10
15.3578155935707
20
4.88723606987048
30
0
41
1
10
15.804495373232
20
4.78192371164633
30
0
41
1
10
16.2510968150842
20
4.67332796159639
30
0
41
1
10
17.1438962496536
20
4.44920878505746
30
0
41
1
10
17.5900946456558
20
4.33368528325303
30
0
41
1
10
18.2589213884476
20
4.15481673111259
30
0
41
1
10
18.4817699143312
20
4.09422650088533
30
0
41
1
10
18.9273333856326
20
3.97121896346027
30
0
41
1
10
19.150076910949
20
3.90886630275605
30
0
41
1
10
19.8185535948354
20
3.72013073138456
30
0
41
1
10
20.2643777596634
20
3.59171787003709
30
0
41
1
10
21.1561030058834
20
3.3291130697973
30
0
41
1
10
21.6020090162151
20
3.19493274408367
30
0
41
1
10
22.2707649817895
20
2.98883137414723
30
0
41
1
10
22.4936866356838
20
2.91937381399993
30
0
41
1
10
22.939824614276
20
2.77971059285437
30
0
41
1
10
23.1630270973349
20
2.70947156790155
30
0
41
1
10
23.6096208696273
20
2.56798056000349
30
0
41
1
10
23.8330176078464
20
2.49674289127893
30
0
41
1
10
24.2799889354955
20
2.35322338399047
30
0
41
1
10
24.5035196037772
20
2.28095447433617
30
0
41
1
10
24.9502378237441
20
2.13544041179154
30
0
41
1
10
25.1734834679215
20
2.06218038327606
30
0
41
1
10
25.6197034104532
20
1.9145258998783
30
0
41
1
10
25.8426785240913
20
1.84013299053311
30
0
41
1
10
26.5116190865016
20
1.61644621395618
30
0
41
1
10
26.9576474794268
20
1.46678477574807
30
0
41
1
10
27.8494618175744
20
1.16533440485139
30
0
41
1
10
28.295279740281
20
1.01363656370108
30
0
41
1
10
28.9636689868185
20
0.784031524148929
30
0
41
1
10
29.1863888139621
20
0.707093660193266
30
0
41
1
10
29.6319248357743
20
0.553133748432714
30
0
41
1
10
29.8547780717962
20
0.476219965948616
30
0
41
1
10
30.5235651895719
20
0.245601467747065
30
0
41
1
10
30.9696793480402
20
0.091883361603891
30
0
41
1
10
31.6390858851446
20
-0.139088304989343
30
0
41
1
10
31.8622601765904
20
-0.21614620992321
30
0
41
1
10
32.3086519339696
20
-0.370501995079223
30
0
41
1
10
32.5318458438653
20
-0.447870145061756
30
0
41
1
10
32.9784101751752
20
-0.602455304736935
30
0
41
1
10
33.2018506146804
20
-0.679561753215921
30
0
41
1
10
33.6487085234155
20
-0.833016327701898
30
0
41
1
10
33.8721377786275
20
-0.909461133888669
30
0
41
1
10
34.5423812517123
20
-1.13808394763575
30
0
41
1
10
34.9891613970437
20
-1.28952328571486
30
0
41
1
10
35.6590755624438
20
-1.51572815993305
30
0
41
1
10
35.8823166409642
20
-1.59102905262148
30
0
41
1
10
36.3287774569102
20
-1.74112443027596
30
0
41
1
10
36.5520324144973
20
-1.81581968624596
30
0
41
1
10
37.2221544160312
20
-2.03806317492052
30
0
41
1
10
37.6693740733592
20
-2.18426814566507
30
0
41
1
10
38.3394607892214
20
-2.40074446503254
30
0
41
1
10
38.562731747134
20
-2.4724389198991
30
0
41
1
10
39.009060624246
20
-2.61497774859407
30
0
41
1
10
39.2321073171627
20
-2.6858522620376
30
0
41
1
10
39.6779927192727
20
-2.82672256409461
30
0
41
1
10
39.9008557474158
20
-2.89665110311876
30
0
41
1
10
40.3466872581599
20
-3.03480528258498
30
0
41
1
10
40.5696269981198
20
-3.10310928880037
30
0
41
1
10
41.2384216628632
20
-3.30597315100437
30
0
41
1
10
41.6842768388262
20
-3.4384252583842
30
0
41
1
10
42.352881604156
20
-3.63332566084486
30
0
41
1
10
42.5757176463342
20
-3.69766775417585
30
0
41
1
10
43.021296092375
20
-3.82515672962438
30
0
41
1
10
43.2440505092468
20
-3.88827179577385
30
0
41
1
10
43.9126454478254
20
-4.07469389833648
30
0
41
1
10
44.3587768662838
20
-4.19519340747351
30
0
41
1
10
45.2514791803246
20
-4.42952900514615
30
0
41
1
10
45.6980800405217
20
-4.54329641488869
30
0
41
1
10
46.3681552800886
20
-4.70920865934687
30
0
41
1
10
46.5915175053832
20
-4.76373405217609
30
0
41
1
10
47.0381752270101
20
-4.87056986070368
30
0
41
1
10
47.2615458937046
20
-4.92284008261174
30
0
41
1
10
47.9316847135111
20
-5.07644371389955
30
0
41
1
10
48.3784762245696
20
-5.17458247102579
30
0
41
1
10
49.0485567727645
20
-5.31569434067069
30
0
41
1
10
49.2718990486032
20
-5.3617140114535
30
0
41
1
10
49.7185085160069
20
-5.45176576903319
30
0
41
1
10
49.9417536341662
20
-5.49583152248044
30
0
41
1
10
50.3883578139404
20
-5.58164277256446
30
0
41
1
10
50.6117832975984
20
-5.62333154893773
30
0
41
1
10
51.0587206349144
20
-5.70425342325757
30
0
41
1
10
51.2821458509529
20
-5.74350238765433
30
0
41
1
10
51.9522566134591
20
-5.85769127178787
30
0
41
1
10
52.3987842537903
20
-5.92907406594901
30
0
41
1
10
53.0680671807706
20
-6.02924229289971
30
0
41
1
10
53.2910522605819
20
-6.06150597185081
30
0
41
1
10
53.7369623012432
20
-6.12356740908001
30
0
41
1
10
53.9599274121052
20
-6.15331895781205
30
0
41
1
10
54.6290278847892
20
-6.23858660499852
30
0
41
1
10
55.0752347837869
20
-6.29027769383225
30
0
41
1
10
55.7445932901589
20
-6.36028415039425
30
0
41
1
10
55.967720686823
20
-6.38236239373714
30
0
41
1
10
56.4139603257093
20
-6.42401156855527
30
0
41
1
10
56.6370550026101
20
-6.44359461579236
30
0
41
1
10
57.0832733282747
20
-6.48018747489635
30
0
41
1
10
57.306428652887
20
-6.49717307808933
30
0
41
1
10
57.7530486492221
20
-6.52840317132524
30
0
41
1
10
57.9764778219758
20
-6.54267317038745
30
0
41
1
10
58.1999999999995
20
-6.55561980807468
30
0
0
SPLINE
5
CD
100
AcDbEntity
8
1
62
256
6
ByLayer
370
18
48
1
60
0
100
AcDbSpline
70
4
71
3
72
82
73
78
40
0
40
0
40
0
40
0
40
0.0090015799740878
40
0.0090015799740878
40
0.0502931808085012
40
0.0502931808085012
40
0.0709389812257079
40
0.0709389812257079
40
0.0915847816429146
40
0.0915847816429146
40
0.112230582060121
40
0.112230582060121
40
0.132876382477328
40
0.132876382477328
40
0.174167983311741
40
0.174167983311741
40
0.194813783728948
40
0.194813783728948
40
0.215459584146155
40
0.215459584146155
40
0.256751184980568
40
0.256751184980568
40
0.277396985397775
40
0.277396985397775
40
0.298042785814982
40
0.298042785814982
40
0.318688586232188
40
0.318688586232188
40
0.339334386649395
40
0.339334386649395
40
0.380625987483807
40
0.380625987483807
40
0.42191758831822
40
0.42191758831822
40
0.463209189152632
40
0.463209189152632
40
0.483854989569839
40
0.483854989569839
40
0.504500789987046
40
0.504500789987046
40
0.525146590404252
40
0.525146590404252
40
0.545792390821459
40
0.545792390821459
40
0.566438191238666
40
0.566438191238666
40
0.587083991655873
40
0.587083991655873
40
0.607729792073079
40
0.607729792073079
40
0.628375592490286
40
0.628375592490286
40
0.6696671933247
40
0.6696671933247
40
0.690312993741907
40
0.690312993741907
40
0.710958794159114
40
0.710958794159114
40
0.752250394993527
40
0.752250394993527
40
0.772896195410733
40
0.772896195410733
40
0.79354199582794
40
0.79354199582794
40
0.814187796245146
40
0.814187796245146
40
0.834833596662352
40
0.834833596662352
40
0.876125197496765
40
0.876125197496765
40
0.896770997913972
40
0.896770997913972
40
0.917416798331178
40
0.917416798331178
40
0.958708399165589
40
0.958708399165589
40
1
40
1
40
1
40
1
41
1
10
47.0513977858303
20
-4.86723965955747
30
0
41
1
10
46.9473855730181
20
-4.8918157089268
30
0
41
1
10
46.8433642023964
20
-4.91618294238765
30
0
41
1
10
46.2620823380034
20
-5.05106196849684
30
0
41
1
10
45.7843647056819
20
-5.15685333697289
30
0
41
1
10
45.0671891129271
20
-5.30838287083037
30
0
41
1
10
44.8279852872008
20
-5.35770438595466
30
0
41
1
10
44.3497945688079
20
-5.45390118785542
30
0
41
1
10
44.1107734599721
20
-5.50078825579382
30
0
41
1
10
43.6328845446284
20
-5.5921285375789
30
0
41
1
10
43.3940177477963
20
-5.63657957754907
30
0
41
1
10
42.9162015762423
20
-5.72267558843066
30
0
41
1
10
42.6772482367384
20
-5.76431884337975
30
0
41
1
10
41.9603047248864
20
-5.88514315547829
30
0
41
1
10
41.4822182462861
20
-5.9602087038395
30
0
41
1
10
40.7650157222574
20
-6.06471042351274
30
0
41
1
10
40.5259055705947
20
-6.09820400474939
30
0
41
1
10
40.0478632123462
20
-6.16242051877981
30
0
41
1
10
39.808924794255
20
-6.19312932842627
30
0
41
1
10
39.0920037538999
20
-6.28069614416165
30
0
41
1
10
38.6139938141266
20
-6.33310266863799
30
0
41
1
10
37.8969982610435
20
-6.40293860671829
30
0
41
1
10
37.6580021658593
20
-6.42475186461849
30
0
41
1
10
37.1800386886791
20
-6.46545161850881
30
0
41
1
10
36.9410794681448
20
-6.48434247908096
30
0
41
1
10
36.4631443245533
20
-6.51913931003543
30
0
41
1
10
36.224107210074
20
-6.53503264458647
30
0
41
1
10
35.7459713928279
20
-6.56370106142759
30
0
41
1
10
35.5069679178244
20
-6.57648905899288
30
0
41
1
10
34.7901799937991
20
-6.61026689217869
30
0
41
1
10
34.3126091902102
20
-6.62667781373713
30
0
41
1
10
33.3582051332361
20
-6.64731210019687
30
0
41
1
10
32.8814574457776
20
-6.65149874284228
30
0
41
1
10
31.9275955615969
20
-6.647546309559
30
0
41
1
10
31.4505919946187
20
-6.63945423615169
30
0
41
1
10
30.7350743885839
20
-6.61816938228364
30
0
41
1
10
30.4965683802859
20
-6.60954706606472
30
0
41
1
10
30.0195729945063
20
-6.58922103582199
30
0
41
1
10
29.7810967110231
20
-6.57750949969881
30
0
41
1
10
29.3040331397626
20
-6.55103248043446
30
0
41
1
10
29.0654109841465
20
-6.53628533402167
30
0
41
1
10
28.5879403542238
20
-6.50382000614542
30
0
41
1
10
28.3491046545416
20
-6.48609551615394
30
0
41
1
10
27.8712464488283
20
-6.44766044810524
30
0
41
1
10
27.6322235373758
20
-6.42695027500534
30
0
41
1
10
27.1540093762437
20
-6.38251830229058
30
0
41
1
10
26.9148815378306
20
-6.35879976434342
30
0
41
1
10
26.4369826769697
20
-6.30836778434099
30
0
41
1
10
26.1981670121795
20
-6.28163544063767
30
0
41
1
10
25.7206022503979
20
-6.22532421494529
30
0
41
1
10
25.4818253200613
20
-6.19577661625732
30
0
41
1
10
24.7655283683631
20
-6.10298165555164
30
0
41
1
10
24.2880495841146
20
-6.03558337212303
30
0
41
1
10
23.5720147544843
20
-5.92607558656528
30
0
41
1
10
23.3333702214336
20
-5.88816472399293
30
0
41
1
10
22.856154789533
20
-5.80949624148076
30
0
41
1
10
22.6175861665788
20
-5.76873161732661
30
0
41
1
10
21.901648682815
20
-5.64264376134679
30
0
41
1
10
21.424028382181
20
-5.55358225330565
30
0
41
1
10
20.7072367002728
20
-5.4123455068422
30
0
41
1
10
20.4682437878628
20
-5.36399365151439
30
0
41
1
10
19.9901553919084
20
-5.2646915059012
30
0
41
1
10
19.7510147772711
20
-5.21372169216457
30
0
41
1
10
19.2730720513146
20
-5.10926998427084
30
0
41
1
10
19.0342209727556
20
-5.05579111446721
30
0
41
1
10
18.5565224086156
20
-4.94678772532322
30
0
41
1
10
18.317689784715
20
-4.89123762668095
30
0
41
1
10
17.6012842336972
20
-4.7213845762281
30
0
41
1
10
17.1237909208172
20
-4.60391090863308
30
0
41
1
10
16.407835603297
20
-4.4210875583461
30
0
41
1
10
16.1692397939583
20
-4.35902338229067
30
0
41
1
10
15.692107478131
20
-4.23274794204931
30
0
41
1
10
15.4535526993854
20
-4.16857550703526
30
0
41
1
10
14.737620172875
20
-3.97365195232956
30
0
41
1
10
14.2600728746399
20
-3.84028587600193
30
0
41
1
10
13.3046190064164
20
-3.5663819877432
30
0
41
1
10
12.8267061121027
20
-3.42585988699295
30
0
41
1
10
12.3486833988207
20
-3.28149591373764
30
0
0
SPLINE
5
CE
100
AcDbEntity
8
1
62
256
6
ByLayer
370
18
48
1
60
0
100
AcDbSpline
70
4
71
3
72
107
73
103
40
0
40
0
40
0
40
0
40
0.0625000000000066
40
0.0625000000000066
40
0.125000000000013
40
0.125000000000013
40
0.156250000000017
40
0.156250000000017
40
0.187500000000021
40
0.187500000000021
40
0.218750000000025
40
0.218750000000025
40
0.226562500000026
40
0.226562500000026
40
0.234375000000026
40
0.250000000000028
40
0.250000000000028
40
0.28125000000003
40
0.28125000000003
40
0.296875000000031
40
0.296875000000031
40
0.304687500000031
40
0.304687500000031
40
0.312500000000032
40
0.312500000000032
40
0.343750000000034
40
0.343750000000034
40
0.359375000000034
40
0.359375000000034
40
0.375000000000035
40
0.375000000000035
40
0.390625000000036
40
0.390625000000036
40
0.394531250000036
40
0.394531250000036
40
0.398437500000036
40
0.398437500000036
40
0.406250000000035
40
0.406250000000035
40
0.421875000000034
40
0.421875000000034
40
0.437500000000033
40
0.437500000000033
40
0.445312500000033
40
0.445312500000033
40
0.453125000000033
40
0.453125000000033
40
0.468750000000032
40
0.468750000000032
40
0.484375000000032
40
0.484375000000032
40
0.488281250000031
40
0.488281250000031
40
0.492187500000031
40
0.500000000000031
40
0.500000000000031
40
0.51562500000003
40
0.51562500000003
40
0.52343750000003
40
0.52343750000003
40
0.53125000000003
40
0.53125000000003
40
0.54687500000003
40
0.54687500000003
40
0.562500000000029
40
0.562500000000029
40
0.578125000000029
40
0.578125000000029
40
0.585937500000029
40
0.585937500000029
40
0.593750000000029
40
0.593750000000029
40
0.625000000000027
40
0.625000000000027
40
0.656250000000025
40
0.656250000000025
40
0.664062500000024
40
0.664062500000024
40
0.671875000000023
40
0.687500000000023
40
0.687500000000023
40
0.718750000000021
40
0.718750000000021
40
0.750000000000019
40
0.750000000000019
40
0.781250000000017
40
0.781250000000017
40
0.812500000000015
40
0.812500000000015
40
0.843750000000014
40
0.843750000000014
40
0.859375000000013
40
0.859375000000013
40
0.875000000000012
40
0.875000000000012
40
0.906250000000009
40
0.906250000000009
40
0.937500000000006
40
0.937500000000006
40
0.968750000000003
40
0.968750000000003
40
1
40
1
40
1
40
1
41
1
10
10
20
5.5242224243103
30
0
41
1
10
9.61905282339211
20
5.55967396899283
30
0
41
1
10
9.24155266860231
20
5.58550951322849
30
0
41
1
10
8.49373719884957
20
5.61557164001243
30
0
41
1
10
8.12341564730434
20
5.61983226566397
30
0
41
1
10
7.57357962470576
20
5.60662368183736
30
0
41
1
10
7.39124302338513
20
5.59893450000885
30
0
41
1
10
7.02852223859418
20
5.57608794579974
30
0
41
1
10
6.84813758343566
20
5.56093458253528
30
0
41
1
10
6.48941789973128
20
5.52194552942711
30
0
41
1
10
6.31108207978653
20
5.49811695026966
30
0
41
1
10
6.08953391623882
20
5.46184402305315
30
0
41
1
10
6.04533917091675
20
5.45427053130771
30
0
41
1
10
5.95739095417784
20
5.43849739446097
30
0
41
1
10
5.82603880428016
20
5.41388299109397
30
0
41
1
10
5.69642433160658
20
5.38630251057475
30
0
41
1
10
5.43960400764365
20
5.32686488914658
30
0
41
1
10
5.271591056278
20
5.28156587608237
30
0
41
1
10
5.02490019415268
20
5.20340222381873
30
0
41
1
10
4.94356041738806
20
5.17563888467231
30
0
41
1
10
4.82298150087749
20
5.1311422525383
30
0
41
1
10
4.78302722795894
20
5.11583414409415
30
0
41
1
10
4.70361528067912
20
5.08420929006834
30
0
41
1
10
4.66415798740067
20
5.06789058069529
30
0
41
1
10
4.46915303386783
20
4.98406079241019
30
0
41
1
10
4.31962037600141
20
4.90958433197989
30
0
41
1
10
4.10635563822464
20
4.78444984359226
30
0
41
1
10
4.03711333781507
20
4.74049217604443
30
0
41
1
10
3.90265735312511
20
4.64753994165375
30
0
41
1
10
3.83744219280655
20
4.59854747005804
30
0
41
1
10
3.71149352468257
20
4.49481774252698
30
0
41
1
10
3.65075752296536
20
4.4400840150785
30
0
41
1
10
3.57803140806229
20
4.36747940151895
30
0
41
1
10
3.56364642776259
20
4.3527483330939
30
0
41
1
10
3.53520927793119
20
4.32284744968953
30
0
41
1
10
3.52115644959653
20
4.30767544622196
30
0
41
1
10
3.47973974224723
20
4.26172651471501
30
0
41
1
10
3.45304046982608
20
4.23043769542554
30
0
41
1
10
3.37577867916679
20
4.13450986288058
30
0
41
1
10
3.32804430325817
20
4.06781529776418
30
0
41
1
10
3.24082206741042
20
3.92832573489773
30
0
41
1
10
3.20133034555573
20
3.85553368692879
30
0
41
1
10
3.14902118693095
20
3.74114659314603
30
0
41
1
10
3.13270843833976
20
3.70203666582279
30
0
41
1
10
3.10294180763259
20
3.62304406925955
30
0
41
1
10
3.0894346260792
20
3.58306322663034
30
0
41
1
10
3.05308028548583
20
3.46164302624311
30
0
41
1
10
3.03439245966777
20
3.37872828298998
30
0
41
1
10
3.00849954724464
20
3.20878379784929
30
0
41
1
10
3.00129280329674
20
3.12175465007908
30
0
41
1
10
2.99987052762441
20
3.01023481721458
30
0
41
1
10
2.99996719451042
20
2.98775322254349
30
0
41
1
10
3.00092897207506
20
2.94271004278915
30
0
41
1
10
3.00351697994245
20
2.87515942332092
30
0
41
1
10
3.00947323986881
20
2.80765004043388
30
0
41
1
10
3.0257249399146
20
2.67268454216085
30
0
41
1
10
3.04233750505503
20
2.58277817368767
30
0
41
1
10
3.07547340813187
20
2.44802597477349
30
0
41
1
10
3.08789020765417
20
2.40312657199607
30
0
41
1
10
3.11541293849913
20
2.31336510900243
30
0
41
1
10
3.13057074257884
20
2.26837667074591
30
0
41
1
10
3.17939574307499
20
2.13506998064904
30
0
41
1
10
3.21648923140714
20
2.04802085461071
30
0
41
1
10
3.29863592600555
20
1.87712707130336
30
0
41
1
10
3.34369335573965
20
1.79328412881412
30
0
41
1
10
3.44094154101958
20
1.6284835910088
30
0
41
1
10
3.49313484421498
20
1.54752703048322
30
0
41
1
10
3.57629714464588
20
1.42807326174113
30
0
41
1
10
3.60469570477244
20
1.38878227434375
30
0
41
1
10
3.66261073560247
20
1.31136546622378
30
0
41
1
10
3.69214991931176
20
1.27320717119485
30
0
41
1
10
3.8425459224535
20
1.08496920677811
30
0
41
1
10
3.97142676688827
20
0.942477941970282
30
0
41
1
10
4.24244830987428
20
0.670033918327562
30
0
41
1
10
4.38462031066683
20
0.540110771077565
30
0
41
1
10
4.56907211039967
20
0.384076547411013
30
0
41
1
10
4.60629225307247
20
0.353199582552065
30
0
41
1
10
4.68103819475402
20
0.292325527405268
30
0
41
1
10
4.79374423135405
20
0.202225860232971
30
0
41
1
10
4.90809642656336
20
0.115518210286126
30
0
41
1
10
5.13873686146857
20
-0.0539145781566788
30
0
41
1
10
5.29506924349761
20
-0.161580294369969
30
0
41
1
10
5.61180110318981
20
-0.368547621227435
30
0
41
1
10
5.77220474661556
20
-0.467840133024453
30
0
41
1
10
6.09626731549591
20
-0.659689705253072
30
0
41
1
10
6.25992823090522
20
-0.752242262341582
30
0
41
1
10
6.58985676196758
20
-0.931879391229785
30
0
41
1
10
6.75612524356382
20
-1.01896178380551
30
0
41
1
10
7.09074411575051
20
-1.18865775971625
30
0
41
1
10
7.25909473669213
20
-1.27127043437935
30
0
41
1
10
7.51287024768493
20
-1.39241809323306
30
0
41
1
10
7.59767118601462
20
-1.43233706061935
30
0
41
1
10
7.76764940129132
20
-1.51132481424807
30
0
41
1
10
7.85285101458638
20
-1.55040448447349
30
0
41
1
10
8.10870204233959
20
-1.66634440189688
30
0
41
1
10
8.27964142098801
20
-1.74193590657458
30
0
41
1
10
8.62212221343125
20
-1.89012295275705
30
0
41
1
10
8.79366338823195
20
-1.96271818469731
30
0
41
1
10
9.1373011061799
20
-2.10508824179578
30
0
41
1
10
9.30939750676282
20
-2.17486258769247
30
0
41
1
10
9.65420095933212
20
-2.31154607983709
30
0
41
1
10
9.82690805239866
20
-2.37845441393853
30
0
41
1
10
10
20
-2.44380700376726
30
0
0
SPLINE
5
CF
100
AcDbEntity
8
1
62
256
6
ByLayer
370
18
48
1
60
0
100
AcDbSpline
70
4
71
3
72
14
73
10
40
0
40
0
40
0
40
0
40
0.25
40
0.25
40
0.5
40
0.5
40
0.75
40
0.75
40
1
40
1
40
1
40
1
41
1
10
12.3486833988207
20
-3.28149591373762
30
0
41
1
10
12.1503456184721
20
-3.21979062241923
30
0
41
1
10
11.9528577550109
20
-3.15571835039239
30
0
41
1
10
11.5592430040193
20
-3.02343342698404
30
0
41
1
10
11.3631153074361
20
-2.95522293809498
30
0
41
1
10
10.9719550465842
20
-2.81512705370361
30
0
41
1
10
10.7769218698845
20
-2.74324361970392
30
0
41
1
10
10.387781413745
20
-2.59607192262101
30
0
41
1
10
10.1936738100458
20
-2.52078514400259
30
0
41
1
10
10
20
-2.44380700376726
30
0
0
SPLINE
5
D0
100
AcDbEntity
8
1
62
256
6
ByLayer
370
18
48
1
60
0
100
AcDbSpline
70
4
71
4
72
16
73
11
40
0
40
0
40
0
40
0
40
0
40
0.286598726703822
40
0.286598726703822
40
0.286598726703822
40
0.713401273296176
40
0.713401273296176
40
0.713401273296176
40
1
40
1
40
1
40
1
40
1
41
0.996506464969356
10
15.3578155935707
20
4.88723606987047
30
0
41
0.994682564109616
10
15.262591667821
20
4.50754133903303
30
0
41
0.994604295419906
10
15.1017511402546
20
3.95785247488107
30
0
41
1
10
14.8833437123238
20
3.27675054164285
30
0
41
1
10
14.3057320091085
20
1.55845628457783
30
0
41
0.988033871712585
10
13.8532494961957
20
0.282449448056605
30
0
41
1
10
13.4007669832828
20
-0.898204397663704
30
0
41
1
10
12.8231552800676
20
-2.31593400980111
30
0
41
0.994604295419906
10
12.6047478521368
20
-2.82063025791819
30
0
41
0.994682564109616
10
12.4439073245703
20
-3.14419193695245
30
0
41
0.996506464969356
10
12.3486833988207
20
-3.28149591373762
30
0
0
SPLINE
5
D1
100
AcDbEntity
8
1
62
256
6
ByLayer
370
18
48
1
60
0
100
AcDbSpline
70
4
71
3
72
20
73
16
40
0
40
0
40
0
40
0
40
0.125
40
0.125
40
0.249999999999999
40
0.249999999999999
40
0.499999999999998
40
0.499999999999998
40
0.624999999999998
40
0.624999999999998
40
0.687499999999997
40
0.687499999999997
40
0.749999999999997
40
0.749999999999997
40
1
40
1
40
1
40
1
41
1
10
10
20
5.52422242431032
30
0
41
1
10
10.2304988119912
20
5.52672569934759
30
0
41
1
10
10.4599164321796
20
5.52510695015781
30
0
41
1
10
10.9167587502299
20
5.51423057375484
30
0
41
1
10
11.1441828100276
20
5.50496874708404
30
0
41
1
10
11.8236907475978
20
5.46623216103279
30
0
41
1
10
12.2730038067774
20
5.42582212001676
30
0
41
1
10
12.9423607420863
20
5.34434684908916
30
0
41
1
10
13.1647121442205
20
5.31370355608894
30
0
41
1
10
13.497220400847
20
5.26264015016275
30
0
41
1
10
13.6078868261005
20
5.24476968440408
30
0
41
1
10
13.8289041536902
20
5.20735848216293
30
0
41
1
10
13.9393033764148
20
5.18780868696328
30
0
41
1
10
14.4899813770276
20
5.08608037027233
30
0
41
1
10
14.9255146698269
20
4.9920997791674
30
0
41
1
10
15.3578155935707
20
4.88723606987054
30
0
0
SPLINE
5
D2
100
AcDbEntity
8
SK1
62
256
6
ByLayer
370
18
48
1
60
0
100
AcDbSpline
70
4
71
3
72
31
73
27
40
0
40
0
40
0
40
0
40
0.125000000000001
40
0.125000000000001
40
0.250000000000003
40
0.250000000000003
40
0.375000000000004
40
0.375000000000004
40
0.500000000000005
40
0.500000000000005
40
0.562500000000006
40
0.562500000000006
40
0.625000000000007
40
0.687500000000007
40
0.687500000000007
40
0.718750000000008
40
0.718750000000008
40
0.750000000000008
40
0.750000000000008
40
0.875000000000003
40
0.875000000000003
40
0.937500000000001
40
0.937500000000001
40
0.96875
40
0.96875
40
1
40
1
40
1
40
1
41
1
10
-41.322846649578
20
-3.33034885603652
30
0
41
1
10
-41.2982183123488
20
-3.38803258877206
30
0
41
1
10
-41.2717267680571
20
-3.44436940557552
30
0
41
1
10
-41.2144104214618
20
-3.55410223850021
30
0
41
1
10
-41.1835888583784
20
-3.60749982049498
30
0
41
1
10
-41.1168132306847
20
-3.71101722712197
30
0
41
1
10
-41.0808655609651
20
-3.76114016706765
30
0
41
1
10
-41.0027064087883
20
-3.85761356828161
30
0
41
1
10
-40.9605092263353
20
-3.90397104557275
30
0
41
1
10
-40.8912034928284
20
-3.97008360471079
30
0
41
1
10
-40.8672955191393
20
-3.99134752800094
30
0
41
1
10
-40.8179396702517
20
-4.0320451182069
30
0
41
1
10
-40.7669822244289
20
-4.07097190163014
30
0
41
1
10
-40.7125214515213
20
-4.10609739988001
30
0
41
1
10
-40.670214663531
20
-4.13088316998613
30
0
41
1
10
-40.655868463324
20
-4.13888495820467
30
0
41
1
10
-40.6266576666279
20
-4.15434007152678
30
0
41
1
10
-40.6118286726114
20
-4.16177231338193
30
0
41
1
10
-40.5371050103957
20
-4.19714033207811
30
0
41
1
10
-40.4749740708276
20
-4.22001118907693
30
0
41
1
10
-40.3778268407505
20
-4.24538536593542
30
0
41
1
10
-40.3447830766741
20
-4.25234770684881
30
0
41
1
10
-40.2941359057272
20
-4.26035999417425
30
0
41
1
10
-40.2770624559109
20
-4.2626233218524
30
0
41
1
10
-40.2428795071773
20
-4.26626974627274
30
0
41
1
10
-40.22572940542
20
-4.26766016692457
30
0
41
1
10
-40.2085199217113
20
-4.26861273885882
30
0
0
SPLINE
5
D3
100
AcDbEntity
8
SK1
62
256
6
ByLayer
370
18
48
1
60
0
100
AcDbSpline
70
4
71
3
72
28
73
24
40
0
40
0
40
0
40
0
40
0.125000000000001
40
0.125000000000001
40
0.187500000000002
40
0.187500000000002
40
0.250000000000004
40
0.250000000000004
40
0.375000000000006
40
0.375000000000006
40
0.437500000000007
40
0.437500000000007
40
0.500000000000008
40
0.500000000000008
40
0.625000000000008
40
0.625000000000008
40
0.687500000000007
40
0.687500000000007
40
0.750000000000006
40
0.750000000000006
40
0.875000000000003
40
0.875000000000003
40
1
40
1
40
1
40
1
41
1
10
-40.2085199217113
20
4.26861273885839
30
0
41
1
10
-40.2770078954797
20
4.26482182201573
30
0
41
1
10
-40.3435159701705
20
4.25421034005257
30
0
41
1
10
-40.4406186748427
20
4.22904991330012
30
0
41
1
10
-40.4725401749683
20
4.21911183367274
30
0
41
1
10
-40.5355147747093
20
4.19619029939315
30
0
41
1
10
-40.566119882014
20
4.18336793011164
30
0
41
1
10
-40.6552476470727
20
4.1412976123425
30
0
41
1
10
-40.7112423032074
20
4.10841569067671
30
0
41
1
10
-40.7908488886551
20
4.05271054233145
30
0
41
1
10
-40.8163780326975
20
4.03326066129199
30
0
41
1
10
-40.8655003190458
20
3.99289517941517
30
0
41
1
10
-40.8891220708721
20
3.97195852720529
30
0
41
1
10
-40.9574656057434
20
3.90707900711414
30
0
41
1
10
-40.9996786915665
20
3.86107582099058
30
0
41
1
10
-41.0588219892095
20
3.78847288665983
30
0
41
1
10
-41.0778365663648
20
3.76366951078927
30
0
41
1
10
-41.1145716668491
20
3.71292056409152
30
0
41
1
10
-41.1321793223817
20
3.68713127494576
30
0
41
1
10
-41.1829286385602
20
3.60864716973444
30
0
41
1
10
-41.2140187173667
20
3.55482217194611
30
0
41
1
10
-41.2716651020537
20
3.44451721966016
30
0
41
1
10
-41.2982170704349
20
3.38803549754442
30
0
41
1
10
-41.322846649578
20
3.33034885603652
30
0
0
SPLINE
5
D4
100
AcDbEntity
8
SK1
62
256
6
ByLayer
370
18
48
1
60
0
100
AcDbSpline
70
4
71
3
72
28
73
24
40
0
40
0
40
0
40
0
40
0.250000000000005
40
0.250000000000005
40
0.312500000000006
40
0.312500000000006
40
0.375000000000007
40
0.375000000000007
40
0.5
40
0.5
40
0.624999999999992
40
0.624999999999992
40
0.65624999999999
40
0.65624999999999
40
0.687499999999989
40
0.687499999999989
40
0.749999999999985
40
0.749999999999985
40
0.874999999999993
40
0.874999999999993
40
0.937499999999996
40
0.937499999999996
40
1
40
1
40
1
40
1
41
1
10
-13.8090444171455
20
4.91381127456395
30
0
41
1
10
-13.8730250304025
20
4.99046340860016
30
0
41
1
10
-13.9444892601168
20
5.06075108627354
30
0
41
1
10
-14.0453442110783
20
5.13975030164355
30
0
41
1
10
-14.0660970839937
20
5.15510348386371
30
0
41
1
10
-14.108849096648
20
5.18487572838717
30
0
41
1
10
-14.1308767716723
20
5.19931243837365
30
0
41
1
10
-14.1987969608565
20
5.24103142381006
30
0
41
1
10
-14.2458698834865
20
5.2663349057469
30
0
41
1
10
-14.3438356225248
20
5.3117780788902
30
0
41
1
10
-14.3947259977568
20
5.33192086270162
30
0
41
1
10
-14.4609718435402
20
5.35364247707062
30
0
41
1
10
-14.4743531694453
20
5.35781325453198
30
0
41
1
10
-14.5013886431665
20
5.36579875975136
30
0
41
1
10
-14.5150720561229
20
5.36962082906823
30
0
41
1
10
-14.5562656757263
20
5.38046558406404
30
0
41
1
10
-14.5839366053628
20
5.38687714356516
30
0
41
1
10
-14.6675758493674
20
5.40367498823224
30
0
41
1
10
-14.7241681343673
20
5.41163572791979
30
0
41
1
10
-14.8103509838265
20
5.4186001914598
30
0
41
1
10
-14.839294928931
20
5.42008953290443
30
0
41
1
10
-14.8976311188396
20
5.42134736085288
30
0
41
1
10
-14.9268902583505
20
5.42110969918963
30
0
41
1
10
-14.9560809879695
20
5.42000303685279
30
0
0
SPLINE
5
D5
100
AcDbEntity
8
SK1
62
256
6
ByLayer
370
18
48
1
60
0
100
AcDbSpline
70
4
71
3
72
29
73
25
40
0
40
0
40
0
40
0
40
0.125000000000023
40
0.125000000000023
40
0.250000000000046
40
0.250000000000046
40
0.312500000000058
40
0.312500000000058
40
0.375000000000069
40
0.375000000000069
40
0.500000000000078
40
0.500000000000078
40
0.562500000000082
40
0.562500000000082
40
0.593750000000078
40
0.593750000000078
40
0.625000000000073
40
0.750000000000046
40
0.750000000000046
40
0.875000000000019
40
0.875000000000019
40
0.937500000000009
40
0.937500000000009
40
1
40
1
40
1
40
1
41
1
10
-14.9560809879695
20
-5.42000303685279
30
0
41
1
10
-14.8976517734494
20
-5.42221817199751
30
0
41
1
10
-14.8398504554356
20
-5.42094359808488
30
0
41
1
10
-14.7254362798095
20
-5.41177794727187
30
0
41
1
10
-14.6688237697278
20
-5.40388482792244
30
0
41
1
10
-14.5847891358201
20
-5.38706822462967
30
0
41
1
10
-14.5568094402394
20
-5.38059638684285
30
0
41
1
10
-14.5019506989544
20
-5.36617855475819
30
0
41
1
10
-14.4750261228712
20
-5.35823183005425
30
0
41
1
10
-14.395685497739
20
-5.33227249172961
30
0
41
1
10
-14.3446977675387
20
-5.31214836042813
30
0
41
1
10
-14.2708592175646
20
-5.27794120061839
30
0
41
1
10
-14.2466881934933
20
-5.26586656540695
30
0
41
1
10
-14.2110774186189
20
-5.24675579357759
30
0
41
1
10
-14.1993109081088
20
-5.24021577958535
30
0
41
1
10
-14.1761490644524
20
-5.22689762154863
30
0
41
1
10
-14.1190707984856
20
-5.19295097150575
30
0
41
1
10
-14.0659423088902
20
-5.15585567198329
30
0
41
1
10
-13.9853722790436
20
-5.09280324282167
30
0
41
1
10
-13.9473081932622
20
-5.05942484453377
30
0
41
1
10
-13.8932201680201
20
-5.0067258138026
30
0
41
1
10
-13.8756933478446
20
-4.98872006168716
30
0
41
1
10
-13.8416025059636
20
-4.95184585609991
30
0
41
1
10
-13.8250535884703
20
-4.9329911023857
30
0
41
1
10
-13.8090444171455
20
-4.91381127456395
30
0
0
SPLINE
5
D6
100
AcDbEntity
8
1
62
256
6
ByLayer
370
13
48
1
60
0
100
AcDbSpline
70
4
71
3
72
85
73
81
40
0
40
0
40
0
40
0
40
0.0312499999999996
40
0.0312499999999996
40
0.0624999999999992
40
0.0624999999999992
40
0.0937499999999988
40
0.0937499999999988
40
0.124999999999998
40
0.124999999999998
40
0.132812499999998
40
0.136718749999998
40
0.136718749999998
40
0.140624999999999
40
0.140624999999999
40
0.156249999999998
40
0.156249999999998
40
0.187499999999999
40
0.187499999999999
40
0.218749999999999
40
0.218749999999999
40
0.249999999999999
40
0.249999999999999
40
0.281249999999999
40
0.281249999999999
40
0.312499999999999
40
0.312499999999999
40
0.343749999999999
40
0.343749999999999
40
0.374999999999999
40
0.374999999999999
40
0.406249999999999
40
0.406249999999999
40
0.421874999999999
40
0.421874999999999
40
0.429687499999999
40
0.429687499999999
40
0.437499999999999
40
0.437499999999999
40
0.468749999999999
40
0.468749999999999
40
0.499999999999999
40
0.499999999999999
40
0.531249999999999
40
0.531249999999999
40
0.562499999999999
40
0.562499999999999
40
0.593749999999999
40
0.593749999999999
40
0.624999999999999
40
0.624999999999999
40
0.656249999999999
40
0.656249999999999
40
0.687499999999999
40
0.687499999999999
40
0.703124999999999
40
0.703124999999999
40
0.710937499999999
40
0.710937499999999
40
0.714843749999999
40
0.714843749999999
40
0.71875
40
0.71875
40
0.75
40
0.75
40
0.78125
40
0.78125
40
0.8125
40
0.8125
40
0.84375
40
0.84375
40
0.875
40
0.875
40
0.90625
40
0.90625
40
0.9375
40
0.9375
40
0.96875
40
0.96875
40
1
40
1
40
1
40
1
41
1
10
58.2
20
4.8252647541226
30
0
41
1
10
58.2703554290345
20
4.52029406789657
30
0
41
1
10
58.340710858069
20
4.18933042947347
30
0
41
1
10
58.481421716138
20
3.49269810237124
30
0
41
1
10
58.5517771451725
20
3.12713423422218
30
0
41
1
10
58.6924880032416
20
2.38073950919869
30
0
41
1
10
58.762843432276
20
2.00000117336401
30
0
41
1
10
58.903554290345
20
1.24159800138256
30
0
41
1
10
58.9739097193795
20
0.86399007085339
30
0
41
1
10
59.0618540056726
20
0.403230673299163
30
0
41
1
10
59.0882372915607
20
0.265831348336746
30
0
41
1
10
59.1146205774485
20
0.129887361756119
30
0
41
1
10
59.1322094347072
20
0.0396029723143556
30
0
41
1
10
59.1410038633365
20
-0.0052489337908526
30
0
41
1
10
59.184976006483
20
-0.230517279737228
30
0
41
1
10
59.2201537210003
20
-0.413547377913375
30
0
41
1
10
59.325686864552
20
-0.968842251614433
30
0
41
1
10
59.3960422935866
20
-1.34743527345481
30
0
41
1
10
59.5367531516555
20
-2.10622430034812
30
0
41
1
10
59.60710858069
20
-2.48635959149453
30
0
41
1
10
59.7478194387591
20
-3.22974402359543
30
0
41
1
10
59.8181748677936
20
-3.59289825004947
30
0
41
1
10
59.9588857258626
20
-4.28295074373872
30
0
41
1
10
60.0292411548971
20
-4.60974473672425
30
0
41
1
10
60.1699520129661
20
-5.20992621100095
30
0
41
1
10
60.2403074420006
20
-5.48323422467178
30
0
41
1
10
60.3810183000696
20
-5.964401473458
30
0
41
1
10
60.451373729104
20
-6.17223183104798
30
0
41
1
10
60.592084587173
20
-6.51721770184452
30
0
41
1
10
60.6624400162075
20
-6.65439870764646
30
0
41
1
10
60.8031508742766
20
-6.85971805053558
30
0
41
1
10
60.8735063033111
20
-6.92791881288687
30
0
41
1
10
60.9790394468628
20
-6.98375494488309
30
0
41
1
10
61.0142171613801
20
-6.99465892742518
30
0
41
1
10
61.066983733156
20
-7.00036070696368
30
0
41
1
10
61.0845725904146
20
-7.00050578296577
30
0
41
1
10
61.1197503049319
20
-6.9973055854137
30
0
41
1
10
61.1373391621905
20
-6.99393796869785
30
0
41
1
10
61.2252834484837
20
-6.96786886804247
30
0
41
1
10
61.2956388775182
20
-6.9173315756068
30
0
41
1
10
61.4363497355871
20
-6.74881661144283
30
0
41
1
10
61.5067051646216
20
-6.63077098244898
30
0
41
1
10
61.6474160226906
20
-6.32388278924191
30
0
41
1
10
61.7177714517252
20
-6.13500235392468
30
0
41
1
10
61.8584823097941
20
-5.68964207842768
30
0
41
1
10
61.9288377388286
20
-5.43317570901908
30
0
41
1
10
62.0695485968976
20
-4.86283106295363
30
0
41
1
10
62.1399040259321
20
-4.54902030765186
30
0
41
1
10
62.2806148840011
20
-3.87993656576606
30
0
41
1
10
62.3509703130356
20
-3.52476449449171
30
0
41
1
10
62.4916811711046
20
-2.79204354153774
30
0
41
1
10
62.5620366001391
20
-2.41459522706441
30
0
41
1
10
62.7027474582081
20
-1.65638656651205
30
0
41
1
10
62.7731028872426
20
-1.27569765447089
30
0
41
1
10
62.8786360307944
20
-0.714454296659596
30
0
41
1
10
62.9138137453117
20
-0.528977078685074
30
0
41
1
10
62.9665803170875
20
-0.254402589156314
30
0
41
1
10
62.9841691743461
20
-0.163482485408252
30
0
41
1
10
63.0105524602341
20
-0.0281439673049135
30
0
41
1
10
63.0193468888634
20
0.0166926083728356
30
0
41
1
10
63.036935746122
20
0.106859269628558
30
0
41
1
10
63.0457301747513
20
0.152116967990622
30
0
41
1
10
63.1248800324151
20
0.560907606594355
30
0
41
1
10
63.1952354614497
20
0.934920975529309
30
0
41
1
10
63.3359463195186
20
1.69056743395421
30
0
41
1
10
63.4063017485531
20
2.07215486831876
30
0
41
1
10
63.5470126066222
20
2.82543107176176
30
0
41
1
10
63.6173680356567
20
3.19703541717948
30
0
41
1
10
63.7580788937257
20
3.91095895652262
30
0
41
1
10
63.8284343227601
20
4.25317348473899
30
0
41
1
10
63.9691451808292
20
4.88998943623085
30
0
41
1
10
64.0395006098637
20
5.18449852318463
30
0
41
1
10
64.1802114679326
20
5.71172254239443
30
0
41
1
10
64.2505668969672
20
5.94438841621366
30
0
41
1
10
64.3912777550362
20
6.34012127788895
30
0
41
1
10
64.4616331840707
20
6.50319504292483
30
0
41
1
10
64.6023440421396
20
6.75897516274208
30
0
41
1
10
64.6726994711742
20
6.8517333779921
30
0
41
1
10
64.8134103292432
20
6.97220964208148
30
0
41
1
10
64.8837657582777
20
7
30
0
41
1
10
64.9541211873122
20
7
30
0
0
SPLINE
5
D7
100
AcDbEntity
8
1
62
256
6
ByLayer
370
13
48
1
60
0
100
AcDbSpline
70
4
71
3
72
85
73
81
40
0
40
0
40
0
40
0
40
0.0312500000000016
40
0.0312500000000016
40
0.0625000000000033
40
0.0625000000000033
40
0.0703125000000035
40
0.0703125000000035
40
0.0781250000000037
40
0.0781250000000037
40
0.093750000000004
40
0.093750000000004
40
0.125000000000005
40
0.125000000000005
40
0.156250000000005
40
0.156250000000005
40
0.187500000000006
40
0.187500000000006
40
0.218750000000007
40
0.218750000000007
40
0.250000000000007
40
0.250000000000007
40
0.281250000000008
40
0.281250000000008
40
0.312500000000009
40
0.312500000000009
40
0.343750000000009
40
0.343750000000009
40
0.37500000000001
40
0.37500000000001
40
0.37890625000001
40
0.37890625000001
40
0.38281250000001
40
0.38281250000001
40
0.390625000000011
40
0.390625000000011
40
0.406250000000011
40
0.406250000000011
40
0.437500000000011
40
0.437500000000011
40
0.468750000000012
40
0.468750000000012
40
0.500000000000013
40
0.500000000000013
40
0.531250000000013
40
0.531250000000013
40
0.562500000000014
40
0.562500000000014
40
0.593750000000015
40
0.593750000000015
40
0.625000000000015
40
0.625000000000015
40
0.656250000000016
40
0.656250000000016
40
0.687500000000016
40
0.687500000000016
40
0.691406250000016
40
0.691406250000016
40
0.695312500000016
40
0.703125000000016
40
0.703125000000016
40
0.718750000000015
40
0.718750000000015
40
0.750000000000013
40
0.750000000000013
40
0.781250000000012
40
0.781250000000012
40
0.81250000000001
40
0.81250000000001
40
0.843750000000008
40
0.843750000000008
40
0.875000000000007
40
0.875000000000007
40
0.906250000000005
40
0.906250000000005
40
0.937500000000003
40
0.937500000000003
40
0.968750000000002
40
0.968750000000002
40
1
40
1
40
1
40
1
41
1
10
58.2
20
2.34338432232011
30
0
41
1
10
58.2651570563239
20
1.99377582435929
30
0
41
1
10
58.3303141126478
20
1.64065616596514
30
0
41
1
10
58.4606282252956
20
0.941107377556904
30
0
41
1
10
58.5257852816195
20
0.594708800001939
30
0
41
1
10
58.6072316020244
20
0.172755150988536
30
0
41
1
10
58.6235208661054
20
0.0889087679991007
30
0
41
1
10
58.6560993942673
20
-0.0775569044616304
30
0
41
1
10
58.6723886583483
20
-0.161296419013297
30
0
41
1
10
58.7212564505913
20
-0.414319801328588
30
0
41
1
10
58.7538349787532
20
-0.585199064486744
30
0
41
1
10
58.8515705632391
20
-1.10253835040342
30
0
41
1
10
58.916727619563
20
-1.45378751862333
30
0
41
1
10
59.0470417322108
20
-2.15659982802387
30
0
41
1
10
59.1121987885346
20
-2.50811967804151
30
0
41
1
10
59.2425129011825
20
-3.19673621509443
30
0
41
1
10
59.3076699575064
20
-3.53376820591623
30
0
41
1
10
59.4379840701542
20
-4.17801589611071
30
0
41
1
10
59.5031411264781
20
-4.48516006226831
30
0
41
1
10
59.633455239126
20
-5.0556916976856
30
0
41
1
10
59.6986122954498
20
-5.31902088464417
30
0
41
1
10
59.8289264080976
20
-5.79146124753962
30
0
41
1
10
59.8940834644216
20
-6.00054405944627
30
0
41
1
10
60.0243975770694
20
-6.35886571155382
30
0
41
1
10
60.0895546333932
20
-6.50811155701189
30
0
41
1
10
60.219868746041
20
-6.74629740114096
30
0
41
1
10
60.2850258023649
20
-6.83527261770672
30
0
41
1
10
60.4153399150128
20
-6.9569481447503
30
0
41
1
10
60.4804969713367
20
-6.98969735875872
30
0
41
1
10
60.553798659701
20
-6.99893695945207
30
0
41
1
10
60.5619432917415
20
-6.99958165102794
30
0
41
1
10
60.5782325558225
20
-7.00012329313239
30
0
41
1
10
60.586377187863
20
-7.00002266480539
30
0
41
1
10
60.6108110839844
20
-6.99859666974285
30
0
41
1
10
60.6271003480654
20
-6.99614144928555
30
0
41
1
10
60.6759681403084
20
-6.98407240381158
30
0
41
1
10
60.7085466684703
20
-6.96975063369004
30
0
41
1
10
60.8062822529562
20
-6.90658093149838
30
0
41
1
10
60.87143930928
20
-6.83741798605087
30
0
41
1
10
61.0017534219278
20
-6.639796342235
30
0
41
1
10
61.0669104782518
20
-6.51129598533919
30
0
41
1
10
61.1972245908996
20
-6.19376484490394
30
0
41
1
10
61.2623816472235
20
-6.00471610913428
30
0
41
1
10
61.3926957598713
20
-5.56986758342956
30
0
41
1
10
61.4578528161952
20
-5.32408403149131
30
0
41
1
10
61.5881669288431
20
-4.78461691873073
30
0
41
1
10
61.6533239851669
20
-4.4909828650556
30
0
41
1
10
61.7836380978147
20
-3.86873460332046
30
0
41
1
10
61.8487951541386
20
-3.54018970046613
30
0
41
1
10
61.9791092667865
20
-2.86326377050369
30
0
41
1
10
62.0442663231104
20
-2.51495183823906
30
0
41
1
10
62.1745804357582
20
-1.81370485940505
30
0
41
1
10
62.2397374920821
20
-1.46082143872158
30
0
41
1
10
62.3700516047299
20
-0.763842428753009
30
0
41
1
10
62.4352086610538
20
-0.419772917124845
30
0
41
1
10
62.5085103494182
20
-0.0435001240943791
30
0
41
1
10
62.5166549814587
20
-0.0019421910456572
30
0
41
1
10
62.5329442455396
20
0.0814565824691158
30
0
41
1
10
62.5573781416611
20
0.207007602809057
30
0
41
1
10
62.5818120377826
20
0.333841637082969
30
0
41
1
10
62.6306798300255
20
0.589000328378745
30
0
41
1
10
62.6632583581874
20
0.761099938719582
30
0
41
1
10
62.7609939426733
20
1.28138587165168
30
0
41
1
10
62.8261509989972
20
1.63364134765098
30
0
41
1
10
62.956465111645
20
2.33608035280534
30
0
41
1
10
63.0216221679689
20
2.68621633282228
30
0
41
1
10
63.1519362806167
20
3.36943283435568
30
0
41
1
10
63.2170933369407
20
3.70244622113896
30
0
41
1
10
63.3474074495884
20
4.33611740065933
30
0
41
1
10
63.4125645059123
20
4.6367044689745
30
0
41
1
10
63.5428786185602
20
5.1920440324227
30
0
41
1
10
63.6080356748841
20
5.44674240329567
30
0
41
1
10
63.7383497875319
20
5.9005973696797
30
0
41
1
10
63.8035068438558
20
6.0997316179232
30
0
41
1
10
63.9338209565036
20
6.43771949572394
30
0
41
1
10
63.9989780128275
20
6.5765857414647
30
0
41
1
10
64.1292921254753
20
6.79441260940393
30
0
41
1
10
64.1944491817992
20
6.87341189731382
30
0
41
1
10
64.324763294447
20
6.97618074524999
30
0
41
1
10
64.3899203507709
20
7
30
0
41
1
10
64.4550774070948
20
7
30
0
0
SPLINE
5
D8
100
AcDbEntity
8
1
62
256
6
ByLayer
370
13
48
1
60
0
100
AcDbSpline
70
4
71
3
72
78
73
74
40
0
40
0
40
0
40
0
40
0.0312500000000002
40
0.0312500000000002
40
0.0625000000000004
40
0.0625000000000004
40
0.0937500000000007
40
0.0937500000000007
40
0.125000000000001
40
0.125000000000001
40
0.156250000000001
40
0.156250000000001
40
0.187500000000001
40
0.187500000000001
40
0.218750000000001
40
0.218750000000001
40
0.250000000000002
40
0.250000000000002
40
0.281250000000002
40
0.281250000000002
40
0.312500000000002
40
0.312500000000002
40
0.320312500000002
40
0.320312500000002
40
0.328125000000002
40
0.328125000000002
40
0.343750000000002
40
0.343750000000002
40
0.375000000000002
40
0.375000000000002
40
0.406250000000002
40
0.406250000000002
40
0.437500000000002
40
0.437500000000002
40
0.468750000000002
40
0.468750000000002
40
0.500000000000002
40
0.500000000000002
40
0.531250000000002
40
0.531250000000002
40
0.562500000000002
40
0.562500000000002
40
0.593750000000002
40
0.593750000000002
40
0.625000000000001
40
0.625000000000001
40
0.656250000000001
40
0.656250000000001
40
0.664062500000001
40
0.664062500000001
40
0.671875000000001
40
0.671875000000001
40
0.687500000000001
40
0.687500000000001
40
0.718750000000001
40
0.718750000000001
40
0.750000000000001
40
0.750000000000001
40
0.781250000000001
40
0.781250000000001
40
0.812500000000001
40
0.812500000000001
40
0.843750000000001
40
0.843750000000001
40
0.875000000000001
40
0.875000000000001
40
0.90625
40
0.90625
40
0.9375
40
0.9375
40
0.96875
40
0.96875
40
1
40
1
40
1
40
1
41
1
10
58.2
20
-0.299382134654451
30
0
41
1
10
58.2599586836133
20
-0.610673244687973
30
0
41
1
10
58.3199173672267
20
-0.929263882151872
30
0
41
1
10
58.4398347344532
20
-1.57252917851042
30
0
41
1
10
58.4997934180665
20
-1.89718434328839
30
0
41
1
10
58.6197107852931
20
-2.54199134248762
30
0
41
1
10
58.6796694689064
20
-2.86210826943099
30
0
41
1
10
58.7995868361331
20
-3.48600731730104
30
0
41
1
10
58.8595455197463
20
-3.78974394431077
30
0
41
1
10
58.9794628869729
20
-4.36903701344289
30
0
41
1
10
59.0394215705863
20
-4.64454698717947
30
0
41
1
10
59.1593389378129
20
-5.15694787622257
30
0
41
1
10
59.2192976214262
20
-5.3938027231068
30
0
41
1
10
59.3392149886528
20
-5.82114272853124
30
0
41
1
10
59.3991736722662
20
-6.01161086988563
30
0
41
1
10
59.5190910394928
20
-6.3419401896252
30
0
41
1
10
59.579049723106
20
-6.48180590644495
30
0
41
1
10
59.6989670903327
20
-6.7103966927813
30
0
41
1
10
59.758925773946
20
-6.79914382578295
30
0
41
1
10
59.8788431411726
20
-6.92824735800642
30
0
41
1
10
59.9388018247859
20
-6.96863532412237
30
0
41
1
10
60.0137501793025
20
-6.99212352619668
30
0
41
1
10
60.0287398502059
20
-6.9954759102815
30
0
41
1
10
60.0587191920125
20
-6.99958666093943
30
0
41
1
10
60.0737088629158
20
-7.00034819484767
30
0
41
1
10
60.1186778756258
20
-6.9988725435133
30
0
41
1
10
60.1486572174324
20
-6.99282076745243
30
0
41
1
10
60.2385952428524
20
-6.95829758630882
30
0
41
1
10
60.2985539264657
20
-6.9133914549509
30
0
41
1
10
60.4184712936923
20
-6.77485925090005
30
0
41
1
10
60.4784299773056
20
-6.6812021484925
30
0
41
1
10
60.5983473445323
20
-6.44268544400214
30
0
41
1
10
60.6583060281456
20
-6.29780517064242
30
0
41
1
10
60.7782233953722
20
-5.95769088996568
30
0
41
1
10
60.8381820789855
20
-5.76245436154895
30
0
41
1
10
60.9580994462122
20
-5.32618322722701
30
0
41
1
10
61.0180581298255
20
-5.08516771935868
30
0
41
1
10
61.1379754970521
20
-4.56536010870596
30
0
41
1
10
61.1979341806654
20
-4.28660554661835
30
0
41
1
10
61.3178515478919
20
-3.70193847685061
30
0
41
1
10
61.3778102315053
20
-3.39607284778325
30
0
41
1
10
61.4977275987319
20
-2.76909353278168
30
0
41
1
10
61.5576862823452
20
-2.44802466953277
30
0
41
1
10
61.6776036495718
20
-1.80242036078295
30
0
41
1
10
61.7375623331851
20
-1.47791844367555
30
0
41
1
10
61.8574797004118
20
-0.835893771322532
30
0
41
1
10
61.917438384025
20
-0.518388951529289
30
0
41
1
10
61.9923867385416
20
-0.131073933325183
30
0
41
1
10
62.007376409445
20
-0.0542567685813822
30
0
41
1
10
62.0373557512517
20
0.0990785103035137
30
0
41
1
10
62.052345422155
20
0.17626187991462
30
0
41
1
10
62.0973144348649
20
0.409196989359799
30
0
41
1
10
62.1272937766715
20
0.566338368385487
30
0
41
1
10
62.2172318020915
20
1.04184968123394
30
0
41
1
10
62.2771904857049
20
1.36437119268018
30
0
41
1
10
62.3971078529315
20
2.01093814690674
30
0
41
1
10
62.4570665365447
20
2.33495689386848
30
0
41
1
10
62.5769839037714
20
2.97324022070077
30
0
41
1
10
62.6369425873847
20
3.28746419227355
30
0
41
1
10
62.7568599546113
20
3.89414972198159
30
0
41
1
10
62.8168186382246
20
4.18656395365159
30
0
41
1
10
62.9367360054513
20
4.73824356519128
30
0
41
1
10
62.9966946890645
20
4.99746581930177
30
0
41
1
10
63.1166120562911
20
5.47339800443245
30
0
41
1
10
63.1765707399045
20
5.69007971064426
30
0
41
1
10
63.2964881071311
20
6.07469953916825
30
0
41
1
10
63.3564467907444
20
6.24263048302447
30
0
41
1
10
63.476364157971
20
6.5271986204051
30
0
41
1
10
63.5363228415843
20
6.6438490809474
30
0
41
1
10
63.6562402088109
20
6.82688709141016
30
0
41
1
10
63.7161988924242
20
6.89330209005698
30
0
41
1
10
63.8361162596508
20
6.97984204014276
30
0
41
1
10
63.8960749432641
20
7
30
0
41
1
10
63.9560336268775
20
7
30
0
0
SPLINE
5
D9
100
AcDbEntity
8
1
62
256
6
ByLayer
370
13
48
1
60
0
100
AcDbSpline
70
4
71
3
72
77
73
73
40
0
40
0
40
0
40
0
40
0.0312499999999999
40
0.0312499999999999
40
0.0624999999999998
40
0.0624999999999998
40
0.0937499999999998
40
0.0937499999999998
40
0.125
40
0.125
40
0.15625
40
0.15625
40
0.1875
40
0.1875
40
0.21875
40
0.21875
40
0.25
40
0.25
40
0.2578125
40
0.2578125
40
0.265625
40
0.265625
40
0.28125
40
0.28125
40
0.3125
40
0.3125
40
0.34375
40
0.34375
40
0.375
40
0.375
40
0.40625
40
0.40625
40
0.4375
40
0.4375
40
0.46875
40
0.46875
40
0.5
40
0.5
40
0.53125
40
0.53125
40
0.5625
40
0.5625
40
0.59375
40
0.59375
40
0.625
40
0.625
40
0.6328125
40
0.6328125
40
0.640625
40
0.65625
40
0.65625
40
0.6875
40
0.6875
40
0.71875
40
0.71875
40
0.75
40
0.75
40
0.78125
40
0.78125
40
0.8125
40
0.8125
40
0.84375
40
0.84375
40
0.875
40
0.875
40
0.90625
40
0.90625
40
0.9375
40
0.9375
40
0.96875
40
0.96875
40
1
40
1
40
1
40
1
41
1
10
58.2
20
-2.96172577897039
30
0
41
1
10
58.2547603109027
20
-3.24972669317842
30
0
41
1
10
58.3095206218055
20
-3.53201554678392
30
0
41
1
10
58.4190412436109
20
-4.07610540702402
30
0
41
1
10
58.4738015545136
20
-4.33787624345408
30
0
41
1
10
58.583322176319
20
-4.83248111382929
30
0
41
1
10
58.6380824872217
20
-5.06528871828223
30
0
41
1
10
58.7476031090271
20
-5.49506163438036
30
0
41
1
10
58.8023634199298
20
-5.69200975087733
30
0
41
1
10
58.9118840417353
20
-6.04537584172905
30
0
41
1
10
58.966644352638
20
-6.20178892813004
30
0
41
1
10
59.0761649744434
20
-6.47195494335656
30
0
41
1
10
59.1309252853461
20
-6.5857150444227
30
0
41
1
10
59.2404459071515
20
-6.77096452359504
30
0
41
1
10
59.2952062180542
20
-6.84247003217658
30
0
41
1
10
59.4047268398596
20
-6.94575550607362
30
0
41
1
10
59.4594871507623
20
-6.9775560371944
30
0
41
1
10
59.5279375393907
20
-6.9950609620476
30
0
41
1
10
59.5416276171164
20
-6.99745264636553
30
0
41
1
10
59.5690077725677
20
-7.00009199821278
30
0
41
1
10
59.5826978502934
20
-7.00034660716113
30
0
41
1
10
59.6237680834705
20
-6.99795688475916
30
0
41
1
10
59.6511482389218
20
-6.99211151561823
30
0
41
1
10
59.7332887052759
20
-6.9609349276534
30
0
41
1
10
59.7880490161786
20
-6.92191795474165
30
0
41
1
10
59.897569637984
20
-6.8035778190266
30
0
41
1
10
59.9523299488866
20
-6.72423456994179
30
0
41
1
10
60.0618505706921
20
-6.52305366242857
30
0
41
1
10
60.1166108815947
20
-6.40120123777135
30
0
41
1
10
60.2261315034002
20
-6.11504927485333
30
0
41
1
10
60.2808918143029
20
-5.95074467360561
30
0
41
1
10
60.3904124361083
20
-5.58228475176438
30
0
41
1
10
60.4451727470111
20
-5.37813672525849
30
0
41
1
10
60.5546933688165
20
-4.93510979720782
30
0
41
1
10
60.6094536797192
20
-4.69625016263973
30
0
41
1
10
60.7189743015246
20
-4.19104007384715
30
0
41
1
10
60.7737346124273
20
-3.92471722108783
30
0
41
1
10
60.8832552342328
20
-3.37322097583771
30
0
41
1
10
60.9380155451354
20
-3.088077764242
30
0
41
1
10
61.0475361669409
20
-2.50809106116401
30
0
41
1
10
61.1022964778435
20
-2.21327442885459
30
0
41
1
10
61.211817099649
20
-1.6227234307147
30
0
41
1
10
61.2665774105516
20
-1.32700837769306
30
0
41
1
10
61.3760980323571
20
-0.742368558852235
30
0
41
1
10
61.4308583432598
20
-0.453453900046782
30
0
41
1
10
61.4993087318883
20
-0.100422129546359
30
0
41
1
10
61.5129988096139
20
-0.0304522276960597
30
0
41
1
10
61.5403789650652
20
0.109729409335813
30
0
41
1
10
61.5814491982422
20
0.321280906377467
30
0
41
1
10
61.6225194314193
20
0.536309154950033
30
0
41
1
10
61.7046598977733
20
0.969893378661794
30
0
41
1
10
61.7594202086761
20
1.26369912458435
30
0
41
1
10
61.8689408304814
20
1.85371184535953
30
0
41
1
10
61.9237011413841
20
2.14990318977536
30
0
41
1
10
62.0332217631896
20
2.73628590658498
30
0
41
1
10
62.0879820740923
20
3.02645310915921
30
0
41
1
10
62.1975026958977
20
3.59169795147318
30
0
41
1
10
62.2522630068004
20
3.86674610768858
30
0
41
1
10
62.3617836286058
20
4.39279480958874
30
0
41
1
10
62.4165439395085
20
4.64376595789247
30
0
41
1
10
62.5260645613139
20
5.11373991209885
30
0
41
1
10
62.5808248722166
20
5.33271947336513
30
0
41
1
10
62.690345494022
20
5.73263971034382
30
0
41
1
10
62.7451058049248
20
5.91356799485447
30
0
41
1
10
62.8546264267303
20
6.23371587195712
30
0
41
1
10
62.9093867376329
20
6.37293568402748
30
0
41
1
10
63.0189073594383
20
6.60858371973464
30
0
41
1
10
63.0736676703411
20
6.70502324157044
30
0
41
1
10
63.1831882921465
20
6.85643314194354
30
0
41
1
10
63.2379486030492
20
6.91142201819983
30
0
41
1
10
63.3474692248546
20
6.98319491243058
30
0
41
1
10
63.4022295357573
20
7
30
0
41
1
10
63.45698984666
20
7
30
0
0
SPLINE
5
DA
100
AcDbEntity
8
1
62
256
6
ByLayer
370
13
48
1
60
0
100
AcDbSpline
70
4
71
3
72
78
73
74
40
0
40
0
40
0
40
0
40
0.03125
40
0.03125
40
0.0625
40
0.0625
40
0.09375
40
0.09375
40
0.125
40
0.125
40
0.15625
40
0.15625
40
0.171875
40
0.171875
40
0.1796875
40
0.1796875
40
0.1875
40
0.1875
40
0.21875
40
0.21875
40
0.25
40
0.25
40
0.28125
40
0.28125
40
0.3125
40
0.3125
40
0.34375
40
0.34375
40
0.375
40
0.375
40
0.40625
40
0.40625
40
0.4375
40
0.4375
40
0.46875
40
0.46875
40
0.5
40
0.5
40
0.53125
40
0.53125
40
0.5625
40
0.5625
40
0.578125
40
0.578125
40
0.5859375
40
0.5859375
40
0.59375
40
0.59375
40
0.625
40
0.625
40
0.65625
40
0.65625
40
0.6875
40
0.6875
40
0.71875
40
0.71875
40
0.75
40
0.75
40
0.78125
40
0.78125
40
0.8125
40
0.8125
40
0.84375
40
0.84375
40
0.875
40
0.875
40
0.90625
40
0.90625
40
0.9375
40
0.9375
40
0.96875
40
0.96875
40
1
40
1
40
1
40
1
41
1
10
58.2
20
-5.30443221833102
30
0
41
1
10
58.2495619381921
20
-5.49769701807222
30
0
41
1
10
58.2991238763842
20
-5.6761928339815
30
0
41
1
10
58.3982477527684
20
-6.00017783907484
30
0
41
1
10
58.4478096909605
20
-6.14566361752821
30
0
41
1
10
58.5469335673448
20
-6.40184992864863
30
0
41
1
10
58.5964955055369
20
-6.51255380472634
30
0
41
1
10
58.6956193819211
20
-6.69910755856085
30
0
41
1
10
58.7451813201132
20
-6.7749661515542
30
0
41
1
10
58.8443051964974
20
-6.89328313586333
30
0
41
1
10
58.8938671346896
20
-6.93575344098582
30
0
41
1
10
58.9682100419777
20
-6.97640226843356
30
0
41
1
10
58.9929910110738
20
-6.98611733877783
30
0
41
1
10
59.0301624647179
20
-6.99524698386199
30
0
41
1
10
59.0425529492659
20
-6.99738340241777
30
0
41
1
10
59.067333918362
20
-6.99989798286026
30
0
41
1
10
59.0797244029101
20
-7.00027935472892
30
0
41
1
10
59.1416768256502
20
-6.99789613066264
30
0
41
1
10
59.1912387638423
20
-6.98210168340643
30
0
41
1
10
59.2903626402265
20
-6.91937106404805
30
0
41
1
10
59.3399245784186
20
-6.872422068822
30
0
41
1
10
59.4390484548028
20
-6.74486634921334
30
0
41
1
10
59.4886103929949
20
-6.66424801266734
30
0
41
1
10
59.5877342693791
20
-6.46808645583533
30
0
41
1
10
59.6372962075712
20
-6.35253514385698
30
0
41
1
10
59.7364200839555
20
-6.08679400525807
30
0
41
1
10
59.7859820221476
20
-5.93660171207816
30
0
41
1
10
59.8851058985318
20
-5.60358453326594
30
0
41
1
10
59.9346678367239
20
-5.42076402906798
30
0
41
1
10
60.0337917131081
20
-5.02619076078304
30
0
41
1
10
60.0833536513003
20
-4.81444904892274
30
0
41
1
10
60.1824775276844
20
-4.36719440382461
30
0
41
1
10
60.2320394658766
20
-4.13169751988141
30
0
41
1
10
60.3311633422608
20
-3.64313990199992
30
0
41
1
10
60.3807252804529
20
-3.39009746398006
30
0
41
1
10
60.4798491568371
20
-2.87317585938857
30
0
41
1
10
60.5294110950292
20
-2.60931418997888
30
0
41
1
10
60.6285349714134
20
-2.0774523748882
30
0
41
1
10
60.6780969096055
20
-1.80946640462386
30
0
41
1
10
60.7772207859897
20
-1.27554127347741
30
0
41
1
10
60.826782724182
20
-1.00961150479807
30
0
41
1
10
60.9011256314701
20
-0.616237634507769
30
0
41
1
10
60.9259066005661
20
-0.486025482016288
30
0
41
1
10
60.9630780542102
20
-0.292498598210187
30
0
41
1
10
60.9754685387582
20
-0.228287656701497
30
0
41
1
10
61.0002495078543
20
-0.100525707965602
30
0
41
1
10
61.0126399924022
20
-0.0371304843288556
30
0
41
1
10
61.0745924151424
20
0.279808617509559
30
0
41
1
10
61.1241543533345
20
0.539031002725352
30
0
41
1
10
61.2232782297187
20
1.06451210105178
30
0
41
1
10
61.2728401679108
20
1.33076614890461
30
0
41
1
10
61.371964044295
20
1.86493792068313
30
0
41
1
10
61.4215259824872
20
2.13284590003522
30
0
41
1
10
61.5206498588714
20
2.66410106089845
30
0
41
1
10
61.5702117970636
20
2.92743377668305
30
0
41
1
10
61.6693356734478
20
3.44282779565523
30
0
41
1
10
61.7188976116399
20
3.69487145548271
30
0
41
1
10
61.8180214880241
20
4.18097943916462
30
0
41
1
10
61.8675834262162
20
4.41502552292135
30
0
41
1
10
61.9667073026004
20
4.85898223873738
30
0
41
1
10
62.0162692407926
20
5.06887708683107
30
0
41
1
10
62.1153931171767
20
5.4594493497747
30
0
41
1
10
62.1649550553689
20
5.64011613542988
30
0
41
1
10
62.2640789317531
20
5.96863037172
30
0
41
1
10
62.3136408699452
20
6.11647392613122
30
0
41
1
10
62.4127647463293
20
6.37744255293069
30
0
41
1
10
62.4623266845215
20
6.49057053353079
30
0
41
1
10
62.5614505609058
20
6.68192525791036
30
0
41
1
10
62.6110124990979
20
6.76016041040521
30
0
41
1
10
62.7101363754821
20
6.88308719137035
30
0
41
1
10
62.7596983136742
20
6.92779058842888
30
0
41
1
10
62.8588221900584
20
6.98624057863233
30
0
41
1
10
62.9083841282505
20
7
30
0
41
1
10
62.9579460664426
20
7
30
0
0
SPLINE
5
DB
100
AcDbEntity
8
1
62
256
6
ByLayer
370
13
48
1
60
0
100
AcDbSpline
70
4
71
3
72
10
73
6
40
0
40
0
40
0
40
0
40
0.5
40
0.5
40
1
40
1
40
1
40
1
41
1
10
65.6856570908713
20
7
30
0
41
1
10
65.7300823024155
20
7
30
0
41
1
10
65.7745075139597
20
6.9889493987053
30
0
41
1
10
65.8633579370481
20
6.94226400475731
30
0
41
1
10
65.9077831485923
20
6.90662178463742
30
0
41
1
10
65.9522083601365
20
6.85769976026677
30
0
0
SPLINE
5
DC
100
AcDbEntity
8
1
62
256
6
ByLayer
370
13
48
1
60
0
100
AcDbSpline
70
4
71
3
72
78
73
74
40
0
40
0
40
0
40
0
40
0.031250000000001
40
0.031250000000001
40
0.062500000000002
40
0.062500000000002
40
0.0781250000000027
40
0.0781250000000027
40
0.0859375000000029
40
0.0859375000000029
40
0.093750000000003
40
0.093750000000003
40
0.125000000000003
40
0.125000000000003
40
0.156250000000003
40
0.156250000000003
40
0.187500000000003
40
0.187500000000003
40
0.218750000000003
40
0.218750000000003
40
0.250000000000003
40
0.250000000000003
40
0.281250000000003
40
0.281250000000003
40
0.312500000000002
40
0.312500000000002
40
0.343750000000002
40
0.343750000000002
40
0.375000000000002
40
0.375000000000002
40
0.406250000000002
40
0.406250000000002
40
0.437500000000002
40
0.437500000000002
40
0.468750000000002
40
0.468750000000002
40
0.500000000000002
40
0.500000000000002
40
0.531250000000002
40
0.531250000000002
40
0.539062500000002
40
0.539062500000002
40
0.546875000000001
40
0.546875000000001
40
0.562500000000001
40
0.562500000000001
40
0.593750000000001
40
0.593750000000001
40
0.625000000000001
40
0.625000000000001
40
0.656250000000001
40
0.656250000000001
40
0.687500000000001
40
0.687500000000001
40
0.718750000000001
40
0.718750000000001
40
0.750000000000001
40
0.750000000000001
40
0.781250000000001
40
0.781250000000001
40
0.812500000000001
40
0.812500000000001
40
0.84375
40
0.84375
40
0.875
40
0.875
40
0.90625
40
0.90625
40
0.9375
40
0.9375
40
0.96875
40
0.96875
40
1
40
1
40
1
40
1
41
1
10
58.2
20
-6.69895781267164
30
0
41
1
10
58.2443635654815
20
-6.77142711674429
30
0
41
1
10
58.288727130963
20
-6.83009303672685
30
0
41
1
10
58.3774542619261
20
-6.92113738861568
30
0
41
1
10
58.4218178274076
20
-6.95352292894449
30
0
41
1
10
58.4883631756298
20
-6.98391879897429
30
0
41
1
10
58.5105449583706
20
-6.9910252299766
30
0
41
1
10
58.5438176324817
20
-6.99737381051341
30
0
41
1
10
58.5549085238521
20
-6.9987717113255
30
0
41
1
10
58.5770903065928
20
-7.00017113150889
30
0
41
1
10
58.5881811979633
20
-7.00017779323949
30
0
41
1
10
58.6436356548152
20
-6.99674736386785
30
0
41
1
10
58.6879992202967
20
-6.9828188143633
30
0
41
1
10
58.7767263512597
20
-6.93017264221231
30
0
41
1
10
58.8210899167412
20
-6.89144763753853
30
0
41
1
10
58.9098170477042
20
-6.78731969879698
30
0
41
1
10
58.9541806131857
20
-6.72190987186144
30
0
41
1
10
59.0429077441487
20
-6.56328703035885
30
0
41
1
10
59.0872713096303
20
-6.47006866937699
30
0
41
1
10
59.1759984405933
20
-6.25565490482293
30
0
41
1
10
59.2203620060748
20
-6.13445673513661
30
0
41
1
10
59.3090891370378
20
-5.86498647949568
30
0
41
1
10
59.3534527025193
20
-5.71671496692497
30
0
41
1
10
59.4421798334824
20
-5.39511358900975
30
0
41
1
10
59.4865433989639
20
-5.22178789009493
30
0
41
1
10
59.5752705299269
20
-4.85313544924264
30
0
41
1
10
59.6196340954085
20
-4.65781609119711
30
0
41
1
10
59.7083612263715
20
-4.24910004501217
30
0
41
1
10
59.752724791853
20
-4.03571299746687
30
0
41
1
10
59.841451922816
20
-3.59539208446588
30
0
41
1
10
59.8858154882976
20
-3.36846878013279
30
0
41
1
10
59.9745426192606
20
-2.90590420689742
30
0
41
1
10
60.018906184742
20
-2.67027301552372
30
0
41
1
10
60.107633315705
20
-2.19510489547272
30
0
41
1
10
60.1519968811866
20
-1.95557638960915
30
0
41
1
10
60.2407240121496
20
-1.47712750728468
30
0
41
1
10
60.2850875776312
20
-1.23821316301579
30
0
41
1
10
60.3738147085942
20
-0.76498887601673
30
0
41
1
10
60.4181782740757
20
-0.530682334647906
30
0
41
1
10
60.4736327309275
20
-0.242762337810376
30
0
41
1
10
60.4847236222979
20
-0.185424778913102
30
0
41
1
10
60.5069054050388
20
-0.0712876045232349
30
0
41
1
10
60.5179962964091
20
-0.0146653157941046
30
0
41
1
10
60.5512689705202
20
0.155709510880627
30
0
41
1
10
60.5734507532609
20
0.270413377803493
30
0
41
1
10
60.6399961014832
20
0.617346359891201
30
0
41
1
10
60.6843596669648
20
0.852418375394279
30
0
41
1
10
60.7730867979278
20
1.32671324539325
30
0
41
1
10
60.8174503634093
20
1.56593237556703
30
0
41
1
10
60.9061774943723
20
2.04445706154729
30
0
41
1
10
60.9505410598538
20
2.28375626635798
30
0
41
1
10
61.0392681908169
20
2.75788159604642
30
0
41
1
10
61.0836317562984
20
2.99269904337305
30
0
41
1
10
61.1723588872614
20
3.45303334761655
30
0
41
1
10
61.2167224527429
20
3.67853999644117
30
0
41
1
10
61.3054495837059
20
4.11544405759997
30
0
41
1
10
61.3498131491875
20
4.32683094488689
30
0
41
1
10
61.4385402801504
20
4.73102175894491
30
0
41
1
10
61.482903845632
20
4.92381625689865
30
0
41
1
10
61.571630976595
20
5.28698836371316
30
0
41
1
10
61.6159945420765
20
5.45735894531691
30
0
41
1
10
61.7047216730396
20
5.77274075688453
30
0
41
1
10
61.749085238521
20
5.91774825789722
30
0
41
1
10
61.8378123694841
20
6.18051723951433
30
0
41
1
10
61.8821759349656
20
6.29827858588953
30
0
41
1
10
61.9709030659286
20
6.50578287087617
30
0
41
1
10
62.0152666314101
20
6.59552894419821
30
0
41
1
10
62.1039937623731
20
6.74729775137229
30
0
41
1
10
62.1483573278547
20
6.80932608189232
30
0
41
1
10
62.2370844588177
20
6.90688745831437
30
0
41
1
10
62.2814480242992
20
6.94242751298569
30
0
41
1
10
62.3701751552623
20
6.98898009580393
30
0
41
1
10
62.4145387207437
20
7
30
0
41
1
10
62.4589022862252
20
7
30
0
0
SPLINE
5
DD
100
AcDbEntity
8
1
62
256
6
ByLayer
370
13
48
1
60
0
100
AcDbSpline
70
4
71
3
72
14
73
10
40
0
40
0
40
0
40
0
40
0.25
40
0.25
40
0.5
40
0.5
40
0.75
40
0.75
40
1
40
1
40
1
40
1
41
1
10
65.1866133106539
20
7
30
0
41
1
10
65.2504128981108
20
7
30
0
41
1
10
65.3142124855677
20
6.97716666008478
30
0
41
1
10
65.4418116604814
20
6.87877769656365
30
0
41
1
10
65.5056112479384
20
6.80317725745093
30
0
41
1
10
65.6332104228521
20
6.59474026741282
30
0
41
1
10
65.697010010309
20
6.46186818957617
30
0
41
1
10
65.8246091852228
20
6.13825516113667
30
0
41
1
10
65.8884087726797
20
5.94750104483023
30
0
41
1
10
65.9522083601366
20
5.72982636016425
30
0
0
SPLINE
5
DE
100
AcDbEntity
8
1
62
256
6
ByLayer
370
13
48
1
60
0
100
AcDbSpline
70
4
71
3
72
42
73
38
40
0
40
0
40
0
40
0
40
0.0625000000000001
40
0.0625000000000001
40
0.125
40
0.125
40
0.1875
40
0.1875
40
0.25
40
0.25
40
0.3125
40
0.3125
40
0.375
40
0.375
40
0.4375
40
0.4375
40
0.46875
40
0.46875
40
0.484375
40
0.484375
40
0.5
40
0.5
40
0.5625
40
0.5625
40
0.625
40
0.625
40
0.6875
40
0.6875
40
0.75
40
0.75
40
0.8125
40
0.8125
40
0.875
40
0.875
40
0.9375
40
0.9375
40
1
40
1
40
1
40
1
41
1
10
58.2000000000001
20
-6.97395603955869
30
0
41
1
10
58.2783303855419
20
-6.93829620744398
30
0
41
1
10
58.3566607710837
20
-6.86467059785582
30
0
41
1
10
58.5133215421673
20
-6.63172461096096
30
0
41
1
10
58.5916519277091
20
-6.47229916885593
30
0
41
1
10
58.7483126987928
20
-6.0661141251357
30
0
41
1
10
58.8266430843347
20
-5.81932327167237
30
0
41
1
10
58.9833038554183
20
-5.24739063613683
30
0
41
1
10
59.0616342409601
20
-4.92232244609451
30
0
41
1
10
59.2182950120438
20
-4.21288304308487
30
0
41
1
10
59.2966253975856
20
-3.82866936105606
30
0
41
1
10
59.4532861686692
20
-3.02644929538226
30
0
41
1
10
59.5316165542111
20
-2.60861985943333
30
0
41
1
10
59.6882773252947
20
-1.76585135354031
30
0
41
1
10
59.7666077108366
20
-1.34104274000546
30
0
41
1
10
59.8841032891494
20
-0.715756809581364
30
0
41
1
10
59.9232684819202
20
-0.509274957697897
30
0
41
1
10
59.9820162710766
20
-0.204172600899284
30
0
41
1
10
60.0015988674621
20
-0.103238557404495
30
0
41
1
10
60.0407640602331
20
0.0968534922215269
30
0
41
1
10
60.0603466566184
20
0.197714990332401
30
0
41
1
10
60.1582596385457
20
0.706055742893597
30
0
41
1
10
60.2365900240875
20
1.12529734277419
30
0
41
1
10
60.3932507951712
20
1.96917845548916
30
0
41
1
10
60.4715811807131
20
2.39372524795183
30
0
41
1
10
60.6282419517967
20
3.22302116565177
30
0
41
1
10
60.7065723373386
20
3.62761031939786
30
0
41
1
10
60.8632331084222
20
4.39023894191402
30
0
41
1
10
60.941563493964
20
4.74810176514342
30
0
41
1
10
61.0982242650477
20
5.39425145560273
30
0
41
1
10
61.1765546505895
20
5.68241623379186
30
0
41
1
10
61.3332154216732
20
6.17462323123831
30
0
41
1
10
61.4115458072151
20
6.37864469032226
30
0
41
1
10
61.5682065782987
20
6.69877634247976
30
0
41
1
10
61.6465369638405
20
6.81496054203944
30
0
41
1
10
61.8031977349241
20
6.96551161597992
30
0
41
1
10
61.881528120466
20
7
30
0
41
1
10
61.9598585060078
20
7
30
0
0
SPLINE
5
DF
100
AcDbEntity
8
1
62
256
6
ByLayer
370
13
48
1
60
0
100
AcDbSpline
70
4
71
3
72
22
73
18
40
0
40
0
40
0
40
0
40
0.125
40
0.125
40
0.25
40
0.25
40
0.375
40
0.375
40
0.5
40
0.5
40
0.625
40
0.625
40
0.75
40
0.75
40
0.875
40
0.875
40
1
40
1
40
1
40
1
41
1
10
64.6875695304365
20
7
30
0
41
1
10
64.7402628150074
20
7
30
0
41
1
10
64.7929560995782
20
6.98444268776146
30
0
41
1
10
64.8983426687199
20
6.91813930520402
30
0
41
1
10
64.9510359532907
20
6.86737583119267
30
0
41
1
10
65.0564225224324
20
6.72766703278347
30
0
41
1
10
65.1091158070032
20
6.63870614183583
30
0
41
1
10
65.2145023761449
20
6.4212300637875
30
0
41
1
10
65.2671956607157
20
6.29270468658834
30
0
41
1
10
65.3725822298574
20
5.99674809341718
30
0
41
1
10
65.4252755144282
20
5.82931516859537
30
0
41
1
10
65.5306620835699
20
5.4584023814424
30
0
41
1
10
65.5833553681408
20
5.25493080687238
30
0
41
1
10
65.6887419372824
20
4.81691520314195
30
0
41
1
10
65.7414352218533
20
4.58238860260576
30
0
41
1
10
65.8468217909949
20
4.08896147413887
30
0
41
1
10
65.8995150755658
20
3.83008434547864
30
0
41
1
10
65.9522083601366
20
3.56291821018343
30
0
0
SPLINE
5
E0
100
AcDbEntity
8
1
62
256
6
ByLayer
370
13
48
1
60
0
100
AcDbSpline
70
4
71
3
72
40
73
36
40
0
40
0
40
0
40
0
40
0.0625000000000005
40
0.0625000000000005
40
0.125000000000001
40
0.125000000000001
40
0.187500000000002
40
0.187500000000002
40
0.250000000000002
40
0.250000000000002
40
0.312500000000003
40
0.312500000000003
40
0.375000000000003
40
0.375000000000003
40
0.406250000000003
40
0.406250000000003
40
0.437500000000003
40
0.437500000000003
40
0.500000000000003
40
0.500000000000003
40
0.562500000000003
40
0.562500000000003
40
0.625000000000002
40
0.625000000000002
40
0.687500000000002
40
0.687500000000002
40
0.750000000000001
40
0.750000000000001
40
0.812500000000001
40
0.812500000000001
40
0.875000000000001
40
0.875000000000001
40
0.9375
40
0.9375
40
1
40
1
40
1
40
1
41
1
10
58.2
20
-6.19187632404635
30
0
41
1
10
58.2679336401207
20
-6.00648970760932
30
0
41
1
10
58.3358672802413
20
-5.78852012752628
30
0
41
1
10
58.4717345604825
20
-5.29371799778465
30
0
41
1
10
58.5396682006032
20
-5.01692121656029
30
0
41
1
10
58.6755354808444
20
-4.41645494189746
30
0
41
1
10
58.7434691209651
20
-4.09285888691323
30
0
41
1
10
58.8793364012064
20
-3.41480503757288
30
0
41
1
10
58.947270041327
20
-3.06043550879369
30
0
41
1
10
59.0831373215683
20
-2.33834246465193
30
0
41
1
10
59.1510709616889
20
-1.97069554857023
30
0
41
1
10
59.2869382419302
20
-1.23848014999931
30
0
41
1
10
59.3548718820508
20
-0.873958949603036
30
0
41
1
10
59.4567723422317
20
-0.339568178455835
30
0
41
1
10
59.4907391622921
20
-0.16367344490186
30
0
41
1
10
59.5586728024127
20
0.183532345478767
30
0
41
1
10
59.592639622473
20
0.359806154349627
30
0
41
1
10
59.6945400826539
20
0.894657710987701
30
0
41
1
10
59.7624737227745
20
1.2593755526043
30
0
41
1
10
59.8983410030158
20
1.9916954912517
30
0
41
1
10
59.9662746431364
20
2.35924966958544
30
0
41
1
10
60.1021419233777
20
3.08082677557832
30
0
41
1
10
60.1700755634984
20
3.43477267394678
30
0
41
1
10
60.3059428437397
20
4.11165124186633
30
0
41
1
10
60.3738764838603
20
4.43449567003054
30
0
41
1
10
60.5097437641016
20
5.03318421140807
30
0
41
1
10
60.5776774042222
20
5.30895542500812
30
0
41
1
10
60.7135446844634
20
5.80152811241706
30
0
41
1
10
60.7814783245841
20
6.01829466972939
30
0
41
1
10
60.9173456048254
20
6.38660048604459
30
0
41
1
10
60.985279244946
20
6.53815009053557
30
0
41
1
10
61.1211465251873
20
6.77585532566809
30
0
41
1
10
61.1890801653079
20
6.8620564593233
30
0
41
1
10
61.3249474455492
20
6.97409831839266
30
0
41
1
10
61.3928810856698
20
7
30
0
41
1
10
61.4608147257904
20
7
30
0
0
SPLINE
5
E1
100
AcDbEntity
8
1
62
256
6
ByLayer
370
13
48
1
60
0
100
AcDbSpline
70
4
71
3
72
22
73
18
40
0
40
0
40
0
40
0
40
0.125
40
0.125
40
0.25
40
0.25
40
0.375
40
0.375
40
0.5
40
0.5
40
0.625
40
0.625
40
0.75
40
0.75
40
0.875
40
0.875
40
1
40
1
40
1
40
1
41
1
10
64.1885257502191
20
7
30
0
41
1
10
64.2620125256324
20
7
30
0
41
1
10
64.3354993010456
20
6.96966740279635
30
0
41
1
10
64.482472851872
20
6.83780458294677
30
0
41
1
10
64.5559596272853
20
6.73618503114668
30
0
41
1
10
64.7029331781117
20
6.45601904583259
30
0
41
1
10
64.776419953525
20
6.27741214480952
30
0
41
1
10
64.9233935043515
20
5.84489880643136
30
0
41
1
10
64.9968802797646
20
5.59099306259037
30
0
41
1
10
65.1438538305911
20
5.01787590848431
30
0
41
1
10
65.2173406060043
20
4.69873696962065
30
0
41
1
10
65.3643141568308
20
4.01242653468631
30
0
41
1
10
65.437800932244
20
3.6453768366267
30
0
41
1
10
65.5847744830704
20
2.88476573796856
30
0
41
1
10
65.6582612584837
20
2.49133107468481
30
0
41
1
10
65.8052348093102
20
1.69981030729468
30
0
41
1
10
65.8787215847233
20
1.30181543421725
30
0
41
1
10
65.9522083601365
20
0.910889802071836
30
0
0
SPLINE
5
E2
100
AcDbEntity
8
1
62
256
6
ByLayer
370
13
48
1
60
0
100
AcDbSpline
70
4
71
3
72
42
73
38
40
0
40
0
40
0
40
0
40
0.0625000000000016
40
0.0625000000000016
40
0.125000000000003
40
0.125000000000003
40
0.187500000000005
40
0.187500000000005
40
0.250000000000006
40
0.250000000000006
40
0.281250000000007
40
0.281250000000007
40
0.296875000000007
40
0.296875000000007
40
0.312500000000007
40
0.312500000000007
40
0.375000000000006
40
0.375000000000006
40
0.437500000000006
40
0.437500000000006
40
0.500000000000005
40
0.500000000000005
40
0.562500000000004
40
0.562500000000004
40
0.625000000000004
40
0.625000000000004
40
0.687500000000003
40
0.687500000000003
40
0.750000000000003
40
0.750000000000003
40
0.812500000000002
40
0.812500000000002
40
0.875000000000001
40
0.875000000000001
40
0.937500000000001
40
0.937500000000001
40
1
40
1
40
1
40
1
41
1
10
58.2000000000001
20
-4.29918784923183
30
0
41
1
10
58.2575368946995
20
-4.02850306836311
30
0
41
1
10
58.3150737893989
20
-3.74352706743892
30
0
41
1
10
58.4301475787978
20
-3.1551619718351
30
0
41
1
10
58.4876844734971
20
-2.8518111100704
30
0
41
1
10
58.6027582628961
20
-2.23729567486055
30
0
41
1
10
58.6602951575955
20
-1.9261630901855
30
0
41
1
10
58.7753689469944
20
-1.30595824513506
30
0
41
1
10
58.8329058416939
20
-0.996906762948527
30
0
41
1
10
58.919211183743
20
-0.541130839608542
30
0
41
1
10
58.9479796310927
20
-0.390491882973777
30
0
41
1
10
58.9911323021172
20
-0.167106427649117
30
0
41
1
10
59.0055165257921
20
-0.0930724536169691
30
0
41
1
10
59.0342849731419
20
0.0540445338855591
30
0
41
1
10
59.0486691968167
20
0.127769859975757
30
0
41
1
10
59.120590315191
20
0.499314704236411
30
0
41
1
10
59.1781272098905
20
0.803613467910253
30
0
41
1
10
59.2932009992893
20
1.41906593668074
30
0
41
1
10
59.3507378939889
20
1.73020566440306
30
0
41
1
10
59.4658116833876
20
2.35024732925103
30
0
41
1
10
59.5233485780871
20
2.65912301046518
30
0
41
1
10
59.638422367486
20
3.2643305860351
30
0
41
1
10
59.6959592621854
20
3.56062680883696
30
0
41
1
10
59.8110330515843
20
4.13010019491526
30
0
41
1
10
59.8685699462837
20
4.40323881439707
30
0
41
1
10
59.9836437356826
20
4.91669421849952
30
0
41
1
10
60.0411806303821
20
5.15697810710236
30
0
41
1
10
60.1562544197809
20
5.59699902776677
30
0
41
1
10
60.2137913144804
20
5.79671630138364
30
0
41
1
10
60.3288651038793
20
6.15067305019409
30
0
41
1
10
60.3864019985787
20
6.30490955558193
30
0
41
1
10
60.5014757879775
20
6.56611840647807
30
0
41
1
10
60.559012682677
20
6.67310330596968
30
0
41
1
10
60.6740864720758
20
6.84101401779697
30
0
41
1
10
60.7316233667754
20
6.90196282334966
30
0
41
1
10
60.8466971561742
20
6.98144235305088
30
0
41
1
10
60.9042340508736
20
7
30
0
41
1
10
60.9617709455731
20
7
30
0
0
SPLINE
5
E3
100
AcDbEntity
8
1
62
256
6
ByLayer
370
13
48
1
60
0
100
AcDbSpline
70
4
71
3
72
42
73
38
40
0
40
0
40
0
40
0
40
0.0625000000000004
40
0.0625000000000004
40
0.125000000000001
40
0.125000000000001
40
0.187500000000001
40
0.187500000000001
40
0.250000000000002
40
0.250000000000002
40
0.312500000000002
40
0.312500000000002
40
0.375000000000002
40
0.375000000000002
40
0.437500000000003
40
0.437500000000003
40
0.500000000000003
40
0.500000000000003
40
0.562500000000003
40
0.562500000000003
40
0.625000000000003
40
0.625000000000003
40
0.687500000000004
40
0.687500000000004
40
0.750000000000004
40
0.750000000000004
40
0.812500000000004
40
0.812500000000004
40
0.843750000000005
40
0.843750000000005
40
0.859375000000005
40
0.859375000000005
40
0.875000000000005
40
0.875000000000005
40
0.937500000000002
40
0.937500000000002
40
1
40
1
40
1
40
1
41
1
10
63.6894819700017
20
7
30
0
41
1
10
63.7366221031295
20
7
30
0
41
1
10
63.7837622362574
20
6.98755488999669
30
0
41
1
10
63.8780425025129
20
6.93482382280453
30
0
41
1
10
63.9251826356408
20
6.89452787470861
30
0
41
1
10
64.0194629018964
20
6.7838040917286
30
0
41
1
10
64.0666030350242
20
6.71336693037952
30
0
41
1
10
64.1608833012799
20
6.54104326759091
30
0
41
1
10
64.2080234344077
20
6.43914971627044
30
0
41
1
10
64.3023037006633
20
6.20382148172709
30
0
41
1
10
64.349443833791
20
6.07038358475313
30
0
41
1
10
64.4437241000467
20
5.7732603012646
30
0
41
1
10
64.4908642331745
20
5.60957661185711
30
0
41
1
10
64.5851444994302
20
5.25466706711404
30
0
41
1
10
64.632284632558
20
5.06344803045312
30
0
41
1
10
64.7265648988135
20
4.65745690279172
30
0
41
1
10
64.7737050319413
20
4.44269593740464
30
0
41
1
10
64.867985298197
20
3.99462053255147
30
0
41
1
10
64.9151254313247
20
3.76131983785388
30
0
41
1
10
65.0094056975803
20
3.28179471789971
30
0
41
1
10
65.0565458307082
20
3.03558452386309
30
0
41
1
10
65.1508260969638
20
2.5360721944503
30
0
41
1
10
65.1979662300917
20
2.28278274247538
30
0
41
1
10
65.2922464963473
20
1.77473442651098
30
0
41
1
10
65.3393866294751
20
1.51998521900049
30
0
41
1
10
65.4336668957307
20
1.01409047427046
30
0
41
1
10
65.4808070288585
20
0.762950871167504
30
0
41
1
10
65.5515172285502
20
0.392160087812044
30
0
41
1
10
65.5750872951141
20
0.269542930463814
30
0
41
1
10
65.61044239496
20
0.0874250260538076
30
0
41
1
10
65.6222274282419
20
0.0271908594610011
30
0
41
1
10
65.6457974948059
20
-0.0934381967168179
30
0
41
1
10
65.6575825280878
20
-0.154069927138977
30
0
41
1
10
65.7165076944975
20
-0.45868391834955
30
0
41
1
10
65.7636478276253
20
-0.707067509984597
30
0
41
1
10
65.857928093881
20
-1.20930253539171
30
0
41
1
10
65.9050682270088
20
-1.46314957453077
30
0
41
1
10
65.9522083601366
20
-1.71734711376388
30
0
0
SPLINE
5
E4
100
AcDbEntity
8
1
62
256
6
ByLayer
370
13
48
1
60
0
100
AcDbSpline
70
4
71
3
72
42
73
38
40
0
40
0
40
0
40
0
40
0.0625000000000001
40
0.0625000000000001
40
0.125
40
0.125
40
0.140625
40
0.140625
40
0.156250000000001
40
0.156250000000001
40
0.1875
40
0.1875
40
0.25
40
0.25
40
0.3125
40
0.3125
40
0.375
40
0.375
40
0.4375
40
0.4375
40
0.5
40
0.5
40
0.5625
40
0.5625
40
0.625
40
0.625
40
0.6875
40
0.6875
40
0.75
40
0.75
40
0.8125
40
0.8125
40
0.875
40
0.875
40
0.9375
40
0.9375
40
1
40
1
40
1
40
1
41
1
10
58.2
20
-1.71735129404965
30
0
41
1
10
58.2471401492783
20
-1.46315366422587
30
0
41
1
10
58.2942802985565
20
-1.20930652067682
30
0
41
1
10
58.388560597113
20
-0.707071267764832
30
0
41
1
10
58.4357007463912
20
-0.458687553061509
30
0
41
1
10
58.494625932989
20
-0.154073401673884
30
0
41
1
10
58.5064109703086
20
-0.0934416388970476
30
0
41
1
10
58.5299810449478
20
0.0271874825059513
30
0
41
1
10
58.5417660822673
20
0.0874216470815838
30
0
41
1
10
58.5771211942259
20
0.269539580506603
30
0
41
1
10
58.600691268865
20
0.392156759978036
30
0
41
1
10
58.6714014927824
20
0.76294761813071
30
0
41
1
10
58.7185416420606
20
1.01408728238943
30
0
41
1
10
58.8128219406172
20
1.51998217129165
30
0
41
1
10
58.8599620898954
20
1.77473146182402
30
0
41
1
10
58.9542423884519
20
2.28277996318985
30
0
41
1
10
59.0013825377301
20
2.53606951754099
30
0
41
1
10
59.0956628362866
20
3.03558206671315
30
0
41
1
10
59.1428029855649
20
3.28179237811943
30
0
41
1
10
59.2370832841214
20
3.76131774186894
30
0
41
1
10
59.2842234333996
20
3.99461856296969
30
0
41
1
10
59.3785037319561
20
4.44269422267965
30
0
41
1
10
59.4256438812343
20
4.65745531649259
30
0
41
1
10
59.5199241797908
20
5.06344669576754
30
0
41
1
10
59.5670643290691
20
5.2546658555886
30
0
41
1
10
59.6613446276256
20
5.60957563469563
30
0
41
1
10
59.7084847769038
20
5.77325943528527
30
0
41
1
10
59.8027650754602
20
6.07038292379443
30
0
41
1
10
59.8499052247386
20
6.20382091459513
30
0
41
1
10
59.944185523295
20
6.43914931590734
30
0
41
1
10
59.9913256725732
20
6.54104294016932
30
0
41
1
10
60.0856059711297
20
6.71336672645086
30
0
41
1
10
60.132746120408
20
6.78380393836022
30
0
41
1
10
60.2270264189645
20
6.89452780046997
30
0
41
1
10
60.2741665682427
20
6.93482377715026
30
0
41
1
10
60.3684468667992
20
6.98755488145321
30
0
41
1
10
60.4155870160774
20
7
30
0
41
1
10
60.4627271653557
20
7
30
0
0
SPLINE
5
E5
100
AcDbEntity
8
1
62
256
6
ByLayer
370
13
48
1
60
0
100
AcDbSpline
70
4
71
3
72
42
73
38
40
0
40
0
40
0
40
0
40
0.0625
40
0.0625
40
0.125
40
0.125
40
0.1875
40
0.1875
40
0.25
40
0.25
40
0.3125
40
0.3125
40
0.375
40
0.375
40
0.4375
40
0.4375
40
0.5
40
0.5
40
0.5625
40
0.5625
40
0.625
40
0.625
40
0.6875
40
0.6875
40
0.703125
40
0.703125
40
0.71875
40
0.71875
40
0.75
40
0.75
40
0.8125
40
0.8125
40
0.875
40
0.875
40
0.9375
40
0.9375
40
1
40
1
40
1
40
1
41
1
10
63.1904381897844
20
7
30
0
41
1
10
63.2479750683334
20
7
30
0
41
1
10
63.3055119468823
20
6.98144236350015
30
0
41
1
10
63.4205857039804
20
6.9019628798294
30
0
41
1
10
63.4781225825294
20
6.8410141098953
30
0
41
1
10
63.5931963396274
20
6.67310349666349
30
0
41
1
10
63.6507332181764
20
6.56611866017684
30
0
41
1
10
63.7658069752744
20
6.30490996176792
30
0
41
1
10
63.8233438538234
20
6.15067354586856
30
0
41
1
10
63.9384176109215
20
5.79671699796418
30
0
41
1
10
63.9959544894704
20
5.59699983574177
30
0
41
1
10
64.1110282465684
20
5.15697915181545
30
0
41
1
10
64.1685651251174
20
4.91669538850647
30
0
41
1
10
64.2836388822154
20
4.4032402386469
30
0
41
1
10
64.3411757607645
20
4.13010174805154
30
0
41
1
10
64.4562495178625
20
3.56062861253932
30
0
41
1
10
64.5137863964114
20
3.26433251136069
30
0
41
1
10
64.6288601535094
20
2.65912516225825
30
0
41
1
10
64.6863970320585
20
2.35024958585345
30
0
41
1
10
64.8014707891566
20
1.73020810698418
30
0
41
1
10
64.8590076677055
20
1.41906846042357
30
0
41
1
10
64.9740814248035
20
0.803616126837483
30
0
41
1
10
65.0316183033525
20
0.499317417201581
30
0
41
1
10
65.1035394015388
20
0.127772623354986
30
0
41
1
10
65.117923621176
20
0.0540472886667942
30
0
41
1
10
65.1466920604506
20
-0.0930696335335313
30
0
41
1
10
65.1610762800877
20
-0.167103575223706
30
0
41
1
10
65.2042289389995
20
-0.390488934724601
30
0
41
1
10
65.232997378274
20
-0.54112782907626
30
0
41
1
10
65.3193026960976
20
-0.996903572698301
30
0
41
1
10
65.3768395746465
20
-1.30595494457063
30
0
41
1
10
65.4919133317445
20
-1.92615960125406
30
0
41
1
10
65.5494502102936
20
-2.23729210795068
30
0
41
1
10
65.6645239673915
20
-2.85180743228901
30
0
41
1
10
65.7220608459406
20
-3.15515826124218
30
0
41
1
10
65.8371346030386
20
-3.74352334617654
30
0
41
1
10
65.8946714815876
20
-4.02849936930721
30
0
41
1
10
65.9522083601366
20
-4.29918420217146
30
0
0
SPLINE
5
E6
100
AcDbEntity
8
1
62
256
6
ByLayer
370
13
48
1
60
0
100
AcDbSpline
70
4
71
3
72
22
73
18
40
0
40
0
40
0
40
0
40
0.125
40
0.125
40
0.25
40
0.25
40
0.375
40
0.375
40
0.5
40
0.5
40
0.625
40
0.625
40
0.75
40
0.75
40
0.875
40
0.875
40
1
40
1
40
1
40
1
41
1
10
58.2
20
0.910885678150635
30
0
41
1
10
58.2734868077141
20
1.30181143371018
30
0
41
1
10
58.3469736154282
20
1.69980646549374
30
0
41
1
10
58.4939472308564
20
2.4913276103689
30
0
41
1
10
58.5674340385705
20
2.8847624923815
30
0
41
1
10
58.7144076539987
20
3.64537406437981
30
0
41
1
10
58.7878944617128
20
4.01242401682174
30
0
41
1
10
58.934868077141
20
4.69873496250253
30
0
41
1
10
59.0083548848551
20
5.01787415740131
30
0
41
1
10
59.1553285002832
20
5.59099179073189
30
0
41
1
10
59.2288153079974
20
5.84489775748807
30
0
41
1
10
59.3757889234255
20
6.27741148276422
30
0
41
1
10
59.4492757311397
20
6.45601854767358
30
0
41
1
10
59.5962493465678
20
6.73618479042938
30
0
41
1
10
59.6697361542819
20
6.83780443587514
30
0
41
1
10
59.8167097697101
20
6.96966737598834
30
0
41
1
10
59.8901965774243
20
7
30
0
41
1
10
59.9636833851383
20
7
30
0
0
SPLINE
5
E7
100
AcDbEntity
8
1
62
256
6
ByLayer
370
13
48
1
60
0
100
AcDbSpline
70
4
71
3
72
40
73
36
40
0
40
0
40
0
40
0
40
0.0625
40
0.0625
40
0.125
40
0.125
40
0.1875
40
0.1875
40
0.25
40
0.25
40
0.3125
40
0.3125
40
0.375
40
0.375
40
0.4375
40
0.4375
40
0.5
40
0.5
40
0.5625
40
0.5625
40
0.59375
40
0.59375
40
0.625
40
0.625
40
0.6875
40
0.6875
40
0.75
40
0.75
40
0.8125
40
0.8125
40
0.875
40
0.875
40
0.9375
40
0.9375
40
1
40
1
40
1
40
1
41
1
10
62.691394409567
20
7
30
0
41
1
10
62.7593280335371
20
7
30
0
41
1
10
62.8272616575073
20
6.97409833076293
30
0
41
1
10
62.9631289054478
20
6.862056526863
30
0
41
1
10
63.031062529418
20
6.77585543607776
30
0
41
1
10
63.1669297773584
20
6.53815031919581
30
0
41
1
10
63.2348634013286
20
6.38660079012664
30
0
41
1
10
63.370730649269
20
6.01829515369113
30
0
41
1
10
63.4386642732392
20
5.80152870081827
30
0
41
1
10
63.5745315211796
20
5.30895624184797
30
0
41
1
10
63.6424651451497
20
5.03318515216327
30
0
41
1
10
63.7783323930901
20
4.43449686424387
30
0
41
1
10
63.8462660170604
20
4.11165256550248
30
0
41
1
10
63.9821332650008
20
3.43477424687075
30
0
41
1
10
64.050066888971
20
3.08082846826082
30
0
41
1
10
64.1859341369114
20
2.3592515793809
30
0
41
1
10
64.2538677608816
20
1.99169749834766
30
0
41
1
10
64.389735008822
20
1.25937772392177
30
0
41
1
10
64.4576686327921
20
0.894659949232704
30
0
41
1
10
64.5595690687475
20
0.35980846840539
30
0
41
1
10
64.5935358807326
20
0.183534680750256
30
0
41
1
10
64.6614695047028
20
-0.163671075156856
30
0
41
1
10
64.6954363166879
20
-0.339565699177996
30
0
41
1
10
64.7973367526432
20
-0.873956285447207
30
0
41
1
10
64.8652703766134
20
-1.23847737233086
30
0
41
1
10
65.0011376245538
20
-1.97069258174051
30
0
41
1
10
65.069071248524
20
-2.33833942231706
30
0
41
1
10
65.2049384964644
20
-3.06043237103583
30
0
41
1
10
65.2728721204346
20
-3.41480188005261
30
0
41
1
10
65.408739368375
20
-4.09285575765503
30
0
41
1
10
65.4766729923452
20
-4.41645186076494
30
0
41
1
10
65.6125402402856
20
-5.01691830202824
30
0
41
1
10
65.6804738642558
20
-5.29371520172086
30
0
41
1
10
65.8163411121962
20
-5.78851763008225
30
0
41
1
10
65.8842747361664
20
-6.00648739020011
30
0
41
1
10
65.9522083601366
20
-6.19187420851625
30
0
0
SPLINE
5
E8
100
AcDbEntity
8
1
62
256
6
ByLayer
370
13
48
1
60
0
100
AcDbSpline
70
4
71
3
72
22
73
18
40
0
40
0
40
0
40
0
40
0.125
40
0.125
40
0.25
40
0.25
40
0.375
40
0.375
40
0.5
40
0.5
40
0.625
40
0.625
40
0.75
40
0.75
40
0.875
40
0.875
40
1
40
1
40
1
40
1
41
1
10
58.2
20
3.56291427964871
30
0
41
1
10
58.2526933168717
20
3.83008065974812
30
0
41
1
10
58.3053866337434
20
4.08895804287002
30
0
41
1
10
58.4107732674868
20
4.58238568200858
30
0
41
1
10
58.4634665843585
20
4.81691253866697
30
0
41
1
10
58.568853218102
20
5.25492863829925
30
0
41
1
10
58.6215465349736
20
5.45840045256665
30
0
41
1
10
58.7269331687171
20
5.82931368693923
30
0
41
1
10
58.7796264855888
20
5.99674681922721
30
0
41
1
10
58.8850131193321
20
6.29270378372868
30
0
41
1
10
58.9377064362038
20
6.42122932477358
30
0
41
1
10
59.0430930699472
20
6.63870568103809
30
0
41
1
10
59.095786386819
20
6.72766668637416
30
0
41
1
10
59.2011730205624
20
6.86737566375467
30
0
41
1
10
59.2538663374341
20
6.91813920239201
30
0
41
1
10
59.3592529711774
20
6.98444266864192
30
0
41
1
10
59.4119462880492
20
7
30
0
41
1
10
59.4646396049209
20
7
30
0
0
SPLINE
5
E9
100
AcDbEntity
8
1
62
256
6
ByLayer
370
13
48
1
60
0
100
AcDbSpline
70
4
71
3
72
42
73
38
40
0
40
0
40
0
40
0
40
0.0624999999999992
40
0.0624999999999992
40
0.124999999999999
40
0.124999999999999
40
0.187499999999998
40
0.187499999999998
40
0.249999999999997
40
0.249999999999997
40
0.312499999999996
40
0.312499999999996
40
0.374999999999996
40
0.374999999999996
40
0.437499999999995
40
0.437499999999995
40
0.499999999999994
40
0.499999999999994
40
0.515624999999994
40
0.515624999999994
40
0.531249999999994
40
0.531249999999994
40
0.562499999999994
40
0.562499999999994
40
0.624999999999995
40
0.624999999999995
40
0.687499999999996
40
0.687499999999996
40
0.749999999999997
40
0.749999999999997
40
0.812499999999998
40
0.812499999999998
40
0.874999999999998
40
0.874999999999998
40
0.937499999999999
40
0.937499999999999
40
1
40
1
40
1
40
1
41
1
10
62.1923506293496
20
7
30
0
41
1
10
62.270680998741
20
7
30
0
41
1
10
62.3490113681324
20
6.96551163029068
30
0
41
1
10
62.5056721069152
20
6.81496062085211
30
0
41
1
10
62.5840024763066
20
6.69877647160374
30
0
41
1
10
62.7406632150894
20
6.37864495723343
30
0
41
1
10
62.8189935844808
20
6.17462358566976
30
0
41
1
10
62.9756543232635
20
5.68241679272501
30
0
41
1
10
63.0539846926549
20
5.39425213142945
30
0
41
1
10
63.2106454314377
20
4.7481026880215
30
0
41
1
10
63.2889758008291
20
4.39023999475438
30
0
41
1
10
63.4456365396119
20
3.62761162517904
30
0
41
1
10
63.5239669090033
20
3.22302259421127
30
0
41
1
10
63.6806276477861
20
2.39372689716083
30
0
41
1
10
63.7589580171775
20
1.96918020246537
30
0
41
1
10
63.9156187559603
20
1.12529924967976
30
0
41
1
10
63.9939491253517
20
0.706057711978929
30
0
41
1
10
64.0918620870909
20
0.197717013536732
30
0
41
1
10
64.1114446794388
20
0.0968555016811763
30
0
41
1
10
64.1506098641345
20
-0.103236482551978
30
0
41
1
10
64.1701924564823
20
-0.204170493761836
30
0
41
1
10
64.2289402335258
20
-0.509272755451491
30
0
41
1
10
64.2681054182216
20
-0.715754546249656
30
0
41
1
10
64.3856009723087
20
-1.34104030479216
30
0
41
1
10
64.4639313417001
20
-1.76584881895559
30
0
41
1
10
64.6205920804829
20
-2.60861718106892
30
0
41
1
10
64.6989224498743
20
-3.02644657288579
30
0
41
1
10
64.8555831886571
20
-3.82866662520192
30
0
41
1
10
64.9339135580485
20
-4.2128803382254
30
0
41
1
10
65.0905742968312
20
-4.9223198850635
30
0
41
1
10
65.1689046662226
20
-5.24738818796206
30
0
41
1
10
65.3255654050054
20
-5.81932112084544
30
0
41
1
10
65.4038957743969
20
-6.06611215859732
30
0
41
1
10
65.5605565131796
20
-6.4722976179485
30
0
41
1
10
65.638886882571
20
-6.63172329108616
30
0
41
1
10
65.7955476213538
20
-6.86466975639524
30
0
41
1
10
65.8738779907452
20
-6.93829561311154
30
0
41
1
10
65.9522083601366
20
-6.97395568663893
30
0
0
SPLINE
5
EA
100
AcDbEntity
8
1
62
256
6
ByLayer
370
13
48
1
60
0
100
AcDbSpline
70
4
71
3
72
14
73
10
40
0
40
0
40
0
40
0
40
0.25
40
0.25
40
0.5
40
0.5
40
0.75
40
0.75
40
1
40
1
40
1
40
1
41
1
10
58.2
20
5.729823715225
30
0
41
1
10
58.2637996520586
20
5.94749883677625
30
0
41
1
10
58.3275993041173
20
6.13825334805875
30
0
41
1
10
58.4551986082345
20
6.46186705351633
30
0
41
1
10
58.5189982602931
20
6.59473941337626
30
0
41
1
10
58.6465975644104
20
6.80317684514085
30
0
41
1
10
58.710397216469
20
6.87877744410278
30
0
41
1
10
58.8379965205863
20
6.97716661366746
30
0
41
1
10
58.9017961726449
20
7
30
0
41
1
10
58.9655958247035
20
7
30
0
0
SPLINE
5
EB
100
AcDbEntity
8
1
62
256
6
ByLayer
370
13
48
1
60
0
100
AcDbSpline
70
4
71
3
72
77
73
73
40
0
40
0
40
0
40
0
40
0.0312500000000005
40
0.0312500000000005
40
0.062500000000001
40
0.062500000000001
40
0.0937500000000015
40
0.0937500000000015
40
0.125000000000002
40
0.125000000000002
40
0.156250000000002
40
0.156250000000002
40
0.187500000000003
40
0.187500000000003
40
0.218750000000003
40
0.218750000000003
40
0.250000000000004
40
0.250000000000004
40
0.281250000000004
40
0.281250000000004
40
0.312500000000005
40
0.312500000000005
40
0.343750000000005
40
0.343750000000005
40
0.375000000000006
40
0.375000000000006
40
0.406250000000006
40
0.406250000000006
40
0.437500000000007
40
0.437500000000007
40
0.453125000000007
40
0.453125000000007
40
0.460937500000007
40
0.460937500000007
40
0.468750000000006
40
0.468750000000006
40
0.500000000000006
40
0.500000000000006
40
0.531250000000006
40
0.531250000000006
40
0.562500000000006
40
0.562500000000006
40
0.593750000000005
40
0.593750000000005
40
0.625000000000005
40
0.625000000000005
40
0.656250000000005
40
0.656250000000005
40
0.687500000000005
40
0.687500000000005
40
0.718750000000004
40
0.718750000000004
40
0.750000000000004
40
0.750000000000004
40
0.781250000000004
40
0.781250000000004
40
0.812500000000003
40
0.812500000000003
40
0.843750000000003
40
0.843750000000003
40
0.875000000000003
40
0.875000000000003
40
0.906250000000003
40
0.906250000000003
40
0.914062500000002
40
0.914062500000002
40
0.921875000000002
40
0.937500000000002
40
0.937500000000002
40
0.968750000000001
40
0.968750000000001
40
1
40
1
40
1
40
1
41
1
10
61.6933068491322
20
7
30
0
41
1
10
61.7376704065385
20
7
30
0
41
1
10
61.7820339639448
20
6.98898009982221
30
0
41
1
10
61.8707610787574
20
6.9424275343884
30
0
41
1
10
61.9151246361636
20
6.9068874930899
30
0
41
1
10
62.0038517509762
20
6.80932615366766
30
0
41
1
10
62.0482153083825
20
6.74729784678061
30
0
41
1
10
62.1369424231951
20
6.59552909741944
30
0
41
1
10
62.1813059806015
20
6.50578305828134
30
0
41
1
10
62.2700330954141
20
6.29827885173253
30
0
41
1
10
62.3143966528203
20
6.18051754961192
30
0
41
1
10
62.4031237676329
20
5.91774866525199
30
0
41
1
10
62.4474873250392
20
5.77274121723857
30
0
41
1
10
62.5362144398518
20
5.45735951828769
30
0
41
1
10
62.5805779972581
20
5.28698899629418
30
0
41
1
10
62.6693051120707
20
4.92381701254146
30
0
41
1
10
62.713668669477
20
4.73102257802915
30
0
41
1
10
62.8023957842896
20
4.32683189153715
30
0
41
1
10
62.8467593416959
20
4.11544506836367
30
0
41
1
10
62.9354864565085
20
3.67854113290258
30
0
41
1
10
62.9798500139148
20
3.45303454565203
30
0
41
1
10
63.0685771287273
20
2.99270035908901
30
0
41
1
10
63.1129406861336
20
2.75788296786129
30
0
41
1
10
63.2016678009462
20
2.28375774250938
30
0
41
1
10
63.2460313583525
20
2.04445858593243
30
0
41
1
10
63.334758473165
20
1.56593398688258
30
0
41
1
10
63.3791220305714
20
1.32671489540525
30
0
41
1
10
63.467849145384
20
0.85242009236427
30
0
41
1
10
63.5122127027903
20
0.617348105125558
30
0
41
1
10
63.5787580388998
20
0.270415157486354
30
0
41
1
10
63.6009398176029
20
0.15571130072712
30
0
41
1
10
63.6342124856576
20
-0.0146635126520493
30
0
41
1
10
63.6453033750092
20
-0.0712857820397232
30
0
41
1
10
63.6674851537123
20
-0.185422924104643
30
0
41
1
10
63.6785760430639
20
-0.242760466975824
30
0
41
1
10
63.7340304898219
20
-0.530680384503228
30
0
41
1
10
63.7783940472281
20
-0.764986865035326
30
0
41
1
10
63.8671211620407
20
-1.23821103937337
30
0
41
1
10
63.911484719447
20
-1.47712533182863
30
0
41
1
10
64.0002118342596
20
-1.95557412352628
30
0
41
1
10
64.0445753916658
20
-2.19510259059015
30
0
41
1
10
64.1333025064785
20
-2.67027064984776
30
0
41
1
10
64.1776660638848
20
-2.9059018192423
30
0
41
1
10
64.2663931786973
20
-3.36846636851988
30
0
41
1
10
64.3107567361036
20
-3.59538967088736
30
0
41
1
10
64.3994838509162
20
-4.03571060211641
30
0
41
1
10
64.4438474083225
20
-4.24909766986426
30
0
41
1
10
64.5325745231351
20
-4.65781377939777
30
0
41
1
10
64.5769380805414
20
-4.85313318059193
30
0
41
1
10
64.665665195354
20
-5.22178572991669
30
0
41
1
10
64.7100287527603
20
-5.3951114941508
30
0
41
1
10
64.7987558675729
20
-5.71671302258832
30
0
41
1
10
64.8431194249792
20
-5.86498462035118
30
0
41
1
10
64.9318465397918
20
-6.134455062683
30
0
41
1
10
64.9762100971981
20
-6.25565333385305
30
0
41
1
10
65.0649372120106
20
-6.47006731321736
30
0
41
1
10
65.109300769417
20
-6.56328578750956
30
0
41
1
10
65.1980278842295
20
-6.72190886260674
30
0
41
1
10
65.2423914416358
20
-6.78731880981192
30
0
41
1
10
65.3311185564484
20
-6.89144699126834
30
0
41
1
10
65.3754821138547
20
-6.93017211837622
30
0
41
1
10
65.4642092286673
20
-6.98281853323834
30
0
41
1
10
65.5085727860736
20
-6.99674720301326
30
0
41
1
10
65.5640272328316
20
-7.00017777912751
30
0
41
1
10
65.575118122183
20
-7.00017114634929
30
0
41
1
10
65.5972999008862
20
-6.99877178589259
30
0
41
1
10
65.630572568941
20
-6.99457861170228
30
0
41
1
10
65.6638452369956
20
-6.98391906303436
30
0
41
1
10
65.7303905731051
20
-6.95352339671908
30
0
41
1
10
65.7747541305114
20
-6.92113800297744
30
0
41
1
10
65.863481245324
20
-6.83009396357932
30
0
41
1
10
65.9078448027303
20
-6.77142820950252
30
0
41
1
10
65.9522083601366
20
-6.69895907901827
30
0
0
SPLINE
5
EC
100
AcDbEntity
8
1
62
256
6
ByLayer
370
13
48
1
60
0
100
AcDbSpline
70
4
71
3
72
10
73
6
40
0
40
0
40
0
40
0
40
0.5
40
0.5
40
1
40
1
40
1
40
1
41
1
10
58.2
20
6.85769890657511
30
0
41
1
10
58.2444253407477
20
6.90662122739855
30
0
41
1
10
58.2888506814954
20
6.94226366180902
30
0
41
1
10
58.3777013629907
20
6.98894933432243
30
0
41
1
10
58.4221267037384
20
7
30
0
41
1
10
58.4665520444861
20
7
30
0
0
SPLINE
5
ED
100
AcDbEntity
8
1
62
256
6
ByLayer
370
13
48
1
60
0
100
AcDbSpline
70
4
71
3
72
76
73
72
40
0
40
0
40
0
40
0
40
0.0312500000000003
40
0.0312500000000003
40
0.0625000000000006
40
0.0625000000000006
40
0.0937500000000009
40
0.0937500000000009
40
0.125000000000001
40
0.125000000000001
40
0.156250000000001
40
0.156250000000001
40
0.187500000000002
40
0.187500000000002
40
0.218750000000002
40
0.218750000000002
40
0.250000000000002
40
0.250000000000002
40
0.281250000000003
40
0.281250000000003
40
0.312500000000003
40
0.312500000000003
40
0.343750000000003
40
0.343750000000003
40
0.375000000000003
40
0.375000000000003
40
0.406250000000004
40
0.406250000000004
40
0.414062500000004
40
0.414062500000004
40
0.421875000000004
40
0.437500000000004
40
0.437500000000004
40
0.468750000000003
40
0.468750000000003
40
0.500000000000003
40
0.500000000000003
40
0.531250000000003
40
0.531250000000003
40
0.562500000000003
40
0.562500000000003
40
0.593750000000003
40
0.593750000000003
40
0.625000000000003
40
0.625000000000003
40
0.656250000000003
40
0.656250000000003
40
0.687500000000002
40
0.687500000000002
40
0.718750000000002
40
0.718750000000002
40
0.750000000000002
40
0.750000000000002
40
0.781250000000002
40
0.781250000000002
40
0.812500000000002
40
0.812500000000002
40
0.820312500000002
40
0.820312500000002
40
0.828125000000002
40
0.843750000000002
40
0.843750000000002
40
0.875000000000001
40
0.875000000000001
40
0.906250000000001
40
0.906250000000001
40
0.937500000000001
40
0.937500000000001
40
0.96875
40
0.96875
40
1
40
1
40
1
40
1
41
1
10
61.1942630689148
20
7
30
0
41
1
10
61.2438249990317
20
7
30
0
41
1
10
61.2933869291486
20
6.98624058312546
30
0
41
1
10
61.3925107893824
20
6.92779061250582
30
0
41
1
10
61.4420727194992
20
6.88308723054843
30
0
41
1
10
61.5411965797331
20
6.76016049139926
30
0
41
1
10
61.5907585098499
20
6.6819253656281
30
0
41
1
10
61.6898823700837
20
6.490570706413
30
0
41
1
10
61.7394443002006
20
6.37744276425823
30
0
41
1
10
61.8385681604344
20
6.11647422504475
30
0
41
1
10
61.8881300905513
20
5.96863071977239
30
0
41
1
10
61.9872539507851
20
5.64011659025877
30
0
41
1
10
62.036815880902
20
5.45944986223233
30
0
41
1
10
62.1359397411358
20
5.06887771983304
30
0
41
1
10
62.1855016712527
20
4.85898293464032
30
0
41
1
10
62.2846255314865
20
4.41502634604652
30
0
41
1
10
62.3341874616034
20
4.18098032659381
30
0
41
1
10
62.4333113218372
20
3.69487246891245
30
0
41
1
10
62.482873251954
20
3.44282887076557
30
0
41
1
10
62.5819971121878
20
2.92743496887297
30
0
41
1
10
62.6315590423047
20
2.66410230847609
30
0
41
1
10
62.7306829025385
20
2.13284724920868
30
0
41
1
10
62.7802448326555
20
1.86493931605972
30
0
41
1
10
62.8793686928892
20
1.33076762563618
30
0
41
1
10
62.928930623006
20
1.06451361293637
30
0
41
1
10
63.0280544832398
20
0.539032573074167
30
0
41
1
10
63.0776164133567
20
0.279810211175374
30
0
41
1
10
63.1395688260029
20
-0.0371288688060645
30
0
41
1
10
63.151959308532
20
-0.100524069158809
30
0
41
1
10
63.1767402735906
20
-0.228285985686995
30
0
41
1
10
63.2139117211782
20
-0.420917686921285
30
0
41
1
10
63.2510831687659
20
-0.616235869564264
30
0
41
1
10
63.3254260639412
20
-1.0096096508631
30
0
41
1
10
63.3749879940581
20
-1.27553936447367
30
0
41
1
10
63.4741118542919
20
-1.80946439892492
30
0
41
1
10
63.5236737844087
20
-2.07745032758291
30
0
41
1
10
63.6227976446426
20
-2.6093120777378
30
0
41
1
10
63.6723595747595
20
-2.87317372384067
30
0
41
1
10
63.7714834349933
20
-3.39009530415578
30
0
41
1
10
63.8210453651101
20
-3.64313774122641
30
0
41
1
10
63.9201692253439
20
-4.131695382169
30
0
41
1
10
63.9697311554608
20
-4.36719229013528
30
0
41
1
10
64.0688550156946
20
-4.81444700890657
30
0
41
1
10
64.1184169458115
20
-5.02618877041834
30
0
41
1
10
64.2175408060453
20
-5.42076216211927
30
0
41
1
10
64.2671027361622
20
-5.603582740071
30
0
41
1
10
64.366226596396
20
-5.93660008694894
30
0
41
1
10
64.4157885265129
20
-6.08679247442032
30
0
41
1
10
64.5149123867467
20
-6.35253381704601
30
0
41
1
10
64.5644743168636
20
-6.46808523873452
30
0
41
1
10
64.6635981770974
20
-6.66424702446048
30
0
41
1
10
64.7131601072142
20
-6.74486548016614
30
0
41
1
10
64.812283967448
20
-6.87242144149988
30
0
41
1
10
64.8618458975649
20
-6.91937055927264
30
0
41
1
10
64.9609697577987
20
-6.98210142161923
30
0
41
1
10
65.0105316879157
20
-6.9978959893059
30
0
41
1
10
65.0724841005617
20
-7.00027935977951
30
0
41
1
10
65.0848745830909
20
-6.99989801710643
30
0
41
1
10
65.1096555481494
20
-6.99738349722716
30
0
41
1
10
65.1468269957371
20
-6.99097506191072
30
0
41
1
10
65.1839984433247
20
-6.97640255642551
30
0
41
1
10
65.2583413385
20
-6.93575393792321
30
0
41
1
10
65.3079032686169
20
-6.89328378401703
30
0
41
1
10
65.4070271288508
20
-6.77496712271699
30
0
41
1
10
65.4565890589677
20
-6.69910870151688
30
0
41
1
10
65.5557129192015
20
-6.51255530618025
30
0
41
1
10
65.6052748493183
20
-6.40185161679363
30
0
41
1
10
65.7043987095522
20
-6.14566568606196
30
0
41
1
10
65.753960639669
20
-6.00018010127837
30
0
41
1
10
65.8530844999028
20
-5.6761954810099
30
0
41
1
10
65.9026464300197
20
-5.49769985621742
30
0
41
1
10
65.9522083601366
20
-5.30443524127247
30
0
0
SPLINE
5
EE
100
AcDbEntity
8
1
62
256
6
ByLayer
370
13
48
1
60
0
100
AcDbSpline
70
4
71
3
72
78
73
74
40
0
40
0
40
0
40
0
40
0.0312499999999997
40
0.0312499999999997
40
0.0624999999999995
40
0.0624999999999995
40
0.0937499999999992
40
0.0937499999999992
40
0.124999999999999
40
0.124999999999999
40
0.156249999999999
40
0.156249999999999
40
0.187499999999999
40
0.187499999999999
40
0.218749999999998
40
0.218749999999998
40
0.249999999999998
40
0.249999999999998
40
0.281249999999998
40
0.281249999999998
40
0.312499999999998
40
0.312499999999998
40
0.343749999999997
40
0.343749999999997
40
0.359374999999997
40
0.359374999999997
40
0.367187499999997
40
0.367187499999997
40
0.374999999999997
40
0.374999999999997
40
0.406249999999998
40
0.406249999999998
40
0.437499999999999
40
0.437499999999999
40
0.468749999999999
40
0.468749999999999
40
0.5
40
0.5
40
0.53125
40
0.53125
40
0.562500000000001
40
0.562500000000001
40
0.593750000000002
40
0.593750000000002
40
0.625000000000002
40
0.625000000000002
40
0.656250000000003
40
0.656250000000003
40
0.687500000000004
40
0.687500000000004
40
0.718750000000004
40
0.718750000000004
40
0.734375000000005
40
0.734375000000005
40
0.742187500000005
40
0.742187500000005
40
0.750000000000005
40
0.750000000000005
40
0.781250000000004
40
0.781250000000004
40
0.812500000000004
40
0.812500000000004
40
0.843750000000003
40
0.843750000000003
40
0.875000000000002
40
0.875000000000002
40
0.906250000000002
40
0.906250000000002
40
0.937500000000001
40
0.937500000000001
40
0.968750000000001
40
0.968750000000001
40
1
40
1
40
1
40
1
41
1
10
60.6952192886974
20
7
30
0
41
1
10
60.7499795915249
20
7
30
0
41
1
10
60.8047398943524
20
6.98319491740008
30
0
41
1
10
60.9142605000073
20
6.91142204498226
30
0
41
1
10
60.9690208028348
20
6.85643318558485
30
0
41
1
10
61.0785414084898
20
6.70502333189489
30
0
41
1
10
61.1333017113173
20
6.60858383989552
30
0
41
1
10
61.2428223169723
20
6.37293587661463
30
0
41
1
10
61.2975826197998
20
6.23371610713824
30
0
41
1
10
61.4071032254548
20
5.91356832619974
30
0
41
1
10
61.4618635282822
20
5.73264009525212
30
0
41
1
10
61.5713841339372
20
5.33271997306898
30
0
41
1
10
61.6261444367648
20
5.113740473017
30
0
41
1
10
61.7356650424197
20
4.64376664445712
30
0
41
1
10
61.7904253452472
20
4.39279556056061
30
0
41
1
10
61.8999459509023
20
3.86674698576334
30
0
41
1
10
61.9547062537297
20
3.59169889221877
30
0
41
1
10
62.0642268593847
20
3.0264541689024
30
0
41
1
10
62.1189871622122
20
2.73628702263673
30
0
41
1
10
62.2285077678671
20
2.14990440843505
30
0
41
1
10
62.2832680706947
20
1.85371311031062
30
0
41
1
10
62.3927886763496
20
1.26370046981606
30
0
41
1
10
62.4475489791771
20
0.969894757884845
30
0
41
1
10
62.5296894334183
20
0.536310575305748
30
0
41
1
10
62.5570695848321
20
0.392958421670272
30
0
41
1
10
62.5981398119527
20
0.180248562290615
30
0
41
1
10
62.6118298876596
20
0.109730862279179
30
0
41
1
10
62.6392100390733
20
-0.0304507659079434
30
0
41
1
10
62.6529001147802
20
-0.10042064631844
30
0
41
1
10
62.7213504933146
20
-0.453452336354701
30
0
41
1
10
62.776110796142
20
-0.742366933588755
30
0
41
1
10
62.8856314017971
20
-1.32700664061926
30
0
41
1
10
62.9403917046245
20
-1.62272164342704
30
0
41
1
10
63.0499123102795
20
-2.21327255855252
30
0
41
1
10
63.104672613107
20
-2.50808915809378
30
0
41
1
10
63.214193218762
20
-3.08807581856971
30
0
41
1
10
63.2689535215894
20
-3.37321902036419
30
0
41
1
10
63.3784741272445
20
-3.92471527290013
30
0
41
1
10
63.433234430072
20
-4.19103814276988
30
0
41
1
10
63.542755035727
20
-4.69624829418117
30
0
41
1
10
63.5975153385544
20
-4.93510797426353
30
0
41
1
10
63.7070359442094
20
-5.37813502033524
30
0
41
1
10
63.7617962470369
20
-5.58228311933379
30
0
41
1
10
63.8713168526918
20
-5.9507432089483
30
0
41
1
10
63.9260771555194
20
-6.11504790544632
30
0
41
1
10
64.0355977611744
20
-6.40120007533716
30
0
41
1
10
64.0903580640019
20
-6.52305261167942
30
0
41
1
10
64.1998786696569
20
-6.72423375166261
30
0
41
1
10
64.2546389724843
20
-6.8035771214978
30
0
41
1
10
64.3641595781393
20
-6.92191750050307
30
0
41
1
10
64.4189198809669
20
-6.96093459593027
30
0
41
1
10
64.5010603352081
20
-6.9921113642549
30
0
41
1
10
64.5284404866218
20
-6.9979567929567
30
0
41
1
10
64.5695107137424
20
-7.00034660337306
30
0
41
1
10
64.5832007894493
20
-7.00009202344822
30
0
41
1
10
64.6105809408631
20
-6.99745273205409
30
0
41
1
10
64.6242710165699
20
-6.99506107881319
30
0
41
1
10
64.6927213951043
20
-6.97755631356031
30
0
41
1
10
64.7474816979317
20
-6.94575592372584
30
0
41
1
10
64.8570023035868
20
-6.84247075684544
30
0
41
1
10
64.9117626064142
20
-6.77096541400161
30
0
41
1
10
65.0212832120692
20
-6.58571628480053
30
0
41
1
10
65.0760435148967
20
-6.47195636795377
30
0
41
1
10
65.1855641205517
20
-6.20179073056843
30
0
41
1
10
65.2403244233792
20
-6.04537783775118
30
0
41
1
10
65.3498450290342
20
-5.69201213201342
30
0
41
1
10
65.4046053318617
20
-5.49506420699046
30
0
41
1
10
65.5141259375166
20
-5.06529165941404
30
0
41
1
10
65.5688862403441
20
-4.83248423194786
30
0
41
1
10
65.6784068459991
20
-4.33787968964543
30
0
41
1
10
65.7331671488266
20
-4.07610900425209
30
0
41
1
10
65.8426877544816
20
-3.53201941132482
30
0
41
1
10
65.8974480573091
20
-3.2497306739703
30
0
41
1
10
65.9522083601366
20
-2.96172985608905
30
0
0
SPLINE
5
EF
100
AcDbEntity
8
1
62
256
6
ByLayer
370
13
48
1
60
0
100
AcDbSpline
70
4
71
3
72
78
73
74
40
0
40
0
40
0
40
0
40
0.0312500000000003
40
0.0312500000000003
40
0.0625000000000007
40
0.0625000000000007
40
0.093750000000001
40
0.093750000000001
40
0.125000000000001
40
0.125000000000001
40
0.156250000000002
40
0.156250000000002
40
0.187500000000002
40
0.187500000000002
40
0.218750000000002
40
0.218750000000002
40
0.250000000000003
40
0.250000000000003
40
0.281250000000003
40
0.281250000000003
40
0.312500000000003
40
0.312500000000003
40
0.328125000000003
40
0.328125000000003
40
0.335937500000003
40
0.335937500000003
40
0.343750000000003
40
0.343750000000003
40
0.375000000000003
40
0.375000000000003
40
0.406250000000003
40
0.406250000000003
40
0.437500000000003
40
0.437500000000003
40
0.468750000000003
40
0.468750000000003
40
0.500000000000002
40
0.500000000000002
40
0.531250000000002
40
0.531250000000002
40
0.562500000000002
40
0.562500000000002
40
0.593750000000002
40
0.593750000000002
40
0.625000000000002
40
0.625000000000002
40
0.656250000000002
40
0.656250000000002
40
0.671875000000002
40
0.671875000000002
40
0.679687500000002
40
0.679687500000002
40
0.687500000000002
40
0.687500000000002
40
0.718750000000002
40
0.718750000000002
40
0.750000000000001
40
0.750000000000001
40
0.781250000000001
40
0.781250000000001
40
0.812500000000001
40
0.812500000000001
40
0.843750000000001
40
0.843750000000001
40
0.875
40
0.875
40
0.90625
40
0.90625
40
0.9375
40
0.9375
40
0.96875
40
0.96875
40
1
40
1
40
1
40
1
41
1
10
60.19617550848
20
7
30
0
41
1
10
60.2561341840181
20
7
30
0
41
1
10
60.3160928595562
20
6.97984204559037
30
0
41
1
10
60.4360102106324
20
6.89330211957488
30
0
41
1
10
60.4959688861704
20
6.8268871395727
30
0
41
1
10
60.6158862372466
20
6.64384918069388
30
0
41
1
10
60.6758449127847
20
6.52719875310655
30
0
41
1
10
60.7957622638609
20
6.24263069525293
30
0
41
1
10
60.855720939399
20
6.07469979797028
30
0
41
1
10
60.9756382904752
20
5.69008007344792
30
0
41
1
10
61.0355969660133
20
5.47339842464751
30
0
41
1
10
61.1555143170894
20
4.99746636056264
30
0
41
1
10
61.2154729926275
20
4.73824417005486
30
0
41
1
10
61.3353903437037
20
4.18656468618866
30
0
41
1
10
61.3953490192418
20
3.89415051855249
30
0
41
1
10
61.515266370318
20
3.28746511157519
30
0
41
1
10
61.5752250458561
20
2.97324119866914
30
0
41
1
10
61.6951423969322
20
2.33495797903129
30
0
41
1
10
61.7551010724703
20
2.01093928058202
30
0
41
1
10
61.8750184235465
20
1.36437241014968
30
0
41
1
10
61.9349770990846
20
1.0418509339863
30
0
41
1
10
62.0249151123917
20
0.566339663260806
30
0
41
1
10
62.0548944501608
20
0.409198296490643
30
0
41
1
10
62.0998634568144
20
0.176263202761845
30
0
41
1
10
62.1148531256989
20
0.0990798379458795
30
0
41
1
10
62.144832463468
20
-0.0542554322255455
30
0
41
1
10
62.1598221323525
20
-0.131072572238679
30
0
41
1
10
62.234770476775
20
-0.518387510297998
30
0
41
1
10
62.2947291523132
20
-0.835892269167431
30
0
41
1
10
62.4146465033893
20
-1.47791683299411
30
0
41
1
10
62.4746051789273
20
-1.80241870253678
30
0
41
1
10
62.5945225300036
20
-2.44802293673717
30
0
41
1
10
62.6544812055417
20
-2.76909177304904
30
0
41
1
10
62.7743985566178
20
-3.39607106097779
30
0
41
1
10
62.8343572321559
20
-3.7019366899533
30
0
41
1
10
62.9542745832321
20
-4.28660379009025
30
0
41
1
10
63.0142332587702
20
-4.56535838266302
30
0
41
1
10
63.1341506098464
20
-5.08516608503979
30
0
41
1
10
63.1941092853845
20
-5.32618165414061
30
0
41
1
10
63.3140266364607
20
-5.7624529380347
30
0
41
1
10
63.3739853119988
20
-5.95768955475532
30
0
41
1
10
63.4939026630749
20
-6.29780403230166
30
0
41
1
10
63.5538613386131
20
-6.44268441417483
30
0
41
1
10
63.6737786896892
20
-6.68120134728755
30
0
41
1
10
63.7337373652273
20
-6.77485856975261
30
0
41
1
10
63.8536547163035
20
-6.9133910166488
30
0
41
1
10
63.9136133918416
20
-6.95829727075778
30
0
41
1
10
64.0035514051486
20
-6.99282063230416
30
0
41
1
10
64.0335307429177
20
-6.99887246789123
30
0
41
1
10
64.0784997495713
20
-7.00034820702046
30
0
41
1
10
64.0934894184558
20
-6.99958670252192
30
0
41
1
10
64.1234687562248
20
-6.99547601319659
30
0
41
1
10
64.1384584251093
20
-6.99212366070785
30
0
41
1
10
64.2134067695319
20
-6.96863562120816
30
0
41
1
10
64.2733654450701
20
-6.92824780001123
30
0
41
1
10
64.3932827961462
20
-6.7991445835228
30
0
41
1
10
64.4532414716844
20
-6.71039762134262
30
0
41
1
10
64.5731588227605
20
-6.48180719451264
30
0
41
1
10
64.6331174982986
20
-6.34194166634774
30
0
41
1
10
64.7530348493748
20
-6.01161272981014
30
0
41
1
10
64.8129935249129
20
-5.82114478293693
30
0
41
1
10
64.932910875989
20
-5.39380515791294
30
0
41
1
10
64.9928695515272
20
-5.15695049686141
30
0
41
1
10
65.1127869026033
20
-4.6445499563485
30
0
41
1
10
65.1727455781414
20
-4.36904014522867
30
0
41
1
10
65.2926629292176
20
-3.78974736612068
30
0
41
1
10
65.3526216047557
20
-3.48601086646912
30
0
41
1
10
65.4725389558319
20
-2.86211203057027
30
0
41
1
10
65.5324976313699
20
-2.54199518823444
30
0
41
1
10
65.6524149824461
20
-1.8971883133579
30
0
41
1
10
65.7123736579842
20
-1.5725331883279
30
0
41
1
10
65.8322910090604
20
-0.929267929368336
30
0
41
1
10
65.8922496845985
20
-0.610677289609214
30
0
41
1
10
65.9522083601365
20
-0.299386159415491
30
0
0
SPLINE
5
F0
100
AcDbEntity
8
1
62
256
6
ByLayer
370
13
48
1
60
0
100
AcDbSpline
70
4
71
3
72
85
73
81
40
0
40
0
40
0
40
0
40
0.0312500000000022
40
0.0312500000000022
40
0.0625000000000043
40
0.0625000000000043
40
0.0937500000000065
40
0.0937500000000065
40
0.125000000000009
40
0.125000000000009
40
0.156250000000011
40
0.156250000000011
40
0.187500000000013
40
0.187500000000013
40
0.218750000000015
40
0.218750000000015
40
0.250000000000017
40
0.250000000000017
40
0.281250000000019
40
0.281250000000019
40
0.29687500000002
40
0.29687500000002
40
0.304687500000021
40
0.308593750000021
40
0.308593750000021
40
0.312500000000021
40
0.312500000000021
40
0.343750000000021
40
0.343750000000021
40
0.375000000000022
40
0.375000000000022
40
0.406250000000022
40
0.406250000000022
40
0.437500000000022
40
0.437500000000022
40
0.468750000000022
40
0.468750000000022
40
0.500000000000023
40
0.500000000000023
40
0.531250000000023
40
0.531250000000023
40
0.562500000000023
40
0.562500000000023
40
0.593750000000023
40
0.593750000000023
40
0.609375000000023
40
0.609375000000023
40
0.617187500000023
40
0.617187500000023
40
0.621093750000023
40
0.621093750000023
40
0.625000000000023
40
0.625000000000023
40
0.656250000000021
40
0.656250000000021
40
0.687500000000019
40
0.687500000000019
40
0.718750000000018
40
0.718750000000018
40
0.750000000000016
40
0.750000000000016
40
0.781250000000014
40
0.781250000000014
40
0.812500000000013
40
0.812500000000013
40
0.843750000000011
40
0.843750000000011
40
0.875000000000009
40
0.875000000000009
40
0.906250000000007
40
0.906250000000007
40
0.921875000000007
40
0.921875000000007
40
0.929687500000006
40
0.929687500000006
40
0.937500000000005
40
0.937500000000005
40
0.968750000000003
40
0.968750000000003
40
1
40
1
40
1
40
1
41
1
10
59.6971317282626
20
7
30
0
41
1
10
59.7622887765113
20
7
30
0
41
1
10
59.8274458247599
20
6.97618075117776
30
0
41
1
10
59.9577599212573
20
6.87341192959593
30
0
41
1
10
60.022916969506
20
6.79441266214286
30
0
41
1
10
60.1532310660034
20
6.57658585070354
30
0
41
1
10
60.2183881142522
20
6.43771964102498
30
0
41
1
10
60.3487022107495
20
6.09973184961783
30
0
41
1
10
60.4138592589982
20
5.9005976517015
30
0
41
1
10
60.5441733554956
20
5.44674279625409
30
0
41
1
10
60.6093304037442
20
5.19204448595909
30
0
41
1
10
60.7396445002416
20
4.63670504782525
30
0
41
1
10
60.8048015484903
20
4.33611804419718
30
0
41
1
10
60.9351156449877
20
3.70244699120977
30
0
41
1
10
61.0002726932363
20
3.36943366622393
30
0
41
1
10
61.1305867897338
20
2.68621727911213
30
0
41
1
10
61.1957438379824
20
2.33608135168916
30
0
41
1
10
61.3260579344798
20
1.63364243812393
30
0
41
1
10
61.3912149827285
20
1.28138700111472
30
0
41
1
10
61.4889505551015
20
0.761101114987355
30
0
41
1
10
61.5215290792258
20
0.589001518320714
30
0
41
1
10
61.5703968654124
20
0.333842844623177
30
0
41
1
10
61.5948307585057
20
0.207008818421713
30
0
41
1
10
61.6192646515989
20
0.0814578050734838
30
0
41
1
10
61.6355539136611
20
-0.0019409640184733
30
0
41
1
10
61.6436985446921
20
-0.0434988886561882
30
0
41
1
10
61.7170002239719
20
-0.419771608654031
30
0
41
1
10
61.7821572722206
20
-0.763841058360498
30
0
41
1
10
61.912471368718
20
-1.46081995857915
30
0
41
1
10
61.9776284169666
20
-1.81370333148618
30
0
41
1
10
62.107942513464
20
-2.51495023744116
30
0
41
1
10
62.1730995617127
20
-2.86326214466968
30
0
41
1
10
62.3034136582101
20
-3.54018805441149
30
0
41
1
10
62.3685707064588
20
-3.86873296214
30
0
41
1
10
62.4988848029562
20
-4.49098126727472
30
0
41
1
10
62.5640418512049
20
-4.78461535950041
30
0
41
1
10
62.6943559477023
20
-5.3240825820811
30
0
41
1
10
62.7595129959509
20
-5.56986620526672
30
0
41
1
10
62.8898270924483
20
-6.00471490044208
30
0
41
1
10
62.954984140697
20
-6.19376373437373
30
0
41
1
10
63.0852982371943
20
-6.51129508885998
30
0
41
1
10
63.150455285443
20
-6.63979556156971
30
0
41
1
10
63.2807693819404
20
-6.83741744413817
30
0
41
1
10
63.3459264301891
20
-6.90658051246254
30
0
41
1
10
63.4436620025621
20
-6.96975039695914
30
0
41
1
10
63.4762405266865
20
-6.9840722275261
30
0
41
1
10
63.5251083128729
20
-6.99614136242218
30
0
41
1
10
63.5413975749352
20
-6.99859661248044
30
0
41
1
10
63.5658314680284
20
-7.00002265155092
30
0
41
1
10
63.5739760990596
20
-7.00012329437439
30
0
41
1
10
63.5902653611217
20
-6.99958168180521
30
0
41
1
10
63.5984099921528
20
-6.99893700525038
30
0
41
1
10
63.6717116714325
20
-6.98969754201954
30
0
41
1
10
63.7368687196813
20
-6.95694846656929
30
0
41
1
10
63.8671828161787
20
-6.83527324591483
30
0
41
1
10
63.9323398644273
20
-6.74629819719488
30
0
41
1
10
64.0626539609246
20
-6.50811270924225
30
0
41
1
10
64.1278110091733
20
-6.35886705207778
30
0
41
1
10
64.2581251056707
20
-6.00054578310514
30
0
41
1
10
64.3232821539195
20
-5.79146316594819
30
0
41
1
10
64.4535962504168
20
-5.31902318195876
30
0
41
1
10
64.5187532986655
20
-5.05569417903519
30
0
41
1
10
64.6490673951628
20
-4.48516288406532
30
0
41
1
10
64.7142244434115
20
-4.17801887421314
30
0
41
1
10
64.8445385399089
20
-3.53377145569254
30
0
41
1
10
64.9096955881576
20
-3.19673958018566
30
0
41
1
10
65.040009684655
20
-2.50812322576914
30
0
41
1
10
65.1051667329036
20
-2.15660344308532
30
0
41
1
10
65.235480829401
20
-1.45379122019679
30
0
41
1
10
65.3006378776497
20
-1.10254207121642
30
0
41
1
10
65.3983734500227
20
-0.585202782195466
30
0
41
1
10
65.4309519741471
20
-0.414323512713253
30
0
41
1
10
65.4798197603336
20
-0.161300113751906
30
0
41
1
10
65.4961090223957
20
-0.0775605586739516
30
0
41
1
10
65.5286875465201
20
0.0889050569935534
30
0
41
1
10
65.5449768085822
20
0.172751412405915
30
0
41
1
10
65.6264231188932
20
0.594704928250422
30
0
41
1
10
65.6915801671419
20
0.941103414370218
30
0
41
1
10
65.8218942636392
20
1.64065206620711
30
0
41
1
10
65.8870513118879
20
1.99377167958522
30
0
41
1
10
65.9522083601366
20
2.34338016277374
30
0
0
SPLINE
5
F1
100
AcDbEntity
8
1
62
256
6
ByLayer
370
13
48
1
60
0
100
AcDbSpline
70
4
71
3
72
85
73
81
40
0
40
0
40
0
40
0
40
0.03125
40
0.03125
40
0.0625000000000001
40
0.0625000000000001
40
0.0937500000000001
40
0.0937500000000001
40
0.125
40
0.125
40
0.15625
40
0.15625
40
0.1875
40
0.1875
40
0.21875
40
0.21875
40
0.25
40
0.25
40
0.28125
40
0.28125
40
0.28515625
40
0.28515625
40
0.2890625
40
0.2890625
40
0.296875
40
0.296875
40
0.3125
40
0.3125
40
0.34375
40
0.34375
40
0.375000000000001
40
0.375000000000001
40
0.406250000000001
40
0.406250000000001
40
0.437500000000001
40
0.437500000000001
40
0.468750000000001
40
0.468750000000001
40
0.500000000000002
40
0.500000000000002
40
0.531250000000002
40
0.531250000000002
40
0.562500000000002
40
0.562500000000002
40
0.570312500000002
40
0.570312500000002
40
0.578125000000002
40
0.578125000000002
40
0.593750000000003
40
0.593750000000003
40
0.625000000000003
40
0.625000000000003
40
0.656250000000004
40
0.656250000000004
40
0.687500000000004
40
0.687500000000004
40
0.718750000000004
40
0.718750000000004
40
0.750000000000005
40
0.750000000000005
40
0.781250000000005
40
0.781250000000005
40
0.812500000000006
40
0.812500000000006
40
0.843750000000006
40
0.843750000000006
40
0.859375000000007
40
0.859375000000007
40
0.863281250000007
40
0.863281250000007
40
0.867187500000006
40
0.875000000000006
40
0.875000000000006
40
0.906250000000005
40
0.906250000000005
40
0.937500000000003
40
0.937500000000003
40
0.968750000000002
40
0.968750000000002
40
1
40
1
40
1
40
1
41
1
10
59.1980879480452
20
7
30
0
41
1
10
59.2684433690045
20
7
30
0
41
1
10
59.3387987899637
20
6.97220964849166
30
0
41
1
10
59.4795096318823
20
6.8517334130658
30
0
41
1
10
59.5498650528417
20
6.75897522010951
30
0
41
1
10
59.6905758947602
20
6.50319516170413
30
0
41
1
10
59.7609313157195
20
6.34012143580813
30
0
41
1
10
59.9016421576381
20
5.94438866708535
30
0
41
1
10
59.9719975785973
20
5.71172284706404
30
0
41
1
10
60.1127084205159
20
5.18449894467614
30
0
41
1
10
60.1830638414752
20
4.88998992069378
30
0
41
1
10
60.3237746833937
20
4.25317409665769
30
0
41
1
10
60.3941301043531
20
3.91095963285599
30
0
41
1
10
60.5348409462717
20
3.19703621580788
30
0
41
1
10
60.6051963672309
20
2.82543192821447
30
0
41
1
10
60.7459072091495
20
2.07215582750763
30
0
41
1
10
60.8162626301088
20
1.69056843803296
30
0
41
1
10
60.9569734720274
20
0.934922052998786
30
0
41
1
10
61.0273288929866
20
0.560908712576719
30
0
41
1
10
61.1064787415658
20
0.152118096581461
30
0
41
1
10
61.1152731691857
20
0.106860400601619
30
0
41
1
10
61.1328620244255
20
0.0166937438526418
30
0
41
1
10
61.1416564520455
20
-0.0281428259268068
30
0
41
1
10
61.1680397349052
20
-0.1634813196587
30
0
41
1
10
61.185628590145
20
-0.254401407361399
30
0
41
1
10
61.2383951558645
20
-0.52897584956952
30
0
41
1
10
61.2735728663442
20
-0.714453037081626
30
0
41
1
10
61.3791059977831
20
-1.27569630854197
30
0
41
1
10
61.4494614187424
20
-1.65638516974266
30
0
41
1
10
61.5901722606609
20
-2.41459375200026
30
0
41
1
10
61.6605276816201
20
-2.79204203910837
30
0
41
1
10
61.8012385235388
20
-3.52476296932656
30
0
41
1
10
61.871593944498
20
-3.8799350453111
30
0
41
1
10
62.0123047864166
20
-4.54901883307321
30
0
41
1
10
62.0826602073759
20
-4.86282962957296
30
0
41
1
10
62.2233710492945
20
-5.4331743929657
30
0
41
1
10
62.2937264702538
20
-5.68964083846626
30
0
41
1
10
62.4344373121723
20
-6.13500129360619
30
0
41
1
10
62.5047927331316
20
-6.32388183238461
30
0
41
1
10
62.6455035750502
20
-6.63077024856099
30
0
41
1
10
62.7158589960095
20
-6.74881599696292
30
0
41
1
10
62.856569837928
20
-6.91733120365831
30
0
41
1
10
62.9269252588873
20
-6.96786861914592
30
0
41
1
10
63.0148695350864
20
-6.9939378693457
30
0
41
1
10
63.0324583903263
20
-6.99730551576374
30
0
41
1
10
63.0676361008059
20
-7.000505772174
30
0
41
1
10
63.0852249560456
20
-7.00036072503858
30
0
41
1
10
63.1379915217652
20
-6.99465903655894
30
0
41
1
10
63.1731692322449
20
-6.98375511910479
30
0
41
1
10
63.2787023636837
20
-6.92791919503725
30
0
41
1
10
63.349057784643
20
-6.85971858841063
30
0
41
1
10
63.4897686265616
20
-6.65439958373219
30
0
41
1
10
63.5601240475209
20
-6.51721876039645
30
0
41
1
10
63.7008348894394
20
-6.17223326708057
30
0
41
1
10
63.7711903103988
20
-5.96440310440292
30
0
41
1
10
63.9119011523173
20
-5.48323623871758
30
0
41
1
10
63.9822565732766
20
-5.2099284130758
30
0
41
1
10
64.1229674151952
20
-4.60974728787201
30
0
41
1
10
64.1933228361545
20
-4.2829534557778
30
0
41
1
10
64.3340336780731
20
-3.59290124058717
30
0
41
1
10
64.4043890990323
20
-3.22974713166027
30
0
41
1
10
64.5450999409509
20
-2.48636288271209
30
0
41
1
10
64.6154553619102
20
-2.10622765720743
30
0
41
1
10
64.7561662038287
20
-1.34743870976146
30
0
41
1
10
64.826521624788
20
-0.968845701813081
30
0
41
1
10
64.932054756227
20
-0.413550815376197
30
0
41
1
10
64.9672324667065
20
-0.23052070740448
30
0
41
1
10
65.0112046048061
20
-0.0052523430693441
30
0
41
1
10
65.019999032426
20
0.0395995510419596
30
0
41
1
10
65.0375878876658
20
0.129883912617316
30
0
41
1
10
65.0639711705256
20
0.265827858093672
30
0
41
1
10
65.0903544533853
20
0.403227144199974
30
0
41
1
10
65.1782987295845
20
0.863986417962167
30
0
41
1
10
65.2486541505438
20
1.24159426784078
30
0
41
1
10
65.3893649924623
20
1.99999733376612
30
0
41
1
10
65.4597204134216
20
2.38073564436465
30
0
41
1
10
65.6004312553402
20
3.12713038882006
30
0
41
1
10
65.6707866762995
20
3.49269430178242
30
0
41
1
10
65.8114975182181
20
4.18932679399643
30
0
41
1
10
65.8818529391772
20
4.52029055276287
30
0
41
1
10
65.9522083601366
20
4.82526139376077
30
0
0
SPLINE
5
F2
100
AcDbEntity
8
1
62
256
6
ByLayer
370
13
48
1
60
0
100
AcDbSpline
70
4
71
3
72
85
73
81
40
0
40
0
40
0
40
0
40
0.0312499999999982
40
0.0312499999999982
40
0.0624999999999964
40
0.0624999999999964
40
0.0937499999999946
40
0.0937499999999946
40
0.124999999999993
40
0.124999999999993
40
0.156249999999991
40
0.156249999999991
40
0.187499999999989
40
0.187499999999989
40
0.218749999999987
40
0.218749999999987
40
0.249999999999986
40
0.249999999999986
40
0.265624999999985
40
0.265624999999985
40
0.269531249999985
40
0.269531249999985
40
0.273437499999985
40
0.281249999999985
40
0.281249999999985
40
0.312499999999986
40
0.312499999999986
40
0.343749999999987
40
0.343749999999987
40
0.374999999999988
40
0.374999999999988
40
0.406249999999989
40
0.406249999999989
40
0.43749999999999
40
0.43749999999999
40
0.468749999999991
40
0.468749999999991
40
0.499999999999991
40
0.499999999999991
40
0.531249999999992
40
0.531249999999992
40
0.539062499999992
40
0.539062499999992
40
0.546874999999993
40
0.546874999999993
40
0.562499999999993
40
0.562499999999993
40
0.593749999999993
40
0.593749999999993
40
0.624999999999993
40
0.624999999999993
40
0.656249999999993
40
0.656249999999993
40
0.687499999999993
40
0.687499999999993
40
0.718749999999993
40
0.718749999999993
40
0.749999999999993
40
0.749999999999993
40
0.781249999999993
40
0.781249999999993
40
0.796874999999993
40
0.796874999999993
40
0.800781249999994
40
0.800781249999994
40
0.804687499999994
40
0.804687499999994
40
0.812499999999994
40
0.812499999999994
40
0.843749999999995
40
0.843749999999995
40
0.874999999999996
40
0.874999999999996
40
0.906249999999997
40
0.906249999999997
40
0.937499999999998
40
0.937499999999998
40
0.968749999999999
40
0.968749999999999
40
1
40
1
40
1
40
1
41
1
10
58.6990441678278
20
7
30
0
41
1
10
58.7745979614977
20
7
30
0
41
1
10
58.8501517551676
20
6.96792717316873
30
0
41
1
10
59.0012593425073
20
6.82824939162177
30
0
41
1
10
59.0768131361773
20
6.72054229379094
30
0
41
1
10
59.2279207235171
20
6.42365358370333
30
0
41
1
10
59.3034745171869
20
6.23440570314833
30
0
41
1
10
59.4545821045267
20
5.77682425039734
30
0
41
1
10
59.5301358981965
20
5.50849849596239
30
0
41
1
10
59.6812434855363
20
4.90448959735244
30
0
41
1
10
59.7567972792062
20
4.56889796277181
30
0
41
1
10
59.9079048665459
20
3.8499327325429
30
0
41
1
10
59.9834586602158
20
3.46670301893505
30
0
41
1
10
60.1345662475556
20
2.67619624857122
30
0
41
1
10
60.2101200412255
20
2.26906047892811
30
0
41
1
10
60.3612276285653
20
1.45413955901665
30
0
41
1
10
60.4367814222351
20
1.046447829361
30
0
41
1
10
60.55011211274
20
0.448965284180275
30
0
41
1
10
60.5878890095748
20
0.252106986425304
30
0
41
1
10
60.6351101306186
20
0.0100805082944078
30
0
41
1
10
60.6445543548274
20
-0.0380716242901258
30
0
41
1
10
60.6634428032448
20
-0.135036767360788
30
0
41
1
10
60.6917754758709
20
-0.28108064960773
30
0
41
1
10
60.7201081484972
20
-0.428792926908358
30
0
41
1
10
60.8145503905845
20
-0.924285235443932
30
0
41
1
10
60.8901041842544
20
-1.33087038447323
30
0
41
1
10
61.0412117715941
20
-2.14575008049351
30
0
41
1
10
61.1167655652641
20
-2.55395739718023
30
0
41
1
10
61.2678731526039
20
-3.34904835319978
30
0
41
1
10
61.3434269462737
20
-3.73579390713567
30
0
41
1
10
61.4945345336134
20
-4.46407496009212
30
0
41
1
10
61.5700883272833
20
-4.80546424180093
30
0
41
1
10
61.7211959146231
20
-5.42274890059772
30
0
41
1
10
61.796749708293
20
-5.69854543905657
30
0
41
1
10
61.9478572956328
20
-6.17184921910635
30
0
41
1
10
62.0234110893027
20
-6.36933996271185
30
0
41
1
10
62.1745186766424
20
-6.68255547687329
30
0
41
1
10
62.2500724703123
20
-6.79834050600272
30
0
41
1
10
62.401180057652
20
-6.95327009844706
30
0
41
1
10
62.476733851322
20
-6.99251517145808
30
0
41
1
10
62.5711760934093
20
-7.00064537227303
30
0
41
1
10
62.5900645418268
20
-7.00026476544002
30
0
41
1
10
62.6278414386618
20
-6.99543262508641
30
0
41
1
10
62.6467298870792
20
-6.99096109365624
30
0
41
1
10
62.7033952323316
20
-6.97109174823143
30
0
41
1
10
62.7411721291666
20
-6.94922996287869
30
0
41
1
10
62.8545028196714
20
-6.85577284014084
30
0
41
1
10
62.9300566133412
20
-6.75608117685087
30
0
41
1
10
63.081164200681
20
-6.47548048706952
30
0
41
1
10
63.1567179943509
20
-6.29449959678732
30
0
41
1
10
63.3078255816907
20
-5.85278596960313
30
0
41
1
10
63.3833793753605
20
-5.59205248051816
30
0
41
1
10
63.5344869627003
20
-5.00164410978334
30
0
41
1
10
63.6100407563701
20
-4.67205307376446
30
0
41
1
10
63.7611483437099
20
-3.96285258463524
30
0
41
1
10
63.8367021373799
20
-3.58338408724339
30
0
41
1
10
63.9878097247197
20
-2.79794804843928
30
0
41
1
10
64.0633635183895
20
-2.39212451623109
30
0
41
1
10
64.2144711057292
20
-1.57760136293871
30
0
41
1
10
64.2900248993992
20
-1.16900120943126
30
0
41
1
10
64.403355589904
20
-0.568877937636415
30
0
41
1
10
64.4411324867389
20
-0.37092806369742
30
0
41
1
10
64.4883536077826
20
-0.127320463418556
30
0
41
1
10
64.4977978319914
20
-0.0787895109165504
30
0
41
1
10
64.5166862804088
20
0.0178645719203701
30
0
41
1
10
64.5261305046175
20
0.066108216905036
30
0
41
1
10
64.5544631772438
20
0.211784791976584
30
0
41
1
10
64.5733516256612
20
0.309688337112874
30
0
41
1
10
64.6677938677486
20
0.802569239930079
30
0
41
1
10
64.7433476614185
20
1.207855330846
30
0
41
1
10
64.8944552487583
20
2.02226337573785
30
0
41
1
10
64.9700090424282
20
2.43130439776021
30
0
41
1
10
65.1211166297679
20
3.23049423730635
30
0
41
1
10
65.1966704234377
20
3.62050862249419
30
0
41
1
10
65.3477780107775
20
4.35764861181391
30
0
41
1
10
65.4233318044474
20
4.70462625986383
30
0
41
1
10
65.5744393917872
20
5.33484614475768
30
0
41
1
10
65.6499931854571
20
5.61798258860026
30
0
41
1
10
65.8011007727968
20
6.10684401912033
30
0
41
1
10
65.8766545664668
20
6.31254376080167
30
0
41
1
10
65.9522083601366
20
6.47732561778622
30
0
0
SPLINE
5
F3
100
AcDbEntity
8
1
62
256
6
ByLayer
370
13
48
1
60
0
100
AcDbSpline
70
4
71
3
72
70
73
66
40
0
40
0
40
0
40
0
40
0.03125
40
0.03125
40
0.0625
40
0.0625
40
0.09375
40
0.09375
40
0.125
40
0.125
40
0.15625
40
0.15625
40
0.1875
40
0.1875
40
0.21875
40
0.21875
40
0.25
40
0.25
40
0.28125
40
0.28125
40
0.3125
40
0.3125
40
0.34375
40
0.34375
40
0.375
40
0.375
40
0.40625
40
0.40625
40
0.4375
40
0.4375
40
0.46875
40
0.46875
40
0.5
40
0.5
40
0.53125
40
0.53125
40
0.5625
40
0.5625
40
0.59375
40
0.59375
40
0.625
40
0.625
40
0.65625
40
0.65625
40
0.6875
40
0.6875
40
0.71875
40
0.71875
40
0.75
40
0.75
40
0.78125
40
0.78125
40
0.8125
40
0.8125
40
0.84375
40
0.84375
40
0.875
40
0.875
40
0.90625
40
0.90625
40
0.9375
40
0.9375
40
0.96875
40
0.96875
40
1
40
1
40
1
40
1
41
1
10
58.2000003876104
20
7
30
0
41
1
10
58.2807525539909
20
7
30
0
41
1
10
58.3615047203714
20
6.96333157279776
30
0
41
1
10
58.5230090531324
20
6.80294360909249
30
0
41
1
10
58.6037612195128
20
6.67908350125512
30
0
41
1
10
58.7652655522738
20
6.33795281595812
30
0
41
1
10
58.8460177186543
20
6.12060175034441
30
0
41
1
10
59.0075220514152
20
5.59733564218647
30
0
41
1
10
59.0882742177957
20
5.29145639737396
30
0
41
1
10
59.2497785505566
20
4.60803894928819
30
0
41
1
10
59.3305307169372
20
4.23065459997207
30
0
41
1
10
59.4920350496981
20
3.43028254769899
30
0
41
1
10
59.5727872160786
20
3.00750265464441
30
0
41
1
10
59.7342915488396
20
2.14582405473257
30
0
41
1
10
59.81504371522
20
1.70710000498991
30
0
41
1
10
59.976548047981
20
0.840383638832293
30
0
41
1
10
60.0573002143615
20
0.41247944212418
30
0
41
1
10
60.2188045471226
20
-0.412478452174696
30
0
41
1
10
60.299556713503
20
-0.84038260699765
30
0
41
1
10
60.4610610462639
20
-1.70709895670529
30
0
41
1
10
60.5418132126444
20
-2.14582300779637
30
0
41
1
10
60.7033175454053
20
-3.00750163355193
30
0
41
1
10
60.7840697117858
20
-3.43028155115687
30
0
41
1
10
60.9455740445468
20
-4.23065367562114
30
0
41
1
10
61.0263262109273
20
-4.60803807257102
30
0
41
1
10
61.1878305436882
20
-5.29145563388909
30
0
41
1
10
61.2685827100687
20
-5.59733494422423
30
0
41
1
10
61.4300870428297
20
-6.1206011924678
30
0
41
1
10
61.5108392092101
20
-6.33795233254122
30
0
41
1
10
61.672343541971
20
-6.67908316595819
30
0
41
1
10
61.7530957083516
20
-6.80294334738088
30
0
41
1
10
61.9146000411125
20
-6.96333144957808
30
0
41
1
10
61.9953522074931
20
-6.9999999416666
30
0
41
1
10
62.156856540254
20
-7.00000005833326
30
0
41
1
10
62.2376087066344
20
-6.96333169601729
30
0
41
1
10
62.3991130393954
20
-6.80294387080392
30
0
41
1
10
62.4798652057759
20
-6.67908383655185
30
0
41
1
10
62.6413695385369
20
-6.33795329937485
30
0
41
1
10
62.7221217049174
20
-6.12060230822084
30
0
41
1
10
62.8836260376783
20
-5.59733634014853
30
0
41
1
10
62.9643782040588
20
-5.29145716085867
30
0
41
1
10
63.1258825368198
20
-4.60803982600524
30
0
41
1
10
63.2066347032003
20
-4.23065552432286
30
0
41
1
10
63.3681390359612
20
-3.43028354424106
30
0
41
1
10
63.4488912023417
20
-3.00750367573684
30
0
41
1
10
63.6103955351026
20
-2.14582510166878
30
0
41
1
10
63.6911477014832
20
-1.70710105327456
30
0
41
1
10
63.852652034244
20
-0.840384670666992
30
0
41
1
10
63.9334042006246
20
-0.412480456236125
30
0
41
1
10
64.0949085333855
20
0.412477486387616
30
0
41
1
10
64.175660699766
20
0.840381575163036
30
0
41
1
10
64.337165032527
20
1.70709790842068
30
0
41
1
10
64.4179171989074
20
2.14582196086013
30
0
41
1
10
64.5794215316684
20
3.00750061245938
30
0
41
1
10
64.6601736980489
20
3.43028055461468
30
0
41
1
10
64.8216780308098
20
4.23065275127013
30
0
41
1
10
64.9024301971903
20
4.60803719585374
30
0
41
1
10
65.0639345299513
20
5.2914548704041
30
0
41
1
10
65.1446866963318
20
5.59733424626185
30
0
41
1
10
65.3061910290928
20
6.12060063459103
30
0
41
1
10
65.3869431954732
20
6.33795184912412
30
0
41
1
10
65.5484475282342
20
6.67908283066109
30
0
41
1
10
65.6291996946147
20
6.80294308566911
30
0
41
1
10
65.7907040273757
20
6.96333132635823
30
0
41
1
10
65.8714561937561
20
6.99999988333303
30
0
41
1
10
65.9522083601365
20
6.99999999999972
30
0
0
SPLINE
5
F4
100
AcDbEntity
8
1
62
256
6
ByLayer
370
13
48
1
60
0
100
AcDbSpline
70
4
71
3
72
85
73
81
40
0
40
0
40
0
40
0
40
0.0312499999999988
40
0.0312499999999988
40
0.0624999999999977
40
0.0624999999999977
40
0.0937499999999965
40
0.0937499999999965
40
0.124999999999995
40
0.124999999999995
40
0.156249999999994
40
0.156249999999994
40
0.187499999999993
40
0.187499999999993
40
0.195312499999993
40
0.195312499999993
40
0.199218749999993
40
0.199218749999993
40
0.203124999999993
40
0.203124999999993
40
0.218749999999993
40
0.218749999999993
40
0.249999999999993
40
0.249999999999993
40
0.281249999999994
40
0.281249999999994
40
0.312499999999994
40
0.312499999999994
40
0.343749999999994
40
0.343749999999994
40
0.374999999999994
40
0.374999999999994
40
0.406249999999995
40
0.406249999999995
40
0.437499999999995
40
0.437499999999995
40
0.453124999999995
40
0.453124999999995
40
0.460937499999995
40
0.460937499999995
40
0.468749999999995
40
0.468749999999995
40
0.499999999999994
40
0.499999999999994
40
0.531249999999994
40
0.531249999999994
40
0.562499999999993
40
0.562499999999993
40
0.593749999999993
40
0.593749999999993
40
0.624999999999992
40
0.624999999999992
40
0.656249999999992
40
0.656249999999992
40
0.687499999999991
40
0.687499999999991
40
0.718749999999991
40
0.718749999999991
40
0.726562499999991
40
0.730468749999991
40
0.730468749999991
40
0.734374999999991
40
0.734374999999991
40
0.749999999999991
40
0.749999999999991
40
0.781249999999992
40
0.781249999999992
40
0.812499999999994
40
0.812499999999994
40
0.843749999999995
40
0.843749999999995
40
0.874999999999996
40
0.874999999999996
40
0.906249999999997
40
0.906249999999997
40
0.937499999999998
40
0.937499999999998
40
0.968749999999999
40
0.968749999999999
40
1
40
1
40
1
40
1
41
1
10
58.2
20
6.4773273085315
30
0
41
1
10
58.2755538017451
20
6.31254571120536
30
0
41
1
10
58.3511076034903
20
6.1068462207698
30
0
41
1
10
58.5022152069805
20
5.61798524616918
30
0
41
1
10
58.5777690087256
20
5.33484900672582
30
0
41
1
10
58.7288766122157
20
4.70462946012543
30
0
41
1
10
58.8044304139608
20
4.35765194581114
30
0
41
1
10
58.9555380174509
20
3.62051214285941
30
0
41
1
10
59.0310918191961
20
3.23049781033816
30
0
41
1
10
59.1821994226863
20
2.43130799981469
30
0
41
1
10
59.2577532244314
20
2.02226695433461
30
0
41
1
10
59.4088608279216
20
1.20785880283174
30
0
41
1
10
59.4844146296667
20
0.802572628987036
30
0
41
1
10
59.5788568818481
20
0.309691598833553
30
0
41
1
10
59.5977453322843
20
0.211788027049664
30
0
41
1
10
59.6260780079388
20
0.0661114104881904
30
0
41
1
10
59.6355222331569
20
0.0178677447576661
30
0
41
1
10
59.6544106835932
20
-0.0787863305439771
30
0
41
1
10
59.6638549088114
20
-0.127317279606132
30
0
41
1
10
59.711076034902
20
-0.370924864384847
30
0
41
1
10
59.7488529357746
20
-0.568874731371409
30
0
41
1
10
59.8621836383921
20
-1.16899800075285
30
0
41
1
10
59.9377374401373
20
-1.57759817749152
30
0
41
1
10
60.0888450436275
20
-2.39212143360803
30
0
41
1
10
60.1643988453726
20
-2.79794504550782
30
0
41
1
10
60.3155064488628
20
-3.58338129778383
30
0
41
1
10
60.391060250608
20
-3.96284992893982
30
0
41
1
10
60.5421678540981
20
-4.67205072668509
30
0
41
1
10
60.6177216558432
20
-5.00164193740611
30
0
41
1
10
60.7688292593334
20
-5.59205067740152
30
0
41
1
10
60.8443830610785
20
-5.85278436082643
30
0
41
1
10
60.9954906645686
20
-6.29449837293217
30
0
41
1
10
61.0710444663138
20
-6.47547945361609
30
0
41
1
10
61.2221520698041
20
-6.75608050083324
30
0
41
1
10
61.2977058715491
20
-6.85577233108691
30
0
41
1
10
61.4110365741668
20
-6.94922967801358
30
0
41
1
10
61.4488134750393
20
-6.97109153378773
30
0
41
1
10
61.5054788263482
20
-6.99096097789504
30
0
41
1
10
61.5243672767844
20
-6.99543254106504
30
0
41
1
10
61.5621441776569
20
-7.0002647425533
30
0
41
1
10
61.5810326280932
20
-7.00064537831045
30
0
41
1
10
61.6754748802746
20
-6.99251532457441
30
0
41
1
10
61.7510286820196
20
-6.95327037409632
30
0
41
1
10
61.9021362855099
20
-6.79834102518146
30
0
41
1
10
61.977690087255
20
-6.68255611696392
30
0
41
1
10
62.1287976907452
20
-6.36934082906703
30
0
41
1
10
62.2043514924903
20
-6.17185019068367
30
0
41
1
10
62.3554590959806
20
-5.69854659212771
30
0
41
1
10
62.4310128977256
20
-5.42275012982003
30
0
41
1
10
62.5821205012158
20
-4.80546558562699
30
0
41
1
10
62.6576743029609
20
-4.46407634232472
30
0
41
1
10
62.8087819064511
20
-3.73579532710483
30
0
41
1
10
62.8843357081962
20
-3.34904977255056
30
0
41
1
10
63.0354433116864
20
-2.55395878215649
30
0
41
1
10
63.1109971134315
20
-2.14575143182694
30
0
41
1
10
63.2621047169217
20
-1.33087164597893
30
0
41
1
10
63.3376585186668
20
-0.924286440877495
30
0
41
1
10
63.4321007708482
20
-0.428794055426721
30
0
41
1
10
63.4604334465025
20
-0.281081754536814
30
0
41
1
10
63.488766122157
20
-0.135037848114422
30
0
41
1
10
63.5076545725933
20
-0.038072688816186
30
0
41
1
10
63.5170987978114
20
0.0100794506379316
30
0
41
1
10
63.5643199239021
20
0.252105940004327
30
0
41
1
10
63.6020968247747
20
0.448964248968878
30
0
41
1
10
63.7154275273923
20
1.04644683454461
30
0
41
1
10
63.7909813291374
20
1.45413860027111
30
0
41
1
10
63.9420889326275
20
2.26905960859375
30
0
41
1
10
64.0176427343727
20
2.67619543057285
30
0
41
1
10
64.1687503378629
20
3.46670231611966
30
0
41
1
10
64.244304139608
20
3.84993209251826
30
0
41
1
10
64.3954117430982
20
4.5688974501474
30
0
41
1
10
64.4709655448433
20
4.90448914924727
30
0
41
1
10
64.6220731483335
20
5.50849816938722
30
0
41
1
10
64.6976269500786
20
5.77682398075265
30
0
41
1
10
64.8487345535688
20
6.23440553263475
30
0
41
1
10
64.9242883553139
20
6.4236534553587
30
0
41
1
10
65.0753959588041
20
6.72054223174612
30
0
41
1
10
65.1509497605492
20
6.82824935373051
30
0
41
1
10
65.3020573640394
20
6.96792716627354
30
0
41
1
10
65.3776111657845
20
7
30
0
41
1
10
65.4531649675296
20
7
30
0
0
SPLINE
5
F5
100
AcDbEntity
8
1
62
256
6
ByLayer
370
13
48
1
60
0
100
AcDbSpline
70
4
71
3
72
8
73
4
40
0
40
0
40
0
40
0
40
1
40
1
40
1
40
1
41
1
10
65.9522083601366
20
6.34288359697706
30
0
41
1
10
66.801472240091
20
4.2311037789793
30
0
41
1
10
67.6507361200455
20
2.11680238173778
30
0
41
1
10
68.5
20
5.68E-14
30
0
0
SPLINE
5
F6
100
AcDbEntity
8
1
62
256
6
ByLayer
370
13
48
1
60
0
100
AcDbSpline
70
4
71
3
72
8
73
4
40
0
40
0
40
0
40
0
40
1
40
1
40
1
40
1
41
1
10
65.9522083601368
20
6.59575181616788
30
0
41
1
10
66.801472240091
20
4.39517689098699
30
0
41
1
10
67.6507361200452
20
2.19658581865227
30
0
41
1
10
68.4999999999994
20
1.5348E-12
30
0
0
SPLINE
5
F7
100
AcDbEntity
8
1
62
256
6
ByLayer
370
13
48
1
60
0
100
AcDbSpline
70
4
71
3
72
8
73
4
40
0
40
0
40
0
40
0
40
1
40
1
40
1
40
1
41
1
10
65.9522083601366
20
-0.490754843493164
30
0
41
1
10
66.801472240091
20
-0.321239676283255
30
0
41
1
10
67.6507361200455
20
-0.157654203933475
30
0
41
1
10
68.4999999999999
20
-2.84E-14
30
0
0
SPLINE
5
F8
100
AcDbEntity
8
1
62
256
6
ByLayer
370
13
48
1
60
0
100
AcDbSpline
70
4
71
3
72
8
73
4
40
0
40
0
40
0
40
0
40
1
40
1
40
1
40
1
41
1
10
65.9522083601366
20
0.711809784966249
30
0
41
1
10
66.8014722400911
20
0.480453888277907
30
0
41
1
10
67.6507361200455
20
0.243183183469739
30
0
41
1
10
68.5
20
0
30
0
0
SPLINE
5
F9
100
AcDbEntity
8
1
62
256
6
ByLayer
370
13
48
1
60
0
100
AcDbSpline
70
4
71
3
72
8
73
4
40
0
40
0
40
0
40
0
40
1
40
1
40
1
40
1
41
1
10
65.9522083601368
20
0.175590759424409
30
0
41
1
10
66.8014722400911
20
0.111117529746224
30
0
41
1
10
67.6507361200455
20
0.0525870930673875
30
0
41
1
10
68.4999999999999
20
0
30
0
0
SPLINE
5
FA
100
AcDbEntity
8
1
62
256
6
ByLayer
370
13
48
1
60
0
100
AcDbSpline
70
4
71
3
72
8
73
4
40
0
40
0
40
0
40
0
40
1
40
1
40
1
40
1
41
1
10
65.9522083601366
20
1.89336113481198
30
0
41
1
10
66.8014722400911
20
1.2679640127844
30
0
41
1
10
67.6507361200455
20
0.636841579945383
30
0
41
1
10
68.5
20
2.84E-14
30
0
0
SPLINE
5
FB
100
AcDbEntity
8
1
62
256
6
ByLayer
370
13
48
1
60
0
100
AcDbSpline
70
4
71
3
72
8
73
4
40
0
40
0
40
0
40
0
40
1
40
1
40
1
40
1
41
1
10
65.9522083601366
20
6.96994205075978
30
0
41
1
10
66.8014722400911
20
4.6471783593301
30
0
41
1
10
67.6507361200456
20
2.32385680122184
30
0
41
1
10
68.5
20
-2.84E-14
30
0
0
SPLINE
5
FC
100
AcDbEntity
8
1
62
256
6
ByLayer
370
13
48
1
60
0
100
AcDbSpline
70
4
71
3
72
8
73
4
40
0
40
0
40
0
40
0
40
1
40
1
40
1
40
1
41
1
10
65.9522083601365
20
-6.83180909741228
30
0
41
1
10
66.8014722400911
20
-4.55583473714276
30
0
41
1
10
67.6507361200457
20
-2.27855764545302
30
0
41
1
10
68.5000000000003
20
8.527E-13
30
0
0
SPLINE
5
FD
100
AcDbEntity
8
1
62
256
6
ByLayer
370
13
48
1
60
0
100
AcDbSpline
70
4
71
3
72
8
73
4
40
0
40
0
40
0
40
0
40
1
40
1
40
1
40
1
41
1
10
65.9522083601366
20
-2.81734837224545
30
0
41
1
10
66.801472240091
20
-1.87279015964469
30
0
41
1
10
67.6507361200455
20
-0.933670993437119
30
0
41
1
10
68.4999999999999
20
-1.421E-13
30
0
0
SPLINE
5
FE
100
AcDbEntity
8
1
62
256
6
ByLayer
370
13
48
1
60
0
100
AcDbSpline
70
4
71
3
72
8
73
4
40
0
40
0
40
0
40
0
40
1
40
1
40
1
40
1
41
1
10
65.9522083601365
20
-5.61262929834524
30
0
41
1
10
66.801472240091
20
-3.73820030305137
30
0
41
1
10
67.6507361200456
20
-1.86731780196021
30
0
41
1
10
68.5000000000001
20
1.99E-13
30
0
0
SPLINE
5
FF
100
AcDbEntity
8
1
62
256
6
ByLayer
370
13
48
1
60
0
100
AcDbSpline
70
4
71
3
72
8
73
4
40
0
40
0
40
0
40
0
40
1
40
1
40
1
40
1
41
1
10
65.9522083601368
20
-3.3005478043379
30
0
41
1
10
66.8014722400911
20
-2.20560774013481
30
0
41
1
10
67.6507361200455
20
-1.10542156224321
30
0
41
1
10
68.4999999999999
20
-1.705E-13
30
0
0
SPLINE
5
100
100
AcDbEntity
8
1
62
256
6
ByLayer
370
13
48
1
60
0
100
AcDbSpline
70
4
71
3
72
8
73
4
40
0
40
0
40
0
40
0
40
1
40
1
40
1
40
1
41
1
10
65.9522083601368
20
-1.02489329075198
30
0
41
1
10
66.801472240091
20
-0.689142976362973
30
0
41
1
10
67.6507361200452
20
-0.347510764278951
30
0
41
1
10
68.4999999999994
20
-2.558E-13
30
0
0
SPLINE
5
101
100
AcDbEntity
8
1
62
256
6
ByLayer
370
13
48
1
60
0
100
AcDbSpline
70
4
71
3
72
8
73
4
40
0
40
0
40
0
40
0
40
1
40
1
40
1
40
1
41
1
10
65.9522083601365
20
-6.2458542942606
30
0
41
1
10
66.8014722400911
20
-4.16121869127437
30
0
41
1
10
67.6507361200457
20
-2.07926050553598
30
0
41
1
10
68.5000000000003
20
7.674E-13
30
0
0
SPLINE
5
102
100
AcDbEntity
8
1
62
256
6
ByLayer
370
13
48
1
60
0
100
AcDbSpline
70
4
71
3
72
8
73
4
40
0
40
0
40
0
40
0
40
1
40
1
40
1
40
1
41
1
10
65.9522083601366
20
4.97236187112557
30
0
41
1
10
66.8014722400911
20
3.31909226207782
30
0
41
1
10
67.6507361200455
20
1.66163292104437
30
0
41
1
10
68.5
20
5.68E-14
30
0
0
SPLINE
5
103
100
AcDbEntity
8
1
62
256
6
ByLayer
370
13
48
1
60
0
100
AcDbSpline
70
4
71
3
72
8
73
4
40
0
40
0
40
0
40
0
40
1
40
1
40
1
40
1
41
1
10
65.9522083601365
20
-6.4698743105036
30
0
41
1
10
66.801472240091
20
-4.31551895496585
30
0
41
1
10
67.6507361200456
20
-2.15888718275957
30
0
41
1
10
68.5000000000001
20
2.274E-13
30
0
0
SPLINE
5
104
100
AcDbEntity
8
1
62
256
6
ByLayer
370
13
48
1
60
0
100
AcDbSpline
70
4
71
3
72
8
73
4
40
0
40
0
40
0
40
0
40
1
40
1
40
1
40
1
41
1
10
65.9522083601368
20
3.60599054923716
30
0
41
1
10
66.8014722400911
20
2.39889834041114
30
0
41
1
10
67.6507361200455
20
1.19689759495375
30
0
41
1
10
68.4999999999999
20
1.99E-13
30
0
0
SPLINE
5
105
100
AcDbEntity
8
1
62
256
6
ByLayer
370
13
48
1
60
0
100
AcDbSpline
70
4
71
3
72
8
73
4
40
0
40
0
40
0
40
0
40
1
40
1
40
1
40
1
41
1
10
65.9522083601368
20
1.37089120911131
30
0
41
1
10
66.801472240091
20
0.908097744321509
30
0
41
1
10
67.6507361200452
20
0.451132531127854
30
0
41
1
10
68.4999999999994
20
3.126E-13
30
0
0
SPLINE
5
106
100
AcDbEntity
8
1
62
256
6
ByLayer
370
13
48
1
60
0
100
AcDbSpline
70
4
71
3
72
8
73
4
40
0
40
0
40
0
40
0
40
1
40
1
40
1
40
1
41
1
10
65.9522083601365
20
-6.99206260509246
30
0
41
1
10
66.801472240091
20
-4.66165809357486
30
0
41
1
10
67.6507361200454
20
-2.33096299371337
30
0
41
1
10
68.4999999999999
20
-3.979E-13
30
0
0
SPLINE
5
107
100
AcDbEntity
8
1
62
256
6
ByLayer
370
13
48
1
60
0
100
AcDbSpline
70
4
71
3
72
8
73
4
40
0
40
0
40
0
40
0
40
1
40
1
40
1
40
1
41
1
10
65.9522083601368
20
-2.19512154967245
30
0
41
1
10
66.8014722400911
20
-1.46905934886669
30
0
41
1
10
67.6507361200455
20
-0.737349784692412
30
0
41
1
10
68.4999999999999
20
-1.137E-13
30
0
0
SPLINE
5
108
100
AcDbEntity
8
1
62
256
6
ByLayer
370
13
48
1
60
0
100
AcDbSpline
70
4
71
3
72
8
73
4
40
0
40
0
40
0
40
0
40
1
40
1
40
1
40
1
41
1
10
65.9522083601365
20
-4.81371433062515
30
0
41
1
10
66.801472240091
20
-3.2048268085334
30
0
41
1
10
67.6507361200454
20
-1.60025016183306
30
0
41
1
10
68.4999999999999
20
-2.558E-13
30
0
0
SPLINE
5
109
100
AcDbEntity
8
1
62
256
6
ByLayer
370
13
48
1
60
0
100
AcDbSpline
70
4
71
3
72
8
73
4
40
0
40
0
40
0
40
0
40
1
40
1
40
1
40
1
41
1
10
65.9522083601365
20
-3.8726940947106
30
0
41
1
10
66.801472240091
20
-2.57684388315505
30
0
41
1
10
67.6507361200456
20
-1.2859416671788
30
0
41
1
10
68.5000000000001
20
1.421E-13
30
0
0
SPLINE
5
10A
100
AcDbEntity
8
1
62
256
6
ByLayer
370
13
48
1
60
0
100
AcDbSpline
70
4
71
3
72
8
73
4
40
0
40
0
40
0
40
0
40
1
40
1
40
1
40
1
41
1
10
65.9522083601368
20
6.89970739767682
30
0
41
1
10
66.8014722400911
20
4.59880221119531
30
0
41
1
10
67.6507361200455
20
2.29889228177999
30
0
41
1
10
68.4999999999999
20
3.695E-13
30
0
0
SPLINE
5
10B
100
AcDbEntity
8
1
62
256
6
ByLayer
370
13
48
1
60
0
100
AcDbSpline
70
4
71
3
72
8
73
4
40
0
40
0
40
0
40
0
40
1
40
1
40
1
40
1
41
1
10
65.9522083601366
20
5.74238294333986
30
0
41
1
10
66.8014722400911
20
3.83165500803835
30
0
41
1
10
67.6507361200455
20
1.9175211440506
30
0
41
1
10
68.5
20
5.68E-14
30
0
0
SPLINE
5
10C
100
AcDbEntity
8
1
62
256
6
ByLayer
370
13
48
1
60
0
100
AcDbSpline
70
4
71
3
72
8
73
4
40
0
40
0
40
0
40
0
40
1
40
1
40
1
40
1
41
1
10
65.9522083601366
20
6.75613650121201
30
0
41
1
10
66.8014722400911
20
4.50564648030886
30
0
41
1
10
67.6507361200455
20
2.25359366893952
30
0
41
1
10
68.5
20
0
30
0
0
SPLINE
5
10D
100
AcDbEntity
8
1
62
256
6
ByLayer
370
13
48
1
60
0
100
AcDbSpline
70
4
71
3
72
8
73
4
40
0
40
0
40
0
40
0
40
1
40
1
40
1
40
1
41
1
10
65.9522083601368
20
5.4184238429512
30
0
41
1
10
66.801472240091
20
3.60851881041904
30
0
41
1
10
67.6507361200452
20
1.80237167146052
30
0
41
1
10
68.4999999999994
20
1.279E-12
30
0
0
SPLINE
5
10E
100
AcDbEntity
8
1
62
256
6
ByLayer
370
13
48
1
60
0
100
AcDbSpline
70
4
71
3
72
8
73
4
40
0
40
0
40
0
40
0
40
1
40
1
40
1
40
1
41
1
10
65.9522083601366
20
3.01901872500116
30
0
41
1
10
66.8014722400911
20
2.01804267507234
30
0
41
1
10
67.6507361200455
20
1.01169982807411
30
0
41
1
10
68.5
20
2.84E-14
30
0
0
SPLINE
5
10F
100
AcDbEntity
8
1
62
256
6
ByLayer
370
13
48
1
60
0
100
AcDbSpline
70
4
71
3
72
8
73
4
40
0
40
0
40
0
40
0
40
1
40
1
40
1
40
1
41
1
10
65.9522083601365
20
-6.69469593490652
30
0
41
1
10
66.801472240091
20
-4.46139408186156
30
0
41
1
10
67.6507361200454
20
-2.2298215292933
30
0
41
1
10
68.4999999999999
20
-3.695E-13
30
0
0
SPLINE
5
110
100
AcDbEntity
8
1
62
256
6
ByLayer
370
13
48
1
60
0
100
AcDbSpline
70
4
71
3
72
8
73
4
40
0
40
0
40
0
40
0
40
1
40
1
40
1
40
1
41
1
10
65.9522083601366
20
-1.67883193823903
30
0
41
1
10
66.8014722400911
20
-1.11344995055808
30
0
41
1
10
67.6507361200455
20
-0.553837494439108
30
0
41
1
10
68.5
20
-2.84E-14
30
0
0
SPLINE
5
111
100
AcDbEntity
8
1
62
256
6
ByLayer
370
13
48
1
60
0
100
AcDbSpline
70
4
71
3
72
8
73
4
40
0
40
0
40
0
40
0
40
1
40
1
40
1
40
1
41
1
10
65.9522083601368
20
4.57980725432932
30
0
41
1
10
66.801472240091
20
3.04870891910403
30
0
41
1
10
67.6507361200452
20
1.52210155108827
30
0
41
1
10
68.4999999999994
20
1.08E-12
30
0
0
SPLINE
5
112
100
AcDbEntity
8
1
62
256
6
ByLayer
370
13
48
1
60
0
100
AcDbSpline
70
4
71
3
72
8
73
4
40
0
40
0
40
0
40
0
40
1
40
1
40
1
40
1
41
1
10
65.9522083601368
20
2.52572169121063
30
0
41
1
10
66.801472240091
20
1.67827007944231
30
0
41
1
10
67.6507361200452
20
0.836360122526855
30
0
41
1
10
68.4999999999994
20
5.969E-13
30
0
0
SPLINE
5
113
100
AcDbEntity
8
1
62
256
6
ByLayer
370
13
48
1
60
0
100
AcDbSpline
70
4
71
3
72
8
73
4
40
0
40
0
40
0
40
0
40
1
40
1
40
1
40
1
41
1
10
65.9522083601366
20
4.05555210961151
30
0
41
1
10
66.801472240091
20
2.70854686412153
30
0
41
1
10
67.6507361200455
20
1.35669176808275
30
0
41
1
10
68.4999999999999
20
1.421E-13
30
0
0
SPLINE
5
114
100
AcDbEntity
8
1
62
256
6
ByLayer
370
13
48
1
60
0
100
AcDbSpline
70
4
71
3
72
8
73
4
40
0
40
0
40
0
40
0
40
1
40
1
40
1
40
1
41
1
10
65.9522083601365
20
-5.189337884309
30
0
41
1
10
66.8014722400911
20
-3.46354839222948
30
0
41
1
10
67.6507361200457
20
-1.73376347893796
30
0
41
1
10
68.5000000000003
20
6.537E-13
30
0
0
SPLINE
5
115
100
AcDbEntity
8
1
62
256
6
ByLayer
370
13
48
1
60
0
100
AcDbSpline
70
4
71
3
72
8
73
4
40
0
40
0
40
0
40
0
40
1
40
1
40
1
40
1
41
1
10
65.9522083601365
20
-5.91694289169487
30
0
41
1
10
66.801472240091
20
-3.94780508965132
30
0
41
1
10
67.6507361200454
20
-1.97548438760177
30
0
41
1
10
68.4999999999999
20
-3.411E-13
30
0
0
SPLINE
5
116
100
AcDbEntity
8
1
62
256
6
ByLayer
370
13
48
1
60
0
100
AcDbSpline
70
4
71
3
72
8
73
4
40
0
40
0
40
0
40
0
40
1
40
1
40
1
40
1
41
1
10
65.9522083601365
20
-6.94590400281265
30
0
41
1
10
66.801472240091
20
-4.62986502158563
30
0
41
1
10
67.6507361200456
20
-2.31455617352586
30
0
41
1
10
68.5000000000001
20
2.274E-13
30
0
0
SPLINE
5
117
100
AcDbEntity
8
1
62
256
6
ByLayer
370
13
48
1
60
0
100
AcDbSpline
70
4
71
3
72
8
73
4
40
0
40
0
40
0
40
0
40
1
40
1
40
1
40
1
41
1
10
65.9522083601368
20
6.09708358317948
30
0
41
1
10
66.8014722400911
20
4.06180191220716
30
0
41
1
10
67.6507361200455
20
2.02943412470285
30
0
41
1
10
68.4999999999999
20
3.411E-13
30
0
0
SPLINE
5
118
100
AcDbEntity
8
1
62
256
6
ByLayer
370
13
48
1
60
0
100
AcDbSpline
70
4
71
3
72
8
73
4
40
0
40
0
40
0
40
0
40
1
40
1
40
1
40
1
41
1
10
65.9522083601365
20
-4.30853885643259
30
0
41
1
10
66.8014722400911
20
-2.87704456517446
30
0
41
1
10
67.6507361200457
20
-1.44086028000211
30
0
41
1
10
68.5000000000003
20
5.4E-13
30
0
0
LINE
5
7D
100
AcDbEntity
8
80
62
256
6
ByLayer
370
18
48
1
60
0
100
AcDbLine
10
0
20
0
30
0
11
-5
21
0
31
0
39
0
210
0
220
0
230
1
0
LINE
5
7E
100
AcDbEntity
8
4
62
256
6
ByLayer
370
18
48
0.05
60
0
100
AcDbLine
10
-5
20
0
30
0
11
73.5
21
0
31
0
39
0
210
0
220
0
230
1
0
LINE
5
80
100
AcDbEntity
8
81
62
256
6
ByLayer
370
18
48
1
60
0
100
AcDbLine
10
68.5
20
0
30
0
11
73.5
21
0
31
0
39
0
210
0
220
0
230
1
0
LINE
5
81
100
AcDbEntity
8
SK4
62
256
6
ByLayer
370
18
48
0.05
60
0
100
AcDbLine
10
-53
20
0
30
0
11
73.5
21
0
31
0
39
0
210
0
220
0
230
1
0
LINE
5
83
100
AcDbEntity
8
1
62
256
6
ByLayer
370
18
48
1
60
0
100
AcDbLine
10
10
20
-6.65
30
0
11
32.633374
21
-6.65
31
0
39
0
210
0
220
0
230
1
0
LINE
5
84
100
AcDbEntity
8
1
62
256
6
ByLayer
370
18
48
1
60
0
100
AcDbLine
10
32.633374
20
6.65
30
0
11
10
21
6.65
31
0
39
0
210
0
220
0
230
1
0
LINE
5
85
100
AcDbEntity
8
1
62
256
6
ByLayer
370
18
48
1
60
0
100
AcDbLine
10
68.5
20
0
30
0
11
65.952208
21
7
31
0
39
0
210
0
220
0
230
1
0
LINE
5
86
100
AcDbEntity
8
1
62
256
6
ByLayer
370
18
48
1
60
0
100
AcDbLine
10
65.952208
20
-7
30
0
11
68.5
21
0
31
0
39
0
210
0
220
0
230
1
0
LINE
5
87
100
AcDbEntity
8
1
62
256
6
ByLayer
370
18
48
1
60
0
100
AcDbLine
10
10
20
6.65
30
0
11
0
21
8
31
0
39
0
210
0
220
0
230
1
0
LINE
5
88
100
AcDbEntity
8
1
62
256
6
ByLayer
370
18
48
1
60
0
100
AcDbLine
10
0
20
-8
30
0
11
10
21
-6.65
31
0
39
0
210
0
220
0
230
1
0
LINE
5
89
100
AcDbEntity
8
1
62
256
6
ByLayer
370
18
48
1
60
0
100
AcDbLine
10
68.5
20
0
30
0
11
65.952208
21
7
31
0
39
0
210
0
220
0
230
1
0
LINE
5
8A
100
AcDbEntity
8
1
62
256
6
ByLayer
370
18
48
1
60
0
100
AcDbLine
10
65.952208
20
-7
30
0
11
68.5
21
0
31
0
39
0
210
0
220
0
230
1
0
LINE
5
8B
100
AcDbEntity
8
1
62
256
6
ByLayer
370
18
48
1
60
0
100
AcDbLine
10
58.2
20
-7
30
0
11
65.952208
21
-7
31
0
39
0
210
0
220
0
230
1
0
LINE
5
8C
100
AcDbEntity
8
SK1
62
256
6
ByLayer
370
18
48
1
60
0
100
AcDbLine
10
-47
20
-8
30
0
11
0
21
-8
31
0
39
0
210
0
220
0
230
1
0
LINE
5
8E
100
AcDbEntity
8
SK1
62
256
6
ByLayer
370
18
48
1
60
0
100
AcDbLine
10
0
20
8
30
0
11
-47
21
8
31
0
39
0
210
0
220
0
230
1
0
LINE
5
8F
100
AcDbEntity
8
SK1
62
256
6
ByLayer
370
18
48
1
60
0
100
AcDbLine
10
-48
20
-7
30
0
11
-47
21
-8
31
0
39
0
210
0
220
0
230
1
0
LINE
5
90
100
AcDbEntity
8
SK1
62
256
6
ByLayer
370
18
48
1
60
0
100
AcDbLine
10
-47
20
8
30
0
11
-48
21
7
31
0
39
0
210
0
220
0
230
1
0
LINE
5
91
100
AcDbEntity
8
1
62
256
6
ByLayer
370
18
48
1
60
0
100
AcDbLine
10
0
20
8
30
0
11
0
21
-8
31
0
39
0
210
0
220
0
230
1
0
LINE
5
92
100
AcDbEntity
8
1
62
256
6
ByLayer
370
18
48
1
60
0
100
AcDbLine
10
65.952208
20
7
30
0
11
65.952208
21
6.77773
31
0
39
0
210
0
220
0
230
1
0
LINE
5
93
100
AcDbEntity
8
1
62
256
6
ByLayer
370
18
48
1
60
0
100
AcDbLine
10
65.952208
20
-7
30
0
11
65.952208
21
-0.999365
31
0
39
0
210
0
220
0
230
1
0
LINE
5
94
100
AcDbEntity
8
1
62
256
6
ByLayer
370
18
48
1
60
0
100
AcDbLine
10
10
20
-6.65
30
0
11
10
21
-2.443807
31
0
39
0
210
0
220
0
230
1
0
LINE
5
95
100
AcDbEntity
8
1
62
256
6
ByLayer
370
18
48
1
60
0
100
AcDbLine
10
10
20
6.65
30
0
11
10
21
5.524222
31
0
39
0
210
0
220
0
230
1
0
LINE
5
96
100
AcDbEntity
8
SK1
62
256
6
ByLayer
370
13
48
1
60
0
100
AcDbLine
10
-14.956081
20
-5.420003
30
0
11
-14.956081
21
5.420003
31
0
39
0
210
0
220
0
230
1
0
LINE
5
97
100
AcDbEntity
8
SK1
62
256
6
ByLayer
370
13
48
1
60
0
100
AcDbLine
10
-40.20852
20
4.268613
30
0
11
-40.20852
21
-4.268613
31
0
39
0
210
0
220
0
230
1
0
LINE
5
98
100
AcDbEntity
8
SK1
62
256
6
ByLayer
370
13
48
1
60
0
100
AcDbLine
10
-13.809044
20
4.913811
30
0
11
-13.809044
21
-4.913811
31
0
39
0
210
0
220
0
230
1
0
LINE
5
99
100
AcDbEntity
8
SK1
62
256
6
ByLayer
370
18
48
1
60
0
100
AcDbLine
10
0
20
8
30
0
11
0
21
-8
31
0
39
0
210
0
220
0
230
1
0
LINE
5
9A
100
AcDbEntity
8
SK1
62
256
6
ByLayer
370
18
48
1
60
0
100
AcDbLine
10
-48
20
-7
30
0
11
-48
21
7
31
0
39
0
210
0
220
0
230
1
0
LINE
5
9B
100
AcDbEntity
8
SK1
62
256
6
ByLayer
370
18
48
1
60
0
100
AcDbLine
10
-47
20
-8
30
0
11
-47
21
8
31
0
39
0
210
0
220
0
230
1
0
LINE
5
9C
100
AcDbEntity
8
SK1
62
256
6
ByLayer
370
13
48
1
60
0
100
AcDbLine
10
-41.322847
20
-3.330349
30
0
11
-41.322847
21
3.330349
31
0
39
0
210
0
220
0
230
1
0
LINE
5
9D
100
AcDbEntity
8
1
62
256
6
ByLayer
370
18
48
1
60
0
100
AcDbLine
10
65.952208
20
7
30
0
11
65.952208
21
-7
31
0
39
0
210
0
220
0
230
1
0
LINE
5
9E
100
AcDbEntity
8
1
62
256
6
ByLayer
370
18
48
1
60
0
100
AcDbLine
10
65.952208
20
7
30
0
11
65.952208
21
-7
31
0
39
0
210
0
220
0
230
1
0
LINE
5
9F
100
AcDbEntity
8
1
62
256
6
ByLayer
370
18
48
1
60
0
100
AcDbLine
10
65.952208
20
7
30
0
11
65.952208
21
-7
31
0
39
0
210
0
220
0
230
1
0
LINE
5
A0
100
AcDbEntity
8
1
62
256
6
ByLayer
370
18
48
1
60
0
100
AcDbLine
10
58.2
20
7
30
0
11
58.2
21
-7
31
0
39
0
210
0
220
0
230
1
0
LINE
5
A1
100
AcDbEntity
8
1
62
256
6
ByLayer
370
18
48
1
60
0
100
AcDbLine
10
58.2
20
7
30
0
11
58.2
21
-7
31
0
39
0
210
0
220
0
230
1
0
LINE
5
A2
100
AcDbEntity
8
1
62
256
6
ByLayer
370
18
48
1
60
0
100
AcDbLine
10
65.952208
20
7
30
0
11
65.952208
21
-7
31
0
39
0
210
0
220
0
230
1
0
LINE
5
A3
100
AcDbEntity
8
1
62
256
6
ByLayer
370
18
48
1
60
0
100
AcDbLine
10
58.2
20
7
30
0
11
58.2
21
-7
31
0
39
0
210
0
220
0
230
1
0
LINE
5
A4
100
AcDbEntity
8
1
62
256
6
ByLayer
370
18
48
1
60
0
100
AcDbLine
10
65.952208
20
7
30
0
11
65.952208
21
-7
31
0
39
0
210
0
220
0
230
1
0
LINE
5
A5
100
AcDbEntity
8
SK2
62
256
6
ByLayer
370
13
48
1
60
0
100
AcDbLine
10
-54.5
20
-8
30
0
11
-54.5
21
36.274683
31
0
39
0
210
0
220
0
230
1
0
LINE
5
A7
100
AcDbEntity
8
SK2
62
256
6
ByLayer
370
13
48
1
60
0
100
AcDbLine
10
-49.5875
20
8
30
0
11
-56.5
21
8
31
0
39
0
210
0
220
0
230
1
0
LINE
5
A8
100
AcDbEntity
8
SK2
62
256
6
ByLayer
370
13
48
1
60
0
100
AcDbLine
10
-49.5875
20
-8
30
0
11
-56.5
21
-8
31
0
39
0
210
0
220
0
230
1
0
LINE
5
A9
100
AcDbEntity
8
1
62
256
6
ByLayer
370
18
48
1
60
1
100
AcDbLine
10
-54.5
20
8
30
0
11
-54.039216
21
4.500002
31
0
39
0
210
0
220
0
230
1
0
LINE
5
AA
100
AcDbEntity
8
1
62
256
6
ByLayer
370
18
48
1
60
1
100
AcDbLine
10
-54.039216
20
4.500002
30
0
11
-54.960784
21
4.499998
31
0
39
0
210
0
220
0
230
1
0
LINE
5
AB
100
AcDbEntity
8
1
62
256
6
ByLayer
370
18
48
1
60
1
100
AcDbLine
10
-54.960784
20
4.499998
30
0
11
-54.5
21
8
31
0
39
0
210
0
220
0
230
1
0
LINE
5
AC
100
AcDbEntity
8
1
62
256
6
ByLayer
370
18
48
1
60
1
100
AcDbLine
10
-54.5
20
-8
30
0
11
-54.960784
21
-4.500002
31
0
39
0
210
0
220
0
230
1
0
LINE
5
AD
100
AcDbEntity
8
1
62
256
6
ByLayer
370
18
48
1
60
1
100
AcDbLine
10
-54.960784
20
-4.500002
30
0
11
-54.039216
21
-4.499998
31
0
39
0
210
0
220
0
230
1
0
LINE
5
AE
100
AcDbEntity
8
1
62
256
6
ByLayer
370
18
48
1
60
1
100
AcDbLine
10
-54.039216
20
-4.499998
30
0
11
-54.5
21
-8
31
0
39
0
210
0
220
0
230
1
0
LINE
5
AF
100
AcDbEntity
8
2
62
256
6
ByLayer
370
13
48
1
60
0
100
AcDbLine
10
76
20
-7
30
0
11
76
21
35.590569
31
0
39
0
210
0
220
0
230
1
0
LINE
5
B1
100
AcDbEntity
8
2
62
256
6
ByLayer
370
13
48
1
60
0
100
AcDbLine
10
67.539708
20
7
30
0
11
78
21
7
31
0
39
0
210
0
220
0
230
1
0
LINE
5
B2
100
AcDbEntity
8
2
62
256
6
ByLayer
370
13
48
1
60
0
100
AcDbLine
10
67.539708
20
-7
30
0
11
78
21
-7
31
0
39
0
210
0
220
0
230
1
0
LINE
5
B3
100
AcDbEntity
8
1
62
256
6
ByLayer
370
18
48
1
60
1
100
AcDbLine
10
76
20
7
30
0
11
76.460784
21
3.500002
31
0
39
0
210
0
220
0
230
1
0
LINE
5
B4
100
AcDbEntity
8
1
62
256
6
ByLayer
370
18
48
1
60
1
100
AcDbLine
10
76.460784
20
3.500002
30
0
11
75.539216
21
3.499998
31
0
39
0
210
0
220
0
230
1
0
LINE
5
B5
100
AcDbEntity
8
1
62
256
6
ByLayer
370
18
48
1
60
1
100
AcDbLine
10
75.539216
20
3.499998
30
0
11
76
21
7
31
0
39
0
210
0
220
0
230
1
0
LINE
5
B6
100
AcDbEntity
8
1
62
256
6
ByLayer
370
18
48
1
60
1
100
AcDbLine
10
76
20
-7
30
0
11
75.539216
21
-3.500002
31
0
39
0
210
0
220
0
230
1
0
LINE
5
B7
100
AcDbEntity
8
1
62
256
6
ByLayer
370
18
48
1
60
1
100
AcDbLine
10
75.539216
20
-3.500002
30
0
11
76.460784
21
-3.499998
31
0
39
0
210
0
220
0
230
1
0
LINE
5
B8
100
AcDbEntity
8
1
62
256
6
ByLayer
370
18
48
1
60
1
100
AcDbLine
10
76.460784
20
-3.499998
30
0
11
76
21
-7
31
0
39
0
210
0
220
0
230
1
0
LINE
5
B9
100
AcDbEntity
8
SK2
62
256
6
ByLayer
370
13
48
1
60
0
100
AcDbLine
10
69.042957
20
-1.491762
30
0
11
75.682423
21
-19.733545
31
0
39
0
210
0
220
0
230
1
0
LINE
5
BA
100
AcDbEntity
8
SK2
62
256
6
ByLayer
370
13
48
1
60
0
100
AcDbLine
10
69.042957
20
1.491762
30
0
11
75.682423
21
19.733545
31
0
39
0
210
0
220
0
230
1
0
LINE
5
BB
100
AcDbEntity
8
1
62
256
6
ByLayer
370
18
48
1
60
1
100
AcDbLine
10
74.998383
20
-17.85416
30
0
11
78.051575
21
-16.082064
31
0
39
0
210
0
220
0
230
1
0
LINE
5
BC
100
AcDbEntity
8
1
62
256
6
ByLayer
370
18
48
1
60
1
100
AcDbLine
10
78.051575
20
-16.082064
30
0
11
78.406196
21
-16.93267
31
0
39
0
210
0
220
0
230
1
0
LINE
5
BD
100
AcDbEntity
8
1
62
256
6
ByLayer
370
18
48
1
60
1
100
AcDbLine
10
78.406196
20
-16.93267
30
0
11
74.998383
21
-17.85416
31
0
39
0
210
0
220
0
230
1
0
LINE
5
BE
100
AcDbEntity
8
1
62
256
6
ByLayer
370
18
48
1
60
1
100
AcDbLine
10
74.998383
20
17.85416
30
0
11
78.406193
21
16.932671
31
0
39
0
210
0
220
0
230
1
0
LINE
5
BF
100
AcDbEntity
8
1
62
256
6
ByLayer
370
18
48
1
60
1
100
AcDbLine
10
78.406193
20
16.932671
30
0
11
78.051579
21
16.082063
31
0
39
0
210
0
220
0
230
1
0
LINE
5
C0
100
AcDbEntity
8
1
62
256
6
ByLayer
370
18
48
1
60
1
100
AcDbLine
10
78.051579
20
16.082063
30
0
11
74.998383
21
17.85416
31
0
39
0
210
0
220
0
230
1
0
LINE
5
11D
100
AcDbEntity
8
1
62
256
6
ByLayer
370
18
48
1
60
1
100
AcDbLine
10
-54.5
20
8
30
0
11
-54.039216
21
4.500002
31
0
39
0
210
0
220
0
230
1
0
LINE
5
11E
100
AcDbEntity
8
1
62
256
6
ByLayer
370
18
48
1
60
1
100
AcDbLine
10
-54.039216
20
4.500002
30
0
11
-54.960784
21
4.499998
31
0
39
0
210
0
220
0
230
1
0
LINE
5
11F
100
AcDbEntity
8
1
62
256
6
ByLayer
370
18
48
1
60
1
100
AcDbLine
10
-54.960784
20
4.499998
30
0
11
-54.5
21
8
31
0
39
0
210
0
220
0
230
1
0
LINE
5
121
100
AcDbEntity
8
1
62
256
6
ByLayer
370
18
48
1
60
1
100
AcDbLine
10
-54.5
20
-8
30
0
11
-54.960784
21
-4.500002
31
0
39
0
210
0
220
0
230
1
0
LINE
5
122
100
AcDbEntity
8
1
62
256
6
ByLayer
370
18
48
1
60
1
100
AcDbLine
10
-54.960784
20
-4.500002
30
0
11
-54.039216
21
-4.499998
31
0
39
0
210
0
220
0
230
1
0
LINE
5
123
100
AcDbEntity
8
1
62
256
6
ByLayer
370
18
48
1
60
1
100
AcDbLine
10
-54.039216
20
-4.499998
30
0
11
-54.5
21
-8
31
0
39
0
210
0
220
0
230
1
0
LINE
5
127
100
AcDbEntity
8
1
62
256
6
ByLayer
370
18
48
1
60
1
100
AcDbLine
10
76
20
7
30
0
11
76.460784
21
3.500002
31
0
39
0
210
0
220
0
230
1
0
LINE
5
128
100
AcDbEntity
8
1
62
256
6
ByLayer
370
18
48
1
60
1
100
AcDbLine
10
76.460784
20
3.500002
30
0
11
75.539216
21
3.499998
31
0
39
0
210
0
220
0
230
1
0
LINE
5
129
100
AcDbEntity
8
1
62
256
6
ByLayer
370
18
48
1
60
1
100
AcDbLine
10
75.539216
20
3.499998
30
0
11
76
21
7
31
0
39
0
210
0
220
0
230
1
0
LINE
5
12B
100
AcDbEntity
8
1
62
256
6
ByLayer
370
18
48
1
60
1
100
AcDbLine
10
76
20
-7
30
0
11
75.539216
21
-3.500002
31
0
39
0
210
0
220
0
230
1
0
LINE
5
12C
100
AcDbEntity
8
1
62
256
6
ByLayer
370
18
48
1
60
1
100
AcDbLine
10
75.539216
20
-3.500002
30
0
11
76.460784
21
-3.499998
31
0
39
0
210
0
220
0
230
1
0
LINE
5
12D
100
AcDbEntity
8
1
62
256
6
ByLayer
370
18
48
1
60
1
100
AcDbLine
10
76.460784
20
-3.499998
30
0
11
76
21
-7
31
0
39
0
210
0
220
0
230
1
0
LINE
5
130
100
AcDbEntity
8
1
62
256
6
ByLayer
370
18
48
1
60
1
100
AcDbLine
10
74.998383
20
-17.85416
30
0
11
78.051575
21
-16.082064
31
0
39
0
210
0
220
0
230
1
0
LINE
5
131
100
AcDbEntity
8
1
62
256
6
ByLayer
370
18
48
1
60
1
100
AcDbLine
10
78.051575
20
-16.082064
30
0
11
78.406196
21
-16.93267
31
0
39
0
210
0
220
0
230
1
0
LINE
5
132
100
AcDbEntity
8
1
62
256
6
ByLayer
370
18
48
1
60
1
100
AcDbLine
10
78.406196
20
-16.93267
30
0
11
74.998383
21
-17.85416
31
0
39
0
210
0
220
0
230
1
0
LINE
5
134
100
AcDbEntity
8
1
62
256
6
ByLayer
370
18
48
1
60
1
100
AcDbLine
10
74.998383
20
17.85416
30
0
11
78.406193
21
16.932671
31
0
39
0
210
0
220
0
230
1
0
LINE
5
135
100
AcDbEntity
8
1
62
256
6
ByLayer
370
18
48
1
60
1
100
AcDbLine
10
78.406193
20
16.932671
30
0
11
78.051579
21
16.082063
31
0
39
0
210
0
220
0
230
1
0
LINE
5
136
100
AcDbEntity
8
1
62
256
6
ByLayer
370
18
48
1
60
1
100
AcDbLine
10
78.051579
20
16.082063
30
0
11
74.998383
21
17.85416
31
0
39
0
210
0
220
0
230
1
0
MTEXT
5
119
100
AcDbEntity
8
SK2
62
256
6
ByLayer
370
18
48
1
60
0
100
AcDbMText
10
-55.841114
20
19.658438
30
0
210
0
220
0
230
1
1
%%c
40
3
41
0
44
1.084337
50
90
71
7
72
5
7
iso_b_vert
0
MTEXT
5
11C
100
AcDbEntity
8
SK2
62
256
6
ByLayer
370
18
48
1
60
0
100
AcDbMText
10
-55.841114
20
25.635
30
0
210
0
220
0
230
1
1
\W0.7022;16.000
40
3
41
0
44
1.084337
50
90
71
7
72
5
7
iso_b_vert
0
MTEXT
5
125
100
AcDbEntity
8
2
62
256
6
ByLayer
370
18
48
1
60
0
100
AcDbMText
10
74.658886
20
18.658438
30
0
210
0
220
0
230
1
1
%%c
40
3
41
0
44
1.084337
50
90
71
7
72
5
7
iso_b_vert
0
MTEXT
5
126
100
AcDbEntity
8
2
62
256
6
ByLayer
370
18
48
1
60
0
100
AcDbMText
10
74.658886
20
24.635
30
0
210
0
220
0
230
1
1
\W0.7237;14.000
40
3
41
0
44
1.084337
50
90
71
7
72
5
7
iso_b_vert
0
MTEXT
5
12F
100
AcDbEntity
8
SK2
62
256
6
ByLayer
370
18
48
1
60
0
100
AcDbMText
10
88.409114
20
3.734657
30
0
210
0
220
0
230
1
1
\W0.7071;140%%d
40
3
41
0
44
1.084337
50
270
71
7
72
5
7
iso_b_vert
0
MTEXT
5
138
100
AcDbEntity
8
SK6
62
256
6
ByLayer
370
18
48
1
60
0
100
AcDbMText
10
-13.60314
20
-67.114886
30
0
210
0
220
0
230
1
1
\W0.7499;H85314.0
40
3
41
0
44
1.084337
50
0
71
7
72
5
7
iso_b_vert
0
HATCH
5
120
100
AcDbEntity
8
SK2
62
256
6
ByLayer
370
13
48
1
60
0
100
AcDbHatch
10
0
20
0
30
0
210
0
220
0
230
1
2
ANSI31
70
0
71
0
91
1
92
5
93
3
72
1
10
-54.5
20
8
11
-54.0392162584472
21
4.50000169255318
72
1
10
-54.0392162584472
20
4.50000169255318
11
-54.9607837415528
21
4.49999830744682
72
1
10
-54.9607837415528
20
4.49999830744682
11
-54.5
21
8
97
0
75
0
76
1
52
0
41
0.0062
77
0
78
1
53
45
43
0
44
0
45
-0.0139193969876572
46
0.0139193969876572
79
0
47
0
98
1
10
0
20
0
0
HATCH
5
124
100
AcDbEntity
8
SK2
62
256
6
ByLayer
370
13
48
1
60
0
100
AcDbHatch
10
0
20
0
30
0
210
0
220
0
230
1
2
ANSI31
70
0
71
0
91
1
92
5
93
3
72
1
10
-54.5
20
-8
11
-54.9607837415528
21
-4.50000169255318
72
1
10
-54.9607837415528
20
-4.50000169255318
11
-54.0392162584472
21
-4.49999830744682
72
1
10
-54.0392162584472
20
-4.49999830744682
11
-54.5
21
-8
97
0
75
0
76
1
52
0
41
0.0062
77
0
78
1
53
45
43
0
44
0
45
-0.0139193969876572
46
0.0139193969876572
79
0
47
0
98
1
10
0
20
0
0
HATCH
5
12A
100
AcDbEntity
8
2
62
256
6
ByLayer
370
13
48
1
60
0
100
AcDbHatch
10
0
20
0
30
0
210
0
220
0
230
1
2
ANSI31
70
0
71
0
91
1
92
5
93
3
72
1
10
76
20
7
11
76.4607837415528
21
3.50000169255318
72
1
10
76.4607837415528
20
3.50000169255318
11
75.5392162584472
21
3.49999830744682
72
1
10
75.5392162584472
20
3.49999830744682
11
76
21
7
97
0
75
0
76
1
52
0
41
0.0062
77
0
78
1
53
45
43
0
44
0
45
-0.0139193969876572
46
0.0139193969876572
79
0
47
0
98
1
10
0
20
0
0
HATCH
5
12E
100
AcDbEntity
8
2
62
256
6
ByLayer
370
13
48
1
60
0
100
AcDbHatch
10
0
20
0
30
0
210
0
220
0
230
1
2
ANSI31
70
0
71
0
91
1
92
5
93
3
72
1
10
76
20
-7
11
75.5392162584472
21
-3.50000169255318
72
1
10
75.5392162584472
20
-3.50000169255318
11
76.4607837415528
21
-3.49999830744682
72
1
10
76.4607837415528
20
-3.49999830744682
11
76
21
-7
97
0
75
0
76
1
52
0
41
0.0062
77
0
78
1
53
45
43
0
44
0
45
-0.0139193969876572
46
0.0139193969876572
79
0
47
0
98
1
10
0
20
0
0
HATCH
5
133
100
AcDbEntity
8
SK2
62
256
6
ByLayer
370
13
48
1
60
0
100
AcDbHatch
10
0
20
0
30
0
210
0
220
0
230
1
2
ANSI31
70
0
71
0
91
1
92
5
93
3
72
1
10
74.9983827231877
20
-17.8541597949323
11
78.0515754256929
21
-16.0820638240608
72
1
10
78.0515754256929
20
-16.0820638240608
11
78.4061958339751
21
-16.9326700737197
72
1
10
78.4061958339751
20
-16.9326700737197
11
74.9983827231877
21
-17.8541597949323
97
0
75
0
76
1
52
0
41
0.0062
77
0
78
1
53
45
43
0
44
0
45
-0.0139193969876572
46
0.0139193969876572
79
0
47
0
98
1
10
0
20
0
0
HATCH
5
137
100
AcDbEntity
8
SK2
62
256
6
ByLayer
370
13
48
1
60
0
100
AcDbHatch
10
0
20
0
30
0
210
0
220
0
230
1
2
ANSI31
70
0
71
0
91
1
92
5
93
3
72
1
10
74.9983827231877
20
17.8541597949323
11
78.4061927095191
21
16.9326713763017
72
1
10
78.4061927095191
20
16.9326713763017
11
78.0515785501489
21
16.0820625214788
72
1
10
78.0515785501489
20
16.0820625214788
11
74.9983827231877
21
17.8541597949323
97
0
75
0
76
1
52
0
41
0.0062
77
0
78
1
53
45
43
0
44
0
45
-0.0139193969876572
46
0.0139193969876572
79
0
47
0
98
1
10
0
20
0
0
DIMENSION
5
13B
100
AcDbEntity
8
SK2
62
256
6
ByLayer
370
18
48
1
60
0
100
AcDbDimension
2
_U0
10
68.5
20
-45.952229
30
0
11
10.25
21
-45.952229
31
0
70
32
71
1
72
1
41
1
210
0
220
0
230
1
3
Standard
100
AcDbAlignedDimension
13
-48
23
-8
33
0
14
68.5
24
0
34
0
50
0
100
AcDbRotatedDimension
1001
ACAD
1000
DSTYLE
1002
{
1070
   371
1070
    13
1070
   372
1070
    13
1070
     3
1000

1070
   170
1070
     0
1070
   144
1040
1.0
1070
   277
1070
     2
1070
   284
1070
     8
1070
   278
1070
    46
1070
   146
1040
1.166667
1070
   345
1005
16
1070
   347
1005
16
1070
   346
1005
16
1070
   344
1005
0
1070
   343
1005
0
1070
   172
1070
     1
1070
    76
1070
     0
1070
    75
1070
     0
1070
   282
1070
     0
1070
   281
1070
     0
1070
    71
1070
     0
1070
    74
1070
     0
1070
   279
1070
     0
1070
   173
1070
     1
1070
   340
1005
11A
1070
   271
1070
     2
1070
   272
1070
     3
1070
    77
1070
     1
1070
    73
1070
     1
1070
   171
1070
     3
1070
   274
1070
     4
1070
   177
1070
     2
1070
   176
1070
     2
1070
   178
1070
     2
1070
    78
1070
     8
1070
    48
1040
-0.1
1070
    41
1040
3.5
1070
   147
1040
1.5
1070
    42
1040
1.5875
1070
    44
1040
2.0
1070
   140
1040
3.0
1002
}
1001
ACAD_DSTYLE_DIM_LINETYPE
1070
   380
1005
16
1001
ACAD_DSTYLE_DIM_EXT1_LINETYPE
1070
   381
1005
16
1001
ACAD_DSTYLE_DIM_EXT2_LINETYPE
1070
   382
1005
16
0
DIMENSION
5
154
100
AcDbEntity
8
SK2
62
256
6
ByLayer
370
18
48
1
60
0
100
AcDbDimension
2
_U1
10
3
20
-35.952229
30
0
11
35.75
21
-35.952229
31
0
70
32
71
1
72
1
41
1
210
0
220
0
230
1
3
Standard
100
AcDbAlignedDimension
13
68.5
23
0
33
0
14
3
24
-7
34
0
50
0
100
AcDbRotatedDimension
1001
ACAD
1000
DSTYLE
1002
{
1070
   371
1070
    13
1070
   372
1070
    13
1070
     3
1000

1070
   170
1070
     0
1070
   144
1040
1.0
1070
   277
1070
     2
1070
   284
1070
     8
1070
   278
1070
    46
1070
   146
1040
1.166667
1070
   345
1005
16
1070
   347
1005
16
1070
   346
1005
16
1070
   344
1005
0
1070
   343
1005
0
1070
   172
1070
     1
1070
    76
1070
     0
1070
    75
1070
     0
1070
   282
1070
     0
1070
   281
1070
     0
1070
    71
1070
     0
1070
    74
1070
     0
1070
   279
1070
     0
1070
   173
1070
     1
1070
   340
1005
11A
1070
   271
1070
     2
1070
   272
1070
     3
1070
    77
1070
     1
1070
    73
1070
     1
1070
   171
1070
     3
1070
   274
1070
     4
1070
   177
1070
     2
1070
   176
1070
     2
1070
   178
1070
     2
1070
    78
1070
     8
1070
    48
1040
-0.1
1070
    41
1040
3.5
1070
   147
1040
1.5
1070
    42
1040
1.5875
1070
    44
1040
2.0
1070
   140
1040
3.0
1002
}
1001
ACAD_DSTYLE_DIM_LINETYPE
1070
   380
1005
16
1001
ACAD_DSTYLE_DIM_EXT1_LINETYPE
1070
   381
1005
16
1001
ACAD_DSTYLE_DIM_EXT2_LINETYPE
1070
   382
1005
16
0
DIMENSION
5
16C
100
AcDbEntity
8
SK2
62
256
6
ByLayer
370
18
48
1
60
0
100
AcDbDimension
2
_U2
10
0
20
-35.952229
30
0
11
-24
21
-35.952229
31
0
70
32
71
1
72
1
41
1
210
0
220
0
230
1
3
Standard
100
AcDbAlignedDimension
13
-48
23
-8
33
0
14
0
24
-8
34
0
50
0
100
AcDbRotatedDimension
1001
ACAD
1000
DSTYLE
1002
{
1070
   371
1070
    13
1070
   372
1070
    13
1070
     3
1000

1070
   170
1070
     0
1070
   144
1040
1.0
1070
   277
1070
     2
1070
   284
1070
     8
1070
   278
1070
    46
1070
   146
1040
1.166667
1070
   345
1005
16
1070
   347
1005
16
1070
   346
1005
16
1070
   344
1005
0
1070
   343
1005
0
1070
   172
1070
     1
1070
    76
1070
     0
1070
    75
1070
     0
1070
   282
1070
     0
1070
   281
1070
     0
1070
    71
1070
     0
1070
    74
1070
     0
1070
   279
1070
     0
1070
   173
1070
     1
1070
   340
1005
11A
1070
   271
1070
     2
1070
   272
1070
     3
1070
    77
1070
     1
1070
    73
1070
     1
1070
   171
1070
     3
1070
   274
1070
     4
1070
   177
1070
     2
1070
   176
1070
     2
1070
   178
1070
     2
1070
    78
1070
     8
1070
    48
1040
-0.1
1070
    41
1040
3.5
1070
   147
1040
1.5
1070
    42
1040
1.5875
1070
    44
1040
2.0
1070
   140
1040
3.0
1002
}
1001
ACAD_DSTYLE_DIM_LINETYPE
1070
   380
1005
16
1001
ACAD_DSTYLE_DIM_EXT1_LINETYPE
1070
   381
1005
16
1001
ACAD_DSTYLE_DIM_EXT2_LINETYPE
1070
   382
1005
16
0
DIMENSION
5
184
100
AcDbEntity
8
SK2
62
256
6
ByLayer
370
18
48
1
60
0
100
AcDbDimension
2
_U3
10
16
20
32.952229
30
0
11
42.25
21
32.952229
31
0
70
32
71
1
72
1
41
1
210
0
220
0
230
1
3
Standard
100
AcDbAlignedDimension
13
68.5
23
0
33
0
14
16
24
7
34
0
50
0
100
AcDbRotatedDimension
1001
ACAD
1000
DSTYLE
1002
{
1070
   371
1070
    13
1070
   372
1070
    13
1070
     3
1000

1070
   170
1070
     0
1070
   144
1040
1.0
1070
   277
1070
     2
1070
   284
1070
     8
1070
   278
1070
    46
1070
   146
1040
1.166667
1070
   345
1005
16
1070
   347
1005
16
1070
   346
1005
16
1070
   344
1005
0
1070
   343
1005
0
1070
   172
1070
     1
1070
    76
1070
     0
1070
    75
1070
     0
1070
   282
1070
     0
1070
   281
1070
     0
1070
    71
1070
     0
1070
    74
1070
     0
1070
   279
1070
     0
1070
   173
1070
     1
1070
   340
1005
11A
1070
   271
1070
     2
1070
   272
1070
     3
1070
    77
1070
     1
1070
    73
1070
     1
1070
   171
1070
     3
1070
   274
1070
     4
1070
   177
1070
     2
1070
   176
1070
     2
1070
   178
1070
     2
1070
    78
1070
     8
1070
    48
1040
-0.1
1070
    41
1040
3.5
1070
   147
1040
1.5
1070
    42
1040
1.5875
1070
    44
1040
2.0
1070
   140
1040
3.0
1002
}
1001
ACAD_DSTYLE_DIM_LINETYPE
1070
   380
1005
16
1001
ACAD_DSTYLE_DIM_EXT1_LINETYPE
1070
   381
1005
16
1001
ACAD_DSTYLE_DIM_EXT2_LINETYPE
1070
   382
1005
16
0
ENDSEC
0
SECTION
2
OBJECTS
0
DICTIONARY
5
20c
330
0
100
AcDbDictionary
280
0
281
1
3
ACAD_GROUP
350
20d
3
ACAD_MLINESTYLE
350
20e
0
DICTIONARY
5
20d
330
0
100
AcDbDictionary
280
0
281
1
0
DICTIONARY
5
20e
330
0
100
AcDbDictionary
280
0
281
1
3
Standard
350
18
0
MLINESTYLE
5
18
330
20e
100
AcDbMlineStyle
2
Standard
70
0
3

62
256
51
90
52
90
71
2
49
-0.5
62
256
6
ByLayer
49
0.5
62
256
6
ByLayer
0
RASTERVARIABLES
5
1fa
330

100
AcDbRasterVariables
90
0
70
1
71
1
72
1
0
ENDSEC
0
EOF
