0
SECTION
2
HEADER
9
$ACADVER
1
AC1015
9
$DWGCODEPAGE
3
ANSI_1252
9
$HANDSEED
5
212
9
$ANGBASE
50
0
9
$ANGDIR
70
0
9
$ATTMODE
70
1
9
$AUNITS
70
0
9
$AUPREC
70
0
9
$CECOLOR
62
256
9
$CELTSCALE
40
1
9
$CELTYPE
6
ByLayer
9
$CELWEIGHT
370
18
9
$CLAYER
8
0
9
$CMLJUST
70
0
9
$CMLSCALE
40
1
9
$CMLSTYLE
2
Standard
9
$DIMSTYLE
2
Standard
9
$TEXTSIZE
40
0.2
9
$TEXTSTYLE
7
Standard
9
$LUNITS
70
2
9
$LUPREC
70
4
9
$EXTNAMES
290
1
9
$INSUNITS
70
4
9
$LTSCALE
40
1
9
$LWDISPLAY
290
1
9
$PDMODE
70
0
9
$PDSIZE
40
0
9
$PLINEGEN
70
0
0
ENDSEC
0
SECTION
2
CLASSES
0
CLASS
1
RASTERVARIABLES
2
AcDbRasterVariables
3
ISM
90
0
280
0
281
0
0
ENDSEC
0
SECTION
2
TABLES
0
TABLE
2
VPORT
5
208
100
AcDbSymbolTable
0
VPORT
5
1
100
AcDbSymbolTableRecord
100
AcDbViewportTableRecord
2
*Active
70
0
10
0
20
0
11
1
21
1
12
-1
22
1
13
0
23
0
14
0.5
24
0.5
15
10
25
10
16
0
26
0
36
1
17
0
27
0
37
0
0
ENDTAB
0
TABLE
2
LTYPE
5
209
100
AcDbSymbolTable
0
LTYPE
5
14
100
AcDbSymbolTableRecord
100
AcDbLinetypeTableRecord
70
0
2
ByBlock
3

72
65
73
0
40
0
0
LTYPE
5
15
100
AcDbSymbolTableRecord
100
AcDbLinetypeTableRecord
70
0
2
ByLayer
3

72
65
73
0
40
0
0
LTYPE
5
16
100
AcDbSymbolTableRecord
100
AcDbLinetypeTableRecord
70
0
2
Continuous
3
Solid line
72
65
73
0
40
0
0
LTYPE
5
6E
100
AcDbSymbolTableRecord
100
AcDbLinetypeTableRecord
70
0
2
CENTER
3
____ _ ____ _ ____ _ ____
72
65
73
4
40
47.5
49
22
74
0
49
-8.5
74
0
49
8.5
74
0
49
-8.5
74
0
0
LTYPE
5
6F
100
AcDbSymbolTableRecord
100
AcDbLinetypeTableRecord
70
0
2
DASHED
3
__ __ __ __ __ __ __ __ __
72
65
73
2
40
25.72
49
12.86
74
0
49
-12.86
74
0
0
ENDTAB
0
TABLE
2
LAYER
5
20a
100
AcDbSymbolTable
0
LAYER
5
10
100
AcDbSymbolTableRecord
100
AcDbLayerTableRecord
2
0
70
0
62
7
6
Continuous
290
1
370
-3
390
0
0
LAYER
5
71
100
AcDbSymbolTableRecord
100
AcDbLayerTableRecord
2
80
70
0
62
-6
6
Continuous
290
1
370
-3
390
0
0
LAYER
5
73
100
AcDbSymbolTableRecord
100
AcDbLayerTableRecord
2
81
70
0
62
-3
6
Continuous
290
1
370
-3
390
0
0
LAYER
5
75
100
AcDbSymbolTableRecord
100
AcDbLayerTableRecord
2
1
70
0
62
4
6
Continuous
290
1
370
-3
390
0
0
LAYER
5
80
100
AcDbSymbolTableRecord
100
AcDbLayerTableRecord
2
4
70
0
62
-2
6
CENTER
290
1
370
-3
390
0
0
LAYER
5
B0
100
AcDbSymbolTableRecord
100
AcDbLayerTableRecord
2
2
70
0
62
7
6
Continuous
290
1
370
-3
390
0
0
LAYER
5
137
100
AcDbSymbolTableRecord
100
AcDbLayerTableRecord
2
Defpoints
70
0
62
7
6
Continuous
290
0
370
-3
390
0
0
LAYER
5
1f4
100
AcDbSymbolTableRecord
100
AcDbLayerTableRecord
2
SK4
70
0
62
2
6
CENTER
290
1
370
-3
390
0
0
LAYER
5
1f5
100
AcDbSymbolTableRecord
100
AcDbLayerTableRecord
2
SK1
70
0
62
4
6
Continuous
290
1
370
-3
390
0
0
LAYER
5
1f6
100
AcDbSymbolTableRecord
100
AcDbLayerTableRecord
2
SK2
70
0
62
7
6
Continuous
290
1
370
-3
390
0
0
LAYER
5
1f7
100
AcDbSymbolTableRecord
100
AcDbLayerTableRecord
2
SK6
70
0
62
5
6
Continuous
290
1
370
-3
390
0
0
ENDTAB
0
TABLE
2
STYLE
5
20b
100
AcDbSymbolTable
0
STYLE
5
11
100
AcDbSymbolTableRecord
100
AcDbTextStyleTableRecord
2
Standard
3
txt
70
0
71
0
40
0
41
1
42
0
50
0
0
STYLE
5
113
100
AcDbSymbolTableRecord
100
AcDbTextStyleTableRecord
2
iso_b_vert
3
simplex.shx
70
0
71
0
40
0
41
1
42
0
50
0
0
STYLE
5
114
100
AcDbSymbolTableRecord
100
AcDbTextStyleTableRecord
2
DWGDirectTextStyle
3
simplex
70
0
71
0
40
0
41
1
42
0
50
0
0
ENDTAB
0
TABLE
2
DIMSTYLE
5
20c
100
AcDbSymbolTable
100
AcDbDimStyleTable
0
DIMSTYLE
105
27
100
AcDbSymbolTableRecord
100
AcDbDimStyleTableRecord
2
Standard
70
0
3
<>
41
0.18
42
0.0625
44
0.18
140
0.18
147
0.09
73
0
74
0
77
1
271
2
275
0
278
52
280
0
340
11
0
ENDTAB
0
TABLE
2
VIEW
5
20d
100
AcDbSymbolTable
0
ENDTAB
0
TABLE
2
UCS
5
20e
100
AcDbSymbolTable
0
ENDTAB
0
TABLE
2
APPID
5
20f
100
AcDbSymbolTable
0
APPID
5
12
100
AcDbSymbolTableRecord
100
AcDbRegAppTableRecord
2
ACAD
70
0
0
APPID
5
133
100
AcDbSymbolTableRecord
100
AcDbRegAppTableRecord
2
ACAD_DSTYLE_DIMBREAK
70
0
0
APPID
5
1B3
100
AcDbSymbolTableRecord
100
AcDbRegAppTableRecord
2
ACAD_DSTYLE_DIM_LINETYPE
70
0
0
APPID
5
1B4
100
AcDbSymbolTableRecord
100
AcDbRegAppTableRecord
2
ACAD_DSTYLE_DIM_EXT1_LINETYPE
70
0
0
APPID
5
1B5
100
AcDbSymbolTableRecord
100
AcDbRegAppTableRecord
2
ACAD_DSTYLE_DIM_EXT2_LINETYPE
70
0
0
APPID
5
1F0
100
AcDbSymbolTableRecord
100
AcDbRegAppTableRecord
2
ACAD_MLEADERVER
70
0
0
ENDTAB
0
TABLE
2
BLOCK_RECORD
5
210
100
AcDbSymbolTable
0
BLOCK_RECORD
5
1F
100
AcDbSymbolTableRecord
100
AcDbBlockTableRecord
2
*Model_Space
340
0
70
0
0
BLOCK_RECORD
5
1B
100
AcDbSymbolTableRecord
100
AcDbBlockTableRecord
2
*Paper_Space
340
0
70
0
0
BLOCK_RECORD
5
23
100
AcDbSymbolTableRecord
100
AcDbBlockTableRecord
2
*Paper_Space0
340
0
70
0
0
BLOCK_RECORD
5
138
100
AcDbSymbolTableRecord
100
AcDbBlockTableRecord
2
*D1
340
0
70
0
0
BLOCK_RECORD
5
144
100
AcDbSymbolTableRecord
100
AcDbBlockTableRecord
2
_U0
340
0
70
0
0
BLOCK_RECORD
5
150
100
AcDbSymbolTableRecord
100
AcDbBlockTableRecord
2
*D3
340
0
70
0
0
BLOCK_RECORD
5
15C
100
AcDbSymbolTableRecord
100
AcDbBlockTableRecord
2
_U1
340
0
70
0
0
BLOCK_RECORD
5
168
100
AcDbSymbolTableRecord
100
AcDbBlockTableRecord
2
*D5
340
0
70
0
0
BLOCK_RECORD
5
174
100
AcDbSymbolTableRecord
100
AcDbBlockTableRecord
2
_U2
340
0
70
0
0
BLOCK_RECORD
5
180
100
AcDbSymbolTableRecord
100
AcDbBlockTableRecord
2
*D7
340
0
70
0
0
BLOCK_RECORD
5
18C
100
AcDbSymbolTableRecord
100
AcDbBlockTableRecord
2
_U3
340
0
70
0
0
ENDTAB
0
ENDSEC
0
SECTION
2
BLOCKS
0
BLOCK
5
20
100
AcDbEntity
8
0
100
AcDbBlockBegin
2
*Model_Space
70
0
10
0
20
0
30
0
3
*Model_Space
0
ENDBLK
5
21
100
AcDbEntity
8
0
100
AcDbBlockEnd
0
BLOCK
5
1C
100
AcDbEntity
8
0
100
AcDbBlockBegin
2
*Paper_Space
70
0
10
0
20
0
30
0
3
*Paper_Space
0
ENDBLK
5
1D
100
AcDbEntity
8
0
100
AcDbBlockEnd
0
BLOCK
5
24
100
AcDbEntity
8
0
100
AcDbBlockBegin
2
*Paper_Space0
70
0
10
0
20
0
30
0
3
*Paper_Space0
0
ENDBLK
5
25
100
AcDbEntity
8
0
100
AcDbBlockEnd
0
BLOCK
5
139
100
AcDbEntity
8
0
100
AcDbBlockBegin
2
*D1
70
1
10
0
20
0
30
0
3
*D1
0
LINE
5
13B
100
AcDbEntity
8
0
62
256
6
ByLayer
370
-2
48
1
60
0
100
AcDbLine
10
-48
20
-9.5875
30
0
11
-48
21
-47.952229
31
0
39
0
210
0
220
0
230
1
0
LINE
5
13C
100
AcDbEntity
8
0
62
256
6
ByLayer
370
-2
48
1
60
0
100
AcDbLine
10
57
20
-1.5875
30
0
11
57
21
-47.952229
31
0
39
0
210
0
220
0
230
1
0
LINE
5
13D
100
AcDbEntity
8
0
62
256
6
ByLayer
370
-2
48
1
60
0
100
AcDbLine
10
-44.5
20
-45.952229
30
0
11
53.5
21
-45.952229
31
0
39
0
210
0
220
0
230
1
0
SOLID
5
13E
100
AcDbEntity
8
0
62
256
6
ByLayer
370
-1
48
1
60
0
100
AcDbTrace
10
-44.5
20
-45.368896
30
0
11
-44.5
21
-46.535563
31
0
12
-48
22
-45.952229
32
0
13
-48
23
-45.952229
33
0
39
0
210
0
220
0
230
1
0
SOLID
5
13F
100
AcDbEntity
8
0
62
256
6
ByLayer
370
-1
48
1
60
0
100
AcDbTrace
10
53.5
20
-46.535563
30
0
11
53.5
21
-45.368896
31
0
12
57
22
-45.952229
32
0
13
57
23
-45.952229
33
0
39
0
210
0
220
0
230
1
0
MTEXT
5
140
100
AcDbEntity
8
0
62
256
6
ByLayer
370
18
48
1
60
0
100
AcDbMText
10
4.5
20
-39.952229
30
0
210
0
220
0
230
1
1
\A1;105
40
3
41
0
44
1
50
0
71
5
72
5
7
iso_b_vert
0
POINT
5
141
100
AcDbEntity
8
Defpoints
62
0
6
ByLayer
370
-1
48
1
60
0
100
AcDbPoint
10
-48
20
-8
30
0
39
0
210
0
220
0
230
1
50
360
0
POINT
5
142
100
AcDbEntity
8
Defpoints
62
0
6
ByLayer
370
-1
48
1
60
0
100
AcDbPoint
10
57
20
0
30
0
39
0
210
0
220
0
230
1
50
360
0
POINT
5
143
100
AcDbEntity
8
Defpoints
62
0
6
ByLayer
370
-1
48
1
60
0
100
AcDbPoint
10
57
20
-45.952229
30
0
39
0
210
0
220
0
230
1
50
360
0
ENDBLK
5
13A
100
AcDbEntity
8
0
100
AcDbBlockEnd
0
BLOCK
5
14B
100
AcDbEntity
8
0
100
AcDbBlockBegin
2
_U0
70
0
10
0
20
0
30
0
3
_U0
0
MTEXT
5
145
100
AcDbEntity
8
SK2
62
256
6
ByLayer
370
18
48
1
60
0
100
AcDbMText
10
-0.728342
20
-45.067115
30
0
210
0
220
0
230
1
1
\W0.7022;105.00
40
3
41
0
44
1.084337
50
0
71
7
72
5
7
iso_b_vert
0
LINE
5
146
100
AcDbEntity
8
SK2
62
256
6
ByLayer
370
13
48
1
60
0
100
AcDbLine
10
-48
20
-9.5875
30
0
11
-48
21
-47.952229
31
0
39
0
210
0
220
0
230
1
0
LINE
5
147
100
AcDbEntity
8
SK2
62
256
6
ByLayer
370
13
48
1
60
0
100
AcDbLine
10
57
20
-1.5875
30
0
11
57
21
-47.952229
31
0
39
0
210
0
220
0
230
1
0
LINE
5
148
100
AcDbEntity
8
SK2
62
256
6
ByLayer
370
13
48
1
60
0
100
AcDbLine
10
-48
20
-45.952229
30
0
11
57
21
-45.952229
31
0
39
0
210
0
220
0
230
1
0
SOLID
5
149
100
AcDbEntity
8
SK2
62
256
6
ByLayer
370
18
48
1
60
0
100
AcDbTrace
10
-48
20
-45.952229
30
0
11
-44.500002
21
-45.491446
31
0
12
-44.499998
22
-46.413013
32
0
13
-44.499998
23
-46.413013
33
0
39
0
210
0
220
0
230
1
0
SOLID
5
14A
100
AcDbEntity
8
SK2
62
256
6
ByLayer
370
18
48
1
60
0
100
AcDbTrace
10
57
20
-45.952229
30
0
11
53.500002
21
-46.413013
31
0
12
53.499998
22
-45.491446
32
0
13
53.499998
23
-45.491446
33
0
39
0
210
0
220
0
230
1
0
ENDBLK
5
14C
100
AcDbEntity
8
0
100
AcDbBlockEnd
0
BLOCK
5
151
100
AcDbEntity
8
0
100
AcDbBlockBegin
2
*D3
70
1
10
0
20
0
30
0
3
*D3
0
LINE
5
153
100
AcDbEntity
8
0
62
256
6
ByLayer
370
-2
48
1
60
0
100
AcDbLine
10
57
20
-1.5875
30
0
11
57
21
-37.952229
31
0
39
0
210
0
220
0
230
1
0
LINE
5
154
100
AcDbEntity
8
0
62
256
6
ByLayer
370
-2
48
1
60
0
100
AcDbLine
10
3
20
-7.8375
30
0
11
3
21
-37.952229
31
0
39
0
210
0
220
0
230
1
0
LINE
5
155
100
AcDbEntity
8
0
62
256
6
ByLayer
370
-2
48
1
60
0
100
AcDbLine
10
53.5
20
-35.952229
30
0
11
6.5
21
-35.952229
31
0
39
0
210
0
220
0
230
1
0
SOLID
5
156
100
AcDbEntity
8
0
62
256
6
ByLayer
370
-1
48
1
60
0
100
AcDbTrace
10
53.5
20
-36.535563
30
0
11
53.5
21
-35.368896
31
0
12
57
22
-35.952229
32
0
13
57
23
-35.952229
33
0
39
0
210
0
220
0
230
1
0
SOLID
5
157
100
AcDbEntity
8
0
62
256
6
ByLayer
370
-1
48
1
60
0
100
AcDbTrace
10
6.5
20
-35.368896
30
0
11
6.5
21
-36.535563
31
0
12
3
22
-35.952229
32
0
13
3
23
-35.952229
33
0
39
0
210
0
220
0
230
1
0
MTEXT
5
158
100
AcDbEntity
8
0
62
256
6
ByLayer
370
18
48
1
60
0
100
AcDbMText
10
30
20
-29.952229
30
0
210
0
220
0
230
1
1
\A1;54
40
3
41
0
44
1
50
0
71
5
72
5
7
iso_b_vert
0
POINT
5
159
100
AcDbEntity
8
Defpoints
62
0
6
ByLayer
370
-1
48
1
60
0
100
AcDbPoint
10
57
20
0
30
0
39
0
210
0
220
0
230
1
50
360
0
POINT
5
15A
100
AcDbEntity
8
Defpoints
62
0
6
ByLayer
370
-1
48
1
60
0
100
AcDbPoint
10
3
20
-6.25
30
0
39
0
210
0
220
0
230
1
50
360
0
POINT
5
15B
100
AcDbEntity
8
Defpoints
62
0
6
ByLayer
370
-1
48
1
60
0
100
AcDbPoint
10
3
20
-35.952229
30
0
39
0
210
0
220
0
230
1
50
360
0
ENDBLK
5
152
100
AcDbEntity
8
0
100
AcDbBlockEnd
0
BLOCK
5
163
100
AcDbEntity
8
0
100
AcDbBlockBegin
2
_U1
70
0
10
0
20
0
30
0
3
_U1
0
MTEXT
5
15D
100
AcDbEntity
8
SK2
62
256
6
ByLayer
370
18
48
1
60
0
100
AcDbMText
10
25.359687
20
-35.067115
30
0
210
0
220
0
230
1
1
\W0.7694;54.00
40
3
41
0
44
1.084337
50
0
71
7
72
5
7
iso_b_vert
0
LINE
5
15E
100
AcDbEntity
8
SK2
62
256
6
ByLayer
370
13
48
1
60
0
100
AcDbLine
10
57
20
-1.5875
30
0
11
57
21
-37.952229
31
0
39
0
210
0
220
0
230
1
0
LINE
5
15F
100
AcDbEntity
8
SK2
62
256
6
ByLayer
370
13
48
1
60
0
100
AcDbLine
10
3
20
-7.8375
30
0
11
3
21
-37.952229
31
0
39
0
210
0
220
0
230
1
0
LINE
5
160
100
AcDbEntity
8
SK2
62
256
6
ByLayer
370
13
48
1
60
0
100
AcDbLine
10
57
20
-35.952229
30
0
11
3
21
-35.952229
31
0
39
0
210
0
220
0
230
1
0
SOLID
5
161
100
AcDbEntity
8
SK2
62
256
6
ByLayer
370
18
48
1
60
0
100
AcDbTrace
10
57
20
-35.952229
30
0
11
53.500002
21
-36.413013
31
0
12
53.499998
22
-35.491446
32
0
13
53.499998
23
-35.491446
33
0
39
0
210
0
220
0
230
1
0
SOLID
5
162
100
AcDbEntity
8
SK2
62
256
6
ByLayer
370
18
48
1
60
0
100
AcDbTrace
10
3
20
-35.952229
30
0
11
6.499998
21
-35.491446
31
0
12
6.500002
22
-36.413013
32
0
13
6.500002
23
-36.413013
33
0
39
0
210
0
220
0
230
1
0
ENDBLK
5
164
100
AcDbEntity
8
0
100
AcDbBlockEnd
0
BLOCK
5
169
100
AcDbEntity
8
0
100
AcDbBlockBegin
2
*D5
70
1
10
0
20
0
30
0
3
*D5
0
LINE
5
16B
100
AcDbEntity
8
0
62
256
6
ByLayer
370
-2
48
1
60
0
100
AcDbLine
10
-48
20
-9.5875
30
0
11
-48
21
-37.952229
31
0
39
0
210
0
220
0
230
1
0
LINE
5
16C
100
AcDbEntity
8
0
62
256
6
ByLayer
370
-2
48
1
60
0
100
AcDbLine
10
0
20
-9.5875
30
0
11
0
21
-37.952229
31
0
39
0
210
0
220
0
230
1
0
LINE
5
16D
100
AcDbEntity
8
0
62
256
6
ByLayer
370
-2
48
1
60
0
100
AcDbLine
10
-44.5
20
-35.952229
30
0
11
-3.5
21
-35.952229
31
0
39
0
210
0
220
0
230
1
0
SOLID
5
16E
100
AcDbEntity
8
0
62
256
6
ByLayer
370
-1
48
1
60
0
100
AcDbTrace
10
-44.5
20
-35.368896
30
0
11
-44.5
21
-36.535563
31
0
12
-48
22
-35.952229
32
0
13
-48
23
-35.952229
33
0
39
0
210
0
220
0
230
1
0
SOLID
5
16F
100
AcDbEntity
8
0
62
256
6
ByLayer
370
-1
48
1
60
0
100
AcDbTrace
10
-3.5
20
-36.535563
30
0
11
-3.5
21
-35.368896
31
0
12
0
22
-35.952229
32
0
13
0
23
-35.952229
33
0
39
0
210
0
220
0
230
1
0
MTEXT
5
170
100
AcDbEntity
8
0
62
256
6
ByLayer
370
18
48
1
60
0
100
AcDbMText
10
-24
20
-29.952229
30
0
210
0
220
0
230
1
1
\A1;48
40
3
41
0
44
1
50
0
71
5
72
5
7
iso_b_vert
0
POINT
5
171
100
AcDbEntity
8
Defpoints
62
0
6
ByLayer
370
-1
48
1
60
0
100
AcDbPoint
10
-48
20
-8
30
0
39
0
210
0
220
0
230
1
50
360
0
POINT
5
172
100
AcDbEntity
8
Defpoints
62
0
6
ByLayer
370
-1
48
1
60
0
100
AcDbPoint
10
0
20
-8
30
0
39
0
210
0
220
0
230
1
50
360
0
POINT
5
173
100
AcDbEntity
8
Defpoints
62
0
6
ByLayer
370
-1
48
1
60
0
100
AcDbPoint
10
0
20
-35.952229
30
0
39
0
210
0
220
0
230
1
50
360
0
ENDBLK
5
16A
100
AcDbEntity
8
0
100
AcDbBlockEnd
0
BLOCK
5
17B
100
AcDbEntity
8
0
100
AcDbBlockBegin
2
_U2
70
0
10
0
20
0
30
0
3
_U2
0
MTEXT
5
175
100
AcDbEntity
8
SK2
62
256
6
ByLayer
370
18
48
1
60
0
100
AcDbMText
10
-28.640313
20
-35.067115
30
0
210
0
220
0
230
1
1
\W0.7694;48.00
40
3
41
0
44
1.084337
50
0
71
7
72
5
7
iso_b_vert
0
LINE
5
176
100
AcDbEntity
8
SK2
62
256
6
ByLayer
370
13
48
1
60
0
100
AcDbLine
10
-48
20
-9.5875
30
0
11
-48
21
-37.952229
31
0
39
0
210
0
220
0
230
1
0
LINE
5
177
100
AcDbEntity
8
SK2
62
256
6
ByLayer
370
13
48
1
60
0
100
AcDbLine
10
0
20
-9.5875
30
0
11
0
21
-37.952229
31
0
39
0
210
0
220
0
230
1
0
LINE
5
178
100
AcDbEntity
8
SK2
62
256
6
ByLayer
370
13
48
1
60
0
100
AcDbLine
10
-48
20
-35.952229
30
0
11
0
21
-35.952229
31
0
39
0
210
0
220
0
230
1
0
SOLID
5
179
100
AcDbEntity
8
SK2
62
256
6
ByLayer
370
18
48
1
60
0
100
AcDbTrace
10
-48
20
-35.952229
30
0
11
-44.500002
21
-35.491446
31
0
12
-44.499998
22
-36.413013
32
0
13
-44.499998
23
-36.413013
33
0
39
0
210
0
220
0
230
1
0
SOLID
5
17A
100
AcDbEntity
8
SK2
62
256
6
ByLayer
370
18
48
1
60
0
100
AcDbTrace
10
0
20
-35.952229
30
0
11
-3.499998
21
-36.413013
31
0
12
-3.500002
22
-35.491446
32
0
13
-3.500002
23
-35.491446
33
0
39
0
210
0
220
0
230
1
0
ENDBLK
5
17C
100
AcDbEntity
8
0
100
AcDbBlockEnd
0
BLOCK
5
181
100
AcDbEntity
8
0
100
AcDbBlockBegin
2
*D7
70
1
10
0
20
0
30
0
3
*D7
0
LINE
5
183
100
AcDbEntity
8
0
62
256
6
ByLayer
370
-2
48
1
60
0
100
AcDbLine
10
57
20
1.5875
30
0
11
57
21
34.952229
31
0
39
0
210
0
220
0
230
1
0
LINE
5
184
100
AcDbEntity
8
0
62
256
6
ByLayer
370
-2
48
1
60
0
100
AcDbLine
10
13
20
7.8375
30
0
11
13
21
34.952229
31
0
39
0
210
0
220
0
230
1
0
LINE
5
185
100
AcDbEntity
8
0
62
256
6
ByLayer
370
-2
48
1
60
0
100
AcDbLine
10
53.5
20
32.952229
30
0
11
16.5
21
32.952229
31
0
39
0
210
0
220
0
230
1
0
SOLID
5
186
100
AcDbEntity
8
0
62
256
6
ByLayer
370
-1
48
1
60
0
100
AcDbTrace
10
53.5
20
32.368896
30
0
11
53.5
21
33.535563
31
0
12
57
22
32.952229
32
0
13
57
23
32.952229
33
0
39
0
210
0
220
0
230
1
0
SOLID
5
187
100
AcDbEntity
8
0
62
256
6
ByLayer
370
-1
48
1
60
0
100
AcDbTrace
10
16.5
20
33.535563
30
0
11
16.5
21
32.368896
31
0
12
13
22
32.952229
32
0
13
13
23
32.952229
33
0
39
0
210
0
220
0
230
1
0
MTEXT
5
188
100
AcDbEntity
8
0
62
256
6
ByLayer
370
18
48
1
60
0
100
AcDbMText
10
35
20
38.952229
30
0
210
0
220
0
230
1
1
\A1;44
40
3
41
0
44
1
50
0
71
5
72
5
7
iso_b_vert
0
POINT
5
189
100
AcDbEntity
8
Defpoints
62
0
6
ByLayer
370
-1
48
1
60
0
100
AcDbPoint
10
57
20
0
30
0
39
0
210
0
220
0
230
1
50
360
0
POINT
5
18A
100
AcDbEntity
8
Defpoints
62
0
6
ByLayer
370
-1
48
1
60
0
100
AcDbPoint
10
13
20
6.25
30
0
39
0
210
0
220
0
230
1
50
360
0
POINT
5
18B
100
AcDbEntity
8
Defpoints
62
0
6
ByLayer
370
-1
48
1
60
0
100
AcDbPoint
10
13
20
32.952229
30
0
39
0
210
0
220
0
230
1
50
360
0
ENDBLK
5
182
100
AcDbEntity
8
0
100
AcDbBlockEnd
0
BLOCK
5
193
100
AcDbEntity
8
0
100
AcDbBlockBegin
2
_U3
70
0
10
0
20
0
30
0
3
_U3
0
MTEXT
5
18D
100
AcDbEntity
8
SK2
62
256
6
ByLayer
370
18
48
1
60
0
100
AcDbMText
10
30.201744
20
33.837344
30
0
210
0
220
0
230
1
1
\W0.7958;44.00
40
3
41
0
44
1.084337
50
0
71
7
72
5
7
iso_b_vert
0
LINE
5
18E
100
AcDbEntity
8
SK2
62
256
6
ByLayer
370
13
48
1
60
0
100
AcDbLine
10
57
20
1.5875
30
0
11
57
21
34.952229
31
0
39
0
210
0
220
0
230
1
0
LINE
5
18F
100
AcDbEntity
8
SK2
62
256
6
ByLayer
370
13
48
1
60
0
100
AcDbLine
10
13
20
7.8375
30
0
11
13
21
34.952229
31
0
39
0
210
0
220
0
230
1
0
LINE
5
190
100
AcDbEntity
8
SK2
62
256
6
ByLayer
370
13
48
1
60
0
100
AcDbLine
10
57
20
32.952229
30
0
11
13
21
32.952229
31
0
39
0
210
0
220
0
230
1
0
SOLID
5
191
100
AcDbEntity
8
SK2
62
256
6
ByLayer
370
18
48
1
60
0
100
AcDbTrace
10
57
20
32.952229
30
0
11
53.500002
21
32.491446
31
0
12
53.499998
22
33.413013
32
0
13
53.499998
23
33.413013
33
0
39
0
210
0
220
0
230
1
0
SOLID
5
192
100
AcDbEntity
8
SK2
62
256
6
ByLayer
370
18
48
1
60
0
100
AcDbTrace
10
13
20
32.952229
30
0
11
16.499998
21
33.413013
31
0
12
16.500002
22
32.491446
32
0
13
16.500002
23
32.491446
33
0
39
0
210
0
220
0
230
1
0
ENDBLK
5
194
100
AcDbEntity
8
0
100
AcDbBlockEnd
0
ENDSEC
0
SECTION
2
ENTITIES
0
ARC
5
C1
100
AcDbEntity
8
SK2
62
256
6
ByLayer
370
13
48
1
60
0
100
AcDbCircle
39
0
10
57
20
0
30
0
40
18.9999999999999
210
0
220
0
230
1
100
AcDbArc
50
290
51
70
0
ELLIPSE
5
C2
100
AcDbEntity
8
SK1
62
256
6
ByLayer
370
18
48
1
60
0
100
AcDbEllipse
10
153.54477
20
0
30
0
11
229.090026261202
21
-2.59581837845095E-13
31
0
210
0
220
0
230
1
40
0.034921
41
2.39723378988983
42
2.57876881051445
0
ELLIPSE
5
C3
100
AcDbEntity
8
SK1
62
256
6
ByLayer
370
18
48
1
60
0
100
AcDbEllipse
10
-20.57895
20
0
30
0
11
8.57894968019793
21
-9.72080522714366E-15
31
0
210
0
220
0
230
1
40
0.932515
41
-0.661405283579235
42
0.661405283579237
0
ELLIPSE
5
C4
100
AcDbEntity
8
SK1
62
256
6
ByLayer
370
18
48
1
60
0
100
AcDbEllipse
10
153.54477
20
0
30
0
11
229.090026264126
21
-2.59581837848408E-13
31
0
210
0
220
0
230
1
40
0.034921
41
-2.57876881051488
42
-2.39723378989224
0
ELLIPSE
5
C5
100
AcDbEntity
8
SK1
62
256
6
ByLayer
370
18
48
1
60
0
100
AcDbEllipse
10
-34.539879
20
0
30
0
11
-1.46952762458685E-15
21
-7.99999999999997
31
0
210
0
220
0
230
1
40
0.932515
41
-2.00016141679847
42
-1.14143123679133
0
POINT
5
70
100
AcDbEntity
8
80
62
256
6
ByLayer
370
18
48
1
60
0
100
AcDbPoint
10
0
20
0
30
0
39
0
210
0
220
0
230
1
50
360
0
POINT
5
72
100
AcDbEntity
8
81
62
256
6
ByLayer
370
18
48
1
60
0
100
AcDbPoint
10
57
20
0
30
0
39
0
210
0
220
0
230
1
50
360
0
POINT
5
74
100
AcDbEntity
8
1
62
256
6
ByLayer
370
18
48
1
60
1
100
AcDbPoint
10
-48
20
-8
30
0
39
0
210
0
220
0
230
1
50
360
0
POINT
5
76
100
AcDbEntity
8
1
62
256
6
ByLayer
370
18
48
1
60
1
100
AcDbPoint
10
57
20
0
30
0
39
0
210
0
220
0
230
1
50
360
0
POINT
5
77
100
AcDbEntity
8
1
62
256
6
ByLayer
370
18
48
1
60
1
100
AcDbPoint
10
57
20
0
30
0
39
0
210
0
220
0
230
1
50
360
0
POINT
5
78
100
AcDbEntity
8
1
62
256
6
ByLayer
370
18
48
1
60
1
100
AcDbPoint
10
3
20
-6.25
30
0
39
0
210
0
220
0
230
1
50
360
0
POINT
5
79
100
AcDbEntity
8
1
62
256
6
ByLayer
370
18
48
1
60
1
100
AcDbPoint
10
-48
20
-8
30
0
39
0
210
0
220
0
230
1
50
360
0
POINT
5
7A
100
AcDbEntity
8
1
62
256
6
ByLayer
370
18
48
1
60
1
100
AcDbPoint
10
0
20
-8
30
0
39
0
210
0
220
0
230
1
50
360
0
POINT
5
7B
100
AcDbEntity
8
1
62
256
6
ByLayer
370
18
48
1
60
1
100
AcDbPoint
10
57
20
0
30
0
39
0
210
0
220
0
230
1
50
360
0
POINT
5
7C
100
AcDbEntity
8
1
62
256
6
ByLayer
370
18
48
1
60
1
100
AcDbPoint
10
13
20
6.25
30
0
39
0
210
0
220
0
230
1
50
360
0
SPLINE
5
C6
100
AcDbEntity
8
1
62
256
6
ByLayer
370
18
48
1
60
0
100
AcDbSpline
70
4
71
3
72
16
73
12
40
0
40
0
40
0
40
0
40
0.159712543810272
40
0.159712543810272
40
0.319425087620545
40
0.319425087620545
40
0.638850175241102
40
0.638850175241102
40
0.95827526286166
40
0.95827526286166
40
1
40
1
40
1
40
1
41
1
10
47.6
20
-6.1664089847192
30
0
41
1
10
47.7484998743762
20
-6.17518528961594
30
0
41
1
10
47.8969506963263
20
-6.18327883292235
30
0
41
1
10
48.1937594713116
20
-6.19808761481676
30
0
41
1
10
48.3421323812628
20
-6.20479569849923
30
0
41
1
10
48.7873584915842
20
-6.22277460276987
30
0
41
1
10
49.0842588893683
20
-6.2319292405127
30
0
41
1
10
49.6780976613844
20
-6.24467150476758
30
0
41
1
10
49.9750302051265
20
-6.24825804924865
30
0
41
1
10
50.3107395284161
20
-6.24915521547248
30
0
41
1
10
50.3495252509729
20
-6.24921120312948
30
0
41
1
10
50.3883107363696
20
-6.24921941929219
30
0
0
SPLINE
5
C7
100
AcDbEntity
8
1
62
256
6
ByLayer
370
18
48
1
60
0
100
AcDbSpline
70
4
71
3
72
98
73
94
40
0
40
0
40
0
40
0
40
0.0312499999999999
40
0.0312499999999999
40
0.0624999999999997
40
0.0624999999999997
40
0.0781249999999991
40
0.0781249999999991
40
0.0937499999999985
40
0.0937499999999985
40
0.124999999999997
40
0.124999999999997
40
0.156249999999996
40
0.156249999999996
40
0.171874999999995
40
0.171874999999995
40
0.187499999999995
40
0.187499999999995
40
0.203124999999994
40
0.203124999999994
40
0.218749999999993
40
0.218749999999993
40
0.234374999999993
40
0.234374999999993
40
0.249999999999992
40
0.249999999999992
40
0.265624999999992
40
0.265624999999992
40
0.281249999999991
40
0.281249999999991
40
0.31249999999999
40
0.31249999999999
40
0.343749999999989
40
0.343749999999989
40
0.359374999999988
40
0.359374999999988
40
0.374999999999987
40
0.374999999999987
40
0.406249999999986
40
0.406249999999986
40
0.437499999999985
40
0.437499999999985
40
0.453124999999984
40
0.453124999999984
40
0.468749999999984
40
0.468749999999984
40
0.499999999999983
40
0.499999999999983
40
0.531249999999983
40
0.531249999999983
40
0.546874999999983
40
0.546874999999983
40
0.562499999999983
40
0.562499999999983
40
0.593749999999983
40
0.593749999999983
40
0.624999999999983
40
0.624999999999983
40
0.640624999999983
40
0.640624999999983
40
0.656249999999984
40
0.656249999999984
40
0.687499999999986
40
0.687499999999986
40
0.718749999999988
40
0.718749999999988
40
0.734374999999989
40
0.734374999999989
40
0.74999999999999
40
0.74999999999999
40
0.765624999999991
40
0.765624999999991
40
0.781249999999992
40
0.781249999999992
40
0.812499999999994
40
0.812499999999994
40
0.828124999999995
40
0.828124999999995
40
0.843749999999995
40
0.843749999999995
40
0.859374999999996
40
0.859374999999996
40
0.874999999999996
40
0.874999999999996
40
0.906249999999997
40
0.906249999999997
40
0.921874999999998
40
0.921874999999998
40
0.937499999999998
40
0.937499999999998
40
0.968749999999999
40
0.968749999999999
40
1
40
1
40
1
40
1
41
1
10
15.1977347398331
20
2.85817805849598
30
0
41
1
10
15.5354977645193
20
2.75165597640245
30
0
41
1
10
15.8732011304059
20
2.64404494812794
30
0
41
1
10
16.5483405229143
20
2.42630076119923
30
0
41
1
10
16.8857754351594
20
2.31616435659637
30
0
41
1
10
17.3916369359836
20
2.14883078125081
30
0
41
1
10
17.5602092887975
20
2.09269865825388
30
0
41
1
10
17.8972452111378
20
1.97968972248094
30
0
41
1
10
18.0656955788071
20
1.92277707796367
30
0
41
1
10
18.5709784398722
20
1.75117281663648
30
0
41
1
10
18.9079383443986
20
1.63614696483361
30
0
41
1
10
19.5820136716795
20
1.40473316682679
30
0
41
1
10
19.919100397352
20
1.28826655282117
30
0
41
1
10
20.4247335735093
20
1.11222807597551
30
0
41
1
10
20.5932857562908
20
1.05334571086905
30
0
41
1
10
20.9303480420817
20
0.93500950895222
30
0
41
1
10
21.0988449360737
20
0.875517693940424
30
0
41
1
10
21.4359340573232
20
0.756346011202112
30
0
41
1
10
21.6045412556659
20
0.69670894544592
30
0
41
1
10
21.9419503407373
20
0.577534838426004
30
0
41
1
10
22.1107270822759
20
0.517926296554862
30
0
41
1
10
22.4483923213361
20
0.39857416766003
30
0
41
1
10
22.6172837674731
20
0.338838995038998
30
0
41
1
10
22.9551736390856
20
0.219218938319983
30
0
41
1
10
23.1242015401747
20
0.159322750882524
30
0
41
1
10
23.4621321121776
20
0.0394171584354126
30
0
41
1
10
23.6310488146872
20
-0.0205972420784235
30
0
41
1
10
23.9687723476837
20
-0.140784177349588
30
0
41
1
10
24.1375607375968
20
-0.201008663165055
30
0
41
1
10
24.6439389303838
20
-0.381415576881494
30
0
41
1
10
24.9816649480472
20
-0.500985277345336
30
0
41
1
10
25.6572364629684
20
-0.739186354773182
30
0
41
1
10
25.9950696165085
20
-0.857852178306359
30
0
41
1
10
26.5018307034705
20
-1.03536419362084
30
0
41
1
10
26.6707584052907
20
-1.09443852356344
30
0
41
1
10
27.0085586290142
20
-1.21258766966611
30
0
41
1
10
27.1774388663854
20
-1.27164253284533
30
0
41
1
10
27.6840207653788
20
-1.44793630902444
30
0
41
1
10
28.0218544348061
20
-1.56404914884976
30
0
41
1
10
28.6974677226868
20
-1.79424449605079
30
0
41
1
10
29.0352614753471
20
-1.90828712819621
30
0
41
1
10
29.5418540233542
20
-2.0779728928679
30
0
41
1
10
29.710701698933
20
-2.13430519408823
30
0
41
1
10
30.0483520312354
20
-2.24653748792744
30
0
41
1
10
30.2171370771925
20
-2.30248289890258
30
0
41
1
10
30.723698022667
20
-2.46894995240132
30
0
41
1
10
31.0617916737249
20
-2.57814337029572
30
0
41
1
10
31.7374171995484
20
-2.79311448475531
30
0
41
1
10
32.0750186975145
20
-2.89893637647361
30
0
41
1
10
32.581055796608
20
-3.05529322840079
30
0
41
1
10
32.7496693631165
20
-3.10702742776621
30
0
41
1
10
33.0867240775825
20
-3.20981817178475
30
0
41
1
10
33.2551826761527
20
-3.26083014037496
30
0
41
1
10
33.7606089877932
20
-3.41209691562372
30
0
41
1
10
34.0976819166383
20
-3.51046477352276
30
0
41
1
10
34.7717349471235
20
-3.7031067409763
30
0
41
1
10
35.1087450768196
20
-3.79730796124892
30
0
41
1
10
35.6141566987378
20
-3.93558819712024
30
0
41
1
10
35.7826099371879
20
-3.9811773982068
30
0
41
1
10
36.1194702599631
20
-4.07136199578574
30
0
41
1
10
36.2878743681663
20
-4.11596176302459
30
0
41
1
10
36.7933362444893
20
-4.2475940742446
30
0
41
1
10
37.1305742458553
20
-4.3326163681528
30
0
41
1
10
37.8053942339233
20
-4.49761385257469
30
0
41
1
10
38.142971535147
20
-4.57759630770639
30
0
41
1
10
38.6495437995712
20
-4.69385112586448
30
0
41
1
10
38.8184206441781
20
-4.73201300772604
30
0
41
1
10
39.1562173008949
20
-4.80711802469824
30
0
41
1
10
39.3250566723726
20
-4.84400565940976
30
0
41
1
10
39.6627916198478
20
-4.91615715357415
30
0
41
1
10
39.8316944181683
20
-4.95141183841847
30
0
41
1
10
40.16948576549
20
-5.02043728981792
30
0
41
1
10
40.3383788429968
20
-5.05419979772634
30
0
41
1
10
40.8450329776318
20
-5.15327093198911
30
0
41
1
10
41.1827703497645
20
-5.2163649231093
30
0
41
1
10
41.6892474783116
20
-5.30666376505735
30
0
41
1
10
41.8580501351999
20
-5.33604079466659
30
0
41
1
10
42.1956081130505
20
-5.39333636592835
30
0
41
1
10
42.3643850837886
20
-5.42122375052512
30
0
41
1
10
42.7021045691433
20
-5.47526400966396
30
0
41
1
10
42.8710261234314
20
-5.5014458774165
30
0
41
1
10
43.2089689482332
20
-5.55217368704092
30
0
41
1
10
43.3780050517986
20
-5.57672152326674
30
0
41
1
10
43.8849636761566
20
-5.64791572189097
30
0
41
1
10
44.2228164033521
20
-5.69212632951496
30
0
41
1
10
44.7293486225024
20
-5.75360454383875
30
0
41
1
10
44.898125014999
20
-5.77331444990213
30
0
41
1
10
45.2356202271783
20
-5.81107893850074
30
0
41
1
10
45.4043530011226
20
-5.82911998329843
30
0
41
1
10
45.9107562312554
20
-5.88052930515929
30
0
41
1
10
46.2485345834081
20
-5.91127982607586
30
0
41
1
10
46.9241860720438
20
-5.96598544675351
30
0
41
1
10
47.2620835099895
20
-5.98992089335263
30
0
41
1
10
47.6
20
-6.01043263360623
30
0
0
SPLINE
5
C8
100
AcDbEntity
8
1
62
256
6
ByLayer
370
18
48
1
60
0
100
AcDbSpline
70
4
71
3
72
78
73
74
40
0
40
0
40
0
40
0
40
0.0054053975856001
40
0.0054053975856001
40
0.0270270193772187
40
0.0270270193772187
40
0.0486486411688373
40
0.0486486411688373
40
0.070270262960456
40
0.070270262960456
40
0.0918918847520745
40
0.0918918847520745
40
0.13513512833531
40
0.13513512833531
40
0.156756750126927
40
0.156756750126927
40
0.178378371918544
40
0.178378371918544
40
0.221621615501779
40
0.221621615501779
40
0.243243237293397
40
0.243243237293397
40
0.264864859085014
40
0.264864859085014
40
0.286486480876632
40
0.286486480876632
40
0.30810810266825
40
0.30810810266825
40
0.329729724459867
40
0.329729724459867
40
0.351351346251485
40
0.351351346251485
40
0.394594589834722
40
0.394594589834722
40
0.416216211626341
40
0.416216211626341
40
0.437837833417959
40
0.437837833417959
40
0.481081077001195
40
0.481081077001195
40
0.502702698792813
40
0.502702698792813
40
0.524324320584431
40
0.524324320584431
40
0.545945942376048
40
0.545945942376048
40
0.567567564167666
40
0.567567564167666
40
0.6108108077509
40
0.6108108077509
40
0.632432429542517
40
0.632432429542517
40
0.654054051334133
40
0.654054051334133
40
0.697297294917368
40
0.697297294917368
40
0.740540538500602
40
0.740540538500602
40
0.762162160292219
40
0.762162160292219
40
0.783783782083836
40
0.783783782083836
40
0.805405403875453
40
0.805405403875453
40
0.82702702566707
40
0.82702702566707
40
0.870270269250305
40
0.870270269250305
40
0.891891891041921
40
0.891891891041921
40
0.913513512833537
40
0.913513512833537
40
1
40
1
40
1
40
1
41
1
10
37.8540664876676
20
-4.50212308870545
30
0
41
1
10
37.8083718379529
20
-4.5130570815036
30
0
41
1
10
37.7626797503898
20
-4.52394314957567
30
0
41
1
10
37.5342322459167
20
-4.57813496394286
30
0
41
1
10
37.3515198266777
20
-4.62073069737258
30
0
41
1
10
36.9862205858013
20
-4.70446238007347
30
0
41
1
10
36.8036219069429
20
-4.74557447347223
30
0
41
1
10
36.4383923981807
20
-4.82605254085303
30
0
41
1
10
36.2557799310518
20
-4.86545333345885
30
0
41
1
10
35.8906244585695
20
-4.94268738588562
30
0
41
1
10
35.708078427999
20
-4.98051255947627
30
0
41
1
10
35.1602695240654
20
-5.09118156375348
30
0
41
1
10
34.7949269747328
20
-5.16138240121145
30
0
41
1
10
34.2468625048349
20
-5.26156411723608
30
0
41
1
10
34.0641616065673
20
-5.29409665026202
30
0
41
1
10
33.6987420860287
20
-5.35743935694765
30
0
41
1
10
33.5160373971829
20
-5.3882675238024
30
0
41
1
10
32.9677791708961
20
-5.47798941601076
30
0
41
1
10
32.6019581302665
20
-5.53396603935849
30
0
41
1
10
32.0527609911339
20
-5.61222299818692
30
0
41
1
10
31.8695810989252
20
-5.63736217158365
30
0
41
1
10
31.5032986231798
20
-5.6857281871572
30
0
41
1
10
31.3202041569079
20
-5.70895767635588
30
0
41
1
10
30.9541375844879
20
-5.75352755829454
30
0
41
1
10
30.7711429874164
20
-5.77484419292105
30
0
41
1
10
30.4051241527709
20
-5.81544650189417
30
0
41
1
10
30.2221181113958
20
-5.83475070492574
30
0
41
1
10
29.8561774113481
20
-5.87141391628481
30
0
41
1
10
29.6732245666639
20
-5.88875535326378
30
0
41
1
10
29.3072031192581
20
-5.92135370709929
30
0
41
1
10
29.1241542913823
20
-5.93662738305247
30
0
41
1
10
28.5749537649065
20
-5.97942256682342
30
0
41
1
10
28.2087075610672
20
-6.0039231420331
30
0
41
1
10
27.6594065594418
20
-6.03458745355613
30
0
41
1
10
27.476387352877
20
-6.04379561973269
30
0
41
1
10
27.1103723418027
20
-6.0601234269281
30
0
41
1
10
26.9273572112637
20
-6.06723834495654
30
0
41
1
10
26.3782899421512
20
-6.08546102984852
30
0
41
1
10
26.0122109367925
20
-6.09345165413686
30
0
41
1
10
25.4631194467335
20
-6.09923716421176
30
0
41
1
10
25.2801006995092
20
-6.10013148715356
30
0
41
1
10
24.9140991935553
20
-6.09983736915308
30
0
41
1
10
24.7310849805172
20
-6.09864786544364
30
0
41
1
10
24.3649586237459
20
-6.09419130065604
30
0
41
1
10
24.1818646653839
20
-6.09092432515107
30
0
41
1
10
23.8156659425649
20
-6.0822958359017
30
0
41
1
10
23.6326205063531
20
-6.07693981730768
30
0
41
1
10
23.0834824693342
20
-6.05780962676209
30
0
41
1
10
22.7174735213769
20
-6.0409634810286
30
0
41
1
10
22.168714079734
20
-6.00952699235216
30
0
41
1
10
21.9858330383478
20
-5.99801998256339
30
0
41
1
10
21.6201569037164
20
-5.9729344368169
30
0
41
1
10
21.4373786393422
20
-5.95934412426533
30
0
41
1
10
20.888971119697
20
-5.91557194343775
30
0
41
1
10
20.523242037839
20
-5.88242031708543
30
0
41
1
10
19.791581411088
20
-5.80822408574875
30
0
41
1
10
19.4256557455072
20
-5.76717808952014
30
0
41
1
10
18.8767418930091
20
-5.69952257101863
30
0
41
1
10
18.6937240664587
20
-5.67599557166926
30
0
41
1
10
18.3275585430771
20
-5.62703221234889
30
0
41
1
10
18.1444100261121
20
-5.60157381981028
30
0
41
1
10
17.7783322883886
20
-5.5487101470616
30
0
41
1
10
17.595331573983
20
-5.52134409751795
30
0
41
1
10
17.2293276237662
20
-5.46485259955688
30
0
41
1
10
17.046339793901
20
-5.4357095549272
30
0
41
1
10
16.4974745950269
20
-5.34552698266239
30
0
41
1
10
16.1316873486424
20
-5.28174716542642
30
0
41
1
10
15.5832400238254
20
-5.18048137645161
30
0
41
1
10
15.4004775985786
20
-5.14576882054021
30
0
41
1
10
15.0348742342644
20
-5.07470608454346
30
0
41
1
10
14.8520376474424
20
-5.03835158797983
30
0
41
1
10
13.9376904019055
20
-4.85247554767673
30
0
41
1
10
13.2056717098674
20
-4.69075576769941
30
0
41
1
10
12.4734475241983
20
-4.51519776853595
30
0
0
SPLINE
5
C9
100
AcDbEntity
8
1
62
256
6
ByLayer
370
18
48
1
60
0
100
AcDbSpline
70
4
71
3
72
26
73
22
40
0
40
0
40
0
40
0
40
0.124999999999998
40
0.124999999999998
40
0.249999999999996
40
0.249999999999996
40
0.374999999999994
40
0.374999999999994
40
0.437499999999993
40
0.437499999999993
40
0.499999999999992
40
0.499999999999992
40
0.624999999999995
40
0.624999999999995
40
0.749999999999999
40
0.749999999999999
40
0.875000000000002
40
0.875000000000002
40
0.937500000000001
40
0.937500000000001
40
1
40
1
40
1
40
1
41
1
10
54.725186035848
20
-0.891655412663766
30
0
41
1
10
54.4278398702853
20
-0.784449813622786
30
0
41
1
10
54.1306361927839
20
-0.677031239608993
30
0
41
1
10
53.5366433547012
20
-0.461405596917899
30
0
41
1
10
53.2396962630121
20
-0.353639340568691
30
0
41
1
10
52.6459226224143
20
-0.138134683797915
30
0
41
1
10
52.3491237152922
20
-0.0303194013442294
30
0
41
1
10
51.904086447343
20
0.131578265896593
30
0
41
1
10
51.7557675105467
20
0.185573162899345
30
0
41
1
10
51.4591881608039
20
0.293633992443205
30
0
41
1
10
51.310932221665
20
0.347712205330339
30
0
41
1
10
50.8660849390096
20
0.509590785360786
30
0
41
1
10
50.5694271198226
20
0.61707148115616
30
0
41
1
10
49.9759547905391
20
0.831240090447551
30
0
41
1
10
49.6791337984344
20
0.937910286274644
30
0
41
1
10
49.0854315896131
20
1.15072201315002
30
0
41
1
10
48.7885931088601
20
1.25697991885534
30
0
41
1
10
48.3430210833479
20
1.41523083038339
30
0
41
1
10
48.1944579229174
20
1.46782816439966
30
0
41
1
10
47.8972870029746
20
1.57280861910098
30
0
41
1
10
47.7486826563076
20
1.6252009311219
30
0
41
1
10
47.6
20
1.67733329048823
30
0
0
SPLINE
5
CA
100
AcDbEntity
8
1
62
256
6
ByLayer
370
18
48
1
60
0
100
AcDbSpline
70
4
71
3
72
81
73
77
40
0
40
0
40
0
40
0
40
0.0625000000000025
40
0.0625000000000025
40
0.125000000000005
40
0.125000000000005
40
0.140625000000005
40
0.140625000000005
40
0.156250000000005
40
0.156250000000005
40
0.187500000000004
40
0.187500000000004
40
0.250000000000001
40
0.250000000000001
40
0.281250000000001
40
0.281250000000001
40
0.296875
40
0.296875
40
0.3125
40
0.3125
40
0.34375
40
0.34375
40
0.375
40
0.375
40
0.40625
40
0.40625
40
0.4375
40
0.4375
40
0.453125
40
0.453125
40
0.46875
40
0.46875
40
0.5
40
0.5
40
0.53125
40
0.53125
40
0.5390625
40
0.5390625
40
0.546875
40
0.5625
40
0.5625
40
0.593749999999999
40
0.593749999999999
40
0.624999999999998
40
0.624999999999998
40
0.640624999999998
40
0.640624999999998
40
0.656249999999998
40
0.656249999999998
40
0.687499999999997
40
0.687499999999997
40
0.718749999999997
40
0.718749999999997
40
0.726562499999997
40
0.726562499999997
40
0.734374999999998
40
0.734374999999998
40
0.749999999999998
40
0.749999999999998
40
0.781249999999999
40
0.781249999999999
40
0.8125
40
0.843750000000001
40
0.843750000000001
40
0.851562500000001
40
0.851562500000001
40
0.859375000000001
40
0.875000000000001
40
0.875000000000001
40
0.937500000000001
40
0.937500000000001
40
0.968750000000001
40
0.968750000000001
40
0.984375
40
0.984375
40
1
40
1
40
1
40
1
41
1
10
54.7251860358524
20
6.05151655458121
30
0
41
1
10
54.8032612505732
20
5.85791204712575
30
0
41
1
10
54.8815910981151
20
5.65853491777628
30
0
41
1
10
55.0392102342005
20
5.24981131282553
30
0
41
1
10
55.1185004955669
20
5.04045528506924
30
0
41
1
10
55.2182988149762
20
4.77298151119669
30
0
41
1
10
55.2382918938653
20
4.71919609025787
30
0
41
1
10
55.2783431596392
20
4.61104868908555
30
0
41
1
10
55.2984089310663
20
4.5566654113741
30
0
41
1
10
55.3583416808921
20
4.39362816410016
30
0
41
1
10
55.3980646673132
20
4.28476726017092
30
0
41
1
10
55.5164882579153
20
3.95767284957105
30
0
41
1
10
55.5944835152731
20
3.73894305137219
30
0
41
1
10
55.7092793022915
20
3.40960719956521
30
0
41
1
10
55.7471699592172
20
3.29961842742645
30
0
41
1
10
55.8032326774229
20
3.13424609952051
30
0
41
1
10
55.8217903488205
20
3.07905674441116
30
0
41
1
10
55.8585954966258
20
2.96852959826239
30
0
41
1
10
55.8768513559108
20
2.91316473697114
30
0
41
1
10
55.9307976908129
20
2.74762229314467
30
0
41
1
10
55.9657631538995
20
2.63773961107907
30
0
41
1
10
56.03305857395
20
2.41874923674118
30
0
41
1
10
56.0653930409188
20
2.30964214538474
30
0
41
1
10
56.1264459832726
20
2.09197393870198
30
0
41
1
10
56.1551695281152
20
1.98341334329959
30
0
41
1
10
56.2075226378524
20
1.76654378759355
30
0
41
1
10
56.231154647932
20
1.65823382323919
30
0
41
1
10
56.2612046809591
20
1.49568734959127
30
0
41
1
10
56.2703230660927
20
1.44141279893196
30
0
41
1
10
56.286291830561
20
1.33386377978368
30
0
41
1
10
56.2931655550739
20
1.2804730335244
30
0
41
1
10
56.3101197629636
20
1.12149660324673
30
0
41
1
10
56.3164970994919
20
1.01710140555525
30
0
41
1
10
56.3182076127122
20
0.811862251516942
30
0
41
1
10
56.3135307663336
20
0.711020030414431
30
0
41
1
10
56.3008242682938
20
0.58751633924436
30
0
41
1
10
56.2979398503908
20
0.562917949594549
30
0
41
1
10
56.291520339219
20
0.514098796473945
30
0
41
1
10
56.2809455533179
20
0.441648664156702
30
0
41
1
10
56.2676980072943
20
0.371505676463698
30
0
41
1
10
56.2380838779753
20
0.234221505956896
30
0
41
1
10
56.2141994881831
20
0.146695588651482
30
0
41
1
10
56.1603009276664
20
-0.0206750142037606
30
0
41
1
10
56.1302913065659
20
-0.10052198374359
30
0
41
1
10
56.0818757451955
20
-0.214619722958162
30
0
41
1
10
56.0651442333631
20
-0.251740568678144
30
0
41
1
10
56.0310040959923
20
-0.323437917979817
30
0
41
1
10
56.0135609165545
20
-0.358100986919965
30
0
41
1
10
55.9603149481163
20
-0.458640103421288
30
0
41
1
10
55.9236078521314
20
-0.521075652580407
30
0
41
1
10
55.8484865255054
20
-0.637073157744084
30
0
41
1
10
55.8100672168335
20
-0.690633449603212
30
0
41
1
10
55.7612073773846
20
-0.752046903464048
30
0
41
1
10
55.751393002848
20
-0.764052098656208
30
0
41
1
10
55.7316830935754
20
-0.787505210960035
30
0
41
1
10
55.7217802078157
20
-0.798960791092838
30
0
41
1
10
55.6920808178015
20
-0.832347863802397
30
0
41
1
10
55.6722577739527
20
-0.853345180360492
30
0
41
1
10
55.612749317835
20
-0.912640023526194
30
0
41
1
10
55.5730275353888
20
-0.94724807611334
30
0
41
1
10
55.4935572183303
20
-1.00686987062878
30
0
41
1
10
55.4140576699151
20
-1.05689535583616
30
0
41
1
10
55.3344795679867
20
-1.08775823139155
30
0
41
1
10
55.2846769615951
20
-1.10093113061993
30
0
41
1
10
55.2747061019177
20
-1.10326011355053
30
0
41
1
10
55.2548452520383
20
-1.10728440961338
30
0
41
1
10
55.2251451647533
20
-1.11237943445315
30
0
41
1
10
55.1957088926409
20
-1.11468168772029
30
0
41
1
10
55.0981311705588
20
-1.11625549775374
30
0
41
1
10
55.0218057285597
20
-1.09811594758196
30
0
41
1
10
54.9091141528881
20
-1.04228960315231
30
0
41
1
10
54.8718500897876
20
-1.01888734483663
30
0
41
1
10
54.8163028956987
20
-0.976436956396725
30
0
41
1
10
54.7978948834105
20
-0.961096773735051
30
0
41
1
10
54.7613566697681
20
-0.928115505639795
30
0
41
1
10
54.7432133615375
20
-0.910464505882914
30
0
41
1
10
54.7251860358524
20
-0.89165541266388
30
0
0
SPLINE
5
CB
100
AcDbEntity
8
1
62
256
6
ByLayer
370
18
48
1
60
0
100
AcDbSpline
70
4
71
3
72
22
73
18
40
0
40
0
40
0
40
0
40
0.0758567711716513
40
0.0758567711716513
40
0.178539352152579
40
0.178539352152579
40
0.281221933133507
40
0.281221933133507
40
0.383904514114434
40
0.383904514114434
40
0.58926967607629
40
0.58926967607629
40
0.794634838038145
40
0.794634838038145
40
0.897317419019073
40
0.897317419019073
40
1
40
1
40
1
40
1
41
1
10
50.3883111335384
20
6.24921941937629
30
0
41
1
10
50.4979872907154
20
6.24924265181429
30
0
41
1
10
50.6076615514911
20
6.24888389176797
30
0
41
1
10
50.865767084325
20
6.24713474437638
30
0
41
1
10
51.0141793625728
20
6.24542180835761
30
0
41
1
10
51.3110475542281
20
6.24058092159061
30
0
41
1
10
51.4594643003488
20
6.23745433499028
30
0
41
1
10
51.756370424184
20
6.22982009321203
30
0
41
1
10
51.904845057142
20
6.22531145530257
30
0
41
1
10
52.3502522844066
20
6.20970770285354
30
0
41
1
10
52.6471872915931
20
6.1965401154238
30
0
41
1
10
53.2409892576339
20
6.16466026520709
30
0
41
1
10
53.5378541565541
20
6.14594734249465
30
0
41
1
10
53.9830463560505
20
6.11364339413527
30
0
41
1
10
54.131413296923
20
6.10216019341291
30
0
41
1
10
54.4282210819985
20
6.07783648178332
30
0
41
1
10
54.5766789243841
20
6.06500822240122
30
0
41
1
10
54.7251860358476
20
6.05151655458164
30
0
0
SPLINE
5
CC
100
AcDbEntity
8
1
62
256
6
ByLayer
370
18
48
1
60
0
100
AcDbSpline
70
4
71
3
72
36
73
32
40
0
40
0
40
0
40
0
40
0.0643031968950539
40
0.0643031968950539
40
0.116286352623109
40
0.116286352623109
40
0.168269508351163
40
0.168269508351163
40
0.220252664079218
40
0.220252664079218
40
0.272235819807272
40
0.272235819807272
40
0.376202131263378
40
0.376202131263378
40
0.428185286991429
40
0.428185286991429
40
0.48016844271948
40
0.48016844271948
40
0.532151598447531
40
0.532151598447531
40
0.584134754175582
40
0.584134754175582
40
0.688101065631684
40
0.688101065631684
40
0.740084221359736
40
0.740084221359736
40
0.792067377087789
40
0.792067377087789
40
0.896033688543894
40
0.896033688543894
40
1
40
1
40
1
40
1
41
1
10
37.8542210522103
20
4.50843822208427
30
0
41
1
10
38.0629855168697
20
4.55827958066328
30
0
41
1
10
38.2718096396952
20
4.60716375833087
30
0
41
1
10
38.6495437995712
20
4.69385112586448
30
0
41
1
10
38.8184206441782
20
4.73201300772604
30
0
41
1
10
39.1562173008949
20
4.80711802469824
30
0
41
1
10
39.3250566723726
20
4.84400565940976
30
0
41
1
10
39.6627916198478
20
4.91615715357415
30
0
41
1
10
39.8316944181684
20
4.95141183841847
30
0
41
1
10
40.16948576549
20
5.02043728981792
30
0
41
1
10
40.3383788429969
20
5.05419979772634
30
0
41
1
10
40.8450329776319
20
5.15327093198908
30
0
41
1
10
41.1827703497645
20
5.2163649231093
30
0
41
1
10
41.6892474783116
20
5.30666376505735
30
0
41
1
10
41.8580501352
20
5.33604079466659
30
0
41
1
10
42.1956081130506
20
5.39333636592835
30
0
41
1
10
42.3643850837887
20
5.42122375052512
30
0
41
1
10
42.7021045691434
20
5.47526400966396
30
0
41
1
10
42.8710261234314
20
5.5014458774165
30
0
41
1
10
43.2089689482333
20
5.55217368704092
30
0
41
1
10
43.3780050517987
20
5.57672152326674
30
0
41
1
10
43.8849636761567
20
5.64791572189097
30
0
41
1
10
44.2228164033521
20
5.69212632951499
30
0
41
1
10
44.7293486225024
20
5.75360454383875
30
0
41
1
10
44.898125014999
20
5.77331444990213
30
0
41
1
10
45.2356202271783
20
5.81107893850071
30
0
41
1
10
45.4043530011226
20
5.82911998329843
30
0
41
1
10
45.9107562312554
20
5.88052930515929
30
0
41
1
10
46.2485345834082
20
5.91127982607586
30
0
41
1
10
46.9241860720439
20
5.96598544675351
30
0
41
1
10
47.2620835099893
20
5.98992089335263
30
0
41
1
10
47.5999999999999
20
6.01043263360623
30
0
0
SPLINE
5
CD
100
AcDbEntity
8
1
62
256
6
ByLayer
370
18
48
1
60
0
100
AcDbSpline
70
4
71
3
72
68
73
64
40
0
40
0
40
0
40
0
40
0.0488674967500361
40
0.0488674967500361
40
0.0977349935000722
40
0.0977349935000722
40
0.146602490250108
40
0.146602490250108
40
0.195469987000144
40
0.195469987000144
40
0.219903735375162
40
0.219903735375162
40
0.24433748375018
40
0.24433748375018
40
0.268771232125198
40
0.268771232125198
40
0.293204980500216
40
0.293204980500216
40
0.342072477250253
40
0.342072477250253
40
0.366506225625272
40
0.366506225625272
40
0.390939974000291
40
0.390939974000291
40
0.439807470750328
40
0.439807470750328
40
0.464241219125347
40
0.464241219125347
40
0.488674967500366
40
0.488674967500366
40
0.513108715875385
40
0.513108715875385
40
0.537542464250404
40
0.537542464250404
40
0.586409961000443
40
0.586409961000443
40
0.610843709375462
40
0.610843709375462
40
0.635277457750481
40
0.635277457750481
40
0.68414495450052
40
0.68414495450052
40
0.708578702875541
40
0.708578702875541
40
0.733012451250562
40
0.733012451250562
40
0.757446199625582
40
0.757446199625582
40
0.781879948000603
40
0.781879948000603
40
0.806313696375623
40
0.806313696375623
40
0.830747444750644
40
0.830747444750644
40
0.879614941500686
40
0.879614941500686
40
0.904048689875708
40
0.904048689875708
40
0.928482438250729
40
0.928482438250729
40
0.977349935000774
40
0.977349935000774
40
1
40
1
40
1
40
1
41
1
10
47.6000000000004
20
1.5839394935777
30
0
41
1
10
47.2337538274766
20
1.70964845220789
30
0
41
1
10
46.8675164613437
20
1.83384145420553
30
0
41
1
10
46.1352961139926
20
2.07985845769264
30
0
41
1
10
45.7693167524784
20
2.20168865591583
30
0
41
1
10
45.0375437229865
20
2.44275802714637
30
0
41
1
10
44.6715357509932
20
2.56143768428649
30
0
41
1
10
43.9391803994921
20
2.7948697406911
30
0
41
1
10
43.572748450897
20
2.90967502676065
30
0
41
1
10
43.0235374750343
20
3.07920451434868
30
0
41
1
10
42.8405317327346
20
3.13527696542681
30
0
41
1
10
42.4744889530482
20
3.24615709204954
30
0
41
1
10
42.2914690676039
20
3.30100800814202
30
0
41
1
10
41.9254964944065
20
3.40968355959401
30
0
41
1
10
41.7425535581653
20
3.46352896532369
30
0
41
1
10
41.3765603684089
20
3.56978517828961
30
0
41
1
10
41.1935257327592
20
3.6222339917573
30
0
41
1
10
40.6443668608401
20
3.77768628428245
30
0
41
1
10
40.2781974156072
20
3.8788192516198
30
0
41
1
10
39.7288983484489
20
4.02684909153615
30
0
41
1
10
39.5458070151876
20
4.07560281644908
30
0
41
1
10
39.1798486897373
20
4.17167331073361
30
0
41
1
10
38.9969128391795
20
4.21893254415335
30
0
41
1
10
38.4481914794855
20
4.35831369466709
30
0
41
1
10
38.0825064161481
20
4.44807457162639
30
0
41
1
10
37.5342322459166
20
4.57813496394289
30
0
41
1
10
37.3515198266777
20
4.62073069737258
30
0
41
1
10
36.9862205858013
20
4.70446238007349
30
0
41
1
10
36.8036219069429
20
4.74557447347226
30
0
41
1
10
36.4383923981807
20
4.82605254085303
30
0
41
1
10
36.2557799310517
20
4.86545333345885
30
0
41
1
10
35.8906244585694
20
4.94268738588562
30
0
41
1
10
35.7080784279989
20
4.9805125594763
30
0
41
1
10
35.1602695240654
20
5.09118156375351
30
0
41
1
10
34.7949269747327
20
5.16138240121145
30
0
41
1
10
34.2468625048349
20
5.26156411723611
30
0
41
1
10
34.0641616065673
20
5.29409665026202
30
0
41
1
10
33.6987420860287
20
5.35743935694768
30
0
41
1
10
33.5160373971828
20
5.3882675238024
30
0
41
1
10
32.9677791708961
20
5.47798941601076
30
0
41
1
10
32.6019581302665
20
5.53396603935849
30
0
41
1
10
32.0527609911339
20
5.61222299818692
30
0
41
1
10
31.8695810989252
20
5.63736217158365
30
0
41
1
10
31.5032986231798
20
5.68572818715722
30
0
41
1
10
31.3202041569079
20
5.70895767635591
30
0
41
1
10
30.9541375844879
20
5.75352755829456
30
0
41
1
10
30.7711429874163
20
5.77484419292105
30
0
41
1
10
30.4051241527708
20
5.81544650189417
30
0
41
1
10
30.2221181113958
20
5.83475070492574
30
0
41
1
10
29.856177411348
20
5.87141391628481
30
0
41
1
10
29.6732245666638
20
5.88875535326378
30
0
41
1
10
29.307203119258
20
5.92135370709929
30
0
41
1
10
29.1241542913822
20
5.93662738305247
30
0
41
1
10
28.5749537649065
20
5.97942256682344
30
0
41
1
10
28.2087075610672
20
6.00392314203313
30
0
41
1
10
27.6594065594419
20
6.03458745355613
30
0
41
1
10
27.476387352877
20
6.04379561973269
30
0
41
1
10
27.1103723418027
20
6.06012342692813
30
0
41
1
10
26.9273572112637
20
6.06723834495654
30
0
41
1
10
26.3782899421512
20
6.08546102984852
30
0
41
1
10
26.0122109367925
20
6.09345165413686
30
0
41
1
10
25.4764808208949
20
6.09909638190825
30
0
41
1
10
25.3068217950057
20
6.09999540328926
30
0
41
1
10
25.1371778403228
20
6.09999998829079
30
0
0
SPLINE
5
CE
100
AcDbEntity
8
1
62
256
6
ByLayer
370
18
48
1
60
0
100
AcDbSpline
70
4
71
3
72
106
73
102
40
0
40
0
40
0
40
0
40
0.0624999999999911
40
0.0624999999999911
40
0.124999999999982
40
0.124999999999982
40
0.156249999999978
40
0.156249999999978
40
0.187499999999974
40
0.187499999999974
40
0.218749999999971
40
0.218749999999971
40
0.234374999999969
40
0.234374999999969
40
0.242187499999969
40
0.242187499999969
40
0.249999999999968
40
0.249999999999968
40
0.281249999999967
40
0.281249999999967
40
0.296874999999967
40
0.296874999999967
40
0.304687499999967
40
0.304687499999967
40
0.312499999999967
40
0.312499999999967
40
0.34374999999997
40
0.34374999999997
40
0.359374999999971
40
0.359374999999971
40
0.374999999999972
40
0.374999999999972
40
0.382812499999972
40
0.382812499999972
40
0.390624999999973
40
0.390624999999973
40
0.406249999999973
40
0.406249999999973
40
0.421874999999973
40
0.421874999999973
40
0.429687499999973
40
0.429687499999973
40
0.433593749999974
40
0.433593749999974
40
0.437499999999974
40
0.437499999999974
40
0.453124999999975
40
0.453124999999975
40
0.468749999999977
40
0.468749999999977
40
0.484374999999978
40
0.484374999999978
40
0.499999999999979
40
0.499999999999979
40
0.503906249999979
40
0.503906249999979
40
0.507812499999979
40
0.507812499999979
40
0.51562499999998
40
0.51562499999998
40
0.531249999999981
40
0.531249999999981
40
0.539062499999982
40
0.539062499999982
40
0.542968749999982
40
0.542968749999982
40
0.546874999999982
40
0.546874999999982
40
0.562499999999983
40
0.562499999999983
40
0.578124999999983
40
0.578124999999983
40
0.593749999999984
40
0.593749999999984
40
0.609374999999985
40
0.609374999999985
40
0.624999999999985
40
0.624999999999985
40
0.656249999999986
40
0.656249999999986
40
0.687499999999988
40
0.687499999999988
40
0.718749999999989
40
0.718749999999989
40
0.74999999999999
40
0.74999999999999
40
0.781249999999991
40
0.781249999999991
40
0.812499999999993
40
0.812499999999993
40
0.843749999999994
40
0.843749999999994
40
0.874999999999995
40
0.874999999999995
40
0.906249999999996
40
0.906249999999996
40
0.937499999999998
40
0.937499999999998
40
0.968749999999999
40
0.968749999999999
40
1
40
1
40
1
40
1
41
1
10
10
20
3.75528874429776
30
0
41
1
10
9.62775517598436
20
3.78998425794077
30
0
41
1
10
9.25859379786098
20
3.81240173221238
30
0
41
1
10
8.52670410119629
20
3.83010809488761
30
0
41
1
10
8.16397082648282
20
3.82543151189273
30
0
41
1
10
7.6248673448203
20
3.79479588265198
30
0
41
1
10
7.44599913026812
20
3.78063011162226
30
0
41
1
10
7.08996938010463
20
3.74354960033796
30
0
41
1
10
6.91280752161029
20
3.72063859771879
30
0
41
1
10
6.56024785252021
20
3.6649365811374
30
0
41
1
10
6.38484952237241
20
3.63215206973422
30
0
41
1
10
6.12313998726174
20
3.57438568253062
30
0
41
1
10
6.03613507580388
20
3.55369459799164
30
0
41
1
10
5.9059865797056
20
3.52030938831407
30
0
41
1
10
5.86269165812183
20
3.50879556048301
30
0
41
1
10
5.77652399122832
20
3.48503479093651
30
0
41
1
10
5.73361706285385
20
3.47277920062189
30
0
41
1
10
5.51998393880282
20
3.40956146486462
30
0
41
1
10
5.35195148661899
20
3.3528116787418
30
0
41
1
10
5.1046572577759
20
3.25685589361504
30
0
41
1
10
5.02302030721793
20
3.22305943185199
30
0
41
1
10
4.90183670388126
20
3.16937946502429
30
0
41
1
10
4.86165434548349
20
3.15098799356539
30
0
41
1
10
4.78173021316729
20
3.11315556345724
30
0
41
1
10
4.74195677791738
20
3.0936985005369
30
0
41
1
10
4.54461047977941
20
2.9938293411837
30
0
41
1
10
4.39232938548855
20
2.90612832067907
30
0
41
1
10
4.17358551487678
20
2.76049251649954
30
0
41
1
10
4.10229055185468
20
2.70958906402078
30
0
41
1
10
3.96327006895032
20
2.60248174121233
30
0
41
1
10
3.89554285952252
20
2.54628062308882
30
0
41
1
10
3.79696775834754
20
2.45741777197665
30
0
41
1
10
3.76461312459153
20
2.4270348153172
30
0
41
1
10
3.70098495374594
20
2.36461930799768
30
0
41
1
10
3.66965717154903
20
2.33252431739032
30
0
41
1
10
3.57816735643414
20
2.23436075781268
30
0
41
1
10
3.5203007737035
20
2.16625280260791
30
0
41
1
10
3.41148327412518
20
2.02406513789367
30
0
41
1
10
3.36052814417309
20
1.94998918994443
30
0
41
1
10
3.28999256695178
20
1.83372721256259
30
0
41
1
10
3.26746619326261
20
1.7941128797699
30
0
41
1
10
3.23527474128605
20
1.73328964966896
30
0
41
1
10
3.22480812316161
20
1.71277275209772
30
0
41
1
10
3.20455869182183
20
1.67152137072006
30
0
41
1
10
3.19475856239981
20
1.65075516786376
30
0
41
1
10
3.14740629232466
20
1.54620909124583
30
0
41
1
10
3.11478489993772
20
1.46029005442517
30
0
41
1
10
3.06093020343491
20
1.28347746458439
30
0
41
1
10
3.03969130129286
20
1.19258633796028
30
0
41
1
10
3.00991145580929
20
1.00523285904637
30
0
41
1
10
3.0017855730959
20
0.911290663954816
30
0
41
1
10
2.99874415473713
20
0.723040374199286
30
0
41
1
10
3.00382569000988
20
0.628705926945145
30
0
41
1
10
3.01841811960813
20
0.510527025912467
30
0
41
1
10
3.02174937586548
20
0.486878191096167
30
0
41
1
10
3.02924006771107
20
0.439554382056485
30
0
41
1
10
3.03340909706753
20
0.415831607123096
30
0
41
1
10
3.04708857604663
20
0.345004055359908
30
0
41
1
10
3.05774421704166
20
0.298331790872965
30
0
41
1
10
3.09404385359554
20
0.159854941782356
30
0
41
1
10
3.12400911566036
20
0.069586250713229
30
0
41
1
10
3.17676293080692
20
-0.0630449511397444
30
0
41
1
10
3.19565166983443
20
-0.106792265953914
30
0
41
1
10
3.2258594306478
20
-0.171747952563066
30
0
41
1
10
3.23625461637445
20
-0.193314055462849
30
0
41
1
10
3.25753229798704
20
-0.235982976758692
30
0
41
1
10
3.2684257839482
20
-0.257111316673047
30
0
41
1
10
3.32411020946319
20
-0.361768681712618
30
0
41
1
10
3.37253622371867
20
-0.442357725175356
30
0
41
1
10
3.47599121321224
20
-0.59821315414024
30
0
41
1
10
3.53102517473647
20
-0.673475488494375
30
0
41
1
10
3.64686459043895
20
-0.819364100774692
30
0
41
1
10
3.70767288459868
20
-0.88998807124014
30
0
41
1
10
3.83442320851805
20
-1.02712677490689
30
0
41
1
10
3.89969279895709
20
-1.09291779130507
30
0
41
1
10
4.03330258776731
20
-1.21966996082216
30
0
41
1
10
4.10167022389643
20
-1.28065549603474
30
0
41
1
10
4.31082030467334
20
-1.45745096060082
30
0
41
1
10
4.45562296306181
20
-1.56714395556651
30
0
41
1
10
4.75352526364728
20
-1.77399256202312
30
0
41
1
10
4.90668754169829
20
-1.87115078917665
30
0
41
1
10
5.21943213230918
20
-2.05537987971422
30
0
41
1
10
5.37756914322506
20
-2.14160960295016
30
0
41
1
10
5.69650844979259
20
-2.30505749104924
30
0
41
1
10
5.85731427148886
20
-2.38226230117738
30
0
41
1
10
6.18094003148369
20
-2.5295975289059
30
0
41
1
10
6.34376155242188
20
-2.59972144151843
30
0
41
1
10
6.67089575722042
20
-2.73433908136633
30
0
41
1
10
6.8352090501422
20
-2.79882956502559
30
0
41
1
10
7.16490227896193
20
-2.92326635433358
30
0
41
1
10
7.33028227886194
20
-2.98321109143546
30
0
41
1
10
7.66177416767979
20
-3.09935111587382
30
0
41
1
10
7.8278858104795
20
-3.15554567918363
30
0
41
1
10
8.16059956166006
20
-3.26472032114512
30
0
41
1
10
8.32720128241155
20
-3.31770000111595
30
0
41
1
10
8.66075723759741
20
-3.42073505483404
30
0
41
1
10
8.82771109080713
20
-3.47078998827919
30
0
41
1
10
9.16194893318664
20
-3.56803219419464
30
0
41
1
10
9.32923268087617
20
-3.61521873109584
30
0
41
1
10
9.66423335192928
20
-3.70656400988889
30
0
41
1
10
9.83195027645513
20
-3.75072159231158
30
0
41
1
10
10
20
-3.79319084782992
30
0
0
SPLINE
5
CF
100
AcDbEntity
8
1
62
256
6
ByLayer
370
18
48
1
60
0
100
AcDbSpline
70
4
71
3
72
14
73
10
40
0
40
0
40
0
40
0
40
0.25
40
0.25
40
0.5
40
0.5
40
0.75
40
0.75
40
1
40
1
40
1
40
1
41
1
10
12.4734475241982
20
-4.51519776853593
30
0
41
1
10
12.2649191954922
20
-4.46367184886805
30
0
41
1
10
12.0572585656435
20
-4.40968747067154
30
0
41
1
10
11.6432029602059
20
-4.29732668870477
30
0
41
1
10
11.4368066168882
20
-4.23895382514405
30
0
41
1
10
11.0249271275438
20
-4.11823051680372
30
0
41
1
10
10.8194430999741
20
-4.05588339658206
30
0
41
1
10
10.4091909912784
20
-3.92740372509903
30
0
41
1
10
10.2044226403106
20
-3.86127376604495
30
0
41
1
10
9.99999999999997
20
-3.79319084782986
30
0
0
SPLINE
5
D0
100
AcDbEntity
8
1
62
256
6
ByLayer
370
18
48
1
60
0
100
AcDbSpline
70
4
71
4
72
16
73
11
40
0
40
0
40
0
40
0
40
0
40
0.293574203318709
40
0.293574203318709
40
0.293574203318709
40
0.706425796681287
40
0.706425796681287
40
0.706425796681287
40
1
40
1
40
1
40
1
40
1
41
0.996969731705438
10
15.197734739833
20
2.85817805849597
30
0
41
0.994755707291776
10
15.1187632454955
20
2.77359280314535
30
0
41
0.99394935732063
10
14.9734145646565
20
2.5024976252359
30
0
41
1
10
14.7675322819097
20
2.04012707654894
30
0
41
1
10
14.2395933756879
20
0.764523245079914
30
0
41
0.988033871712585
10
13.8355911320157
20
-0.281419840400482
30
0
41
1
10
13.4315888883435
20
-1.42236832821933
30
0
41
1
10
12.9036499821217
20
-3.00453363867129
30
0
41
0.99394935732063
10
12.6977676993749
20
-3.65661786414135
30
0
41
0.994755707291776
10
12.5524190185359
20
-4.17230496354725
30
0
41
0.996969731705438
10
12.4734475241983
20
-4.51519776853595
30
0
0
SPLINE
5
D1
100
AcDbEntity
8
1
62
256
6
ByLayer
370
18
48
1
60
0
100
AcDbSpline
70
4
71
3
72
20
73
16
40
0
40
0
40
0
40
0
40
0.124999999999999
40
0.124999999999999
40
0.249999999999997
40
0.249999999999997
40
0.499999999999994
40
0.499999999999994
40
0.624999999999993
40
0.624999999999993
40
0.687499999999994
40
0.687499999999994
40
0.749999999999995
40
0.749999999999995
40
1
40
1
40
1
40
1
41
1
10
10
20
3.75528874429776
30
0
41
1
10
10.2241847971541
20
3.7565946999259
30
0
41
1
10
10.4472213325274
20
3.75212893135938
30
0
41
1
10
10.8911818893828
20
3.73251513452942
30
0
41
1
10
11.1121051475348
20
3.71736188462941
30
0
41
1
10
11.7719533361252
20
3.65681099275125
30
0
41
1
10
12.2079468377308
20
3.59629899219107
30
0
41
1
10
12.8571336000892
20
3.47859378422427
30
0
41
1
10
13.0727305504459
20
3.43487029015984
30
0
41
1
10
13.3950841092715
20
3.36305099150121
30
0
41
1
10
13.5023618542216
20
3.33807324921733
30
0
41
1
10
13.7165987955145
20
3.28613856579781
30
0
41
1
10
13.8235970230717
20
3.25917070861431
30
0
41
1
10
14.3568708999314
20
3.11991659322612
30
0
41
1
10
14.7786985862885
20
2.99421755822581
30
0
41
1
10
15.197734739833
20
2.85817805849601
30
0
0
SPLINE
5
D2
100
AcDbEntity
8
SK1
62
256
6
ByLayer
370
18
48
1
60
0
100
AcDbSpline
70
4
71
3
72
31
73
27
40
0
40
0
40
0
40
0
40
0.125000000000001
40
0.125000000000001
40
0.250000000000003
40
0.250000000000003
40
0.375000000000004
40
0.375000000000004
40
0.500000000000005
40
0.500000000000005
40
0.562500000000006
40
0.562500000000006
40
0.625000000000007
40
0.687500000000007
40
0.687500000000007
40
0.718750000000008
40
0.718750000000008
40
0.750000000000008
40
0.750000000000008
40
0.875000000000003
40
0.875000000000003
40
0.937500000000001
40
0.937500000000001
40
0.96875
40
0.96875
40
1
40
1
40
1
40
1
41
1
10
-41.322846649578
20
-3.33034885603652
30
0
41
1
10
-41.2982183123488
20
-3.38803258877206
30
0
41
1
10
-41.2717267680571
20
-3.44436940557552
30
0
41
1
10
-41.2144104214618
20
-3.55410223850021
30
0
41
1
10
-41.1835888583784
20
-3.60749982049498
30
0
41
1
10
-41.1168132306847
20
-3.71101722712197
30
0
41
1
10
-41.0808655609651
20
-3.76114016706765
30
0
41
1
10
-41.0027064087883
20
-3.85761356828161
30
0
41
1
10
-40.9605092263353
20
-3.90397104557275
30
0
41
1
10
-40.8912034928284
20
-3.97008360471079
30
0
41
1
10
-40.8672955191393
20
-3.99134752800094
30
0
41
1
10
-40.8179396702517
20
-4.0320451182069
30
0
41
1
10
-40.7669822244289
20
-4.07097190163014
30
0
41
1
10
-40.7125214515213
20
-4.10609739988001
30
0
41
1
10
-40.670214663531
20
-4.13088316998613
30
0
41
1
10
-40.655868463324
20
-4.13888495820467
30
0
41
1
10
-40.6266576666279
20
-4.15434007152678
30
0
41
1
10
-40.6118286726114
20
-4.16177231338193
30
0
41
1
10
-40.5371050103957
20
-4.19714033207811
30
0
41
1
10
-40.4749740708276
20
-4.22001118907693
30
0
41
1
10
-40.3778268407505
20
-4.24538536593542
30
0
41
1
10
-40.3447830766741
20
-4.25234770684881
30
0
41
1
10
-40.2941359057272
20
-4.26035999417425
30
0
41
1
10
-40.2770624559109
20
-4.2626233218524
30
0
41
1
10
-40.2428795071773
20
-4.26626974627274
30
0
41
1
10
-40.22572940542
20
-4.26766016692457
30
0
41
1
10
-40.2085199217113
20
-4.26861273885882
30
0
0
SPLINE
5
D3
100
AcDbEntity
8
SK1
62
256
6
ByLayer
370
18
48
1
60
0
100
AcDbSpline
70
4
71
3
72
28
73
24
40
0
40
0
40
0
40
0
40
0.125000000000001
40
0.125000000000001
40
0.187500000000002
40
0.187500000000002
40
0.250000000000004
40
0.250000000000004
40
0.375000000000006
40
0.375000000000006
40
0.437500000000007
40
0.437500000000007
40
0.500000000000008
40
0.500000000000008
40
0.625000000000008
40
0.625000000000008
40
0.687500000000007
40
0.687500000000007
40
0.750000000000006
40
0.750000000000006
40
0.875000000000003
40
0.875000000000003
40
1
40
1
40
1
40
1
41
1
10
-40.2085199217113
20
4.26861273885839
30
0
41
1
10
-40.2770078954797
20
4.26482182201573
30
0
41
1
10
-40.3435159701705
20
4.25421034005257
30
0
41
1
10
-40.4406186748427
20
4.22904991330012
30
0
41
1
10
-40.4725401749683
20
4.21911183367274
30
0
41
1
10
-40.5355147747093
20
4.19619029939315
30
0
41
1
10
-40.566119882014
20
4.18336793011164
30
0
41
1
10
-40.6552476470727
20
4.1412976123425
30
0
41
1
10
-40.7112423032074
20
4.10841569067671
30
0
41
1
10
-40.7908488886551
20
4.05271054233145
30
0
41
1
10
-40.8163780326975
20
4.03326066129199
30
0
41
1
10
-40.8655003190458
20
3.99289517941517
30
0
41
1
10
-40.8891220708721
20
3.97195852720529
30
0
41
1
10
-40.9574656057434
20
3.90707900711414
30
0
41
1
10
-40.9996786915665
20
3.86107582099058
30
0
41
1
10
-41.0588219892095
20
3.78847288665983
30
0
41
1
10
-41.0778365663648
20
3.76366951078927
30
0
41
1
10
-41.1145716668491
20
3.71292056409152
30
0
41
1
10
-41.1321793223817
20
3.68713127494576
30
0
41
1
10
-41.1829286385602
20
3.60864716973444
30
0
41
1
10
-41.2140187173667
20
3.55482217194611
30
0
41
1
10
-41.2716651020537
20
3.44451721966016
30
0
41
1
10
-41.2982170704349
20
3.38803549754442
30
0
41
1
10
-41.322846649578
20
3.33034885603652
30
0
0
SPLINE
5
D4
100
AcDbEntity
8
SK1
62
256
6
ByLayer
370
18
48
1
60
0
100
AcDbSpline
70
4
71
3
72
28
73
24
40
0
40
0
40
0
40
0
40
0.250000000000005
40
0.250000000000005
40
0.312500000000006
40
0.312500000000006
40
0.375000000000007
40
0.375000000000007
40
0.5
40
0.5
40
0.624999999999992
40
0.624999999999992
40
0.65624999999999
40
0.65624999999999
40
0.687499999999989
40
0.687499999999989
40
0.749999999999985
40
0.749999999999985
40
0.874999999999993
40
0.874999999999993
40
0.937499999999996
40
0.937499999999996
40
1
40
1
40
1
40
1
41
1
10
-13.8090444171455
20
4.91381127456395
30
0
41
1
10
-13.8730250304025
20
4.99046340860016
30
0
41
1
10
-13.9444892601168
20
5.06075108627354
30
0
41
1
10
-14.0453442110783
20
5.13975030164355
30
0
41
1
10
-14.0660970839937
20
5.15510348386371
30
0
41
1
10
-14.108849096648
20
5.18487572838717
30
0
41
1
10
-14.1308767716723
20
5.19931243837365
30
0
41
1
10
-14.1987969608565
20
5.24103142381006
30
0
41
1
10
-14.2458698834865
20
5.2663349057469
30
0
41
1
10
-14.3438356225248
20
5.3117780788902
30
0
41
1
10
-14.3947259977568
20
5.33192086270162
30
0
41
1
10
-14.4609718435402
20
5.35364247707062
30
0
41
1
10
-14.4743531694453
20
5.35781325453198
30
0
41
1
10
-14.5013886431665
20
5.36579875975136
30
0
41
1
10
-14.5150720561229
20
5.36962082906823
30
0
41
1
10
-14.5562656757263
20
5.38046558406404
30
0
41
1
10
-14.5839366053628
20
5.38687714356516
30
0
41
1
10
-14.6675758493674
20
5.40367498823224
30
0
41
1
10
-14.7241681343673
20
5.41163572791979
30
0
41
1
10
-14.8103509838265
20
5.4186001914598
30
0
41
1
10
-14.839294928931
20
5.42008953290443
30
0
41
1
10
-14.8976311188396
20
5.42134736085288
30
0
41
1
10
-14.9268902583505
20
5.42110969918963
30
0
41
1
10
-14.9560809879695
20
5.42000303685279
30
0
0
SPLINE
5
D5
100
AcDbEntity
8
SK1
62
256
6
ByLayer
370
18
48
1
60
0
100
AcDbSpline
70
4
71
3
72
29
73
25
40
0
40
0
40
0
40
0
40
0.125000000000023
40
0.125000000000023
40
0.250000000000046
40
0.250000000000046
40
0.312500000000058
40
0.312500000000058
40
0.375000000000069
40
0.375000000000069
40
0.500000000000078
40
0.500000000000078
40
0.562500000000082
40
0.562500000000082
40
0.593750000000078
40
0.593750000000078
40
0.625000000000073
40
0.750000000000046
40
0.750000000000046
40
0.875000000000019
40
0.875000000000019
40
0.937500000000009
40
0.937500000000009
40
1
40
1
40
1
40
1
41
1
10
-14.9560809879695
20
-5.42000303685279
30
0
41
1
10
-14.8976517734494
20
-5.42221817199751
30
0
41
1
10
-14.8398504554356
20
-5.42094359808488
30
0
41
1
10
-14.7254362798095
20
-5.41177794727187
30
0
41
1
10
-14.6688237697278
20
-5.40388482792244
30
0
41
1
10
-14.5847891358201
20
-5.38706822462967
30
0
41
1
10
-14.5568094402394
20
-5.38059638684285
30
0
41
1
10
-14.5019506989544
20
-5.36617855475819
30
0
41
1
10
-14.4750261228712
20
-5.35823183005425
30
0
41
1
10
-14.395685497739
20
-5.33227249172961
30
0
41
1
10
-14.3446977675387
20
-5.31214836042813
30
0
41
1
10
-14.2708592175646
20
-5.27794120061839
30
0
41
1
10
-14.2466881934933
20
-5.26586656540695
30
0
41
1
10
-14.2110774186189
20
-5.24675579357759
30
0
41
1
10
-14.1993109081088
20
-5.24021577958535
30
0
41
1
10
-14.1761490644524
20
-5.22689762154863
30
0
41
1
10
-14.1190707984856
20
-5.19295097150575
30
0
41
1
10
-14.0659423088902
20
-5.15585567198329
30
0
41
1
10
-13.9853722790436
20
-5.09280324282167
30
0
41
1
10
-13.9473081932622
20
-5.05942484453377
30
0
41
1
10
-13.8932201680201
20
-5.0067258138026
30
0
41
1
10
-13.8756933478446
20
-4.98872006168716
30
0
41
1
10
-13.8416025059636
20
-4.95184585609991
30
0
41
1
10
-13.8250535884703
20
-4.9329911023857
30
0
41
1
10
-13.8090444171455
20
-4.91381127456395
30
0
0
SPLINE
5
D6
100
AcDbEntity
8
1
62
256
6
ByLayer
370
13
48
1
60
0
100
AcDbSpline
70
4
71
3
72
78
73
74
40
0
40
0
40
0
40
0
40
0.0312500000000004
40
0.0312500000000004
40
0.0625000000000007
40
0.0625000000000007
40
0.0937500000000011
40
0.0937500000000011
40
0.125000000000001
40
0.125000000000001
40
0.156250000000002
40
0.156250000000002
40
0.187500000000002
40
0.187500000000002
40
0.218750000000002
40
0.218750000000002
40
0.250000000000003
40
0.250000000000003
40
0.281250000000003
40
0.281250000000003
40
0.296875000000004
40
0.296875000000004
40
0.304687500000004
40
0.304687500000004
40
0.312500000000004
40
0.312500000000004
40
0.343750000000003
40
0.343750000000003
40
0.375000000000003
40
0.375000000000003
40
0.406250000000003
40
0.406250000000003
40
0.437500000000003
40
0.437500000000003
40
0.468750000000002
40
0.468750000000002
40
0.500000000000002
40
0.500000000000002
40
0.531250000000002
40
0.531250000000002
40
0.562500000000001
40
0.562500000000001
40
0.593750000000001
40
0.593750000000001
40
0.625000000000001
40
0.625000000000001
40
0.640625000000001
40
0.640625000000001
40
0.648437500000001
40
0.648437500000001
40
0.65625
40
0.65625
40
0.6875
40
0.6875
40
0.71875
40
0.71875
40
0.75
40
0.75
40
0.781250000000001
40
0.781250000000001
40
0.812500000000001
40
0.812500000000001
40
0.84375
40
0.84375
40
0.875
40
0.875
40
0.90625
40
0.90625
40
0.9375
40
0.9375
40
0.96875
40
0.96875
40
1
40
1
40
1
40
1
41
1
10
47.6
20
-1.14255329376988
30
0
41
1
10
47.6533355614017
20
-1.42063188003601
30
0
41
1
10
47.7066711228034
20
-1.70111363841246
30
0
41
1
10
47.8133422456069
20
-2.2583257602106
30
0
41
1
10
47.8666778070086
20
-2.53502967278115
30
0
41
1
10
47.9733489298121
20
-3.07512169536551
30
0
41
1
10
48.0266844912138
20
-3.33847546447493
30
0
41
1
10
48.1333556140172
20
-3.84225533250717
30
0
41
1
10
48.186691175419
20
-4.0826459525515
30
0
41
1
10
48.2933622982224
20
-4.53191632488915
30
0
41
1
10
48.3466978596241
20
-4.74076757846649
30
0
41
1
10
48.4533689824276
20
-5.12039578800457
30
0
41
1
10
48.5067045438293
20
-5.29115771836783
30
0
41
1
10
48.6133756666328
20
-5.59073867212484
30
0
41
1
10
48.6667112280345
20
-5.71955856723494
30
0
41
1
10
48.7733823508379
20
-5.93429882755231
30
0
41
1
10
48.8267179122396
20
-6.02023376316211
30
0
41
1
10
48.9333890350431
20
-6.15091534321178
30
0
41
1
10
48.9867245964449
20
-6.19568489092691
30
0
41
1
10
49.0667279385475
20
-6.23479371555013
30
0
41
1
10
49.0933957192483
20
-6.24316971255786
30
0
41
1
10
49.1333973902996
20
-6.24919650656128
30
0
41
1
10
49.14673128065
20
-6.25011677186978
30
0
41
1
10
49.1733990613509
20
-6.24985967257518
30
0
41
1
10
49.1867329517013
20
-6.24867783773794
30
0
41
1
10
49.2534024034535
20
-6.23729957686615
30
0
41
1
10
49.3067379648552
20
-6.21064485286121
30
0
41
1
10
49.4134090876587
20
-6.11776207624007
30
0
41
1
10
49.4667446490604
20
-6.05150936427614
30
0
41
1
10
49.5734157718639
20
-5.87664372348846
30
0
41
1
10
49.6267513332655
20
-5.76801154019867
30
0
41
1
10
49.7334224560691
20
-5.50801321651437
30
0
41
1
10
49.7867580174708
20
-5.35663925471695
30
0
41
1
10
49.8934291402742
20
-5.01362551006341
30
0
41
1
10
49.946764701676
20
-4.82199329655725
30
0
41
1
10
50.0534358244794
20
-4.40378893491928
30
0
41
1
10
50.1067713858811
20
-4.17723956045023
30
0
41
1
10
50.2134425086846
20
-3.69692396683223
30
0
41
1
10
50.2667780700863
20
-3.44319093359164
30
0
41
1
10
50.3734491928897
20
-2.91776631915985
30
0
41
1
10
50.4267847542915
20
-2.64611060136366
30
0
41
1
10
50.533455877095
20
-2.09456687459101
30
0
41
1
10
50.5867914384966
20
-1.81470967537771
30
0
41
1
10
50.6934625613001
20
-1.25592853939682
30
0
41
1
10
50.7467981227018
20
-0.977025237947828
30
0
41
1
10
50.8268014648044
20
-0.565232640482861
30
0
41
1
10
50.8534692455053
20
-0.429049737333997
30
0
41
1
10
50.8934709165566
20
-0.227004072532537
30
0
41
1
10
50.906804806907
20
-0.160026064407958
30
0
41
1
10
50.9334725876079
20
-0.0269012739423715
30
0
41
1
10
50.9468064779583
20
0.0390571703298406
30
0
41
1
10
51.0134759297105
20
0.372122108900101
30
0
41
1
10
51.0668114911122
20
0.645254051013467
30
0
41
1
10
51.1734826139157
20
1.19838129422769
30
0
41
1
10
51.2268181753174
20
1.47836455908984
30
0
41
1
10
51.3334892981208
20
2.03698496157477
30
0
41
1
10
51.3868248595226
20
2.31559847147875
30
0
41
1
10
51.493495982326
20
2.86209396438096
30
0
41
1
10
51.5468315437277
20
3.12994315694985
30
0
41
1
10
51.6535026665312
20
3.64520817210416
30
0
41
1
10
51.7068382279329
20
3.89258803269203
30
0
41
1
10
51.8135093507363
20
4.35795374952406
30
0
41
1
10
51.8668449121381
20
4.57590850145399
30
0
41
1
10
51.9735160349416
20
4.97524246834533
30
0
41
1
10
52.0268515963432
20
5.15660265201245
30
0
41
1
10
52.1335227191467
20
5.47812278046666
30
0
41
1
10
52.1868582805485
20
5.61827941619768
30
0
41
1
10
52.2935294033519
20
5.85566950046817
30
0
41
1
10
52.3468649647536
20
5.95291431870305
30
0
41
1
10
52.453536087557
20
6.10553030426374
30
0
41
1
10
52.5068716489588
20
6.16092277366647
30
0
41
1
10
52.6135427717623
20
6.23314508498197
30
0
41
1
10
52.666878333164
20
6.25
30
0
41
1
10
52.7202138945657
20
6.25
30
0
0
SPLINE
5
D7
100
AcDbEntity
8
1
62
256
6
ByLayer
370
13
48
1
60
0
100
AcDbSpline
70
4
71
3
72
78
73
74
40
0
40
0
40
0
40
0
40
0.0312500000000001
40
0.0312500000000001
40
0.0625000000000002
40
0.0625000000000002
40
0.0937500000000003
40
0.0937500000000003
40
0.125
40
0.125
40
0.15625
40
0.15625
40
0.187500000000001
40
0.187500000000001
40
0.218750000000001
40
0.218750000000001
40
0.2265625
40
0.2265625
40
0.234375
40
0.234375
40
0.25
40
0.25
40
0.281249999999999
40
0.281249999999999
40
0.312499999999998
40
0.312499999999998
40
0.343749999999997
40
0.343749999999997
40
0.374999999999996
40
0.374999999999996
40
0.406249999999995
40
0.406249999999995
40
0.437499999999994
40
0.437499999999994
40
0.468749999999993
40
0.468749999999993
40
0.499999999999992
40
0.499999999999992
40
0.53124999999999
40
0.53124999999999
40
0.562499999999989
40
0.562499999999989
40
0.593749999999988
40
0.593749999999988
40
0.609374999999988
40
0.609374999999988
40
0.617187499999988
40
0.617187499999988
40
0.624999999999988
40
0.624999999999988
40
0.656249999999989
40
0.656249999999989
40
0.68749999999999
40
0.68749999999999
40
0.718749999999991
40
0.718749999999991
40
0.749999999999992
40
0.749999999999992
40
0.781249999999993
40
0.781249999999993
40
0.812499999999994
40
0.812499999999994
40
0.843749999999995
40
0.843749999999995
40
0.874999999999996
40
0.874999999999996
40
0.906249999999997
40
0.906249999999997
40
0.937499999999998
40
0.937499999999998
40
0.968749999999999
40
0.968749999999999
40
1
40
1
40
1
40
1
41
1
10
47.6
20
-3.68998202215494
30
0
41
1
10
47.6481142788561
20
-3.91440328814147
30
0
41
1
10
47.6962285577121
20
-4.12898106668368
30
0
41
1
10
47.7924571154243
20
-4.53229522161749
30
0
41
1
10
47.8405713942804
20
-4.72101476247823
30
0
41
1
10
47.9367999519925
20
-5.06777487110861
30
0
41
1
10
47.9849142308486
20
-5.22580586623681
30
0
41
1
10
48.0811427885607
20
-5.50811704061516
30
0
41
1
10
48.1292570674168
20
-5.63239624150683
30
0
41
1
10
48.225485625129
20
-5.84605915359199
30
0
41
1
10
48.273599903985
20
-5.93544973203365
30
0
41
1
10
48.3698284616972
20
-6.080024792232
30
0
41
1
10
48.4179427405533
20
-6.1352216419555
30
0
41
1
10
48.5141712982654
20
-6.21363395656226
30
0
41
1
10
48.5622855771215
20
-6.23686427933691
30
0
41
1
10
48.6224284256916
20
-6.2480011758044
30
0
41
1
10
48.6344569954057
20
-6.24933559233995
30
0
41
1
10
48.6585141348336
20
-6.2502776584316
30
0
41
1
10
48.6705427045477
20
-6.24989410917723
30
0
41
1
10
48.7066284136898
20
-6.24612277044582
30
0
41
1
10
48.7306855531178
20
-6.24009957740421
30
0
41
1
10
48.8028569714019
20
-6.21082295817399
30
0
41
1
10
48.8509712502579
20
-6.17632827353483
30
0
41
1
10
48.9471998079701
20
-6.0744261661514
30
0
41
1
10
48.9953140868262
20
-6.00700444028232
30
0
41
1
10
49.0915426445384
20
-5.83752936173772
30
0
41
1
10
49.1396569233944
20
-5.73546530258068
30
0
41
1
10
49.2358854811066
20
-5.49664352892086
30
0
41
1
10
49.2839997599626
20
-5.35988158985981
30
0
41
1
10
49.3802283176748
20
-5.05349355785899
30
0
41
1
10
49.4283425965308
20
-4.88387158173268
30
0
41
1
10
49.524571154243
20
-4.51549186481716
30
0
41
1
10
49.5726854330991
20
-4.3167465954991
30
0
41
1
10
49.6689139908112
20
-3.89549673755837
30
0
41
1
10
49.7170282696673
20
-3.67301091490285
30
0
41
1
10
49.8132568273795
20
-3.21082600182783
30
0
41
1
10
49.8613711062355
20
-2.97114839796524
30
0
41
1
10
49.9575996639476
20
-2.4816769206964
30
0
41
1
10
50.0057139428038
20
-2.2319032925877
30
0
41
1
10
50.1019425005159
20
-1.72924655620793
30
0
41
1
10
50.150056779372
20
-1.4763792748852
30
0
41
1
10
50.2462853370842
20
-0.973899557980815
30
0
41
1
10
50.2943996159402
20
-0.724296864216456
30
0
41
1
10
50.3665710342243
20
-0.356334008066341
30
0
41
1
10
50.3906281736524
20
-0.234744324294326
30
0
41
1
10
50.4267138827944
20
-0.0543702119873899
30
0
41
1
10
50.4387424525085
20
0.005185855470728
30
0
41
1
10
50.4627995919365
20
0.125063970570011
30
0
41
1
10
50.4748281616505
20
0.185346168752289
30
0
41
1
10
50.5349710102206
20
0.488310042398808
30
0
41
1
10
50.5830852890767
20
0.735697765531597
30
0
41
1
10
50.6793138467888
20
1.23556752923889
30
0
41
1
10
50.7274281256449
20
1.4880418493313
30
0
41
1
10
50.823656683357
20
1.99202822507456
30
0
41
1
10
50.8717709622131
20
2.24352629131613
30
0
41
1
10
50.9679995199253
20
2.73871509219714
30
0
41
1
10
51.0161137987814
20
2.98238670750595
30
0
41
1
10
51.1123423564935
20
3.4547917757362
30
0
41
1
10
51.1604566353496
20
3.68350372393348
30
0
41
1
10
51.2566851930617
20
4.11919435636693
30
0
41
1
10
51.3047994719178
20
4.32615297619179
30
0
41
1
10
51.4010280296299
20
4.71251660469676
30
0
41
1
10
51.4491423084861
20
4.89190682286372
30
0
41
1
10
51.5453708661982
20
5.2188251831613
30
0
41
1
10
51.5934851450543
20
5.36634644705282
30
0
41
1
10
51.6897137027664
20
5.62706396066253
30
0
41
1
10
51.7378279816225
20
5.74026190423081
30
0
41
1
10
51.8340565393346
20
5.93179365723643
30
0
41
1
10
51.8821708181907
20
6.0101363927472
30
0
41
1
10
51.9783993759028
20
6.13317625352681
30
0
41
1
10
52.026513654759
20
6.17788687075429
30
0
41
1
10
52.1227422124711
20
6.2362912241307
30
0
41
1
10
52.1708564913272
20
6.25
30
0
41
1
10
52.2189707701833
20
6.25
30
0
0
SPLINE
5
D8
100
AcDbEntity
8
1
62
256
6
ByLayer
370
13
48
1
60
0
100
AcDbSpline
70
4
71
3
72
77
73
73
40
0
40
0
40
0
40
0
40
0.0312500000000005
40
0.0312500000000005
40
0.0625000000000009
40
0.0625000000000009
40
0.0937500000000013
40
0.0937500000000013
40
0.125000000000002
40
0.125000000000002
40
0.132812500000002
40
0.132812500000002
40
0.140625000000001
40
0.140625000000001
40
0.156250000000001
40
0.156250000000001
40
0.187500000000001
40
0.187500000000001
40
0.21875
40
0.21875
40
0.25
40
0.25
40
0.281249999999999
40
0.281249999999999
40
0.312499999999999
40
0.312499999999999
40
0.343749999999999
40
0.343749999999999
40
0.374999999999998
40
0.374999999999998
40
0.406249999999998
40
0.406249999999998
40
0.437499999999997
40
0.437499999999997
40
0.468749999999997
40
0.468749999999997
40
0.499999999999997
40
0.499999999999997
40
0.531249999999996
40
0.531249999999996
40
0.562499999999996
40
0.562499999999996
40
0.570312499999996
40
0.570312499999996
40
0.578124999999996
40
0.593749999999996
40
0.593749999999996
40
0.624999999999996
40
0.624999999999996
40
0.656249999999996
40
0.656249999999996
40
0.687499999999997
40
0.687499999999997
40
0.718749999999997
40
0.718749999999997
40
0.749999999999997
40
0.749999999999997
40
0.781249999999998
40
0.781249999999998
40
0.812499999999998
40
0.812499999999998
40
0.843749999999998
40
0.843749999999998
40
0.874999999999999
40
0.874999999999999
40
0.906249999999999
40
0.906249999999999
40
0.937499999999999
40
0.937499999999999
40
0.96875
40
0.96875
40
1
40
1
40
1
40
1
41
1
10
47.6
20
-5.55573357037505
30
0
41
1
10
47.6428929963105
20
-5.66723917158248
30
0
41
1
10
47.6857859926209
20
-5.76503755478342
30
0
41
1
10
47.7715719852417
20
-5.93296718896727
30
0
41
1
10
47.8144649815521
20
-6.00310363464337
30
0
41
1
10
47.900250974173
20
-6.11656185760708
30
0
41
1
10
47.9431439704834
20
-6.15989113781652
30
0
41
1
10
48.0289299631042
20
-6.22149379530501
30
0
41
1
10
48.0718229594146
20
-6.23977561993882
30
0
41
1
10
48.1254392048027
20
-6.24848078892092
30
0
41
1
10
48.1361624538803
20
-6.24951572604951
30
0
41
1
10
48.1576089520356
20
-6.25021548802806
30
0
41
1
10
48.1683322011131
20
-6.24988643233078
30
0
41
1
10
48.200501948346
20
-6.24681940926934
30
0
41
1
10
48.2219484465011
20
-6.24199227422497
30
0
41
1
10
48.2862879409668
20
-6.21867756337284
30
0
41
1
10
48.3291809372772
20
-6.19133627950094
30
0
41
1
10
48.414966929898
20
-6.11086948849183
30
0
41
1
10
48.4578599262085
20
-6.05773573095269
30
0
41
1
10
48.5436459188293
20
-5.92423243964995
30
0
41
1
10
48.5865389151397
20
-5.84385610175846
30
0
41
1
10
48.6723249077606
20
-5.65540034589034
30
0
41
1
10
48.715217904071
20
-5.54731692209666
30
0
41
1
10
48.8010038966919
20
-5.30413126791126
30
0
41
1
10
48.8438968930023
20
-5.16902890806523
30
0
41
1
10
48.9296828856232
20
-4.87370701307896
30
0
41
1
10
48.9725758819336
20
-4.71349168793176
30
0
41
1
10
49.0583618745544
20
-4.3710027055865
30
0
41
1
10
49.1012548708648
20
-4.18873723626308
30
0
41
1
10
49.1870408634857
20
-3.80617580494675
30
0
41
1
10
49.2299338597961
20
-3.60589084887619
30
0
41
1
10
49.315719852417
20
-3.19199417444497
30
0
41
1
10
49.3586128487274
20
-2.97839459680597
30
0
41
1
10
49.4443988413483
20
-2.54289423020393
30
0
41
1
10
49.4872918376587
20
-2.32100493689396
30
0
41
1
10
49.5730778302795
20
-1.87391115155623
30
0
41
1
10
49.6159708265899
20
-1.64871605327988
30
0
41
1
10
49.7017568192108
20
-1.19963858024556
30
0
41
1
10
49.7446498155213
20
-0.975762634962365
30
0
41
1
10
49.8304358081421
20
-0.533353211801625
30
0
41
1
10
49.8733288044525
20
-0.314822993632987
30
0
41
1
10
49.9269450498406
20
-0.0470530178093327
30
0
41
1
10
49.9376682989181
20
0.0060481500231049
30
0
41
1
10
49.9591147970734
20
0.112878724584135
30
0
41
1
10
49.9912845443061
20
0.273944193699975
30
0
41
1
10
50.023454291539
20
0.437267536097153
30
0
41
1
10
50.0877937860047
20
0.766319537753049
30
0
41
1
10
50.130686782315
20
0.988917032250555
30
0
41
1
10
50.2164727749359
20
1.43677459057619
30
0
41
1
10
50.2593657712463
20
1.66202922751137
30
0
41
1
10
50.3451517638671
20
2.11074569736036
30
0
41
1
10
50.3880447601776
20
2.33419900639853
30
0
41
1
10
50.4738307527984
20
2.77441302395425
30
0
41
1
10
50.5167237491088
20
2.99116276462132
30
0
41
1
10
50.6025097417297
20
3.41292101701575
30
0
41
1
10
50.6454027380402
20
3.61791740671035
30
0
41
1
10
50.731188730661
20
4.01132343849528
30
0
41
1
10
50.7740817269714
20
4.19972152321864
30
0
41
1
10
50.8598677195923
20
4.55565068259469
30
0
41
1
10
50.9027607159027
20
4.72317252712315
30
0
41
1
10
50.9885467085236
20
5.03395270442437
30
0
41
1
10
51.031439704834
20
5.1772054981312
30
0
41
1
10
51.1172256974548
20
5.43716110504764
30
0
41
1
10
51.1601186937652
20
5.55386269793649
30
0
41
1
10
51.2459046863861
20
5.75964250071095
30
0
41
1
10
51.2887976826965
20
5.84872359207714
30
0
41
1
10
51.3745836753174
20
5.99937551821594
30
0
41
1
10
51.4174766716278
20
6.06095241814194
30
0
41
1
10
51.5032626642487
20
6.15775730698587
30
0
41
1
10
51.5461556605591
20
6.19299323969818
30
0
41
1
10
51.6319416531799
20
6.23911034485417
30
0
41
1
10
51.6748346494904
20
6.25
30
0
41
1
10
51.7177276458008
20
6.25
30
0
0
SPLINE
5
D9
100
AcDbEntity
8
1
62
256
6
ByLayer
370
13
48
1
60
0
100
AcDbSpline
70
4
71
3
72
46
73
42
40
0
40
0
40
0
40
0
40
0.0156250000000001
40
0.0156250000000001
40
0.0312500000000001
40
0.0312500000000001
40
0.0625000000000007
40
0.0625000000000007
40
0.125000000000002
40
0.125000000000002
40
0.187500000000003
40
0.187500000000003
40
0.250000000000004
40
0.250000000000004
40
0.312500000000005
40
0.312500000000005
40
0.375000000000006
40
0.375000000000006
40
0.437500000000007
40
0.437500000000007
40
0.500000000000008
40
0.500000000000008
40
0.515625000000008
40
0.515625000000008
40
0.531250000000008
40
0.531250000000008
40
0.562500000000008
40
0.562500000000008
40
0.625000000000007
40
0.625000000000007
40
0.687500000000006
40
0.687500000000006
40
0.750000000000004
40
0.750000000000004
40
0.812500000000003
40
0.812500000000003
40
0.875000000000002
40
0.875000000000002
40
0.937500000000001
40
0.937500000000001
40
1
40
1
40
1
40
1
41
1
10
47.6
20
-6.24417927657572
30
0
41
1
10
47.6188358568824
20
-6.24828259567605
30
0
41
1
10
47.6376717137648
20
-6.25018087892988
30
0
41
1
10
47.6753434275295
20
-6.24979213692959
30
0
41
1
10
47.6941792844119
20
-6.24749525333223
30
0
41
1
10
47.7506868550591
20
-6.23395753132965
30
0
41
1
10
47.7883585688239
20
-6.21605891207076
30
0
41
1
10
47.9013737101182
20
-6.13334526491499
30
0
41
1
10
47.9767171376477
20
-6.03923694673585
30
0
41
1
10
48.1274039927068
20
-5.76551925131602
30
0
41
1
10
48.2027474202364
20
-5.58581475463919
30
0
41
1
10
48.3534342752955
20
-5.14311667389018
30
0
41
1
10
48.428777702825
20
-4.88013327614667
30
0
41
1
10
48.5794645578841
20
-4.28463565897425
30
0
41
1
10
48.6548079854137
20
-3.95225182878122
30
0
41
1
10
48.8054948404728
20
-3.24113972185629
30
0
41
1
10
48.8808382680023
20
-2.86260865960881
30
0
41
1
10
49.0315251230614
20
-2.08663902695503
30
0
41
1
10
49.106868550591
20
-1.68937785106647
30
0
41
1
10
49.2575554056501
20
-0.901682334244413
30
0
41
1
10
49.3328988331796
20
-0.511345189977305
30
0
41
1
10
49.4270781175916
20
-0.0400199269481902
30
0
41
1
10
49.4459139744739
20
0.0530425523289466
30
0
41
1
10
49.4835856882387
20
0.241722307094591
30
0
41
1
10
49.5024215451211
20
0.336868645601356
30
0
41
1
10
49.5589291157683
20
0.624331056774167
30
0
41
1
10
49.596600829533
20
0.818684349165068
30
0
41
1
10
49.7096159708274
20
1.40619610544994
30
0
41
1
10
49.7849593983569
20
1.80396110164767
30
0
41
1
10
49.935646253416
20
2.58739992136557
30
0
41
1
10
50.0109896809456
20
2.97291193641789
30
0
41
1
10
50.1616765360046
20
3.70437871089686
30
0
41
1
10
50.2370199635342
20
4.05013319536553
30
0
41
1
10
50.3877068185932
20
4.6772466898874
30
0
41
1
10
50.4630502461229
20
4.95845231609485
30
0
41
1
10
50.6137371011819
20
5.43990307224877
30
0
41
1
10
50.6890805287115
20
5.64010810701478
30
0
41
1
10
50.8397673837706
20
5.9543742055541
30
0
41
1
10
50.9151108113001
20
6.06850989678281
30
0
41
1
10
51.0657976663592
20
6.21625538259872
30
0
41
1
10
51.1411410938888
20
6.25
30
0
41
1
10
51.2164845214183
20
6.25
30
0
0
SPLINE
5
DA
100
AcDbEntity
8
1
62
256
6
ByLayer
370
13
48
1
60
0
100
AcDbSpline
70
4
71
3
72
42
73
38
40
0
40
0
40
0
40
0
40
0.0625000000000011
40
0.0625000000000011
40
0.125000000000002
40
0.125000000000002
40
0.187500000000003
40
0.187500000000003
40
0.250000000000005
40
0.250000000000005
40
0.312500000000006
40
0.312500000000006
40
0.375000000000007
40
0.375000000000007
40
0.406250000000007
40
0.406250000000007
40
0.421875000000007
40
0.421875000000007
40
0.437500000000007
40
0.437500000000007
40
0.500000000000006
40
0.500000000000006
40
0.562500000000005
40
0.562500000000005
40
0.625000000000005
40
0.625000000000005
40
0.687500000000004
40
0.687500000000004
40
0.750000000000003
40
0.750000000000003
40
0.812500000000002
40
0.812500000000002
40
0.875000000000002
40
0.875000000000002
40
0.937500000000001
40
0.937500000000001
40
1
40
1
40
1
40
1
41
1
10
47.6
20
-5.80700646714445
30
0
41
1
10
47.6649008624382
20
-5.67318078652312
30
0
41
1
10
47.7298017248765
20
-5.5074924619023
30
0
41
1
10
47.859603449753
20
-5.1149911393909
30
0
41
1
10
47.9245043121912
20
-4.88818757514346
30
0
41
1
10
48.0543060370677
20
-4.38233197848609
30
0
41
1
10
48.119206899506
20
-4.10333911500118
30
0
41
1
10
48.2490086243824
20
-3.50729385711534
30
0
41
1
10
48.3139094868207
20
-3.19033243149215
30
0
41
1
10
48.4437112116972
20
-2.53551140931077
30
0
41
1
10
48.5086120741354
20
-2.19774389537992
30
0
41
1
10
48.638413799012
20
-1.51857586811531
30
0
41
1
10
48.7033146614502
20
-1.17724168937266
30
0
41
1
10
48.8006659551076
20
-0.673690619288664
30
0
41
1
10
48.8331163863267
20
-0.50722393140137
30
0
41
1
10
48.8817920331554
20
-0.260727970254038
30
0
41
1
10
48.898017248765
20
-0.179094712409352
30
0
41
1
10
48.9304676799841
20
-0.01705647403179
30
0
41
1
10
48.9466928955936
20
0.0631847435365671
30
0
41
1
10
49.0278189736414
20
0.469434499747649
30
0
41
1
10
49.0927198360797
20
0.804176975890357
30
0
41
1
10
49.2225215609562
20
1.48093146909835
30
0
41
1
10
49.2874224233944
20
1.82290307820577
30
0
41
1
10
49.4172241482709
20
2.49837852542891
30
0
41
1
10
49.4821250107091
20
2.8318063695186
30
0
41
1
10
49.6119267355857
20
3.47270597606231
30
0
41
1
10
49.6768275980239
20
3.78008269230395
30
0
41
1
10
49.8066293229004
20
4.35228750628372
30
0
41
1
10
49.8715301853386
20
4.61703116825095
30
0
41
1
10
50.0013319102151
20
5.09108715493531
30
0
41
1
10
50.0662327726534
20
5.30035416670523
30
0
41
1
10
50.1960344975299
20
5.65633044534746
30
0
41
1
10
50.2609353599681
20
5.80304533327666
30
0
41
1
10
50.3907370848446
20
6.03316734383526
30
0
41
1
10
50.4556379472828
20
6.11662138818025
30
0
41
1
10
50.5854396721593
20
6.22500485815073
30
0
41
1
10
50.6503405345976
20
6.25
30
0
41
1
10
50.7152413970359
20
6.25
30
0
0
SPLINE
5
DB
100
AcDbEntity
8
1
62
256
6
ByLayer
370
13
48
1
60
0
100
AcDbSpline
70
4
71
3
72
14
73
10
40
0
40
0
40
0
40
0
40
0.25
40
0.25
40
0.5
40
0.5
40
0.75
40
0.75
40
1
40
1
40
1
40
1
41
1
10
54.1161609732312
20
6.25
30
0
41
1
10
54.1669130617817
20
6.25
30
0
41
1
10
54.2176651503321
20
6.23474273598458
30
0
41
1
10
54.3191693274329
20
6.1695501725923
30
0
41
1
10
54.3699214159834
20
6.11959526732031
30
0
41
1
10
54.4714255930842
20
5.9820328992059
30
0
41
1
10
54.5221776816346
20
5.89440829826478
30
0
41
1
10
54.6236818587354
20
5.68032453608069
30
0
41
1
10
54.6744339472858
20
5.55385508198333
30
0
41
1
10
54.7251860358363
20
5.40848786626634
30
0
0
SPLINE
5
DC
100
AcDbEntity
8
1
62
256
6
ByLayer
370
13
48
1
60
0
100
AcDbSpline
70
4
71
3
72
42
73
38
40
0
40
0
40
0
40
0
40
0.0625000000000016
40
0.0625000000000016
40
0.125000000000003
40
0.125000000000003
40
0.187500000000005
40
0.187500000000005
40
0.250000000000007
40
0.250000000000007
40
0.312500000000008
40
0.312500000000008
40
0.328125000000008
40
0.328125000000008
40
0.343750000000008
40
0.343750000000008
40
0.375000000000008
40
0.375000000000008
40
0.437500000000007
40
0.437500000000007
40
0.500000000000007
40
0.500000000000007
40
0.562500000000006
40
0.562500000000006
40
0.625000000000005
40
0.625000000000005
40
0.687500000000004
40
0.687500000000004
40
0.750000000000003
40
0.750000000000003
40
0.812500000000003
40
0.812500000000003
40
0.875000000000002
40
0.875000000000002
40
0.937500000000001
40
0.937500000000001
40
1
40
1
40
1
40
1
41
1
10
47.6
20
-4.17497646885656
30
0
41
1
10
47.6544582973469
20
-3.93955508524641
30
0
41
1
10
47.7089165946939
20
-3.68850469236966
30
0
41
1
10
47.8178331893878
20
-3.16452129509824
30
0
41
1
10
47.8722914867348
20
-2.89162812997131
30
0
41
1
10
47.9812080814286
20
-2.33428557798592
30
0
41
1
10
48.0356663787756
20
-2.04987278287359
30
0
41
1
10
48.1445829734694
20
-1.47951888875679
30
0
41
1
10
48.1990412708164
20
-1.19360410804813
30
0
41
1
10
48.3079578655103
20
-0.62900818242619
30
0
41
1
10
48.3624161628572
20
-0.35034023453008
30
0
41
1
10
48.4304890345409
20
-0.0108364925880835
30
0
41
1
10
48.4441036088776
20
0.0565376417231676
30
0
41
1
10
48.4713327575511
20
0.192727107096829
30
0
41
1
10
48.4849473318879
20
0.261248075991801
30
0
41
1
10
48.5257910548981
20
0.467943804974055
30
0
41
1
10
48.5530202035715
20
0.607255284819445
30
0
41
1
10
48.634707649592
20
1.02842273603781
30
0
41
1
10
48.6891659469389
20
1.31356466709499
30
0
41
1
10
48.7980825416328
20
1.88418879924083
30
0
41
1
10
48.8525408389798
20
2.16964713975199
30
0
41
1
10
48.9614574336737
20
2.73107833214783
30
0
41
1
10
49.0159157310206
20
3.00701615084964
30
0
41
1
10
49.1248323257145
20
3.53905868557268
30
0
41
1
10
49.1792906230614
20
3.79512349239235
30
0
41
1
10
49.2882072177553
20
4.27770305079838
30
0
41
1
10
49.3426655151022
20
4.50418212559103
30
0
41
1
10
49.4515821097962
20
4.91967442287876
30
0
41
1
10
49.5060404071431
20
5.10866484623915
30
0
41
1
10
49.614957001837
20
5.44397357898237
30
0
41
1
10
49.6694152991839
20
5.59028671858738
30
0
41
1
10
49.7783318938778
20
5.83817714986873
30
0
41
1
10
49.8327901912247
20
5.93976614402874
30
0
41
1
10
49.9417067859186
20
6.09918097293596
30
0
41
1
10
49.9961650832656
20
6.15703010629619
30
0
41
1
10
50.1050816779595
20
6.2324257234371
30
0
41
1
10
50.1595399753064
20
6.25
30
0
41
1
10
50.2139982726534
20
6.25
30
0
0
SPLINE
5
DD
100
AcDbEntity
8
1
62
256
6
ByLayer
370
13
48
1
60
0
100
AcDbSpline
70
4
71
3
72
22
73
18
40
0
40
0
40
0
40
0
40
0.125
40
0.125
40
0.25
40
0.25
40
0.375
40
0.375
40
0.5
40
0.5
40
0.625
40
0.625
40
0.75
40
0.75
40
0.875
40
0.875
40
1
40
1
40
1
40
1
41
1
10
53.6149178488488
20
6.25
30
0
41
1
10
53.6611790233066
20
6.25
30
0
41
1
10
53.7074401977644
20
6.23732914088058
30
0
41
1
10
53.7999625466801
20
6.18345980000254
30
0
41
1
10
53.8462237211378
20
6.14224894946105
30
0
41
1
10
53.9387460700534
20
6.0289010298107
30
0
41
1
10
53.9850072445113
20
5.95675268065813
30
0
41
1
10
54.0775295934269
20
5.78030433155962
30
0
41
1
10
54.1237907678847
20
5.67599643036533
30
0
41
1
10
54.2163131168003
20
5.43547348880247
30
0
41
1
10
54.2625742912581
20
5.29925602848451
30
0
41
1
10
54.3550966401738
20
4.99679089727022
30
0
41
1
10
54.4013578146316
20
4.830547509995
30
0
41
1
10
54.4938801635472
20
4.47151548463839
30
0
41
1
10
54.540141338005
20
4.27873764392942
30
0
41
1
10
54.6326636869206
20
3.87150122484559
30
0
41
1
10
54.6789248613784
20
3.65705826192959
30
0
41
1
10
54.7251860358363
20
3.43469489977125
30
0
0
SPLINE
5
DE
100
AcDbEntity
8
1
62
256
6
ByLayer
370
13
48
1
60
0
100
AcDbSpline
70
4
71
3
72
40
73
36
40
0
40
0
40
0
40
0
40
0.0625000000000001
40
0.0625000000000001
40
0.125
40
0.125
40
0.15625
40
0.15625
40
0.1875
40
0.1875
40
0.25
40
0.25
40
0.3125
40
0.3125
40
0.375
40
0.375
40
0.4375
40
0.4375
40
0.5
40
0.5
40
0.5625
40
0.5625
40
0.625
40
0.625
40
0.6875
40
0.6875
40
0.75
40
0.75
40
0.8125
40
0.8125
40
0.875
40
0.875
40
0.9375
40
0.9375
40
1
40
1
40
1
40
1
41
1
10
47.6
20
-1.70646317918798
30
0
41
1
10
47.6440157322556
20
-1.47589925433698
30
0
41
1
10
47.6880314645113
20
-1.24504776500478
30
0
41
1
10
47.7760629290225
20
-0.787394426763342
30
0
41
1
10
47.8200786612782
20
-0.560597687652177
30
0
41
1
10
47.8861022596617
20
-0.226341040166801
30
0
41
1
10
47.9081101257895
20
-0.11590540117632
30
0
41
1
10
47.9521258580451
20
0.102597824249983
30
0
41
1
10
47.974133724173
20
0.212851386925792
30
0
41
1
10
48.0401573225564
20
0.546867949222474
30
0
41
1
10
48.0841730548121
20
0.773539460077075
30
0
41
1
10
48.1722045193233
20
1.23102895615887
30
0
41
1
10
48.216220251579
20
1.46184190688004
30
0
41
1
10
48.3042517160902
20
1.92299330946474
30
0
41
1
10
48.348267448346
20
2.15332303551514
30
0
41
1
10
48.4362989128572
20
2.60831655644142
30
0
41
1
10
48.4803146451129
20
2.8329684875568
30
0
41
1
10
48.5683461096242
20
3.2711563393149
30
0
41
1
10
48.6123618418798
20
3.48467861638474
30
0
41
1
10
48.7003933063911
20
3.89528708963888
30
0
41
1
10
48.7444090386467
20
4.09235983329089
30
0
41
1
10
48.832440503158
20
4.4652937212087
30
0
41
1
10
48.8764562354137
20
4.64114374566344
30
0
41
1
10
48.964487699925
20
4.96777805468847
30
0
41
1
10
49.0085034321806
20
5.11855530724151
30
0
41
1
10
49.0965348966919
20
5.39238979031987
30
0
41
1
10
49.1405506289475
20
5.51544498265574
30
0
41
1
10
49.2285820934588
20
5.73251954099905
30
0
41
1
10
49.2725978257145
20
5.82654173232339
30
0
41
1
10
49.3606292902258
20
5.98555967547631
30
0
41
1
10
49.4046450224814
20
6.05056209121744
30
0
41
1
10
49.4926764869927
20
6.1527280374842
30
0
41
1
10
49.5366922192484
20
6.18990053050902
30
0
41
1
10
49.6247236837597
20
6.23853168631564
30
0
41
1
10
49.6687394160153
20
6.25
30
0
41
1
10
49.7127551482709
20
6.25
30
0
0
SPLINE
5
DF
100
AcDbEntity
8
1
62
256
6
ByLayer
370
13
48
1
60
0
100
AcDbSpline
70
4
71
3
72
22
73
18
40
0
40
0
40
0
40
0
40
0.125
40
0.125
40
0.25
40
0.25
40
0.375
40
0.375
40
0.5
40
0.5
40
0.625
40
0.625
40
0.75
40
0.75
40
0.875
40
0.875
40
1
40
1
40
1
40
1
41
1
10
53.1136747244664
20
6.25
30
0
41
1
10
53.1808210291068
20
6.25
30
0
41
1
10
53.2479673337472
20
6.22323614438673
30
0
41
1
10
53.382259943028
20
6.10693143439408
30
0
41
1
10
53.4494062476684
20
6.01731306471325
30
0
41
1
10
53.5836988569492
20
5.7702260995014
30
0
41
1
10
53.6508451615896
20
5.61270459006795
30
0
41
1
10
53.7851377708704
20
5.23113492843905
30
0
41
1
10
53.8522840755109
20
5.00708627830312
30
0
41
1
10
53.9865766847917
20
4.50108185076462
30
0
41
1
10
54.0537229894321
20
4.21918756517832
30
0
41
1
10
54.1880155987129
20
3.61250330780459
30
0
41
1
10
54.2551619033534
20
3.28781820090163
30
0
41
1
10
54.3894545126342
20
2.61436194061056
30
0
41
1
10
54.4566008172746
20
2.265701212907
30
0
41
1
10
54.5908934265555
20
1.56351786956242
30
0
41
1
10
54.6580397311958
20
1.21007607664765
30
0
41
1
10
54.7251860358363
20
0.862526929016894
30
0
0
SPLINE
5
E0
100
AcDbEntity
8
1
62
256
6
ByLayer
370
13
48
1
60
0
100
AcDbSpline
70
4
71
3
72
22
73
18
40
0
40
0
40
0
40
0
40
0.125
40
0.125
40
0.25
40
0.25
40
0.375
40
0.375
40
0.5
40
0.5
40
0.625
40
0.625
40
0.75
40
0.75
40
0.875
40
0.875
40
1
40
1
40
1
40
1
41
1
10
47.6
20
0.862523241022217
30
0
41
1
10
47.6671463343287
20
1.21007250175282
30
0
41
1
10
47.7342926686574
20
1.56351443900573
30
0
41
1
10
47.8685853373147
20
2.26569812368777
30
0
41
1
10
47.9357316716434
20
2.6143590483405
30
0
41
1
10
48.0700243403008
20
3.2878157334186
30
0
41
1
10
48.1371706746295
20
3.61250106795487
30
0
41
1
10
48.2714633432869
20
4.21918578140864
30
0
41
1
10
48.3386096776156
20
4.50108029515408
30
0
41
1
10
48.4729023462729
20
5.0070851491968
30
0
41
1
10
48.5400486806016
20
5.23113399744136
30
0
41
1
10
48.674341349259
20
5.61270400268978
30
0
41
1
10
48.7414876835877
20
5.770225657553
30
0
41
1
10
48.875780352245
20
6.01731285117472
30
0
41
1
10
48.9429266865737
20
6.10693130391596
30
0
41
1
10
49.0772193552311
20
6.22323612059486
30
0
41
1
10
49.1443656895598
20
6.25
30
0
41
1
10
49.2115120238885
20
6.25
30
0
0
SPLINE
5
E1
100
AcDbEntity
8
1
62
256
6
ByLayer
370
13
48
1
60
0
100
AcDbSpline
70
4
71
3
72
40
73
36
40
0
40
0
40
0
40
0
40
0.0625000000000001
40
0.0625000000000001
40
0.125
40
0.125
40
0.1875
40
0.1875
40
0.25
40
0.25
40
0.312500000000001
40
0.312500000000001
40
0.375000000000001
40
0.375000000000001
40
0.437500000000001
40
0.437500000000001
40
0.500000000000001
40
0.500000000000001
40
0.562500000000001
40
0.562500000000001
40
0.625000000000001
40
0.625000000000001
40
0.687500000000001
40
0.687500000000001
40
0.750000000000001
40
0.750000000000001
40
0.812500000000001
40
0.812500000000001
40
0.84375
40
0.84375
40
0.875
40
0.875
40
0.9375
40
0.9375
40
1
40
1
40
1
40
1
41
1
10
52.6124316000839
20
6.25
30
0
41
1
10
52.6564473174953
20
6.25
30
0
41
1
10
52.7004630349069
20
6.23853169406598
30
0
41
1
10
52.7884944697299
20
6.18990057196069
30
0
41
1
10
52.8325101871414
20
6.15272810490316
30
0
41
1
10
52.9205416219645
20
6.0505622305289
30
0
41
1
10
52.9645573393759
20
5.98555986072705
30
0
41
1
10
53.052588774199
20
5.82654202972631
30
0
41
1
10
53.0966044916104
20
5.73251990462288
30
0
41
1
10
53.1846359264335
20
5.51544549752251
30
0
41
1
10
53.228651643845
20
5.39239039020734
30
0
41
1
10
53.3166830786679
20
5.11855609259828
30
0
41
1
10
53.3606987960795
20
4.96777894048174
30
0
41
1
10
53.4487302309025
20
4.64114484268092
30
0
41
1
10
53.492745948314
20
4.46529492899254
30
0
41
1
10
53.580777383137
20
4.09236126668779
30
0
41
1
10
53.6247931005486
20
3.89528863785597
30
0
41
1
10
53.7128245353716
20
3.48468039159457
30
0
41
1
10
53.7568402527831
20
3.27115822667113
30
0
41
1
10
53.8448716876061
20
2.83297059018403
30
0
41
1
10
53.8888874050176
20
2.60831876217293
30
0
41
1
10
53.9769188398407
20
2.1533254331282
30
0
41
1
10
54.0209345572521
20
1.92299579584383
30
0
41
1
10
54.1089659920751
20
1.46184455271194
30
0
41
1
10
54.1529817094867
20
1.23103167267598
30
0
41
1
10
54.2410131443097
20
0.773542297877128
30
0
41
1
10
54.2850288617212
20
0.546870837626756
30
0
41
1
10
54.3510524378385
20
0.212854335910492
30
0
41
1
10
54.3730602965442
20
0.102600750303935
30
0
41
1
10
54.4170760139557
20
-0.115902358391367
30
0
41
1
10
54.4390838726615
20
-0.226337939919034
30
0
41
1
10
54.5051074487787
20
-0.560594419099402
30
0
41
1
10
54.5491231661902
20
-0.787391051433247
30
0
41
1
10
54.6371546010132
20
-1.24504419495253
30
0
41
1
10
54.6811703184248
20
-1.47589559636734
30
0
41
1
10
54.7251860358363
20
-1.70645944686149
30
0
0
SPLINE
5
E2
100
AcDbEntity
8
1
62
256
6
ByLayer
370
13
48
1
60
0
100
AcDbSpline
70
4
71
3
72
22
73
18
40
0
40
0
40
0
40
0
40
0.125
40
0.125
40
0.25
40
0.25
40
0.375
40
0.375
40
0.5
40
0.5
40
0.625
40
0.625
40
0.75
40
0.75
40
0.875
40
0.875
40
1
40
1
40
1
40
1
41
1
10
47.6
20
3.43469147491098
30
0
41
1
10
47.6462612041461
20
3.65705506081133
30
0
41
1
10
47.6925224082921
20
3.87149825307969
30
0
41
1
10
47.7850448165843
20
4.27873512743992
30
0
41
1
10
47.8313060207304
20
4.471513194007
30
0
41
1
10
47.9238284290226
20
4.83054565324358
30
0
41
1
10
47.9700896331687
20
4.9967892484834
30
0
41
1
10
48.0626120414609
20
5.29925476564918
30
0
41
1
10
48.1088732456069
20
5.43547240391831
30
0
41
1
10
48.2013956538991
20
5.67599566297133
30
0
41
1
10
48.2476568580452
20
5.78030370369609
30
0
41
1
10
48.3401792663374
20
5.95675228939405
30
0
41
1
10
48.3864404704835
20
6.02890073563208
30
0
41
1
10
48.4789628787756
20
6.1422488071909
30
0
41
1
10
48.5252240829217
20
6.18345971258861
30
0
41
1
10
48.6177464912138
20
6.23732912458195
30
0
41
1
10
48.6640076953599
20
6.25
30
0
41
1
10
48.710268899506
20
6.25
30
0
0
SPLINE
5
E3
100
AcDbEntity
8
1
62
256
6
ByLayer
370
13
48
1
60
0
100
AcDbSpline
70
4
71
3
72
42
73
38
40
0
40
0
40
0
40
0
40
0.0625
40
0.0625
40
0.125
40
0.125
40
0.1875
40
0.1875
40
0.25
40
0.25
40
0.3125
40
0.3125
40
0.375
40
0.375
40
0.4375
40
0.4375
40
0.5
40
0.5
40
0.5625
40
0.5625
40
0.625
40
0.625
40
0.65625
40
0.65625
40
0.671875
40
0.671875
40
0.6875
40
0.6875
40
0.75
40
0.75
40
0.8125
40
0.8125
40
0.875
40
0.875
40
0.9375
40
0.9375
40
1
40
1
40
1
40
1
41
1
10
52.1111884757014
20
6.25
30
0
41
1
10
52.1656467582042
20
6.25
30
0
41
1
10
52.220105040707
20
6.2324257330485
30
0
41
1
10
52.3290216057126
20
6.15703015833836
30
0
41
1
10
52.3834798882154
20
6.09918105783495
30
0
41
1
10
52.4923964532211
20
5.93976631984762
30
0
41
1
10
52.5468547357238
20
5.8381773837778
30
0
41
1
10
52.6557713007295
20
5.59028709280366
30
0
41
1
10
52.7102295832323
20
5.44397403541933
30
0
41
1
10
52.8191461482379
20
5.10866548657569
30
0
41
1
10
52.8736044307408
20
4.9196751648673
30
0
41
1
10
52.9825209957464
20
4.50418308241356
30
0
41
1
10
53.0369792782492
20
4.27770412074997
30
0
41
1
10
53.1458958432548
20
3.79512479017137
30
0
41
1
10
53.2003541257576
20
3.53906009798712
30
0
41
1
10
53.3092706907632
20
3.00701778392062
30
0
41
1
10
53.363728973266
20
2.73108007118691
30
0
41
1
10
53.4726455382716
20
2.16964907352465
30
0
41
1
10
53.5271038207744
20
1.88419082175037
30
0
41
1
10
53.6360203857801
20
1.31356684415525
30
0
41
1
10
53.6904786682829
20
1.02842497891106
30
0
41
1
10
53.7721660920371
20
0.60725760741326
30
0
41
1
10
53.7993952332885
20
0.467946151000518
30
0
41
1
10
53.8402389451655
20
0.261250452444273
30
0
41
1
10
53.8538535157913
20
0.192729492905528
30
0
41
1
10
53.8810826570427
20
0.0565400446864714
30
0
41
1
10
53.8946972276684
20
-0.010834078472044
30
0
41
1
10
53.9627700807969
20
-0.350337675547138
30
0
41
1
10
54.0172283632997
20
-0.629005512444337
30
0
41
1
10
54.1261449283054
20
-1.19360123775746
30
0
41
1
10
54.1806032108082
20
-1.47951592921717
30
0
41
1
10
54.2895197758137
20
-2.04986967924069
30
0
41
1
10
54.3439780583166
20
-2.33428241958853
30
0
41
1
10
54.4528946233222
20
-2.89162490775533
30
0
41
1
10
54.507352905825
20
-3.16451806390597
30
0
41
1
10
54.6162694708306
20
-3.68850149637373
30
0
41
1
10
54.6707277533334
20
-3.9395519334719
30
0
41
1
10
54.7251860358363
20
-4.17497338866181
30
0
0
SPLINE
5
E4
100
AcDbEntity
8
1
62
256
6
ByLayer
370
13
48
1
60
0
100
AcDbSpline
70
4
71
3
72
14
73
10
40
0
40
0
40
0
40
0
40
0.25
40
0.25
40
0.5
40
0.5
40
0.75
40
0.75
40
1
40
1
40
1
40
1
41
1
10
47.6
20
5.40848582542606
30
0
41
1
10
47.6507521479269
20
5.55385338716778
30
0
41
1
10
47.701504295854
20
5.68032314806675
30
0
41
1
10
47.8030085917079
20
5.89440743210412
30
0
41
1
10
47.8537607396348
20
5.98203224812536
30
0
41
1
10
47.9552650354887
20
6.11959495276756
30
0
41
1
10
48.0060171834157
20
6.16954997957609
30
0
41
1
10
48.1075214792696
20
6.23474270018784
30
0
41
1
10
48.1582736271966
20
6.25
30
0
41
1
10
48.2090257751236
20
6.25
30
0
0
SPLINE
5
E5
100
AcDbEntity
8
1
62
256
6
ByLayer
370
13
48
1
60
0
100
AcDbSpline
70
4
71
3
72
42
73
38
40
0
40
0
40
0
40
0
40
0.0625000000000009
40
0.0625000000000009
40
0.125000000000002
40
0.125000000000002
40
0.187500000000003
40
0.187500000000003
40
0.250000000000003
40
0.250000000000003
40
0.312500000000004
40
0.312500000000004
40
0.375000000000005
40
0.375000000000005
40
0.437500000000006
40
0.437500000000006
40
0.500000000000007
40
0.500000000000007
40
0.562500000000008
40
0.562500000000008
40
0.578125000000008
40
0.578125000000008
40
0.593750000000008
40
0.593750000000008
40
0.625000000000007
40
0.625000000000007
40
0.687500000000006
40
0.687500000000006
40
0.750000000000005
40
0.750000000000005
40
0.812500000000004
40
0.812500000000004
40
0.875000000000002
40
0.875000000000002
40
0.937500000000001
40
0.937500000000001
40
1
40
1
40
1
40
1
41
1
10
51.609945351319
20
6.25
30
0
41
1
10
51.6748461989131
20
6.25
30
0
41
1
10
51.7397470465071
20
6.22500486964015
30
0
41
1
10
51.8695487416954
20
6.1166214510593
30
0
41
1
10
51.9344495892895
20
6.03316744668766
30
0
41
1
10
52.0642512844777
20
5.80304554622552
30
0
41
1
10
52.1291521320719
20
5.65633072845841
30
0
41
1
10
52.25895382726
20
5.30035461636484
30
0
41
1
10
52.3238546748542
20
5.09108770095386
30
0
41
1
10
52.4536563700424
20
4.61703192334633
30
0
41
1
10
52.5185572176365
20
4.35228837400098
30
0
41
1
10
52.6483589128247
20
3.78008378770841
30
0
41
1
10
52.7132597604188
20
3.47270718640593
30
0
41
1
10
52.8430614556071
20
2.83180779773502
30
0
41
1
10
52.9079623032012
20
2.49838005647857
30
0
41
1
10
53.0377639983894
20
1.8229047915483
30
0
41
1
10
53.1026648459835
20
1.48093326186239
30
0
41
1
10
53.2324665411717
20
0.804178898024333
30
0
41
1
10
53.2973673887658
20
0.469436471853271
30
0
41
1
10
53.3784934482584
20
0.0631867592833544
30
0
41
1
10
53.394718660157
20
-0.0170544460370365
30
0
41
1
10
53.427169083954
20
-0.179092626587163
30
0
41
1
10
53.4433942958526
20
-0.260725855897107
30
0
41
1
10
53.4920699315481
20
-0.507221732954946
30
0
41
1
10
53.5245203553452
20
-0.673688366797933
30
0
41
1
10
53.6218716267364
20
-1.17723928401674
30
0
41
1
10
53.6867724743305
20
-1.51857337323307
30
0
41
1
10
53.8165741695188
20
-2.19774126406068
30
0
41
1
10
53.8814750171128
20
-2.53550873124311
30
0
41
1
10
54.011276712301
20
-3.19032971781104
30
0
41
1
10
54.0761775598951
20
-3.50729115471305
30
0
41
1
10
54.2059792550834
20
-4.10333650062677
30
0
41
1
10
54.2708801026775
20
-4.38232944091283
30
0
41
1
10
54.4006817978657
20
-4.88818525334094
30
0
41
1
10
54.4655826454598
20
-5.1149889564841
30
0
41
1
10
54.5953843406481
20
-5.50749060502307
30
0
41
1
10
54.6602851882421
20
-5.67317911660982
30
0
41
1
10
54.7251860358363
20
-5.80700499792871
30
0
0
SPLINE
5
E6
100
AcDbEntity
8
1
62
256
6
ByLayer
370
13
48
1
60
0
100
AcDbSpline
70
4
71
3
72
8
73
4
40
0
40
0
40
0
40
0
40
1
40
1
40
1
40
1
41
1
10
47.6
20
6.22632916305858
30
0
41
1
10
47.635927550247
20
6.24236401355708
30
0
41
1
10
47.6718551004941
20
6.25
30
0
41
1
10
47.7077826507411
20
6.25
30
0
0
SPLINE
5
E7
100
AcDbEntity
8
1
62
256
6
ByLayer
370
13
48
1
60
0
100
AcDbSpline
70
4
71
3
72
46
73
42
40
0
40
0
40
0
40
0
40
0.0625000000000003
40
0.0625000000000003
40
0.125000000000001
40
0.125000000000001
40
0.187500000000001
40
0.187500000000001
40
0.250000000000001
40
0.250000000000001
40
0.312500000000001
40
0.312500000000001
40
0.375000000000002
40
0.375000000000002
40
0.437500000000002
40
0.437500000000002
40
0.468750000000002
40
0.468750000000002
40
0.484375000000002
40
0.484375000000002
40
0.500000000000002
40
0.500000000000002
40
0.562500000000001
40
0.562500000000001
40
0.625000000000001
40
0.625000000000001
40
0.687500000000001
40
0.687500000000001
40
0.750000000000001
40
0.750000000000001
40
0.812500000000001
40
0.812500000000001
40
0.875000000000001
40
0.875000000000001
40
0.9375
40
0.9375
40
0.96875
40
0.96875
40
0.984375
40
0.984375
40
1
40
1
40
1
40
1
41
1
10
51.1087022269365
20
6.25
30
0
41
1
10
51.184045639622
20
6.25
30
0
41
1
10
51.2593890523073
20
6.21625539598824
30
0
41
1
10
51.4100758776782
20
6.06850997071956
30
0
41
1
10
51.4854192903636
20
5.95437432677497
30
0
41
1
10
51.6361061157344
20
5.64010835729349
30
0
41
1
10
51.7114495284198
20
5.43990340433689
30
0
41
1
10
51.8621363537906
20
4.9584528377041
30
0
41
1
10
51.937479766476
20
4.67724731909439
30
0
41
1
10
52.0881665918468
20
4.05013404880276
30
0
41
1
10
52.1635100045322
20
3.70437968074702
30
0
41
1
10
52.3141968299031
20
2.97291312826775
30
0
41
1
10
52.3895402425885
20
2.58740121860475
30
0
41
1
10
52.5402270679593
20
1.80396258275991
30
0
41
1
10
52.6155704806447
20
1.4061976649723
30
0
41
1
10
52.7285855996729
20
0.818686000182765
30
0
41
1
10
52.7662573060156
20
0.624332734006629
30
0
41
1
10
52.8227648655297
20
0.336870355593959
30
0
41
1
10
52.841600718701
20
0.241724026917467
30
0
41
1
10
52.8792724250437
20
0.0530442896532008
30
0
41
1
10
52.898108278215
20
-0.0400181728276721
30
0
41
1
10
52.9922875440718
20
-0.511343291866524
30
0
41
1
10
53.0676309567572
20
-0.901680328182096
30
0
41
1
10
53.218317782128
20
-1.68937566695803
30
0
41
1
10
53.2936611948134
20
-2.08663677301106
30
0
41
1
10
53.4443480201842
20
-2.86260632711412
30
0
41
1
10
53.5196914328696
20
-3.24113738093504
30
0
41
1
10
53.6703782582405
20
-3.95224954630038
30
0
41
1
10
53.7457216709259
20
-4.28463344350129
30
0
41
1
10
53.8964084962967
20
-4.88013126792768
30
0
41
1
10
53.9717519089821
20
-5.14311480579931
30
0
41
1
10
54.1224387343529
20
-5.58581322113949
30
0
41
1
10
54.1977821470384
20
-5.76551791197193
30
0
41
1
10
54.3484689724092
20
-6.03923602111169
30
0
41
1
10
54.4238123850946
20
-6.13334455854664
30
0
41
1
10
54.5368275041227
20
-6.21605853192372
30
0
41
1
10
54.5744992104654
20
-6.23395725951019
30
0
41
1
10
54.6310067699794
20
-6.24749514119111
30
0
41
1
10
54.6498426231509
20
-6.24979207754993
30
0
41
1
10
54.6875143294936
20
-6.25018092383212
30
0
41
1
10
54.7063501826649
20
-6.24828269448147
30
0
41
1
10
54.7251860358363
20
-6.24417943179409
30
0
0
SPLINE
5
E8
100
AcDbEntity
8
1
62
256
6
ByLayer
370
13
48
1
60
0
100
AcDbSpline
70
4
71
3
72
78
73
74
40
0
40
0
40
0
40
0
40
0.0312499999999999
40
0.0312499999999999
40
0.0624999999999998
40
0.0624999999999998
40
0.0937499999999996
40
0.0937499999999996
40
0.125
40
0.125
40
0.156249999999999
40
0.156249999999999
40
0.187499999999999
40
0.187499999999999
40
0.218749999999999
40
0.218749999999999
40
0.249999999999999
40
0.249999999999999
40
0.281249999999999
40
0.281249999999999
40
0.312499999999999
40
0.312499999999999
40
0.343749999999998
40
0.343749999999998
40
0.374999999999998
40
0.374999999999998
40
0.406249999999998
40
0.406249999999998
40
0.421874999999998
40
0.421874999999998
40
0.429687499999998
40
0.429687499999998
40
0.437499999999997
40
0.437499999999997
40
0.468749999999998
40
0.468749999999998
40
0.499999999999998
40
0.499999999999998
40
0.531249999999998
40
0.531249999999998
40
0.562499999999998
40
0.562499999999998
40
0.593749999999998
40
0.593749999999998
40
0.624999999999999
40
0.624999999999999
40
0.656249999999999
40
0.656249999999999
40
0.687499999999999
40
0.687499999999999
40
0.718749999999999
40
0.718749999999999
40
0.749999999999999
40
0.749999999999999
40
0.78125
40
0.78125
40
0.8125
40
0.8125
40
0.84375
40
0.84375
40
0.859375
40
0.859375
40
0.8671875
40
0.8671875
40
0.875
40
0.875
40
0.90625
40
0.90625
40
0.9375
40
0.9375
40
0.96875
40
0.96875
40
1
40
1
40
1
40
1
41
1
10
50.6074591025541
20
6.25
30
0
41
1
10
50.6503520914424
20
6.25
30
0
41
1
10
50.6932450803308
20
6.23911034862971
30
0
41
1
10
50.7790310581075
20
6.19299325986253
30
0
41
1
10
50.8219240469958
20
6.15775733977088
30
0
41
1
10
50.9077100247725
20
6.0609524858618
30
0
41
1
10
50.9506030136609
20
5.99937560825651
30
0
41
1
10
51.0363889914376
20
5.84872373665155
30
0
41
1
10
51.079281980326
20
5.75964267750243
30
0
41
1
10
51.1650679581027
20
5.55386294843487
30
0
41
1
10
51.207960946991
20
5.43716139703574
30
0
41
1
10
51.2937469247677
20
5.1772058808715
30
0
41
1
10
51.3366399136561
20
5.0339531364223
30
0
41
1
10
51.4224258914329
20
4.72317306310069
30
0
41
1
10
51.4653188803212
20
4.55565127328515
30
0
41
1
10
51.5511048580978
20
4.19972222589413
30
0
41
1
10
51.5939978469863
20
4.01132419843117
30
0
41
1
10
51.6797838247629
20
3.61791828054408
30
0
41
1
10
51.7226768136512
20
3.41292194747484
30
0
41
1
10
51.808462791428
20
2.99116380461447
30
0
41
1
10
51.8513557803163
20
2.77441411684614
30
0
41
1
10
51.9371417580931
20
2.33420019870391
30
0
41
1
10
51.9800347469814
20
2.11074693617431
30
0
41
1
10
52.0658207247581
20
1.66203055096526
30
0
41
1
10
52.1087137136465
20
1.43677595215954
30
0
41
1
10
52.1944996914232
20
0.988918460518136
30
0
41
1
10
52.2373926803116
20
0.766320994577399
30
0
41
1
10
52.3017321636441
20
0.437269028271714
30
0
41
1
10
52.3231786580882
20
0.328386810548807
30
0
41
1
10
52.3553483997545
20
0.166568985755646
30
0
41
1
10
52.3660716469766
20
0.112880245608011
30
0
41
1
10
52.3875181414208
20
0.0060496791275284
30
0
41
1
10
52.3982413886429
20
-0.0470514754375415
30
0
41
1
10
52.4518576247534
20
-0.314821378996669
30
0
41
1
10
52.4947506136417
20
-0.533351541349134
30
0
41
1
10
52.5805365914184
20
-0.975760860524133
30
0
41
1
10
52.6234295803068
20
-1.19963675764859
30
0
41
1
10
52.7092155580834
20
-1.64871414594336
30
0
41
1
10
52.7521085469718
20
-1.87390920765327
30
0
41
1
10
52.8378945247486
20
-2.32100293524832
30
0
41
1
10
52.8807875136369
20
-2.54289220739798
30
0
41
1
10
52.9665734914137
20
-2.97839255030081
30
0
41
1
10
53.009466480302
20
-3.19199212541534
30
0
41
1
10
53.0952524580787
20
-3.60588881560111
30
0
41
1
10
53.1381454469671
20
-3.80617378996044
30
0
41
1
10
53.2239314247438
20
-4.18873527941543
30
0
41
1
10
53.2668244136321
20
-4.37100078859123
30
0
41
1
10
53.3526103914089
20
-4.7134898713438
30
0
41
1
10
53.3955033802972
20
-4.8737052570402
30
0
41
1
10
53.481289358074
20
-5.16902729139943
30
0
41
1
10
53.5241823469623
20
-5.30412973005653
30
0
41
1
10
53.609968324739
20
-5.54731555642474
30
0
41
1
10
53.6528613136273
20
-5.65539907357322
30
0
41
1
10
53.738647291404
20
-5.84385502616936
30
0
41
1
10
53.7815402802924
20
-5.9242314674164
30
0
41
1
10
53.8673262580691
20
-6.05773497061062
30
0
41
1
10
53.9102192469575
20
-6.11086883667059
30
0
41
1
10
53.9960052247342
20
-6.19133584527052
30
0
41
1
10
54.0388982136226
20
-6.21867723820188
30
0
41
1
10
54.1032376969551
20
-6.24199211003068
30
0
41
1
10
54.1246841913993
20
-6.24681929830419
30
0
41
1
10
54.1568539330655
20
-6.2498864002454
30
0
41
1
10
54.1675771802877
20
-6.2502154818138
30
0
41
1
10
54.1890236747318
20
-6.24951577258344
30
0
41
1
10
54.1997469219539
20
-6.24848086247715
30
0
41
1
10
54.2533631580643
20
-6.23977583183171
30
0
41
1
10
54.2962561469527
20
-6.22149412824984
30
0
41
1
10
54.3820421247294
20
-6.15989173224884
30
0
41
1
10
54.4249351136178
20
-6.11656259248073
30
0
41
1
10
54.5107210913945
20
-6.00310466668827
30
0
41
1
10
54.5536140802828
20
-5.93296837774022
30
0
41
1
10
54.6394000580596
20
-5.76503906840335
30
0
41
1
10
54.6822930469479
20
-5.66724085330992
30
0
41
1
10
54.7251860358362
20
-5.55573542265319
30
0
0
SPLINE
5
E9
100
AcDbEntity
8
1
62
256
6
ByLayer
370
13
48
1
60
0
100
AcDbSpline
70
4
71
3
72
78
73
74
40
0
40
0
40
0
40
0
40
0.0312499999999996
40
0.0312499999999996
40
0.0624999999999991
40
0.0624999999999991
40
0.0937499999999987
40
0.0937499999999987
40
0.124999999999998
40
0.124999999999998
40
0.156249999999998
40
0.156249999999998
40
0.187499999999997
40
0.187499999999997
40
0.218749999999997
40
0.218749999999997
40
0.249999999999997
40
0.249999999999997
40
0.281249999999996
40
0.281249999999996
40
0.312499999999996
40
0.312499999999996
40
0.343749999999995
40
0.343749999999995
40
0.374999999999995
40
0.374999999999995
40
0.382812499999995
40
0.382812499999995
40
0.390624999999995
40
0.390624999999995
40
0.406249999999995
40
0.406249999999995
40
0.437499999999995
40
0.437499999999995
40
0.468749999999995
40
0.468749999999995
40
0.499999999999996
40
0.499999999999996
40
0.531249999999996
40
0.531249999999996
40
0.562499999999996
40
0.562499999999996
40
0.593749999999996
40
0.593749999999996
40
0.624999999999997
40
0.624999999999997
40
0.656249999999997
40
0.656249999999997
40
0.687499999999997
40
0.687499999999997
40
0.718749999999997
40
0.718749999999997
40
0.749999999999998
40
0.749999999999998
40
0.765624999999998
40
0.765624999999998
40
0.773437499999998
40
0.773437499999998
40
0.781249999999998
40
0.781249999999998
40
0.812499999999998
40
0.812499999999998
40
0.843749999999999
40
0.843749999999999
40
0.874999999999999
40
0.874999999999999
40
0.906249999999999
40
0.906249999999999
40
0.937499999999999
40
0.937499999999999
40
0.96875
40
0.96875
40
1
40
1
40
1
40
1
41
1
10
50.1062159781716
20
6.25
30
0
41
1
10
50.1543302496056
20
6.25
30
0
41
1
10
50.2024445210396
20
6.23629122837022
30
0
41
1
10
50.2986730639076
20
6.17788689354299
30
0
41
1
10
50.3467873353416
20
6.1331762906367
30
0
41
1
10
50.4430158782096
20
6.01013646951748
30
0
41
1
10
50.4911301496437
20
5.93179375935532
30
0
41
1
10
50.5873586925117
20
5.74026206802165
30
0
41
1
10
50.6354729639456
20
5.62706416078075
30
0
41
1
10
50.7317015068136
20
5.36634672955137
30
0
41
1
10
50.7798157782477
20
5.21882551170899
30
0
41
1
10
50.8760443211157
20
4.89190725076827
30
0
41
1
10
50.9241585925497
20
4.71251708589705
30
0
41
1
10
51.0203871354177
20
4.3261535677938
30
0
41
1
10
51.0685014068517
20
4.11919500505724
30
0
41
1
10
51.1647299497198
20
3.68350448663787
30
0
41
1
10
51.2128442211537
20
3.45479259534727
30
0
41
1
10
51.3090727640218
20
2.98238763684233
30
0
41
1
10
51.3571870354558
20
2.73871607433637
30
0
41
1
10
51.4534155783238
20
2.24352737163702
30
0
41
1
10
51.5015298497578
20
1.99202935076514
30
0
41
1
10
51.5977583926258
20
1.48804305597628
30
0
41
1
10
51.6458726640598
20
1.23556877146703
30
0
41
1
10
51.7421012069279
20
0.735699067916784
30
0
41
1
10
51.7902154783619
20
0.488311369362634
30
0
41
1
10
51.8503583176543
20
0.185347519469786
30
0
41
1
10
51.8623868855128
20
0.125065325692162
30
0
41
1
10
51.8864440212298
20
0.0051872187165714
30
0
41
1
10
51.8984725890884
20
-0.0543688352003926
30
0
41
1
10
51.9345582926639
20
-0.234742904214443
30
0
41
1
10
51.9586154283809
20
-0.356332559697847
30
0
41
1
10
52.0307868355319
20
-0.724295333545342
30
0
41
1
10
52.0789011069659
20
-0.973897975850832
30
0
41
1
10
52.1751296498339
20
-1.4763776015069
30
0
41
1
10
52.2232439212679
20
-1.72924484306142
30
0
41
1
10
52.3194724641359
20
-2.23190151646071
30
0
41
1
10
52.3675867355699
20
-2.4816751213821
30
0
41
1
10
52.463815278438
20
-2.97114657301716
30
0
41
1
10
52.511929549872
20
-3.21082417445641
30
0
41
1
10
52.6081580927399
20
-3.67300910616464
30
0
41
1
10
52.656272364174
20
-3.8954949498914
30
0
41
1
10
52.752500907042
20
-4.31674487415629
30
0
41
1
10
52.800615178476
20
-4.51549018872868
30
0
41
1
10
52.8968437213441
20
-4.88387001874136
30
0
41
1
10
52.9449579927779
20
-5.05349206269767
30
0
41
1
10
53.041186535646
20
-5.3598802492304
30
0
41
1
10
53.08930080708
20
-5.49664227496973
30
0
41
1
10
53.185529349948
20
-5.73546423558253
30
0
41
1
10
53.233643621382
20
-5.83752839498624
30
0
41
1
10
53.32987216425
20
-6.00700368158903
30
0
41
1
10
53.3779864356841
20
-6.074425515244
30
0
41
1
10
53.4742149785521
20
-6.1763278398069
30
0
41
1
10
53.5223292499861
20
-6.21082263382127
30
0
41
1
10
53.594500657137
20
-6.2400994144142
30
0
41
1
10
53.6185577928541
20
-6.24612266080089
30
0
41
1
10
53.6546434964296
20
-6.24989407847954
30
0
41
1
10
53.6666720642881
20
-6.25027765357106
30
0
41
1
10
53.6907292000051
20
-6.24933564035999
30
0
41
1
10
53.7027577678636
20
-6.24800125099185
30
0
41
1
10
53.7629006071561
20
-6.23686449397445
30
0
41
1
10
53.8110148785902
20
-6.21363429441183
30
0
41
1
10
53.9072434214582
20
-6.13522224757821
30
0
41
1
10
53.9553576928922
20
-6.08002554242316
30
0
41
1
10
54.0515862357602
20
-5.93545078830502
30
0
41
1
10
54.0997005071941
20
-5.84606037136788
30
0
41
1
10
54.1959290500621
20
-5.6323977923239
30
0
41
1
10
54.2440433214962
20
-5.50811876294452
30
0
41
1
10
54.3402718643642
20
-5.22580793267596
30
0
41
1
10
54.3883861357982
20
-5.06777711010625
30
0
41
1
10
54.4846146786662
20
-4.72101733766195
30
0
41
1
10
54.5327289501003
20
-4.53229796038309
30
0
41
1
10
54.6289574929682
20
-4.12898411390256
30
0
41
1
10
54.6770717644022
20
-3.91440648019048
30
0
41
1
10
54.7251860358362
20
-3.68998534558185
30
0
0
SPLINE
5
EA
100
AcDbEntity
8
1
62
256
6
ByLayer
370
13
48
1
60
0
100
AcDbSpline
70
4
71
3
72
78
73
74
40
0
40
0
40
0
40
0
40
0.0312499999999994
40
0.0312499999999994
40
0.0624999999999988
40
0.0624999999999988
40
0.0937499999999981
40
0.0937499999999981
40
0.124999999999998
40
0.124999999999998
40
0.156249999999997
40
0.156249999999997
40
0.187499999999996
40
0.187499999999996
40
0.218749999999996
40
0.218749999999996
40
0.249999999999995
40
0.249999999999995
40
0.281249999999994
40
0.281249999999994
40
0.312499999999994
40
0.312499999999994
40
0.343749999999993
40
0.343749999999993
40
0.351562499999993
40
0.351562499999993
40
0.359374999999993
40
0.359374999999993
40
0.374999999999993
40
0.374999999999993
40
0.406249999999993
40
0.406249999999993
40
0.437499999999994
40
0.437499999999994
40
0.468749999999994
40
0.468749999999994
40
0.499999999999994
40
0.499999999999994
40
0.531249999999994
40
0.531249999999994
40
0.562499999999995
40
0.562499999999995
40
0.593749999999995
40
0.593749999999995
40
0.624999999999996
40
0.624999999999996
40
0.656249999999996
40
0.656249999999996
40
0.687499999999996
40
0.687499999999996
40
0.695312499999996
40
0.695312499999996
40
0.703124999999996
40
0.703124999999996
40
0.718749999999997
40
0.718749999999997
40
0.749999999999997
40
0.749999999999997
40
0.781249999999997
40
0.781249999999997
40
0.812499999999998
40
0.812499999999998
40
0.843749999999998
40
0.843749999999998
40
0.874999999999998
40
0.874999999999998
40
0.906249999999999
40
0.906249999999999
40
0.937499999999999
40
0.937499999999999
40
0.96875
40
0.96875
40
1
40
1
40
1
40
1
41
1
10
49.6049728537891
20
6.25
30
0
41
1
10
49.6583084077687
20
6.25
30
0
41
1
10
49.7116439617484
20
6.23314508968727
30
0
41
1
10
49.8183150697078
20
6.16092279911211
30
0
41
1
10
49.8716506236874
20
6.10553034576174
30
0
41
1
10
49.9783217316467
20
5.95291440463146
30
0
41
1
10
50.0316572856264
20
5.85566961478747
30
0
41
1
10
50.1383283935857
20
5.61827959919086
30
0
41
1
10
50.1916639475653
20
5.47812300374531
30
0
41
1
10
50.2983350555246
20
5.15660296563883
30
0
41
1
10
50.3516706095043
20
4.9752428320227
30
0
41
1
10
50.4583417174636
20
4.57590897133414
30
0
41
1
10
50.5116772714433
20
4.35795427553256
30
0
41
1
10
50.6183483794026
20
3.89258867235176
30
0
41
1
10
50.6716839333823
20
3.6452088692578
30
0
41
1
10
50.7783550413416
20
3.12994396556408
30
0
41
1
10
50.8316905953213
20
2.86209482693624
30
0
41
1
10
50.9383617032806
20
2.31559943410434
30
0
41
1
10
50.9916972572602
20
2.03698597031436
30
0
41
1
10
51.0983683652196
20
1.47836564923529
30
0
41
1
10
51.1517039191992
20
1.19838241966232
30
0
41
1
10
51.2583750271585
20
0.645255234740858
30
0
41
1
10
51.3117105811381
20
0.37212331563876
30
0
41
1
10
51.3783800236127
20
0.039058398150388
30
0
41
1
10
51.3917139121076
20
-0.0269000379435624
30
0
41
1
10
51.4183816890974
20
-0.160024799481079
30
0
41
1
10
51.4317155775924
20
-0.227002793296435
30
0
41
1
10
51.4717172430771
20
-0.429048415761685
30
0
41
1
10
51.498385020067
20
-0.565231291473538
30
0
41
1
10
51.5783883510364
20
-0.977023810062519
30
0
41
1
10
51.6317239050161
20
-1.25592706350577
30
0
41
1
10
51.7383950129755
20
-1.81470811867362
30
0
41
1
10
51.7917305669551
20
-2.0945652851147
30
0
41
1
10
51.8984016749144
20
-2.64610896726816
30
0
41
1
10
51.9517372288941
20
-2.91776467325468
30
0
41
1
10
52.0584083368533
20
-3.44318928923048
30
0
41
1
10
52.111743890833
20
-3.69692233585261
30
0
41
1
10
52.2184149987923
20
-4.1772379831217
30
0
41
1
10
52.271750552772
20
-4.40378739786814
30
0
41
1
10
52.3784216607313
20
-4.82199186558779
30
0
41
1
10
52.431757214711
20
-5.01362414488207
30
0
41
1
10
52.5384283226703
20
-5.35663804231027
30
0
41
1
10
52.59176387665
20
-5.50801209105913
30
0
41
1
10
52.6984349846093
20
-5.76801060334512
30
0
41
1
10
52.7517705385889
20
-5.87664288824288
30
0
41
1
10
52.8584416465482
20
-6.05150873948386
30
0
41
1
10
52.9117772005279
20
-6.11776156025604
30
0
41
1
10
53.0184483084872
20
-6.21064455454535
30
0
41
1
10
53.0717838624669
20
-6.23729938738637
30
0
41
1
10
53.1384533049414
20
-6.24867778060448
30
0
41
1
10
53.1517871934363
20
-6.24985964172981
30
0
41
1
10
53.1784549704262
20
-6.2501167931616
30
0
41
1
10
53.1917888589211
20
-6.24919655448903
30
0
41
1
10
53.2317905244058
20
-6.24316984314342
30
0
41
1
10
53.2584583013956
20
-6.23479390445755
30
0
41
1
10
53.3384616323652
20
-6.19568526414838
30
0
41
1
10
53.3917971863448
20
-6.15091585188213
30
0
41
1
10
53.4984682943041
20
-6.02023456383805
30
0
41
1
10
53.5518038482838
20
-5.93429978478349
30
0
41
1
10
53.6584749562431
20
-5.71955985121366
30
0
41
1
10
53.7118105102227
20
-5.59074012626647
30
0
41
1
10
53.8184816181821
20
-5.29115951597265
30
0
41
1
10
53.8718171721617
20
-5.12039775885418
30
0
41
1
10
53.978488280121
20
-4.74076988670691
30
0
41
1
10
54.0318238341007
20
-4.53191879720697
30
0
41
1
10
54.13849494206
20
-4.08264873187483
30
0
41
1
10
54.1918304960396
20
-3.84225825469699
30
0
41
1
10
54.2985016039989
20
-3.33847864141774
30
0
41
1
10
54.3518371579786
20
-3.07512498415838
30
0
41
1
10
54.4585082659379
20
-2.53503314821759
30
0
41
1
10
54.5118438199176
20
-2.2583293104374
30
0
41
1
10
54.6185149278769
20
-1.70111729945282
30
0
41
1
10
54.6718504818566
20
-1.42063557712521
30
0
41
1
10
54.7251860358363
20
-1.14255700866786
30
0
0
SPLINE
5
EB
100
AcDbEntity
8
1
62
256
6
ByLayer
370
13
48
1
60
0
100
AcDbSpline
70
4
71
3
72
82
73
78
40
0
40
0
40
0
40
0
40
0.0312500000000004
40
0.0312500000000004
40
0.0625000000000009
40
0.0625000000000009
40
0.0937500000000013
40
0.0937500000000013
40
0.125000000000002
40
0.125000000000002
40
0.156250000000002
40
0.156250000000002
40
0.187500000000003
40
0.187500000000003
40
0.218750000000003
40
0.218750000000003
40
0.250000000000004
40
0.250000000000004
40
0.281250000000004
40
0.281250000000004
40
0.312500000000004
40
0.312500000000004
40
0.320312500000004
40
0.320312500000004
40
0.328125000000004
40
0.328125000000004
40
0.343750000000005
40
0.343750000000005
40
0.375000000000005
40
0.375000000000005
40
0.406250000000005
40
0.406250000000005
40
0.437500000000006
40
0.437500000000006
40
0.468750000000006
40
0.468750000000006
40
0.500000000000007
40
0.500000000000007
40
0.531250000000007
40
0.531250000000007
40
0.562500000000008
40
0.562500000000008
40
0.593750000000008
40
0.593750000000008
40
0.625000000000009
40
0.625000000000009
40
0.632812500000009
40
0.632812500000009
40
0.640625000000009
40
0.640625000000009
40
0.656250000000008
40
0.656250000000008
40
0.687500000000008
40
0.687500000000008
40
0.718750000000007
40
0.718750000000007
40
0.750000000000006
40
0.750000000000006
40
0.781250000000006
40
0.781250000000006
40
0.812500000000005
40
0.812500000000005
40
0.843750000000004
40
0.843750000000004
40
0.875000000000003
40
0.875000000000003
40
0.906250000000002
40
0.906250000000002
40
0.937500000000002
40
0.937500000000002
40
0.945312500000001
40
0.945312500000001
40
0.953125000000001
40
0.953125000000001
40
0.968750000000001
40
0.968750000000001
40
1
40
1
40
1
40
1
41
1
10
49.1037297294067
20
6.25
30
0
41
1
10
49.162286565932
20
6.25
30
0
41
1
10
49.2208434024573
20
6.22967059379266
30
0
41
1
10
49.3379570755079
20
6.14207855016741
30
0
41
1
10
49.3965139120332
20
6.07477617455598
30
0
41
1
10
49.5136275850838
20
5.88921892598921
30
0
41
1
10
49.5721844216091
20
5.77093251326787
30
0
41
1
10
49.6892980946598
20
5.48283105595806
30
0
41
1
10
49.7478549311851
20
5.31300423366756
30
0
41
1
10
49.8649686042357
20
4.9253821171344
30
0
41
1
10
49.923525440761
20
4.70760212419486
30
0
41
1
10
50.0406391138116
20
4.23173860020336
30
0
41
1
10
50.0991959503369
20
3.97369592411073
30
0
41
1
10
50.2163096233875
20
3.42821862791692
30
0
41
1
10
50.2748664599129
20
3.14083963775849
30
0
41
1
10
50.3919801329635
20
2.54935152894654
30
0
41
1
10
50.4505369694888
20
2.24529745704342
30
0
41
1
10
50.5676506425394
20
1.63315054554283
30
0
41
1
10
50.6262074790647
20
1.32509905172839
30
0
41
1
10
50.7433211521153
20
0.716186499200177
30
0
41
1
10
50.8018779886406
20
0.415346862217888
30
0
41
1
10
50.8750740342972
20
0.049296782911938
30
0
41
1
10
50.8897132434285
20
-0.023106153745033
30
0
41
1
10
50.9189916616911
20
-0.169288117610989
30
0
41
1
10
50.9336308708225
20
-0.242879431137624
30
0
41
1
10
50.9775484982164
20
-0.464974527879917
30
0
41
1
10
51.0068269164792
20
-0.614804675049044
30
0
41
1
10
51.0946621712671
20
-1.06796555683198
30
0
41
1
10
51.1532190077925
20
-1.37503606189577
30
0
41
1
10
51.2703326808431
20
-1.98855424607197
30
0
41
1
10
51.3288895173684
20
-2.29496587183794
30
0
41
1
10
51.446003190419
20
-2.89478559908949
30
0
41
1
10
51.5045600269443
20
-3.18814141230487
30
0
41
1
10
51.6216736999949
20
-3.74901763355416
30
0
41
1
10
51.6802305365202
20
-4.01648100042348
30
0
41
1
10
51.7973442095708
20
-4.51398013525068
30
0
41
1
10
51.8559010460962
20
-4.74396950674148
30
0
41
1
10
51.9730147191468
20
-5.15778017362189
30
0
41
1
10
52.0315715556721
20
-5.3415784225208
30
0
41
1
10
52.1486852287227
20
-5.65820294780949
30
0
41
1
10
52.207242065248
20
-5.79103383878311
30
0
41
1
10
52.3243557382987
20
-6.00513997956895
30
0
41
1
10
52.3829125748239
20
-6.08644232587235
30
0
41
1
10
52.5000262478745
20
-6.20062441103582
30
0
41
1
10
52.5585830843998
20
-6.23354278017536
30
0
41
1
10
52.6317791300565
20
-6.24806327693409
30
0
41
1
10
52.6464183391879
20
-6.24964086493404
30
0
41
1
10
52.6756967574505
20
-6.25024973500629
30
0
41
1
10
52.6903359665818
20
-6.24929121883642
30
0
41
1
10
52.7342535939758
20
-6.24247798881848
30
0
41
1
10
52.7635320122384
20
-6.23267661127198
30
0
41
1
10
52.8513672670264
20
-6.18630449036721
30
0
41
1
10
52.9099241035517
20
-6.13268068117841
30
0
41
1
10
53.0270377766023
20
-5.9753019592824
30
0
41
1
10
53.0855946131276
20
-5.8715120043247
30
0
41
1
10
53.2027082861783
20
-5.61216632671037
30
0
41
1
10
53.2612651227035
20
-5.45659226767211
30
0
41
1
10
53.3783787957542
20
-5.09604835109613
30
0
41
1
10
53.4369356322795
20
-4.89108593350912
30
0
41
1
10
53.5540493053301
20
-4.43833293954674
30
0
41
1
10
53.6126061418554
20
-4.19057680090759
30
0
41
1
10
53.729719814906
20
-3.66236869348279
30
0
41
1
10
53.7882766514313
20
-3.38196969457047
30
0
41
1
10
53.9053903244819
20
-2.80082034485943
30
0
41
1
10
53.9639471610072
20
-2.50012674126555
30
0
41
1
10
54.0810608340579
20
-1.89123891233328
30
0
41
1
10
54.1396176705831
20
-1.58309083627574
30
0
41
1
10
54.2567313436338
20
-0.971055507027955
30
0
41
1
10
54.3152881801591
20
-0.667195426362611
30
0
41
1
10
54.3884842258157
20
-0.296000194352899
30
0
41
1
10
54.4031234349471
20
-0.222186360824253
30
0
41
1
10
54.4324018532097
20
-0.0755315899062339
30
0
41
1
10
54.4470410623411
20
-0.0030397209660578
30
0
41
1
10
54.490958689735
20
0.21587118592592
30
0
41
1
10
54.5202371079977
20
0.363845777144121
30
0
41
1
10
54.6080723627857
20
0.81238395136188
30
0
41
1
10
54.6666291993109
20
1.11763781379031
30
0
41
1
10
54.7251860358363
20
1.42417451931263
30
0
0
SPLINE
5
EC
100
AcDbEntity
8
1
62
256
6
ByLayer
370
13
48
1
60
0
100
AcDbSpline
70
4
71
3
72
84
73
80
40
0
40
0
40
0
40
0
40
0.0312499999999999
40
0.0312499999999999
40
0.0624999999999999
40
0.0624999999999999
40
0.0937499999999998
40
0.0937499999999998
40
0.125
40
0.125
40
0.15625
40
0.15625
40
0.1875
40
0.1875
40
0.21875
40
0.21875
40
0.25
40
0.25
40
0.281249999999999
40
0.281249999999999
40
0.289062499999999
40
0.289062499999999
40
0.292968749999999
40
0.292968749999999
40
0.296875
40
0.3125
40
0.3125
40
0.34375
40
0.34375
40
0.375
40
0.375
40
0.40625
40
0.40625
40
0.4375
40
0.4375
40
0.468750000000001
40
0.468750000000001
40
0.500000000000001
40
0.500000000000001
40
0.531250000000001
40
0.531250000000001
40
0.562500000000001
40
0.562500000000001
40
0.578125000000001
40
0.578125000000001
40
0.585937500000002
40
0.585937500000002
40
0.593750000000002
40
0.593750000000002
40
0.625000000000002
40
0.625000000000002
40
0.656250000000002
40
0.656250000000002
40
0.687500000000003
40
0.687500000000003
40
0.718750000000003
40
0.718750000000003
40
0.750000000000003
40
0.750000000000003
40
0.781250000000003
40
0.781250000000003
40
0.812500000000004
40
0.812500000000004
40
0.843750000000004
40
0.843750000000004
40
0.859375000000004
40
0.859375000000004
40
0.867187500000004
40
0.871093750000004
40
0.871093750000004
40
0.875000000000004
40
0.875000000000004
40
0.906250000000003
40
0.906250000000003
40
0.937500000000002
40
0.937500000000002
40
0.968750000000001
40
0.968750000000001
40
1
40
1
40
1
40
1
41
1
10
48.6024866050242
20
6.25
30
0
41
1
10
48.6662647240951
20
6.25
30
0
41
1
10
48.7300428431661
20
6.22586619107895
30
0
41
1
10
48.8575990813081
20
6.12133277740759
30
0
41
1
10
48.9213772003791
20
6.04087280990868
30
0
41
1
10
49.0489334385209
20
5.81900017860852
30
0
41
1
10
49.1127115575919
20
5.67754350636454
30
0
41
1
10
49.2402677957338
20
5.33406278716279
30
0
41
1
10
49.3040459148047
20
5.13203123861371
30
0
41
1
10
49.4316021529467
20
4.67370398312477
30
0
41
1
10
49.4953802720177
20
4.41744670434994
30
0
41
1
10
49.6229365101596
20
3.86244548001685
30
0
41
1
10
49.6867146292305
20
3.56377675292654
30
0
41
1
10
49.8142708673724
20
2.93944556237435
30
0
41
1
10
49.8780489864434
20
2.61387061863749
30
0
41
1
10
50.0056052245853
20
1.95239023324746
30
0
41
1
10
50.0693833436563
20
1.61655770064957
30
0
41
1
10
50.1969395817982
20
0.949890158573027
30
0
41
1
10
50.2607177008691
20
0.619097000181171
30
0
41
1
10
50.3404403497078
20
0.216367371775874
30
0
41
1
10
50.3563848794756
20
0.136350635375123
30
0
41
1
10
50.3803016741271
20
0.0172340892727334
30
0
41
1
10
50.3882739390111
20
-0.022249343388097
30
0
41
1
10
50.4042184687788
20
-0.101685878236509
30
0
41
1
10
50.4440797931981
20
-0.301029498643175
30
0
41
1
10
50.4839411176175
20
-0.503926542677135
30
0
41
1
10
50.5796082962239
20
-0.995682580971618
30
0
41
1
10
50.6433864152949
20
-1.33002392690062
30
0
41
1
10
50.7709426534368
20
-1.9982760486582
30
0
41
1
10
50.8347207725078
20
-2.33213219159896
30
0
41
1
10
50.9622770106497
20
-2.98337162117329
30
0
41
1
10
51.0260551297206
20
-3.30067373150922
30
0
41
1
10
51.1536113678626
20
-3.90228108014551
30
0
41
1
10
51.2173894869335
20
-4.18650010047836
30
0
41
1
10
51.3449457250755
20
-4.70754158622094
30
0
41
1
10
51.4087238441464
20
-4.94430055487391
30
0
41
1
10
51.5362800822883
20
-5.36049892553342
30
0
41
1
10
51.6000582013593
20
-5.53991735888707
30
0
41
1
10
51.7276144395012
20
-5.83731748482424
30
0
41
1
10
51.7913925585721
20
-5.95532250798476
30
0
41
1
10
51.918948796714
20
-6.13153730642409
30
0
41
1
10
51.982726915785
20
-6.18979987778653
30
0
41
1
10
52.0783940943915
20
-6.23698942586441
30
0
41
1
10
52.110283153927
20
-6.24604859500906
30
0
41
1
10
52.1581167432302
20
-6.25041366152772
30
0
41
1
10
52.1740612729979
20
-6.25035098815542
30
0
41
1
10
52.2059503325334
20
-6.24718141948151
30
0
41
1
10
52.2218948623011
20
-6.24405752648778
30
0
41
1
10
52.3016175111398
20
-6.2204065029996
30
0
41
1
10
52.3653956302107
20
-6.17566373548468
30
0
41
1
10
52.4929518683527
20
-6.02762701340797
30
0
41
1
10
52.5567299874237
20
-5.92427635900816
30
0
41
1
10
52.6842862255656
20
-5.65610123176373
30
0
41
1
10
52.7480643446366
20
-5.49124458215562
30
0
41
1
10
52.8756205827785
20
-5.10265635388109
30
0
41
1
10
52.9393987018494
20
-4.87893455817297
30
0
41
1
10
53.0669549399913
20
-4.38113016583745
30
0
41
1
10
53.1307330590623
20
-4.10710210033656
30
0
41
1
10
53.2582892972042
20
-3.52214201240807
30
0
41
1
10
53.3220674162752
20
-3.21129323998383
30
0
41
1
10
53.4496236544171
20
-2.56894614720426
30
0
41
1
10
53.513401773488
20
-2.23753261069703
30
0
41
1
10
53.6409580116299
20
-1.57047847467339
30
0
41
1
10
53.7047361307009
20
-1.23490009434064
30
0
41
1
10
53.8004033093074
20
-0.739088482630081
30
0
41
1
10
53.8322923688428
20
-0.575054855577577
30
0
41
1
10
53.8801259581461
20
-0.331954402286812
30
0
41
1
10
53.9040427527977
20
-0.211138976535039
30
0
41
1
10
53.9279595474492
20
-0.0916059460135159
30
0
41
1
10
53.943904077217
20
-0.0122204841532607
30
0
41
1
10
53.9518763421008
20
0.0272662424665668
30
0
41
1
10
54.0236267260556
20
0.38484512572586
30
0
41
1
10
54.0874048451266
20
0.712482762820741
30
0
41
1
10
54.2149610832686
20
1.37607766310376
30
0
41
1
10
54.2787392023396
20
1.71200126513099
30
0
41
1
10
54.4062954404815
20
2.37752512859038
30
0
41
1
10
54.4700735595524
20
2.70705898348669
30
0
41
1
10
54.5976297976943
20
3.34329004764265
30
0
41
1
10
54.6614079167653
20
3.64990101107466
30
0
41
1
10
54.7251860358362
20
3.93707935740997
30
0
0
SPLINE
5
ED
100
AcDbEntity
8
1
62
256
6
ByLayer
370
13
48
1
60
0
100
AcDbSpline
70
4
71
3
72
86
73
82
40
0
40
0
40
0
40
0
40
0.0312500000000003
40
0.0312500000000003
40
0.0625000000000006
40
0.0625000000000006
40
0.0937500000000008
40
0.0937500000000008
40
0.125000000000001
40
0.125000000000001
40
0.156250000000001
40
0.156250000000001
40
0.187500000000002
40
0.187500000000002
40
0.218750000000002
40
0.218750000000002
40
0.250000000000002
40
0.250000000000002
40
0.265625000000002
40
0.265625000000002
40
0.273437500000002
40
0.273437500000002
40
0.281250000000003
40
0.281250000000003
40
0.312500000000003
40
0.312500000000003
40
0.343750000000003
40
0.343750000000003
40
0.375000000000003
40
0.375000000000003
40
0.406250000000004
40
0.406250000000004
40
0.437500000000004
40
0.437500000000004
40
0.468750000000004
40
0.468750000000004
40
0.500000000000004
40
0.500000000000004
40
0.531250000000005
40
0.531250000000005
40
0.535156250000005
40
0.535156250000005
40
0.539062500000005
40
0.539062500000005
40
0.546875000000005
40
0.546875000000005
40
0.562500000000005
40
0.562500000000005
40
0.593750000000005
40
0.593750000000005
40
0.625000000000006
40
0.625000000000006
40
0.656250000000006
40
0.656250000000006
40
0.687500000000006
40
0.687500000000006
40
0.718750000000007
40
0.718750000000007
40
0.750000000000007
40
0.750000000000007
40
0.781250000000007
40
0.781250000000007
40
0.796875000000007
40
0.796875000000007
40
0.804687500000007
40
0.804687500000007
40
0.808593750000007
40
0.808593750000007
40
0.812500000000007
40
0.812500000000007
40
0.843750000000006
40
0.843750000000006
40
0.875000000000005
40
0.875000000000005
40
0.906250000000004
40
0.906250000000004
40
0.937500000000002
40
0.937500000000002
40
0.968750000000001
40
0.968750000000001
40
1
40
1
40
1
40
1
41
1
10
48.1012434806418
20
6.25
30
0
41
1
10
48.1702428822584
20
6.25
30
0
41
1
10
48.239242283875
20
6.22173010777277
30
0
41
1
10
48.3772410871082
20
6.09866522289244
30
0
41
1
10
48.4462404887248
20
6.00378180664785
30
0
41
1
10
48.5842392919581
20
5.74222673912823
30
0
41
1
10
48.6532386935746
20
5.57549713037423
30
0
41
1
10
48.7912374968079
20
5.17221476057941
30
0
41
1
10
48.8602368984245
20
4.93566733771576
30
0
41
1
10
48.9982357016577
20
4.40284544650356
30
0
41
1
10
49.0672351032744
20
4.10664847263206
30
0
41
1
10
49.2052339065075
20
3.47151299346788
30
0
41
1
10
49.2742333081242
20
3.13269818974385
30
0
41
1
10
49.4122321113574
20
2.43305270732176
30
0
41
1
10
49.4812315129739
20
2.07234517128174
30
0
41
1
10
49.6192303162072
20
1.3494906395893
30
0
41
1
10
49.6882297178237
20
0.987426768576057
30
0
41
1
10
49.7917288202487
20
0.456151459217381
30
0
41
1
10
49.826228521057
20
0.280995675165059
30
0
41
1
10
49.8779780722694
20
0.0224199494072934
30
0
41
1
10
49.8952279226736
20
-0.0628594343736495
30
0
41
1
10
49.9297276234819
20
-0.235671695533966
30
0
41
1
10
49.946977473886
20
-0.322753333468569
30
0
41
1
10
50.0332267259068
20
-0.761034145362288
30
0
41
1
10
50.1022261275234
20
-1.12104005562352
30
0
41
1
10
50.2402249307566
20
-1.84374487376834
30
0
41
1
10
50.3092243323732
20
-2.20637178656869
30
0
41
1
10
50.4472231356065
20
-2.91431947304173
30
0
41
1
10
50.5162225372231
20
-3.25952297976281
30
0
41
1
10
50.6542213404563
20
-3.91162984660843
30
0
41
1
10
50.7232207420729
20
-4.21840555000438
30
0
41
1
10
50.8612195453061
20
-4.77550003955338
30
0
41
1
10
50.9302189469227
20
-5.02572836351075
30
0
41
1
10
51.068217750156
20
-5.45786286603072
30
0
41
1
10
51.1372171517725
20
-5.63974807835629
30
0
41
1
10
51.2752159550058
20
-5.93139079611177
30
0
41
1
10
51.3442153566224
20
-6.0411951752821
30
0
41
1
10
51.4822141598556
20
-6.19250175603142
30
0
41
1
10
51.5512135614722
20
-6.23408907935379
30
0
41
1
10
51.628837888291
20
-6.2477120303692
30
0
41
1
10
51.637462813493
20
-6.24876758026477
30
0
41
1
10
51.6547126638972
20
-6.24998420157499
30
0
41
1
10
51.6633375890992
20
-6.2501467939187
30
0
41
1
10
51.6892123647054
20
-6.24931517422999
30
0
41
1
10
51.7064622151096
20
-6.24698797334744
30
0
41
1
10
51.758211766322
20
-6.2344281334353
30
0
41
1
10
51.7927114671304
20
-6.21860985181542
30
0
41
1
10
51.8962105695553
20
-6.14696450337061
30
0
41
1
10
51.9652099711719
20
-6.06676083469785
30
0
41
1
10
52.1032087744051
20
-5.83513725265962
30
0
41
1
10
52.1722081760217
20
-5.68364984682529
30
0
41
1
10
52.310206979255
20
-5.30976200874008
30
0
41
1
10
52.3792063808715
20
-5.08735172643855
30
0
41
1
10
52.5172051841047
20
-4.5800281340068
30
0
41
1
10
52.5862045857214
20
-4.29517814263286
30
0
41
1
10
52.7242033889546
20
-3.67871940150889
30
0
41
1
10
52.7932027905712
20
-3.34722820799715
30
0
41
1
10
52.9312015938045
20
-2.65774546626423
30
0
41
1
10
53.000200995421
20
-2.29988111297274
30
0
41
1
10
53.1381997986542
20
-1.57856875176177
30
0
41
1
10
53.2071992002708
20
-1.21521440427571
30
0
41
1
10
53.3106983026958
20
-0.679578106144362
30
0
41
1
10
53.345198003504
20
-0.502567772228474
30
0
41
1
10
53.3969475547165
20
-0.240711332349747
30
0
41
1
10
53.4141974051207
20
-0.154033206049974
30
0
41
1
10
53.4400721807269
20
-0.0250736416449513
30
0
41
1
10
53.448697105929
20
0.017636141645113
30
0
41
1
10
53.4659469563331
20
0.103568371764425
30
0
41
1
10
53.4745718815352
20
0.146711263332122
30
0
41
1
10
53.5521962083539
20
0.536481590663982
30
0
41
1
10
53.6211956099705
20
0.89370714105209
30
0
41
1
10
53.7591944132037
20
1.61463864226448
30
0
41
1
10
53.8281938148204
20
1.97828404934515
30
0
41
1
10
53.9661926180535
20
2.69268431329385
30
0
41
1
10
54.0351920196701
20
3.0433293816169
30
0
41
1
10
54.1731908229034
20
3.71064068879147
30
0
41
1
10
54.24219022452
20
4.02717754119581
30
0
41
1
10
54.3801890277531
20
4.60719528068793
30
0
41
1
10
54.4491884293698
20
4.87057424735414
30
0
41
1
10
54.587187232603
20
5.33086662890028
30
0
41
1
10
54.6561866342196
20
5.52774334909469
30
0
41
1
10
54.7251860358363
20
5.68861700654247
30
0
0
SPLINE
5
EE
100
AcDbEntity
8
1
62
256
6
ByLayer
370
13
48
1
60
0
100
AcDbSpline
70
4
71
3
72
70
73
66
40
0
40
0
40
0
40
0
40
0.03125
40
0.03125
40
0.0625
40
0.0625
40
0.09375
40
0.09375
40
0.125
40
0.125
40
0.15625
40
0.15625
40
0.1875
40
0.1875
40
0.21875
40
0.21875
40
0.25
40
0.25
40
0.28125
40
0.28125
40
0.3125
40
0.3125
40
0.34375
40
0.34375
40
0.375
40
0.375
40
0.40625
40
0.40625
40
0.4375
40
0.4375
40
0.46875
40
0.46875
40
0.5
40
0.5
40
0.53125
40
0.53125
40
0.5625
40
0.5625
40
0.59375
40
0.59375
40
0.625
40
0.625
40
0.65625
40
0.65625
40
0.6875
40
0.6875
40
0.71875
40
0.71875
40
0.75
40
0.75
40
0.78125
40
0.78125
40
0.8125
40
0.8125
40
0.84375
40
0.84375
40
0.875
40
0.875
40
0.90625
40
0.90625
40
0.9375
40
0.9375
40
0.96875
40
0.96875
40
1
40
1
40
1
40
1
41
1
10
47.6000003562593
20
6.25
30
0
41
1
10
47.6742210404216
20
6.25
30
0
41
1
10
47.7484417245838
20
6.21726033285515
30
0
41
1
10
47.8968830929083
20
6.07405679383257
30
0
41
1
10
47.9711037770705
20
5.96346741183493
30
0
41
1
10
48.1195451453951
20
5.65888644281975
30
0
41
1
10
48.1937658295573
20
5.46482299137895
30
0
41
1
10
48.3422071978819
20
4.99762110909506
30
0
41
1
10
48.4164278820441
20
4.72451464051247
30
0
41
1
10
48.5648692503687
20
4.11432049043589
30
0
41
1
10
48.6390899345309
20
3.77737017854648
30
0
41
1
10
48.7875313028554
20
3.06275227473125
30
0
41
1
10
48.8617519870177
20
2.68527022736109
30
0
41
1
10
49.0101933553422
20
1.91591433458265
30
0
41
1
10
49.0844140395045
20
1.5241964330267
30
0
41
1
10
49.232855407829
20
0.750342534671688
30
0
41
1
10
49.3070760919913
20
0.368285216182301
30
0
41
1
10
49.4555174603158
20
-0.368284332298828
30
0
41
1
10
49.5297381444781
20
-0.750341613390759
30
0
41
1
10
49.6781795128026
20
-1.52419549705829
30
0
41
1
10
49.7524001969649
20
-1.91591339981818
30
0
41
1
10
49.9008415652893
20
-2.68526931567135
30
0
41
1
10
49.9750622494516
20
-3.06275138496147
30
0
41
1
10
50.1235036177761
20
-3.77736935323315
30
0
41
1
10
50.1977243019384
20
-4.1143197076527
30
0
41
1
10
50.3461656702629
20
-4.72451395882956
30
0
41
1
10
50.4203863544251
20
-4.9976204859145
30
0
41
1
10
50.5688277227497
20
-5.46482249327482
30
0
41
1
10
50.643048406912
20
-5.6588860111975
30
0
41
1
10
50.7914897752365
20
-5.96346711246267
30
0
41
1
10
50.8657104593987
20
-6.07405656016149
30
0
41
1
10
51.0141518277232
20
-6.21726022283755
30
0
41
1
10
51.0883725118855
20
-6.24999994791659
30
0
41
1
10
51.23681388021
20
-6.25000005208327
30
0
41
1
10
51.3110345643723
20
-6.21726044287257
30
0
41
1
10
51.4594759326968
20
-6.0740570275035
30
0
41
1
10
51.5336966168591
20
-5.96346771120702
30
0
41
1
10
51.6821379851836
20
-5.65888687444183
30
0
41
1
10
51.7563586693459
20
-5.46482348948291
30
0
41
1
10
51.9048000376704
20
-4.99762173227549
30
0
41
1
10
51.9790207218326
20
-4.72451532219526
30
0
41
1
10
52.1274620901572
20
-4.11432127321896
30
0
41
1
10
52.2016827743194
20
-3.77737100385971
30
0
41
1
10
52.3501241426439
20
-3.06275316450095
30
0
41
1
10
52.4243448268062
20
-2.68527113905077
30
0
41
1
10
52.5727861951307
20
-1.91591526934712
30
0
41
1
10
52.647006879293
20
-1.52419736899515
30
0
41
1
10
52.7954482476175
20
-0.750343455952674
30
0
41
1
10
52.8696689317798
20
-0.368286121639414
30
0
41
1
10
53.0181103001042
20
0.368283469988938
30
0
41
1
10
53.0923309842665
20
0.75034069210983
30
0
41
1
10
53.240772352591
20
1.52419456108987
30
0
41
1
10
53.3149930367533
20
1.91591246505368
30
0
41
1
10
53.4634344050778
20
2.68526840398158
30
0
41
1
10
53.5376550892401
20
3.06275049519166
30
0
41
1
10
53.6860964575646
20
3.77736852791978
30
0
41
1
10
53.7603171417269
20
4.11431892486939
30
0
41
1
10
53.9087585100514
20
4.72451327714649
30
0
41
1
10
53.9829791942137
20
4.99761986273379
30
0
41
1
10
54.1314205625382
20
5.46482199517055
30
0
41
1
10
54.2056412467005
20
5.6588855795751
30
0
41
1
10
54.3540826150249
20
5.96346681309026
30
0
41
1
10
54.4283032991872
20
6.07405632649028
30
0
41
1
10
54.5767446675117
20
6.21726011281984
30
0
41
1
10
54.650965351674
20
6.24999989583307
30
0
41
1
10
54.7251860358363
20
6.24999999999974
30
0
0
SPLINE
5
EF
100
AcDbEntity
8
1
62
256
6
ByLayer
370
13
48
1
60
0
100
AcDbSpline
70
4
71
3
72
86
73
82
40
0
40
0
40
0
40
0
40
0.0312499999999993
40
0.0312499999999993
40
0.0624999999999987
40
0.0624999999999987
40
0.093749999999998
40
0.093749999999998
40
0.124999999999997
40
0.124999999999997
40
0.156249999999997
40
0.156249999999997
40
0.187499999999996
40
0.187499999999996
40
0.191406249999996
40
0.191406249999996
40
0.195312499999996
40
0.195312499999996
40
0.203124999999996
40
0.203124999999996
40
0.218749999999996
40
0.218749999999996
40
0.249999999999995
40
0.249999999999995
40
0.281249999999995
40
0.281249999999995
40
0.312499999999994
40
0.312499999999994
40
0.343749999999994
40
0.343749999999994
40
0.374999999999993
40
0.374999999999993
40
0.406249999999993
40
0.406249999999993
40
0.437499999999992
40
0.437499999999992
40
0.453124999999992
40
0.453124999999992
40
0.460937499999992
40
0.460937499999992
40
0.464843749999992
40
0.464843749999992
40
0.468749999999992
40
0.468749999999992
40
0.499999999999993
40
0.499999999999993
40
0.531249999999993
40
0.531249999999993
40
0.562499999999994
40
0.562499999999994
40
0.593749999999995
40
0.593749999999995
40
0.624999999999995
40
0.624999999999995
40
0.656249999999996
40
0.656249999999996
40
0.687499999999996
40
0.687499999999996
40
0.718749999999997
40
0.718749999999997
40
0.726562499999997
40
0.726562499999997
40
0.734374999999997
40
0.734374999999997
40
0.749999999999997
40
0.749999999999997
40
0.781249999999998
40
0.781249999999998
40
0.812499999999998
40
0.812499999999998
40
0.843749999999998
40
0.843749999999998
40
0.874999999999999
40
0.874999999999999
40
0.906249999999999
40
0.906249999999999
40
0.937499999999999
40
0.937499999999999
40
0.96875
40
0.96875
40
1
40
1
40
1
40
1
41
1
10
47.6
20
5.68861866779432
30
0
41
1
10
47.6689994090387
20
5.52774523857434
30
0
41
1
10
47.7379988180774
20
5.33086873635142
30
0
41
1
10
47.8759976361547
20
4.87057674454815
30
0
41
1
10
47.9449970451934
20
4.60719794942523
30
0
41
1
10
48.0829958632707
20
4.02718048763359
30
0
41
1
10
48.1519952723094
20
3.71064374127829
30
0
41
1
10
48.2899940903868
20
3.04333257405625
30
0
41
1
10
48.3589934994255
20
2.69268753969652
30
0
41
1
10
48.4969923175028
20
1.97828727800584
30
0
41
1
10
48.5659917265415
20
1.61464183939583
30
0
41
1
10
48.7039905446189
20
0.893710225352891
30
0
41
1
10
48.7729899536575
20
0.536484593855022
30
0
41
1
10
48.850614288826
20
0.146714158199074
30
0
41
1
10
48.8592392149559
20
0.103571254358343
30
0
41
1
10
48.8764890672156
20
0.0176389992556665
30
0
41
1
10
48.8851139933453
20
-0.0250707872303053
30
0
41
1
10
48.9109887717349
20
-0.154030342100185
30
0
41
1
10
48.9282386239945
20
-0.240708463220301
30
0
41
1
10
48.9799881807736
20
-0.502564891340256
30
0
41
1
10
49.0144878852929
20
-0.679575222466127
30
0
41
1
10
49.1179869988509
20
-1.21521152910253
30
0
41
1
10
49.1869864078896
20
-1.57856590499276
30
0
41
1
10
49.3249852259669
20
-2.29987837329685
30
0
41
1
10
49.3939846350056
20
-2.65774280535132
30
0
41
1
10
49.5319834530829
20
-3.34722575147697
30
0
41
1
10
49.6009828621216
20
-3.67871707058657
30
0
41
1
10
49.738981680199
20
-4.2951760970478
30
0
41
1
10
49.8079810892377
20
-4.58002624801733
30
0
41
1
10
49.945979907315
20
-5.08735017443203
30
0
41
1
10
50.0149793163537
20
-5.3097606309297
30
0
41
1
10
50.1529781344311
20
-5.68364881155185
30
0
41
1
10
50.2219775434697
20
-5.83513638558031
30
0
41
1
10
50.3599763615471
20
-6.06676028161627
30
0
41
1
10
50.4289757705859
20
-6.14696409604389
30
0
41
1
10
50.5324748841438
20
-6.21860963931721
30
0
41
1
10
50.5669745886631
20
-6.23442798197246
30
0
41
1
10
50.6187241454421
20
-6.24698790722064
30
0
41
1
10
50.6359739977019
20
-6.24931513551576
30
0
41
1
10
50.6618487760913
20
-6.25014679475819
30
0
41
1
10
50.6704737022212
20
-6.24998421535273
30
0
41
1
10
50.6877235544808
20
-6.24876762027341
30
0
41
1
10
50.6963484806107
20
-6.24771208355961
30
0
41
1
10
50.7739728157792
20
-6.23408925170364
30
0
41
1
10
50.8429722248178
20
-6.19250203815511
30
0
41
1
10
50.9809710428952
20
-6.04119567438738
30
0
41
1
10
51.0499704519339
20
-5.93139140234581
30
0
41
1
10
51.1879692700113
20
-5.63974888382455
30
0
41
1
10
51.2569686790499
20
-5.45786376348912
30
0
41
1
10
51.3949674971273
20
-5.02572941835783
30
0
41
1
10
51.4639669061659
20
-4.77550115969783
30
0
41
1
10
51.6019657242433
20
-4.21840676693708
30
0
41
1
10
51.670965133282
20
-3.91163109499902
30
0
41
1
10
51.8089639513594
20
-3.25952425660188
30
0
41
1
10
51.877963360398
20
-2.91432074692213
30
0
41
1
10
52.0159621784754
20
-2.20637302570131
30
0
41
1
10
52.084961587514
20
-1.84374608121226
30
0
41
1
10
52.2229604055914
20
-1.12104118035848
30
0
41
1
10
52.2919598146301
20
-0.761035219173436
30
0
41
1
10
52.3782090759285
20
-0.322754337920429
30
0
41
1
10
52.3954589281881
20
-0.2356726858267
30
0
41
1
10
52.4299586327074
20
-0.0628603959177099
30
0
41
1
10
52.4472084849671
20
0.0224189994951303
30
0
41
1
10
52.4989580417461
20
0.280994737935686
30
0
41
1
10
52.5334577462654
20
0.456150532420992
30
0
41
1
10
52.6369568598234
20
0.987425879076
30
0
41
1
10
52.7059562688621
20
1.34948978305508
30
0
41
1
10
52.8439550869395
20
2.07234439495258
30
0
41
1
10
52.9129544959782
20
2.43305197822619
30
0
41
1
10
53.0509533140555
20
3.13269756417978
30
0
41
1
10
53.1199527230942
20
3.4715124241512
30
0
41
1
10
53.2579515411716
20
4.10664801715305
30
0
41
1
10
53.3269509502103
20
4.40284504853588
30
0
41
1
10
53.4649497682876
20
4.93566704791382
30
0
41
1
10
53.5339491773262
20
5.17221452136266
30
0
41
1
10
53.6719479954036
20
5.57549697917153
30
0
41
1
10
53.7409474044423
20
5.7422266253277
30
0
41
1
10
53.8789462225197
20
6.00378175163996
30
0
41
1
10
53.9479456315584
20
6.09866518929533
30
0
41
1
10
54.0859444496357
20
6.22173010165668
30
0
41
1
10
54.1549438586744
20
6.25
30
0
41
1
10
54.223943267713
20
6.25
30
0
0
SPLINE
5
F0
100
AcDbEntity
8
1
62
256
6
ByLayer
370
13
48
1
60
0
100
AcDbSpline
70
4
71
3
72
85
73
81
40
0
40
0
40
0
40
0
40
0.0312499999999997
40
0.0312499999999997
40
0.0624999999999994
40
0.0624999999999994
40
0.0937499999999991
40
0.0937499999999991
40
0.124999999999999
40
0.124999999999999
40
0.128906249999999
40
0.128906249999999
40
0.132812499999999
40
0.140624999999999
40
0.140624999999999
40
0.156249999999999
40
0.156249999999999
40
0.187499999999998
40
0.187499999999998
40
0.218749999999998
40
0.218749999999998
40
0.249999999999998
40
0.249999999999998
40
0.281249999999998
40
0.281249999999998
40
0.312499999999997
40
0.312499999999997
40
0.343749999999997
40
0.343749999999997
40
0.374999999999997
40
0.374999999999997
40
0.406249999999996
40
0.406249999999996
40
0.414062499999996
40
0.414062499999996
40
0.421874999999996
40
0.421874999999996
40
0.437499999999996
40
0.437499999999996
40
0.468749999999996
40
0.468749999999996
40
0.499999999999996
40
0.499999999999996
40
0.531249999999995
40
0.531249999999995
40
0.562499999999995
40
0.562499999999995
40
0.593749999999995
40
0.593749999999995
40
0.624999999999994
40
0.624999999999994
40
0.656249999999994
40
0.656249999999994
40
0.687499999999994
40
0.687499999999994
40
0.703124999999994
40
0.703124999999994
40
0.707031249999994
40
0.707031249999994
40
0.710937499999994
40
0.710937499999994
40
0.718749999999994
40
0.718749999999994
40
0.749999999999994
40
0.749999999999994
40
0.781249999999995
40
0.781249999999995
40
0.812499999999996
40
0.812499999999996
40
0.843749999999997
40
0.843749999999997
40
0.874999999999997
40
0.874999999999997
40
0.906249999999998
40
0.906249999999998
40
0.937499999999999
40
0.937499999999999
40
0.968749999999999
40
0.968749999999999
40
1
40
1
40
1
40
1
41
1
10
47.6
20
3.93708256571813
30
0
41
1
10
47.6637781264931
20
3.64990433004468
30
0
41
1
10
47.727556252986
20
3.34329344500014
30
0
41
1
10
47.8551125059721
20
2.70706247187556
30
0
41
1
10
47.9188906324652
20
2.3775286297039
30
0
41
1
10
48.0464468854511
20
1.71200473444452
30
0
41
1
10
48.1102250119442
20
1.37608108803195
30
0
41
1
10
48.2377812649303
20
0.712486056442799
30
0
41
1
10
48.3015593914232
20
0.384848332561717
30
0
41
1
10
48.373309783728
20
0.0272693370729939
30
0
41
1
10
48.3812820495396
20
-0.0122173971786879
30
0
41
1
10
48.3972265811628
20
-0.0916028525350896
30
0
41
1
10
48.4211433785976
20
-0.211135874112728
30
0
41
1
10
48.4450601760326
20
-0.331951293438948
30
0
41
1
10
48.4928937709025
20
-0.575051737443289
30
0
41
1
10
48.5247828341489
20
-0.739085363065215
30
0
41
1
10
48.6204500238884
20
-1.23489698619693
30
0
41
1
10
48.6842281503815
20
-1.57047539527883
30
0
41
1
10
48.8117844033675
20
-2.23752963516401
30
0
41
1
10
48.8755625298605
20
-2.56894324683998
30
0
41
1
10
49.0031187828466
20
-3.21129053394492
30
0
41
1
10
49.0668969093396
20
-3.52213942551219
30
0
41
1
10
49.1944531623257
20
-4.10709978592362
30
0
41
1
10
49.2582312888187
20
-4.38112800467204
30
0
41
1
10
49.3857875418048
20
-4.87893272208945
30
0
41
1
10
49.4495656682978
20
-5.10265468949436
30
0
41
1
10
49.5771219212838
20
-5.49124326193638
30
0
41
1
10
49.6409000477769
20
-5.65610008389041
30
0
41
1
10
49.768456300763
20
-5.92427554075005
30
0
41
1
10
49.8322344272559
20
-6.02762635235251
30
0
41
1
10
49.959790680242
20
-6.17566336288809
30
0
41
1
10
50.0235688067351
20
-6.22040626166012
30
0
41
1
10
50.1032914648514
20
-6.24405742993838
30
0
41
1
10
50.1192359964746
20
-6.24718135093983
30
0
41
1
10
50.1511250597211
20
-6.25035097370446
30
0
41
1
10
50.1670695913443
20
-6.25041367283455
30
0
41
1
10
50.2149031862141
20
-6.24604868516531
30
0
41
1
10
50.2467922494607
20
-6.23698956955116
30
0
41
1
10
50.3424594392002
20
-6.18980018350507
30
0
41
1
10
50.4062375656932
20
-6.13153772214349
30
0
41
1
10
50.5337938186793
20
-5.95532313810602
30
0
41
1
10
50.5975719451723
20
-5.83731821927853
30
0
41
1
10
50.7251281981584
20
-5.53991828568465
30
0
41
1
10
50.7889063246514
20
-5.36049994025535
30
0
41
1
10
50.9164625776374
20
-4.94430171969799
30
0
41
1
10
50.9802407041304
20
-4.70754281315345
30
0
41
1
10
51.1077969571164
20
-4.18650142022824
30
0
41
1
10
51.1715750836095
20
-3.90228243058385
30
0
41
1
10
51.2991313365956
20
-3.30067511150037
30
0
41
1
10
51.3629094630886
20
-2.98337300006509
30
0
41
1
10
51.4904657160747
20
-2.33213354103421
30
0
41
1
10
51.5542438425677
20
-1.99827736980816
30
0
41
1
10
51.6818000955538
20
-1.33002517205136
30
0
41
1
10
51.7455782220468
20
-0.995683778481919
30
0
41
1
10
51.8412454117863
20
-0.503927660739862
30
0
41
1
10
51.8731344750328
20
-0.341609997699123
30
0
41
1
10
51.9129958040909
20
-0.141556123907179
30
0
41
1
10
51.9209680699026
20
-0.101686925475121
30
0
41
1
10
51.9369126015258
20
-0.022250376114755
30
0
41
1
10
51.9448848673375
20
0.0172330614707334
30
0
41
1
10
51.9688016647724
20
0.136349613619103
30
0
41
1
10
51.9847461963956
20
0.216366354504743
30
0
41
1
10
52.0644688545119
20
0.619096007633431
30
0
41
1
10
52.128246981005
20
0.949889193252545
30
0
41
1
10
52.255803233991
20
1.61655680399522
30
0
41
1
10
52.319581360484
20
1.95238937803953
30
0
41
1
10
52.4471376134701
20
2.61386985729396
30
0
41
1
10
52.5109157399631
20
2.9394448534272
30
0
41
1
10
52.6384719929491
20
3.56377615407524
30
0
41
1
10
52.7022501194422
20
3.86244493881583
30
0
41
1
10
52.8298063724283
20
4.41744627674123
30
0
41
1
10
52.8935844989213
20
4.6737036113993
30
0
41
1
10
53.0211407519073
20
5.13203097029461
30
0
41
1
10
53.0849188784003
20
5.33406256632378
30
0
41
1
10
53.2124751313864
20
5.67754336745577
30
0
41
1
10
53.2762532578794
20
5.81900007413881
30
0
41
1
10
53.4038095108654
20
6.04087275945813
30
0
41
1
10
53.4675876373585
20
6.12133274655616
30
0
41
1
10
53.5951438903445
20
6.22586618543568
30
0
41
1
10
53.6589220168376
20
6.25
30
0
41
1
10
53.7227001433306
20
6.25
30
0
0
SPLINE
5
F1
100
AcDbEntity
8
1
62
256
6
ByLayer
370
13
48
1
60
0
100
AcDbSpline
70
4
71
3
72
82
73
78
40
0
40
0
40
0
40
0
40
0.0312499999999972
40
0.0312499999999972
40
0.0468749999999959
40
0.0468749999999959
40
0.0546874999999953
40
0.0546874999999953
40
0.0624999999999948
40
0.0624999999999948
40
0.0937499999999934
40
0.0937499999999934
40
0.124999999999992
40
0.124999999999992
40
0.156249999999991
40
0.156249999999991
40
0.187499999999989
40
0.187499999999989
40
0.218749999999988
40
0.218749999999988
40
0.249999999999987
40
0.249999999999987
40
0.281249999999985
40
0.281249999999985
40
0.312499999999984
40
0.312499999999984
40
0.343749999999982
40
0.343749999999982
40
0.359374999999982
40
0.359374999999982
40
0.367187499999982
40
0.367187499999982
40
0.374999999999981
40
0.374999999999981
40
0.406249999999981
40
0.406249999999981
40
0.437499999999981
40
0.437499999999981
40
0.468749999999981
40
0.468749999999981
40
0.499999999999981
40
0.499999999999981
40
0.531249999999981
40
0.531249999999981
40
0.562499999999981
40
0.562499999999981
40
0.593749999999981
40
0.593749999999981
40
0.624999999999982
40
0.624999999999982
40
0.656249999999982
40
0.656249999999982
40
0.671874999999982
40
0.671874999999982
40
0.679687499999982
40
0.679687499999982
40
0.687499999999982
40
0.687499999999982
40
0.718749999999984
40
0.718749999999984
40
0.749999999999986
40
0.749999999999986
40
0.781249999999988
40
0.781249999999988
40
0.812499999999989
40
0.812499999999989
40
0.843749999999991
40
0.843749999999991
40
0.874999999999993
40
0.874999999999993
40
0.906249999999995
40
0.906249999999995
40
0.937499999999997
40
0.937499999999997
40
0.968749999999998
40
0.968749999999998
40
1
40
1
40
1
40
1
41
1
10
47.6
20
1.4241782492461
30
0
41
1
10
47.6585568439474
20
1.11764149526951
30
0
41
1
10
47.7171136878948
20
0.812387562221829
30
0
41
1
10
47.8049489538158
20
0.363849258963029
30
0
41
1
10
47.8342273757895
20
0.215874620890105
30
0
41
1
10
47.87814500875
20
-0.0030363607615129
30
0
41
1
10
47.8927842197369
20
-0.0755282217130286
30
0
41
1
10
47.9220626417106
20
-0.222182981404899
30
0
41
1
10
47.9367018526974
20
-0.295996810341847
30
0
41
1
10
48.0098979076316
20
-0.667192024793565
30
0
41
1
10
48.068454751579
20
-0.971052108813069
30
0
41
1
10
48.1855684394737
20
-1.58308748543365
30
0
41
1
10
48.2441252834211
20
-1.8912356055682
30
0
41
1
10
48.3612389713159
20
-2.50012356521071
30
0
41
1
10
48.4197958152632
20
-2.80081725546577
30
0
41
1
10
48.536909503158
20
-3.38196681745669
30
0
41
1
10
48.5954663471054
20
-3.66236594196579
30
0
41
1
10
48.7125800350002
20
-4.19057433030136
30
0
41
1
10
48.7711368789475
20
-4.43833062418258
30
0
41
1
10
48.8882505668422
20
-4.89108394489489
30
0
41
1
10
48.9468074107896
20
-5.09604653389115
30
0
41
1
10
49.0639210986844
20
-5.45659079455655
30
0
41
1
10
49.1224779426317
20
-5.61216502618501
30
0
41
1
10
49.2395916305265
20
-5.87151103667946
30
0
41
1
10
49.2981484744739
20
-5.97530115187402
30
0
41
1
10
49.4152621623686
20
-6.1326801720358
30
0
41
1
10
49.473819006316
20
-6.18630411924548
30
0
41
1
10
49.5616542722371
20
-6.23267642653965
30
0
41
1
10
49.5909326942108
20
-6.2424778628118
30
0
41
1
10
49.6348503271713
20
-6.24929117561933
30
0
41
1
10
49.6494895381582
20
-6.25024971828324
30
0
41
1
10
49.6787679601319
20
-6.24964090040962
30
0
41
1
10
49.6934071711187
20
-6.24806333874719
30
0
41
1
10
49.766603226053
20
-6.23354297463374
30
0
41
1
10
49.8251600700004
20
-6.20062471475231
30
0
41
1
10
49.9422737578951
20
-6.08644284709089
30
0
41
1
10
50.0008306018424
20
-6.00514060899374
30
0
41
1
10
50.1179442897372
20
-5.79103467480493
30
0
41
1
10
50.1765011336846
20
-5.65820388216511
30
0
41
1
10
50.2936148215793
20
-5.34157953490168
30
0
41
1
10
50.3521716655267
20
-5.15778136563438
30
0
41
1
10
50.4692853534214
20
-4.74397083234899
30
0
41
1
10
50.5278421973688
20
-4.51398151478099
30
0
41
1
10
50.6449558852636
20
-4.01648245849947
30
0
41
1
10
50.703512729211
20
-3.74901911624792
30
0
41
1
10
50.8206264171057
20
-3.18814291543126
30
0
41
1
10
50.8791832610531
20
-2.89478709806173
30
0
41
1
10
50.9962969489478
20
-2.29496733792033
30
0
41
1
10
51.0548537928952
20
-1.98855568347076
30
0
41
1
10
51.17196748079
20
-1.37503742397652
30
0
41
1
10
51.2305243247373
20
-1.06796687233091
30
0
41
1
10
51.3183595906584
20
-0.614805912755656
30
0
41
1
10
51.3476380126321
20
-0.464975738336563
30
0
41
1
10
51.3915556455926
20
-0.242880599391753
30
0
41
1
10
51.4061948565795
20
-0.169289271575906
30
0
41
1
10
51.4354732785532
20
-0.023107278790377
30
0
41
1
10
51.45011248954
20
0.0492956651086445
30
0
41
1
10
51.5233085444742
20
0.415345765817307
30
0
41
1
10
51.5818653884216
20
0.716185426688924
30
0
41
1
10
51.6989790763163
20
1.3250980403916
30
0
41
1
10
51.7575359202638
20
1.63314957150087
30
0
41
1
10
51.8746496081585
20
2.24529656893711
30
0
41
1
10
51.9332064521059
20
2.54935068947333
30
0
41
1
10
52.0503201400006
20
3.14083890284041
30
0
41
1
10
52.108876983948
20
3.42821794889329
30
0
41
1
10
52.2259906718428
20
3.97369535862956
30
0
41
1
10
52.2845475157901
20
4.23173809232958
30
0
41
1
10
52.4016612036849
20
4.70760172733435
30
0
41
1
10
52.4602180476322
20
4.9253817736404
30
0
41
1
10
52.577331735527
20
5.31300398758913
30
0
41
1
10
52.6358885794743
20
5.48283085390483
30
0
41
1
10
52.7530022673691
20
5.77093238666978
30
0
41
1
10
52.8115591113165
20
5.88921883081915
30
0
41
1
10
52.9286727992113
20
6.07477612860995
30
0
41
1
10
52.9872296431587
20
6.14207852203367
30
0
41
1
10
53.1043433310534
20
6.22967058861957
30
0
41
1
10
53.1629001750007
20
6.25
30
0
41
1
10
53.2214570189481
20
6.25
30
0
0
SPLINE
5
F2
100
AcDbEntity
8
1
62
256
6
ByLayer
370
13
48
1
60
0
100
AcDbSpline
70
4
71
3
72
8
73
4
40
0
40
0
40
0
40
0
40
1
40
1
40
1
40
1
41
1
10
54.7251860358362
20
-6.19699211145564
30
0
41
1
10
55.483457357224
20
-4.13071215035549
30
0
41
1
10
56.2417286786119
20
-2.06504276906026
30
0
41
1
10
56.9999999999999
20
-3.411E-13
30
0
0
SPLINE
5
F3
100
AcDbEntity
8
1
62
256
6
ByLayer
370
13
48
1
60
0
100
AcDbSpline
70
4
71
3
72
8
73
4
40
0
40
0
40
0
40
0
40
1
40
1
40
1
40
1
41
1
10
54.7251860358363
20
2.91676634931585
30
0
41
1
10
55.4834573572241
20
1.94870236209744
30
0
41
1
10
56.241728678612
20
0.976444393108267
30
0
41
1
10
57
20
2.84E-14
30
0
0
SPLINE
5
F4
100
AcDbEntity
8
1
62
256
6
ByLayer
370
13
48
1
60
0
100
AcDbSpline
70
4
71
3
72
8
73
4
40
0
40
0
40
0
40
0
40
1
40
1
40
1
40
1
41
1
10
54.7251860358364
20
-2.16029735206024
30
0
41
1
10
55.4834573572242
20
-1.44464532730606
30
0
41
1
10
56.241728678612
20
-0.7245443429413
30
0
41
1
10
56.9999999999999
20
-1.137E-13
30
0
0
SPLINE
5
F5
100
AcDbEntity
8
1
62
256
6
ByLayer
370
13
48
1
60
0
100
AcDbSpline
70
4
71
3
72
8
73
4
40
0
40
0
40
0
40
0
40
1
40
1
40
1
40
1
41
1
10
54.7251860358362
20
-4.74736164908296
30
0
41
1
10
55.4834573572241
20
-3.16182531550078
30
0
41
1
10
56.2417286786121
20
-1.5793673407091
30
0
41
1
10
57.0000000000001
20
1.99E-13
30
0
0
SPLINE
5
F6
100
AcDbEntity
8
1
62
256
6
ByLayer
370
13
48
1
60
0
100
AcDbSpline
70
4
71
3
72
8
73
4
40
0
40
0
40
0
40
0
40
1
40
1
40
1
40
1
41
1
10
54.7251860358364
20
5.24316624672798
30
0
41
1
10
55.4834573572242
20
3.49286473679072
30
0
41
1
10
56.241728678612
20
1.74513813473737
30
0
41
1
10
56.9999999999999
20
2.842E-13
30
0
0
SPLINE
5
F7
100
AcDbEntity
8
1
62
256
6
ByLayer
370
13
48
1
60
0
100
AcDbSpline
70
4
71
3
72
8
73
4
40
0
40
0
40
0
40
0
40
1
40
1
40
1
40
1
41
1
10
54.7251860358363
20
5.46238486283104
30
0
41
1
10
55.4834573572241
20
3.64389296363706
30
0
41
1
10
56.241728678612
20
1.82309329627043
30
0
41
1
10
57
20
2.84E-14
30
0
0
SPLINE
5
F8
100
AcDbEntity
8
1
62
256
6
ByLayer
370
13
48
1
60
0
100
AcDbSpline
70
4
71
3
72
8
73
4
40
0
40
0
40
0
40
0
40
1
40
1
40
1
40
1
41
1
10
54.7251860358362
20
-5.01284646800437
30
0
41
1
10
55.483457357224
20
-3.34472812808642
30
0
41
1
10
56.2417286786119
20
-1.67377497958398
30
0
41
1
10
56.9999999999999
20
-2.842E-13
30
0
0
SPLINE
5
F9
100
AcDbEntity
8
1
62
256
6
ByLayer
370
13
48
1
60
0
100
AcDbSpline
70
4
71
3
72
8
73
4
40
0
40
0
40
0
40
0
40
1
40
1
40
1
40
1
41
1
10
54.7251860358364
20
3.58078631258294
30
0
41
1
10
55.4834573572242
20
2.38330659593342
30
0
41
1
10
56.241728678612
20
1.18970807346119
30
0
41
1
10
56.9999999999999
20
1.99E-13
30
0
0
SPLINE
5
FA
100
AcDbEntity
8
1
62
256
6
ByLayer
370
13
48
1
60
0
100
AcDbSpline
70
4
71
3
72
8
73
4
40
0
40
0
40
0
40
0
40
1
40
1
40
1
40
1
41
1
10
54.7251860358363
20
-1.75641740832751
30
0
41
1
10
55.4834573572241
20
-1.16639673307114
30
0
41
1
10
56.241728678612
20
-0.580922752706755
30
0
41
1
10
57
20
0
30
0
0
SPLINE
5
FB
100
AcDbEntity
8
1
62
256
6
ByLayer
370
13
48
1
60
0
100
AcDbSpline
70
4
71
3
72
8
73
4
40
0
40
0
40
0
40
0
40
1
40
1
40
1
40
1
41
1
10
54.7251860358363
20
6.20334706368828
30
0
41
1
10
55.4834573572241
20
4.13614268161641
30
0
41
1
10
56.241728678612
20
2.06835497639955
30
0
41
1
10
57
20
0
30
0
0
SPLINE
5
FC
100
AcDbEntity
8
1
62
256
6
ByLayer
370
13
48
1
60
0
100
AcDbSpline
70
4
71
3
72
8
73
4
40
0
40
0
40
0
40
0
40
1
40
1
40
1
40
1
41
1
10
54.7251860358364
20
2.5340632748898
30
0
41
1
10
55.4834573572242
20
1.68504333638739
30
0
41
1
10
56.241728678612
20
0.840353396292073
30
0
41
1
10
56.9999999999999
20
1.421E-13
30
0
0
SPLINE
5
FD
100
AcDbEntity
8
1
62
256
6
ByLayer
370
13
48
1
60
0
100
AcDbSpline
70
4
71
3
72
8
73
4
40
0
40
0
40
0
40
0
40
1
40
1
40
1
40
1
41
1
10
54.7251860358363
20
3.92089161345766
30
0
41
1
10
55.4834573572241
20
2.61761835943813
30
0
41
1
10
56.241728678612
20
1.3106511034797
30
0
41
1
10
57
20
2.84E-14
30
0
0
SPLINE
5
FE
100
AcDbEntity
8
1
62
256
6
ByLayer
370
13
48
1
60
0
100
AcDbSpline
70
4
71
3
72
8
73
4
40
0
40
0
40
0
40
0
40
1
40
1
40
1
40
1
41
1
10
54.7251860358362
20
-6.04810440803274
30
0
41
1
10
55.4834573572241
20
-4.03326443815803
30
0
41
1
10
56.2417286786121
20
-2.01722441818524
30
0
41
1
10
57.0000000000001
20
2.558E-13
30
0
0
SPLINE
5
FF
100
AcDbEntity
8
1
62
256
6
ByLayer
370
13
48
1
60
0
100
AcDbSpline
70
4
71
3
72
8
73
4
40
0
40
0
40
0
40
0
40
1
40
1
40
1
40
1
41
1
10
54.7251860358363
20
4.78002139115537
30
0
41
1
10
55.4834573572242
20
3.18973421926694
30
0
41
1
10
56.2417286786121
20
1.59638963032484
30
0
41
1
10
57.0000000000001
20
-8.53E-14
30
0
0
SPLINE
5
100
100
AcDbEntity
8
1
62
256
6
ByLayer
370
13
48
1
60
0
100
AcDbSpline
70
4
71
3
72
8
73
4
40
0
40
0
40
0
40
0
40
1
40
1
40
1
40
1
41
1
10
54.7251860358362
20
-6.23788752764827
30
0
41
1
10
55.4834573572242
20
-4.15888659239616
30
0
41
1
10
56.2417286786123
20
-2.07958536964662
30
0
41
1
10
57.0000000000003
20
9.095E-13
30
0
0
SPLINE
5
101
100
AcDbEntity
8
1
62
256
6
ByLayer
370
13
48
1
60
0
100
AcDbSpline
70
4
71
3
72
8
73
4
40
0
40
0
40
0
40
0
40
1
40
1
40
1
40
1
41
1
10
54.7251860358364
20
-3.24293885757464
30
0
41
1
10
55.4834573572242
20
-2.16601055422279
30
0
41
1
10
56.241728678612
20
-1.08502813462332
30
0
41
1
10
56.9999999999999
20
-1.705E-13
30
0
0
SPLINE
5
102
100
AcDbEntity
8
1
62
256
6
ByLayer
370
13
48
1
60
0
100
AcDbSpline
70
4
71
3
72
8
73
4
40
0
40
0
40
0
40
0
40
1
40
1
40
1
40
1
41
1
10
54.7251860358363
20
0.626049295456113
30
0
41
1
10
55.4834573572242
20
0.422081557178899
30
0
41
1
10
56.2417286786122
20
0.213397914682531
30
0
41
1
10
57.0000000000001
20
-2.84E-14
30
0
0
SPLINE
5
103
100
AcDbEntity
8
1
62
256
6
ByLayer
370
13
48
1
60
0
100
AcDbSpline
70
4
71
3
72
8
73
4
40
0
40
0
40
0
40
0
40
1
40
1
40
1
40
1
41
1
10
54.7251860358362
20
-4.2056557276957
30
0
41
1
10
55.4834573572241
20
-2.80727620560572
30
0
41
1
10
56.2417286786121
20
-1.40538733279556
30
0
41
1
10
57.0000000000001
20
1.99E-13
30
0
0
SPLINE
5
104
100
AcDbEntity
8
1
62
256
6
ByLayer
370
13
48
1
60
0
100
AcDbSpline
70
4
71
3
72
8
73
4
40
0
40
0
40
0
40
0
40
1
40
1
40
1
40
1
41
1
10
54.7251860358363
20
1.80477838521796
30
0
41
1
10
55.4834573572241
20
1.20772289685641
30
0
41
1
10
56.241728678612
20
0.606128541316423
30
0
41
1
10
57
20
0
30
0
0
SPLINE
5
105
100
AcDbEntity
8
1
62
256
6
ByLayer
370
13
48
1
60
0
100
AcDbSpline
70
4
71
3
72
8
73
4
40
0
40
0
40
0
40
0
40
1
40
1
40
1
40
1
41
1
10
54.7251860358362
20
-3.88147517721768
30
0
41
1
10
55.4834573572241
20
-2.5839356217304
30
0
41
1
10
56.2417286786121
20
-1.29010721823374
30
0
41
1
10
57.0000000000001
20
1.705E-13
30
0
0
SPLINE
5
106
100
AcDbEntity
8
1
62
256
6
ByLayer
370
13
48
1
60
0
100
AcDbSpline
70
4
71
3
72
8
73
4
40
0
40
0
40
0
40
0
40
1
40
1
40
1
40
1
41
1
10
54.7251860358364
20
0.201659935548037
30
0
41
1
10
55.4834573572242
20
0.12970322882893
30
0
41
1
10
56.241728678612
20
0.06248308047401
30
0
41
1
10
56.9999999999999
20
0
30
0
0
SPLINE
5
107
100
AcDbEntity
8
1
62
256
6
ByLayer
370
13
48
1
60
0
100
AcDbSpline
70
4
71
3
72
8
73
4
40
0
40
0
40
0
40
0
40
1
40
1
40
1
40
1
41
1
10
54.7251860358362
20
-2.87205084791466
30
0
41
1
10
55.4834573572241
20
-1.91049138594545
30
0
41
1
10
56.241728678612
20
-0.953138629900678
30
0
41
1
10
57
20
-2.84E-14
30
0
0
SPLINE
5
108
100
AcDbEntity
8
1
62
256
6
ByLayer
370
13
48
1
60
0
100
AcDbSpline
70
4
71
3
72
8
73
4
40
0
40
0
40
0
40
0
40
1
40
1
40
1
40
1
41
1
10
54.7251860358364
20
-0.997767546560539
30
0
41
1
10
55.4834573572242
20
-0.669856779210818
30
0
41
1
10
56.241728678612
20
-0.337266732451724
30
0
41
1
10
56.9999999999999
20
-5.68E-14
30
0
0
SPLINE
5
109
100
AcDbEntity
8
1
62
256
6
ByLayer
370
13
48
1
60
0
100
AcDbSpline
70
4
71
3
72
8
73
4
40
0
40
0
40
0
40
0
40
1
40
1
40
1
40
1
41
1
10
54.7251860358364
20
4.49509103719055
30
0
41
1
10
55.4834573572242
20
2.99343462163708
30
0
41
1
10
56.241728678612
20
1.49506706856505
30
0
41
1
10
56.9999999999999
20
2.558E-13
30
0
0
SPLINE
5
10A
100
AcDbEntity
8
1
62
256
6
ByLayer
370
13
48
1
60
0
100
AcDbSpline
70
4
71
3
72
8
73
4
40
0
40
0
40
0
40
0
40
1
40
1
40
1
40
1
41
1
10
54.7251860358362
20
-5.92693048148485
30
0
41
1
10
55.4834573572241
20
-3.94978300947341
30
0
41
1
10
56.2417286786121
20
-1.97413440518554
30
0
41
1
10
57.0000000000001
20
2.558E-13
30
0
0
SPLINE
5
10B
100
AcDbEntity
8
1
62
256
6
ByLayer
370
13
48
1
60
0
100
AcDbSpline
70
4
71
3
72
8
73
4
40
0
40
0
40
0
40
0
40
1
40
1
40
1
40
1
41
1
10
54.7251860358363
20
5.94274806813556
30
0
41
1
10
55.4834573572241
20
3.96329969624551
30
0
41
1
10
56.241728678612
20
1.9823785468692
30
0
41
1
10
57
20
2.84E-14
30
0
0
SPLINE
5
10C
100
AcDbEntity
8
1
62
256
6
ByLayer
370
13
48
1
60
0
100
AcDbSpline
70
4
71
3
72
8
73
4
40
0
40
0
40
0
40
0
40
1
40
1
40
1
40
1
41
1
10
54.7251860358362
20
-5.43768957980618
30
0
41
1
10
55.4834573572241
20
-3.62278997158361
30
0
41
1
10
56.2417286786121
20
-1.81022209052532
30
0
41
1
10
57.0000000000001
20
2.558E-13
30
0
0
SPLINE
5
10D
100
AcDbEntity
8
1
62
256
6
ByLayer
370
13
48
1
60
0
100
AcDbSpline
70
4
71
3
72
8
73
4
40
0
40
0
40
0
40
0
40
1
40
1
40
1
40
1
41
1
10
54.7251860358362
20
-5.63466097664087
30
0
41
1
10
55.4834573572241
20
-3.75849122420635
30
0
41
1
10
56.2417286786121
20
-1.8802660372057
30
0
41
1
10
57.0000000000001
20
2.558E-13
30
0
0
SPLINE
5
10E
100
AcDbEntity
8
1
62
256
6
ByLayer
370
13
48
1
60
0
100
AcDbSpline
70
4
71
3
72
8
73
4
40
0
40
0
40
0
40
0
40
1
40
1
40
1
40
1
41
1
10
54.7251860358364
20
6.13714236487706
30
0
41
1
10
55.4834573572242
20
4.09053169087082
30
0
41
1
10
56.241728678612
20
2.04481227696198
30
0
41
1
10
56.9999999999999
20
3.411E-13
30
0
0
SPLINE
5
10F
100
AcDbEntity
8
1
62
256
6
ByLayer
370
13
48
1
60
0
100
AcDbSpline
70
4
71
3
72
8
73
4
40
0
40
0
40
0
40
0
40
1
40
1
40
1
40
1
41
1
10
54.7251860358363
20
-0.575831243282551
30
0
41
1
10
55.4834573572241
20
-0.379168456936867
30
0
41
1
10
56.241728678612
20
-0.18722421661306
30
0
41
1
10
56.9999999999999
20
-2.84E-14
30
0
0
SPLINE
5
110
100
AcDbEntity
8
1
62
256
6
ByLayer
370
13
48
1
60
0
100
AcDbSpline
70
4
71
3
72
8
73
4
40
0
40
0
40
0
40
0
40
1
40
1
40
1
40
1
41
1
10
54.7251860358364
20
5.79734794545215
30
0
41
1
10
55.4834573572242
20
3.86312789924
30
0
41
1
10
56.241728678612
20
1.9306735856201
30
0
41
1
10
56.9999999999999
20
3.126E-13
30
0
0
SPLINE
5
111
100
AcDbEntity
8
1
62
256
6
ByLayer
370
13
48
1
60
0
100
AcDbSpline
70
4
71
3
72
8
73
4
40
0
40
0
40
0
40
0
40
1
40
1
40
1
40
1
41
1
10
54.7251860358364
20
1.39362998620129
30
0
41
1
10
55.4834573572242
20
0.924466781212317
30
0
41
1
10
56.241728678612
20
0.459922254509138
30
0
41
1
10
56.9999999999999
20
8.53E-14
30
0
0
LINE
5
7D
100
AcDbEntity
8
81
62
256
6
ByLayer
370
18
48
1
60
0
100
AcDbLine
10
57
20
0
30
0
11
62
21
0
31
0
39
0
210
0
220
0
230
1
0
LINE
5
7E
100
AcDbEntity
8
80
62
256
6
ByLayer
370
18
48
1
60
0
100
AcDbLine
10
0
20
0
30
0
11
-5
21
0
31
0
39
0
210
0
220
0
230
1
0
LINE
5
7F
100
AcDbEntity
8
4
62
256
6
ByLayer
370
18
48
0.05
60
0
100
AcDbLine
10
-5
20
0
30
0
11
62
21
0
31
0
39
0
210
0
220
0
230
1
0
LINE
5
81
100
AcDbEntity
8
SK4
62
256
6
ByLayer
370
18
48
0.05
60
0
100
AcDbLine
10
-53
20
0
30
0
11
62
21
0
31
0
39
0
210
0
220
0
230
1
0
LINE
5
83
100
AcDbEntity
8
1
62
256
6
ByLayer
370
18
48
1
60
0
100
AcDbLine
10
10
20
-6.1
30
0
11
25.136721
21
-6.1
31
0
39
0
210
0
220
0
230
1
0
LINE
5
84
100
AcDbEntity
8
1
62
256
6
ByLayer
370
18
48
1
60
0
100
AcDbLine
10
25.136721
20
6.1
30
0
11
10
21
6.1
31
0
39
0
210
0
220
0
230
1
0
LINE
5
85
100
AcDbEntity
8
1
62
256
6
ByLayer
370
18
48
1
60
0
100
AcDbLine
10
57
20
0
30
0
11
54.725186
21
6.25
31
0
39
0
210
0
220
0
230
1
0
LINE
5
86
100
AcDbEntity
8
1
62
256
6
ByLayer
370
18
48
1
60
0
100
AcDbLine
10
54.725186
20
-6.25
30
0
11
57
21
0
31
0
39
0
210
0
220
0
230
1
0
LINE
5
87
100
AcDbEntity
8
1
62
256
6
ByLayer
370
18
48
1
60
0
100
AcDbLine
10
10
20
6.1
30
0
11
0
21
8
31
0
39
0
210
0
220
0
230
1
0
LINE
5
88
100
AcDbEntity
8
1
62
256
6
ByLayer
370
18
48
1
60
0
100
AcDbLine
10
0
20
-8
30
0
11
10
21
-6.1
31
0
39
0
210
0
220
0
230
1
0
LINE
5
89
100
AcDbEntity
8
1
62
256
6
ByLayer
370
18
48
1
60
0
100
AcDbLine
10
47.6
20
-6.25
30
0
11
54.725186
21
-6.25
31
0
39
0
210
0
220
0
230
1
0
LINE
5
8A
100
AcDbEntity
8
1
62
256
6
ByLayer
370
18
48
1
60
0
100
AcDbLine
10
57
20
0
30
0
11
54.725186
21
6.25
31
0
39
0
210
0
220
0
230
1
0
LINE
5
8B
100
AcDbEntity
8
1
62
256
6
ByLayer
370
18
48
1
60
0
100
AcDbLine
10
54.725186
20
-6.25
30
0
11
57
21
0
31
0
39
0
210
0
220
0
230
1
0
LINE
5
8C
100
AcDbEntity
8
SK1
62
256
6
ByLayer
370
18
48
1
60
0
100
AcDbLine
10
-47
20
-8
30
0
11
0
21
-8
31
0
39
0
210
0
220
0
230
1
0
LINE
5
8E
100
AcDbEntity
8
SK1
62
256
6
ByLayer
370
18
48
1
60
0
100
AcDbLine
10
0
20
8
30
0
11
-47
21
8
31
0
39
0
210
0
220
0
230
1
0
LINE
5
8F
100
AcDbEntity
8
SK1
62
256
6
ByLayer
370
18
48
1
60
0
100
AcDbLine
10
-48
20
-7
30
0
11
-47
21
-8
31
0
39
0
210
0
220
0
230
1
0
LINE
5
90
100
AcDbEntity
8
SK1
62
256
6
ByLayer
370
18
48
1
60
0
100
AcDbLine
10
-47
20
8
30
0
11
-48
21
7
31
0
39
0
210
0
220
0
230
1
0
LINE
5
91
100
AcDbEntity
8
1
62
256
6
ByLayer
370
18
48
1
60
0
100
AcDbLine
10
0
20
8
30
0
11
0
21
-8
31
0
39
0
210
0
220
0
230
1
0
LINE
5
92
100
AcDbEntity
8
1
62
256
6
ByLayer
370
18
48
1
60
0
100
AcDbLine
10
54.725186
20
6.25
30
0
11
54.725186
21
6.051517
31
0
39
0
210
0
220
0
230
1
0
LINE
5
93
100
AcDbEntity
8
1
62
256
6
ByLayer
370
18
48
1
60
0
100
AcDbLine
10
54.725186
20
-6.25
30
0
11
54.725186
21
-0.891655
31
0
39
0
210
0
220
0
230
1
0
LINE
5
94
100
AcDbEntity
8
1
62
256
6
ByLayer
370
18
48
1
60
0
100
AcDbLine
10
10
20
-6.1
30
0
11
10
21
-3.793191
31
0
39
0
210
0
220
0
230
1
0
LINE
5
95
100
AcDbEntity
8
1
62
256
6
ByLayer
370
18
48
1
60
0
100
AcDbLine
10
10
20
3.755289
30
0
11
10
21
6.1
31
0
39
0
210
0
220
0
230
1
0
LINE
5
96
100
AcDbEntity
8
SK1
62
256
6
ByLayer
370
13
48
1
60
0
100
AcDbLine
10
-14.956081
20
-5.420003
30
0
11
-14.956081
21
5.420003
31
0
39
0
210
0
220
0
230
1
0
LINE
5
97
100
AcDbEntity
8
SK1
62
256
6
ByLayer
370
13
48
1
60
0
100
AcDbLine
10
-40.20852
20
4.268613
30
0
11
-40.20852
21
-4.268613
31
0
39
0
210
0
220
0
230
1
0
LINE
5
98
100
AcDbEntity
8
SK1
62
256
6
ByLayer
370
13
48
1
60
0
100
AcDbLine
10
-13.809044
20
4.913811
30
0
11
-13.809044
21
-4.913811
31
0
39
0
210
0
220
0
230
1
0
LINE
5
99
100
AcDbEntity
8
SK1
62
256
6
ByLayer
370
18
48
1
60
0
100
AcDbLine
10
0
20
8
30
0
11
0
21
-8
31
0
39
0
210
0
220
0
230
1
0
LINE
5
9A
100
AcDbEntity
8
SK1
62
256
6
ByLayer
370
18
48
1
60
0
100
AcDbLine
10
-48
20
-7
30
0
11
-48
21
7
31
0
39
0
210
0
220
0
230
1
0
LINE
5
9B
100
AcDbEntity
8
SK1
62
256
6
ByLayer
370
18
48
1
60
0
100
AcDbLine
10
-47
20
-8
30
0
11
-47
21
8
31
0
39
0
210
0
220
0
230
1
0
LINE
5
9C
100
AcDbEntity
8
SK1
62
256
6
ByLayer
370
13
48
1
60
0
100
AcDbLine
10
-41.322847
20
-3.330349
30
0
11
-41.322847
21
3.330349
31
0
39
0
210
0
220
0
230
1
0
LINE
5
9D
100
AcDbEntity
8
1
62
256
6
ByLayer
370
18
48
1
60
0
100
AcDbLine
10
54.725186
20
6.25
30
0
11
54.725186
21
-6.25
31
0
39
0
210
0
220
0
230
1
0
LINE
5
9E
100
AcDbEntity
8
1
62
256
6
ByLayer
370
18
48
1
60
0
100
AcDbLine
10
54.725186
20
6.25
30
0
11
54.725186
21
-6.25
31
0
39
0
210
0
220
0
230
1
0
LINE
5
9F
100
AcDbEntity
8
1
62
256
6
ByLayer
370
18
48
1
60
0
100
AcDbLine
10
54.725186
20
6.25
30
0
11
54.725186
21
-6.25
31
0
39
0
210
0
220
0
230
1
0
LINE
5
A0
100
AcDbEntity
8
1
62
256
6
ByLayer
370
18
48
1
60
0
100
AcDbLine
10
47.6
20
6.25
30
0
11
47.6
21
-6.25
31
0
39
0
210
0
220
0
230
1
0
LINE
5
A1
100
AcDbEntity
8
1
62
256
6
ByLayer
370
18
48
1
60
0
100
AcDbLine
10
47.6
20
6.25
30
0
11
47.6
21
-6.25
31
0
39
0
210
0
220
0
230
1
0
LINE
5
A2
100
AcDbEntity
8
1
62
256
6
ByLayer
370
18
48
1
60
0
100
AcDbLine
10
54.725186
20
6.25
30
0
11
54.725186
21
-6.25
31
0
39
0
210
0
220
0
230
1
0
LINE
5
A3
100
AcDbEntity
8
1
62
256
6
ByLayer
370
18
48
1
60
0
100
AcDbLine
10
47.6
20
6.25
30
0
11
47.6
21
-6.25
31
0
39
0
210
0
220
0
230
1
0
LINE
5
A4
100
AcDbEntity
8
1
62
256
6
ByLayer
370
18
48
1
60
0
100
AcDbLine
10
54.725186
20
6.25
30
0
11
54.725186
21
-6.25
31
0
39
0
210
0
220
0
230
1
0
LINE
5
A5
100
AcDbEntity
8
SK2
62
256
6
ByLayer
370
13
48
1
60
0
100
AcDbLine
10
-54.5
20
-8
30
0
11
-54.5
21
36.274683
31
0
39
0
210
0
220
0
230
1
0
LINE
5
A7
100
AcDbEntity
8
SK2
62
256
6
ByLayer
370
13
48
1
60
0
100
AcDbLine
10
-49.5875
20
8
30
0
11
-56.5
21
8
31
0
39
0
210
0
220
0
230
1
0
LINE
5
A8
100
AcDbEntity
8
SK2
62
256
6
ByLayer
370
13
48
1
60
0
100
AcDbLine
10
-49.5875
20
-8
30
0
11
-56.5
21
-8
31
0
39
0
210
0
220
0
230
1
0
LINE
5
A9
100
AcDbEntity
8
1
62
256
6
ByLayer
370
18
48
1
60
1
100
AcDbLine
10
-54.5
20
8
30
0
11
-54.039216
21
4.500002
31
0
39
0
210
0
220
0
230
1
0
LINE
5
AA
100
AcDbEntity
8
1
62
256
6
ByLayer
370
18
48
1
60
1
100
AcDbLine
10
-54.039216
20
4.500002
30
0
11
-54.960784
21
4.499998
31
0
39
0
210
0
220
0
230
1
0
LINE
5
AB
100
AcDbEntity
8
1
62
256
6
ByLayer
370
18
48
1
60
1
100
AcDbLine
10
-54.960784
20
4.499998
30
0
11
-54.5
21
8
31
0
39
0
210
0
220
0
230
1
0
LINE
5
AC
100
AcDbEntity
8
1
62
256
6
ByLayer
370
18
48
1
60
1
100
AcDbLine
10
-54.5
20
-8
30
0
11
-54.960784
21
-4.500002
31
0
39
0
210
0
220
0
230
1
0
LINE
5
AD
100
AcDbEntity
8
1
62
256
6
ByLayer
370
18
48
1
60
1
100
AcDbLine
10
-54.960784
20
-4.500002
30
0
11
-54.039216
21
-4.499998
31
0
39
0
210
0
220
0
230
1
0
LINE
5
AE
100
AcDbEntity
8
1
62
256
6
ByLayer
370
18
48
1
60
1
100
AcDbLine
10
-54.039216
20
-4.499998
30
0
11
-54.5
21
-8
31
0
39
0
210
0
220
0
230
1
0
LINE
5
AF
100
AcDbEntity
8
2
62
256
6
ByLayer
370
13
48
1
60
0
100
AcDbLine
10
64.5
20
-6.25
30
0
11
64.5
21
34.524683
31
0
39
0
210
0
220
0
230
1
0
LINE
5
B1
100
AcDbEntity
8
2
62
256
6
ByLayer
370
13
48
1
60
0
100
AcDbLine
10
56.312686
20
6.25
30
0
11
66.5
21
6.25
31
0
39
0
210
0
220
0
230
1
0
LINE
5
B2
100
AcDbEntity
8
2
62
256
6
ByLayer
370
13
48
1
60
0
100
AcDbLine
10
56.312686
20
-6.25
30
0
11
66.5
21
-6.25
31
0
39
0
210
0
220
0
230
1
0
LINE
5
B3
100
AcDbEntity
8
1
62
256
6
ByLayer
370
18
48
1
60
1
100
AcDbLine
10
64.5
20
6.25
30
0
11
64.960784
21
2.750002
31
0
39
0
210
0
220
0
230
1
0
LINE
5
B4
100
AcDbEntity
8
1
62
256
6
ByLayer
370
18
48
1
60
1
100
AcDbLine
10
64.960784
20
2.750002
30
0
11
64.039216
21
2.749998
31
0
39
0
210
0
220
0
230
1
0
LINE
5
B5
100
AcDbEntity
8
1
62
256
6
ByLayer
370
18
48
1
60
1
100
AcDbLine
10
64.039216
20
2.749998
30
0
11
64.5
21
6.25
31
0
39
0
210
0
220
0
230
1
0
LINE
5
B6
100
AcDbEntity
8
1
62
256
6
ByLayer
370
18
48
1
60
1
100
AcDbLine
10
64.5
20
-6.25
30
0
11
64.039216
21
-2.750002
31
0
39
0
210
0
220
0
230
1
0
LINE
5
B7
100
AcDbEntity
8
1
62
256
6
ByLayer
370
18
48
1
60
1
100
AcDbLine
10
64.039216
20
-2.750002
30
0
11
64.960784
21
-2.749998
31
0
39
0
210
0
220
0
230
1
0
LINE
5
B8
100
AcDbEntity
8
1
62
256
6
ByLayer
370
18
48
1
60
1
100
AcDbLine
10
64.960784
20
-2.749998
30
0
11
64.5
21
-6.25
31
0
39
0
210
0
220
0
230
1
0
LINE
5
B9
100
AcDbEntity
8
SK2
62
256
6
ByLayer
370
13
48
1
60
0
100
AcDbLine
10
57.542957
20
-1.491762
30
0
11
64.182423
21
-19.733545
31
0
39
0
210
0
220
0
230
1
0
LINE
5
BA
100
AcDbEntity
8
SK2
62
256
6
ByLayer
370
13
48
1
60
0
100
AcDbLine
10
57.542957
20
1.491762
30
0
11
64.182423
21
19.733545
31
0
39
0
210
0
220
0
230
1
0
LINE
5
BB
100
AcDbEntity
8
1
62
256
6
ByLayer
370
18
48
1
60
1
100
AcDbLine
10
63.498383
20
-17.85416
30
0
11
66.551575
21
-16.082064
31
0
39
0
210
0
220
0
230
1
0
LINE
5
BC
100
AcDbEntity
8
1
62
256
6
ByLayer
370
18
48
1
60
1
100
AcDbLine
10
66.551575
20
-16.082064
30
0
11
66.906196
21
-16.93267
31
0
39
0
210
0
220
0
230
1
0
LINE
5
BD
100
AcDbEntity
8
1
62
256
6
ByLayer
370
18
48
1
60
1
100
AcDbLine
10
66.906196
20
-16.93267
30
0
11
63.498383
21
-17.85416
31
0
39
0
210
0
220
0
230
1
0
LINE
5
BE
100
AcDbEntity
8
1
62
256
6
ByLayer
370
18
48
1
60
1
100
AcDbLine
10
63.498383
20
17.85416
30
0
11
66.906193
21
16.932671
31
0
39
0
210
0
220
0
230
1
0
LINE
5
BF
100
AcDbEntity
8
1
62
256
6
ByLayer
370
18
48
1
60
1
100
AcDbLine
10
66.906193
20
16.932671
30
0
11
66.551579
21
16.082063
31
0
39
0
210
0
220
0
230
1
0
LINE
5
C0
100
AcDbEntity
8
1
62
256
6
ByLayer
370
18
48
1
60
1
100
AcDbLine
10
66.551579
20
16.082063
30
0
11
63.498383
21
17.85416
31
0
39
0
210
0
220
0
230
1
0
LINE
5
116
100
AcDbEntity
8
1
62
256
6
ByLayer
370
18
48
1
60
1
100
AcDbLine
10
-54.5
20
8
30
0
11
-54.039216
21
4.500002
31
0
39
0
210
0
220
0
230
1
0
LINE
5
117
100
AcDbEntity
8
1
62
256
6
ByLayer
370
18
48
1
60
1
100
AcDbLine
10
-54.039216
20
4.500002
30
0
11
-54.960784
21
4.499998
31
0
39
0
210
0
220
0
230
1
0
LINE
5
118
100
AcDbEntity
8
1
62
256
6
ByLayer
370
18
48
1
60
1
100
AcDbLine
10
-54.960784
20
4.499998
30
0
11
-54.5
21
8
31
0
39
0
210
0
220
0
230
1
0
LINE
5
11A
100
AcDbEntity
8
1
62
256
6
ByLayer
370
18
48
1
60
1
100
AcDbLine
10
-54.5
20
-8
30
0
11
-54.960784
21
-4.500002
31
0
39
0
210
0
220
0
230
1
0
LINE
5
11B
100
AcDbEntity
8
1
62
256
6
ByLayer
370
18
48
1
60
1
100
AcDbLine
10
-54.960784
20
-4.500002
30
0
11
-54.039216
21
-4.499998
31
0
39
0
210
0
220
0
230
1
0
LINE
5
11C
100
AcDbEntity
8
1
62
256
6
ByLayer
370
18
48
1
60
1
100
AcDbLine
10
-54.039216
20
-4.499998
30
0
11
-54.5
21
-8
31
0
39
0
210
0
220
0
230
1
0
LINE
5
120
100
AcDbEntity
8
1
62
256
6
ByLayer
370
18
48
1
60
1
100
AcDbLine
10
64.5
20
6.25
30
0
11
64.960784
21
2.750002
31
0
39
0
210
0
220
0
230
1
0
LINE
5
121
100
AcDbEntity
8
1
62
256
6
ByLayer
370
18
48
1
60
1
100
AcDbLine
10
64.960784
20
2.750002
30
0
11
64.039216
21
2.749998
31
0
39
0
210
0
220
0
230
1
0
LINE
5
122
100
AcDbEntity
8
1
62
256
6
ByLayer
370
18
48
1
60
1
100
AcDbLine
10
64.039216
20
2.749998
30
0
11
64.5
21
6.25
31
0
39
0
210
0
220
0
230
1
0
LINE
5
124
100
AcDbEntity
8
1
62
256
6
ByLayer
370
18
48
1
60
1
100
AcDbLine
10
64.5
20
-6.25
30
0
11
64.039216
21
-2.750002
31
0
39
0
210
0
220
0
230
1
0
LINE
5
125
100
AcDbEntity
8
1
62
256
6
ByLayer
370
18
48
1
60
1
100
AcDbLine
10
64.039216
20
-2.750002
30
0
11
64.960784
21
-2.749998
31
0
39
0
210
0
220
0
230
1
0
LINE
5
126
100
AcDbEntity
8
1
62
256
6
ByLayer
370
18
48
1
60
1
100
AcDbLine
10
64.960784
20
-2.749998
30
0
11
64.5
21
-6.25
31
0
39
0
210
0
220
0
230
1
0
LINE
5
129
100
AcDbEntity
8
1
62
256
6
ByLayer
370
18
48
1
60
1
100
AcDbLine
10
63.498383
20
-17.85416
30
0
11
66.551575
21
-16.082064
31
0
39
0
210
0
220
0
230
1
0
LINE
5
12A
100
AcDbEntity
8
1
62
256
6
ByLayer
370
18
48
1
60
1
100
AcDbLine
10
66.551575
20
-16.082064
30
0
11
66.906196
21
-16.93267
31
0
39
0
210
0
220
0
230
1
0
LINE
5
12B
100
AcDbEntity
8
1
62
256
6
ByLayer
370
18
48
1
60
1
100
AcDbLine
10
66.906196
20
-16.93267
30
0
11
63.498383
21
-17.85416
31
0
39
0
210
0
220
0
230
1
0
LINE
5
12D
100
AcDbEntity
8
1
62
256
6
ByLayer
370
18
48
1
60
1
100
AcDbLine
10
63.498383
20
17.85416
30
0
11
66.906193
21
16.932671
31
0
39
0
210
0
220
0
230
1
0
LINE
5
12E
100
AcDbEntity
8
1
62
256
6
ByLayer
370
18
48
1
60
1
100
AcDbLine
10
66.906193
20
16.932671
30
0
11
66.551579
21
16.082063
31
0
39
0
210
0
220
0
230
1
0
LINE
5
12F
100
AcDbEntity
8
1
62
256
6
ByLayer
370
18
48
1
60
1
100
AcDbLine
10
66.551579
20
16.082063
30
0
11
63.498383
21
17.85416
31
0
39
0
210
0
220
0
230
1
0
MTEXT
5
112
100
AcDbEntity
8
SK2
62
256
6
ByLayer
370
18
48
1
60
0
100
AcDbMText
10
-55.841114
20
19.658438
30
0
210
0
220
0
230
1
1
%%c
40
3
41
0
44
1.084337
50
90
71
7
72
5
7
iso_b_vert
0
MTEXT
5
115
100
AcDbEntity
8
SK2
62
256
6
ByLayer
370
18
48
1
60
0
100
AcDbMText
10
-55.841114
20
25.635
30
0
210
0
220
0
230
1
1
\W0.7022;16.000
40
3
41
0
44
1.084337
50
90
71
7
72
5
7
iso_b_vert
0
MTEXT
5
11E
100
AcDbEntity
8
2
62
256
6
ByLayer
370
18
48
1
60
0
100
AcDbMText
10
63.158886
20
17.908438
30
0
210
0
220
0
230
1
1
%%c
40
3
41
0
44
1.084337
50
90
71
7
72
5
7
iso_b_vert
0
MTEXT
5
11F
100
AcDbEntity
8
2
62
256
6
ByLayer
370
18
48
1
60
0
100
AcDbMText
10
63.158886
20
23.885
30
0
210
0
220
0
230
1
1
\W0.7022;12.500
40
3
41
0
44
1.084337
50
90
71
7
72
5
7
iso_b_vert
0
MTEXT
5
128
100
AcDbEntity
8
SK2
62
256
6
ByLayer
370
18
48
1
60
0
100
AcDbMText
10
76.909114
20
3.734657
30
0
210
0
220
0
230
1
1
\W0.7071;140%%d
40
3
41
0
44
1.084337
50
270
71
7
72
5
7
iso_b_vert
0
MTEXT
5
131
100
AcDbEntity
8
SK6
62
256
6
ByLayer
370
18
48
1
60
0
100
AcDbMText
10
-19.037254
20
-67.114886
30
0
210
0
220
0
230
1
1
\W0.7358;H85312.5
40
3
41
0
44
1.084337
50
0
71
7
72
5
7
iso_b_vert
0
HATCH
5
119
100
AcDbEntity
8
SK2
62
256
6
ByLayer
370
13
48
1
60
0
100
AcDbHatch
10
0
20
0
30
0
210
0
220
0
230
1
2
ANSI31
70
0
71
0
91
1
92
5
93
3
72
1
10
-54.5
20
8
11
-54.0392162584472
21
4.50000169255318
72
1
10
-54.0392162584472
20
4.50000169255318
11
-54.9607837415528
21
4.49999830744682
72
1
10
-54.9607837415528
20
4.49999830744682
11
-54.5
21
8
97
0
75
0
76
1
52
0
41
0.0062
77
0
78
1
53
45
43
0
44
0
45
-0.0139193969876572
46
0.0139193969876572
79
0
47
0
98
1
10
0
20
0
0
HATCH
5
11D
100
AcDbEntity
8
SK2
62
256
6
ByLayer
370
13
48
1
60
0
100
AcDbHatch
10
0
20
0
30
0
210
0
220
0
230
1
2
ANSI31
70
0
71
0
91
1
92
5
93
3
72
1
10
-54.5
20
-8
11
-54.9607837415528
21
-4.50000169255318
72
1
10
-54.9607837415528
20
-4.50000169255318
11
-54.0392162584472
21
-4.49999830744682
72
1
10
-54.0392162584472
20
-4.49999830744682
11
-54.5
21
-8
97
0
75
0
76
1
52
0
41
0.0062
77
0
78
1
53
45
43
0
44
0
45
-0.0139193969876572
46
0.0139193969876572
79
0
47
0
98
1
10
0
20
0
0
HATCH
5
123
100
AcDbEntity
8
2
62
256
6
ByLayer
370
13
48
1
60
0
100
AcDbHatch
10
0
20
0
30
0
210
0
220
0
230
1
2
ANSI31
70
0
71
0
91
1
92
5
93
3
72
1
10
64.5
20
6.25
11
64.9607837415528
21
2.75000169255318
72
1
10
64.9607837415528
20
2.75000169255318
11
64.0392162584472
21
2.74999830744682
72
1
10
64.0392162584472
20
2.74999830744682
11
64.5
21
6.25
97
0
75
0
76
1
52
0
41
0.0062
77
0
78
1
53
45
43
0
44
0
45
-0.0139193969876572
46
0.0139193969876572
79
0
47
0
98
1
10
0
20
0
0
HATCH
5
127
100
AcDbEntity
8
2
62
256
6
ByLayer
370
13
48
1
60
0
100
AcDbHatch
10
0
20
0
30
0
210
0
220
0
230
1
2
ANSI31
70
0
71
0
91
1
92
5
93
3
72
1
10
64.5
20
-6.25
11
64.0392162584472
21
-2.75000169255318
72
1
10
64.0392162584472
20
-2.75000169255318
11
64.9607837415528
21
-2.74999830744682
72
1
10
64.9607837415528
20
-2.74999830744682
11
64.5
21
-6.25
97
0
75
0
76
1
52
0
41
0.0062
77
0
78
1
53
45
43
0
44
0
45
-0.0139193969876572
46
0.0139193969876572
79
0
47
0
98
1
10
0
20
0
0
HATCH
5
12C
100
AcDbEntity
8
SK2
62
256
6
ByLayer
370
13
48
1
60
0
100
AcDbHatch
10
0
20
0
30
0
210
0
220
0
230
1
2
ANSI31
70
0
71
0
91
1
92
5
93
3
72
1
10
63.4983827231877
20
-17.8541597949322
11
66.5515754256929
21
-16.0820638240608
72
1
10
66.5515754256929
20
-16.0820638240608
11
66.906195833975
21
-16.9326700737196
72
1
10
66.906195833975
20
-16.9326700737196
11
63.4983827231877
21
-17.8541597949322
97
0
75
0
76
1
52
0
41
0.0062
77
0
78
1
53
45
43
0
44
0
45
-0.0139193969876572
46
0.0139193969876572
79
0
47
0
98
1
10
0
20
0
0
HATCH
5
130
100
AcDbEntity
8
SK2
62
256
6
ByLayer
370
13
48
1
60
0
100
AcDbHatch
10
0
20
0
30
0
210
0
220
0
230
1
2
ANSI31
70
0
71
0
91
1
92
5
93
3
72
1
10
63.4983827231877
20
17.8541597949322
11
66.906192709519
21
16.9326713763016
72
1
10
66.906192709519
20
16.9326713763016
11
66.5515785501489
21
16.0820625214788
72
1
10
66.5515785501489
20
16.0820625214788
11
63.4983827231877
21
17.8541597949322
97
0
75
0
76
1
52
0
41
0.0062
77
0
78
1
53
45
43
0
44
0
45
-0.0139193969876572
46
0.0139193969876572
79
0
47
0
98
1
10
0
20
0
0
DIMENSION
5
134
100
AcDbEntity
8
SK2
62
256
6
ByLayer
370
18
48
1
60
0
100
AcDbDimension
2
_U0
10
57
20
-45.952229
30
0
11
4.5
21
-45.952229
31
0
70
32
71
1
72
1
41
1
210
0
220
0
230
1
3
Standard
100
AcDbAlignedDimension
13
-48
23
-8
33
0
14
57
24
0
34
0
50
0
100
AcDbRotatedDimension
1001
ACAD
1000
DSTYLE
1002
{
1070
   371
1070
    13
1070
   372
1070
    13
1070
     3
1000

1070
   170
1070
     0
1070
   144
1040
1.0
1070
   277
1070
     2
1070
   284
1070
     8
1070
   278
1070
    46
1070
   146
1040
1.166667
1070
   345
1005
16
1070
   347
1005
16
1070
   346
1005
16
1070
   344
1005
0
1070
   343
1005
0
1070
   172
1070
     1
1070
    76
1070
     0
1070
    75
1070
     0
1070
   282
1070
     0
1070
   281
1070
     0
1070
    71
1070
     0
1070
    74
1070
     0
1070
   279
1070
     0
1070
   173
1070
     1
1070
   340
1005
113
1070
   271
1070
     2
1070
   272
1070
     3
1070
    77
1070
     1
1070
    73
1070
     1
1070
   171
1070
     3
1070
   274
1070
     4
1070
   177
1070
     2
1070
   176
1070
     2
1070
   178
1070
     2
1070
    78
1070
     8
1070
    48
1040
-0.1
1070
    41
1040
3.5
1070
   147
1040
1.5
1070
    42
1040
1.5875
1070
    44
1040
2.0
1070
   140
1040
3.0
1002
}
1001
ACAD_DSTYLE_DIM_LINETYPE
1070
   380
1005
16
1001
ACAD_DSTYLE_DIM_EXT1_LINETYPE
1070
   381
1005
16
1001
ACAD_DSTYLE_DIM_EXT2_LINETYPE
1070
   382
1005
16
0
DIMENSION
5
14D
100
AcDbEntity
8
SK2
62
256
6
ByLayer
370
18
48
1
60
0
100
AcDbDimension
2
_U1
10
3
20
-35.952229
30
0
11
30
21
-35.952229
31
0
70
32
71
1
72
1
41
1
210
0
220
0
230
1
3
Standard
100
AcDbAlignedDimension
13
57
23
0
33
0
14
3
24
-6.25
34
0
50
0
100
AcDbRotatedDimension
1001
ACAD
1000
DSTYLE
1002
{
1070
   371
1070
    13
1070
   372
1070
    13
1070
     3
1000

1070
   170
1070
     0
1070
   144
1040
1.0
1070
   277
1070
     2
1070
   284
1070
     8
1070
   278
1070
    46
1070
   146
1040
1.166667
1070
   345
1005
16
1070
   347
1005
16
1070
   346
1005
16
1070
   344
1005
0
1070
   343
1005
0
1070
   172
1070
     1
1070
    76
1070
     0
1070
    75
1070
     0
1070
   282
1070
     0
1070
   281
1070
     0
1070
    71
1070
     0
1070
    74
1070
     0
1070
   279
1070
     0
1070
   173
1070
     1
1070
   340
1005
113
1070
   271
1070
     2
1070
   272
1070
     3
1070
    77
1070
     1
1070
    73
1070
     1
1070
   171
1070
     3
1070
   274
1070
     4
1070
   177
1070
     2
1070
   176
1070
     2
1070
   178
1070
     2
1070
    78
1070
     8
1070
    48
1040
-0.1
1070
    41
1040
3.5
1070
   147
1040
1.5
1070
    42
1040
1.5875
1070
    44
1040
2.0
1070
   140
1040
3.0
1002
}
1001
ACAD_DSTYLE_DIM_LINETYPE
1070
   380
1005
16
1001
ACAD_DSTYLE_DIM_EXT1_LINETYPE
1070
   381
1005
16
1001
ACAD_DSTYLE_DIM_EXT2_LINETYPE
1070
   382
1005
16
0
DIMENSION
5
165
100
AcDbEntity
8
SK2
62
256
6
ByLayer
370
18
48
1
60
0
100
AcDbDimension
2
_U2
10
0
20
-35.952229
30
0
11
-24
21
-35.952229
31
0
70
32
71
1
72
1
41
1
210
0
220
0
230
1
3
Standard
100
AcDbAlignedDimension
13
-48
23
-8
33
0
14
0
24
-8
34
0
50
0
100
AcDbRotatedDimension
1001
ACAD
1000
DSTYLE
1002
{
1070
   371
1070
    13
1070
   372
1070
    13
1070
     3
1000

1070
   170
1070
     0
1070
   144
1040
1.0
1070
   277
1070
     2
1070
   284
1070
     8
1070
   278
1070
    46
1070
   146
1040
1.166667
1070
   345
1005
16
1070
   347
1005
16
1070
   346
1005
16
1070
   344
1005
0
1070
   343
1005
0
1070
   172
1070
     1
1070
    76
1070
     0
1070
    75
1070
     0
1070
   282
1070
     0
1070
   281
1070
     0
1070
    71
1070
     0
1070
    74
1070
     0
1070
   279
1070
     0
1070
   173
1070
     1
1070
   340
1005
113
1070
   271
1070
     2
1070
   272
1070
     3
1070
    77
1070
     1
1070
    73
1070
     1
1070
   171
1070
     3
1070
   274
1070
     4
1070
   177
1070
     2
1070
   176
1070
     2
1070
   178
1070
     2
1070
    78
1070
     8
1070
    48
1040
-0.1
1070
    41
1040
3.5
1070
   147
1040
1.5
1070
    42
1040
1.5875
1070
    44
1040
2.0
1070
   140
1040
3.0
1002
}
1001
ACAD_DSTYLE_DIM_LINETYPE
1070
   380
1005
16
1001
ACAD_DSTYLE_DIM_EXT1_LINETYPE
1070
   381
1005
16
1001
ACAD_DSTYLE_DIM_EXT2_LINETYPE
1070
   382
1005
16
0
DIMENSION
5
17D
100
AcDbEntity
8
SK2
62
256
6
ByLayer
370
18
48
1
60
0
100
AcDbDimension
2
_U3
10
13
20
32.952229
30
0
11
35
21
32.952229
31
0
70
32
71
1
72
1
41
1
210
0
220
0
230
1
3
Standard
100
AcDbAlignedDimension
13
57
23
0
33
0
14
13
24
6.25
34
0
50
0
100
AcDbRotatedDimension
1001
ACAD
1000
DSTYLE
1002
{
1070
   371
1070
    13
1070
   372
1070
    13
1070
     3
1000

1070
   170
1070
     0
1070
   144
1040
1.0
1070
   277
1070
     2
1070
   284
1070
     8
1070
   278
1070
    46
1070
   146
1040
1.166667
1070
   345
1005
16
1070
   347
1005
16
1070
   346
1005
16
1070
   344
1005
0
1070
   343
1005
0
1070
   172
1070
     1
1070
    76
1070
     0
1070
    75
1070
     0
1070
   282
1070
     0
1070
   281
1070
     0
1070
    71
1070
     0
1070
    74
1070
     0
1070
   279
1070
     0
1070
   173
1070
     1
1070
   340
1005
113
1070
   271
1070
     2
1070
   272
1070
     3
1070
    77
1070
     1
1070
    73
1070
     1
1070
   171
1070
     3
1070
   274
1070
     4
1070
   177
1070
     2
1070
   176
1070
     2
1070
   178
1070
     2
1070
    78
1070
     8
1070
    48
1040
-0.1
1070
    41
1040
3.5
1070
   147
1040
1.5
1070
    42
1040
1.5875
1070
    44
1040
2.0
1070
   140
1040
3.0
1002
}
1001
ACAD_DSTYLE_DIM_LINETYPE
1070
   380
1005
16
1001
ACAD_DSTYLE_DIM_EXT1_LINETYPE
1070
   381
1005
16
1001
ACAD_DSTYLE_DIM_EXT2_LINETYPE
1070
   382
1005
16
0
ENDSEC
0
SECTION
2
OBJECTS
0
DICTIONARY
5
205
330
0
100
AcDbDictionary
280
0
281
1
3
ACAD_GROUP
350
206
3
ACAD_MLINESTYLE
350
207
0
DICTIONARY
5
206
330
0
100
AcDbDictionary
280
0
281
1
0
DICTIONARY
5
207
330
0
100
AcDbDictionary
280
0
281
1
3
Standard
350
18
0
MLINESTYLE
5
18
330
207
100
AcDbMlineStyle
2
Standard
70
0
3

62
256
51
90
52
90
71
2
49
-0.5
62
256
6
ByLayer
49
0.5
62
256
6
ByLayer
0
RASTERVARIABLES
5
1f3
330

100
AcDbRasterVariables
90
0
70
1
71
1
72
1
0
ENDSEC
0
EOF
