0
SECTION
2
HEADER
9
$ACADVER
1
AC1015
9
$DWGCODEPAGE
3
ANSI_1252
9
$HANDSEED
5
253
9
$ANGBASE
50
0
9
$ANGDIR
70
0
9
$ATTMODE
70
1
9
$AUNITS
70
0
9
$AUPREC
70
0
9
$CECOLOR
62
256
9
$CELTSCALE
40
1
9
$CELTYPE
6
ByLayer
9
$CELWEIGHT
370
18
9
$CLAYER
8
0
9
$CMLJUST
70
0
9
$CMLSCALE
40
1
9
$CMLSTYLE
2
Standard
9
$DIMSTYLE
2
Standard
9
$TEXTSIZE
40
0.2
9
$TEXTSTYLE
7
Standard
9
$LUNITS
70
2
9
$LUPREC
70
4
9
$EXTNAMES
290
1
9
$INSUNITS
70
4
9
$LTSCALE
40
1
9
$LWDISPLAY
290
1
9
$PDMODE
70
0
9
$PDSIZE
40
0
9
$PLINEGEN
70
0
0
ENDSEC
0
SECTION
2
CLASSES
0
CLASS
1
RASTERVARIABLES
2
AcDbRasterVariables
3
ISM
90
0
280
0
281
0
0
ENDSEC
0
SECTION
2
TABLES
0
TABLE
2
VPORT
5
249
100
AcDbSymbolTable
0
VPORT
5
1
100
AcDbSymbolTableRecord
100
AcDbViewportTableRecord
2
*Active
70
0
10
0
20
0
11
1
21
1
12
-1
22
1
13
0
23
0
14
0.5
24
0.5
15
10
25
10
16
0
26
0
36
1
17
0
27
0
37
0
0
ENDTAB
0
TABLE
2
LTYPE
5
24a
100
AcDbSymbolTable
0
LTYPE
5
14
100
AcDbSymbolTableRecord
100
AcDbLinetypeTableRecord
70
0
2
ByBlock
3

72
65
73
0
40
0
0
LTYPE
5
15
100
AcDbSymbolTableRecord
100
AcDbLinetypeTableRecord
70
0
2
ByLayer
3

72
65
73
0
40
0
0
LTYPE
5
16
100
AcDbSymbolTableRecord
100
AcDbLinetypeTableRecord
70
0
2
Continuous
3
Solid line
72
65
73
0
40
0
0
LTYPE
5
6E
100
AcDbSymbolTableRecord
100
AcDbLinetypeTableRecord
70
0
2
CENTER
3
____ _ ____ _ ____ _ ____
72
65
73
4
40
47.5
49
22
74
0
49
-8.5
74
0
49
8.5
74
0
49
-8.5
74
0
0
LTYPE
5
6F
100
AcDbSymbolTableRecord
100
AcDbLinetypeTableRecord
70
0
2
DASHED
3
__ __ __ __ __ __ __ __ __
72
65
73
2
40
25.72
49
12.86
74
0
49
-12.86
74
0
0
ENDTAB
0
TABLE
2
LAYER
5
24b
100
AcDbSymbolTable
0
LAYER
5
10
100
AcDbSymbolTableRecord
100
AcDbLayerTableRecord
2
0
70
0
62
7
6
Continuous
290
1
370
-3
390
0
0
LAYER
5
71
100
AcDbSymbolTableRecord
100
AcDbLayerTableRecord
2
80
70
0
62
-6
6
Continuous
290
1
370
-3
390
0
0
LAYER
5
73
100
AcDbSymbolTableRecord
100
AcDbLayerTableRecord
2
81
70
0
62
-3
6
Continuous
290
1
370
-3
390
0
0
LAYER
5
75
100
AcDbSymbolTableRecord
100
AcDbLayerTableRecord
2
1
70
0
62
4
6
Continuous
290
1
370
-3
390
0
0
LAYER
5
7F
100
AcDbSymbolTableRecord
100
AcDbLayerTableRecord
2
4
70
0
62
-2
6
CENTER
290
1
370
-3
390
0
0
LAYER
5
B0
100
AcDbSymbolTableRecord
100
AcDbLayerTableRecord
2
2
70
0
62
7
6
Continuous
290
1
370
-3
390
0
0
LAYER
5
178
100
AcDbSymbolTableRecord
100
AcDbLayerTableRecord
2
Defpoints
70
0
62
7
6
Continuous
290
0
370
-3
390
0
0
LAYER
5
235
100
AcDbSymbolTableRecord
100
AcDbLayerTableRecord
2
SK4
70
0
62
2
6
CENTER
290
1
370
-3
390
0
0
LAYER
5
236
100
AcDbSymbolTableRecord
100
AcDbLayerTableRecord
2
SK1
70
0
62
4
6
Continuous
290
1
370
-3
390
0
0
LAYER
5
237
100
AcDbSymbolTableRecord
100
AcDbLayerTableRecord
2
SK2
70
0
62
7
6
Continuous
290
1
370
-3
390
0
0
LAYER
5
238
100
AcDbSymbolTableRecord
100
AcDbLayerTableRecord
2
SK6
70
0
62
5
6
Continuous
290
1
370
-3
390
0
0
ENDTAB
0
TABLE
2
STYLE
5
24c
100
AcDbSymbolTable
0
STYLE
5
11
100
AcDbSymbolTableRecord
100
AcDbTextStyleTableRecord
2
Standard
3
txt
70
0
71
0
40
0
41
1
42
0
50
0
0
STYLE
5
154
100
AcDbSymbolTableRecord
100
AcDbTextStyleTableRecord
2
iso_b_vert
3
simplex.shx
70
0
71
0
40
0
41
1
42
0
50
0
0
STYLE
5
155
100
AcDbSymbolTableRecord
100
AcDbTextStyleTableRecord
2
DWGDirectTextStyle
3
simplex
70
0
71
0
40
0
41
1
42
0
50
0
0
ENDTAB
0
TABLE
2
DIMSTYLE
5
24d
100
AcDbSymbolTable
100
AcDbDimStyleTable
0
DIMSTYLE
105
27
100
AcDbSymbolTableRecord
100
AcDbDimStyleTableRecord
2
Standard
70
0
3
<>
41
0.18
42
0.0625
44
0.18
140
0.18
147
0.09
73
0
74
0
77
1
271
2
275
0
278
52
280
0
340
11
0
ENDTAB
0
TABLE
2
VIEW
5
24e
100
AcDbSymbolTable
0
ENDTAB
0
TABLE
2
UCS
5
24f
100
AcDbSymbolTable
0
ENDTAB
0
TABLE
2
APPID
5
250
100
AcDbSymbolTable
0
APPID
5
12
100
AcDbSymbolTableRecord
100
AcDbRegAppTableRecord
2
ACAD
70
0
0
APPID
5
174
100
AcDbSymbolTableRecord
100
AcDbRegAppTableRecord
2
ACAD_DSTYLE_DIMBREAK
70
0
0
APPID
5
1F4
100
AcDbSymbolTableRecord
100
AcDbRegAppTableRecord
2
ACAD_DSTYLE_DIM_LINETYPE
70
0
0
APPID
5
1F5
100
AcDbSymbolTableRecord
100
AcDbRegAppTableRecord
2
ACAD_DSTYLE_DIM_EXT1_LINETYPE
70
0
0
APPID
5
1F6
100
AcDbSymbolTableRecord
100
AcDbRegAppTableRecord
2
ACAD_DSTYLE_DIM_EXT2_LINETYPE
70
0
0
APPID
5
231
100
AcDbSymbolTableRecord
100
AcDbRegAppTableRecord
2
ACAD_MLEADERVER
70
0
0
ENDTAB
0
TABLE
2
BLOCK_RECORD
5
251
100
AcDbSymbolTable
0
BLOCK_RECORD
5
1F
100
AcDbSymbolTableRecord
100
AcDbBlockTableRecord
2
*Model_Space
340
0
70
0
0
BLOCK_RECORD
5
1B
100
AcDbSymbolTableRecord
100
AcDbBlockTableRecord
2
*Paper_Space
340
0
70
0
0
BLOCK_RECORD
5
23
100
AcDbSymbolTableRecord
100
AcDbBlockTableRecord
2
*Paper_Space0
340
0
70
0
0
BLOCK_RECORD
5
179
100
AcDbSymbolTableRecord
100
AcDbBlockTableRecord
2
*D1
340
0
70
0
0
BLOCK_RECORD
5
185
100
AcDbSymbolTableRecord
100
AcDbBlockTableRecord
2
_U0
340
0
70
0
0
BLOCK_RECORD
5
191
100
AcDbSymbolTableRecord
100
AcDbBlockTableRecord
2
*D3
340
0
70
0
0
BLOCK_RECORD
5
19D
100
AcDbSymbolTableRecord
100
AcDbBlockTableRecord
2
_U1
340
0
70
0
0
BLOCK_RECORD
5
1A9
100
AcDbSymbolTableRecord
100
AcDbBlockTableRecord
2
*D5
340
0
70
0
0
BLOCK_RECORD
5
1B5
100
AcDbSymbolTableRecord
100
AcDbBlockTableRecord
2
_U2
340
0
70
0
0
BLOCK_RECORD
5
1C1
100
AcDbSymbolTableRecord
100
AcDbBlockTableRecord
2
*D7
340
0
70
0
0
BLOCK_RECORD
5
1CD
100
AcDbSymbolTableRecord
100
AcDbBlockTableRecord
2
_U3
340
0
70
0
0
ENDTAB
0
ENDSEC
0
SECTION
2
BLOCKS
0
BLOCK
5
20
100
AcDbEntity
8
0
100
AcDbBlockBegin
2
*Model_Space
70
0
10
0
20
0
30
0
3
*Model_Space
0
ENDBLK
5
21
100
AcDbEntity
8
0
100
AcDbBlockEnd
0
BLOCK
5
1C
100
AcDbEntity
8
0
100
AcDbBlockBegin
2
*Paper_Space
70
0
10
0
20
0
30
0
3
*Paper_Space
0
ENDBLK
5
1D
100
AcDbEntity
8
0
100
AcDbBlockEnd
0
BLOCK
5
24
100
AcDbEntity
8
0
100
AcDbBlockBegin
2
*Paper_Space0
70
0
10
0
20
0
30
0
3
*Paper_Space0
0
ENDBLK
5
25
100
AcDbEntity
8
0
100
AcDbBlockEnd
0
BLOCK
5
17A
100
AcDbEntity
8
0
100
AcDbBlockBegin
2
*D1
70
1
10
0
20
0
30
0
3
*D1
0
LINE
5
17C
100
AcDbEntity
8
0
62
256
6
ByLayer
370
-2
48
1
60
0
100
AcDbLine
10
-60
20
-17.5875
30
0
11
-60
21
-48.771062
31
0
39
0
210
0
220
0
230
1
0
LINE
5
17D
100
AcDbEntity
8
0
62
256
6
ByLayer
370
-2
48
1
60
0
100
AcDbLine
10
69.4
20
-1.5875
30
0
11
69.4
21
-48.771062
31
0
39
0
210
0
220
0
230
1
0
LINE
5
17E
100
AcDbEntity
8
0
62
256
6
ByLayer
370
-2
48
1
60
0
100
AcDbLine
10
-56.5
20
-46.771062
30
0
11
65.9
21
-46.771062
31
0
39
0
210
0
220
0
230
1
0
SOLID
5
17F
100
AcDbEntity
8
0
62
256
6
ByLayer
370
-1
48
1
60
0
100
AcDbTrace
10
-56.5
20
-46.187728
30
0
11
-56.5
21
-47.354395
31
0
12
-60
22
-46.771062
32
0
13
-60
23
-46.771062
33
0
39
0
210
0
220
0
230
1
0
SOLID
5
180
100
AcDbEntity
8
0
62
256
6
ByLayer
370
-1
48
1
60
0
100
AcDbTrace
10
65.9
20
-47.354395
30
0
11
65.9
21
-46.187728
31
0
12
69.4
22
-46.771062
32
0
13
69.4
23
-46.771062
33
0
39
0
210
0
220
0
230
1
0
MTEXT
5
181
100
AcDbEntity
8
0
62
256
6
ByLayer
370
18
48
1
60
0
100
AcDbMText
10
4.7
20
-40.771062
30
0
210
0
220
0
230
1
1
\A1;129.4
40
3
41
0
44
1
50
0
71
5
72
5
7
iso_b_vert
0
POINT
5
182
100
AcDbEntity
8
Defpoints
62
0
6
ByLayer
370
-1
48
1
60
0
100
AcDbPoint
10
-60
20
-16
30
0
39
0
210
0
220
0
230
1
50
360
0
POINT
5
183
100
AcDbEntity
8
Defpoints
62
0
6
ByLayer
370
-1
48
1
60
0
100
AcDbPoint
10
69.4
20
0
30
0
39
0
210
0
220
0
230
1
50
360
0
POINT
5
184
100
AcDbEntity
8
Defpoints
62
0
6
ByLayer
370
-1
48
1
60
0
100
AcDbPoint
10
69.4
20
-46.771062
30
0
39
0
210
0
220
0
230
1
50
360
0
ENDBLK
5
17B
100
AcDbEntity
8
0
100
AcDbBlockEnd
0
BLOCK
5
18C
100
AcDbEntity
8
0
100
AcDbBlockBegin
2
_U0
70
0
10
0
20
0
30
0
3
_U0
0
MTEXT
5
186
100
AcDbEntity
8
SK2
62
256
6
ByLayer
370
18
48
1
60
0
100
AcDbMText
10
-0.686285
20
-45.885947
30
0
210
0
220
0
230
1
1
\W0.7237;129.40
40
3
41
0
44
1.084337
50
0
71
7
72
5
7
iso_b_vert
0
LINE
5
187
100
AcDbEntity
8
SK2
62
256
6
ByLayer
370
13
48
1
60
0
100
AcDbLine
10
-60
20
-17.5875
30
0
11
-60
21
-48.771062
31
0
39
0
210
0
220
0
230
1
0
LINE
5
188
100
AcDbEntity
8
SK2
62
256
6
ByLayer
370
13
48
1
60
0
100
AcDbLine
10
69.4
20
-1.5875
30
0
11
69.4
21
-48.771062
31
0
39
0
210
0
220
0
230
1
0
LINE
5
189
100
AcDbEntity
8
SK2
62
256
6
ByLayer
370
13
48
1
60
0
100
AcDbLine
10
-60
20
-46.771062
30
0
11
69.4
21
-46.771062
31
0
39
0
210
0
220
0
230
1
0
SOLID
5
18A
100
AcDbEntity
8
SK2
62
256
6
ByLayer
370
18
48
1
60
0
100
AcDbTrace
10
-60
20
-46.771062
30
0
11
-56.500002
21
-46.310278
31
0
12
-56.499998
22
-47.231846
32
0
13
-56.499998
23
-47.231846
33
0
39
0
210
0
220
0
230
1
0
SOLID
5
18B
100
AcDbEntity
8
SK2
62
256
6
ByLayer
370
18
48
1
60
0
100
AcDbTrace
10
69.4
20
-46.771062
30
0
11
65.900002
21
-47.231846
31
0
12
65.899998
22
-46.310278
32
0
13
65.899998
23
-46.310278
33
0
39
0
210
0
220
0
230
1
0
ENDBLK
5
18D
100
AcDbEntity
8
0
100
AcDbBlockEnd
0
BLOCK
5
192
100
AcDbEntity
8
0
100
AcDbBlockBegin
2
*D3
70
1
10
0
20
0
30
0
3
*D3
0
LINE
5
194
100
AcDbEntity
8
0
62
256
6
ByLayer
370
-2
48
1
60
0
100
AcDbLine
10
69.4
20
-1.5875
30
0
11
69.4
21
-38.771062
31
0
39
0
210
0
220
0
230
1
0
LINE
5
195
100
AcDbEntity
8
0
62
256
6
ByLayer
370
-2
48
1
60
0
100
AcDbLine
10
6
20
-15.5875
30
0
11
6
21
-38.771062
31
0
39
0
210
0
220
0
230
1
0
LINE
5
196
100
AcDbEntity
8
0
62
256
6
ByLayer
370
-2
48
1
60
0
100
AcDbLine
10
65.9
20
-36.771062
30
0
11
9.5
21
-36.771062
31
0
39
0
210
0
220
0
230
1
0
SOLID
5
197
100
AcDbEntity
8
0
62
256
6
ByLayer
370
-1
48
1
60
0
100
AcDbTrace
10
65.9
20
-37.354395
30
0
11
65.9
21
-36.187728
31
0
12
69.4
22
-36.771062
32
0
13
69.4
23
-36.771062
33
0
39
0
210
0
220
0
230
1
0
SOLID
5
198
100
AcDbEntity
8
0
62
256
6
ByLayer
370
-1
48
1
60
0
100
AcDbTrace
10
9.5
20
-36.187728
30
0
11
9.5
21
-37.354395
31
0
12
6
22
-36.771062
32
0
13
6
23
-36.771062
33
0
39
0
210
0
220
0
230
1
0
MTEXT
5
199
100
AcDbEntity
8
0
62
256
6
ByLayer
370
18
48
1
60
0
100
AcDbMText
10
37.7
20
-30.771062
30
0
210
0
220
0
230
1
1
\A1;63.4
40
3
41
0
44
1
50
0
71
5
72
5
7
iso_b_vert
0
POINT
5
19A
100
AcDbEntity
8
Defpoints
62
0
6
ByLayer
370
-1
48
1
60
0
100
AcDbPoint
10
69.4
20
0
30
0
39
0
210
0
220
0
230
1
50
360
0
POINT
5
19B
100
AcDbEntity
8
Defpoints
62
0
6
ByLayer
370
-1
48
1
60
0
100
AcDbPoint
10
6
20
-14
30
0
39
0
210
0
220
0
230
1
50
360
0
POINT
5
19C
100
AcDbEntity
8
Defpoints
62
0
6
ByLayer
370
-1
48
1
60
0
100
AcDbPoint
10
6
20
-36.771062
30
0
39
0
210
0
220
0
230
1
50
360
0
ENDBLK
5
193
100
AcDbEntity
8
0
100
AcDbBlockEnd
0
BLOCK
5
1A4
100
AcDbEntity
8
0
100
AcDbBlockBegin
2
_U1
70
0
10
0
20
0
30
0
3
_U1
0
MTEXT
5
19E
100
AcDbEntity
8
SK2
62
256
6
ByLayer
370
18
48
1
60
0
100
AcDbMText
10
33.059687
20
-35.885947
30
0
210
0
220
0
230
1
1
\W0.7694;63.40
40
3
41
0
44
1.084337
50
0
71
7
72
5
7
iso_b_vert
0
LINE
5
19F
100
AcDbEntity
8
SK2
62
256
6
ByLayer
370
13
48
1
60
0
100
AcDbLine
10
69.4
20
-1.5875
30
0
11
69.4
21
-38.771062
31
0
39
0
210
0
220
0
230
1
0
LINE
5
1A0
100
AcDbEntity
8
SK2
62
256
6
ByLayer
370
13
48
1
60
0
100
AcDbLine
10
6
20
-15.5875
30
0
11
6
21
-38.771062
31
0
39
0
210
0
220
0
230
1
0
LINE
5
1A1
100
AcDbEntity
8
SK2
62
256
6
ByLayer
370
13
48
1
60
0
100
AcDbLine
10
69.4
20
-36.771062
30
0
11
6
21
-36.771062
31
0
39
0
210
0
220
0
230
1
0
SOLID
5
1A2
100
AcDbEntity
8
SK2
62
256
6
ByLayer
370
18
48
1
60
0
100
AcDbTrace
10
69.4
20
-36.771062
30
0
11
65.900002
21
-37.231846
31
0
12
65.899998
22
-36.310278
32
0
13
65.899998
23
-36.310278
33
0
39
0
210
0
220
0
230
1
0
SOLID
5
1A3
100
AcDbEntity
8
SK2
62
256
6
ByLayer
370
18
48
1
60
0
100
AcDbTrace
10
6
20
-36.771062
30
0
11
9.499998
21
-36.310278
31
0
12
9.500002
22
-37.231846
32
0
13
9.500002
23
-37.231846
33
0
39
0
210
0
220
0
230
1
0
ENDBLK
5
1A5
100
AcDbEntity
8
0
100
AcDbBlockEnd
0
BLOCK
5
1AA
100
AcDbEntity
8
0
100
AcDbBlockBegin
2
*D5
70
1
10
0
20
0
30
0
3
*D5
0
LINE
5
1AC
100
AcDbEntity
8
0
62
256
6
ByLayer
370
-2
48
1
60
0
100
AcDbLine
10
-60
20
-17.5875
30
0
11
-60
21
-38.771062
31
0
39
0
210
0
220
0
230
1
0
LINE
5
1AD
100
AcDbEntity
8
0
62
256
6
ByLayer
370
-2
48
1
60
0
100
AcDbLine
10
0
20
-17.5875
30
0
11
0
21
-38.771062
31
0
39
0
210
0
220
0
230
1
0
LINE
5
1AE
100
AcDbEntity
8
0
62
256
6
ByLayer
370
-2
48
1
60
0
100
AcDbLine
10
-56.5
20
-36.771062
30
0
11
-3.5
21
-36.771062
31
0
39
0
210
0
220
0
230
1
0
SOLID
5
1AF
100
AcDbEntity
8
0
62
256
6
ByLayer
370
-1
48
1
60
0
100
AcDbTrace
10
-56.5
20
-36.187728
30
0
11
-56.5
21
-37.354395
31
0
12
-60
22
-36.771062
32
0
13
-60
23
-36.771062
33
0
39
0
210
0
220
0
230
1
0
SOLID
5
1B0
100
AcDbEntity
8
0
62
256
6
ByLayer
370
-1
48
1
60
0
100
AcDbTrace
10
-3.5
20
-37.354395
30
0
11
-3.5
21
-36.187728
31
0
12
0
22
-36.771062
32
0
13
0
23
-36.771062
33
0
39
0
210
0
220
0
230
1
0
MTEXT
5
1B1
100
AcDbEntity
8
0
62
256
6
ByLayer
370
18
48
1
60
0
100
AcDbMText
10
-30
20
-30.771062
30
0
210
0
220
0
230
1
1
\A1;60
40
3
41
0
44
1
50
0
71
5
72
5
7
iso_b_vert
0
POINT
5
1B2
100
AcDbEntity
8
Defpoints
62
0
6
ByLayer
370
-1
48
1
60
0
100
AcDbPoint
10
-60
20
-16
30
0
39
0
210
0
220
0
230
1
50
360
0
POINT
5
1B3
100
AcDbEntity
8
Defpoints
62
0
6
ByLayer
370
-1
48
1
60
0
100
AcDbPoint
10
0
20
-16
30
0
39
0
210
0
220
0
230
1
50
360
0
POINT
5
1B4
100
AcDbEntity
8
Defpoints
62
0
6
ByLayer
370
-1
48
1
60
0
100
AcDbPoint
10
0
20
-36.771062
30
0
39
0
210
0
220
0
230
1
50
360
0
ENDBLK
5
1AB
100
AcDbEntity
8
0
100
AcDbBlockEnd
0
BLOCK
5
1BC
100
AcDbEntity
8
0
100
AcDbBlockBegin
2
_U2
70
0
10
0
20
0
30
0
3
_U2
0
MTEXT
5
1B6
100
AcDbEntity
8
SK2
62
256
6
ByLayer
370
18
48
1
60
0
100
AcDbMText
10
-34.48237
20
-35.885947
30
0
210
0
220
0
230
1
1
\W0.7468;60.00
40
3
41
0
44
1.084337
50
0
71
7
72
5
7
iso_b_vert
0
LINE
5
1B7
100
AcDbEntity
8
SK2
62
256
6
ByLayer
370
13
48
1
60
0
100
AcDbLine
10
-60
20
-17.5875
30
0
11
-60
21
-38.771062
31
0
39
0
210
0
220
0
230
1
0
LINE
5
1B8
100
AcDbEntity
8
SK2
62
256
6
ByLayer
370
13
48
1
60
0
100
AcDbLine
10
0
20
-17.5875
30
0
11
0
21
-38.771062
31
0
39
0
210
0
220
0
230
1
0
LINE
5
1B9
100
AcDbEntity
8
SK2
62
256
6
ByLayer
370
13
48
1
60
0
100
AcDbLine
10
-60
20
-36.771062
30
0
11
0
21
-36.771062
31
0
39
0
210
0
220
0
230
1
0
SOLID
5
1BA
100
AcDbEntity
8
SK2
62
256
6
ByLayer
370
18
48
1
60
0
100
AcDbTrace
10
-60
20
-36.771062
30
0
11
-56.500002
21
-36.310278
31
0
12
-56.499998
22
-37.231846
32
0
13
-56.499998
23
-37.231846
33
0
39
0
210
0
220
0
230
1
0
SOLID
5
1BB
100
AcDbEntity
8
SK2
62
256
6
ByLayer
370
18
48
1
60
0
100
AcDbTrace
10
0
20
-36.771062
30
0
11
-3.499998
21
-37.231846
31
0
12
-3.500002
22
-36.310278
32
0
13
-3.500002
23
-36.310278
33
0
39
0
210
0
220
0
230
1
0
ENDBLK
5
1BD
100
AcDbEntity
8
0
100
AcDbBlockEnd
0
BLOCK
5
1C2
100
AcDbEntity
8
0
100
AcDbBlockBegin
2
*D7
70
1
10
0
20
0
30
0
3
*D7
0
LINE
5
1C4
100
AcDbEntity
8
0
62
256
6
ByLayer
370
-2
48
1
60
0
100
AcDbLine
10
69.4
20
1.5875
30
0
11
69.4
21
35.771062
31
0
39
0
210
0
220
0
230
1
0
LINE
5
1C5
100
AcDbEntity
8
0
62
256
6
ByLayer
370
-2
48
1
60
0
100
AcDbLine
10
15
20
15.5875
30
0
11
15
21
35.771062
31
0
39
0
210
0
220
0
230
1
0
LINE
5
1C6
100
AcDbEntity
8
0
62
256
6
ByLayer
370
-2
48
1
60
0
100
AcDbLine
10
65.9
20
33.771062
30
0
11
18.5
21
33.771062
31
0
39
0
210
0
220
0
230
1
0
SOLID
5
1C7
100
AcDbEntity
8
0
62
256
6
ByLayer
370
-1
48
1
60
0
100
AcDbTrace
10
65.9
20
33.187728
30
0
11
65.9
21
34.354395
31
0
12
69.4
22
33.771062
32
0
13
69.4
23
33.771062
33
0
39
0
210
0
220
0
230
1
0
SOLID
5
1C8
100
AcDbEntity
8
0
62
256
6
ByLayer
370
-1
48
1
60
0
100
AcDbTrace
10
18.5
20
34.354395
30
0
11
18.5
21
33.187728
31
0
12
15
22
33.771062
32
0
13
15
23
33.771062
33
0
39
0
210
0
220
0
230
1
0
MTEXT
5
1C9
100
AcDbEntity
8
0
62
256
6
ByLayer
370
18
48
1
60
0
100
AcDbMText
10
42.2
20
39.771062
30
0
210
0
220
0
230
1
1
\A1;54.4
40
3
41
0
44
1
50
0
71
5
72
5
7
iso_b_vert
0
POINT
5
1CA
100
AcDbEntity
8
Defpoints
62
0
6
ByLayer
370
-1
48
1
60
0
100
AcDbPoint
10
69.4
20
0
30
0
39
0
210
0
220
0
230
1
50
360
0
POINT
5
1CB
100
AcDbEntity
8
Defpoints
62
0
6
ByLayer
370
-1
48
1
60
0
100
AcDbPoint
10
15
20
14
30
0
39
0
210
0
220
0
230
1
50
360
0
POINT
5
1CC
100
AcDbEntity
8
Defpoints
62
0
6
ByLayer
370
-1
48
1
60
0
100
AcDbPoint
10
15
20
33.771062
30
0
39
0
210
0
220
0
230
1
50
360
0
ENDBLK
5
1C3
100
AcDbEntity
8
0
100
AcDbBlockEnd
0
BLOCK
5
1D4
100
AcDbEntity
8
0
100
AcDbBlockBegin
2
_U3
70
0
10
0
20
0
30
0
3
_U3
0
MTEXT
5
1CE
100
AcDbEntity
8
SK2
62
256
6
ByLayer
370
18
48
1
60
0
100
AcDbMText
10
37.401744
20
34.656176
30
0
210
0
220
0
230
1
1
\W0.7958;54.40
40
3
41
0
44
1.084337
50
0
71
7
72
5
7
iso_b_vert
0
LINE
5
1CF
100
AcDbEntity
8
SK2
62
256
6
ByLayer
370
13
48
1
60
0
100
AcDbLine
10
69.4
20
1.5875
30
0
11
69.4
21
35.771062
31
0
39
0
210
0
220
0
230
1
0
LINE
5
1D0
100
AcDbEntity
8
SK2
62
256
6
ByLayer
370
13
48
1
60
0
100
AcDbLine
10
15
20
15.5875
30
0
11
15
21
35.771062
31
0
39
0
210
0
220
0
230
1
0
LINE
5
1D1
100
AcDbEntity
8
SK2
62
256
6
ByLayer
370
13
48
1
60
0
100
AcDbLine
10
69.4
20
33.771062
30
0
11
15
21
33.771062
31
0
39
0
210
0
220
0
230
1
0
SOLID
5
1D2
100
AcDbEntity
8
SK2
62
256
6
ByLayer
370
18
48
1
60
0
100
AcDbTrace
10
69.4
20
33.771062
30
0
11
65.900002
21
33.310278
31
0
12
65.899998
22
34.231846
32
0
13
65.899998
23
34.231846
33
0
39
0
210
0
220
0
230
1
0
SOLID
5
1D3
100
AcDbEntity
8
SK2
62
256
6
ByLayer
370
18
48
1
60
0
100
AcDbTrace
10
15
20
33.771062
30
0
11
18.499998
21
34.231846
31
0
12
18.500002
22
33.310278
32
0
13
18.500002
23
33.310278
33
0
39
0
210
0
220
0
230
1
0
ENDBLK
5
1D5
100
AcDbEntity
8
0
100
AcDbBlockEnd
0
ENDSEC
0
SECTION
2
ENTITIES
0
ARC
5
C1
100
AcDbEntity
8
SK2
62
256
6
ByLayer
370
13
48
1
60
0
100
AcDbCircle
39
0
10
69.4
20
0
30
0
40
19
210
0
220
0
230
1
100
AcDbArc
50
290
51
70
0
ELLIPSE
5
C2
100
AcDbEntity
8
SK1
62
256
6
ByLayer
370
18
48
1
60
0
100
AcDbEllipse
10
375.907546
20
0
30
0
11
458.180052524353
21
-5.19163675692399E-13
31
0
210
0
220
0
230
1
40
0.034921
41
2.59367031451701
42
2.79796683129766
0
ELLIPSE
5
C3
100
AcDbEntity
8
SK1
62
256
6
ByLayer
370
18
48
1
60
0
100
AcDbEllipse
10
375.907546
20
0
30
0
11
458.180052528051
21
-5.19163675696589E-13
31
0
210
0
220
0
230
1
40
0.034921
41
-2.79796683129846
42
-2.59367031451889
0
ELLIPSE
5
C4
100
AcDbEntity
8
SK1
62
256
6
ByLayer
370
18
48
1
60
0
100
AcDbEllipse
10
-29.157899
20
0
30
0
11
17.1578993603954
21
-1.94416104542868E-14
31
0
210
0
220
0
230
1
40
0.932515
41
-0.494065251162693
42
0.494065251162695
0
ELLIPSE
5
C5
100
AcDbEntity
8
SK1
62
256
6
ByLayer
370
18
48
1
60
0
100
AcDbEllipse
10
-42.079759
20
0
30
0
11
-2.93905524917505E-15
21
-16.0000000000073
31
0
210
0
220
0
230
1
40
0.932515
41
-1.80249142112189
42
-1.3391012324679
0
POINT
5
70
100
AcDbEntity
8
80
62
256
6
ByLayer
370
18
48
1
60
0
100
AcDbPoint
10
0
20
0
30
0
39
0
210
0
220
0
230
1
50
360
0
POINT
5
72
100
AcDbEntity
8
81
62
256
6
ByLayer
370
18
48
1
60
0
100
AcDbPoint
10
69.4
20
0
30
0
39
0
210
0
220
0
230
1
50
360
0
POINT
5
74
100
AcDbEntity
8
1
62
256
6
ByLayer
370
18
48
1
60
1
100
AcDbPoint
10
-60
20
-16
30
0
39
0
210
0
220
0
230
1
50
360
0
POINT
5
76
100
AcDbEntity
8
1
62
256
6
ByLayer
370
18
48
1
60
1
100
AcDbPoint
10
69.4
20
0
30
0
39
0
210
0
220
0
230
1
50
360
0
POINT
5
77
100
AcDbEntity
8
1
62
256
6
ByLayer
370
18
48
1
60
1
100
AcDbPoint
10
69.4
20
0
30
0
39
0
210
0
220
0
230
1
50
360
0
POINT
5
78
100
AcDbEntity
8
1
62
256
6
ByLayer
370
18
48
1
60
1
100
AcDbPoint
10
6
20
-14
30
0
39
0
210
0
220
0
230
1
50
360
0
POINT
5
79
100
AcDbEntity
8
1
62
256
6
ByLayer
370
18
48
1
60
1
100
AcDbPoint
10
-60
20
-16
30
0
39
0
210
0
220
0
230
1
50
360
0
POINT
5
7A
100
AcDbEntity
8
1
62
256
6
ByLayer
370
18
48
1
60
1
100
AcDbPoint
10
0
20
-16
30
0
39
0
210
0
220
0
230
1
50
360
0
POINT
5
7B
100
AcDbEntity
8
1
62
256
6
ByLayer
370
18
48
1
60
1
100
AcDbPoint
10
69.4
20
0
30
0
39
0
210
0
220
0
230
1
50
360
0
POINT
5
7C
100
AcDbEntity
8
1
62
256
6
ByLayer
370
18
48
1
60
1
100
AcDbPoint
10
15
20
14
30
0
39
0
210
0
220
0
230
1
50
360
0
SPLINE
5
C6
100
AcDbEntity
8
1
62
256
6
ByLayer
370
18
48
1
60
0
100
AcDbSpline
70
4
71
3
72
18
73
14
40
0
40
0
40
0
40
0
40
0.0521326704034843
40
0.0521326704034843
40
0.289099502802608
40
0.289099502802608
40
0.407582919002172
40
0.407582919002172
40
0.526066335201736
40
0.526066335201736
40
0.763033167600868
40
0.763033167600868
40
1
40
1
40
1
40
1
41
1
10
26.4950750158089
20
-10.223137158784
30
0
41
1
10
26.338291236287
20
-10.2609412864042
30
0
41
1
10
26.1815053779556
20
-10.2984820626704
30
0
41
1
10
25.3120234790432
20
-10.5051626104422
30
0
41
1
10
24.5992305228692
20
-10.669035057688
30
0
41
1
10
23.5299991812076
20
-10.906745864055
30
0
41
1
10
23.1735800835948
20
-10.9846288485275
30
0
41
1
10
22.4607349192179
20
-11.1376927286404
30
0
41
1
10
22.10431257694
20
-11.2128776756251
30
0
41
1
10
21.0347249189753
20
-11.4338576069513
30
0
41
1
10
20.3212828817064
20
-11.5751620202866
30
0
41
1
10
18.8937013110227
20
-11.845872027778
30
0
41
1
10
18.1795654359496
20
-11.9752846488362
30
0
41
1
10
17.465149967891
20
-12.0987900621351
30
0
0
SPLINE
5
C7
100
AcDbEntity
8
1
62
256
6
ByLayer
370
18
48
1
60
0
100
AcDbSpline
70
4
71
3
72
11
73
7
40
0
40
0
40
0
40
0
40
0.500000000000007
40
0.500000000000007
40
0.750000000000004
40
1
40
1
40
1
40
1
41
1
10
17.4651499678907
20
12.0987900621352
30
0
41
1
10
17.0467342391523
20
12.1734844176305
30
0
41
1
10
16.6325376592949
20
12.2506431723215
30
0
41
1
10
16.0164569776201
20
12.3675395943811
30
0
41
1
10
15.6074927990592
20
12.445880845003
30
0
41
1
10
15.2019211606307
20
12.5244948518286
30
0
41
1
10
15
20
12.5637752208128
30
0
0
SPLINE
5
C8
100
AcDbEntity
8
1
62
256
6
ByLayer
370
18
48
1
60
0
100
AcDbSpline
70
4
71
3
72
44
73
40
40
0
40
0
40
0
40
0
40
0.124999999999996
40
0.124999999999996
40
0.156249999999996
40
0.156249999999996
40
0.187499999999996
40
0.187499999999996
40
0.249999999999994
40
0.249999999999994
40
0.312499999999993
40
0.312499999999993
40
0.374999999999991
40
0.374999999999991
40
0.406249999999991
40
0.406249999999991
40
0.437499999999991
40
0.437499999999991
40
0.499999999999992
40
0.499999999999992
40
0.562499999999993
40
0.562499999999993
40
0.624999999999995
40
0.624999999999995
40
0.656249999999995
40
0.656249999999995
40
0.687499999999994
40
0.687499999999994
40
0.749999999999996
40
0.749999999999996
40
0.812499999999997
40
0.812499999999997
40
0.874999999999998
40
0.874999999999998
40
0.906249999999998
40
0.906249999999998
40
0.937499999999999
40
0.937499999999999
40
1
40
1
40
1
40
1
41
1
10
23.5964316822568
20
-9.50300391261894
30
0
41
1
10
24.7688131867421
20
-9.80884089419004
30
0
41
1
10
25.940564967697
20
-10.099483542229
30
0
41
1
10
27.4038133068645
20
-10.445387091196
30
0
41
1
10
27.6963911601648
20
-10.5136930078954
30
0
41
1
10
28.2813882372737
20
-10.6485757973934
30
0
41
1
10
28.5737978427251
20
-10.7151686441368
30
0
41
1
10
29.4509869470273
20
-10.9119916921478
30
0
41
1
10
30.0358197611874
20
-11.0391123904027
30
0
41
1
10
31.2054047181748
20
-11.2855155307024
30
0
41
1
10
31.7901502193667
20
-11.4048091383867
30
0
41
1
10
32.9593731144049
20
-11.6358272598687
30
0
41
1
10
33.5438669972904
20
-11.7475141730146
30
0
41
1
10
34.4208084316681
20
-11.9087340145544
30
0
41
1
10
34.713161011263
20
-11.9614159779681
30
0
41
1
10
35.2979883348337
20
-12.0646092644668
30
0
41
1
10
35.5904547084669
20
-12.1151329640645
30
0
41
1
10
36.46795069749
20
-12.2635729774631
30
0
41
1
10
37.0530714674359
20
-12.3583674712233
30
0
41
1
10
38.2234769868237
20
-12.5396735256174
30
0
41
1
10
38.808699226775
20
-12.6262430754763
30
0
41
1
10
39.9801138615839
20
-12.7901143661716
30
0
41
1
10
40.5662245986094
20
-12.8675277554958
30
0
41
1
10
41.4458539545281
20
-12.9770197037387
30
0
41
1
10
41.739052091044
20
-13.0123998003661
30
0
41
1
10
42.3252590460546
20
-13.0809247534518
30
0
41
1
10
42.6182859998284
20
-13.1140757056797
30
0
41
1
10
43.4972207016568
20
-13.2101098831125
30
0
41
1
10
44.0829785035844
20
-13.2695703271193
30
0
41
1
10
45.2546484330546
20
-13.3789743591215
30
0
41
1
10
45.8405471081247
20
-13.4289449347431
30
0
41
1
10
47.0121979150432
20
-13.5196328181556
30
0
41
1
10
47.597954771523
20
-13.5603415666058
30
0
41
1
10
48.4764885902721
20
-13.6143919046503
30
0
41
1
10
48.769332794123
20
-13.6312298172622
30
0
41
1
10
49.3551835391171
20
-13.6624809869248
30
0
41
1
10
49.6481737920419
20
-13.6769029974937
30
0
41
1
10
50.5273006464834
20
-13.7165870489504
30
0
41
1
10
51.1135928731312
20
-13.7382719656378
30
0
41
1
10
51.7
20
-13.7552003805125
30
0
0
SPLINE
5
C9
100
AcDbEntity
8
1
62
256
6
ByLayer
370
18
48
1
60
0
100
AcDbSpline
70
4
71
3
72
11
73
7
40
0
40
0
40
0
40
0
40
0.500000000000007
40
0.500000000000007
40
0.750000000000004
40
1
40
1
40
1
40
1
41
1
10
17.4651499678907
20
-12.0987900621352
30
0
41
1
10
17.0467342391523
20
-12.1734844176305
30
0
41
1
10
16.6325376592949
20
-12.2506431723215
30
0
41
1
10
16.0164569776201
20
-12.3675395943811
30
0
41
1
10
15.6074927990591
20
-12.445880845003
30
0
41
1
10
15.2019211606307
20
-12.5244948518286
30
0
41
1
10
15
20
-12.5637752208127
30
0
0
SPLINE
5
CA
100
AcDbEntity
8
1
62
256
6
ByLayer
370
18
48
1
60
0
100
AcDbSpline
70
4
71
4
72
10
73
5
40
0
40
0
40
0
40
0
40
0
40
1
40
1
40
1
40
1
40
1
41
0.996264809430846
10
18.0524895495244
20
-8.6085354650884
30
0
41
0.995358082786878
10
17.8519117642983
20
-9.4071968718718
30
0
41
0.99506837479375
10
17.6824105937086
20
-10.2758788226977
30
0
41
0.995951898344961
10
17.5531585858682
20
-11.185662445685
30
0
41
0.997159329882478
10
17.465149967891
20
-12.0987900621351
30
0
0
SPLINE
5
CB
100
AcDbEntity
8
1
62
256
6
ByLayer
370
18
48
1
60
0
100
AcDbSpline
70
4
71
3
72
26
73
22
40
0
40
0
40
0
40
0
40
0.124999999999999
40
0.124999999999999
40
0.249999999999999
40
0.249999999999999
40
0.374999999999998
40
0.374999999999998
40
0.499999999999998
40
0.499999999999998
40
0.53125
40
0.53125
40
0.562500000000002
40
0.562500000000002
40
0.625000000000002
40
0.625000000000002
40
0.750000000000001
40
0.750000000000001
40
0.875000000000001
40
0.875000000000001
40
1
40
1
40
1
40
1
41
1
10
15
20
-8.80152848166844
30
0
41
1
10
15.3609953284574
20
-8.74322918652135
30
0
41
1
10
15.7223470751225
20
-8.6975791196391
30
0
41
1
10
16.4457187259742
20
-8.63073850025043
30
0
41
1
10
16.8077388713531
20
-8.60955362898508
30
0
41
1
10
17.5324147989361
20
-8.59078344726368
30
0
41
1
10
17.8950707948852
20
-8.59320401559307
30
0
41
1
10
18.620990791213
20
-8.62058054771552
30
0
41
1
10
18.9842550084167
20
-8.64554272407327
30
0
41
1
10
19.4386970847717
20
-8.68992366135598
30
0
41
1
10
19.5296035776
20
-8.69945755802331
30
0
41
1
10
19.711452192718
20
-8.71981275329597
30
0
41
1
10
19.8024426622952
20
-8.73064106181187
30
0
41
1
10
20.0745746471306
20
-8.76489372776405
30
0
41
1
10
20.2551441095407
20
-8.79011322115562
30
0
41
1
10
20.7944581237215
20
-8.87233425456563
30
0
41
1
10
21.1508073579001
20
-8.93590239311152
30
0
41
1
10
21.8579947572292
20
-9.07728157245865
30
0
41
1
10
22.2088344167557
20
-9.15508522661298
30
0
41
1
10
22.9058914384203
20
-9.32162141961493
30
0
41
1
10
23.2521132043474
20
-9.41034016674044
30
0
41
1
10
23.5964316822565
20
-9.50300391261888
30
0
0
SPLINE
5
CC
100
AcDbEntity
8
1
62
256
6
ByLayer
370
18
48
1
60
0
100
AcDbSpline
70
4
71
3
72
10
73
6
40
0
40
0
40
0
40
0
40
0.545851557946972
40
0.545851557946972
40
1
40
1
40
1
40
1
41
1
10
51.7
20
-13.9582474485134
30
0
41
1
10
52.2257849398415
20
-13.9726969616389
30
0
41
1
10
52.7512579702204
20
-13.9832508543031
30
0
41
1
10
53.7136080157474
20
-13.99538536978
30
0
41
1
10
54.1505510578538
20
-13.9981734015612
30
0
41
1
10
54.5874910754063
20
-13.9982506511907
30
0
0
SPLINE
5
CD
100
AcDbEntity
8
1
62
256
6
ByLayer
370
18
48
1
60
0
100
AcDbSpline
70
4
71
3
72
22
73
18
40
0
40
0
40
0
40
0
40
0.125000000000001
40
0.125000000000001
40
0.250000000000002
40
0.250000000000002
40
0.500000000000003
40
0.500000000000003
40
0.625000000000002
40
0.625000000000002
40
0.750000000000002
40
0.750000000000002
40
0.875000000000001
40
0.875000000000001
40
0.937500000000001
40
0.937500000000001
40
1
40
1
40
1
40
1
41
1
10
64.3044167202783
20
-1.99763773771167
30
0
41
1
10
63.7786316331122
20
-1.80842681174718
30
0
41
1
10
63.253056110062
20
-1.61871930239974
30
0
41
1
10
62.2023638925204
20
-1.23820146215113
30
0
41
1
10
61.6772881838244
20
-1.04727796675428
30
0
41
1
10
60.102017102384
20
-0.474878614434147
30
0
41
1
10
59.051929459451
20
-0.0933528772167733
30
0
41
1
10
57.4772435636001
20
0.479670887356605
30
0
41
1
10
56.9524043312209
20
0.670750825663589
30
0
41
1
10
55.9025653902798
20
1.05230245683927
30
0
41
1
10
55.3775306035774
20
1.24267751127172
30
0
41
1
10
54.327180604567
20
1.62248944162721
30
0
41
1
10
53.8018872204236
20
1.81198649271232
30
0
41
1
10
53.0138003389349
20
2.09570304255053
30
0
41
1
10
52.7510804491407
20
2.19018760866197
30
0
41
1
10
52.2255950388934
20
2.3789893007185
30
0
41
1
10
51.9628313528151
20
2.47331145417772
30
0
41
1
10
51.7
20
2.567426453226
30
0
0
SPLINE
5
CE
100
AcDbEntity
8
1
62
256
6
ByLayer
370
18
48
1
60
0
100
AcDbSpline
70
4
71
3
72
97
73
93
40
0
40
0
40
0
40
0
40
0.0312500000000021
40
0.0312500000000021
40
0.0625000000000041
40
0.0625000000000041
40
0.0937500000000062
40
0.0937500000000062
40
0.125000000000008
40
0.125000000000008
40
0.140625000000009
40
0.140625000000009
40
0.148437500000009
40
0.148437500000009
40
0.156250000000008
40
0.187500000000005
40
0.187500000000005
40
0.218750000000002
40
0.218750000000002
40
0.249999999999999
40
0.249999999999999
40
0.281249999999996
40
0.281249999999996
40
0.296874999999994
40
0.296874999999994
40
0.304687499999994
40
0.304687499999994
40
0.312499999999993
40
0.312499999999993
40
0.343749999999991
40
0.343749999999991
40
0.374999999999989
40
0.374999999999989
40
0.406249999999987
40
0.406249999999987
40
0.437499999999985
40
0.437499999999985
40
0.445312499999985
40
0.445312499999985
40
0.453124999999984
40
0.468749999999983
40
0.468749999999983
40
0.499999999999982
40
0.499999999999982
40
0.53124999999998
40
0.53124999999998
40
0.53515624999998
40
0.53515624999998
40
0.53906249999998
40
0.53906249999998
40
0.54687499999998
40
0.56249999999998
40
0.56249999999998
40
0.593749999999981
40
0.593749999999981
40
0.624999999999981
40
0.624999999999981
40
0.632812499999981
40
0.632812499999981
40
0.640624999999982
40
0.656249999999982
40
0.656249999999982
40
0.687499999999982
40
0.687499999999982
40
0.718749999999983
40
0.718749999999983
40
0.726562499999983
40
0.726562499999983
40
0.734374999999983
40
0.734374999999983
40
0.749999999999984
40
0.749999999999984
40
0.781249999999985
40
0.781249999999985
40
0.812499999999985
40
0.812499999999985
40
0.843749999999986
40
0.843749999999986
40
0.851562499999987
40
0.851562499999987
40
0.859374999999988
40
0.87499999999999
40
0.87499999999999
40
0.906249999999993
40
0.906249999999993
40
0.937499999999996
40
0.968749999999999
40
0.968749999999999
40
0.976562499999999
40
0.976562499999999
40
0.984375
40
1
40
1
40
1
40
1
41
1
10
64.3044167202731
20
13.5554334447249
30
0
41
1
10
64.3918595034737
20
13.3386004158949
30
0
41
1
10
64.4794392770572
20
13.1185163513487
30
0
41
1
10
64.6550209898269
20
12.6723613498219
30
0
41
1
10
64.7430228076477
20
12.4462888702913
30
0
41
1
10
64.9195528286501
20
11.9885250720992
30
0
41
1
10
65.0080810987499
20
11.7568331017242
30
0
41
1
10
65.1857259152873
20
11.2880858871033
30
0
41
1
10
65.2748427742546
20
11.0510303313128
30
0
41
1
10
65.408969860749
20
10.6915415413056
30
0
41
1
10
65.453753783419
20
10.5710603152939
30
0
41
1
10
65.5210390984392
20
10.3893690693871
30
0
41
1
10
65.5435012713596
20
10.3286015899869
30
0
41
1
10
65.5883816328696
20
10.2069597462986
30
0
41
1
10
65.7004174140955
20
9.9027349325614
30
0
41
1
10
65.8116386974842
20
9.59791863805728
30
0
41
1
10
65.9884773517163
20
9.10945018134424
30
0
41
1
10
66.0763400731767
20
8.86483511768205
30
0
41
1
10
66.2507500140725
20
8.37478591183648
30
0
41
1
10
66.3372992334101
20
8.1293524691236
30
0
41
1
10
66.5087091314725
20
7.63754293730602
30
0
41
1
10
66.5935728082883
20
7.39116780713499
30
0
41
1
10
66.7191354023238
20
7.02073569338367
30
0
41
1
10
66.7606985693085
20
6.89711260742709
30
0
41
1
10
66.8225226154761
20
6.71142955394657
30
0
41
1
10
66.843053955204
20
6.64946238477356
30
0
41
1
10
66.8838761178529
20
6.52559034345171
30
0
41
1
10
66.9041545381738
20
6.46372346173601
30
0
41
1
10
67.0048420593555
20
6.15472024877857
30
0
41
1
10
67.0831628914464
20
5.90857967083878
30
0
41
1
10
67.2339172910517
20
5.41801753349665
30
0
41
1
10
67.3063602357902
20
5.17359810811755
30
0
41
1
10
67.4431570621152
20
4.68597446319976
30
0
41
1
10
67.5075224915681
20
4.44277127311761
30
0
41
1
10
67.6248505486035
20
3.95692523038696
30
0
41
1
10
67.6778184320795
20
3.71428038794849
30
0
41
1
10
67.7339511906935
20
3.41082291143104
30
0
41
1
10
67.7446769665673
20
3.35008408472399
30
0
41
1
10
67.7649978476676
20
3.22875058083341
30
0
41
1
10
67.7937151489825
20
3.04738875131818
30
0
41
1
10
67.8168316299337
20
2.86796674976756
30
0
41
1
10
67.8548448050612
20
2.51180876408418
30
0
41
1
10
67.8691463046521
20
2.27793921890512
30
0
41
1
10
67.8729965361138
20
1.81816899782734
30
0
41
1
10
67.8625228713613
20
1.59227215651444
30
0
41
1
10
67.8369041687643
20
1.34328214259051
30
0
41
1
10
67.8338674037602
20
1.31568819614589
30
0
41
1
10
67.8274169387144
20
1.26064607088995
30
0
41
1
10
67.8240002976585
20
1.23317596392897
30
0
41
1
10
67.8132137025923
20
1.15115669002208
30
0
41
1
10
67.7895218031865
20
0.98886342019108
30
0
41
1
10
67.7598411907827
20
0.831741170335278
30
0
41
1
10
67.6934920376333
20
0.524223487267818
30
0
41
1
10
67.6399803773155
20
0.328168263388932
30
0
41
1
10
67.5192259986831
20
-0.046732426689573
30
0
41
1
10
67.4519934225735
20
-0.225582945564355
30
0
41
1
10
67.3616042234407
20
-0.438555323510087
30
0
41
1
10
67.3431900604542
20
-0.480653392887319
30
0
41
1
10
67.3058342411278
20
-0.563628711564434
30
0
41
1
10
67.249101138926
20
-0.686059883362958
30
0
41
1
10
67.1904871544732
20
-0.802515428528181
30
0
41
1
10
67.0712065831077
20
-1.02769859140219
30
0
41
1
10
66.9889765510719
20
-1.16753827714774
30
0
41
1
10
66.8206925540395
20
-1.42734123956285
30
0
41
1
10
66.7346272140146
20
-1.54730078110981
30
0
41
1
10
66.6251733614882
20
-1.68484776715687
30
0
41
1
10
66.6031875902914
20
-1.71173558712545
30
0
41
1
10
66.5590342247144
20
-1.76426295312686
30
0
41
1
10
66.5368511303533
20
-1.78991851859982
30
0
41
1
10
66.4703244668225
20
-1.86468907519497
30
0
41
1
10
66.425920715915
20
-1.91171268859736
30
0
41
1
10
66.2926209806482
20
-2.04450381546692
30
0
41
1
10
66.2036431284961
20
-2.12200868846861
30
0
41
1
10
66.0256262354312
20
-2.25553231788967
30
0
41
1
10
65.9365844191097
20
-2.31154885297687
30
0
41
1
10
65.7584120637826
20
-2.40212553599369
30
0
41
1
10
65.6692802556594
20
-2.43668569817814
30
0
41
1
10
65.557716897674
20
-2.46618915303054
30
0
41
1
10
65.5353822655279
20
-2.47140519079306
30
0
41
1
10
65.4908952544634
20
-2.48041826815253
30
0
41
1
10
65.4243687061625
20
-2.49183008907383
30
0
41
1
10
65.358432250555
20
-2.49698895452309
30
0
41
1
10
65.2272883026552
20
-2.49911131550471
30
0
41
1
10
65.1408307500768
20
-2.48961297241155
30
0
41
1
10
64.9695551211685
20
-2.44918701778386
30
0
41
1
10
64.7999189502788
20
-2.3873293632202
30
0
41
1
10
64.6329643048003
20
-2.28253224324243
30
0
41
1
10
64.5292677748745
20
-2.20332098788319
30
0
41
1
10
64.5085764889893
20
-2.18680293915466
30
0
41
1
10
64.4673641026027
20
-2.15248107675106
30
0
41
1
10
64.4057654370009
20
-2.09904251340876
30
0
41
1
10
64.344800431895
20
-2.039755961098
30
0
41
1
10
64.3044167202733
20
-1.99763773770985
30
0
0
SPLINE
5
CF
100
AcDbEntity
8
1
62
256
6
ByLayer
370
18
48
1
60
0
100
AcDbSpline
70
4
71
3
72
21
73
17
40
0
40
0
40
0
40
0
40
0.0272373852584891
40
0.0272373852584891
40
0.189364487715409
40
0.189364487715409
40
0.35149159017233
40
0.35149159017233
40
0.43255514140079
40
0.43255514140079
40
0.51361869262925
40
0.675745795086167
40
0.675745795086167
40
0.837872897543083
40
0.837872897543083
40
1
40
1
40
1
40
1
41
1
10
54.5874909203151
20
13.9982506511633
30
0
41
1
10
54.6757193074156
20
13.9982662497959
30
0
41
1
10
54.7639475711953
20
13.9981713216138
30
0
41
1
10
55.3773485326152
20
13.9967436117992
30
0
41
1
10
55.9024969310719
20
13.9916178909803
30
0
41
1
10
56.9525689410286
20
13.9735590847413
30
0
41
1
10
57.4775000331046
20
13.9606241195578
30
0
41
1
10
58.2647203744062
20
13.9353181302986
30
0
41
1
10
58.5271017749747
20
13.9258981274325
30
0
41
1
10
59.0519526582306
20
13.9051285959022
30
0
41
1
10
59.8393564124355
20
13.8710815133015
30
0
41
1
10
60.627054603546
20
13.8283785627633
30
0
41
1
10
61.677442564275
20
13.7636971286085
30
0
41
1
10
62.2026703100918
20
13.7274668546483
30
0
41
1
10
63.2532842671285
20
13.6472146300333
30
0
41
1
10
63.7786973744352
20
13.6032024172231
30
0
41
1
10
64.3044167202783
20
13.5554334447244
30
0
0
SPLINE
5
D0
100
AcDbEntity
8
1
62
256
6
ByLayer
370
18
48
1
60
0
100
AcDbSpline
70
4
71
3
72
44
73
40
40
0
40
0
40
0
40
0
40
0.0244242508074242
40
0.0244242508074242
40
0.0592662418500167
40
0.0592662418500167
40
0.0941082328926092
40
0.0941082328926092
40
0.163792214977794
40
0.163792214977794
40
0.233476197062979
40
0.233476197062979
40
0.303160179148164
40
0.303160179148164
40
0.338002170190757
40
0.338002170190757
40
0.372844161233349
40
0.372844161233349
40
0.442528143318534
40
0.442528143318534
40
0.51221212540372
40
0.51221212540372
40
0.581896107488905
40
0.581896107488905
40
0.616738098531496
40
0.616738098531496
40
0.651580089574088
40
0.651580089574088
40
0.72126407165927
40
0.72126407165927
40
0.790948053744452
40
0.790948053744452
40
0.860632035829634
40
0.860632035829634
40
0.895474026872225
40
0.895474026872225
40
0.930316017914816
40
0.930316017914816
40
1
40
1
40
1
40
1
41
1
10
26.4956175795067
20
10.2294298582732
30
0
41
1
10
26.700833136299
20
10.2787874528339
30
0
41
1
10
26.9060160951625
20
10.3277106738822
30
0
41
1
10
27.4038133068645
20
10.445387091196
30
0
41
1
10
27.6963911601647
20
10.5136930078954
30
0
41
1
10
28.2813882372737
20
10.6485757973934
30
0
41
1
10
28.5737978427251
20
10.7151686441368
30
0
41
1
10
29.4509869470273
20
10.9119916921478
30
0
41
1
10
30.0358197611874
20
11.0391123904027
30
0
41
1
10
31.2054047181748
20
11.2855155307023
30
0
41
1
10
31.7901502193667
20
11.4048091383867
30
0
41
1
10
32.959373114405
20
11.6358272598686
30
0
41
1
10
33.5438669972903
20
11.7475141730145
30
0
41
1
10
34.420808431668
20
11.9087340145544
30
0
41
1
10
34.7131610112629
20
11.9614159779681
30
0
41
1
10
35.2979883348337
20
12.0646092644667
30
0
41
1
10
35.5904547084669
20
12.1151329640645
30
0
41
1
10
36.46795069749
20
12.2635729774631
30
0
41
1
10
37.0530714674359
20
12.3583674712233
30
0
41
1
10
38.2234769868237
20
12.5396735256174
30
0
41
1
10
38.808699226775
20
12.6262430754763
30
0
41
1
10
39.9801138615839
20
12.7901143661715
30
0
41
1
10
40.5662245986093
20
12.8675277554958
30
0
41
1
10
41.445853954528
20
12.9770197037387
30
0
41
1
10
41.7390520910439
20
13.0123998003661
30
0
41
1
10
42.3252590460545
20
13.0809247534518
30
0
41
1
10
42.6182859998284
20
13.1140757056797
30
0
41
1
10
43.4972207016568
20
13.2101098831125
30
0
41
1
10
44.0829785035843
20
13.2695703271193
30
0
41
1
10
45.2546484330546
20
13.3789743591215
30
0
41
1
10
45.8405471081247
20
13.4289449347431
30
0
41
1
10
47.0121979150432
20
13.5196328181556
30
0
41
1
10
47.597954771523
20
13.5603415666058
30
0
41
1
10
48.476488590272
20
13.6143919046502
30
0
41
1
10
48.769332794123
20
13.6312298172621
30
0
41
1
10
49.3551835391171
20
13.6624809869248
30
0
41
1
10
49.6481737920419
20
13.6769029974937
30
0
41
1
10
50.5273006464834
20
13.7165870489504
30
0
41
1
10
51.1135928731312
20
13.7382719656377
30
0
41
1
10
51.7
20
13.7552003805125
30
0
0
SPLINE
5
D1
100
AcDbEntity
8
1
62
256
6
ByLayer
370
18
48
1
60
0
100
AcDbSpline
70
4
71
3
72
52
73
48
40
0
40
0
40
0
40
0
40
0.0625000000000008
40
0.0625000000000008
40
0.0937500000000006
40
0.0937500000000006
40
0.125
40
0.125
40
0.15625
40
0.15625
40
0.1875
40
0.1875
40
0.249999999999999
40
0.249999999999999
40
0.281249999999999
40
0.281249999999999
40
0.312499999999998
40
0.312499999999998
40
0.374999999999998
40
0.374999999999998
40
0.437499999999998
40
0.437499999999998
40
0.468749999999998
40
0.468749999999998
40
0.499999999999997
40
0.499999999999997
40
0.531249999999997
40
0.531249999999997
40
0.562499999999997
40
0.562499999999997
40
0.593749999999997
40
0.593749999999997
40
0.624999999999997
40
0.624999999999997
40
0.687499999999996
40
0.687499999999996
40
0.749999999999996
40
0.749999999999996
40
0.812499999999996
40
0.812499999999996
40
0.843749999999996
40
0.843749999999996
40
0.874999999999996
40
0.874999999999996
40
0.937499999999998
40
0.937499999999998
40
1
40
1
40
1
40
1
41
1
10
51.7
20
2.45690796575912
30
0
41
1
10
50.9855372553708
20
2.70944501111433
30
0
41
1
10
50.2714154539532
20
2.96003561575805
30
0
41
1
10
49.2008252695604
20
3.33327036191181
30
0
41
1
10
48.8440612796865
20
3.45724125380247
30
0
41
1
10
48.1307498581414
20
3.70435003357667
30
0
41
1
10
47.7742052496985
20
3.82749520685482
30
0
41
1
10
47.0612682530944
20
4.07277416696112
30
0
41
1
10
46.7048771301836
20
4.19491126422335
30
0
41
1
10
45.9921556128147
20
4.43792930647129
30
0
41
1
10
45.6358158513789
20
4.55878553716775
30
0
41
1
10
44.5668348282784
20
4.91933870035913
30
0
41
1
10
43.854262410529
20
5.15710426191103
30
0
41
1
10
42.7856082200701
20
5.51005664223391
30
0
41
1
10
42.4294351907609
20
5.62711868665372
30
0
41
1
10
41.7170940450919
20
5.85984091652367
30
0
41
1
10
41.3608857696774
20
5.97539855842314
30
0
41
1
10
40.2920674967955
20
6.31946497441461
30
0
41
1
10
39.5793018099525
20
6.54546676999018
30
0
41
1
10
38.1534645453282
20
6.99105178585646
30
0
41
1
10
37.4404405299036
20
7.2107450034369
30
0
41
1
10
36.3703287637013
20
7.53459460094976
30
0
41
1
10
36.0135184355079
20
7.64157172210855
30
0
41
1
10
35.299622609111
20
7.85343414026292
30
0
41
1
10
34.9425461399586
20
7.9583412883394
30
0
41
1
10
34.2281597964094
20
8.16616240314826
30
0
41
1
10
33.8707889446786
20
8.26909070365556
30
0
41
1
10
33.1564495766754
20
8.47278910213799
30
0
41
1
10
32.7994215111623
20
8.57358926741958
30
0
41
1
10
32.085627070939
20
8.7730365916324
30
0
41
1
10
31.728840279593
20
8.87163703687818
30
0
41
1
10
31.0153234203492
20
9.06624387906314
30
0
41
1
10
30.658613748108
20
9.16229607479383
30
0
41
1
10
29.5886524614136
20
9.44676133622281
30
0
41
1
10
28.8755807243529
20
9.63151232913083
30
0
41
1
10
27.4499725006433
20
9.99134217151524
30
0
41
1
10
26.737403802539
20
10.166342001972
30
0
41
1
10
25.3120234790432
20
10.5051626104422
30
0
41
1
10
24.5992305228692
20
10.6690350576881
30
0
41
1
10
23.5299991812076
20
10.9067458640551
30
0
41
1
10
23.1735800835949
20
10.9846288485275
30
0
41
1
10
22.460734919218
20
11.1376927286404
30
0
41
1
10
22.10431257694
20
11.2128776756252
30
0
41
1
10
21.0347249189753
20
11.4338576069514
30
0
41
1
10
20.3212828817064
20
11.5751620202867
30
0
41
1
10
18.8937013110227
20
11.845872027778
30
0
41
1
10
18.1795654359496
20
11.9752846488362
30
0
41
1
10
17.465149967891
20
12.0987900621351
30
0
0
SPLINE
5
D2
100
AcDbEntity
8
1
62
256
6
ByLayer
370
18
48
1
60
0
100
AcDbSpline
70
4
71
3
72
37
73
33
40
0
40
0
40
0
40
0
40
0.0025712158074605
40
0.0025712158074605
40
0.024736299900628
40
0.024736299900628
40
0.113396636273298
40
0.113396636273298
40
0.202056972645969
40
0.202056972645969
40
0.290717309018639
40
0.290717309018639
40
0.312882393111806
40
0.312882393111806
40
0.335047477204972
40
0.379377645391309
40
0.379377645391309
40
0.468037981763978
40
0.468037981763978
40
0.556698318136647
40
0.556698318136647
40
0.645358654509316
40
0.645358654509316
40
0.734018990881985
40
0.734018990881985
40
0.77834915906832
40
0.77834915906832
40
0.822679327254655
40
0.822679327254655
40
0.911339663627327
40
0.911339663627327
40
1
40
1
40
1
40
1
41
1
10
7.26082562817842
20
16.8311760976734
30
0
41
1
10
7.26547031426935
20
16.8293549574872
30
0
41
1
10
7.27012625637855
20
16.8275239526851
30
0
41
1
10
7.31502679433834
20
16.809814181601
30
0
41
1
10
7.35614577717848
20
16.7931926517261
30
0
41
1
10
7.56464953734837
20
16.707031260343
30
0
41
1
10
7.74148478838606
20
16.6280931800847
30
0
41
1
10
8.11312323383791
20
16.4536100219503
30
0
41
1
10
8.30794000258814
20
16.3580504380703
30
0
41
1
10
8.71398076096989
20
16.1528288360965
30
0
41
1
10
8.92521359233433
20
16.0431590932019
30
0
41
1
10
9.19863944097401
20
15.8984863102872
30
0
41
1
10
9.25385212637218
20
15.869140263303
30
0
41
1
10
9.36483323451222
20
15.8099074553374
30
0
41
1
10
9.53215483816081
20
15.7202390788793
30
0
41
1
10
9.70192398217714
20
15.6282511964163
30
0
41
1
10
10.0444643304014
20
15.4414966833917
30
0
41
1
10
10.2768255095782
20
15.3133025872938
30
0
41
1
10
10.7482198437452
20
15.0508165142988
30
0
41
1
10
10.9872519390018
20
14.9165209040923
30
0
41
1
10
11.4707310680287
20
14.6427023717968
30
0
41
1
10
11.7151735499437
20
14.5031763056845
30
0
41
1
10
12.2083694576449
20
14.2194607911426
30
0
41
1
10
12.4571159832989
20
14.075267558812
30
0
41
1
10
12.8328891400172
20
13.8557482783735
30
0
41
1
10
12.9585923846144
20
13.7820356895616
30
0
41
1
10
13.2108432949954
20
13.6335678766695
30
0
41
1
10
13.3374336654653
20
13.5587869398614
30
0
41
1
10
13.7178690171947
20
13.3332852656074
30
0
41
1
10
13.9725091943028
20
13.1813118213527
30
0
41
1
10
14.4842066903961
20
12.8745147881546
30
0
41
1
10
14.7412661419312
20
12.719688340187
30
0
41
1
10
15
20
12.5637752208127
30
0
0
SPLINE
5
D3
100
AcDbEntity
8
1
62
256
6
ByLayer
370
18
48
1
60
0
100
AcDbSpline
70
4
71
3
72
104
73
100
40
0
40
0
40
0
40
0
40
0.0312499999999997
40
0.0312499999999997
40
0.0624999999999994
40
0.0624999999999994
40
0.0937499999999991
40
0.0937499999999991
40
0.124999999999999
40
0.124999999999999
40
0.156249999999999
40
0.156249999999999
40
0.164062499999998
40
0.164062499999998
40
0.171874999999998
40
0.187499999999997
40
0.187499999999997
40
0.218749999999996
40
0.218749999999996
40
0.249999999999995
40
0.249999999999995
40
0.265624999999994
40
0.265624999999994
40
0.273437499999994
40
0.273437499999994
40
0.281249999999994
40
0.281249999999994
40
0.312499999999991
40
0.312499999999991
40
0.343749999999988
40
0.343749999999988
40
0.359374999999987
40
0.359374999999987
40
0.367187499999986
40
0.367187499999986
40
0.374999999999986
40
0.374999999999986
40
0.406249999999983
40
0.406249999999983
40
0.421874999999982
40
0.421874999999982
40
0.429687499999981
40
0.433593749999981
40
0.433593749999981
40
0.437499999999981
40
0.437499999999981
40
0.46874999999998
40
0.46874999999998
40
0.49999999999998
40
0.49999999999998
40
0.507812499999979
40
0.511718749999979
40
0.511718749999979
40
0.51562499999998
40
0.51562499999998
40
0.531249999999979
40
0.531249999999979
40
0.562499999999979
40
0.562499999999979
40
0.578124999999979
40
0.578124999999979
40
0.585937499999979
40
0.585937499999979
40
0.593749999999979
40
0.593749999999979
40
0.624999999999979
40
0.624999999999979
40
0.640624999999978
40
0.640624999999978
40
0.648437499999979
40
0.648437499999979
40
0.656249999999979
40
0.656249999999979
40
0.68749999999998
40
0.68749999999998
40
0.718749999999981
40
0.718749999999981
40
0.749999999999982
40
0.749999999999982
40
0.757812499999982
40
0.757812499999982
40
0.765624999999982
40
0.781249999999983
40
0.781249999999983
40
0.812499999999986
40
0.812499999999986
40
0.843749999999988
40
0.843749999999988
40
0.874999999999991
40
0.874999999999991
40
0.906249999999994
40
0.906249999999994
40
0.921874999999995
40
0.921874999999995
40
0.937499999999997
40
0.937499999999997
40
0.968749999999998
40
0.968749999999998
40
1
40
1
40
1
40
1
41
1
10
15
20
-8.80152848166844
30
0
41
1
10
14.7129018075066
20
-8.93536759502359
30
0
41
1
10
14.4293484777261
20
-9.07486118097069
30
0
41
1
10
13.869134528145
20
-9.36479479633385
30
0
41
1
10
13.5924737417597
20
-9.51523460797259
30
0
41
1
10
13.0458901354244
20
-9.82675767071731
30
0
41
1
10
12.7759670025802
20
-9.98784050792969
30
0
41
1
10
12.2427533911556
20
-10.320415544225
30
0
41
1
10
11.9794623889974
20
-10.4919070507611
30
0
41
1
10
11.4594693940062
20
-10.8451504676552
30
0
41
1
10
11.2027665235368
20
-11.0269012177188
30
0
41
1
10
10.8860300441506
20
-11.2604793203786
30
0
41
1
10
10.8230474399524
20
-11.3073991179125
30
0
41
1
10
10.6979657962507
20
-11.4015166228482
30
0
41
1
10
10.5115927081359
20
-11.5431659427575
30
0
41
1
10
10.3289524915715
20
-11.686172341054
30
0
41
1
10
9.96863040308426
20
-11.9738321894142
30
0
41
1
10
9.73501731467724
20
-12.1678012040709
30
0
41
1
10
9.2811022576891
20
-12.5592814863627
30
0
41
1
10
9.06079676983637
20
-12.7567939718058
30
0
41
1
10
8.74065766855881
20
-13.0550800670115
30
0
41
1
10
8.63566748303847
20
-13.1548448448145
30
0
41
1
10
8.48084176291076
20
-13.3049130528803
30
0
41
1
10
8.42962860374291
20
-13.3550546468796
30
0
41
1
10
8.32863865245085
20
-13.4549318156055
30
0
41
1
10
8.27880368627928
20
-13.5047228058702
30
0
41
1
10
8.03292643270765
20
-13.7528874985576
30
0
41
1
10
7.84674833477493
20
-13.9488980223277
30
0
41
1
10
7.49581363379656
20
-14.3344331321841
30
0
41
1
10
7.33104781998048
20
-14.5239637807233
30
0
41
1
10
7.10088165343274
20
-14.8021055254066
30
0
41
1
10
7.02699750163976
20
-14.893790987246
30
0
41
1
10
6.92062794428696
20
-15.029580220109
30
0
41
1
10
6.88605947162461
20
-15.0743694646767
30
0
41
1
10
6.81882836389792
20
-15.1628095996462
30
0
41
1
10
6.78614402215732
20
-15.2064881731076
30
0
41
1
10
6.62737863868392
20
-15.4221215638887
30
0
41
1
10
6.51520949720407
20
-15.5858237702476
30
0
41
1
10
6.36988489414887
20
-15.8168859724919
30
0
41
1
10
6.32527599198977
20
-15.8914865425565
30
0
41
1
10
6.2643098133311
20
-15.999540565318
30
0
41
1
10
6.23531484245524
20
-16.0526051929038
30
0
41
1
10
6.20860236714617
20
-16.1041787497231
30
0
41
1
10
6.19130787568969
20
-16.1382239507428
30
0
41
1
10
6.18290932800539
20
-16.1550951602085
30
0
41
1
10
6.10993558352976
20
-16.304830700274
30
0
41
1
10
6.06328116112752
20
-16.4235249723654
30
0
41
1
10
6.00569615227136
20
-16.6321492242729
30
0
41
1
10
5.99476283577695
20
-16.7220822340063
30
0
41
1
10
6.00419945469287
20
-16.8158788820025
30
0
41
1
10
6.00877064324726
20
-16.8426171885628
30
0
41
1
10
6.01599745468897
20
-16.867222999824
30
0
41
1
10
6.02141157131052
20
-16.8831488776196
30
0
41
1
10
6.02441343792628
20
-16.8908610574429
30
0
41
1
10
6.04084367466254
20
-16.928066234088
30
0
41
1
10
6.05856654809151
20
-16.9536084985113
30
0
41
1
10
6.12505195398251
20
-17.0180694016889
30
0
41
1
10
6.18707920835777
20
-17.0448580621015
30
0
41
1
10
6.30606798368234
20
-17.0620003747749
30
0
41
1
10
6.35006922815455
20
-17.0638647921679
30
0
41
1
10
6.4226171145288
20
-17.0609640216374
30
0
41
1
10
6.44792922782688
20
-17.0590404661425
30
0
41
1
10
6.50036371448752
20
-17.0533524587353
30
0
41
1
10
6.52752010142541
20
-17.049589054488
30
0
41
1
10
6.6678898069249
20
-17.0263351581019
30
0
41
1
10
6.79481651212251
20
-16.9935828580544
30
0
41
1
10
7.00575029033001
20
-16.9256482215023
30
0
41
1
10
7.07949551216024
20
-16.89985920791
30
0
41
1
10
7.19516248848757
20
-16.8566898686787
30
0
41
1
10
7.23456009530045
20
-16.8415520378629
30
0
41
1
10
7.31502679433831
20
-16.809814181601
30
0
41
1
10
7.35614577717848
20
-16.7931926517261
30
0
41
1
10
7.56464953734837
20
-16.707031260343
30
0
41
1
10
7.74148478838612
20
-16.6280931800847
30
0
41
1
10
8.11312323383788
20
-16.4536100219503
30
0
41
1
10
8.30794000258811
20
-16.3580504380703
30
0
41
1
10
8.71398076096992
20
-16.1528288360964
30
0
41
1
10
8.92521359233433
20
-16.0431590932019
30
0
41
1
10
9.19863944097403
20
-15.8984863102872
30
0
41
1
10
9.25385212637218
20
-15.869140263303
30
0
41
1
10
9.36483323451222
20
-15.8099074553374
30
0
41
1
10
9.53215483816078
20
-15.7202390788792
30
0
41
1
10
9.70192398217716
20
-15.6282511964163
30
0
41
1
10
10.0444643304014
20
-15.4414966833917
30
0
41
1
10
10.2768255095782
20
-15.3133025872938
30
0
41
1
10
10.7482198437452
20
-15.0508165142988
30
0
41
1
10
10.9872519390018
20
-14.9165209040922
30
0
41
1
10
11.4707310680286
20
-14.6427023717967
30
0
41
1
10
11.7151735499437
20
-14.5031763056845
30
0
41
1
10
12.208369457645
20
-14.2194607911426
30
0
41
1
10
12.4571159832989
20
-14.0752675588119
30
0
41
1
10
12.8328891400173
20
-13.8557482783735
30
0
41
1
10
12.9585923846143
20
-13.7820356895615
30
0
41
1
10
13.2108432949954
20
-13.6335678766695
30
0
41
1
10
13.3374336654653
20
-13.5587869398614
30
0
41
1
10
13.7178690171948
20
-13.3332852656075
30
0
41
1
10
13.9725091943028
20
-13.1813118213527
30
0
41
1
10
14.4842066903961
20
-12.8745147881546
30
0
41
1
10
14.7412661419312
20
-12.719688340187
30
0
41
1
10
15
20
-12.5637752208127
30
0
0
SPLINE
5
D4
100
AcDbEntity
8
SK1
62
256
6
ByLayer
370
18
48
1
60
0
100
AcDbSpline
70
4
71
3
72
37
73
33
40
0
40
0
40
0
40
0
40
0.124999999999999
40
0.124999999999999
40
0.249999999999997
40
0.249999999999997
40
0.374999999999996
40
0.374999999999996
40
0.437499999999996
40
0.437499999999996
40
0.499999999999995
40
0.499999999999995
40
0.624999999999995
40
0.624999999999995
40
0.656249999999996
40
0.656249999999996
40
0.687499999999996
40
0.687499999999996
40
0.749999999999997
40
0.749999999999997
40
0.812499999999999
40
0.812499999999999
40
0.843749999999999
40
0.843749999999999
40
0.874999999999999
40
0.874999999999999
40
0.9375
40
0.9375
40
0.953125
40
0.953125
40
0.96875
40
1
40
1
40
1
40
1
41
1
10
-56.6013095599541
20
-3.67404242557649
30
0
41
1
10
-56.5818983671532
20
-3.76227101295461
30
0
41
1
10
-56.5608730792548
20
-3.84980231602845
30
0
41
1
10
-56.5149011456991
20
-4.02327304907473
30
0
41
1
10
-56.4899592553202
20
-4.1092138747162
30
0
41
1
10
-56.4351919062966
20
-4.27922783366643
30
0
41
1
10
-56.4053764863432
20
-4.36330392303796
30
0
41
1
10
-56.3559085219568
20
-4.48770487574166
30
0
41
1
10
-56.3386238532612
20
-4.52888499906533
30
0
41
1
10
-56.3022004610974
20
-4.6105950760475
30
0
41
1
10
-56.2830277903437
20
-4.65119311461675
30
0
41
1
10
-56.2224911706718
20
-4.77130399167868
30
0
41
1
10
-56.1782467144578
20
-4.84907413383172
30
0
41
1
10
-56.115968443464
20
-4.94231131697211
30
0
41
1
10
-56.1031583621301
20
-4.96075692759766
30
0
41
1
10
-56.0767470461803
20
-4.99720157474036
30
0
41
1
10
-56.0631669720757
20
-5.01516889117784
30
0
41
1
10
-56.0213776959376
20
-5.06798704911628
30
0
41
1
10
-55.992061754375
20
-5.10185542724588
30
0
41
1
10
-55.9298321318184
20
-5.16631273888052
30
0
41
1
10
-55.8969272538349
20
-5.19690945406094
30
0
41
1
10
-55.8440712942131
20
-5.23964848292457
30
0
41
1
10
-55.8258658181591
20
-5.25336554431573
30
0
41
1
10
-55.7880772055067
20
-5.27956269503571
30
0
41
1
10
-55.7687283546429
20
-5.29187752331967
30
0
41
1
10
-55.7092375195426
20
-5.32619065397267
30
0
41
1
10
-55.6676447686972
20
-5.34560920419477
30
0
41
1
10
-55.6125612417126
20
-5.36437634382568
30
0
41
1
10
-55.6013755519815
20
-5.36785346658095
30
0
41
1
10
-55.5789098857052
20
-5.37414928699397
30
0
41
1
10
-55.5449888078968
20
-5.38263478003245
30
0
41
1
10
-55.5103812675636
20
-5.38816693911767
30
0
41
1
10
-55.4869828320874
20
-5.39045045482675
30
0
0
SPLINE
5
D5
100
AcDbEntity
8
SK1
62
256
6
ByLayer
370
18
48
1
60
0
100
AcDbSpline
70
4
71
3
72
38
73
34
40
0
40
0
40
0
40
0
40
0.0624999999999988
40
0.0624999999999988
40
0.0937499999999982
40
0.0937499999999982
40
0.109374999999998
40
0.109374999999998
40
0.124999999999999
40
0.124999999999999
40
0.187499999999997
40
0.187499999999997
40
0.218749999999997
40
0.218749999999997
40
0.249999999999996
40
0.249999999999996
40
0.312499999999996
40
0.312499999999996
40
0.374999999999996
40
0.374999999999996
40
0.437499999999996
40
0.437499999999996
40
0.468749999999996
40
0.468749999999996
40
0.499999999999996
40
0.499999999999996
40
0.624999999999997
40
0.624999999999997
40
0.749999999999998
40
0.749999999999998
40
0.874999999999999
40
0.874999999999999
40
1
40
1
40
1
40
1
41
1
10
-55.4869828320874
20
5.39045045482675
30
0
41
1
10
-55.5340112854939
20
5.38586082265942
30
0
41
1
10
-55.5792475407432
20
5.37567921640115
30
0
41
1
10
-55.6448597758275
20
5.35339526064908
30
0
41
1
10
-55.6663543340588
20
5.34479075805541
30
0
41
1
10
-55.6980700363939
20
5.33023526841174
30
0
41
1
10
-55.7085426555182
20
5.32511155488996
30
0
41
1
10
-55.7290868425515
20
5.31446061507978
30
0
41
1
10
-55.7391894091154
20
5.30891956332113
30
0
41
1
10
-55.7889172059676
20
5.28021446580462
30
0
41
1
10
-55.8262117488448
20
5.25408170222258
30
0
41
1
10
-55.87927436858
20
5.21118741343659
30
0
41
1
10
-55.8964771995976
20
5.19626735233749
30
0
41
1
10
-55.9300114215657
20
5.16530406746776
30
0
41
1
10
-55.9462917892921
20
5.14930296213541
30
0
41
1
10
-55.9934356942821
20
5.10035000843709
30
0
41
1
10
-56.0228020768564
20
5.06628595710666
30
0
41
1
10
-56.078326436026
20
4.99590453061043
30
0
41
1
10
-56.1044778219573
20
4.95958275029739
30
0
41
1
10
-56.1541566098392
20
4.88506830814691
30
0
41
1
10
-56.1776808746374
20
4.84687355258669
30
0
41
1
10
-56.2113079014024
20
4.78837896752557
30
0
41
1
10
-56.2222393682362
20
4.76867706562567
30
0
41
1
10
-56.2434756231488
20
4.72911675343036
30
0
41
1
10
-56.2537968848612
20
4.7092302403565
30
0
41
1
10
-56.3040524668077
20
4.60930752204828
30
0
41
1
10
-56.339989360063
20
4.52781806830399
30
0
41
1
10
-56.4056776145828
20
4.36246555081721
30
0
41
1
10
-56.4354058590262
20
4.27859519764016
30
0
41
1
10
-56.4900491389978
20
4.10890313734902
30
0
41
1
10
-56.5149546873467
20
4.02307844746088
30
0
41
1
10
-56.56088189532
20
3.84976160662609
30
0
41
1
10
-56.5818990222464
20
3.76226803539686
30
0
41
1
10
-56.6013095599541
20
3.67404242557649
30
0
0
SPLINE
5
D6
100
AcDbEntity
8
SK1
62
256
6
ByLayer
370
18
48
1
60
0
100
AcDbSpline
70
4
71
3
72
33
73
29
40
0
40
0
40
0
40
0
40
0.125000000000006
40
0.125000000000006
40
0.250000000000012
40
0.250000000000012
40
0.375000000000017
40
0.375000000000017
40
0.40625000000002
40
0.40625000000002
40
0.437500000000023
40
0.437500000000023
40
0.500000000000019
40
0.500000000000019
40
0.625000000000009
40
0.625000000000009
40
0.656250000000005
40
0.656250000000005
40
0.687500000000001
40
0.687500000000001
40
0.749999999999993
40
0.812499999999985
40
0.812499999999985
40
0.843749999999988
40
0.843749999999988
40
0.87499999999999
40
0.87499999999999
40
1
40
1
40
1
40
1
41
1
10
-14.051872681288
20
7.58734230610622
30
0
41
1
10
-14.0806477010082
20
7.63716049470688
30
0
41
1
10
-14.1111960666033
20
7.68574713585582
30
0
41
1
10
-14.1763795738798
20
7.78016829172287
30
0
41
1
10
-14.2110110664831
20
7.82600493913273
30
0
41
1
10
-14.2851110385999
20
7.91451556477941
30
0
41
1
10
-14.3245721279275
20
7.95719387593883
30
0
41
1
10
-14.3776213268518
20
8.00817431396229
30
0
41
1
10
-14.3884185818754
20
8.01825128676794
30
0
41
1
10
-14.4104115542246
20
8.03815365023897
30
0
41
1
10
-14.4216108037395
20
8.04798083475526
30
0
41
1
10
-14.455622663142
20
8.07687937861485
30
0
41
1
10
-14.4789160665747
20
8.09543103467254
30
0
41
1
10
-14.5508106006942
20
8.14878338695524
30
0
41
1
10
-14.6014062936362
20
8.18130323174049
30
0
41
1
10
-14.6687381239779
20
8.21735588111801
30
0
41
1
10
-14.6824104044294
20
8.22433484183665
30
0
41
1
10
-14.710192970406
20
8.23780190427706
30
0
41
1
10
-14.7242927464647
20
8.24428275713819
30
0
41
1
10
-14.7668701147152
20
8.26277278740699
30
0
41
1
10
-14.8246359059293
20
8.28501525135295
30
0
41
1
10
-14.8845078995177
20
8.30218349007504
30
0
41
1
10
-14.9302595196826
20
8.31302504752674
30
0
41
1
10
-14.9456514993249
20
8.31629937780269
30
0
41
1
10
-14.976730334019
20
8.3221411784192
30
0
41
1
10
-14.9924519952567
20
8.32471328587587
30
0
41
1
10
-15.0714171524834
20
8.33566995587665
30
0
41
1
10
-15.1349687406039
20
8.33829643503807
30
0
41
1
10
-15.198909252112
20
8.33463752287949
30
0
0
SPLINE
5
D7
100
AcDbEntity
8
SK1
62
256
6
ByLayer
370
18
48
1
60
0
100
AcDbSpline
70
4
71
3
72
28
73
24
40
0
40
0
40
0
40
0
40
0.124999999999995
40
0.124999999999995
40
0.187499999999992
40
0.187499999999992
40
0.24999999999999
40
0.24999999999999
40
0.374999999999983
40
0.374999999999983
40
0.437499999999979
40
0.437499999999979
40
0.499999999999976
40
0.499999999999976
40
0.624999999999981
40
0.624999999999981
40
0.687499999999984
40
0.687499999999984
40
0.749999999999987
40
0.749999999999987
40
0.874999999999994
40
0.874999999999994
40
1
40
1
40
1
40
1
41
1
10
-15.198909252112
20
-8.33463752287949
30
0
41
1
10
-15.1350143484387
20
-8.33829382518937
30
0
41
1
10
-15.0719017967204
20
-8.33565332559238
30
0
41
1
10
-14.978337274282
20
-8.32279548271791
30
0
41
1
10
-14.9473338896935
20
-8.31702027865589
30
0
41
1
10
-14.8856931933269
20
-8.30251274872501
30
0
41
1
10
-14.8554833479755
20
-8.29387762923409
30
0
41
1
10
-14.7669559756536
20
-8.26429996307647
30
0
41
1
10
-14.7105270717761
20
-8.23965842490716
30
0
41
1
10
-14.6292411643099
20
-8.19624288886422
30
0
41
1
10
-14.6029581616285
20
-8.18081975592636
30
0
41
1
10
-14.5521237698499
20
-8.14844888077508
30
0
41
1
10
-14.5275204196119
20
-8.13147265143903
30
0
41
1
10
-14.4558957807576
20
-8.07840113768455
30
0
41
1
10
-14.411048006958
20
-8.04017416621042
30
0
41
1
10
-14.347408645875
20
-7.9791980354984
30
0
41
1
10
-14.3267704985616
20
-7.9582267315275
30
0
41
1
10
-14.2867812208927
20
-7.91531082173958
30
0
41
1
10
-14.267487937703
20
-7.89343345035931
30
0
41
1
10
-14.2115013365259
20
-7.82665213506647
30
0
41
1
10
-14.1766922853205
20
-7.78060380498701
30
0
41
1
10
-14.1112733091055
20
-7.68587638410847
30
0
41
1
10
-14.080667629502
20
-7.63719499690606
30
0
41
1
10
-14.051872681288
20
-7.58734230610622
30
0
0
SPLINE
5
D8
100
AcDbEntity
8
1
62
256
6
ByLayer
370
13
48
1
60
0
100
AcDbSpline
70
4
71
3
72
78
73
74
40
0
40
0
40
0
40
0
40
0.03125
40
0.03125
40
0.0625
40
0.0625
40
0.09375
40
0.09375
40
0.125
40
0.125
40
0.15625
40
0.15625
40
0.1875
40
0.1875
40
0.21875
40
0.21875
40
0.25
40
0.25
40
0.28125
40
0.28125
40
0.3125
40
0.3125
40
0.34375
40
0.34375
40
0.375
40
0.375
40
0.40625
40
0.40625
40
0.421875
40
0.421875
40
0.4296875
40
0.4296875
40
0.4375
40
0.4375
40
0.46875
40
0.46875
40
0.5
40
0.5
40
0.531250000000001
40
0.531250000000001
40
0.562500000000001
40
0.562500000000001
40
0.593750000000001
40
0.593750000000001
40
0.625000000000001
40
0.625000000000001
40
0.656250000000001
40
0.656250000000001
40
0.687500000000001
40
0.687500000000001
40
0.718750000000001
40
0.718750000000001
40
0.750000000000001
40
0.750000000000001
40
0.781250000000001
40
0.781250000000001
40
0.812500000000001
40
0.812500000000001
40
0.843750000000001
40
0.843750000000001
40
0.859375000000001
40
0.859375000000001
40
0.867187500000001
40
0.867187500000001
40
0.875000000000001
40
0.875000000000001
40
0.906250000000001
40
0.906250000000001
40
0.9375
40
0.9375
40
0.96875
40
0.96875
40
1
40
1
40
1
40
1
41
1
10
57.0356245835209
20
14
30
0
41
1
10
57.1113411682787
20
14
30
0
41
1
10
57.1870577530366
20
13.9757107027168
30
0
41
1
10
57.3384909225523
20
13.8728577603987
30
0
41
1
10
57.4142075073101
20
13.7942753145482
30
0
41
1
10
57.5656406768258
20
13.5783902302509
30
0
41
1
10
57.6413572615836
20
13.4410699738244
30
0
41
1
10
57.7927904310993
20
13.1051049386352
30
0
41
1
10
57.8685070158571
20
12.9064466806584
30
0
41
1
10
58.0199401853728
20
12.4475210904974
30
0
41
1
10
58.0956567701306
20
12.1872473013384
30
0
41
1
10
58.2470899396463
20
11.6074357159207
30
0
41
1
10
58.3228065244041
20
11.287900522097
30
0
41
1
10
58.4742396939198
20
10.5946053529172
30
0
41
1
10
58.5499562786777
20
10.2208575373407
30
0
41
1
10
58.7013894481933
20
9.42664926031367
30
0
41
1
10
58.7771060329512
20
9.00620915402331
30
0
41
1
10
58.9285392024668
20
8.12810650909759
30
0
41
1
10
59.0042557872246
20
7.67046953036234
30
0
41
1
10
59.1556889567403
20
6.72873976263787
30
0
41
1
10
59.2314055414982
20
6.24467385472477
30
0
41
1
10
59.3828387110139
20
5.26132710986334
30
0
41
1
10
59.4585552957717
20
4.76207067051709
30
0
41
1
10
59.6099884652874
20
3.75927452361842
30
0
41
1
10
59.6857050500452
20
3.25575385691593
30
0
41
1
10
59.8371382195609
20
2.25439009607618
30
0
41
1
10
59.9128548043188
20
1.75655921043312
30
0
41
1
10
60.0264296814554
20
1.02045874557754
30
0
41
1
10
60.0642879738344
20
0.776853851571104
30
0
41
1
10
60.1210754124027
20
0.414768058835136
30
0
41
1
10
60.1400045585922
20
0.294625538708147
30
0
41
1
10
60.1778628509711
20
0.0555488252026635
30
0
41
1
10
60.1967919971606
20
-0.0630853199786543
30
0
41
1
10
60.2914377281079
20
-0.660904315947562
30
0
41
1
10
60.3671543128657
20
-1.14887742336859
30
0
41
1
10
60.5185874823814
20
-2.1370133752298
30
0
41
1
10
60.5943040671393
20
-2.63716921165505
30
0
41
1
10
60.7457372366549
20
-3.64076584117072
30
0
41
1
10
60.8214538214127
20
-4.14419262294533
30
0
41
1
10
60.9728869909284
20
-5.14408246828233
30
0
41
1
10
61.0486035756862
20
-5.64052492414012
30
0
41
1
10
61.2000367452019
20
-6.61537578643043
30
0
41
1
10
61.2757533299597
20
-7.09375883941567
30
0
41
1
10
61.4271864994754
20
-8.02129699916273
30
0
41
1
10
61.5029030842333
20
-8.47042518037097
30
0
41
1
10
61.6543362537489
20
-9.32893378953463
30
0
41
1
10
61.7300528385068
20
-9.73828963629293
30
0
41
1
10
61.8814860080225
20
-10.5081960429349
30
0
41
1
10
61.9572025927803
20
-10.8687281107319
30
0
41
1
10
62.108635762296
20
-11.5340517396314
30
0
41
1
10
62.1843523470538
20
-11.838833525747
30
0
41
1
10
62.3357855165694
20
-12.3882764719075
30
0
41
1
10
62.4115021013273
20
-12.6329374600992
30
0
41
1
10
62.562935270843
20
-13.0604646390358
30
0
41
1
10
62.6386518556008
20
-13.2433393203733
30
0
41
1
10
62.7900850251165
20
-13.5481956136617
30
0
41
1
10
62.8658016098743
20
-13.6701920511036
30
0
41
1
10
63.01723477939
20
-13.8564096875726
30
0
41
1
10
63.0929513641478
20
-13.920649074772
30
0
41
1
10
63.2065262412846
20
-13.9772969101106
30
0
41
1
10
63.2443845336635
20
-13.9895725593269
30
0
41
1
10
63.3011719722319
20
-13.9986110384972
30
0
41
1
10
63.3201011184214
20
-14.0000619103964
30
0
41
1
10
63.3579594108003
20
-13.9999340461701
30
0
41
1
10
63.3768885569897
20
-13.9983533695149
30
0
41
1
10
63.471534287937
20
-13.982630209655
30
0
41
1
10
63.5472508726949
20
-13.9449849853772
30
0
41
1
10
63.6986840422105
20
-13.8141405019313
30
0
41
1
10
63.7744006269684
20
-13.7209224843793
30
0
41
1
10
63.925833796484
20
-13.4749053163369
30
0
41
1
10
64.0015503812419
20
-13.3220893138109
30
0
41
1
10
64.1529835507575
20
-12.9548237104924
30
0
41
1
10
64.2287001355153
20
-12.7403621687674
30
0
41
1
10
64.3044167202732
20
-12.4952667734237
30
0
0
SPLINE
5
D9
100
AcDbEntity
8
1
62
256
6
ByLayer
370
13
48
1
60
0
100
AcDbSpline
70
4
71
3
72
78
73
74
40
0
40
0
40
0
40
0
40
0.0312499999999995
40
0.0312499999999995
40
0.0624999999999989
40
0.0624999999999989
40
0.0937499999999984
40
0.0937499999999984
40
0.124999999999998
40
0.124999999999998
40
0.132812499999998
40
0.132812499999998
40
0.140624999999998
40
0.140624999999998
40
0.156249999999998
40
0.156249999999998
40
0.187499999999997
40
0.187499999999997
40
0.218749999999997
40
0.218749999999997
40
0.249999999999997
40
0.249999999999997
40
0.281249999999997
40
0.281249999999997
40
0.312499999999997
40
0.312499999999997
40
0.343749999999997
40
0.343749999999997
40
0.374999999999997
40
0.374999999999997
40
0.406249999999996
40
0.406249999999996
40
0.437499999999996
40
0.437499999999996
40
0.468749999999996
40
0.468749999999996
40
0.499999999999996
40
0.499999999999996
40
0.531249999999995
40
0.531249999999995
40
0.562499999999995
40
0.562499999999995
40
0.570312499999995
40
0.570312499999995
40
0.578124999999995
40
0.578124999999995
40
0.593749999999995
40
0.593749999999995
40
0.624999999999996
40
0.624999999999996
40
0.656249999999996
40
0.656249999999996
40
0.687499999999996
40
0.687499999999996
40
0.718749999999997
40
0.718749999999997
40
0.749999999999997
40
0.749999999999997
40
0.781249999999997
40
0.781249999999997
40
0.812499999999998
40
0.812499999999998
40
0.843749999999998
40
0.843749999999998
40
0.874999999999998
40
0.874999999999998
40
0.906249999999999
40
0.906249999999999
40
0.937499999999999
40
0.937499999999999
40
0.96875
40
0.96875
40
1
40
1
40
1
40
1
41
1
10
51.7
20
-12.4952626933577
30
0
41
1
10
51.7757165978874
20
-12.7403584699727
30
0
41
1
10
51.8514331957749
20
-12.9548203869678
30
0
41
1
10
52.0028663915498
20
-13.3220867145761
30
0
41
1
10
52.0785829894372
20
-13.4749030660978
30
0
41
1
10
52.2300161852121
20
-13.7209208951689
30
0
41
1
10
52.3057327830995
20
-13.8141392247506
30
0
41
1
10
52.4571659788744
20
-13.9449842886081
30
0
41
1
10
52.5328825767618
20
-13.9826297812815
30
0
41
1
10
52.6275283241212
20
-13.9983532475829
30
0
41
1
10
52.646457473593
20
-13.9999339840822
30
0
41
1
10
52.6843157725367
20
-14.0000619650975
30
0
41
1
10
52.7032449220086
20
-13.9986111518388
30
0
41
1
10
52.7600323704242
20
-13.9895728498519
30
0
41
1
10
52.7978906693679
20
-13.9772973201419
30
0
41
1
10
52.9114655661991
20
-13.920649846029
30
0
41
1
10
52.9871821640864
20
-13.8564107033049
30
0
41
1
10
53.1386153598613
20
-13.6701935540647
30
0
41
1
10
53.2143319577487
20
-13.5481973593519
30
0
41
1
10
53.3657651535237
20
-13.2433415394399
30
0
41
1
10
53.4414817514111
20
-13.0604670887155
30
0
41
1
10
53.5929149471859
20
-12.6329403481478
30
0
41
1
10
53.6686315450734
20
-12.3882795676726
30
0
41
1
10
53.8200647408482
20
-11.8388370040168
30
0
41
1
10
53.8957813387357
20
-11.534055392652
30
0
41
1
10
54.0472145345105
20
-10.8687320721386
30
0
41
1
10
54.122931132398
20
-10.5082001379491
30
0
41
1
10
54.2743643281728
20
-9.73829395210922
30
0
41
1
10
54.3500809260602
20
-9.32893819253349
30
0
41
1
10
54.5015141218352
20
-8.47042970952884
30
0
41
1
10
54.5772307197225
20
-8.02130156730331
30
0
41
1
10
54.7286639154975
20
-7.09376343911663
30
0
41
1
10
54.8043805133849
20
-6.61538037873126
30
0
41
1
10
54.9558137091597
20
-5.64052946019208
30
0
41
1
10
55.0315303070473
20
-5.14408695551791
30
0
41
1
10
55.1829635028221
20
-4.14419697836772
30
0
41
1
10
55.2586801007095
20
-3.64077011363156
30
0
41
1
10
55.4101132964844
20
-2.63717329254916
30
0
41
1
10
55.4858298943719
20
-2.13701734755031
30
0
41
1
10
55.6372630901468
20
-1.14888116167566
30
0
41
1
10
55.7129796880342
20
-0.660907928838554
30
0
41
1
10
55.8076254353935
20
-0.063088770666667
30
0
41
1
10
55.8265545848653
20
0.0555453957911993
30
0
41
1
10
55.8644128838091
20
0.294622127716423
30
0
41
1
10
55.8833420332809
20
0.414764657736839
30
0
41
1
10
55.9401294816965
20
0.776850482221391
30
0
41
1
10
55.9779877806402
20
1.02045540015413
30
0
41
1
10
56.0915626774714
20
1.75655594511275
30
0
41
1
10
56.1672792753588
20
2.25438689530989
30
0
41
1
10
56.3187124711337
20
3.25575080660497
30
0
41
1
10
56.3944290690211
20
3.75927155921286
30
0
41
1
10
56.545862264796
20
4.76206789657172
30
0
41
1
10
56.6215788626834
20
5.26132444046837
30
0
41
1
10
56.7730120584583
20
6.24467140861546
30
0
41
1
10
56.8487286563457
20
6.72873743524988
30
0
41
1
10
57.0001618521206
20
7.67046744864388
30
0
41
1
10
57.075878450008
20
8.12810455430514
30
0
41
1
10
57.2273116457829
20
9.00620745440762
30
0
41
1
10
57.3030282436703
20
9.42664768892203
30
0
41
1
10
57.4544614394452
20
10.2208562166261
30
0
41
1
10
57.5301780373327
20
10.5946041546297
30
0
41
1
10
57.6816112331075
20
11.2878995564147
30
0
41
1
10
57.757327830995
20
11.6074348603965
30
0
41
1
10
57.9087610267699
20
12.1872466487328
30
0
41
1
10
57.9844776246573
20
12.4475205306418
30
0
41
1
10
58.1359108204321
20
12.9064462855565
30
0
41
1
10
58.2116274183196
20
13.105104615537
30
0
41
1
10
58.3630606140944
20
13.4410697726018
30
0
41
1
10
58.4387772119819
20
13.578390078909
30
0
41
1
10
58.5902104077567
20
13.7942752412773
30
0
41
1
10
58.6659270056442
20
13.8728577153323
30
0
41
1
10
58.8173602014191
20
13.9757106942777
30
0
41
1
10
58.8930767993065
20
14
30
0
41
1
10
58.968793397194
20
14
30
0
0
SPLINE
5
DA
100
AcDbEntity
8
1
62
256
6
ByLayer
370
13
48
1
60
0
100
AcDbSpline
70
4
71
3
72
74
73
70
40
0
40
0
40
0
40
0
40
0.03125
40
0.03125
40
0.0625
40
0.0625
40
0.09375
40
0.09375
40
0.125
40
0.125
40
0.15625
40
0.15625
40
0.1875
40
0.1875
40
0.21875
40
0.21875
40
0.25
40
0.25
40
0.28125
40
0.28125
40
0.3125
40
0.3125
40
0.34375
40
0.34375
40
0.375
40
0.375
40
0.40625
40
0.40625
40
0.421875
40
0.421875
40
0.4375
40
0.4375
40
0.46875
40
0.46875
40
0.5
40
0.5
40
0.53125
40
0.53125
40
0.5625
40
0.5625
40
0.59375
40
0.59375
40
0.625
40
0.625
40
0.65625
40
0.65625
40
0.6875
40
0.6875
40
0.71875
40
0.71875
40
0.75
40
0.75
40
0.78125
40
0.78125
40
0.8125
40
0.8125
40
0.828125
40
0.828125
40
0.84375
40
0.84375
40
0.875
40
0.875
40
0.90625
40
0.90625
40
0.9375
40
0.9375
40
0.96875
40
0.96875
40
1
40
1
40
1
40
1
41
1
10
56.5505678604937
20
14
30
0
41
1
10
56.6313371194498
20
14
30
0
41
1
10
56.7121063784057
20
13.9723538034783
30
0
41
1
10
56.8736448963178
20
13.8548986933433
30
0
41
1
10
56.9544141552738
20
13.7650638269494
30
0
41
1
10
57.1159526731859
20
13.5180248988373
30
0
41
1
10
57.1967219321419
20
13.3607970487254
30
0
41
1
10
57.358260450054
20
12.9762404420776
30
0
41
1
10
57.4390297090101
20
12.7488947375356
30
0
41
1
10
57.6005682269221
20
12.2244750577755
30
0
41
1
10
57.6813374858782
20
11.9273953179195
30
0
41
1
10
57.8428760037903
20
11.2673411393918
30
0
41
1
10
57.9236452627462
20
10.9043747473263
30
0
41
1
10
58.0851837806584
20
10.1198154346877
30
0
41
1
10
58.1659530396144
20
9.6982441907594
30
0
41
1
10
58.3274915575265
20
8.8067283265207
30
0
41
1
10
58.4082608164825
20
8.33681576647336
30
0
41
1
10
58.5697993343947
20
7.3610339469891
30
0
41
1
10
58.6505685933507
20
6.85520162209971
30
0
41
1
10
58.8121071112627
20
5.8211026009871
30
0
41
1
10
58.8928763702187
20
5.29287151290663
30
0
41
1
10
59.0544148881308
20
4.22749085225146
30
0
41
1
10
59.1351841470868
20
3.69037035119405
30
0
41
1
10
59.296722664999
20
2.61973143739195
30
0
41
1
10
59.3774919239549
20
2.08623247800708
30
0
41
1
10
59.5390304418671
20
1.033624306512
30
0
41
1
10
59.6197997008231
20
0.514524259150875
30
0
41
1
10
59.7409535892571
20
-0.246864763057118
30
0
41
1
10
59.7813382187352
20
-0.50332205250362
30
0
41
1
10
59.8621074776911
20
-1.02117475890478
30
0
41
1
10
59.9024921071692
20
-1.28246739789452
30
0
41
1
10
60.0236459956032
20
-2.07172870067257
30
0
41
1
10
60.1044152545592
20
-2.60514212528781
30
0
41
1
10
60.2659537724713
20
-3.6757167081584
30
0
41
1
10
60.3467230314274
20
-4.21285850718965
30
0
41
1
10
60.5082615493395
20
-5.27840143351173
30
0
41
1
10
60.5890308082955
20
-5.80677356666868
30
0
41
1
10
60.7505693262076
20
-6.84127933121587
30
0
41
1
10
60.8313385851636
20
-7.3473773930871
30
0
41
1
10
60.9928771030757
20
-8.32381055259899
30
0
41
1
10
61.0736463620318
20
-8.79410870011057
30
0
41
1
10
61.2351848799437
20
-9.68650065221576
30
0
41
1
10
61.3159541388998
20
-10.1085623249321
30
0
41
1
10
61.4774926568119
20
-10.8941836055203
30
0
41
1
10
61.558261915768
20
-11.257721423212
30
0
41
1
10
61.71980043368
20
-11.91896975796
30
0
41
1
10
61.8005696926361
20
-12.2166720987172
30
0
41
1
10
61.9621082105481
20
-12.7423562328178
30
0
41
1
10
62.0428774695042
20
-12.9703436732866
30
0
41
1
10
62.2044159874163
20
-13.3561725206263
30
0
41
1
10
62.2851852463724
20
-13.5140307917194
30
0
41
1
10
62.4467237642844
20
-13.7622935089462
30
0
41
1
10
62.5274930232404
20
-13.8527217027744
30
0
41
1
10
62.6890315411525
20
-13.9713071466365
30
0
41
1
10
62.7698008001085
20
-13.9994903490819
30
0
41
1
10
62.8909546885425
20
-14.0002445276123
30
0
41
1
10
62.9313393180205
20
-13.9936024366413
30
0
41
1
10
63.0121085769766
20
-13.9656327695862
30
0
41
1
10
63.0524932064546
20
-13.9443040900306
30
0
41
1
10
63.1736470948887
20
-13.857059745563
30
0
41
1
10
63.2544163538447
20
-13.7678177697828
30
0
41
1
10
63.4159548717568
20
-13.5220019632029
30
0
41
1
10
63.4967241307128
20
-13.365404303706
30
0
41
1
10
63.6582626486249
20
-12.9821197362728
30
0
41
1
10
63.7390319075809
20
-12.7554157969166
30
0
41
1
10
63.900570425493
20
-12.2322609196284
30
0
41
1
10
63.9813396844491
20
-11.9358040997723
30
0
41
1
10
64.1428782023611
20
-11.276945003394
30
0
41
1
10
64.2236474613172
20
-10.9145506437722
30
0
41
1
10
64.3044167202732
20
-10.5228027032938
30
0
0
SPLINE
5
DB
100
AcDbEntity
8
1
62
256
6
ByLayer
370
13
48
1
60
0
100
AcDbSpline
70
4
71
3
72
77
73
73
40
0
40
0
40
0
40
0
40
0.0312499999999997
40
0.0312499999999997
40
0.0624999999999994
40
0.0624999999999994
40
0.0703124999999994
40
0.0703124999999994
40
0.0781249999999994
40
0.0781249999999994
40
0.0937499999999993
40
0.0937499999999993
40
0.124999999999999
40
0.124999999999999
40
0.156249999999999
40
0.156249999999999
40
0.187499999999999
40
0.187499999999999
40
0.218749999999998
40
0.218749999999998
40
0.249999999999998
40
0.249999999999998
40
0.281249999999998
40
0.281249999999998
40
0.312499999999997
40
0.312499999999997
40
0.343749999999997
40
0.343749999999997
40
0.374999999999997
40
0.374999999999997
40
0.406249999999996
40
0.406249999999996
40
0.437499999999996
40
0.437499999999996
40
0.468749999999996
40
0.468749999999996
40
0.499999999999996
40
0.499999999999996
40
0.531249999999995
40
0.531249999999995
40
0.539062499999995
40
0.539062499999995
40
0.546874999999995
40
0.562499999999996
40
0.562499999999996
40
0.593749999999996
40
0.593749999999996
40
0.624999999999996
40
0.624999999999996
40
0.656249999999997
40
0.656249999999997
40
0.687499999999997
40
0.687499999999997
40
0.718749999999997
40
0.718749999999997
40
0.749999999999998
40
0.749999999999998
40
0.781249999999998
40
0.781249999999998
40
0.812499999999999
40
0.812499999999999
40
0.843749999999999
40
0.843749999999999
40
0.874999999999999
40
0.874999999999999
40
0.906249999999999
40
0.906249999999999
40
0.9375
40
0.9375
40
0.96875
40
0.96875
40
1
40
1
40
1
40
1
41
1
10
51.7
20
-13.6462492858261
30
0
41
1
10
51.7706639236893
20
-13.7535661348012
30
0
41
1
10
51.8413278473785
20
-13.8351352364063
30
0
41
1
10
51.9826556947569
20
-13.9501619406391
30
0
41
1
10
52.0533196184463
20
-13.9836328551844
30
0
41
1
10
52.1416495230578
20
-13.9981937230986
30
0
41
1
10
52.15931550398
20
-13.9997440341099
30
0
41
1
10
52.1946474658247
20
-14.0001976191647
30
0
41
1
10
52.212313446747
20
-13.9991064911409
30
0
41
1
10
52.2653113895139
20
-13.9917685795898
30
0
41
1
10
52.3006433513585
20
-13.9814536847149
30
0
41
1
10
52.4066392368924
20
-13.9333623148551
30
0
41
1
10
52.4773031605816
20
-13.8784054310189
30
0
41
1
10
52.6186310079601
20
-13.7186926169011
30
0
41
1
10
52.6892949316493
20
-13.6139236417101
30
0
41
1
10
52.8306227790277
20
-13.3517905679116
30
0
41
1
10
52.9012867027171
20
-13.194415315615
30
0
41
1
10
53.0426145500955
20
-12.8258810825982
30
0
41
1
10
53.1132784737848
20
-12.6147147011252
30
0
41
1
10
53.2546063211632
20
-12.1393026067903
30
0
41
1
10
53.3252702448524
20
-11.8750548430688
30
0
41
1
10
53.466598092231
20
-11.2962249139963
30
0
41
1
10
53.5372620159202
20
-10.9816469606283
30
0
41
1
10
53.6785898632987
20
-10.3069124022232
30
0
41
1
10
53.7492537869879
20
-9.94676618973449
30
0
41
1
10
53.8905816343664
20
-9.18744123432879
30
0
41
1
10
53.9612455580556
20
-8.78827791013151
30
0
41
1
10
54.102573405434
20
-7.95886256297646
30
0
41
1
10
54.1732373291233
20
-7.52862896853651
30
0
41
1
10
54.3145651765018
20
-6.6458984002229
30
0
41
1
10
54.385229100191
20
-6.19342042832855
30
0
41
1
10
54.5265569475695
20
-5.27533680136787
30
0
41
1
10
54.5972208712587
20
-4.80974839536592
30
0
41
1
10
54.7385487186372
20
-3.87433747630971
30
0
41
1
10
54.8092126423264
20
-3.40452869238521
30
0
41
1
10
54.9505404897049
20
-2.46885759127306
30
0
41
1
10
55.0212044133942
20
-2.00300452396019
30
0
41
1
10
55.1625322607726
20
-1.08236480084727
30
0
41
1
10
55.2331961844619
20
-0.627582779335711
30
0
41
1
10
55.3215260890734
20
-0.0696787806815564
30
0
41
1
10
55.3391920699957
20
0.0410624145757481
30
0
41
1
10
55.3745240318403
20
0.264043178307617
30
0
41
1
10
55.4275219746072
20
0.600099743283522
30
0
41
1
10
55.4805199173741
20
0.940547848969715
30
0
41
1
10
55.586515802908
20
1.62620999269868
30
0
41
1
10
55.6571797265972
20
2.0897108812915
30
0
41
1
10
55.7985075739758
20
3.02272392538413
30
0
41
1
10
55.869171497665
20
3.49222810203784
30
0
41
1
10
56.0104993450435
20
4.42933562662415
30
0
41
1
10
56.0811632687326
20
4.89692640247253
30
0
41
1
10
56.2224911161111
20
5.82147287811088
30
0
41
1
10
56.2931550398003
20
6.27841214090498
30
0
41
1
10
56.4344828871788
20
7.17253801590692
30
0
41
1
10
56.505146810868
20
7.60970588857023
30
0
41
1
10
56.6464746582465
20
8.45532260376183
30
0
41
1
10
56.7171385819358
20
8.86375261627211
30
0
41
1
10
56.8584664293143
20
9.64365107522912
30
0
41
1
10
56.9291303530035
20
10.0151030595957
30
0
41
1
10
57.070458200382
20
10.7140657361059
30
0
41
1
10
57.1411221240712
20
11.041564514971
30
0
41
1
10
57.2824499714497
20
11.6473374769191
30
0
41
1
10
57.3531138951389
20
11.9256057162994
30
0
41
1
10
57.4944417425173
20
12.4296032019687
30
0
41
1
10
57.5651056662066
20
12.6553328517459
30
0
41
1
10
57.7064335135851
20
13.0529911955686
30
0
41
1
10
57.7770974372743
20
13.2249259746455
30
0
41
1
10
57.9184252846528
20
13.5156842194298
30
0
41
1
10
57.989089208342
20
13.6345180008571
30
0
41
1
10
58.1304170557205
20
13.8214632627008
30
0
41
1
10
58.2010809794098
20
13.8895874576819
30
0
41
1
10
58.3424088267882
20
13.9788491711871
30
0
41
1
10
58.4130727504774
20
14
30
0
41
1
10
58.4837366741667
20
14
30
0
0
SPLINE
5
DC
100
AcDbEntity
8
1
62
256
6
ByLayer
370
13
48
1
60
0
100
AcDbSpline
70
4
71
3
72
78
73
74
40
0
40
0
40
0
40
0
40
0.0312499999999999
40
0.0312499999999999
40
0.0624999999999998
40
0.0624999999999998
40
0.0937499999999997
40
0.0937499999999997
40
0.125
40
0.125
40
0.15625
40
0.15625
40
0.187499999999999
40
0.187499999999999
40
0.218749999999999
40
0.218749999999999
40
0.249999999999999
40
0.249999999999999
40
0.281249999999999
40
0.281249999999999
40
0.312499999999999
40
0.312499999999999
40
0.343749999999999
40
0.343749999999999
40
0.374999999999999
40
0.374999999999999
40
0.382812499999999
40
0.382812499999999
40
0.390624999999999
40
0.390624999999999
40
0.406249999999999
40
0.406249999999999
40
0.437499999999999
40
0.437499999999999
40
0.468749999999998
40
0.468749999999998
40
0.499999999999998
40
0.499999999999998
40
0.531249999999998
40
0.531249999999998
40
0.562499999999998
40
0.562499999999998
40
0.593749999999998
40
0.593749999999998
40
0.624999999999998
40
0.624999999999998
40
0.656249999999998
40
0.656249999999998
40
0.687499999999998
40
0.687499999999998
40
0.718749999999998
40
0.718749999999998
40
0.749999999999997
40
0.749999999999997
40
0.757812499999997
40
0.757812499999997
40
0.765624999999997
40
0.765624999999997
40
0.781249999999998
40
0.781249999999998
40
0.812499999999998
40
0.812499999999998
40
0.843749999999998
40
0.843749999999998
40
0.874999999999999
40
0.874999999999999
40
0.906249999999999
40
0.906249999999999
40
0.937499999999999
40
0.937499999999999
40
0.96875
40
0.96875
40
1
40
1
40
1
40
1
41
1
10
56.0655111374664
20
14
30
0
41
1
10
56.1513330706206
20
14
30
0
41
1
10
56.2371550037748
20
13.968778080082
30
0
41
1
10
56.4087988700833
20
13.8357016188384
30
0
41
1
10
56.4946208032376
20
13.7338119716889
30
0
41
1
10
56.6662646695461
20
13.4533899387072
30
0
41
1
10
56.7520866027003
20
13.2748261774287
30
0
41
1
10
56.9237304690088
20
12.8383126588536
30
0
41
1
10
57.009552402163
20
12.580342420627
30
0
41
1
10
57.1811962684714
20
11.9863455382338
30
0
41
1
10
57.2670182016257
20
11.650315580492
30
0
41
1
10
57.4386620679342
20
10.9059809314926
30
0
41
1
10
57.5244840010885
20
10.4976931315147
30
0
41
1
10
57.6961278673969
20
9.61888048794032
30
0
41
1
10
57.7819498005511
20
9.14839096476749
30
0
41
1
10
57.9535936668596
20
8.15867350781249
30
0
41
1
10
58.0394156000138
20
7.63949286653957
30
0
41
1
10
58.2110594663223
20
6.56808459362986
30
0
41
1
10
58.2968813994766
20
6.01590705274097
30
0
41
1
10
58.468525265785
20
4.89489151421967
30
0
41
1
10
58.5543471989393
20
4.32609743225831
30
0
41
1
10
58.7259910652478
20
3.18748703143189
30
0
41
1
10
58.811812998402
20
2.61770220265584
30
0
41
1
10
58.9834568647105
20
1.4908481859627
30
0
41
1
10
59.0692787978647
20
0.933795681981024
30
0
41
1
10
59.1765562143075
20
0.252370649070116
30
0
41
1
10
59.1980116975961
20
0.116956688833625
30
0
41
1
10
59.2409226641732
20
-0.152803781538864
30
0
41
1
10
59.2623781474617
20
-0.288487927442162
30
0
41
1
10
59.3267445973274
20
-0.697733086199634
30
0
41
1
10
59.3696555639045
20
-0.973492429583814
30
0
41
1
10
59.4983884636359
20
-1.80760215787598
30
0
41
1
10
59.5842103967901
20
-2.37286511391707
30
0
41
1
10
59.7558542630986
20
-3.50927479431297
30
0
41
1
10
59.8416761962529
20
-4.08039704547483
30
0
41
1
10
60.0133200625613
20
-5.21370391135326
30
0
41
1
10
60.0991419957156
20
-5.77584999813175
30
0
41
1
10
60.2707858620241
20
-6.87502812826799
30
0
41
1
10
60.3566077951783
20
-7.41201203354584
30
0
41
1
10
60.5282516614868
20
-8.44465561939361
30
0
41
1
10
60.614073594641
20
-8.94026546800524
30
0
41
1
10
60.7857174609495
20
-9.87542006007286
30
0
41
1
10
60.8715393941038
20
-10.3149227264705
30
0
41
1
10
61.0431832604122
20
-11.1260069099358
30
0
41
1
10
61.1290051935665
20
-11.4975621938285
30
0
41
1
10
61.300649059875
20
-12.1648337616994
30
0
41
1
10
61.3864709930291
20
-12.4605438078566
30
0
41
1
10
61.5581148593376
20
-12.9726438265004
30
0
41
1
10
61.6439367924918
20
-13.189046711993
30
0
41
1
10
61.8155806588003
20
-13.5433800501992
30
0
41
1
10
61.9014025919546
20
-13.6813375670855
30
0
41
1
10
62.0730464582631
20
-13.8833343847299
30
0
41
1
10
62.1588683914173
20
-13.9474078684198
30
0
41
1
10
62.2661458078601
20
-13.9858720682699
30
0
41
1
10
62.2876012911487
20
-13.9914887869612
30
0
41
1
10
62.3305122577258
20
-13.9987020952161
30
0
41
1
10
62.3519677410143
20
-14.0002997183629
30
0
41
1
10
62.4163341908799
20
-13.9992628102693
30
0
41
1
10
62.4592451574571
20
-13.990754446496
30
0
41
1
10
62.5879780571884
20
-13.9401705156619
30
0
41
1
10
62.6737999903427
20
-13.8729618326588
30
0
41
1
10
62.8454438566512
20
-13.6644264003735
30
0
41
1
10
62.9312657898054
20
-13.5230656311352
30
0
41
1
10
63.1029096561139
20
-13.1618027127744
30
0
41
1
10
63.1887315892681
20
-12.9418739837381
30
0
41
1
10
63.3603754555766
20
-12.4227804560552
30
0
41
1
10
63.4461973887309
20
-12.1236035111546
30
0
41
1
10
63.6178412550393
20
-11.4496546679299
30
0
41
1
10
63.7036631881936
20
-11.0748899118878
30
0
41
1
10
63.8753070545021
20
-10.2578330128468
30
0
41
1
10
63.9611289876563
20
-9.81556792859746
30
0
41
1
10
64.1327728539648
20
-8.87548897000607
30
0
41
1
10
64.2185947871189
20
-8.37771770838501
30
0
41
1
10
64.3044167202732
20
-7.85958353035352
30
0
0
SPLINE
5
DD
100
AcDbEntity
8
1
62
256
6
ByLayer
370
13
48
1
60
0
100
AcDbSpline
70
4
71
3
72
72
73
68
40
0
40
0
40
0
40
0
40
0.03125
40
0.03125
40
0.0625
40
0.0625
40
0.09375
40
0.09375
40
0.125
40
0.125
40
0.15625
40
0.15625
40
0.1875
40
0.1875
40
0.21875
40
0.21875
40
0.25
40
0.25
40
0.28125
40
0.28125
40
0.3125
40
0.3125
40
0.34375
40
0.34375
40
0.375
40
0.375
40
0.40625
40
0.40625
40
0.4375
40
0.4375
40
0.46875
40
0.46875
40
0.484375
40
0.484375
40
0.5
40
0.5
40
0.53125
40
0.53125
40
0.5625
40
0.5625
40
0.59375
40
0.59375
40
0.625
40
0.625
40
0.65625
40
0.65625
40
0.6875
40
0.6875
40
0.71875
40
0.71875
40
0.75
40
0.75
40
0.78125
40
0.78125
40
0.8125
40
0.8125
40
0.84375
40
0.84375
40
0.875
40
0.875
40
0.90625
40
0.90625
40
0.9375
40
0.9375
40
0.96875
40
0.96875
40
1
40
1
40
1
40
1
41
1
10
51.7000000000001
20
-13.9999824351278
30
0
41
1
10
51.7656112494911
20
-13.9993289788112
30
0
41
1
10
51.8312224989822
20
-13.9804091144777
30
0
41
1
10
51.9624449979642
20
-13.9022952042518
30
0
41
1
10
52.0280562474552
20
-13.843091976092
30
0
41
1
10
52.1592787464373
20
-13.6813400409013
30
0
41
1
10
52.2248899959283
20
-13.5787824340829
30
0
41
1
10
52.3561124949103
20
-13.3282125645578
30
0
41
1
10
52.4217237444014
20
-13.1801927435488
30
0
41
1
10
52.5529462433835
20
-12.8378025345162
30
0
41
1
10
52.6185574928745
20
-12.643427038579
30
0
41
1
10
52.7497799918566
20
-12.2088371149632
30
0
41
1
10
52.8153912413476
20
-11.9686209839046
30
0
41
1
10
52.9466137403297
20
-11.4443746050644
30
0
41
1
10
53.0122249898207
20
-11.1603466406523
30
0
41
1
10
53.1434474888028
20
-10.5520077014846
30
0
41
1
10
53.2090587382938
20
-10.2277030392456
30
0
41
1
10
53.3402812372759
20
-9.54371874942677
30
0
41
1
10
53.4058924867669
20
-9.18404890583716
30
0
41
1
10
53.5371149857489
20
-8.43537504161961
30
0
41
1
10
53.60272623524
20
-8.04638319615671
30
0
41
1
10
53.733948734222
20
-7.24590482838028
30
0
41
1
10
53.7995599837132
20
-6.83443147039671
30
0
41
1
10
53.9307824826952
20
-5.99624253716055
30
0
41
1
10
53.9963937321863
20
-5.56953966024128
30
0
41
1
10
54.1276162311684
20
-4.70816356697307
30
0
41
1
10
54.1932274806594
20
-4.27350133485444
30
0
41
1
10
54.3244499796414
20
-3.40313801576551
30
0
41
1
10
54.3900612291325
20
-2.9674453429441
30
0
41
1
10
54.5212837281145
20
-2.1013183395668
30
0
41
1
10
54.5868949776056
20
-1.6708894642756
30
0
41
1
10
54.6853118518421
20
-1.03328024973936
30
0
41
1
10
54.7181174765876
20
-0.822075779934096
30
0
41
1
10
54.7837287260787
20
-0.402922293654512
30
0
41
1
10
54.8165343508242
20
-0.195104881274148
30
0
41
1
10
54.9149512250607
20
0.423469713596575
30
0
41
1
10
54.9805624745518
20
0.843418466302438
30
0
41
1
10
55.1117849735339
20
1.69394377294381
30
0
41
1
10
55.1773962230249
20
2.12451773403518
30
0
41
1
10
55.308618722007
20
2.99082906713588
30
0
41
1
10
55.374229971498
20
3.42656093007602
30
0
41
1
10
55.5054524704801
20
4.29688330241629
30
0
41
1
10
55.5710637199711
20
4.73146534676891
30
0
41
1
10
55.7022862189532
20
5.59255279283894
30
0
41
1
10
55.7678974684442
20
6.01904717071324
30
0
41
1
10
55.8991199674263
20
6.85668782091486
30
0
41
1
10
55.9647312169173
20
7.26782137461686
30
0
41
1
10
56.0959537158994
20
8.06749269558125
30
0
41
1
10
56.1615649653904
20
8.45601730318242
30
0
41
1
10
56.2927874643725
20
9.20364021309797
30
0
41
1
10
56.3583987138635
20
9.56272637135223
30
0
41
1
10
56.4896212128456
20
10.2454443490217
30
0
41
1
10
56.5552324623366
20
10.5690664384919
30
0
41
1
10
56.6864549613187
20
11.1759641094771
30
0
41
1
10
56.7520662108097
20
11.4592334475543
30
0
41
1
10
56.8832887097918
20
11.9819126703977
30
0
41
1
10
56.9488999592828
20
12.2213203454134
30
0
41
1
10
57.0801224582648
20
12.6542708907064
30
0
41
1
10
57.1457337077559
20
12.8478155319257
30
0
41
1
10
57.276956206738
20
13.188548062221
30
0
41
1
10
57.3425674562291
20
13.3357411123277
30
0
41
1
10
57.4737899552112
20
13.5846851875919
30
0
41
1
10
57.5394012047022
20
13.6864438049896
30
0
41
1
10
57.6706237036843
20
13.8466451251173
30
0
41
1
10
57.7362349531753
20
13.9050967416054
30
0
41
1
10
57.8674574521574
20
13.9817695896832
30
0
41
1
10
57.9330687016484
20
14
30
0
41
1
10
57.9986799511394
20
14
30
0
0
SPLINE
5
DE
100
AcDbEntity
8
1
62
256
6
ByLayer
370
13
48
1
60
0
100
AcDbSpline
70
4
71
3
72
79
73
75
40
0
40
0
40
0
40
0
40
0.0312500000000006
40
0.0312500000000006
40
0.0625000000000011
40
0.0625000000000011
40
0.0937500000000016
40
0.0937500000000016
40
0.125000000000002
40
0.125000000000002
40
0.156250000000003
40
0.156250000000003
40
0.187500000000003
40
0.187500000000003
40
0.218750000000004
40
0.218750000000004
40
0.250000000000004
40
0.250000000000004
40
0.281250000000005
40
0.281250000000005
40
0.312500000000005
40
0.312500000000005
40
0.343750000000006
40
0.343750000000006
40
0.359375000000006
40
0.359375000000006
40
0.363281250000006
40
0.363281250000006
40
0.367187500000006
40
0.375000000000006
40
0.375000000000006
40
0.406250000000006
40
0.406250000000006
40
0.437500000000006
40
0.437500000000006
40
0.468750000000006
40
0.468750000000006
40
0.500000000000005
40
0.500000000000005
40
0.531250000000005
40
0.531250000000005
40
0.562500000000005
40
0.562500000000005
40
0.593750000000005
40
0.593750000000005
40
0.625000000000005
40
0.625000000000005
40
0.656250000000005
40
0.656250000000005
40
0.687500000000005
40
0.687500000000005
40
0.718750000000005
40
0.718750000000005
40
0.726562500000005
40
0.726562500000005
40
0.734375000000005
40
0.734375000000005
40
0.750000000000004
40
0.750000000000004
40
0.781250000000004
40
0.781250000000004
40
0.812500000000003
40
0.812500000000003
40
0.843750000000003
40
0.843750000000003
40
0.875000000000002
40
0.875000000000002
40
0.906250000000002
40
0.906250000000002
40
0.937500000000001
40
0.937500000000001
40
0.968750000000001
40
0.968750000000001
40
1
40
1
40
1
40
1
41
1
10
55.5804544144391
20
14
30
0
41
1
10
55.6713290217916
20
14
30
0
41
1
10
55.762203629144
20
13.9649830929817
30
0
41
1
10
55.9439528438489
20
13.8152580532617
30
0
41
1
10
56.0348274512014
20
13.7005032835697
30
0
41
1
10
56.2165766659062
20
13.3844563550719
30
0
41
1
10
56.3074512732586
20
13.1831236947875
30
0
41
1
10
56.4892004879634
20
12.6913188032184
30
0
41
1
10
56.580075095316
20
12.4008228686405
30
0
41
1
10
56.7618243100208
20
11.7333377442192
30
0
41
1
10
56.8526989173733
20
11.3563503462934
30
0
41
1
10
57.0344481320781
20
10.5241356035169
30
0
41
1
10
57.1253227394305
20
10.0689384905671
30
0
41
1
10
57.3070719541354
20
9.09368852932897
30
0
41
1
10
57.3979465614879
20
8.57368950947301
30
0
41
1
10
57.5796957761927
20
7.48606349548098
30
0
41
1
10
57.6705703835452
20
6.91850246895112
30
0
41
1
10
57.8523195982501
20
5.75497752538831
30
0
41
1
10
57.9431942056025
20
5.15907767976057
30
0
41
1
10
58.1249434203074
20
3.95809234347408
30
0
41
1
10
58.2158180276598
20
3.35305723263215
30
0
41
1
10
58.3975672423647
20
2.15125225010306
30
0
41
1
10
58.4884418497172
20
1.5545127454316
30
0
41
1
10
58.6247537607458
20
0.676443345634567
30
0
41
1
10
58.6701910644221
20
0.386567392824418
30
0
41
1
10
58.7269876940173
20
0.028657902034638
30
0
41
1
10
58.7383470199364
20
-0.0426059179584968
30
0
41
1
10
58.7610656717745
20
-0.185827194454532
30
0
41
1
10
58.7951436495316
20
-0.401320461915447
30
0
41
1
10
58.8292216272889
20
-0.618701822027987
30
0
41
1
10
58.9428148864794
20
-1.34704210519683
30
0
41
1
10
59.0336894938318
20
-1.94180410416419
30
0
41
1
10
59.2154387085367
20
-3.14151027668646
30
0
41
1
10
59.3063133158891
20
-3.74642654699033
30
0
41
1
10
59.488062530594
20
-4.94932963909781
30
0
41
1
10
59.5789371379464
20
-5.54726821475739
30
0
41
1
10
59.7606863526512
20
-6.71715211595435
30
0
41
1
10
59.8515609600037
20
-7.28903444713401
30
0
41
1
10
60.0333101747086
20
-8.38748651312625
30
0
41
1
10
60.124184782061
20
-8.91398977937021
30
0
41
1
10
60.3059339967659
20
-9.90409921571674
30
0
41
1
10
60.3968086041183
20
-10.3676494536563
30
0
41
1
10
60.5785578188233
20
-11.2178941157746
30
0
41
1
10
60.6694324261757
20
-11.6045551494314
30
0
41
1
10
60.8511816408806
20
-12.2920706030374
30
0
41
1
10
60.942056248233
20
-12.5929199174011
30
0
41
1
10
61.1238054629379
20
-13.1054614434092
30
0
41
1
10
61.2146800702903
20
-13.3171747485757
30
0
41
1
10
61.3964292849952
20
-13.6534390412355
30
0
41
1
10
61.4873038923476
20
-13.7780291156492
30
0
41
1
10
61.6690531070525
20
-13.9464482567726
30
0
41
1
10
61.759927714405
20
-13.9903237685836
30
0
41
1
10
61.8735209735955
20
-14.0006194820447
30
0
41
1
10
61.8962396254336
20
-14.0004787372005
30
0
41
1
10
61.9416769291098
20
-13.995781497046
30
0
41
1
10
61.9643955809479
20
-13.9912056480265
30
0
41
1
10
62.0325515364622
20
-13.9705577673371
30
0
41
1
10
62.0779888401385
20
-13.9475606020541
30
0
41
1
10
62.2143007511671
20
-13.8491150302639
30
0
41
1
10
62.3051753585195
20
-13.7441005864013
30
0
41
1
10
62.4869245732245
20
-13.4481394090857
30
0
41
1
10
62.5777991805769
20
-13.2571509093495
30
0
41
1
10
62.7595483952818
20
-12.7860821087859
30
0
41
1
10
62.8504230026342
20
-12.5059756182669
30
0
41
1
10
63.0321722173391
20
-11.8586705005295
30
0
41
1
10
63.1230468246916
20
-11.4914703943184
30
0
41
1
10
63.3047960393964
20
-10.6775839065306
30
0
41
1
10
63.3956706467489
20
-10.2309245307119
30
0
41
1
10
63.5774198614537
20
-9.2709564137713
30
0
41
1
10
63.6682944688062
20
-8.75769923598804
30
0
41
1
10
63.8500436835111
20
-7.68140192299035
30
0
41
1
10
63.9409182908634
20
-7.1184270569245
30
0
41
1
10
64.1226675055683
20
-5.96179037833144
30
0
41
1
10
64.2135421129208
20
-5.36819354935358
30
0
41
1
10
64.3044167202732
20
-4.76891167218952
30
0
0
SPLINE
5
DF
100
AcDbEntity
8
1
62
256
6
ByLayer
370
13
48
1
60
0
100
AcDbSpline
70
4
71
3
72
74
73
70
40
0
40
0
40
0
40
0
40
0.0312499999999997
40
0.0312499999999997
40
0.0624999999999993
40
0.0624999999999993
40
0.093749999999999
40
0.093749999999999
40
0.124999999999999
40
0.124999999999999
40
0.156249999999998
40
0.156249999999998
40
0.187499999999998
40
0.187499999999998
40
0.218749999999998
40
0.218749999999998
40
0.249999999999997
40
0.249999999999997
40
0.281249999999997
40
0.281249999999997
40
0.312499999999996
40
0.312499999999996
40
0.343749999999996
40
0.343749999999996
40
0.374999999999996
40
0.374999999999996
40
0.406249999999995
40
0.406249999999995
40
0.437499999999995
40
0.437499999999995
40
0.453124999999995
40
0.453124999999995
40
0.460937499999995
40
0.460937499999995
40
0.468749999999995
40
0.468749999999995
40
0.499999999999995
40
0.499999999999995
40
0.531249999999995
40
0.531249999999995
40
0.562499999999995
40
0.562499999999995
40
0.593749999999996
40
0.593749999999996
40
0.624999999999996
40
0.624999999999996
40
0.656249999999996
40
0.656249999999996
40
0.687499999999997
40
0.687499999999997
40
0.718749999999997
40
0.718749999999997
40
0.749999999999997
40
0.749999999999997
40
0.781249999999998
40
0.781249999999998
40
0.812499999999998
40
0.812499999999998
40
0.843749999999998
40
0.843749999999998
40
0.874999999999999
40
0.874999999999999
40
0.906249999999999
40
0.906249999999999
40
0.937499999999999
40
0.937499999999999
40
0.96875
40
0.96875
40
1
40
1
40
1
40
1
41
1
10
51.7
20
-13.6354466774413
30
0
41
1
10
51.7605585752928
20
-13.5420094991221
30
0
41
1
10
51.8211171505857
20
-13.429633328472
30
0
41
1
10
51.9422343011714
20
-13.1657412338969
30
0
41
1
10
52.0027928764642
20
-13.0142207917242
30
0
41
1
10
52.1239100270498
20
-12.6717086464252
30
0
41
1
10
52.1844686023427
20
-12.4807141656431
30
0
41
1
10
52.3055857529283
20
-12.059975762145
30
0
41
1
10
52.3661443282212
20
-11.8302312960798
30
0
41
1
10
52.4872614788069
20
-11.3338196390737
30
0
41
1
10
52.5478200540997
20
-11.0671544079568
30
0
41
1
10
52.6689372046853
20
-10.499812376288
30
0
41
1
10
52.7294957799782
20
-10.199140010244
30
0
41
1
10
52.8506129305639
20
-9.56768296581325
30
0
41
1
10
52.9111715058567
20
-9.23690485107844
30
0
41
1
10
53.0322886564423
20
-8.549957047334
30
0
41
1
10
53.0928472317352
20
-8.19379543177556
30
0
41
1
10
53.2139643823208
20
-7.46140064340611
30
0
41
1
10
53.2745229576137
20
-7.08517625938353
30
0
41
1
10
53.3956401081994
20
-6.31831908296789
30
0
41
1
10
53.4561986834921
20
-5.92769495568564
30
0
41
1
10
53.5773158340779
20
-5.13777950826909
30
0
41
1
10
53.6378744093707
20
-4.7384959766008
30
0
41
1
10
53.7589915599564
20
-3.93683139273057
30
0
41
1
10
53.8195501352492
20
-3.53445668661939
30
0
41
1
10
53.9406672858349
20
-2.73179386452853
30
0
41
1
10
54.0012258611278
20
-2.33151032737675
30
0
41
1
10
54.1223430117134
20
-1.53766348453476
30
0
41
1
10
54.1829015870062
20
-1.14410290921597
30
0
41
1
10
54.2737394499454
20
-0.561782294354913
30
0
41
1
10
54.3040187375919
20
-0.369006730376299
30
0
41
1
10
54.3494376690615
20
-0.0821625315373922
30
0
41
1
10
54.3645773128847
20
0.0128032894517673
30
0
41
1
10
54.3948566005312
20
0.203654992522047
30
0
41
1
10
54.4099962443544
20
0.299473148344049
30
0
41
1
10
54.4856944634704
20
0.780396443050023
30
0
41
1
10
54.5462530387633
20
1.17102689187791
30
0
41
1
10
54.6673701893489
20
1.96032113357742
30
0
41
1
10
54.7279287646417
20
2.3589827530829
30
0
41
1
10
54.8490459152274
20
3.1599053274891
30
0
41
1
10
54.9096044905202
20
3.56216227980247
30
0
41
1
10
55.0307216411059
20
4.36525093179745
30
0
41
1
10
55.0912802163987
20
4.76607681142181
30
0
41
1
10
55.2123973669844
20
5.56083575173889
30
0
41
1
10
55.2729559422772
20
5.95476142218524
30
0
41
1
10
55.3940730928629
20
6.73000876776192
30
0
41
1
10
55.4546316681557
20
7.11132197665492
30
0
41
1
10
55.5757488187414
20
7.85562962630652
30
0
41
1
10
55.6363073940342
20
8.21861522846899
30
0
41
1
10
55.7574245446199
20
8.92081178929166
30
0
41
1
10
55.8179831199128
20
9.26001436239471
30
0
41
1
10
55.9391002704984
20
9.90970953856717
30
0
41
1
10
55.9996588457912
20
10.2201950320554
30
0
41
1
10
56.1207759963769
20
10.808276846283
30
0
41
1
10
56.1813345716698
20
11.0858680198078
30
0
41
1
10
56.3024517222554
20
11.6049244571806
30
0
41
1
10
56.3630102975482
20
11.8463869743241
30
0
41
1
10
56.484127448134
20
12.2910116699728
30
0
41
1
10
56.5446860234268
20
12.4941736300598
30
0
41
1
10
56.6658031740124
20
12.8611297590143
30
0
41
1
10
56.7263617493053
20
13.0249260556041
30
0
41
1
10
56.8474788998909
20
13.3131607537928
30
0
41
1
10
56.9080374751838
20
13.4376031952893
30
0
41
1
10
57.0291546257694
20
13.6481230203176
30
0
41
1
10
57.0897132010623
20
13.7342057662107
30
0
41
1
10
57.2108303516479
20
13.8698385428329
30
0
41
1
10
57.2713889269408
20
13.9193946204979
30
0
41
1
10
57.3925060775265
20
13.9844722789835
30
0
41
1
10
57.4530646528194
20
14
30
0
41
1
10
57.5136232281121
20
14
30
0
0
SPLINE
5
E0
100
AcDbEntity
8
1
62
256
6
ByLayer
370
13
48
1
60
0
100
AcDbSpline
70
4
71
3
72
80
73
76
40
0
40
0
40
0
40
0
40
0.0312499999999999
40
0.0312499999999999
40
0.0624999999999997
40
0.0624999999999997
40
0.0937499999999995
40
0.0937499999999995
40
0.124999999999999
40
0.124999999999999
40
0.156249999999999
40
0.156249999999999
40
0.187499999999999
40
0.187499999999999
40
0.218749999999999
40
0.218749999999999
40
0.249999999999999
40
0.249999999999999
40
0.281249999999998
40
0.281249999999998
40
0.312499999999998
40
0.312499999999998
40
0.328124999999998
40
0.328124999999998
40
0.335937499999998
40
0.339843749999998
40
0.339843749999998
40
0.343749999999998
40
0.343749999999998
40
0.374999999999998
40
0.374999999999998
40
0.406249999999999
40
0.406249999999999
40
0.437499999999999
40
0.437499999999999
40
0.468749999999999
40
0.468749999999999
40
0.5
40
0.5
40
0.53125
40
0.53125
40
0.5625
40
0.5625
40
0.593750000000001
40
0.593750000000001
40
0.625000000000001
40
0.625000000000001
40
0.656250000000001
40
0.656250000000001
40
0.671875000000001
40
0.671875000000001
40
0.679687500000001
40
0.683593750000001
40
0.683593750000001
40
0.687500000000002
40
0.687500000000002
40
0.718750000000001
40
0.718750000000001
40
0.750000000000001
40
0.750000000000001
40
0.781250000000001
40
0.781250000000001
40
0.812500000000001
40
0.812500000000001
40
0.843750000000001
40
0.843750000000001
40
0.875000000000001
40
0.875000000000001
40
0.90625
40
0.90625
40
0.9375
40
0.9375
40
0.96875
40
0.96875
40
1
40
1
40
1
40
1
41
1
10
55.0953976914118
20
14
30
0
41
1
10
55.1913249729625
20
14
30
0
41
1
10
55.2872522545131
20
13.9609683628475
30
0
41
1
10
55.4791068176144
20
13.7935597149356
30
0
41
1
10
55.5750340991651
20
13.6651217438595
30
0
41
1
10
55.7668886622663
20
13.3111984820907
30
0
41
1
10
55.8628159438169
20
13.0856619446529
30
0
41
1
10
56.0546705069182
20
12.5352738892646
30
0
41
1
10
56.1505977884689
20
12.2103962924652
30
0
41
1
10
56.3424523515702
20
11.4657119588349
30
0
41
1
10
56.4383796331208
20
11.0459158810423
30
0
41
1
10
56.630234196222
20
10.1227030136116
30
0
41
1
10
56.7261614777727
20
9.61933546969726
30
0
41
1
10
56.918016040874
20
8.54630767742395
30
0
41
1
10
57.0139433224246
20
7.97672516377682
30
0
41
1
10
57.2057978855259
20
6.7926601828581
30
0
41
1
10
57.3017251670765
20
6.17826526546207
30
0
41
1
10
57.4935797301778
20
4.92747620661606
30
0
41
1
10
57.5895070117284
20
4.29115953231567
30
0
41
1
10
57.7813615748297
20
3.01838588526442
30
0
41
1
10
57.8772888563804
20
2.38198231484066
30
0
41
1
10
58.0211797787063
20
1.44137755013961
30
0
41
1
10
58.0691434194816
20
1.13014730054587
30
0
41
1
10
58.1410888806447
20
0.66822549431609
30
0
41
1
10
58.1770616112261
20
0.438492282049026
30
0
41
1
10
58.2130343418076
20
0.210846057228025
30
0
41
1
10
58.2370161621952
20
0.0595708767923782
30
0
41
1
10
58.2490070723891
20
-0.0156615415131398
30
0
41
1
10
58.3569252641336
20
-0.695541497827179
30
0
41
1
10
58.4528525456843
20
-1.31587071652487
30
0
41
1
10
58.6447071087855
20
-2.57353583911038
30
0
41
1
10
58.7406343903361
20
-3.2108442679453
30
0
41
1
10
58.9324889534374
20
-4.48334194528809
30
0
41
1
10
59.028416234988
20
-5.11847499518927
30
0
41
1
10
59.2202707980893
20
-6.36460090366842
30
0
41
1
10
59.3161980796399
20
-6.97551450522661
30
0
41
1
10
59.5080526427412
20
-8.15034877515012
30
0
41
1
10
59.6039799242918
20
-8.71418193707967
30
0
41
1
10
59.7958344873932
20
-9.77373783284156
30
0
41
1
10
59.8917617689438
20
-10.269384948033
30
0
41
1
10
60.0836163320452
20
-11.1757134864544
30
0
41
1
10
60.1795436135957
20
-11.5863492845977
30
0
41
1
10
60.371398176697
20
-12.3119451421378
30
0
41
1
10
60.4673254582477
20
-12.6268985238419
30
0
41
1
10
60.6591800213489
20
-13.1573728547785
30
0
41
1
10
60.7551073028996
20
-13.372923058882
30
0
41
1
10
60.9469618660008
20
-13.7074264412632
30
0
41
1
10
61.0428891475515
20
-13.8264325527034
30
0
41
1
10
61.1867800698774
20
-13.9385997534392
30
0
41
1
10
61.2347437106527
20
-13.9649679038071
30
0
41
1
10
61.3066891718157
20
-13.9890087969047
30
0
41
1
10
61.3426619023973
20
-13.9971537157744
30
0
41
1
10
61.3786346329787
20
-13.9996947164631
30
0
41
1
10
61.4026164533664
20
-14.0001676991038
30
0
41
1
10
61.4146073635603
20
-13.9997967089408
30
0
41
1
10
61.5225255553047
20
-13.9909029066291
30
0
41
1
10
61.6184528368553
20
-13.9433336446482
30
0
41
1
10
61.8103073999566
20
-13.7578756323975
30
0
41
1
10
61.9062346815072
20
-13.6199262196001
30
0
41
1
10
62.0980892446085
20
-13.2464795055781
30
0
41
1
10
62.1940165261592
20
-13.0109328060531
30
0
41
1
10
62.3858710892604
20
-12.4406517165843
30
0
41
1
10
62.4817983708111
20
-12.1058945465893
30
0
41
1
10
62.6736529339124
20
-11.342282302426
30
0
41
1
10
62.769580215463
20
-10.9134418895339
30
0
41
1
10
62.9614347785642
20
-9.97363859723757
30
0
41
1
10
63.0573620601148
20
-9.46272847868684
30
0
41
1
10
63.2492166232162
20
-8.3766262752948
30
0
41
1
10
63.3451439047668
20
-7.80151384501795
30
0
41
1
10
63.5369984678682
20
-6.60867231255477
30
0
41
1
10
63.6329257494188
20
-5.99103059531026
30
0
41
1
10
63.82478031252
20
-4.73603636207395
30
0
41
1
10
63.9207075940706
20
-4.09875937858723
30
0
41
1
10
64.1125621571719
20
-2.8261246974744
30
0
41
1
10
64.2084894387226
20
-2.19081755919754
30
0
41
1
10
64.3044167202732
20
-1.56568017324696
30
0
0
SPLINE
5
E1
100
AcDbEntity
8
1
62
256
6
ByLayer
370
13
48
1
60
0
100
AcDbSpline
70
4
71
3
72
51
73
47
40
0
40
0
40
0
40
0
40
0.0624999999999998
40
0.0624999999999998
40
0.0937499999999997
40
0.0937499999999997
40
0.125
40
0.125
40
0.15625
40
0.15625
40
0.1875
40
0.1875
40
0.25
40
0.25
40
0.3125
40
0.3125
40
0.375
40
0.375
40
0.40625
40
0.40625
40
0.4140625
40
0.4140625
40
0.421875
40
0.4375
40
0.4375
40
0.5
40
0.5
40
0.5625
40
0.5625
40
0.625
40
0.625
40
0.65625
40
0.65625
40
0.6875
40
0.6875
40
0.71875
40
0.71875
40
0.75
40
0.75
40
0.8125
40
0.8125
40
0.875
40
0.875
40
0.9375
40
0.9375
40
1
40
1
40
1
40
1
41
1
10
51.7000000000001
20
-12.4723313069384
30
0
41
1
10
51.8110118021893
20
-12.11020483835
30
0
41
1
10
51.9220236043785
20
-11.682000714766
30
0
41
1
10
52.0885413076625
20
-10.9494550892651
30
0
41
1
10
52.1440472087571
20
-10.6903321183876
30
0
41
1
10
52.2550590109464
20
-10.1448048301037
30
0
41
1
10
52.310564912041
20
-9.85840400000777
30
0
41
1
10
52.4215767142303
20
-9.26157955629105
30
0
41
1
10
52.4770826153249
20
-8.9511605722121
30
0
41
1
10
52.5880944175141
20
-8.31008903278939
30
0
41
1
10
52.6436003186088
20
-7.97944187216322
30
0
41
1
10
52.8101180218927
20
-6.96340192555715
30
0
41
1
10
52.921129824082
20
-6.25390822386885
30
0
41
1
10
53.1431534284605
20
-4.80581257939804
30
0
41
1
10
53.2541652306498
20
-4.06737047661193
30
0
41
1
10
53.4761888350283
20
-2.59499631179219
30
0
41
1
10
53.5872006372175
20
-1.86116501556882
30
0
41
1
10
53.7537183405015
20
-0.78456375152831
30
0
41
1
10
53.8092242415961
20
-0.429665404437145
30
0
41
1
10
53.8786066179644
20
0.0073002680690308
30
0
41
1
10
53.8924830932381
20
0.0944005096725959
30
0
41
1
10
53.9202360437854
20
0.269695904018647
30
0
41
1
10
53.9618654696063
20
0.533610760991934
30
0
41
1
10
54.0034948954274
20
0.800263450924632
30
0
41
1
10
54.1422596481639
20
1.69432675434484
30
0
41
1
10
54.2532714503532
20
2.42657530051443
30
0
41
1
10
54.4752950547317
20
3.89813817526846
30
0
41
1
10
54.5863068569209
20
4.63735699358702
30
0
41
1
10
54.8083304612995
20
6.08969862687778
30
0
41
1
10
54.9193422634888
20
6.80266511771362
30
0
41
1
10
55.0858599667727
20
7.82591407535452
30
0
41
1
10
55.1413658678673
20
8.15929434347549
30
0
41
1
10
55.2523776700566
20
8.80644916738407
30
0
41
1
10
55.3078835711512
20
9.12021824987823
30
0
41
1
10
55.4188953733405
20
9.72429177080554
30
0
41
1
10
55.4744012744351
20
10.0145914358627
30
0
41
1
10
55.5854130766243
20
10.5683754165337
30
0
41
1
10
55.640918977719
20
10.8318560500945
30
0
41
1
10
55.8074366810029
20
11.5780036213677
30
0
41
1
10
55.9184484831922
20
12.015981932206
30
0
41
1
10
56.1404720875707
20
12.760251335333
30
0
41
1
10
56.25148388976
20
13.066562306782
30
0
41
1
10
56.4735074941385
20
13.5470086065777
30
0
41
1
10
56.5845192963278
20
13.7212367009568
30
0
41
1
10
56.8065429007063
20
13.9476699238743
30
0
41
1
10
56.9175547028956
20
14
30
0
41
1
10
57.0285665050848
20
14
30
0
0
SPLINE
5
E2
100
AcDbEntity
8
1
62
256
6
ByLayer
370
13
48
1
60
0
100
AcDbSpline
70
4
71
3
72
87
73
83
40
0
40
0
40
0
40
0
40
0.0312500000000004
40
0.0312500000000004
40
0.0625000000000009
40
0.0625000000000009
40
0.0937500000000013
40
0.0937500000000013
40
0.125000000000002
40
0.125000000000002
40
0.156250000000002
40
0.156250000000002
40
0.187500000000002
40
0.187500000000002
40
0.218750000000003
40
0.218750000000003
40
0.250000000000003
40
0.250000000000003
40
0.281250000000004
40
0.281250000000004
40
0.312500000000004
40
0.312500000000004
40
0.320312500000004
40
0.324218750000004
40
0.324218750000004
40
0.328125000000004
40
0.328125000000004
40
0.343750000000004
40
0.343750000000004
40
0.375000000000004
40
0.375000000000004
40
0.406250000000004
40
0.406250000000004
40
0.437500000000004
40
0.437500000000004
40
0.468750000000004
40
0.468750000000004
40
0.500000000000004
40
0.500000000000004
40
0.531250000000004
40
0.531250000000004
40
0.562500000000004
40
0.562500000000004
40
0.593750000000004
40
0.593750000000004
40
0.625000000000004
40
0.625000000000004
40
0.640625000000004
40
0.640625000000004
40
0.648437500000004
40
0.648437500000004
40
0.652343750000004
40
0.652343750000004
40
0.656250000000004
40
0.656250000000004
40
0.687500000000004
40
0.687500000000004
40
0.718750000000003
40
0.718750000000003
40
0.750000000000003
40
0.750000000000003
40
0.781250000000002
40
0.781250000000002
40
0.812500000000002
40
0.812500000000002
40
0.843750000000002
40
0.843750000000002
40
0.875000000000001
40
0.875000000000001
40
0.906250000000001
40
0.906250000000001
40
0.937500000000001
40
0.937500000000001
40
0.96875
40
0.96875
40
0.97265625
40
0.97265625
40
0.9765625
40
0.9765625
40
0.984375
40
0.984375
40
1
40
1
40
1
40
1
41
1
10
54.6103409683845
20
14
30
0
41
1
10
54.7113209241334
20
14
30
0
41
1
10
54.8123008798822
20
13.9567333690747
30
0
41
1
10
55.0142607913799
20
13.7705985301233
30
0
41
1
10
55.1152407471287
20
13.6276517962956
30
0
41
1
10
55.3172006586264
20
13.2335940942497
30
0
41
1
10
55.4181806143753
20
12.9824194935546
30
0
41
1
10
55.620140525873
20
12.3702111188934
30
0
41
1
10
55.7211204816218
20
12.0091504629259
30
0
41
1
10
55.9230803931195
20
11.1837831922748
30
0
41
1
10
56.0240603488683
20
10.7195011826186
30
0
41
1
10
56.2260202603659
20
9.70269171981661
30
0
41
1
10
56.3270002161148
20
9.15023938474982
30
0
41
1
10
56.5289601276125
20
7.9789595169849
30
0
41
1
10
56.6299400833614
20
7.36023923224408
30
0
41
1
10
56.831899994859
20
6.08234201652365
30
0
41
1
10
56.9328799506079
20
5.42327607220125
30
0
41
1
10
57.1348398621056
20
4.09126699442743
30
0
41
1
10
57.2358198178544
20
3.41841236011305
30
0
41
1
10
57.4377797293521
20
2.08297993490513
30
0
41
1
10
57.538759685101
20
1.42045355984172
30
0
41
1
10
57.664984629787
20
0.610960167999053
30
0
41
1
10
57.7028521131929
20
0.369492801660698
30
0
41
1
10
57.7407195965985
20
0.13037962431622
30
0
41
1
10
57.7659645855358
20
-0.0284770943431454
30
0
41
1
10
57.7785870800044
20
-0.107786520828313
30
0
41
1
10
57.8416995523474
20
-0.506483895251023
30
0
41
1
10
57.8921895302219
20
-0.829740304309212
30
0
41
1
10
58.0436594638451
20
-1.80930812178943
30
0
41
1
10
58.144639419594
20
-2.47557201252016
30
0
41
1
10
58.3465993310916
20
-3.81405826956205
30
0
41
1
10
58.4475792868404
20
-4.48622146656032
30
0
41
1
10
58.6495391983381
20
-5.81174153233954
30
0
41
1
10
58.7505191540869
20
-6.46500388390075
30
0
41
1
10
58.9524790655847
20
-7.72604424786309
30
0
41
1
10
59.0534590213335
20
-8.33370969789172
30
0
41
1
10
59.2554189328312
20
-9.47815190485613
30
0
41
1
10
59.35639888858
20
-10.0148256365707
30
0
41
1
10
59.5583588000777
20
-10.9965002498492
30
0
41
1
10
59.6593387558265
20
-11.4414349836454
30
0
41
1
10
59.8612986673243
20
-12.226104659271
30
0
41
1
10
59.962278623073
20
-12.5658256132595
30
0
41
1
10
60.1642385345708
20
-13.1350432879758
30
0
41
1
10
60.2652184903196
20
-13.3645756458737
30
0
41
1
10
60.4671784018174
20
-13.7165428749241
30
0
41
1
10
60.5681583575661
20
-13.8390460768595
30
0
41
1
10
60.7196282911894
20
-13.9497101882135
30
0
41
1
10
60.7701182690638
20
-13.9744603689504
30
0
41
1
10
60.8458532358754
20
-13.9945904085774
30
0
41
1
10
60.8710982248126
20
-13.9984696992984
30
0
41
1
10
60.9089657082184
20
-14.0002080220568
30
0
41
1
10
60.921588202687
20
-14.0001114314537
30
0
41
1
10
60.9468331916242
20
-13.9985601204792
30
0
41
1
10
60.9594556860928
20
-13.997102415643
30
0
41
1
10
61.0730581363103
20
-13.9777194556375
30
0
41
1
10
61.1740380920592
20
-13.9157961247288
30
0
41
1
10
61.3759980035568
20
-13.6902226535476
30
0
41
1
10
61.4769779593057
20
-13.5264951865192
30
0
41
1
10
61.6789378708034
20
-13.0899402109466
30
0
41
1
10
61.7799178265522
20
-12.8170546433689
30
0
41
1
10
61.9818777380499
20
-12.16204329246
30
0
41
1
10
62.0828576937988
20
-11.7798999808128
30
0
41
1
10
62.2848176052964
20
-10.9146782477067
30
0
41
1
10
62.3857975610453
20
-10.43163501724
30
0
41
1
10
62.5877574725429
20
-9.38113231413334
30
0
41
1
10
62.6887374282917
20
-8.81375619510379
30
0
41
1
10
62.8906973397895
20
-7.61750643175768
30
0
41
1
10
62.9916772955383
20
-6.98874312063901
30
0
41
1
10
63.193637207036
20
-5.69603715411
30
0
41
1
10
63.2946171627849
20
-5.03220286561907
30
0
41
1
10
63.4965770742826
20
-3.69567851262227
30
0
41
1
10
63.5975570300313
20
-3.02307035936678
30
0
41
1
10
63.799516941529
20
-1.69238743216371
30
0
41
1
10
63.9004968972779
20
-1.03435630576323
30
0
41
1
10
64.0140993474953
20
-0.312674475167427
30
0
41
1
10
64.0267218419639
20
-0.232742521887133
30
0
41
1
10
64.0519668309011
20
-0.0734184752411409
30
0
41
1
10
64.0645893253697
20
0.0057885559195654
30
0
41
1
10
64.1024568087755
20
0.24431138002214
30
0
41
1
10
64.1277017977127
20
0.404423549774435
30
0
41
1
10
64.2034367645244
20
0.887687067716996
30
0
41
1
10
64.2539267423988
20
1.21377606099369
30
0
41
1
10
64.3044167202732
20
1.54267850431489
30
0
0
SPLINE
5
E3
100
AcDbEntity
8
1
62
256
6
ByLayer
370
13
48
1
60
0
100
AcDbSpline
70
4
71
3
72
43
73
39
40
0
40
0
40
0
40
0
40
0.0625000000000014
40
0.0625000000000014
40
0.125000000000003
40
0.125000000000003
40
0.187500000000004
40
0.187500000000004
40
0.250000000000006
40
0.250000000000006
40
0.312500000000007
40
0.312500000000007
40
0.343750000000007
40
0.343750000000007
40
0.351562500000007
40
0.351562500000007
40
0.359375000000007
40
0.375000000000007
40
0.375000000000007
40
0.437500000000007
40
0.437500000000007
40
0.500000000000006
40
0.500000000000006
40
0.562500000000005
40
0.562500000000005
40
0.625000000000004
40
0.625000000000004
40
0.687500000000004
40
0.687500000000004
40
0.750000000000003
40
0.750000000000003
40
0.812500000000002
40
0.812500000000002
40
0.875000000000001
40
0.875000000000001
40
0.937500000000001
40
0.937500000000001
40
1
40
1
40
1
40
1
41
1
10
51.7
20
-10.4884952665634
30
0
41
1
10
51.8009064537929
20
-9.99695569586217
30
0
41
1
10
51.9018129075857
20
-9.45974873086001
30
0
41
1
10
52.1036258151715
20
-8.3146015638122
30
0
41
1
10
52.2045322689643
20
-7.70676427744627
30
0
41
1
10
52.4063451765501
20
-6.44571814764757
30
0
41
1
10
52.5072516303429
20
-5.79262140460767
30
0
41
1
10
52.7090645379287
20
-4.46770819549698
30
0
41
1
10
52.8099709917215
20
-3.79598563027918
30
0
41
1
10
53.0117838993073
20
-2.45857235525307
30
0
41
1
10
53.1126903531001
20
-1.79294025821974
30
0
41
1
10
53.2640500337894
20
-0.814398524103268
30
0
41
1
10
53.3145032606859
20
-0.49149723658914
30
0
41
1
10
53.3775697943065
20
-0.0932539354961648
30
0
41
1
10
53.3901831010305
20
-0.0140536478053264
30
0
41
1
10
53.4154097144788
20
0.144754006924302
30
0
41
1
10
53.453249634651
20
0.383789777632416
30
0
41
1
10
53.4910895548235
20
0.62516821771797
30
0
41
1
10
53.6172226220645
20
1.43433936362655
30
0
41
1
10
53.7181290758573
20
2.09652446950614
30
0
41
1
10
53.919941983443
20
3.43111427195404
30
0
41
1
10
54.0208484372359
20
4.1034674811925
30
0
41
1
10
54.2226613448217
20
5.43434339501934
30
0
41
1
10
54.3235677986145
20
6.09277773466272
30
0
41
1
10
54.5253807062003
20
7.36933382191859
30
0
41
1
10
54.6262871599931
20
7.98734493021755
30
0
41
1
10
54.8281000675788
20
9.15719625695721
30
0
41
1
10
54.9290065213717
20
9.70892969646553
30
0
41
1
10
55.1308194289574
20
10.7243615534024
30
0
41
1
10
55.2317258827503
20
11.1879852836754
30
0
41
1
10
55.433538790336
20
12.0121550488933
30
0
41
1
10
55.5344452441289
20
12.3726767250446
30
0
41
1
10
55.7362581517148
20
12.9839628896209
30
0
41
1
10
55.8371646055076
20
13.2347542638222
30
0
41
1
10
56.0389775130932
20
13.6282119181641
30
0
41
1
10
56.1398839668861
20
13.7709416390072
30
0
41
1
10
56.3416968744719
20
13.9567965575364
30
0
41
1
10
56.4426033282647
20
14
30
0
41
1
10
56.5435097820575
20
14
30
0
0
SPLINE
5
E4
100
AcDbEntity
8
1
62
256
6
ByLayer
370
13
48
1
60
0
100
AcDbSpline
70
4
71
3
72
87
73
83
40
0
40
0
40
0
40
0
40
0.0312500000000003
40
0.0312500000000003
40
0.0625000000000005
40
0.0625000000000005
40
0.0937500000000008
40
0.0937500000000008
40
0.125000000000001
40
0.125000000000001
40
0.156250000000001
40
0.156250000000001
40
0.187500000000002
40
0.187500000000002
40
0.218750000000002
40
0.218750000000002
40
0.250000000000002
40
0.250000000000002
40
0.281250000000002
40
0.281250000000002
40
0.296875000000002
40
0.296875000000002
40
0.304687500000002
40
0.308593750000002
40
0.308593750000002
40
0.312500000000002
40
0.312500000000002
40
0.343750000000002
40
0.343750000000002
40
0.375000000000003
40
0.375000000000003
40
0.406250000000003
40
0.406250000000003
40
0.437500000000003
40
0.437500000000003
40
0.468750000000003
40
0.468750000000003
40
0.500000000000003
40
0.500000000000003
40
0.531250000000003
40
0.531250000000003
40
0.562500000000004
40
0.562500000000004
40
0.593750000000004
40
0.593750000000004
40
0.609375000000004
40
0.609375000000004
40
0.617187500000004
40
0.617187500000004
40
0.621093750000004
40
0.621093750000004
40
0.625000000000004
40
0.625000000000004
40
0.656250000000003
40
0.656250000000003
40
0.687500000000003
40
0.687500000000003
40
0.718750000000003
40
0.718750000000003
40
0.750000000000002
40
0.750000000000002
40
0.781250000000002
40
0.781250000000002
40
0.812500000000002
40
0.812500000000002
40
0.843750000000002
40
0.843750000000002
40
0.875000000000001
40
0.875000000000001
40
0.906250000000001
40
0.906250000000001
40
0.921875000000001
40
0.921875000000001
40
0.925781250000001
40
0.925781250000001
40
0.929687500000001
40
0.929687500000001
40
0.937500000000001
40
0.937500000000001
40
0.96875
40
0.96875
40
1
40
1
40
1
40
1
41
1
10
54.1252842453573
20
14
30
0
41
1
10
54.2313168753043
20
14
30
0
41
1
10
54.3373495052513
20
13.9522775483044
30
0
41
1
10
54.5494147651454
20
13.746366639008
30
0
41
1
10
54.6554473950925
20
13.588078363722
30
0
41
1
10
54.8675126549866
20
13.1516245132099
30
0
41
1
10
54.9735452849336
20
12.8733813361191
30
0
41
1
10
55.1856105448276
20
12.1961821928469
30
0
41
1
10
55.2916431747747
20
11.7972010550968
30
0
41
1
10
55.5037084346689
20
10.8879203618029
30
0
41
1
10
55.6097410646158
20
10.3776659477327
30
0
41
1
10
55.82180632451
20
9.26521279958089
30
0
41
1
10
55.927838954457
20
8.66312301379807
30
0
41
1
10
56.139904214351
20
7.39398984706716
30
0
41
1
10
56.2459368442981
20
6.7270886013608
30
0
41
1
10
56.4580021041922
20
5.35903679735392
30
0
41
1
10
56.5640347341392
20
4.65802093537908
30
0
41
1
10
56.7760999940333
20
3.25184785240197
30
0
41
1
10
56.8821326239803
20
2.54678580077604
30
0
41
1
10
57.0411815689009
20
1.50555272289174
30
0
41
1
10
57.0941978838745
20
1.16116039672681
30
0
41
1
10
57.1737223563347
20
0.650594603767587
30
0
41
1
10
57.2134845925648
20
0.396812619567498
30
0
41
1
10
57.253246828795
20
0.145611964362871
30
0
41
1
10
57.2797549862817
20
-0.0212479521850923
30
0
41
1
10
57.2930090650251
20
-0.104491757547891
30
0
41
1
10
57.4122957737156
20
-0.85807066164719
30
0
41
1
10
57.5183284036626
20
-1.54708552827935
30
0
41
1
10
57.7303936635566
20
-2.94259507151548
30
0
41
1
10
57.8364262935037
20
-3.64903685681657
30
0
41
1
10
58.0484915533978
20
-5.05255901121029
30
0
41
1
10
58.1545241833448
20
-5.74953518498933
30
0
41
1
10
58.3665894432389
20
-7.10366847298698
30
0
41
1
10
58.472622073186
20
-7.76068656632333
30
0
41
1
10
58.68468733308
20
-9.00456299873306
30
0
41
1
10
58.7907199630271
20
-9.59128237451813
30
0
41
1
10
59.0027852229212
20
-10.6686561290624
30
0
41
1
10
59.1088178528682
20
-11.1592118121527
30
0
41
1
10
59.3208831127623
20
-12.0265047955713
30
0
41
1
10
59.4269157427093
20
-12.403210491697
30
0
41
1
10
59.6389810026034
20
-13.035239280814
30
0
41
1
10
59.7450136325504
20
-13.2905993422914
30
0
41
1
10
59.9570788924445
20
-13.6824616092511
30
0
41
1
10
60.0631115223916
20
-13.8190480051341
30
0
41
1
10
60.2221604673122
20
-13.9428074180287
30
0
41
1
10
60.2751767822857
20
-13.9705956624833
30
0
41
1
10
60.354701254746
20
-13.9934686239443
30
0
41
1
10
60.3812094122327
20
-13.9979603069435
30
0
41
1
10
60.4209716484629
20
-14.0001897707402
30
0
41
1
10
60.4342257272062
20
-14.0001858276488
30
0
41
1
10
60.460733884693
20
-13.9986834842059
30
0
41
1
10
60.4739879634363
20
-13.9971809839571
30
0
41
1
10
60.5932746721267
20
-13.9767515442106
30
0
41
1
10
60.6993073020738
20
-13.9092878290892
30
0
41
1
10
60.9113725619679
20
-13.661592456444
30
0
41
1
10
61.0174051919149
20
-13.481262787813
30
0
41
1
10
61.2294704518091
20
-12.9998441226952
30
0
41
1
10
61.335503081756
20
-12.6986852240774
30
0
41
1
10
61.5475683416501
20
-11.9766170689855
30
0
41
1
10
61.6536009715972
20
-11.5556951073438
30
0
41
1
10
61.8656662314913
20
-10.6054543549269
30
0
41
1
10
61.9716988614383
20
-10.0761940133604
30
0
41
1
10
62.1837641213324
20
-8.93032040383329
30
0
41
1
10
62.2897967512794
20
-8.31382521231669
30
0
41
1
10
62.5018620111735
20
-7.02149749916865
30
0
41
1
10
62.6078946411205
20
-6.34580879355715
30
0
41
1
10
62.8199599010147
20
-4.96600648796948
30
0
41
1
10
62.9259925309618
20
-4.26202209469628
30
0
41
1
10
63.1380577908558
20
-2.8551894875209
30
0
41
1
10
63.2440904208028
20
-2.15242697959118
30
0
41
1
10
63.4031393657235
20
-1.11780374123995
30
0
41
1
10
63.4561556806969
20
-0.776138390136509
30
0
41
1
10
63.5224260744138
20
-0.35463345639468
30
0
41
1
10
63.5356801531572
20
-0.270610287095735
30
0
41
1
10
63.5621883106439
20
-0.103154609292545
30
0
41
1
10
63.5754423893873
20
-0.019915661195455
30
0
41
1
10
63.6152046256175
20
0.230383933931165
30
0
41
1
10
63.6417127831042
20
0.398465728214376
30
0
41
1
10
63.774253570538
20
1.2442509127734
30
0
41
1
10
63.8802862004851
20
1.93833503437705
30
0
41
1
10
64.0923514603791
20
3.33934786723489
30
0
41
1
10
64.1983840903262
20
4.04621376631175
30
0
41
1
10
64.3044167202732
20
4.74562789181439
30
0
0
SPLINE
5
E5
100
AcDbEntity
8
1
62
256
6
ByLayer
370
13
48
1
60
0
100
AcDbSpline
70
4
71
3
72
43
73
39
40
0
40
0
40
0
40
0
40
0.0625
40
0.0625
40
0.125
40
0.125
40
0.1875
40
0.1875
40
0.25
40
0.25
40
0.265625
40
0.2734375
40
0.2734375
40
0.28125
40
0.28125
40
0.3125
40
0.3125
40
0.375
40
0.375
40
0.4375
40
0.4375
40
0.5
40
0.5
40
0.5625
40
0.5625
40
0.625
40
0.625
40
0.6875
40
0.6875
40
0.75
40
0.75
40
0.8125
40
0.8125
40
0.875
40
0.875
40
0.9375
40
0.9375
40
1
40
1
40
1
40
1
41
1
10
51.7
20
-7.81692611751632
30
0
41
1
10
51.7908011053965
20
-7.26756095905893
30
0
41
1
10
51.8816022107929
20
-6.69569763001792
30
0
41
1
10
52.0632044215859
20
-5.52613063586216
30
0
41
1
10
52.1540055269824
20
-4.92848959116162
30
0
41
1
10
52.3356077377753
20
-3.72640030894243
30
0
41
1
10
52.4264088431717
20
-3.12199991307284
30
0
41
1
10
52.6080110539647
20
-1.92347387320993
30
0
41
1
10
52.6988121593611
20
-1.32937579917822
30
0
41
1
10
52.8123135411067
20
-0.601914944385868
30
0
41
1
10
52.8463639556304
20
-0.384801150323312
30
0
41
1
10
52.880414370154
20
-0.16957993850346
30
0
41
1
10
52.9031146465031
20
-0.0265409109099721
30
0
41
1
10
52.9144647846777
20
0.0446663386072146
30
0
41
1
10
52.9712154755505
20
0.40245049883552
30
0
41
1
10
53.0166160282487
20
0.692207831835589
30
0
41
1
10
53.1528176863434
20
1.56986543949481
30
0
41
1
10
53.2436187917399
20
2.16625532873351
30
0
41
1
10
53.4252210025329
20
3.36721734276844
30
0
41
1
10
53.5160221079293
20
3.97175905329504
30
0
41
1
10
53.6976243187223
20
5.17163704347155
30
0
41
1
10
53.7884254241187
20
5.76692301661484
30
0
41
1
10
53.9700276349116
20
6.9291396191696
30
0
41
1
10
54.0608287403081
20
7.49600638028051
30
0
41
1
10
54.242430951101
20
8.58221582031754
30
0
41
1
10
54.3332320564974
20
9.10149282604485
30
0
41
1
10
54.5148342672904
20
10.0753282119904
30
0
41
1
10
54.6056353726869
20
10.529833070746
30
0
41
1
10
54.7872375834797
20
11.3607458443791
30
0
41
1
10
54.8780386888763
20
11.7371237591833
30
0
41
1
10
55.0596408996692
20
12.4035127224321
30
0
41
1
10
55.1504420050657
20
12.6935220772515
30
0
41
1
10
55.3320442158586
20
13.1844989249812
30
0
41
1
10
55.4228453212551
20
13.3854900788641
30
0
41
1
10
55.6044475320479
20
13.7010026491213
30
0
41
1
10
55.6952486374445
20
13.8155644227427
30
0
41
1
10
55.8768508482373
20
13.9650398730426
30
0
41
1
10
55.9676519536338
20
14
30
0
41
1
10
56.0584530590303
20
14
30
0
0
SPLINE
5
E6
100
AcDbEntity
8
1
62
256
6
ByLayer
370
13
48
1
60
0
100
AcDbSpline
70
4
71
3
72
102
73
98
40
0
40
0
40
0
40
0
40
0.0312499999999998
40
0.0312499999999998
40
0.0624999999999996
40
0.0624999999999996
40
0.0937499999999995
40
0.0937499999999995
40
0.124999999999999
40
0.124999999999999
40
0.140624999999999
40
0.140624999999999
40
0.156249999999999
40
0.156249999999999
40
0.171874999999999
40
0.171874999999999
40
0.187499999999999
40
0.187499999999999
40
0.218749999999999
40
0.218749999999999
40
0.249999999999999
40
0.249999999999999
40
0.281249999999999
40
0.281249999999999
40
0.289062499999999
40
0.289062499999999
40
0.292968749999999
40
0.292968749999999
40
0.296874999999999
40
0.296874999999999
40
0.312499999999998
40
0.312499999999998
40
0.343749999999998
40
0.343749999999998
40
0.374999999999998
40
0.374999999999998
40
0.406249999999998
40
0.406249999999998
40
0.421874999999998
40
0.421874999999998
40
0.437499999999998
40
0.437499999999998
40
0.453124999999998
40
0.453124999999998
40
0.468749999999998
40
0.468749999999998
40
0.499999999999998
40
0.499999999999998
40
0.531249999999997
40
0.531249999999997
40
0.562499999999997
40
0.562499999999997
40
0.578124999999997
40
0.578124999999997
40
0.585937499999997
40
0.585937499999997
40
0.589843749999997
40
0.589843749999997
40
0.593749999999997
40
0.593749999999997
40
0.624999999999997
40
0.624999999999997
40
0.656249999999998
40
0.656249999999998
40
0.687499999999998
40
0.687499999999998
40
0.703124999999998
40
0.703124999999998
40
0.718749999999998
40
0.718749999999998
40
0.734374999999998
40
0.734374999999998
40
0.749999999999998
40
0.749999999999998
40
0.765624999999999
40
0.765624999999999
40
0.781249999999999
40
0.781249999999999
40
0.812499999999999
40
0.812499999999999
40
0.843749999999999
40
0.843749999999999
40
0.874999999999999
40
0.874999999999999
40
0.882812499999999
40
0.882812499999999
40
0.886718749999999
40
0.886718749999999
40
0.890624999999999
40
0.890624999999999
40
0.906249999999999
40
0.906249999999999
40
0.9375
40
0.9375
40
0.96875
40
0.96875
40
1
40
1
40
1
40
1
41
1
10
53.64022752233
20
14
30
0
41
1
10
53.7513128264753
20
14
30
0
41
1
10
53.8623981306205
20
13.9476002929558
30
0
41
1
10
54.084568738911
20
13.7208564016516
30
0
41
1
10
54.1956540430562
20
13.5463868653926
30
0
41
1
10
54.4178246513467
20
13.0652747096667
30
0
41
1
10
54.5289099554919
20
12.7585390911003
30
0
41
1
10
54.7510805637824
20
12.0132575402028
30
0
41
1
10
54.8621658679276
20
11.5746918402967
30
0
41
1
10
55.0287938241455
20
10.8275817047033
30
0
41
1
10
55.0843364762181
20
10.5637668901419
30
0
41
1
10
55.1954217803633
20
10.0092971411275
30
0
41
1
10
55.250964432436
20
9.71864590839934
30
0
41
1
10
55.3620497365812
20
9.11386214985308
30
0
41
1
10
55.4175923886538
20
8.79973441924986
30
0
41
1
10
55.5286776927991
20
8.15186589670893
30
0
41
1
10
55.5842203448717
20
7.81813059966737
30
0
41
1
10
55.7508483010895
20
6.79383760345479
30
0
41
1
10
55.8619336052348
20
6.08020390691402
30
0
41
1
10
56.0841042135253
20
4.6266562240462
30
0
41
1
10
56.1951895176705
20
3.88689885678949
30
0
41
1
10
56.4173601259609
20
2.41443111418698
30
0
41
1
10
56.5284454301063
20
1.68181619857725
30
0
41
1
10
56.6673020602878
20
0.787410186879356
30
0
41
1
10
56.6950733863242
20
0.609578876650517
30
0
41
1
10
56.7367303753786
20
0.344665775845897
30
0
41
1
10
56.7506160383969
20
0.256666805602606
30
0
41
1
10
56.7783873644331
20
0.0813198434580897
30
0
41
1
10
56.7922730274512
20
-0.0058039941340553
30
0
41
1
10
56.861701342542
20
-0.443225684406912
30
0
41
1
10
56.9172439946147
20
-0.798480410416914
30
0
41
1
10
57.0838719508325
20
-1.87610758570301
30
0
41
1
10
57.1949572549777
20
-2.61056530437463
30
0
41
1
10
57.4171278632683
20
-4.08397293043319
30
0
41
1
10
57.5282131674135
20
-4.82282123860713
30
0
41
1
10
57.750383775704
20
-6.27141075385785
30
0
41
1
10
57.8614690798492
20
-6.98099123999717
30
0
41
1
10
58.0280970360671
20
-7.99687295534275
30
0
41
1
10
58.0836396881396
20
-8.32741965299584
30
0
41
1
10
58.1947249922849
20
-8.96819178345422
30
0
41
1
10
58.2502676443575
20
-9.27841181359787
30
0
41
1
10
58.3613529485028
20
-9.87474069805313
30
0
41
1
10
58.4168956005754
20
-10.1608449256107
30
0
41
1
10
58.5279809047206
20
-10.7056861812296
30
0
41
1
10
58.5835235567932
20
-10.9644197354088
30
0
41
1
10
58.7501515130111
20
-11.6956707258229
30
0
41
1
10
58.8612368171563
20
-12.1228421048223
30
0
41
1
10
59.0834074254469
20
-12.8447940207943
30
0
41
1
10
59.1944927295921
20
-13.1396021297616
30
0
41
1
10
59.4166633378826
20
-13.5973739741824
30
0
41
1
10
59.5277486420278
20
-13.760435363699
30
0
41
1
10
59.6943765982456
20
-13.914364888936
30
0
41
1
10
59.7499192503183
20
-13.9506353550019
30
0
41
1
10
59.8332332284273
20
-13.9840118946613
30
0
41
1
10
59.8610045544636
20
-13.9916355135872
30
0
41
1
10
59.902661543518
20
-13.998032250337
30
0
41
1
10
59.9165472065361
20
-13.9993248526765
30
0
41
1
10
59.9443185325724
20
-14.0002679738296
30
0
41
1
10
59.9582041955907
20
-13.9999240280368
30
0
41
1
10
60.0831751627541
20
-13.9893878762202
30
0
41
1
10
60.1942604668993
20
-13.9267523590825
30
0
41
1
10
60.4164310751897
20
-13.6782802707708
30
0
41
1
10
60.527516379335
20
-13.492319483726
30
0
41
1
10
60.7496869876255
20
-12.9877857357473
30
0
41
1
10
60.8607722917707
20
-12.6691247704165
30
0
41
1
10
61.0274002479886
20
-12.0927447949171
30
0
41
1
10
61.0829429000612
20
-11.8843134391027
30
0
41
1
10
61.1940282042064
20
-11.4361967102164
30
0
41
1
10
61.249570856279
20
-11.1965124342912
30
0
41
1
10
61.3606561604243
20
-10.6880159451905
30
0
41
1
10
61.4161988124969
20
-10.4192063194582
30
0
41
1
10
61.5272841166421
20
-9.85530128198289
30
0
41
1
10
61.5828267687148
20
-9.56020979087538
30
0
41
1
10
61.6939120728601
20
-8.94720085620028
30
0
41
1
10
61.7494547249327
20
-8.62928836369255
30
0
41
1
10
61.8605400290779
20
-7.97458055675162
30
0
41
1
10
61.9160826811505
20
-7.63779081490719
30
0
41
1
10
62.0827106373684
20
-6.60549770121511
30
0
41
1
10
62.1937959415137
20
-5.88809626045625
30
0
41
1
10
62.415966549804
20
-4.43014215406839
30
0
41
1
10
62.5270518539493
20
-3.68974171235504
30
0
41
1
10
62.7492224622398
20
-2.21869535753285
30
0
41
1
10
62.8603077663851
20
-1.48813871721549
30
0
41
1
10
62.9991643965666
20
-0.597578101187167
30
0
41
1
10
63.026935722603
20
-0.420579154464065
30
0
41
1
10
63.0685927116574
20
-0.157001041978589
30
0
41
1
10
63.0824783746756
20
-0.0695437624411568
30
0
41
1
10
63.1102497007119
20
0.105040216942143
30
0
41
1
10
63.12413536373
20
0.192668820207558
30
0
41
1
10
63.1935636788208
20
0.632397325238287
30
0
41
1
10
63.2491063308934
20
0.989273463904226
30
0
41
1
10
63.4157342871113
20
2.07095764251685
30
0
41
1
10
63.5268195912565
20
2.80703736740472
30
0
41
1
10
63.748990199547
20
4.2808948057384
30
0
41
1
10
63.8600755036923
20
5.01856484897746
30
0
41
1
10
64.0822461119827
20
6.46164144885367
30
0
41
1
10
64.193331416128
20
7.16688349626014
30
0
41
1
10
64.3044167202732
20
7.8382585756724
30
0
0
SPLINE
5
E7
100
AcDbEntity
8
1
62
256
6
ByLayer
370
13
48
1
60
0
100
AcDbSpline
70
4
71
3
72
10
73
6
40
0
40
0
40
0
40
0
40
0.5
40
0.5
40
1
40
1
40
1
40
1
41
1
10
63.8264187059028
20
14
30
0
41
1
10
63.9060850416312
20
14
30
0
41
1
10
63.9857513773597
20
13.9731052196195
30
0
41
1
10
64.1450840488164
20
13.8589242161524
30
0
41
1
10
64.2247503845447
20
13.7716137598353
30
0
41
1
10
64.3044167202732
20
13.6515893592074
30
0
0
SPLINE
5
E8
100
AcDbEntity
8
1
62
256
6
ByLayer
370
13
48
1
60
0
100
AcDbSpline
70
4
71
3
72
42
73
38
40
0
40
0
40
0
40
0
40
0.0625000000000006
40
0.0625000000000006
40
0.125000000000001
40
0.125000000000001
40
0.156250000000002
40
0.156250000000002
40
0.171875000000002
40
0.171875000000002
40
0.187500000000002
40
0.187500000000002
40
0.250000000000002
40
0.250000000000002
40
0.312500000000001
40
0.312500000000001
40
0.375000000000001
40
0.375000000000001
40
0.437500000000001
40
0.437500000000001
40
0.500000000000001
40
0.500000000000001
40
0.562500000000001
40
0.562500000000001
40
0.625000000000001
40
0.625000000000001
40
0.687500000000001
40
0.687500000000001
40
0.75
40
0.75
40
0.8125
40
0.8125
40
0.875
40
0.875
40
0.9375
40
0.9375
40
1
40
1
40
1
40
1
41
1
10
51.7
20
-4.72235510700946
30
0
41
1
10
51.7806957570001
20
-4.18994109939243
30
0
41
1
10
51.8613915140002
20
-3.6532600190676
30
0
41
1
10
52.0227830280003
20
-2.58375966808688
30
0
41
1
10
52.1034787850003
20
-2.05095952819247
30
0
41
1
10
52.2245224205004
20
-1.26269086597756
30
0
41
1
10
52.2648702990004
20
-1.00174123539318
30
0
41
1
10
52.3253921167505
20
-0.613879471457807
30
0
41
1
10
52.3455660560006
20
-0.48518491756974
30
0
41
1
10
52.3859139345006
20
-0.229110196654517
30
0
41
1
10
52.4060878737506
20
-0.101898705919126
30
0
41
1
10
52.5069575700007
20
0.532351327526357
30
0
41
1
10
52.5876533270007
20
1.0511933888684
30
0
41
1
10
52.7490448410009
20
2.1031528200794
30
0
41
1
10
52.8297405980009
20
2.63626095913307
30
0
41
1
10
52.991132112001
20
3.70599399471075
30
0
41
1
10
53.0718278690011
20
4.24259942320566
30
0
41
1
10
53.2332193830012
20
5.30684635930729
30
0
41
1
10
53.3139151400013
20
5.83445885042789
30
0
41
1
10
53.4753066540014
20
6.86724933792098
30
0
41
1
10
53.5560024110014
20
7.37239185320573
30
0
41
1
10
53.7173939250016
20
8.34676379297179
30
0
41
1
10
53.7980896820016
20
8.81595646288727
30
0
41
1
10
53.9594811960017
20
9.70604750376978
30
0
41
1
10
54.0401769530018
20
10.126914009754
30
0
41
1
10
54.2015684670019
20
10.9101223702343
30
0
41
1
10
54.2822642240021
20
11.272442714162
30
0
41
1
10
54.4436557380021
20
11.9312996440724
30
0
41
1
10
54.5243514950022
20
12.227828284508
30
0
41
1
10
54.6857430090022
20
12.7512655633618
30
0
41
1
10
54.7664387660023
20
12.9781799871775
30
0
41
1
10
54.9278302800025
20
13.3620055428896
30
0
41
1
10
55.0085260370026
20
13.5189335711397
30
0
41
1
10
55.1699175510027
20
13.7655033549525
30
0
41
1
10
55.2506133080028
20
13.8551687993294
30
0
41
1
10
55.4120048220029
20
13.9724042042206
30
0
41
1
10
55.492700579003
20
14
30
0
41
1
10
55.573396336003
20
14
30
0
0
SPLINE
5
E9
100
AcDbEntity
8
1
62
256
6
ByLayer
370
13
48
1
60
0
100
AcDbSpline
70
4
71
3
72
136
73
132
40
0
40
0
40
0
40
0
40
0.0312499999999995
40
0.0312499999999995
40
0.0468749999999993
40
0.0468749999999993
40
0.0624999999999991
40
0.0624999999999991
40
0.0781249999999989
40
0.0781249999999989
40
0.0937499999999986
40
0.0937499999999986
40
0.109374999999998
40
0.109374999999998
40
0.124999999999998
40
0.124999999999998
40
0.140624999999998
40
0.140624999999998
40
0.156249999999998
40
0.156249999999998
40
0.171874999999998
40
0.171874999999998
40
0.187499999999997
40
0.187499999999997
40
0.203124999999997
40
0.203124999999997
40
0.218749999999997
40
0.218749999999997
40
0.234374999999997
40
0.234374999999997
40
0.249999999999997
40
0.249999999999997
40
0.281249999999996
40
0.281249999999996
40
0.285156249999996
40
0.285156249999996
40
0.289062499999996
40
0.296874999999996
40
0.296874999999996
40
0.312499999999997
40
0.312499999999997
40
0.328124999999997
40
0.328124999999997
40
0.343749999999997
40
0.343749999999997
40
0.359374999999997
40
0.359374999999997
40
0.374999999999998
40
0.374999999999998
40
0.390624999999998
40
0.390624999999998
40
0.406249999999998
40
0.406249999999998
40
0.421874999999998
40
0.421874999999998
40
0.437499999999998
40
0.437499999999998
40
0.453124999999998
40
0.453124999999998
40
0.468749999999999
40
0.468749999999999
40
0.484374999999999
40
0.484374999999999
40
0.499999999999999
40
0.499999999999999
40
0.515624999999999
40
0.515624999999999
40
0.531249999999999
40
0.531249999999999
40
0.5625
40
0.5625
40
0.56640625
40
0.56640625
40
0.5703125
40
0.578125
40
0.578125
40
0.59375
40
0.59375
40
0.609375
40
0.609375
40
0.625
40
0.625
40
0.640625
40
0.640625
40
0.65625
40
0.65625
40
0.671875
40
0.671875
40
0.6875
40
0.6875
40
0.703125
40
0.703125
40
0.71875
40
0.71875
40
0.734375
40
0.734375
40
0.75
40
0.75
40
0.765625
40
0.765625
40
0.78125
40
0.78125
40
0.796875
40
0.796875
40
0.8125
40
0.8125
40
0.84375
40
0.84375
40
0.84765625
40
0.84765625
40
0.8515625
40
0.8515625
40
0.859375
40
0.859375
40
0.875
40
0.875
40
0.890625
40
0.890625
40
0.90625
40
0.90625
40
0.921875
40
0.921875
40
0.9375
40
0.9375
40
0.953125
40
0.953125
40
0.96875
40
0.96875
40
0.984375
40
0.984375
40
1
40
1
40
1
40
1
41
1
10
53.1551707993027
20
14
30
0
41
1
10
53.2713087776462
20
14
30
0
41
1
10
53.3874467559896
20
13.942700949775
30
0
41
1
10
53.5616537235048
20
13.7562205403902
30
0
41
1
10
53.6197227126765
20
13.6773514066266
30
0
41
1
10
53.73586069102
20
13.4845212472125
30
0
41
1
10
53.7939296801916
20
13.370555776172
30
0
41
1
10
53.9100676585351
20
13.1065408585717
30
0
41
1
10
53.9681366477068
20
12.9564879238496
30
0
41
1
10
54.0842746260503
20
12.6201185369967
30
0
41
1
10
54.1423436152219
20
12.4338000057088
30
0
41
1
10
54.2584815935655
20
12.0256176434349
30
0
41
1
10
54.3165505827371
20
11.8037534968713
30
0
41
1
10
54.4326885610806
20
11.3261330571438
30
0
41
1
10
54.4907575502523
20
11.0703784000439
30
0
41
1
10
54.6068955285958
20
10.5275457640969
30
0
41
1
10
54.6649645177674
20
10.24047134645
30
0
41
1
10
54.7811024961109
20
9.63840540096331
30
0
41
1
10
54.8391714852826
20
9.32341910572023
30
0
41
1
10
54.955309463626
20
8.66963989046698
30
0
41
1
10
55.0133784527977
20
8.33085342242364
30
0
41
1
10
55.1295164311413
20
7.63411141985901
30
0
41
1
10
55.187585420313
20
7.2761629723847
30
0
41
1
10
55.3037233986564
20
6.54605618547583
30
0
41
1
10
55.3617923878281
20
6.17390494023817
30
0
41
1
10
55.4779303661715
20
5.42045817781056
30
0
41
1
10
55.5359993553433
20
5.03916918161522
30
0
41
1
10
55.6521373336867
20
4.27241257056582
30
0
41
1
10
55.7102063228584
20
3.8869504452293
30
0
41
1
10
55.8263443012019
20
3.11653145529937
30
0
41
1
10
55.8844132903736
20
2.73157875721768
30
0
41
1
10
56.0586202578888
20
1.58386299354172
30
0
41
1
10
56.1747582362322
20
0.828546446700869
30
0
41
1
10
56.3054134618686
20
0.0052921897298006
30
0
41
1
10
56.3199307091615
20
-0.0857906404270068
30
0
41
1
10
56.3489652037473
20
-0.269157023634421
30
0
41
1
10
56.3925169456261
20
-0.545271276695331
30
0
41
1
10
56.436068687505
20
-0.824376485384818
30
0
41
1
10
56.5231721712626
20
-1.38597988789968
30
0
41
1
10
56.5812411604342
20
-1.76492405967573
30
0
41
1
10
56.6973791387777
20
-2.52827748586316
30
0
41
1
10
56.7554481279494
20
-2.91268426390985
30
0
41
1
10
56.8715861062929
20
-3.68279699777497
30
0
41
1
10
56.9296550954646
20
-4.06849903742349
30
0
41
1
10
57.0457930738081
20
-4.83658717218387
30
0
41
1
10
57.1038620629798
20
-5.21896799528056
30
0
41
1
10
57.2200000413232
20
-5.97548767566332
30
0
41
1
10
57.2780690304949
20
-6.34962016512222
30
0
41
1
10
57.3942070088384
20
-7.08458204985484
30
0
41
1
10
57.4522759980101
20
-7.44540441260369
30
0
41
1
10
57.5684139763535
20
-8.14875265510682
30
0
41
1
10
57.6264829655252
20
-8.49127140112486
30
0
41
1
10
57.7426209438687
20
-9.15330155861088
30
0
41
1
10
57.8006899330404
20
-9.47280636104375
30
0
41
1
10
57.9168279113839
20
-10.0845889253692
30
0
41
1
10
57.9748969005556
20
-10.3768612017123
30
0
41
1
10
58.0910348788991
20
-10.9306338416197
30
0
41
1
10
58.1491038680707
20
-11.1921303241768
30
0
41
1
10
58.2652418464142
20
-11.681623564182
30
0
41
1
10
58.3233108355859
20
-11.9096183371975
30
0
41
1
10
58.4394488139294
20
-12.3302863230168
30
0
41
1
10
58.4975178031011
20
-12.5229595148299
30
0
41
1
10
58.6136557814445
20
-12.8720986031932
30
0
41
1
10
58.6717247706162
20
-13.0285662893807
30
0
41
1
10
58.7878627489597
20
-13.3053174098656
30
0
41
1
10
58.8459317381314
20
-13.4256041146012
30
0
41
1
10
58.9620697164749
20
-13.6308477641915
30
0
41
1
10
59.0201387056466
20
-13.7158090202266
30
0
41
1
10
59.1943456731618
20
-13.9200537882499
30
0
41
1
10
59.3104836515052
20
-13.9884996582291
30
0
41
1
10
59.4411388771415
20
-13.9999284223262
30
0
41
1
10
59.4556561244345
20
-14.0002942772294
30
0
41
1
10
59.4846906190203
20
-13.9992430333416
30
0
41
1
10
59.5282423608992
20
-13.9949730288399
30
0
41
1
10
59.5717941027779
20
-13.9824301462611
30
0
41
1
10
59.6588975865356
20
-13.9458258755932
30
0
41
1
10
59.7169665757073
20
-13.9060505507311
30
0
41
1
10
59.8331045540506
20
-13.7934503446278
30
0
41
1
10
59.8911735432224
20
-13.720620498288
30
0
41
1
10
60.0073115215658
20
-13.5401197743333
30
0
41
1
10
60.0653805107375
20
-13.4324443320999
30
0
41
1
10
60.181518489081
20
-13.1811286269014
30
0
41
1
10
60.2395874782528
20
-13.0374846723234
30
0
41
1
10
60.3557254565962
20
-12.7139015520213
30
0
41
1
10
60.4137944457679
20
-12.5339600288537
30
0
41
1
10
60.5299324241113
20
-12.1383372736305
30
0
41
1
10
60.5880014132831
20
-11.9226553954176
30
0
41
1
10
60.7041393916265
20
-11.4570397344213
30
0
41
1
10
60.7622083807982
20
-11.2071072385414
30
0
41
1
10
60.8783463591416
20
-10.6754015217655
30
0
41
1
10
60.9364153483134
20
-10.3936315342787
30
0
41
1
10
61.0525533266568
20
-9.80151741725334
30
0
41
1
10
61.1106223158286
20
-9.49117825309654
30
0
41
1
10
61.226760294172
20
-8.84592373009212
30
0
41
1
10
61.2848292833436
20
-8.51101464769917
30
0
41
1
10
61.4009672616871
20
-7.82117915042335
30
0
41
1
10
61.4590362508589
20
-7.46625975608779
30
0
41
1
10
61.5751742292023
20
-6.74132163794647
30
0
41
1
10
61.633243218374
20
-6.37131005172651
30
0
41
1
10
61.7493811967175
20
-5.62124985716903
30
0
41
1
10
61.8074501858893
20
-5.24120790859433
30
0
41
1
10
61.9235881642326
20
-4.47608438668664
30
0
41
1
10
61.9816571534043
20
-4.09100851126064
30
0
41
1
10
62.0977951317478
20
-3.32056249983475
30
0
41
1
10
62.1558641209196
20
-2.9351967771841
30
0
41
1
10
62.3300710884347
20
-1.78516906750295
30
0
41
1
10
62.4462090667781
20
-1.02687764723058
30
0
41
1
10
62.5768642924145
20
-0.199127970925957
30
0
41
1
10
62.5913815397075
20
-0.107501522810992
30
0
41
1
10
62.6204160342933
20
0.0750152546396237
30
0
41
1
10
62.6349332815863
20
0.166476773491865
30
0
41
1
10
62.6784850234651
20
0.442146225129136
30
0
41
1
10
62.7075195180509
20
0.627320847914746
30
0
41
1
10
62.7946230018085
20
1.18645442485766
30
0
41
1
10
62.8526919909802
20
1.56404130454061
30
0
41
1
10
62.9688299693236
20
2.32536111980517
30
0
41
1
10
63.0268989584953
20
2.70909182985582
30
0
41
1
10
63.1430369368388
20
3.47862389965968
30
0
41
1
10
63.2011059260105
20
3.86442159614032
30
0
41
1
10
63.3172439043539
20
4.63354295201248
30
0
41
1
10
63.3753128935257
20
5.01686156500776
30
0
41
1
10
63.4914508718691
20
5.77614180800566
30
0
41
1
10
63.5495198610408
20
6.15209723688568
30
0
41
1
10
63.6656578393843
20
6.89159969032087
30
0
41
1
10
63.723726828556
20
7.2551397617685
30
0
41
1
10
63.8398648068995
20
7.96479065381689
30
0
41
1
10
63.8979337960711
20
8.3108943137353
30
0
41
1
10
64.0140717744146
20
8.98089605900955
30
0
41
1
10
64.0721407635863
20
9.3047873971627
30
0
41
1
10
64.1882787419298
20
9.92604377961314
30
0
41
1
10
64.2463477311015
20
10.2234031005888
30
0
41
1
10
64.3044167202732
20
10.50566141154
30
0
0
SPLINE
5
EA
100
AcDbEntity
8
1
62
256
6
ByLayer
370
13
48
1
60
0
100
AcDbSpline
70
4
71
3
72
14
73
10
40
0
40
0
40
0
40
0
40
0.25
40
0.25
40
0.5
40
0.5
40
0.75
40
0.75
40
1
40
1
40
1
40
1
41
1
10
63.3413619828755
20
14
30
0
41
1
10
63.4216165443254
20
14
30
0
41
1
10
63.5018711057751
20
13.972705761595
30
0
41
1
10
63.6623802286747
20
13.8567846061687
30
0
41
1
10
63.7426347901245
20
13.7681325504452
30
0
41
1
10
63.9031439130242
20
13.5243688925408
30
0
41
1
10
63.983398474474
20
13.3692341929853
30
0
41
1
10
64.1439075973737
20
12.9897817953857
30
0
41
1
10
64.2241621588234
20
12.7654475106458
30
0
41
1
10
64.3044167202732
20
12.5066682037751
30
0
0
SPLINE
5
EB
100
AcDbEntity
8
1
62
256
6
ByLayer
370
13
48
1
60
0
100
AcDbSpline
70
4
71
3
72
41
73
37
40
0
40
0
40
0
40
0
40
0.0625000000000011
40
0.0625000000000011
40
0.0781250000000012
40
0.0781250000000012
40
0.0937500000000013
40
0.125000000000001
40
0.125000000000001
40
0.187500000000001
40
0.187500000000001
40
0.250000000000001
40
0.250000000000001
40
0.312500000000001
40
0.312500000000001
40
0.375000000000001
40
0.375000000000001
40
0.437500000000001
40
0.437500000000001
40
0.500000000000001
40
0.500000000000001
40
0.5625
40
0.5625
40
0.625
40
0.625
40
0.6875
40
0.6875
40
0.75
40
0.75
40
0.8125
40
0.8125
40
0.875
40
0.875
40
0.9375
40
0.9375
40
1
40
1
40
1
40
1
41
1
10
51.7000000000001
20
-1.51970237414608
30
0
41
1
10
51.7705904086037
20
-1.06004465616127
30
0
41
1
10
51.8411808172073
20
-0.60596704203877
30
0
41
1
10
51.9294188279619
20
-0.0489717526965876
30
0
41
1
10
51.9470664301128
20
0.0616497075662323
30
0
41
1
10
51.9823616344147
20
0.284527859311794
30
0
41
1
10
52.0353044408674
20
0.620419806514633
30
0
41
1
10
52.0882472473201
20
0.960670885412384
30
0
41
1
10
52.1941328602257
20
1.6458954968607
30
0
41
1
10
52.2647232688293
20
2.10904648698661
30
0
41
1
10
52.4059040860367
20
3.04124722367101
30
0
41
1
10
52.4764944946403
20
3.51028896983056
30
0
41
1
10
52.6176753118476
20
4.44637086885521
30
0
41
1
10
52.6882657204513
20
4.91339846059083
30
0
41
1
10
52.8294465376586
20
5.83673766808252
30
0
41
1
10
52.9000369462622
20
6.29303289550649
30
0
41
1
10
53.0412177634695
20
7.18581690285043
30
0
41
1
10
53.1118081720732
20
7.62228702717931
30
0
41
1
10
53.2529889892805
20
8.46648678296629
30
0
41
1
10
53.3235793978842
20
8.87419769263019
30
0
41
1
10
53.4647602150915
20
9.65267111484812
30
0
41
1
10
53.5353506236951
20
10.0234172800188
30
0
41
1
10
53.6765314409025
20
10.7210149983367
30
0
41
1
10
53.7471218495062
20
11.0478547391957
30
0
41
1
10
53.8883026667135
20
11.652385382593
30
0
41
1
10
53.9588930753171
20
11.9300704116348
30
0
41
1
10
54.1000738925244
20
12.4329992484137
30
0
41
1
10
54.1706643011281
20
12.658243489552
30
0
41
1
10
54.3118451183354
20
13.0550422090839
30
0
41
1
10
54.3824355269391
20
13.2266027619858
30
0
41
1
10
54.5236163441464
20
13.5167282928296
30
0
41
1
10
54.5942067527501
20
13.6353035434951
30
0
41
1
10
54.7353875699574
20
13.8218439919269
30
0
41
1
10
54.8059779785611
20
13.8898218414606
30
0
41
1
10
54.9471587957684
20
13.9788932249365
30
0
41
1
10
55.0177492043721
20
14
30
0
41
1
10
55.0883396129757
20
14
30
0
0
SPLINE
5
EC
100
AcDbEntity
8
1
62
256
6
ByLayer
370
13
48
1
60
0
100
AcDbSpline
70
4
71
3
72
142
73
138
40
0
40
0
40
0
40
0
40
0.015625
40
0.015625
40
0.03125
40
0.03125
40
0.046875
40
0.046875
40
0.0625
40
0.0625
40
0.078125
40
0.078125
40
0.09375
40
0.09375
40
0.109375
40
0.109375
40
0.125
40
0.125
40
0.140625
40
0.140625
40
0.15625
40
0.15625
40
0.171875
40
0.171875
40
0.1875
40
0.1875
40
0.203125
40
0.203125
40
0.21875
40
0.21875
40
0.234375
40
0.234375
40
0.25
40
0.25
40
0.265625
40
0.265625
40
0.26953125
40
0.26953125
40
0.2734375
40
0.2734375
40
0.28125
40
0.28125
40
0.296875
40
0.296875
40
0.3125
40
0.3125
40
0.328125
40
0.328125
40
0.34375
40
0.34375
40
0.359375
40
0.359375
40
0.375
40
0.375
40
0.390625
40
0.390625
40
0.40625
40
0.40625
40
0.421875
40
0.421875
40
0.4375
40
0.4375
40
0.453125
40
0.453125
40
0.46875
40
0.46875
40
0.484375
40
0.484375
40
0.5
40
0.5
40
0.515625
40
0.515625
40
0.53125
40
0.53125
40
0.5390625
40
0.5390625
40
0.54296875
40
0.54296875
40
0.546875
40
0.546875
40
0.5625
40
0.5625
40
0.578125
40
0.578125
40
0.59375
40
0.59375
40
0.609375
40
0.609375
40
0.625
40
0.625
40
0.640625
40
0.640625
40
0.65625
40
0.65625
40
0.671875
40
0.671875
40
0.6875
40
0.6875
40
0.703125
40
0.703125
40
0.71875
40
0.71875
40
0.734375
40
0.734375
40
0.75
40
0.75
40
0.765625
40
0.765625
40
0.78125
40
0.78125
40
0.796875
40
0.796875
40
0.8125
40
0.8125
40
0.828125
40
0.828125
40
0.84375
40
0.84375
40
0.859375
40
0.859375
40
0.875
40
0.875
40
0.890625
40
0.890625
40
0.90625
40
0.90625
40
0.921875
40
0.921875
40
0.9375
40
0.9375
40
0.953125
40
0.953125
40
0.96875
40
0.96875
40
0.984375
40
0.984375
40
1
40
1
40
1
40
1
41
1
10
52.6701140762754
20
14
30
0
41
1
10
52.7307094025463
20
14
30
0
41
1
10
52.7913047288171
20
13.9844534061308
30
0
41
1
10
52.9124953813587
20
13.9192949754214
30
0
41
1
10
52.9730907076296
20
13.8696769796565
30
0
41
1
10
53.0942813601712
20
13.7338733021708
30
0
41
1
10
53.154876686442
20
13.6476815556345
30
0
41
1
10
53.2760673389836
20
13.4368944621225
30
0
41
1
10
53.3366626652545
20
13.3122937383646
30
0
41
1
10
53.4578533177961
20
13.0236933365664
30
0
41
1
10
53.518448644067
20
12.8596896103706
30
0
41
1
10
53.6396392966086
20
12.4922722924492
30
0
41
1
10
53.7002346228794
20
12.2888565731508
30
0
41
1
10
53.8214252754211
20
11.8436836495001
30
0
41
1
10
53.8820206016919
20
11.6019266733202
30
0
41
1
10
54.0032112542335
20
11.0822488941388
30
0
41
1
10
54.0638065805043
20
10.8043308569079
30
0
41
1
10
54.1849972330459
20
10.2155734080096
30
0
41
1
10
54.2455925593168
20
9.90473917002237
30
0
41
1
10
54.3667832118584
20
9.25433665274662
30
0
41
1
10
54.4273785381292
20
8.91477551364051
30
0
41
1
10
54.5485691906709
20
8.211864692734
30
0
41
1
10
54.6091645169418
20
7.84852342723653
30
0
41
1
10
54.7303551694834
20
7.10351977963475
30
0
41
1
10
54.7909504957542
20
6.72186626310904
30
0
41
1
10
54.9121411482958
20
5.94596493985489
30
0
41
1
10
54.9727364745666
20
5.55172561952148
30
0
41
1
10
55.0939271271083
20
4.75637546000917
30
0
41
1
10
55.1545224533791
20
4.35527202269938
30
0
41
1
10
55.2757131059208
20
3.55167143105533
30
0
41
1
10
55.3363084321916
20
3.1491800996468
30
0
41
1
10
55.4574990847332
20
2.34783647320316
30
0
41
1
10
55.5180944110041
20
1.94898817593574
30
0
41
1
10
55.6392850635457
20
1.1593702850424
30
0
41
1
10
55.6998803898165
20
0.768602854192807
30
0
41
1
10
55.7756245476551
20
0.287539216611833
30
0
41
1
10
55.7907733792228
20
0.191694531356433
30
0
41
1
10
55.8210710423582
20
0.000792823947819
30
0
41
1
10
55.8362198739259
20
-0.0942591524747058
30
0
41
1
10
55.8816663686289
20
-0.381375748401496
30
0
41
1
10
55.9119640317644
20
-0.574330456651552
30
0
41
1
10
56.0028570211707
20
-1.15717851035799
30
0
41
1
10
56.0634523474414
20
-1.55107741762245
30
0
41
1
10
56.184642999983
20
-2.34555931904021
30
0
41
1
10
56.245238326254
20
-2.74613955351006
30
0
41
1
10
56.3664289787956
20
-3.54933844944637
30
0
41
1
10
56.4270243050664
20
-3.95195249570622
30
0
41
1
10
56.548214957608
20
-4.75402305992196
30
0
41
1
10
56.6088102838789
20
-5.15347319150214
30
0
41
1
10
56.7300009364205
20
-5.94363525983454
30
0
41
1
10
56.7905962626913
20
-6.33433936851472
30
0
41
1
10
56.9117869152329
20
-7.10125876751223
30
0
41
1
10
56.9723822415038
20
-7.47746535917207
30
0
41
1
10
57.0935728940454
20
-8.20971949759047
30
0
41
1
10
57.1541682203163
20
-8.5657582332633
30
0
41
1
10
57.2753588728579
20
-9.2523525804734
30
0
41
1
10
57.3359541991287
20
-9.58290011138968
30
0
41
1
10
57.4571448516704
20
-10.213790808701
30
0
41
1
10
57.5177401779412
20
-10.5141274210304
30
0
41
1
10
57.6389308304828
20
-11.080700399484
30
0
41
1
10
57.6995261567536
20
-11.346932356371
30
0
41
1
10
57.8207168092953
20
-11.8423921395694
30
0
41
1
10
57.8813121355661
20
-12.0716180434361
30
0
41
1
10
58.0025027881077
20
-12.4912498485444
30
0
41
1
10
58.0630981143786
20
-12.6816563373347
30
0
41
1
10
58.1842887669202
20
-13.0229412614797
30
0
41
1
10
58.244884093191
20
-13.1738225196474
30
0
41
1
10
58.3660747457326
20
-13.4364042681223
30
0
41
1
10
58.4266700720035
20
-13.5481093175015
30
0
41
1
10
58.5478607245451
20
-13.7336284254828
30
0
41
1
10
58.608456050816
20
-13.8074481595309
30
0
41
1
10
58.7296467033576
20
-13.9192729022317
30
0
41
1
10
58.7902420296284
20
-13.9572840682189
30
0
41
1
10
58.8811350190347
20
-13.9894518829484
30
0
41
1
10
58.9114326821701
20
-13.99603714786
30
0
41
1
10
58.9568791768732
20
-13.9999909136992
30
0
41
1
10
58.9720280084409
20
-14.0003252062727
30
0
41
1
10
59.0023256715763
20
-13.9990508603708
30
0
41
1
10
59.0174745031441
20
-13.9974349303599
30
0
41
1
10
59.0932186609826
20
-13.9843410694673
30
0
41
1
10
59.1538139872533
20
-13.9578033859368
30
0
41
1
10
59.275004639795
20
-13.8697701898561
30
0
41
1
10
59.3355999660658
20
-13.8082684897536
30
0
41
1
10
59.4567906186075
20
-13.6480055588275
30
0
41
1
10
59.5173859448783
20
-13.5492384216073
30
0
41
1
10
59.6385765974199
20
-13.3128693222451
30
0
41
1
10
59.6991719236907
20
-13.1752623532666
30
0
41
1
10
59.8203625762324
20
-12.8605308819422
30
0
41
1
10
59.8809579025032
20
-12.6834029084025
30
0
41
1
10
60.0021485550448
20
-12.2899689328612
30
0
41
1
10
60.0627438813157
20
-12.0736615472272
30
0
41
1
10
60.1839345338573
20
-11.6033053087398
30
0
41
1
10
60.2445298601282
20
-11.3492575202873
30
0
41
1
10
60.3657205126698
20
-10.8059600547619
30
0
41
1
10
60.4263158389406
20
-10.5167139725224
30
0
41
1
10
60.5475064914823
20
-9.9065926474394
30
0
41
1
10
60.608101817753
20
-9.58572329362278
30
0
41
1
10
60.7292924702947
20
-8.91681781063147
30
0
41
1
10
60.7898877965656
20
-8.5687893308417
30
0
41
1
10
60.9110784491072
20
-7.85071221782283
30
0
41
1
10
60.971673775378
20
-7.48067224446078
30
0
41
1
10
61.0928644279197
20
-6.72415527988261
30
0
41
1
10
61.1534597541905
20
-6.3376871165317
30
0
41
1
10
61.2746504067321
20
-5.55406778924433
30
0
41
1
10
61.335245733003
20
-5.15692482109756
30
0
41
1
10
61.4564363855446
20
-4.35762240209777
30
0
41
1
10
61.5170317118154
20
-3.95546987220626
30
0
41
1
10
61.6382223643571
20
-3.1514982761839
30
0
41
1
10
61.6988176906278
20
-2.74968444254827
30
0
41
1
10
61.8200083431695
20
-1.9512399294882
30
0
41
1
10
61.8806036694403
20
-1.55461262972247
30
0
41
1
10
62.001794321982
20
-0.770761022485857
30
0
41
1
10
62.0623896482528
20
-0.383538301090454
30
0
41
1
10
62.1835803007945
20
0.377988231652125
30
0
41
1
10
62.2441756270653
20
0.765093801731041
30
0
41
1
10
62.365366279607
20
1.54885449116256
30
0
41
1
10
62.4259616058777
20
1.94544574380328
30
0
41
1
10
62.5471522584193
20
2.74384025330261
30
0
41
1
10
62.6077475846902
20
3.14564013952244
30
0
41
1
10
62.7289382372318
20
3.94960872440865
30
0
41
1
10
62.7895335635027
20
4.35177219938308
30
0
41
1
10
62.9107242160443
20
5.15112342317766
30
0
41
1
10
62.9713195423151
20
5.54830425844247
30
0
41
1
10
63.0925101948567
20
6.33202725557319
30
0
41
1
10
63.1531055211275
20
6.71856122645451
30
0
41
1
10
63.2742961736693
20
7.47523756494707
30
0
41
1
10
63.3348914999401
20
7.84537110591654
30
0
41
1
10
63.4560821524817
20
8.56366164460857
30
0
41
1
10
63.5166774787525
20
8.91180997959157
30
0
41
1
10
63.6378681312942
20
9.58097872667625
30
0
41
1
10
63.698463457565
20
9.90199148254075
30
0
41
1
10
63.8196541101066
20
10.5124193072977
30
0
41
1
10
63.8802494363775
20
10.8018284771025
30
0
41
1
10
64.0014400889191
20
11.3454670911326
30
0
41
1
10
64.0620354151899
20
11.5996929285461
30
0
41
1
10
64.1832260677316
20
12.0704149880699
30
0
41
1
10
64.2438213940024
20
12.2869101334325
30
0
41
1
10
64.3044167202732
20
12.4838170388448
30
0
0
SPLINE
5
ED
100
AcDbEntity
8
1
62
256
6
ByLayer
370
13
48
1
60
0
100
AcDbSpline
70
4
71
3
72
22
73
18
40
0
40
0
40
0
40
0
40
0.125
40
0.125
40
0.25
40
0.25
40
0.375
40
0.375
40
0.5
40
0.5
40
0.625
40
0.625
40
0.75
40
0.75
40
0.875
40
0.875
40
1
40
1
40
1
40
1
41
1
10
62.8563052598483
20
14
30
0
41
1
10
62.916643237366
20
14
30
0
41
1
10
62.9769812148837
20
13.9845853215473
30
0
41
1
10
63.0976571699191
20
13.9199914036098
30
0
41
1
10
63.1579951474369
20
13.8708061353949
30
0
41
1
10
63.2786711024722
20
13.7361967983076
30
0
41
1
10
63.3390090799899
20
13.6507667889697
30
0
41
1
10
63.4596850350253
20
13.4418474882367
30
0
41
1
10
63.520023012543
20
13.3183529204958
30
0
41
1
10
63.6406989675784
20
13.0323083672618
30
0
41
1
10
63.7010369450962
20
12.869754391394
30
0
41
1
10
63.8217129001316
20
12.5055606685315
30
0
41
1
10
63.8820508776492
20
12.3039187935058
30
0
41
1
10
64.0027268326847
20
11.8625786349158
30
0
41
1
10
64.0630648102024
20
11.6228805124528
30
0
41
1
10
64.1837407652378
20
11.1075479127259
30
0
41
1
10
64.2440787427555
20
10.8319160694518
30
0
41
1
10
64.3044167202732
20
10.5399006800176
30
0
0
SPLINE
5
EE
100
AcDbEntity
8
1
62
256
6
ByLayer
370
13
48
1
60
0
100
AcDbSpline
70
4
71
3
72
38
73
34
40
0
40
0
40
0
40
0
40
0.0624999999999999
40
0.0624999999999999
40
0.125
40
0.125
40
0.1875
40
0.1875
40
0.25
40
0.25
40
0.3125
40
0.3125
40
0.375
40
0.375
40
0.4375
40
0.4375
40
0.5
40
0.5
40
0.5625
40
0.5625
40
0.625
40
0.625
40
0.6875
40
0.6875
40
0.75
40
0.75
40
0.8125
40
0.8125
40
0.875
40
0.875
40
0.9375
40
0.9375
40
1
40
1
40
1
40
1
41
1
10
51.7
20
1.58867444135072
30
0
41
1
10
51.7604850602073
20
1.98299641330379
30
0
41
1
10
51.8209701204145
20
2.38128322624556
30
0
41
1
10
51.941940240829
20
3.18136095358162
30
0
41
1
10
52.0024253010363
20
3.58314785596829
30
0
41
1
10
52.1233954214508
20
4.38521025756341
30
0
41
1
10
52.1838804816581
20
4.78547994264505
30
0
41
1
10
52.3048506020726
20
5.57905453665927
30
0
41
1
10
52.3653356622798
20
5.97235207872006
30
0
41
1
10
52.4863057826943
20
6.74629007999525
30
0
41
1
10
52.5467908429016
20
7.1269221133212
30
0
41
1
10
52.6677609633161
20
7.86983690983033
30
0
41
1
10
52.7282460235234
20
8.23211088830553
30
0
41
1
10
52.849216143938
20
8.93287857123232
30
0
41
1
10
52.9097012041452
20
9.27136395144021
30
0
41
1
10
53.0306713245597
20
9.91964451462059
30
0
41
1
10
53.091156384767
20
10.2294326489674
30
0
41
1
10
53.2121265051815
20
10.8161635875058
30
0
41
1
10
53.2726115653887
20
11.093101297145
30
0
41
1
10
53.3935816858033
20
11.6109156510323
30
0
41
1
10
53.4540667460105
20
11.8517895864667
30
0
41
1
10
53.575036866425
20
12.295318515087
30
0
41
1
10
53.6355219266324
20
12.4979733091895
30
0
41
1
10
53.7564920470468
20
12.8640077348873
30
0
41
1
10
53.8169771072541
20
13.0273894944197
30
0
41
1
10
53.9379472276686
20
13.3148933673679
30
0
41
1
10
53.9984322878759
20
13.4390195041691
30
0
41
1
10
54.1194024082904
20
13.6490052329472
30
0
41
1
10
54.1798874684976
20
13.7348701585164
30
0
41
1
10
54.3008575889123
20
13.8701614140928
30
0
41
1
10
54.3613426491194
20
13.9195937553922
30
0
41
1
10
54.4823127695338
20
13.9845099969116
30
0
41
1
10
54.5427978297411
20
14
30
0
41
1
10
54.6032828899485
20
14
30
0
0
SPLINE
5
EF
100
AcDbEntity
8
1
62
256
6
ByLayer
370
13
48
1
60
0
100
AcDbSpline
70
4
71
3
72
146
73
142
40
0
40
0
40
0
40
0
40
0.0156249999999999
40
0.0156249999999999
40
0.0312499999999998
40
0.0312499999999998
40
0.0468749999999997
40
0.0468749999999997
40
0.0624999999999996
40
0.0624999999999996
40
0.0781249999999995
40
0.0781249999999995
40
0.0937499999999994
40
0.0937499999999994
40
0.109374999999999
40
0.109374999999999
40
0.124999999999999
40
0.124999999999999
40
0.140624999999999
40
0.140624999999999
40
0.156249999999999
40
0.156249999999999
40
0.171874999999999
40
0.171874999999999
40
0.187499999999999
40
0.187499999999999
40
0.203124999999999
40
0.203124999999999
40
0.218749999999999
40
0.218749999999999
40
0.234374999999999
40
0.234374999999999
40
0.249999999999998
40
0.249999999999998
40
0.257812499999998
40
0.257812499999998
40
0.261718749999998
40
0.261718749999998
40
0.265624999999998
40
0.265624999999998
40
0.281249999999999
40
0.281249999999999
40
0.296874999999999
40
0.296874999999999
40
0.312499999999999
40
0.312499999999999
40
0.328124999999999
40
0.328124999999999
40
0.343749999999999
40
0.343749999999999
40
0.359374999999999
40
0.359374999999999
40
0.374999999999999
40
0.374999999999999
40
0.390624999999999
40
0.390624999999999
40
0.406249999999999
40
0.406249999999999
40
0.421874999999999
40
0.421874999999999
40
0.4375
40
0.4375
40
0.453125
40
0.453125
40
0.46875
40
0.46875
40
0.484375
40
0.484375
40
0.5
40
0.5
40
0.515625
40
0.515625
40
0.51953125
40
0.51953125
40
0.5234375
40
0.5234375
40
0.53125
40
0.53125
40
0.546875
40
0.546875
40
0.5625
40
0.5625
40
0.578125
40
0.578125
40
0.59375
40
0.59375
40
0.609375
40
0.609375
40
0.625
40
0.625
40
0.640625
40
0.640625
40
0.65625
40
0.65625
40
0.671875
40
0.671875
40
0.6875
40
0.6875
40
0.703125
40
0.703125
40
0.71875
40
0.71875
40
0.734375
40
0.734375
40
0.75
40
0.75
40
0.765625000000001
40
0.765625000000001
40
0.7734375
40
0.7734375
40
0.77734375
40
0.77734375
40
0.78125
40
0.78125
40
0.796875
40
0.796875
40
0.8125
40
0.8125
40
0.828125
40
0.828125
40
0.84375
40
0.84375
40
0.859375
40
0.859375
40
0.875
40
0.875
40
0.890625
40
0.890625
40
0.90625
40
0.90625
40
0.921875
40
0.921875
40
0.9375
40
0.9375
40
0.953125
40
0.953125
40
0.96875
40
0.96875
40
0.984375
40
0.984375
40
1
40
1
40
1
40
1
41
1
10
52.1850573532481
20
14
30
0
41
1
10
52.2481790166181
20
14
30
0
41
1
10
52.311300679988
20
13.983128467378
30
0
41
1
10
52.4375440067278
20
13.9122925080788
30
0
41
1
10
52.5006656700978
20
13.8583205212863
30
0
41
1
10
52.6269089968376
20
13.7104952639757
30
0
41
1
10
52.6900306602075
20
13.6166345985698
30
0
41
1
10
52.8162739869474
20
13.3870462299325
30
0
41
1
10
52.8793956503173
20
13.2513120956897
30
0
41
1
10
53.0056389770572
20
12.9370042917001
30
0
41
1
10
53.068760640427
20
12.758426005421
30
0
41
1
10
53.1950039671669
20
12.3586396809086
30
0
41
1
10
53.2581256305369
20
12.1374296020978
30
0
41
1
10
53.3843689572768
20
11.6538744242595
30
0
41
1
10
53.4474906206466
20
11.3915303775532
30
0
41
1
10
53.5737339473864
20
10.8285034749615
30
0
41
1
10
53.6368556107564
20
10.5278249064975
30
0
41
1
10
53.7630989374962
20
9.89214669742103
30
0
41
1
10
53.8262206008661
20
9.55715428211784
30
0
41
1
10
53.9524639276059
20
8.85791335872847
30
0
41
1
10
54.0155855909758
20
8.4936743039024
30
0
41
1
10
54.1418289177158
20
7.74179901438745
30
0
41
1
10
54.2049505810856
20
7.35417345567356
30
0
41
1
10
54.3311939078255
20
6.56187193428579
30
0
41
1
10
54.3943155711954
20
6.15720674891747
30
0
41
1
10
54.5205588979353
20
5.33733441627706
30
0
41
1
10
54.5836805613051
20
4.92213710348457
30
0
41
1
10
54.709923888045
20
4.08755752647815
30
0
41
1
10
54.773045551415
20
3.66818334592816
30
0
41
1
10
54.8992888781548
20
2.83118396289424
30
0
41
1
10
54.9624105415247
20
2.41356461264772
30
0
41
1
10
55.0886538682647
20
1.58537514949779
30
0
41
1
10
55.1517755316345
20
1.17480851830643
30
0
41
1
10
55.2464580266894
20
0.567640255631943
30
0
41
1
10
55.2780188583743
20
0.366691426668865
30
0
41
1
10
55.3253601059018
20
0.0677940395644043
30
0
41
1
10
55.3411405217443
20
-0.0311560148509784
30
0
41
1
10
55.3727013534293
20
-0.230213243678435
30
0
41
1
10
55.3884817692717
20
-0.330165941476224
30
0
41
1
10
55.4673838484841
20
-0.831902961450794
30
0
41
1
10
55.5305055118541
20
-1.23964056135119
30
0
41
1
10
55.6567488385939
20
-2.06352384368179
30
0
41
1
10
55.7198705019637
20
-2.47966669310927
30
0
41
1
10
55.8461138287036
20
-3.31527113333971
30
0
41
1
10
55.9092354920735
20
-3.73472753730422
30
0
41
1
10
56.0354788188134
20
-4.57118935189521
30
0
41
1
10
56.0986004821833
20
-4.98818727188331
30
0
41
1
10
56.2248438089231
20
-5.8134726556261
30
0
41
1
10
56.2879654722931
20
-6.22175070794177
30
0
41
1
10
56.414208799033
20
-7.0231025386002
30
0
41
1
10
56.4773304624028
20
-7.41616570663067
30
0
41
1
10
56.6035737891427
20
-8.18066305760163
30
0
41
1
10
56.6666954525126
20
-8.55208642276617
30
0
41
1
10
56.7929387792525
20
-9.26727406462555
30
0
41
1
10
56.8560604426224
20
-9.6110284346484
30
0
41
1
10
56.9823037693622
20
-10.2655578643884
30
0
41
1
10
57.0454254327322
20
-10.5763249860451
30
0
41
1
10
57.1716687594721
20
-11.1605412260513
30
0
41
1
10
57.234790422842
20
-11.4339851830603
30
0
41
1
10
57.3610337495818
20
-11.9403972574154
30
0
41
1
10
57.4241554129517
20
-12.1733634100965
30
0
41
1
10
57.5503987396916
20
-12.5969510119439
30
0
41
1
10
57.6135204030615
20
-12.7875736714052
30
0
41
1
10
57.7397637298013
20
-13.1259052085445
30
0
41
1
10
57.8028853931713
20
-13.2736180487359
30
0
41
1
10
57.929128719911
20
-13.5267810750257
30
0
41
1
10
57.992250383281
20
-13.6322372676316
30
0
41
1
10
58.1184937100209
20
-13.8026058296293
30
0
41
1
10
58.1816153733908
20
-13.8675254084445
30
0
41
1
10
58.3078587001306
20
-13.959405700007
30
0
41
1
10
58.3709803635005
20
-13.9863739996718
30
0
41
1
10
58.4498824427129
20
-13.9983763252321
30
0
41
1
10
58.4656628585554
20
-13.9996926366525
30
0
41
1
10
58.4972236902404
20
-14.0002116633649
30
0
41
1
10
58.5130041060829
20
-13.9994196421831
30
0
41
1
10
58.5603453536103
20
-13.9938133096089
30
0
41
1
10
58.5919061852953
20
-13.9857648647859
30
0
41
1
10
58.6865886803502
20
-13.9480553341131
30
0
41
1
10
58.74971034372
20
-13.904809782051
30
0
41
1
10
58.8759536704599
20
-13.7791488743322
30
0
41
1
10
58.9390753338298
20
-13.6967260018835
30
0
41
1
10
59.0653186605696
20
-13.4904769381313
30
0
41
1
10
59.1284403239395
20
-13.3666439592315
30
0
41
1
10
59.2546836506794
20
-13.0762983788302
30
0
41
1
10
59.3178053140493
20
-12.9097805677692
30
0
41
1
10
59.4440486407892
20
-12.5339295317698
30
0
41
1
10
59.5071703041591
20
-12.3245934775381
30
0
41
1
10
59.633413630899
20
-11.8642342728936
30
0
41
1
10
59.6965352942689
20
-11.6132112740801
30
0
41
1
10
59.8227786210087
20
-11.0719128450423
30
0
41
1
10
59.8859002843786
20
-10.7816408047326
30
0
41
1
10
60.0121436111185
20
-10.1655327959446
30
0
41
1
10
60.0752652744885
20
-9.83970328333265
30
0
41
1
10
60.2015086012282
20
-9.15727387582311
30
0
41
1
10
60.2646302645982
20
-8.80068290041808
30
0
41
1
10
60.3908735913381
20
-8.06239578558166
30
0
41
1
10
60.453995254708
20
-7.68071009072705
30
0
41
1
10
60.5802385814478
20
-6.8984760467259
30
0
41
1
10
60.6433602448177
20
-6.49793855858965
30
0
41
1
10
60.7696035715576
20
-5.68449674394114
30
0
41
1
10
60.8327252349275
20
-5.27160261070517
30
0
41
1
10
60.9589685616673
20
-4.43987669128617
30
0
41
1
10
61.0220902250373
20
-4.02105354383735
30
0
41
1
10
61.1483335517771
20
-3.18354645863596
30
0
41
1
10
61.211455215147
20
-2.76486902788111
30
0
41
1
10
61.3376985418869
20
-1.933148796144
30
0
41
1
10
61.4008202052568
20
-1.52011013814797
30
0
41
1
10
61.4955027003116
20
-0.908343351627735
30
0
41
1
10
61.5270635319967
20
-0.705713455238936
30
0
41
1
10
61.5744047795241
20
-0.404094423867207
30
0
41
1
10
61.5901851953666
20
-0.303941971350326
30
0
41
1
10
61.6217460270515
20
-0.104471090099793
30
0
41
1
10
61.6375264428941
20
-0.0054426705130766
30
0
41
1
10
61.7164285221064
20
0.491676844371625
30
0
41
1
10
61.7795501854763
20
0.896246862889541
30
0
41
1
10
61.9057935122162
20
1.71508338690495
30
0
41
1
10
61.9689151755861
20
2.12934769024042
30
0
41
1
10
62.0951585023259
20
2.96269903217959
30
0
41
1
10
62.1582801656959
20
3.38178155287881
30
0
41
1
10
62.2845234924357
20
4.21917439186527
30
0
41
1
10
62.3476451558057
20
4.63747784267579
30
0
41
1
10
62.4738884825454
20
5.46716735444159
30
0
41
1
10
62.5370101459154
20
5.87854448432148
30
0
41
1
10
62.6632534726553
20
6.68792435387482
30
0
41
1
10
62.7263751360252
20
7.08591672925428
30
0
41
1
10
62.852618462765
20
7.86205050120589
30
0
41
1
10
62.915740126135
20
8.24018102754249
30
0
41
1
10
63.0419834528748
20
8.97041730945995
30
0
41
1
10
63.1051051162447
20
9.32251278948993
30
0
41
1
10
63.2313484429845
20
9.99512955917007
30
0
41
1
10
63.2944701063544
20
10.3156422625721
30
0
41
1
10
63.4207134330942
20
10.9204555333922
30
0
41
1
10
63.4838350964642
20
11.2047500989822
30
0
41
1
10
63.6100784232041
20
11.7336226612726
30
0
41
1
10
63.673200086574
20
11.9781977789902
30
0
41
1
10
63.7994434133138
20
12.4253954437789
30
0
41
1
10
63.8625650766838
20
12.6280183368113
30
0
41
1
10
63.9888084034236
20
12.9903819495936
30
0
41
1
10
64.0519300667935
20
13.1501259210584
30
0
41
1
10
64.1781733935334
20
13.4270529091077
30
0
41
1
10
64.2412950569033
20
13.5442414404787
30
0
41
1
10
64.3044167202732
20
13.6408683891198
30
0
0
SPLINE
5
F0
100
AcDbEntity
8
1
62
256
6
ByLayer
370
13
48
1
60
0
100
AcDbSpline
70
4
71
3
72
22
73
18
40
0
40
0
40
0
40
0
40
0.125
40
0.125
40
0.25
40
0.25
40
0.375
40
0.375
40
0.5
40
0.5
40
0.625
40
0.625
40
0.75
40
0.75
40
0.875
40
0.875
40
1
40
1
40
1
40
1
41
1
10
62.371248536821
20
14
30
0
41
1
10
62.4517972111315
20
14
30
0
41
1
10
62.532345885442
20
13.9725049206843
30
0
41
1
10
62.693443234063
20
13.8557085142291
30
0
41
1
10
62.7739919083736
20
13.7663815857165
30
0
41
1
10
62.9350892569946
20
13.5207491768167
30
0
41
1
10
63.0156379313051
20
13.3644202059813
30
0
41
1
10
63.1767352799261
20
12.9820553963226
30
0
41
1
10
63.2572839542366
20
12.7560027644545
30
0
41
1
10
63.4183813028576
20
12.234528742361
30
0
41
1
10
63.4989299771681
20
11.9391015262939
30
0
41
1
10
63.6600273257891
20
11.282637803379
30
0
41
1
10
63.7405760000997
20
10.9216090419931
30
0
41
1
10
63.9016733487207
20
10.1411021219057
30
0
41
1
10
63.9822220230312
20
9.72164514405935
30
0
41
1
10
64.1433193716522
20
8.83440469327707
30
0
41
1
10
64.2238680459627
20
8.36665269681259
30
0
41
1
10
64.3044167202732
20
7.88087800696519
30
0
0
SPLINE
5
F1
100
AcDbEntity
8
1
62
256
6
ByLayer
370
13
48
1
60
0
100
AcDbSpline
70
4
71
3
72
22
73
18
40
0
40
0
40
0
40
0
40
0.125
40
0.125
40
0.25
40
0.25
40
0.375
40
0.375
40
0.5
40
0.5
40
0.625
40
0.625
40
0.75
40
0.75
40
0.875
40
0.875
40
1
40
1
40
1
40
1
41
1
10
51.7
20
4.79217307441454
30
0
41
1
10
51.8007594236217
20
5.45647542488385
30
0
41
1
10
51.9015188472434
20
6.11364460419793
30
0
41
1
10
52.1030376944868
20
7.38751562785251
30
0
41
1
10
52.2037971181086
20
8.00410752746913
30
0
41
1
10
52.405315965352
20
9.17110101880846
30
0
41
1
10
52.5060753889737
20
9.72139676636874
30
0
41
1
10
52.7075942362171
20
10.7340742277043
30
0
41
1
10
52.8083536598389
20
11.1963821112737
30
0
41
1
10
53.0098725070823
20
12.0181584938871
30
0
41
1
10
53.1106319307041
20
12.3776031225366
30
0
41
1
10
53.3121507779475
20
12.9870465523952
30
0
41
1
10
53.4129102015692
20
13.2370722453609
30
0
41
1
10
53.6144290488126
20
13.6293310263544
30
0
41
1
10
53.7151884724344
20
13.7716271724794
30
0
41
1
10
53.9167073196778
20
13.9569228168084
30
0
41
1
10
54.0174667432995
20
14
30
0
41
1
10
54.1182261669212
20
14
30
0
0
SPLINE
5
F2
100
AcDbEntity
8
1
62
256
6
ByLayer
370
13
48
1
60
0
100
AcDbSpline
70
4
71
3
72
134
73
130
40
0
40
0
40
0
40
0
40
0.015625
40
0.015625
40
0.03125
40
0.03125
40
0.046875
40
0.046875
40
0.0625
40
0.0625
40
0.078125
40
0.078125
40
0.09375
40
0.09375
40
0.109375
40
0.109375
40
0.125
40
0.125
40
0.140625
40
0.140625
40
0.15625
40
0.15625
40
0.171875
40
0.171875
40
0.1875
40
0.1875
40
0.203125
40
0.203125
40
0.21875
40
0.21875
40
0.234375
40
0.234375
40
0.25
40
0.25
40
0.265625
40
0.265625
40
0.28125
40
0.28125
40
0.296875
40
0.296875
40
0.3125
40
0.3125
40
0.328125
40
0.328125
40
0.34375
40
0.34375
40
0.359375
40
0.359375
40
0.375
40
0.375
40
0.390625
40
0.390625
40
0.40625
40
0.40625
40
0.421875
40
0.421875
40
0.4375
40
0.4375
40
0.453125
40
0.453125
40
0.46875
40
0.46875
40
0.484375
40
0.484375
40
0.5
40
0.5
40
0.515624999999999
40
0.515624999999999
40
0.531249999999999
40
0.531249999999999
40
0.546874999999999
40
0.546874999999999
40
0.5625
40
0.5625
40
0.578125
40
0.578125
40
0.59375
40
0.59375
40
0.609375
40
0.609375
40
0.625
40
0.625
40
0.640625
40
0.640625
40
0.65625
40
0.65625
40
0.671875
40
0.671875
40
0.6875
40
0.6875
40
0.703125
40
0.703125
40
0.71875
40
0.71875
40
0.734375
40
0.734375
40
0.75
40
0.75
40
0.765625
40
0.765625
40
0.78125
40
0.78125
40
0.796875
40
0.796875
40
0.8125
40
0.8125
40
0.828125
40
0.828125
40
0.84375
40
0.84375
40
0.859375
40
0.859375
40
0.875
40
0.875
40
0.890625
40
0.890625
40
0.90625
40
0.90625
40
0.921875
40
0.921875
40
0.9375
40
0.9375
40
0.953125
40
0.953125
40
0.96875
40
0.96875
40
0.984375
40
0.984375
40
1
40
1
40
1
40
1
41
1
10
51.7000006302209
20
14
30
0
41
1
10
51.7656486306899
20
14
30
0
41
1
10
51.8312966311589
20
13.9817491342688
30
0
41
1
10
51.962592632097
20
13.9049883184059
30
0
41
1
10
52.028240632566
20
13.8464691637429
30
0
41
1
10
52.159536633504
20
13.6860812000376
30
0
41
1
10
52.225184633973
20
13.5842034531675
30
0
41
1
10
52.3564806349111
20
13.3349674882256
30
0
41
1
10
52.4221286353801
20
13.1876016598617
30
0
41
1
10
52.5534246363182
20
12.8464709745647
30
0
41
1
10
52.6190726367872
20
12.6527009488232
30
0
41
1
10
52.7503686377252
20
12.219251567497
30
0
41
1
10
52.8160166381942
20
11.9795704466098
30
0
41
1
10
52.9473126391323
20
11.4563043384519
30
0
41
1
10
53.0129606396013
20
11.1727215809702
30
0
41
1
10
53.1442566405394
20
10.5651683090564
30
0
41
1
10
53.2099046410084
20
10.241204070705
30
0
41
1
10
53.3412006419464
20
9.55778662261926
30
0
41
1
10
53.4068486424154
20
9.19834318363314
30
0
41
1
10
53.5381446433535
20
8.45000536580139
30
0
41
1
10
53.6037926438225
20
8.06112317380757
30
0
41
1
10
53.7350886447605
20
7.26075112153453
30
0
41
1
10
53.8007366452296
20
6.84927445924851
30
0
41
1
10
53.9320326461676
20
6.01097552951285
30
0
41
1
10
53.9976806466366
20
5.5841660093329
30
0
41
1
10
54.1289766475747
20
4.72248740942106
30
0
41
1
10
54.1946246480437
20
4.28762936953214
30
0
41
1
10
54.3259206489817
20
3.41680234425093
30
0
41
1
10
54.3915686494508
20
2.98084182690104
30
0
41
1
10
54.5228646503888
20
2.11412546074342
30
0
41
1
10
54.5885126508579
20
1.68337511284858
30
0
41
1
10
54.7198086517959
20
0.832551062641272
30
0
41
1
10
54.785456652265
20
0.412479937098908
30
0
41
1
10
54.916752653203
20
-0.412477957199968
30
0
41
1
10
54.982400653672
20
-0.832549037622897
30
0
41
1
10
55.11369665461
20
-1.68337305391154
30
0
41
1
10
55.1793446550791
20
-2.11412338884909
30
0
41
1
10
55.3106406560171
20
-2.98083973855677
30
0
41
1
10
55.3762886564861
20
-3.41680025241874
30
0
41
1
10
55.5075846574242
20
-4.28762728139452
30
0
41
1
10
55.5732326578933
20
-4.7224853284705
30
0
41
1
10
55.7045286588313
20
-5.58416395422606
30
0
41
1
10
55.7701766593003
20
-6.01097349306625
30
0
41
1
10
55.9014726602383
20
-6.84927247186007
30
0
41
1
10
55.9671206607074
20
-7.26074916454587
30
0
41
1
10
56.0984166616454
20
-8.06112128901015
30
0
41
1
10
56.1640646621144
20
-8.45000352279499
30
0
41
1
10
56.2953606630525
20
-9.19834143461773
30
0
41
1
10
56.3610086635215
20
-9.55778492580109
30
0
41
1
10
56.4923046644595
20
-10.2412024871191
30
0
41
1
10
56.5579526649286
20
-10.5651667865008
30
0
41
1
10
56.6892486658666
20
-11.1727201872698
30
0
41
1
10
56.7548966663356
20
-11.4563030125703
30
0
41
1
10
56.8861926672737
20
-11.9795692608138
30
0
41
1
10
56.9518406677427
20
-12.2192504539612
30
0
41
1
10
57.0831366686807
20
-12.6526999818015
30
0
41
1
10
57.1487846691497
20
-12.8464700817909
30
0
41
1
10
57.2800806700878
20
-13.1876009152079
30
0
41
1
10
57.3457286705568
20
-13.3349668174392
30
0
41
1
10
57.4770246714949
20
-13.5842029276209
30
0
41
1
10
57.5426726719639
20
-13.6860807458604
30
0
41
1
10
57.673968672902
20
-13.8464688480575
30
0
41
1
10
57.739616673371
20
-13.904988069842
30
0
41
1
10
57.8709126743091
20
-13.9817490143806
30
0
41
1
10
57.936560674778
20
-13.9999999416665
30
0
41
1
10
58.0678566757161
20
-14.0000000583332
30
0
41
1
10
58.1335046761852
20
-13.9817492541567
30
0
41
1
10
58.2648006771232
20
-13.9049885669696
30
0
41
1
10
58.3304486775922
20
-13.8464694794279
30
0
41
1
10
58.4617446785302
20
-13.6860816542145
30
0
41
1
10
58.5273926789992
20
-13.5842039787137
30
0
41
1
10
58.6586886799373
20
-13.3349681590117
30
0
41
1
10
58.7243366804063
20
-13.1876024045152
30
0
41
1
10
58.8556326813443
20
-12.8464718673382
30
0
41
1
10
58.9212806818134
20
-12.6527019158445
30
0
41
1
10
59.0525766827514
20
-12.2192526810324
30
0
41
1
10
59.1182246832204
20
-11.9795716324055
30
0
41
1
10
59.2495206841584
20
-11.4563056643332
30
0
41
1
10
59.3151686846275
20
-11.1727229746703
30
0
41
1
10
59.4464646855656
20
-10.5651698316117
30
0
41
1
10
59.5121126860345
20
-10.2412056542906
30
0
41
1
10
59.6434086869726
20
-9.55778831943721
30
0
41
1
10
59.7090566874417
20
-9.1983449326483
30
0
41
1
10
59.8403526883797
20
-8.45000720880762
30
0
41
1
10
59.9060006888487
20
-8.06112505860483
30
0
41
1
10
60.0372966897867
20
-7.26075307852301
30
0
41
1
10
60.1029446902557
20
-6.84927644663679
30
0
41
1
10
60.2342406911939
20
-6.01097756595937
30
0
41
1
10
60.2998886916628
20
-5.58416806443967
30
0
41
1
10
60.4311846926009
20
-4.72248949037157
30
0
41
1
10
60.4968326930699
20
-4.28763145766973
30
0
41
1
10
60.628128694008
20
-3.41680443608311
30
0
41
1
10
60.693776694477
20
-2.98084391524535
30
0
41
1
10
60.825072695415
20
-2.11412753263778
30
0
41
1
10
60.8907206958841
20
-1.68337717178571
30
0
41
1
10
61.0220166968221
20
-0.832553087659733
30
0
41
1
10
61.0876646972911
20
-0.412481941160394
30
0
41
1
10
61.2189606982291
20
0.412476001463375
30
0
41
1
10
61.2846086986982
20
0.832547012604635
30
0
41
1
10
61.4159046996362
20
1.68337099497455
30
0
41
1
10
61.4815527001052
20
2.11412131695485
30
0
41
1
10
61.6128487010433
20
2.98083765021249
30
0
41
1
10
61.6784967015123
20
3.41679816058655
30
0
41
1
10
61.8097927024504
20
4.2876251932569
30
0
41
1
10
61.8754407029194
20
4.72248324751988
30
0
41
1
10
62.0067367038575
20
5.58416189911912
30
0
41
1
10
62.0723847043264
20
6.01097145661953
30
0
41
1
10
62.2036807052645
20
6.8492704844715
30
0
41
1
10
62.2693287057335
20
7.26074720755707
30
0
41
1
10
62.4006247066716
20
8.06111940421255
30
0
41
1
10
62.4662727071406
20
8.45000167978836
30
0
41
1
10
62.5975687080786
20
9.19833968560212
30
0
41
1
10
62.6632167085476
20
9.55778322898263
30
0
41
1
10
62.7945127094857
20
10.241200903533
30
0
41
1
10
62.8601607099547
20
10.5651652639448
30
0
41
1
10
62.9914567108927
20
11.172718793569
30
0
41
1
10
63.0571047113618
20
11.4563016866882
30
0
41
1
10
63.1884007122998
20
11.9795680750175
30
0
41
1
10
63.2540487127689
20
12.2192493404251
30
0
41
1
10
63.385344713707
20
12.6526990147795
30
0
41
1
10
63.4509927141759
20
12.8464691890167
30
0
41
1
10
63.5822887151139
20
13.1876001705537
30
0
41
1
10
63.6479367155831
20
13.3349661466524
30
0
41
1
10
63.7792327165211
20
13.5842024020739
30
0
41
1
10
63.8448807169901
20
13.6860802916828
30
0
41
1
10
63.9761767179281
20
13.8464685323719
30
0
41
1
10
64.0418247183971
20
13.9049878212776
30
0
41
1
10
64.1731207193351
20
13.981748894492
30
0
41
1
10
64.2387687198042
20
13.9999998833327
30
0
41
1
10
64.3044167202732
20
13.9999999999994
30
0
0
SPLINE
5
F3
100
AcDbEntity
8
1
62
256
6
ByLayer
370
13
48
1
60
0
100
AcDbSpline
70
4
71
3
72
22
73
18
40
0
40
0
40
0
40
0
40
0.125
40
0.125
40
0.25
40
0.25
40
0.375
40
0.375
40
0.5
40
0.5
40
0.625
40
0.625
40
0.75
40
0.75
40
0.875
40
0.875
40
1
40
1
40
1
40
1
41
1
10
61.8861918137937
20
14
30
0
41
1
10
61.9869511848971
20
14
30
0
41
1
10
62.0877105560005
20
13.9569228618742
30
0
41
1
10
62.289229298207
20
13.7716274171561
30
0
41
1
10
62.3899886693103
20
13.6293314257757
30
0
41
1
10
62.5915074115169
20
13.2370730726713
30
0
41
1
10
62.6922667826202
20
12.9870476529864
30
0
41
1
10
62.8937855248268
20
12.3776048808628
30
0
41
1
10
62.9945448959301
20
12.0181606366657
30
0
41
1
10
63.1960636381368
20
11.1963851084656
30
0
41
1
10
63.2968230092401
20
10.7340776946836
30
0
41
1
10
63.4983417514467
20
9.72140121689066
30
0
41
1
10
63.5991011225501
20
9.17110598278074
30
0
41
1
10
63.8006198647566
20
8.00411351230113
30
0
41
1
10
63.9013792358599
20
7.38752211976077
30
0
41
1
10
64.1028979780666
20
6.11365205574896
30
0
41
1
10
64.2036573491699
20
5.45648332875337
30
0
41
1
10
64.3044167202732
20
4.79218138444932
30
0
0
SPLINE
5
F4
100
AcDbEntity
8
1
62
256
6
ByLayer
370
13
48
1
60
0
100
AcDbSpline
70
4
71
3
72
22
73
18
40
0
40
0
40
0
40
0
40
0.125
40
0.125
40
0.25
40
0.25
40
0.375
40
0.375
40
0.5
40
0.5
40
0.625
40
0.625
40
0.75
40
0.75
40
0.875
40
0.875
40
1
40
1
40
1
40
1
41
1
10
51.7
20
7.88087040546492
30
0
41
1
10
51.7805487268289
20
8.36664559938589
30
0
41
1
10
51.8610974536578
20
8.83439811029501
30
0
41
1
10
52.0221949073157
20
9.72163957878794
30
0
41
1
10
52.1027436341446
20
10.1410970597621
30
0
41
1
10
52.2638410878024
20
10.9216049439885
30
0
41
1
10
52.3443898146313
20
11.2826341662685
30
0
41
1
10
52.5054872682891
20
11.9390987431057
30
0
41
1
10
52.586035995118
20
12.2345263521301
30
0
41
1
10
52.7471334487759
20
12.7560010746195
30
0
41
1
10
52.8276821756048
20
12.982054013912
30
0
41
1
10
52.9887796292626
20
13.3644193446459
30
0
41
1
10
53.0693283560915
20
13.5207485291691
30
0
41
1
10
53.2304258097493
20
13.7663812724376
30
0
41
1
10
53.3109745365782
20
13.8557083217019
30
0
41
1
10
53.4720719902361
20
13.9725048847549
30
0
41
1
10
53.552620717065
20
14
30
0
41
1
10
53.6331694438939
20
14
30
0
0
SPLINE
5
F5
100
AcDbEntity
8
1
62
256
6
ByLayer
370
13
48
1
60
0
100
AcDbSpline
70
4
71
3
72
145
73
141
40
0
40
0
40
0
40
0
40
0.015625
40
0.015625
40
0.03125
40
0.03125
40
0.046875
40
0.046875
40
0.0624999999999999
40
0.0624999999999999
40
0.0781249999999999
40
0.0781249999999999
40
0.0937499999999999
40
0.0937499999999999
40
0.109375
40
0.109375
40
0.125
40
0.125
40
0.140625
40
0.140625
40
0.15625
40
0.15625
40
0.171875
40
0.171875
40
0.1875
40
0.1875
40
0.203125
40
0.203125
40
0.21875
40
0.21875
40
0.22265625
40
0.22265625
40
0.2265625
40
0.234375
40
0.234375
40
0.25
40
0.25
40
0.265625
40
0.265625
40
0.28125
40
0.28125
40
0.296875
40
0.296875
40
0.3125
40
0.3125
40
0.328125
40
0.328125
40
0.34375
40
0.34375
40
0.359375
40
0.359375
40
0.375
40
0.375
40
0.390625
40
0.390625
40
0.40625
40
0.40625
40
0.421875
40
0.421875
40
0.4375
40
0.4375
40
0.453125
40
0.453125
40
0.46875
40
0.46875
40
0.4765625
40
0.4765625
40
0.48046875
40
0.48046875
40
0.484375
40
0.484375
40
0.5
40
0.5
40
0.515625
40
0.515625
40
0.53125
40
0.53125
40
0.546875
40
0.546875
40
0.5625
40
0.5625
40
0.578124999999999
40
0.578124999999999
40
0.59375
40
0.59375
40
0.609375
40
0.609375
40
0.625
40
0.625
40
0.640625
40
0.640625
40
0.65625
40
0.65625
40
0.671875
40
0.671875
40
0.6875
40
0.6875
40
0.703125
40
0.703125
40
0.71875
40
0.71875
40
0.734375
40
0.734375
40
0.73828125
40
0.73828125
40
0.7421875
40
0.7421875
40
0.75
40
0.75
40
0.765625
40
0.765625
40
0.78125
40
0.78125
40
0.796875
40
0.796875
40
0.8125
40
0.8125
40
0.828125
40
0.828125
40
0.84375
40
0.84375
40
0.859375
40
0.859375
40
0.875
40
0.875
40
0.890625
40
0.890625
40
0.90625
40
0.90625
40
0.921875
40
0.921875
40
0.9375
40
0.9375
40
0.953125
40
0.953125
40
0.96875
40
0.96875
40
0.984375
40
0.984375
40
1
40
1
40
1
40
1
41
1
10
51.7
20
13.6408703186073
30
0
41
1
10
51.7631216699348
20
13.5442436330808
30
0
41
1
10
51.8262433398695
20
13.4270553669816
30
0
41
1
10
51.9524866797389
20
13.150128906578
30
0
41
1
10
52.0156083496736
20
12.9903851974719
30
0
41
1
10
52.1418516895431
20
12.6280220986468
30
0
41
1
10
52.2049733594778
20
12.4253994571944
30
0
41
1
10
52.3312166993473
20
11.9782022768267
30
0
41
1
10
52.394338369282
20
11.7336273919302
30
0
41
1
10
52.5205817091514
20
11.2047552690365
30
0
41
1
10
52.5837033790862
20
10.9204609100033
30
0
41
1
10
52.7099467189556
20
10.3156480196094
30
0
41
1
10
52.7730683888903
20
9.99513549006201
30
0
41
1
10
52.8993117287598
20
9.32251903054083
30
0
41
1
10
52.9624333986945
20
8.97042368680644
30
0
41
1
10
53.088676738564
20
8.24018763700678
30
0
41
1
10
53.1517984084986
20
7.86205720649087
30
0
41
1
10
53.2780417483681
20
7.0859235848809
30
0
41
1
10
53.3411634183028
20
6.6879312640279
30
0
41
1
10
53.4674067581723
20
5.87855146343739
30
0
41
1
10
53.5305284281069
20
5.46717434800507
30
0
41
1
10
53.6567717679764
20
4.63748482803433
30
0
41
1
10
53.7198934379111
20
4.21918135458605
30
0
41
1
10
53.8461367777806
20
3.38178843759675
30
0
41
1
10
53.9092584477153
20
2.96270586154844
30
0
41
1
10
54.0355017875847
20
2.12935438146764
30
0
41
1
10
54.0986234575195
20
1.71508999535487
30
0
41
1
10
54.224866797389
20
0.896253284059696
30
0
41
1
10
54.2879884673237
20
0.49168316105218
30
0
41
1
10
54.3668905547421
20
-0.0054364944440408
30
0
41
1
10
54.3826709722258
20
-0.104464904470177
30
0
41
1
10
54.4142318071931
20
-0.30393577195494
30
0
41
1
10
54.4615730596442
20
-0.604392289057955
30
0
41
1
10
54.5089143120952
20
-0.908337121452291
30
0
41
1
10
54.6035968169973
20
-1.5201038926989
30
0
41
1
10
54.666718486932
20
-1.93314255267671
30
0
41
1
10
54.7929618268015
20
-2.76486281522705
30
0
41
1
10
54.8560834967362
20
-3.183540274823
30
0
41
1
10
54.9823268366056
20
-4.02104744617074
30
0
41
1
10
55.0454485065404
20
-4.43987065093265
30
0
41
1
10
55.1716918464097
20
-5.27159671385996
30
0
41
1
10
55.2348135163446
20
-5.68449093329573
30
0
41
1
10
55.3610568562139
20
-6.4979329482548
30
0
41
1
10
55.4241785261486
20
-6.89847055050188
30
0
41
1
10
55.5504218660181
20
-7.68070484819989
30
0
41
1
10
55.6135435359528
20
-8.06239068263554
30
0
41
1
10
55.7397868758223
20
-8.8006780982804
30
0
41
1
10
55.802908545757
20
-9.15726923490297
30
0
41
1
10
55.9291518856264
20
-9.83969898149536
30
0
41
1
10
55.9922735555612
20
-10.165528671959
30
0
41
1
10
56.1185168954306
20
-10.7816370472857
30
0
41
1
10
56.1816385653653
20
-11.0719092762667
30
0
41
1
10
56.3078819052348
20
-11.6132080872976
30
0
41
1
10
56.3710035751695
20
-11.8642312794175
30
0
41
1
10
56.4972469150389
20
-12.3245908692356
30
0
41
1
10
56.5603685849737
20
-12.5339271153215
30
0
41
1
10
56.6866119248431
20
-12.9097785280256
30
0
41
1
10
56.7497335947778
20
-13.0762965239277
30
0
41
1
10
56.8759769346472
20
-13.3666424623074
30
0
41
1
10
56.9390986045819
20
-13.4904756143394
30
0
41
1
10
57.0653419444514
20
-13.6967250090322
30
0
41
1
10
57.1284636143861
20
-13.7791480392885
30
0
41
1
10
57.2547069542556
20
-13.9048092448452
30
0
41
1
10
57.3178286241903
20
-13.9480549369403
30
0
41
1
10
57.4125111290924
20
-13.9857646633396
30
0
41
1
10
57.4440719640598
20
-13.9938131710262
30
0
41
1
10
57.4914132165108
20
-13.9994195942761
30
0
41
1
10
57.5071936339945
20
-14.0002116449261
30
0
41
1
10
57.5387544689618
20
-13.9996926766281
30
0
41
1
10
57.5545348864456
20
-13.9983763945787
30
0
41
1
10
57.633436973864
20
-13.9863742165973
30
0
41
1
10
57.6965586437987
20
-13.9594060373338
30
0
41
1
10
57.8228019836681
20
-13.8675259884699
30
0
41
1
10
57.8859236536028
20
-13.8026065319478
30
0
41
1
10
58.0121669934722
20
-13.6322382131536
30
0
41
1
10
58.075288663407
20
-13.5267821414518
30
0
41
1
10
58.2015320032764
20
-13.2736193519676
30
0
41
1
10
58.2646536732112
20
-13.1259066276696
30
0
41
1
10
58.3908970130806
20
-12.7875753135714
30
0
41
1
10
58.4540186830154
20
-12.5969527612487
30
0
41
1
10
58.5802620228848
20
-12.173365361335
30
0
41
1
10
58.6433836928195
20
-11.9403993034396
30
0
41
1
10
58.769627032689
20
-11.4339874031462
30
0
41
1
10
58.8327487026238
20
-11.1605435254051
30
0
41
1
10
58.9589920424932
20
-10.576327425959
30
0
41
1
10
59.0221137124279
20
-10.265560365589
30
0
41
1
10
59.1483570522973
20
-9.61103103889135
30
0
41
1
10
59.211478722232
20
-9.2672767106221
30
0
41
1
10
59.3377220621015
20
-8.55208913221435
30
0
41
1
10
59.4008437320362
20
-8.18066578874937
30
0
41
1
10
59.5270870719056
20
-7.4161684616387
30
0
41
1
10
59.5902087418404
20
-7.02310529577386
30
0
41
1
10
59.7164520817098
20
-6.22175345137032
30
0
41
1
10
59.7795737516445
20
-5.81347538315117
30
0
41
1
10
59.9058170915139
20
-4.98818995174935
30
0
41
1
10
59.9689387614487
20
-4.57119200001415
30
0
41
1
10
60.0951821013182
20
-3.73473010882415
30
0
41
1
10
60.1583037712529
20
-3.31527366001612
30
0
41
1
10
60.2845471111222
20
-2.47966912000717
30
0
41
1
10
60.347668781057
20
-2.0635262156521
30
0
41
1
10
60.4739121209265
20
-1.23964281641332
30
0
41
1
10
60.5370337908612
20
-0.831905154538163
30
0
41
1
10
60.6159358782796
20
-0.330168054477355
30
0
41
1
10
60.6317162957633
20
-0.230215340530776
30
0
41
1
10
60.6632771307306
20
-0.031158079184479
30
0
41
1
10
60.6790575482143
20
0.067791983296388
30
0
41
1
10
60.7263988006653
20
0.366689384171878
30
0
41
1
10
60.7579596356327
20
0.567638223455759
30
0
41
1
10
60.8526421405348
20
1.17480652055497
30
0
41
1
10
60.9157638104695
20
1.58537317932695
30
0
41
1
10
61.0420071503389
20
2.41356270680493
30
0
41
1
10
61.1051288202737
20
2.83118209380066
30
0
41
1
10
61.2313721601432
20
3.66818155892636
30
0
41
1
10
61.2944938300779
20
4.08755578481936
30
0
41
1
10
61.4207371699473
20
4.92213546001258
30
0
41
1
10
61.483858839882
20
5.33733282564745
30
0
41
1
10
61.6101021797514
20
6.1572052698761
30
0
41
1
10
61.6732238496862
20
6.56187051398689
30
0
41
1
10
61.7994671895556
20
7.35417215673255
30
0
41
1
10
61.8625888594904
20
7.74179777805676
30
0
41
1
10
61.9888321993598
20
8.49367319432946
30
0
41
1
10
62.0519538692946
20
8.85791231329677
30
0
41
1
10
62.1781972091639
20
9.55715336403688
30
0
41
1
10
62.2413188790987
20
9.89214584254304
30
0
41
1
10
62.3675622189682
20
10.527824174687
30
0
41
1
10
62.4306838889028
20
10.8285028030097
30
0
41
1
10
62.5569272287723
20
11.3915298198267
30
0
41
1
10
62.6200488987071
20
11.6538739208952
30
0
41
1
10
62.7462922385765
20
12.1374292002264
30
0
41
1
10
62.8094139085112
20
12.3586393261652
30
0
41
1
10
62.9356572483806
20
12.7584257364837
30
0
41
1
10
62.9987789183153
20
12.9370040614405
30
0
41
1
10
63.1250222581847
20
13.2513119336844
30
0
41
1
10
63.1881439281195
20
13.3870460975053
30
0
41
1
10
63.3143872679889
20
13.6166345160974
30
0
41
1
10
63.3775089379237
20
13.710495201883
30
0
41
1
10
63.5037522777931
20
13.858320491134
30
0
41
1
10
63.5668739477279
20
13.9122924894911
30
0
41
1
10
63.6931172875973
20
13.9831284638644
30
0
41
1
10
63.756238957532
20
14
30
0
41
1
10
63.8193606274668
20
14
30
0
0
SPLINE
5
F6
100
AcDbEntity
8
1
62
256
6
ByLayer
370
13
48
1
60
0
100
AcDbSpline
70
4
71
3
72
38
73
34
40
0
40
0
40
0
40
0
40
0.0625000000000001
40
0.0625000000000001
40
0.125
40
0.125
40
0.1875
40
0.1875
40
0.25
40
0.25
40
0.3125
40
0.3125
40
0.375
40
0.375
40
0.4375
40
0.4375
40
0.5
40
0.5
40
0.5625
40
0.5625
40
0.625
40
0.625
40
0.6875
40
0.6875
40
0.75
40
0.75
40
0.8125
40
0.8125
40
0.875
40
0.875
40
0.9375
40
0.9375
40
1
40
1
40
1
40
1
41
1
10
61.4011350907665
20
14
30
0
41
1
10
61.4616201247144
20
14
30
0
41
1
10
61.5221051586625
20
13.9845100103761
30
0
41
1
10
61.6430752265587
20
13.9195938264767
30
0
41
1
10
61.7035602605067
20
13.8701615293462
30
0
41
1
10
61.8245303284028
20
13.7348703956779
30
0
41
1
10
61.8850153623509
20
13.6490055478606
30
0
41
1
10
62.0059854302471
20
13.4390200097312
30
0
41
1
10
62.066470464195
20
13.314893985837
30
0
41
1
10
62.1874405320912
20
13.0273903737659
30
0
41
1
10
62.2479255660393
20
12.8640087622095
30
0
41
1
10
62.3688956339353
20
12.4979746655392
30
0
41
1
10
62.4293806678834
20
12.2953200524882
30
0
41
1
10
62.5503507357796
20
11.8517915150591
30
0
41
1
10
62.6108357697275
20
11.6109177897577
30
0
41
1
10
62.7318058376236
20
11.0931038793401
30
0
41
1
10
62.7922908715718
20
10.8161664030239
30
0
41
1
10
62.9132609394678
20
10.2294359468595
30
0
41
1
10
62.973745973416
20
9.91964806154485
30
0
41
1
10
63.094716041312
20
9.27136800357957
30
0
41
1
10
63.15520107526
20
8.93288287953291
30
0
41
1
10
63.2761711431562
20
8.23211570701753
30
0
41
1
10
63.3366561771043
20
7.86984198277068
30
0
41
1
10
63.4576262450004
20
7.12692768392554
30
0
41
1
10
63.5181112789485
20
6.74629589401607
30
0
41
1
10
63.6390813468446
20
5.97235836070618
30
0
41
1
10
63.6995663807927
20
5.57906104317985
30
0
41
1
10
63.8205364486888
20
4.78548687261136
30
0
41
1
10
63.8810214826367
20
4.3852173864326
30
0
41
1
10
64.0019915505329
20
3.58315535192941
30
0
41
1
10
64.062476584481
20
3.18136861772959
30
0
41
1
10
64.1834466523771
20
2.38129119278568
30
0
41
1
10
64.2439316863251
20
1.98300451405254
30
0
41
1
10
64.3044167202732
20
1.58868265858436
30
0
0
SPLINE
5
F7
100
AcDbEntity
8
1
62
256
6
ByLayer
370
13
48
1
60
0
100
AcDbSpline
70
4
71
3
72
22
73
18
40
0
40
0
40
0
40
0
40
0.125
40
0.125
40
0.25
40
0.25
40
0.375
40
0.375
40
0.5
40
0.5
40
0.625
40
0.625
40
0.75
40
0.75
40
0.875
40
0.875
40
1
40
1
40
1
40
1
41
1
10
51.7
20
10.5398945799042
30
0
41
1
10
51.7603380300361
20
10.8319104511019
30
0
41
1
10
51.8206760600722
20
11.1075427602931
30
0
41
1
10
51.9413521201444
20
11.6228762453856
30
0
41
1
10
52.0016901501806
20
11.8625747872706
30
0
41
1
10
52.1223662102528
20
12.3039157265535
30
0
41
1
10
52.1827042402889
20
12.5055579628365
30
0
41
1
10
52.3033803003611
20
12.869752342153
30
0
41
1
10
52.3637183303972
20
13.0323066132175
30
0
41
1
10
52.4843943904694
20
13.3183516868477
30
0
41
1
10
52.5447324205055
20
13.4418464797998
30
0
41
1
10
52.6654084805777
20
13.6507661608085
30
0
41
1
10
52.7257465106139
20
13.7361963252314
30
0
41
1
10
52.8464225706861
20
13.870805905484
30
0
41
1
10
52.9067606007222
20
13.9199912618044
30
0
41
1
10
53.0274366607944
20
13.9845852946842
30
0
41
1
10
53.0877746908305
20
14
30
0
41
1
10
53.1481127208666
20
14
30
0
0
SPLINE
5
F8
100
AcDbEntity
8
1
62
256
6
ByLayer
370
13
48
1
60
0
100
AcDbSpline
70
4
71
3
72
142
73
138
40
0
40
0
40
0
40
0
40
0.0156250000000001
40
0.0156250000000001
40
0.0312500000000001
40
0.0312500000000001
40
0.0468750000000002
40
0.0468750000000002
40
0.0625000000000003
40
0.0625000000000003
40
0.0781250000000003
40
0.0781250000000003
40
0.0937500000000004
40
0.0937500000000004
40
0.109375000000001
40
0.109375000000001
40
0.125000000000001
40
0.125000000000001
40
0.140625000000001
40
0.140625000000001
40
0.156250000000001
40
0.156250000000001
40
0.171875000000001
40
0.171875000000001
40
0.187500000000001
40
0.187500000000001
40
0.203125000000001
40
0.203125000000001
40
0.218750000000001
40
0.218750000000001
40
0.234375000000001
40
0.234375000000001
40
0.250000000000001
40
0.250000000000001
40
0.265625000000001
40
0.265625000000001
40
0.281250000000001
40
0.281250000000001
40
0.296875000000001
40
0.296875000000001
40
0.312500000000002
40
0.312500000000002
40
0.328125000000002
40
0.328125000000002
40
0.343750000000002
40
0.343750000000002
40
0.359375000000002
40
0.359375000000002
40
0.375000000000002
40
0.375000000000002
40
0.390625000000002
40
0.390625000000002
40
0.406250000000002
40
0.406250000000002
40
0.421875000000002
40
0.421875000000002
40
0.437500000000003
40
0.437500000000003
40
0.453125000000003
40
0.453125000000003
40
0.457031250000003
40
0.457031250000003
40
0.460937500000003
40
0.460937500000003
40
0.468750000000003
40
0.468750000000003
40
0.484375000000003
40
0.484375000000003
40
0.500000000000002
40
0.500000000000002
40
0.515625000000002
40
0.515625000000002
40
0.531250000000002
40
0.531250000000002
40
0.546875000000002
40
0.546875000000002
40
0.562500000000002
40
0.562500000000002
40
0.578125000000002
40
0.578125000000002
40
0.593750000000002
40
0.593750000000002
40
0.609375000000001
40
0.609375000000001
40
0.625000000000001
40
0.625000000000001
40
0.640625000000001
40
0.640625000000001
40
0.656250000000001
40
0.656250000000001
40
0.671875
40
0.671875
40
0.6875
40
0.6875
40
0.703125
40
0.703125
40
0.71875
40
0.71875
40
0.726562499999999
40
0.726562499999999
40
0.730468749999999
40
0.730468749999999
40
0.734374999999999
40
0.734374999999999
40
0.749999999999999
40
0.749999999999999
40
0.765624999999999
40
0.765624999999999
40
0.781249999999999
40
0.781249999999999
40
0.796874999999999
40
0.796874999999999
40
0.812499999999999
40
0.812499999999999
40
0.828124999999999
40
0.828124999999999
40
0.843749999999999
40
0.843749999999999
40
0.859374999999999
40
0.859374999999999
40
0.874999999999999
40
0.874999999999999
40
0.890625
40
0.890625
40
0.90625
40
0.90625
40
0.921875
40
0.921875
40
0.9375
40
0.9375
40
0.953125
40
0.953125
40
0.96875
40
0.96875
40
0.984375
40
0.984375
40
1
40
1
40
1
40
1
41
1
10
51.7
20
12.4838211346969
30
0
41
1
10
51.7605953328356
20
12.2869144789487
30
0
41
1
10
51.8211906656713
20
12.0704195759071
30
0
41
1
10
51.9423813313425
20
11.599697979188
30
0
41
1
10
52.0029766641781
20
11.3454723622416
30
0
41
1
10
52.1241673298493
20
10.8018341608186
30
0
41
1
10
52.184762662685
20
10.5124251831394
30
0
41
1
10
52.3059533283562
20
9.90199770899184
30
0
41
1
10
52.3665486611919
20
9.58098511160068
30
0
41
1
10
52.4877393268631
20
8.91181664406383
30
0
41
1
10
52.5483346596988
20
8.56366843015033
30
0
41
1
10
52.6695253253699
20
7.84537809423657
30
0
41
1
10
52.7301206582056
20
7.47524463497675
30
0
41
1
10
52.8513113238769
20
6.71856842043817
30
0
41
1
10
52.9119066567125
20
6.33203449180755
30
0
41
1
10
53.0330973223837
20
5.54831154135363
30
0
41
1
10
53.0936926552193
20
5.15113071052551
30
0
41
1
10
53.2148833208906
20
4.35177946090656
30
0
41
1
10
53.2754786537262
20
3.94961595568407
30
0
41
1
10
53.3966693193975
20
3.1456472798568
30
0
41
1
10
53.4572646522331
20
2.74384733295761
30
0
41
1
10
53.5784553179043
20
1.94545267662699
30
0
41
1
10
53.6390506507399
20
1.54886133784703
30
0
41
1
10
53.7602413164112
20
0.765100455956031
30
0
41
1
10
53.8208366492468
20
0.377994635661651
30
0
41
1
10
53.9420273149181
20
-0.383531834701614
30
0
41
1
10
54.0026226477536
20
-0.770754535193134
30
0
41
1
10
54.1238133134249
20
-1.55460612406875
30
0
41
1
10
54.1844086462605
20
-1.95123342638593
30
0
41
1
10
54.3055993119318
20
-2.74967797032159
30
0
41
1
10
54.3661946447674
20
-3.15149183228959
30
0
41
1
10
54.4873853104386
20
-3.95546351225482
30
0
41
1
10
54.5479806432742
20
-4.35761609776361
30
0
41
1
10
54.6691713089455
20
-5.15691865573112
30
0
41
1
10
54.7297666417811
20
-5.55406170723248
30
0
41
1
10
54.8509573074523
20
-6.33768122819831
30
0
41
1
10
54.9115526402879
20
-6.72414950187363
30
0
41
1
10
55.0327433059593
20
-7.48066671201158
30
0
41
1
10
55.0933386387948
20
-7.8507068206055
30
0
41
1
10
55.2145293044661
20
-8.56878422568911
30
0
41
1
10
55.2751246373018
20
-8.9168128623042
30
0
41
1
10
55.3963153029731
20
-9.58571867615299
30
0
41
1
10
55.4569106358086
20
-9.90658820399088
30
0
41
1
10
55.5781013014798
20
-10.516709889125
30
0
41
1
10
55.6386966343154
20
-10.8059561573816
30
0
41
1
10
55.7598872999867
20
-11.3492540013086
30
0
41
1
10
55.8204826328223
20
-11.6033019821325
30
0
41
1
10
55.9416732984935
20
-12.0736586060427
30
0
41
1
10
56.0022686313292
20
-12.2899661847162
30
0
41
1
10
56.1234592970004
20
-12.6834005416647
30
0
41
1
10
56.1840546298361
20
-12.8605287035627
30
0
41
1
10
56.3052452955073
20
-13.1752605422363
30
0
41
1
10
56.3658406283429
20
-13.3128676901998
30
0
41
1
10
56.4870312940141
20
-13.5492371343558
30
0
41
1
10
56.5476266268498
20
-13.6480044373823
30
0
41
1
10
56.6688172925211
20
-13.8082676839452
30
0
41
1
10
56.7294126253566
20
-13.8697695338789
30
0
41
1
10
56.8506032910279
20
-13.9578030118759
30
0
41
1
10
56.9111986238636
20
-13.984340827495
30
0
41
1
10
56.9869427899081
20
-13.9974348419025
30
0
41
1
10
57.002091623117
20
-13.9990508020389
30
0
41
1
10
57.0323892895348
20
-14.0003252070321
30
0
41
1
10
57.0475381227437
20
-13.9999909434367
30
0
41
1
10
57.0929846223704
20
-13.9960372657177
30
0
41
1
10
57.1232822887882
20
-13.9894520601451
30
0
41
1
10
57.2141752880416
20
-13.9572844247653
30
0
41
1
10
57.2747706208773
20
-13.9192733801354
30
0
41
1
10
57.3959612865485
20
-13.8074488810022
30
0
41
1
10
57.4565566193841
20
-13.7336292691604
30
0
41
1
10
57.5777472850554
20
-13.5481104033114
30
0
41
1
10
57.6383426178909
20
-13.4364054738523
30
0
41
1
10
57.7595332835622
20
-13.1738239595507
30
0
41
1
10
57.8201286163979
20
-13.022942815629
30
0
41
1
10
57.9413192820691
20
-12.6816581108676
30
0
41
1
10
58.0019146149047
20
-12.4912517272069
30
0
41
1
10
58.123105280576
20
-12.071620119987
30
0
41
1
10
58.1837006134116
20
-11.8423943088711
30
0
41
1
10
58.3048912790828
20
-11.346934695963
30
0
41
1
10
58.3654866119185
20
-11.0807028166088
30
0
41
1
10
58.4866772775898
20
-10.5141299758148
30
0
41
1
10
58.5472726104253
20
-10.2137934236077
30
0
41
1
10
58.6684632760966
20
-9.58290282775769
30
0
41
1
10
58.7290586089322
20
-9.25235533817877
30
0
41
1
10
58.8502492746034
20
-8.56576105439703
30
0
41
1
10
58.9108446074391
20
-8.20972234081651
30
0
41
1
10
59.0320352731103
20
-7.4774682277947
30
0
41
1
10
59.0926306059459
20
-7.10126163944312
30
0
41
1
10
59.2138212716172
20
-6.33434222957388
30
0
41
1
10
59.2744166044528
20
-5.94363810671965
30
0
41
1
10
59.3956072701241
20
-5.1534759945396
30
0
41
1
10
59.4562026029597
20
-4.7540258332929
30
0
41
1
10
59.5773932686309
20
-3.95195519672256
30
0
41
1
10
59.6379886014665
20
-3.5493411077818
30
0
41
1
10
59.7591792671378
20
-2.74614211621136
30
0
41
1
10
59.8197745999735
20
-2.34556182879476
30
0
41
1
10
59.9409652656447
20
-1.5510798140229
30
0
41
1
10
60.0015605984802
20
-1.15718084635628
30
0
41
1
10
60.0924535977337
20
-0.574332698472915
30
0
41
1
10
60.1227512641515
20
-0.381377958233514
30
0
41
1
10
60.1681977637782
20
-0.0942613136626562
30
0
41
1
10
60.1833465969871
20
0.0007906789078049
30
0
41
1
10
60.2136442634049
20
0.1916923952258
30
0
41
1
10
60.2287930966139
20
0.287537085208754
30
0
41
1
10
60.3045372626584
20
0.768600747802367
30
0
41
1
10
60.3651325954939
20
1.15936820307633
30
0
41
1
10
60.4863232611652
20
1.94898615169703
30
0
41
1
10
60.5469185940009
20
2.34783448226932
30
0
41
1
10
60.6681092596721
20
3.14917818384796
30
0
41
1
10
60.7287045925077
20
3.55166955708748
30
0
41
1
10
60.8498952581789
20
4.35527024011373
30
0
41
1
10
60.9104905910145
20
4.75637372697423
30
0
41
1
10
61.0316812566858
20
5.55172399204497
30
0
41
1
10
61.0922765895214
20
5.94596336838404
30
0
41
1
10
61.2134672551926
20
6.72186480842325
30
0
41
1
10
61.2740625880284
20
7.10351838572478
30
0
41
1
10
61.3952532536995
20
7.84852215763397
30
0
41
1
10
61.4558485865352
20
8.21186348665822
30
0
41
1
10
61.5770392522065
20
8.91477443514933
30
0
41
1
10
61.637634585042
20
9.25433563830779
30
0
41
1
10
61.7588252507132
20
9.90473828194487
30
0
41
1
10
61.8194205835489
20
10.2155725822356
30
0
41
1
10
61.9406112492202
20
10.8043301518409
30
0
41
1
10
62.0012065820558
20
11.0822482474706
30
0
41
1
10
62.122397247727
20
11.6019261376662
30
0
41
1
10
62.1829925805626
20
11.8436831664583
30
0
41
1
10
62.3041832462339
20
12.2888561880648
30
0
41
1
10
62.3647785790695
20
12.4922719527052
30
0
41
1
10
62.4859692447408
20
12.8596893530335
30
0
41
1
10
62.5465645775764
20
13.0236931162941
30
0
41
1
10
62.6677552432476
20
13.3122935834389
30
0
41
1
10
62.7283505760832
20
13.43689433548
30
0
41
1
10
62.8495412417544
20
13.6476814767499
30
0
41
1
10
62.9101365745901
20
13.7338732427635
30
0
41
1
10
63.0313272402614
20
13.8696769507873
30
0
41
1
10
63.091922573097
20
13.9192949576162
30
0
41
1
10
63.2131132387682
20
13.9844534027586
30
0
41
1
10
63.2737085716039
20
14
30
0
41
1
10
63.3343039044395
20
14
30
0
0
SPLINE
5
F9
100
AcDbEntity
8
1
62
256
6
ByLayer
370
13
48
1
60
0
100
AcDbSpline
70
4
71
3
72
42
73
38
40
0
40
0
40
0
40
0
40
0.0625
40
0.0625
40
0.125
40
0.125
40
0.1875
40
0.1875
40
0.25
40
0.25
40
0.3125
40
0.3125
40
0.375
40
0.375
40
0.4375
40
0.4375
40
0.5
40
0.5
40
0.5625
40
0.5625
40
0.625
40
0.625
40
0.6875
40
0.6875
40
0.75
40
0.75
40
0.8125
40
0.8125
40
0.875
40
0.875
40
0.90625
40
0.90625
40
0.921875
40
0.921875
40
0.9375
40
0.9375
40
1
40
1
40
1
40
1
41
1
10
60.9160783677392
20
14
30
0
41
1
10
60.9866687500836
20
14
30
0
41
1
10
61.0572591324281
20
13.9788932406641
30
0
41
1
10
61.198439897117
20
13.8898219251352
30
0
41
1
10
61.2690302794614
20
13.8218441278455
30
0
41
1
10
61.4102110441504
20
13.6353038239279
30
0
41
1
10
61.4808014264948
20
13.5167286655549
30
0
41
1
10
61.6219821911837
20
13.2266033605848
30
0
41
1
10
61.6925725735282
20
13.0550429412794
30
0
41
1
10
61.8337533382172
20
12.6582445286365
30
0
41
1
10
61.9043437205616
20
12.4330004607943
30
0
41
1
10
62.0455244852505
20
11.9300720055506
30
0
41
1
10
62.1161148675949
20
11.6523871847371
30
0
41
1
10
62.2572956322839
20
11.0478569849216
30
0
41
1
10
62.3278860146283
20
10.7210174793907
30
0
41
1
10
62.4690667793173
20
10.0234202485078
30
0
41
1
10
62.5396571616617
20
9.65267433540785
30
0
41
1
10
62.6808379263506
20
8.87420142216612
30
0
41
1
10
62.7514283086951
20
8.46649076936686
30
0
41
1
10
62.892609073384
20
7.62229151978099
30
0
41
1
10
62.9631994557284
20
7.18582164475001
30
0
41
1
10
63.1043802204174
20
6.2930381169121
30
0
41
1
10
63.1749706027619
20
5.83674311966632
30
0
41
1
10
63.3161513674508
20
4.91340434373259
30
0
41
1
10
63.3867417497952
20
4.44637695335939
30
0
41
1
10
63.5279225144842
20
3.51029542112931
30
0
41
1
10
63.5985128968286
20
3.04125384039799
30
0
41
1
10
63.7396936615175
20
2.1090533944064
30
0
41
1
10
63.8102840438619
20
1.64590252955267
30
0
41
1
10
63.9161696173787
20
0.960678074840814
30
0
41
1
10
63.9514648085509
20
0.73384406931379
30
0
41
1
10
64.0044075953093
20
0.396499568836333
30
0
41
1
10
64.0220551908954
20
0.284535178382129
30
0
41
1
10
64.0573503820677
20
0.0616570634456366
30
0
41
1
10
64.0749979776537
20
-0.0489643584877513
30
0
41
1
10
64.1632359555843
20
-0.605959323085443
30
0
41
1
10
64.2338263379287
20
-1.0600366854147
30
0
41
1
10
64.3044167202732
20
-1.51969416663314
30
0
0
SPLINE
5
FA
100
AcDbEntity
8
1
62
256
6
ByLayer
370
13
48
1
60
0
100
AcDbSpline
70
4
71
3
72
14
73
10
40
0
40
0
40
0
40
0
40
0.25
40
0.25
40
0.5
40
0.5
40
0.75
40
0.75
40
1
40
1
40
1
40
1
41
1
10
51.7
20
12.5066641395022
30
0
41
1
10
51.7802546664867
20
12.7654441442902
30
0
41
1
10
51.8605093329732
20
12.9897790415314
30
0
41
1
10
52.0210186659465
20
13.3692324772062
30
0
41
1
10
52.101273332433
20
13.5243676024093
30
0
41
1
10
52.2617826654063
20
13.7681319263548
30
0
41
1
10
52.3420373318929
20
13.8567842226113
30
0
41
1
10
52.5025466648661
20
13.9727056900009
30
0
41
1
10
52.5828013313527
20
14
30
0
41
1
10
52.6630559978393
20
14
30
0
0
SPLINE
5
FB
100
AcDbEntity
8
1
62
256
6
ByLayer
370
13
48
1
60
0
100
AcDbSpline
70
4
71
3
72
138
73
134
40
0
40
0
40
0
40
0
40
0.0156249999999999
40
0.0156249999999999
40
0.0312499999999998
40
0.0312499999999998
40
0.0468749999999998
40
0.0468749999999998
40
0.0624999999999997
40
0.0624999999999997
40
0.0781249999999997
40
0.0781249999999997
40
0.0937499999999996
40
0.0937499999999996
40
0.109375
40
0.109375
40
0.125
40
0.125
40
0.140625
40
0.140625
40
0.148437499999999
40
0.148437499999999
40
0.152343749999999
40
0.152343749999999
40
0.156249999999999
40
0.156249999999999
40
0.187499999999999
40
0.187499999999999
40
0.203124999999999
40
0.203124999999999
40
0.218749999999999
40
0.218749999999999
40
0.234374999999999
40
0.234374999999999
40
0.249999999999999
40
0.249999999999999
40
0.265624999999999
40
0.265624999999999
40
0.281249999999999
40
0.281249999999999
40
0.296874999999999
40
0.296874999999999
40
0.312499999999999
40
0.312499999999999
40
0.328124999999999
40
0.328124999999999
40
0.343749999999999
40
0.343749999999999
40
0.359374999999999
40
0.359374999999999
40
0.374999999999999
40
0.374999999999999
40
0.390624999999999
40
0.390624999999999
40
0.406249999999999
40
0.406249999999999
40
0.421874999999999
40
0.421874999999999
40
0.429687499999999
40
0.429687499999999
40
0.433593749999999
40
0.433593749999999
40
0.437499999999999
40
0.437499999999999
40
0.468749999999999
40
0.468749999999999
40
0.484374999999999
40
0.484374999999999
40
0.499999999999999
40
0.499999999999999
40
0.515624999999999
40
0.515624999999999
40
0.531249999999999
40
0.531249999999999
40
0.546874999999999
40
0.546874999999999
40
0.562499999999999
40
0.562499999999999
40
0.578124999999999
40
0.578124999999999
40
0.593749999999999
40
0.593749999999999
40
0.609374999999999
40
0.609374999999999
40
0.624999999999999
40
0.624999999999999
40
0.640624999999999
40
0.640624999999999
40
0.656249999999999
40
0.656249999999999
40
0.671874999999999
40
0.671874999999999
40
0.6875
40
0.6875
40
0.703125
40
0.703125
40
0.7109375
40
0.7109375
40
0.71484375
40
0.71484375
40
0.718749999999999
40
0.718749999999999
40
0.75
40
0.75
40
0.765625
40
0.765625
40
0.78125
40
0.78125
40
0.796875
40
0.796875
40
0.8125
40
0.8125
40
0.828125
40
0.828125
40
0.84375
40
0.84375
40
0.859375
40
0.859375
40
0.875
40
0.875
40
0.890625
40
0.890625
40
0.90625
40
0.90625
40
0.921875
40
0.921875
40
0.9375
40
0.9375
40
0.953125
40
0.953125
40
0.96875
40
0.96875
40
1
40
1
40
1
40
1
41
1
10
51.7
20
10.505667538218
30
0
41
1
10
51.7580689957366
20
10.2234094134317
30
0
41
1
10
51.8161379914731
20
9.92605026326493
30
0
41
1
10
51.9322759829461
20
9.30479418775479
30
0
41
1
10
51.9903449786826
20
8.98090298572703
30
0
41
1
10
52.1064829701556
20
8.31090147555932
30
0
41
1
10
52.1645519658922
20
7.96479791462076
30
0
41
1
10
52.2806899573652
20
7.25514718255241
30
0
41
1
10
52.3387589531018
20
6.89160717210828
30
0
41
1
10
52.4548969445748
20
6.1521048034638
30
0
41
1
10
52.5129659403113
20
5.77614939837829
30
0
41
1
10
52.6291039317844
20
5.01686916795197
30
0
41
1
10
52.6871729275209
20
4.63355054374375
30
0
41
1
10
52.803310918994
20
3.86442913379722
30
0
41
1
10
52.8613799147304
20
3.47863139446648
30
0
41
1
10
52.9775179062035
20
2.70909921152614
30
0
41
1
10
53.0355869019401
20
2.32536843120039
30
0
41
1
10
53.1517248934131
20
1.56404845265931
30
0
41
1
10
53.2097938891496
20
1.18646147998513
30
0
41
1
10
53.2968973827544
20
0.627327750170906
30
0
41
1
10
53.3259318806227
20
0.442153074197847
30
0
41
1
10
53.369483627425
20
0.166483539884553
30
0
41
1
10
53.3840008763591
20
0.0750219632168694
30
0
41
1
10
53.4130353742274
20
-0.107494798760058
30
0
41
1
10
53.4275526231615
20
-0.199121239754334
30
0
41
1
10
53.5582078635687
20
-1.02687085771362
30
0
41
1
10
53.6743458550418
20
-1.78516226727871
30
0
41
1
10
53.8485528422513
20
-2.93519003631096
30
0
41
1
10
53.9066218379878
20
-3.3205557912508
30
0
41
1
10
54.0227598294609
20
-4.09100189350428
30
0
41
1
10
54.0808288251974
20
-4.47607782747423
30
0
41
1
10
54.1969668166704
20
-5.24120149302425
30
0
41
1
10
54.255035812407
20
-5.62124352670068
30
0
41
1
10
54.37117380388
20
-6.37130391723909
30
0
41
1
10
54.4292427996166
20
-6.74131561433862
30
0
41
1
10
54.5453807910895
20
-7.46625397809993
30
0
41
1
10
54.6034497868261
20
-7.82117350717289
30
0
41
1
10
54.7195877782992
20
-8.51100929476621
30
0
41
1
10
54.7776567740357
20
-8.84591853273301
30
0
41
1
10
54.8937947655087
20
-9.49117338374734
30
0
41
1
10
54.9518637612452
20
-9.80151272033123
30
0
41
1
10
55.0680017527183
20
-10.3936271943617
30
0
41
1
10
55.1260707484548
20
-10.6753973664159
30
0
41
1
10
55.2422087399279
20
-11.2071034593346
30
0
41
1
10
55.3002777356643
20
-11.4570361467789
30
0
41
1
10
55.4164157271375
20
-11.9226521926703
30
0
41
1
10
55.4744847228739
20
-12.1383342642038
30
0
41
1
10
55.590622714347
20
-12.533957402822
30
0
41
1
10
55.6486917100835
20
-12.7138991160557
30
0
41
1
10
55.7648297015566
20
-13.0374826087456
30
0
41
1
10
55.8228986972931
20
-13.1811267456395
30
0
41
1
10
55.9390366887661
20
-13.4324428039581
30
0
41
1
10
55.9971056845026
20
-13.5401184169928
30
0
41
1
10
56.1132436759758
20
-13.7206194681336
30
0
41
1
10
56.1713126717122
20
-13.7934494708581
30
0
41
1
10
56.2874506631852
20
-13.9060499733189
30
0
41
1
10
56.3455196589217
20
-13.945825438156
30
0
41
1
10
56.4326231525265
20
-13.9824299056409
30
0
41
1
10
56.4616576503948
20
-13.9907918907815
30
0
41
1
10
56.5052093971972
20
-13.9978195012861
30
0
41
1
10
56.5197266461314
20
-13.9992429779989
30
0
41
1
10
56.5487611439996
20
-14.000294280873
30
0
41
1
10
56.5632783929337
20
-13.999928454969
30
0
41
1
10
56.6939336333409
20
-13.9884999552421
30
0
41
1
10
56.8100716248139
20
-13.9200543295905
30
0
41
1
10
56.9842786120234
20
-13.7158099271567
30
0
41
1
10
57.04234760776
20
-13.6308487927811
30
0
41
1
10
57.158485599233
20
-13.4256053831222
30
0
41
1
10
57.2165545949696
20
-13.3053187966529
30
0
41
1
10
57.3326925864426
20
-13.0285679061628
30
0
41
1
10
57.3907615821792
20
-12.8721003316972
30
0
41
1
10
57.5068995736522
20
-12.5229614571074
30
0
41
1
10
57.5649685693887
20
-12.3302883673389
30
0
41
1
10
57.6811065608617
20
-11.9096205730265
30
0
41
1
10
57.7391755565982
20
-11.6816258894668
30
0
41
1
10
57.8553135480713
20
-11.1921328133025
30
0
41
1
10
57.9133825438078
20
-10.930636405125
30
0
41
1
10
58.0295205352809
20
-10.3768638970227
30
0
41
1
10
58.0875895310174
20
-10.0845916781015
30
0
41
1
10
58.2037275224905
20
-9.47280921052052
30
0
41
1
10
58.261796518227
20
-9.15330444740914
30
0
41
1
10
58.3779345097
20
-8.49127435013168
30
0
41
1
10
58.4360035054365
20
-8.148755625002
30
0
41
1
10
58.5521414969095
20
-7.44540740631388
30
0
41
1
10
58.6102104926461
20
-7.08458504649511
30
0
41
1
10
58.7263484841191
20
-6.34962315086958
30
0
41
1
10
58.7844174798557
20
-5.97549064759275
30
0
41
1
10
58.9005554713287
20
-5.21897092463584
30
0
41
1
10
58.9586244670652
20
-4.83659007278885
30
0
41
1
10
59.0747624585383
20
-4.06850186784271
30
0
41
1
10
59.1328314542748
20
-3.68279978676475
30
0
41
1
10
59.2489694457479
20
-2.91268695986301
30
0
41
1
10
59.3070384414844
20
-2.52828013021468
30
0
41
1
10
59.4231764329574
20
-1.76492659323034
30
0
41
1
10
59.481245428694
20
-1.38598236226363
30
0
41
1
10
59.5683489222988
20
-0.824378867146777
30
0
41
1
10
59.597383420167
20
-0.638308696516077
30
0
41
1
10
59.6409351669694
20
-0.361197607065321
30
0
41
1
10
59.6554524159035
20
-0.269159309781571
30
0
41
1
10
59.6844869137717
20
-0.0857928941256887
30
0
41
1
10
59.6990041627059
20
0.0052899515863203
30
0
41
1
10
59.8296594031131
20
0.828544248658602
30
0
41
1
10
59.9457973945861
20
1.58386084809732
30
0
41
1
10
60.1200043817957
20
2.73157671590951
30
0
41
1
10
60.1780733775322
20
3.11652945286761
30
0
41
1
10
60.2942113690051
20
3.8869485282867
30
0
41
1
10
60.3522803647418
20
4.27241070023601
30
0
41
1
10
60.4684183562148
20
5.03916741125187
30
0
41
1
10
60.5264873519513
20
5.42045646079964
30
0
41
1
10
60.6426253434243
20
6.17390333528874
30
0
41
1
10
60.7006943391609
20
6.54605463923295
30
0
41
1
10
60.8168323306339
20
7.27616154719314
30
0
41
1
10
60.8749013263704
20
7.63411005700863
30
0
41
1
10
60.9910393178436
20
8.33085218593334
30
0
41
1
10
61.04910831358
20
8.66963871799115
30
0
41
1
10
61.165246305053
20
9.32341806086961
30
0
41
1
10
61.2233153007896
20
9.63840441971874
30
0
41
1
10
61.3394532922626
20
10.2404704899502
30
0
41
1
10
61.3975222879992
20
10.5275449687313
30
0
41
1
10
61.5136602794722
20
11.0703777225732
30
0
41
1
10
61.5717292752087
20
11.3261324364301
30
0
41
1
10
61.6878672666817
20
11.8037529836727
30
0
41
1
10
61.7459362624183
20
12.025617180992
30
0
41
1
10
61.8620742538913
20
12.4337996375285
30
0
41
1
10
61.9201432496279
20
12.6201182123222
30
0
41
1
10
62.0362812411009
20
12.9564876781169
30
0
41
1
10
62.0943502368374
20
13.1065406482754
30
0
41
1
10
62.2104882283105
20
13.3705556283001
30
0
41
1
10
62.268557224047
20
13.48452112633
30
0
41
1
10
62.38469521552
20
13.6773513313111
30
0
41
1
10
62.4427642112565
20
13.7562204836546
30
0
41
1
10
62.6169711984661
20
13.9427009367547
30
0
41
1
10
62.7331091899391
20
14
30
0
41
1
10
62.8492471814122
20
14
30
0
0
SPLINE
5
FC
100
AcDbEntity
8
1
62
256
6
ByLayer
370
13
48
1
60
0
100
AcDbSpline
70
4
71
3
72
42
73
38
40
0
40
0
40
0
40
0
40
0.0625
40
0.0625
40
0.125
40
0.125
40
0.1875
40
0.1875
40
0.25
40
0.25
40
0.3125
40
0.3125
40
0.375
40
0.375
40
0.4375
40
0.4375
40
0.5
40
0.5
40
0.5625
40
0.5625
40
0.625
40
0.625
40
0.6875
40
0.6875
40
0.75
40
0.75
40
0.8125
40
0.8125
40
0.828125
40
0.828125
40
0.84375
40
0.84375
40
0.875
40
0.875
40
0.9375
40
0.9375
40
1
40
1
40
1
40
1
41
1
10
60.4310216447118
20
14
30
0
41
1
10
60.5117173754527
20
14
30
0
41
1
10
60.5924131061937
20
13.9724042222184
30
0
41
1
10
60.7538045676753
20
13.8551688957802
30
0
41
1
10
60.8345002984161
20
13.7655035119005
30
0
41
1
10
60.9958917598979
20
13.5189338956092
30
0
41
1
10
61.0765874906388
20
13.362005974419
30
0
41
1
10
61.2379789521204
20
12.9781806797537
30
0
41
1
10
61.3186746828613
20
12.7512664099435
30
0
41
1
10
61.4800661443431
20
12.2278294819062
30
0
41
1
10
61.5607618750839
20
11.9313010382745
30
0
41
1
10
61.7221533365657
20
11.2724445359383
30
0
41
1
10
61.8028490673065
20
10.9101244227452
30
0
41
1
10
61.9642405287883
20
10.1269165447905
30
0
41
1
10
62.0449362595291
20
9.70605029053831
30
0
41
1
10
62.2063277210108
20
8.81595975865181
30
0
41
1
10
62.2870234517517
20
8.34676734593072
30
0
41
1
10
62.4484149132334
20
7.37239590993355
30
0
41
1
10
62.5291106439743
20
6.86725364115901
30
0
41
1
10
62.690502105456
20
5.83446362135703
30
0
41
1
10
62.7711978361968
20
5.30685135137185
30
0
41
1
10
62.9325892976785
20
4.24260482063661
30
0
41
1
10
63.0132850284194
20
3.70599957635295
30
0
41
1
10
63.1746764899012
20
2.63626686484903
30
0
41
1
10
63.2553722206421
20
2.10315886566306
30
0
41
1
10
63.4167636821238
20
1.05119966673522
30
0
41
1
10
63.4974594128646
20
0.53235769783214
30
0
41
1
10
63.5983290762906
20
-0.101892249235533
30
0
41
1
10
63.6185030089759
20
-0.229103636299783
30
0
41
1
10
63.6588508743463
20
-0.485178228573517
30
0
41
1
10
63.6790248070316
20
-0.613872718786894
30
0
41
1
10
63.7395466050872
20
-1.00173429405694
30
0
41
1
10
63.7798944704577
20
-1.26268380200551
30
0
41
1
10
63.9009380665689
20
-2.05095210925964
30
0
41
1
10
63.9816337973098
20
-2.583752029762
30
0
41
1
10
64.1430252587915
20
-3.65325199622092
30
0
41
1
10
64.2237209895324
20
-4.18993291149729
30
0
41
1
10
64.3044167202732
20
-4.72234679087433
30
0
0
SPLINE
5
FD
100
AcDbEntity
8
1
62
256
6
ByLayer
370
13
48
1
60
0
100
AcDbSpline
70
4
71
3
72
10
73
6
40
0
40
0
40
0
40
0
40
0.5
40
0.5
40
1
40
1
40
1
40
1
41
1
10
51.7
20
13.6515874602375
30
0
41
1
10
51.779666545802
20
13.7716125215168
30
0
41
1
10
51.8593330916041
20
13.8589234550229
30
0
41
1
10
52.0186661832081
20
13.97310507749
30
0
41
1
10
52.0983327290101
20
14
30
0
41
1
10
52.1779992748121
20
14
30
0
0
SPLINE
5
FE
100
AcDbEntity
8
1
62
256
6
ByLayer
370
13
48
1
60
0
100
AcDbSpline
70
4
71
3
72
100
73
96
40
0
40
0
40
0
40
0
40
0.0312499999999989
40
0.0312499999999989
40
0.0624999999999977
40
0.0624999999999977
40
0.0937499999999966
40
0.0937499999999966
40
0.109374999999996
40
0.109374999999996
40
0.113281249999996
40
0.113281249999996
40
0.117187499999996
40
0.117187499999996
40
0.124999999999996
40
0.124999999999996
40
0.156249999999996
40
0.156249999999996
40
0.187499999999995
40
0.187499999999995
40
0.218749999999995
40
0.218749999999995
40
0.234374999999995
40
0.234374999999995
40
0.249999999999995
40
0.249999999999995
40
0.265624999999995
40
0.265624999999995
40
0.281249999999995
40
0.281249999999995
40
0.296874999999995
40
0.296874999999995
40
0.312499999999995
40
0.312499999999995
40
0.343749999999995
40
0.343749999999995
40
0.374999999999995
40
0.374999999999995
40
0.406249999999995
40
0.406249999999995
40
0.410156249999995
40
0.410156249999995
40
0.414062499999995
40
0.421874999999995
40
0.421874999999995
40
0.437499999999995
40
0.437499999999995
40
0.468749999999996
40
0.468749999999996
40
0.499999999999996
40
0.499999999999996
40
0.531249999999997
40
0.531249999999997
40
0.546874999999997
40
0.546874999999997
40
0.562499999999997
40
0.562499999999997
40
0.578124999999997
40
0.578124999999997
40
0.593749999999997
40
0.593749999999997
40
0.624999999999998
40
0.624999999999998
40
0.656249999999998
40
0.656249999999998
40
0.687499999999999
40
0.687499999999999
40
0.703124999999999
40
0.703124999999999
40
0.707031249999999
40
0.707031249999999
40
0.710937499999999
40
0.718749999999999
40
0.718749999999999
40
0.749999999999999
40
0.749999999999999
40
0.781249999999999
40
0.781249999999999
40
0.812499999999999
40
0.812499999999999
40
0.828124999999999
40
0.828124999999999
40
0.843749999999999
40
0.843749999999999
40
0.859375
40
0.859375
40
0.875
40
0.875
40
0.90625
40
0.90625
40
0.9375
40
0.9375
40
0.96875
40
0.96875
40
1
40
1
40
1
40
1
41
1
10
51.7
20
7.83826619350242
30
0
41
1
10
51.8110853172748
20
7.16689129038443
30
0
41
1
10
51.9221706345497
20
6.46164934607398
30
0
41
1
10
52.1443412690994
20
5.01857281409542
30
0
41
1
10
52.2554265863743
20
4.28090273590405
30
0
41
1
10
52.477597220924
20
2.80704511531985
30
0
41
1
10
52.5886825381988
20
2.07096524343754
30
0
41
1
10
52.755310514111
20
0.989280786257751
30
0
41
1
10
52.8108531727485
20
0.632404545096165
30
0
41
1
10
52.8802814960452
20
0.192675902662614
30
0
41
1
10
52.8941671607046
20
0.105047271452236
30
0
41
1
10
52.9219384900233
20
-0.0695367646822262
30
0
41
1
10
52.9358241546827
20
-0.156994008026402
30
0
41
1
10
52.9774811486607
20
-0.420572100423527
30
0
41
1
10
53.0052524779794
20
-0.597571036181705
30
0
41
1
10
53.1441091245729
20
-1.48813161028505
30
0
41
1
10
53.2551944418478
20
-2.21868825867102
30
0
41
1
10
53.4773650763975
20
-3.68973472785694
30
0
41
1
10
53.5884503936723
20
-4.4301352760352
30
0
41
1
10
53.810621028222
20
-5.88808969743354
30
0
41
1
10
53.9217063454969
20
-6.60549134680502
30
0
41
1
10
54.0883343214092
20
-7.63778484130813
30
0
41
1
10
54.1438769800465
20
-7.97457472127795
30
0
41
1
10
54.2549622973214
20
-8.6292828239454
30
0
41
1
10
54.3105049559588
20
-8.94719547404873
30
0
41
1
10
54.4215902732337
20
-9.56020473966439
30
0
41
1
10
54.4771329318711
20
-9.8552964041092
30
0
41
1
10
54.5882182491459
20
-10.4192017996637
30
0
41
1
10
54.6437609077834
20
-10.6880116101288
30
0
41
1
10
54.7548462250582
20
-11.19650847539
30
0
41
1
10
54.8103888836956
20
-11.4361929427335
30
0
41
1
10
54.9214742009705
20
-11.8843100563558
30
0
41
1
10
54.9770168596079
20
-12.0927416054792
30
0
41
1
10
55.1436448355202
20
-12.6691221568447
30
0
41
1
10
55.254730152795
20
-12.9877835003403
30
0
41
1
10
55.4769007873447
20
-13.4923179622647
30
0
41
1
10
55.5879861046196
20
-13.678279084998
30
0
41
1
10
55.8101567391693
20
-13.9267517827808
30
0
41
1
10
55.9212420564441
20
-13.9893875737397
30
0
41
1
10
56.0462130383783
20
-13.9999239948634
30
0
41
1
10
56.0600987030376
20
-14.0002679698274
30
0
41
1
10
56.0878700323563
20
-13.9993249071736
30
0
41
1
10
56.1295270263344
20
-13.9954474657217
30
0
41
1
10
56.1711840203125
20
-13.9840121266536
30
0
41
1
10
56.2544980082686
20
-13.9506357667832
30
0
41
1
10
56.310040666906
20
-13.9143654221168
30
0
41
1
10
56.4766686428182
20
-13.7604362622356
30
0
41
1
10
56.5877539600931
20
-13.5973751179267
30
0
41
1
10
56.8099245946428
20
-13.1396037454126
30
0
41
1
10
56.9210099119176
20
-12.8447958629857
30
0
41
1
10
57.1431805464672
20
-12.122844358483
30
0
41
1
10
57.2542658637421
20
-11.6956731642327
30
0
41
1
10
57.4208938396544
20
-10.9644224055249
30
0
41
1
10
57.4764364982919
20
-10.7056889210625
30
0
41
1
10
57.5875218155667
20
-10.1608477883062
30
0
41
1
10
57.6430644742041
20
-9.87474361389224
30
0
41
1
10
57.754149791479
20
-9.27841481828057
30
0
41
1
10
57.8096924501164
20
-8.96819482383646
30
0
41
1
10
57.9207777673912
20
-8.32742274717475
30
0
41
1
10
57.9763204260286
20
-7.99687606762015
30
0
41
1
10
58.1429484019408
20
-6.98099438097807
30
0
41
1
10
58.2540337192157
20
-6.27141387960182
30
0
41
1
10
58.4762043537655
20
-4.82282427658083
30
0
41
1
10
58.5872896710403
20
-4.08397589603106
30
0
41
1
10
58.8094603055899
20
-2.61056808565195
30
0
41
1
10
58.9205456228648
20
-1.87611025518476
30
0
41
1
10
59.087173598777
20
-0.798482896743536
30
0
41
1
10
59.1427162574145
20
-0.443228107099827
30
0
41
1
10
59.2121445807114
20
-0.0058063353926912
30
0
41
1
10
59.2260302453706
20
0.0813175073097625
30
0
41
1
10
59.2538015746894
20
0.256664478640914
30
0
41
1
10
59.2954585686674
20
0.520660909106056
30
0
41
1
10
59.3371155626455
20
0.787407891252855
30
0
41
1
10
59.475972209239
20
1.68181396404742
30
0
41
1
10
59.5870575265138
20
2.41442894500958
30
0
41
1
10
59.8092281610635
20
3.88689684908749
30
0
41
1
10
59.9203134783384
20
4.62665431247635
30
0
41
1
10
60.142484112888
20
6.08020221067522
30
0
41
1
10
60.2535694301629
20
6.79383602636233
30
0
41
1
10
60.4201974060751
20
7.81812920904099
30
0
41
1
10
60.4757400647126
20
8.15186456949516
30
0
41
1
10
60.5868253819874
20
8.79973321951888
30
0
41
1
10
60.6423680406249
20
9.11386101418836
30
0
41
1
10
60.7534533578997
20
9.7186448996122
30
0
41
1
10
60.8089960165372
20
10.0092961951476
30
0
41
1
10
60.9200813338119
20
10.5637660666788
30
0
41
1
10
60.9756239924494
20
10.827580940946
30
0
41
1
10
61.1422519683616
20
11.5746912485193
30
0
41
1
10
61.2533372856365
20
12.0132570533801
30
0
41
1
10
61.4755079201862
20
12.7585387851337
30
0
41
1
10
61.586593237461
20
13.0652744795812
30
0
41
1
10
61.8087638720107
20
13.5463867542911
30
0
41
1
10
61.9198491892856
20
13.7208563336947
30
0
41
1
10
62.1420198238353
20
13.9476002805135
30
0
41
1
10
62.25310514111
20
14
30
0
41
1
10
62.3641904583849
20
14
30
0
0
SPLINE
5
FF
100
AcDbEntity
8
1
62
256
6
ByLayer
370
13
48
1
60
0
100
AcDbSpline
70
4
71
3
72
43
73
39
40
0
40
0
40
0
40
0
40
0.0624999999999996
40
0.0624999999999996
40
0.124999999999999
40
0.124999999999999
40
0.187499999999999
40
0.187499999999999
40
0.249999999999998
40
0.249999999999998
40
0.312499999999998
40
0.312499999999998
40
0.374999999999998
40
0.374999999999998
40
0.437499999999997
40
0.437499999999997
40
0.499999999999997
40
0.499999999999997
40
0.562499999999996
40
0.562499999999996
40
0.624999999999996
40
0.624999999999996
40
0.687499999999995
40
0.687499999999995
40
0.718749999999995
40
0.718749999999995
40
0.726562499999995
40
0.726562499999995
40
0.734374999999995
40
0.749999999999996
40
0.749999999999996
40
0.812499999999997
40
0.812499999999997
40
0.874999999999998
40
0.874999999999998
40
0.937499999999999
40
0.937499999999999
40
1
40
1
40
1
40
1
41
1
10
59.9459649216846
20
14
30
0
41
1
10
60.0367660008218
20
14
30
0
41
1
10
60.1275670799591
20
13.9650398933194
30
0
41
1
10
60.3091692382336
20
13.8155645321483
30
0
41
1
10
60.3999703173709
20
13.7010028274455
30
0
41
1
10
60.5815724756454
20
13.3854904480072
30
0
41
1
10
60.6723735547827
20
13.1844994160762
30
0
41
1
10
60.8539757130573
20
12.6935228640476
30
0
41
1
10
60.9447767921945
20
12.4035136829928
30
0
41
1
10
61.126378950469
20
11.7371251112164
30
0
41
1
10
61.2171800296062
20
11.3607474140851
30
0
41
1
10
61.3987821878808
20
10.5298351054734
30
0
41
1
10
61.4895832670181
20
10.0753304939837
30
0
41
1
10
61.6711854252925
20
9.10149561335612
30
0
41
1
10
61.7619865044298
20
8.58221886557152
30
0
41
1
10
61.9435886627044
20
7.49600993167292
30
0
41
1
10
62.0343897418417
20
6.92914341865264
30
0
41
1
10
62.2159919001161
20
5.76692728369738
30
0
41
1
10
62.3067929792534
20
5.17164152999035
30
0
41
1
10
62.488395137528
20
3.97176393573261
30
0
41
1
10
62.5791962166652
20
3.36722240166213
30
0
41
1
10
62.7607983749398
20
2.16626068919661
30
0
41
1
10
62.851599454077
20
1.56987092508786
30
0
41
1
10
62.9878010727829
20
0.692213464900078
30
0
41
1
10
63.0332016123515
20
0.402456174398793
30
0
41
1
10
63.0899522868123
20
0.0446720590982466
30
0
41
1
10
63.1013024217045
20
-0.0265351729017027
30
0
41
1
10
63.1240026914888
20
-0.169574135361614
30
0
41
1
10
63.1580530961652
20
-0.38479524994932
30
0
41
1
10
63.1921035008418
20
-0.601908948375581
30
0
41
1
10
63.3056048497634
20
-1.32936948881184
30
0
41
1
10
63.3964059289006
20
-1.92346732544999
30
0
41
1
10
63.5780080871752
20
-3.12199294314402
30
0
41
1
10
63.6688091663124
20
-3.72639315435697
30
0
41
1
10
63.8504113245869
20
-4.92848214495561
30
0
41
1
10
63.9412124037242
20
-5.52612308283645
30
0
41
1
10
64.1228145619987
20
-6.69568996257465
30
0
41
1
10
64.213615641136
20
-7.26755328415138
30
0
41
1
10
64.3044167202732
20
-7.81691849158648
30
0
0
SPLINE
5
100
100
AcDbEntity
8
1
62
256
6
ByLayer
370
13
48
1
60
0
100
AcDbSpline
70
4
71
3
72
87
73
83
40
0
40
0
40
0
40
0
40
0.0312499999999997
40
0.0312499999999997
40
0.0624999999999995
40
0.0624999999999995
40
0.0703124999999995
40
0.0703124999999995
40
0.0742187499999995
40
0.0742187499999995
40
0.0781249999999995
40
0.0781249999999995
40
0.0937499999999992
40
0.0937499999999992
40
0.124999999999999
40
0.124999999999999
40
0.156249999999998
40
0.156249999999998
40
0.187499999999997
40
0.187499999999997
40
0.218749999999996
40
0.218749999999996
40
0.249999999999996
40
0.249999999999996
40
0.281249999999995
40
0.281249999999995
40
0.312499999999994
40
0.312499999999994
40
0.343749999999994
40
0.343749999999994
40
0.374999999999993
40
0.374999999999993
40
0.378906249999993
40
0.378906249999993
40
0.382812499999993
40
0.382812499999993
40
0.390624999999993
40
0.390624999999993
40
0.406249999999993
40
0.406249999999993
40
0.437499999999993
40
0.437499999999993
40
0.468749999999993
40
0.468749999999993
40
0.499999999999993
40
0.499999999999993
40
0.531249999999993
40
0.531249999999993
40
0.562499999999993
40
0.562499999999993
40
0.593749999999993
40
0.593749999999993
40
0.624999999999993
40
0.624999999999993
40
0.656249999999993
40
0.656249999999993
40
0.687499999999993
40
0.687499999999993
40
0.691406249999993
40
0.691406249999993
40
0.695312499999994
40
0.703124999999994
40
0.703124999999994
40
0.718749999999994
40
0.718749999999994
40
0.749999999999995
40
0.749999999999995
40
0.781249999999995
40
0.781249999999995
40
0.812499999999996
40
0.812499999999996
40
0.843749999999997
40
0.843749999999997
40
0.874999999999997
40
0.874999999999997
40
0.906249999999998
40
0.906249999999998
40
0.937499999999999
40
0.937499999999999
40
0.968749999999999
40
0.968749999999999
40
1
40
1
40
1
40
1
41
1
10
51.7
20
4.74563620595947
30
0
41
1
10
51.8060326430766
20
4.0462220542968
30
0
41
1
10
51.9120652861533
20
3.33935606818719
30
0
41
1
10
52.1241305723066
20
1.93834296723935
30
0
41
1
10
52.2301632153832
20
1.24425866482071
30
0
41
1
10
52.3627040192291
20
0.398473215924156
30
0
41
1
10
52.3892121799983
20
0.230391366858839
30
0
41
1
10
52.428974421152
20
-0.0199083129401458
30
0
41
1
10
52.4422285015365
20
-0.103147244830296
30
0
41
1
10
52.4687366623057
20
-0.27060290870898
30
0
41
1
10
52.4819907426902
20
-0.354626071620572
30
0
41
1
10
52.5482611446132
20
-0.776130976389368
30
0
41
1
10
52.6012774661514
20
-1.11779631381111
30
0
41
1
10
52.7603264307664
20
-2.15241954273634
30
0
41
1
10
52.8663590738431
20
-2.85518208684158
30
0
41
1
10
53.0784243599964
20
-4.26201486236471
30
0
41
1
10
53.184457003073
20
-4.96599938793509
30
0
41
1
10
53.3965222892263
20
-6.3458020542987
30
0
41
1
10
53.5025549323029
20
-7.02149098841673
30
0
41
1
10
53.7146202184562
20
-8.31381924120856
30
0
41
1
10
53.8206528615328
20
-8.93031474375778
30
0
41
1
10
54.0327181476861
20
-10.0761890317591
30
0
41
1
10
54.1387507907628
20
-10.605449740554
30
0
41
1
10
54.3508160769161
20
-11.5556912498663
30
0
41
1
10
54.4568487199927
20
-11.9766136009313
30
0
41
1
10
54.6689140061461
20
-12.6986825227807
30
0
41
1
10
54.7749466492226
20
-12.9998417985469
30
0
41
1
10
54.9870119353759
20
-13.4812611775555
30
0
41
1
10
55.0930445784526
20
-13.6615911828522
30
0
41
1
10
55.3051098646059
20
-13.9092871703971
30
0
41
1
10
55.4111425076825
20
-13.9767511637807
30
0
41
1
10
55.5304292311437
20
-13.997180879728
30
0
41
1
10
55.5436833115282
20
-13.9986834101605
30
0
41
1
10
55.5701914722974
20
-14.0001858129565
30
0
41
1
10
55.583445552682
20
-14.0001897850556
30
0
41
1
10
55.6232077938358
20
-13.9979604091651
30
0
41
1
10
55.649715954605
20
-13.9934687853026
30
0
41
1
10
55.7292404369124
20
-13.970596002515
30
0
41
1
10
55.7822567584507
20
-13.9428078788709
30
0
41
1
10
55.9413057230657
20
-13.8190488304559
30
0
41
1
10
56.0473383661424
20
-13.6824626803896
30
0
41
1
10
56.2594036522957
20
-13.2906008913798
30
0
41
1
10
56.3654362953723
20
-13.0352410619127
30
0
41
1
10
56.5775015815256
20
-12.4032127019395
30
0
41
1
10
56.6835342246022
20
-12.0265072027968
30
0
41
1
10
56.8955995107555
20
-11.1592145598117
30
0
41
1
10
57.0016321538321
20
-10.668659020048
30
0
41
1
10
57.2136974399854
20
-9.59128548684322
30
0
41
1
10
57.319730083062
20
-9.00456618902535
30
0
41
1
10
57.5317953692153
20
-7.76068984505073
30
0
41
1
10
57.6378280122919
20
-7.10367176223167
30
0
41
1
10
57.8498932984452
20
-5.74953843514589
30
0
41
1
10
57.9559259415219
20
-5.05256221187878
30
0
41
1
10
58.1679912276752
20
-3.64903991268128
30
0
41
1
10
58.2740238707518
20
-2.94259803219805
30
0
41
1
10
58.4860891569051
20
-1.54708827001076
30
0
41
1
10
58.5921217999818
20
-0.858073279713977
30
0
41
1
10
58.711408523443
20
-0.104494229670394
30
0
41
1
10
58.7246626038275
20
-0.0212504049747224
30
0
41
1
10
58.7511707645967
20
0.145609520352849
30
0
41
1
10
58.7909330057505
20
0.396810189441993
30
0
41
1
10
58.8306952469042
20
0.650592189689121
30
0
41
1
10
58.9102197292117
20
1.16115801765116
30
0
41
1
10
58.96323605075
20
1.5055503710382
30
0
41
1
10
59.122285015365
20
2.54678354216773
30
0
41
1
10
59.2283176584416
20
3.25184567155097
30
0
41
1
10
59.4403829445949
20
4.65801893732979
30
0
41
1
10
59.5464155876716
20
5.35903490433904
30
0
41
1
10
59.7584808738248
20
6.72708693696643
30
0
41
1
10
59.8645135169014
20
7.39398830619857
30
0
41
1
10
60.0765788030547
20
8.66312172593535
30
0
41
1
10
60.1826114461314
20
9.26521164110113
30
0
41
1
10
60.3946767322846
20
10.3776650399523
30
0
41
1
10
60.5007093753613
20
10.8879195752397
30
0
41
1
10
60.7127746615146
20
11.7972004905483
30
0
41
1
10
60.8188073045911
20
12.1961817290323
30
0
41
1
10
61.0308725907444
20
12.8733810452396
30
0
41
1
10
61.1369052338212
20
13.1516242945228
30
0
41
1
10
61.3489705199744
20
13.5880782581429
30
0
41
1
10
61.4550031630511
20
13.7463665743827
30
0
41
1
10
61.6670684492044
20
13.9522775364383
30
0
41
1
10
61.7731010922809
20
14
30
0
41
1
10
61.8791337353576
20
14
30
0
0
SPLINE
5
101
100
AcDbEntity
8
1
62
256
6
ByLayer
370
13
48
1
60
0
100
AcDbSpline
70
4
71
3
72
43
73
39
40
0
40
0
40
0
40
0
40
0.0625000000000002
40
0.0625000000000002
40
0.125
40
0.125
40
0.187500000000001
40
0.187500000000001
40
0.250000000000001
40
0.250000000000001
40
0.312500000000001
40
0.312500000000001
40
0.375000000000001
40
0.375000000000001
40
0.437500000000001
40
0.437500000000001
40
0.500000000000001
40
0.500000000000001
40
0.562500000000001
40
0.562500000000001
40
0.625000000000001
40
0.625000000000001
40
0.640625000000001
40
0.648437500000001
40
0.648437500000001
40
0.656250000000001
40
0.656250000000001
40
0.687500000000001
40
0.687500000000001
40
0.75
40
0.75
40
0.8125
40
0.8125
40
0.875
40
0.875
40
0.9375
40
0.9375
40
1
40
1
40
1
40
1
41
1
10
59.4609081986574
20
14
30
0
41
1
10
59.5618146261911
20
14
30
0
41
1
10
59.6627210537247
20
13.9567965801027
30
0
41
1
10
59.864533908792
20
13.7709417615377
30
0
41
1
10
59.9654403363256
20
13.6282121181928
30
0
41
1
10
60.1672531913929
20
13.2347546781376
30
0
41
1
10
60.2681596189266
20
12.9839634407932
30
0
41
1
10
60.4699724739939
20
12.3726776055644
30
0
41
1
10
60.5708789015276
20
12.0121561219023
30
0
41
1
10
60.772691756595
20
11.1879867843812
30
0
41
1
10
60.8735981841286
20
10.7243632892278
30
0
41
1
10
61.0754110391959
20
9.70893192437467
30
0
41
1
10
61.1763174667296
20
9.15719874167687
30
0
41
1
10
61.378130321797
20
7.98734792531047
30
0
41
1
10
61.4790367493307
20
7.36933707040691
30
0
41
1
10
61.680849604398
20
6.09278146241959
30
0
41
1
10
61.7817560319317
20
5.43434734852534
30
0
41
1
10
61.9835688869989
20
4.10347183979809
30
0
41
1
10
62.0844753145326
20
3.43111880986203
30
0
41
1
10
62.2862881695999
20
2.09652930881887
30
0
41
1
10
62.3871945971336
20
1.43434432506697
30
0
41
1
10
62.5133276315507
20
0.625173294552184
30
0
41
1
10
62.5511675418757
20
0.383794886317702
30
0
41
1
10
62.589007452201
20
0.144759143345908
30
0
41
1
10
62.6142340590844
20
-0.0140484938003453
30
0
41
1
10
62.626847362526
20
-0.0932487446927439
30
0
41
1
10
62.6899138797346
20
-0.491491883508388
30
0
41
1
10
62.7403670935014
20
-0.81439304409372
30
0
41
1
10
62.8917267348019
20
-1.79293441140794
30
0
41
1
10
62.9926331623356
20
-2.45856628251084
30
0
41
1
10
63.1944460174029
20
-3.79597917360934
30
0
41
1
10
63.2953524449365
20
-4.46770158102822
30
0
41
1
10
63.4971653000038
20
-5.7926145724102
30
0
41
1
10
63.5980717275376
20
-6.44571125574024
30
0
41
1
10
63.7998845826049
20
-7.70675738638116
30
0
41
1
10
63.9007910101386
20
-8.31459473346445
30
0
41
1
10
64.1026038652058
20
-9.45974215096967
30
0
41
1
10
64.2035102927395
20
-9.99694930575177
30
0
41
1
10
64.3044167202732
20
-10.488489126647
30
0
0
SPLINE
5
102
100
AcDbEntity
8
1
62
256
6
ByLayer
370
13
48
1
60
0
100
AcDbSpline
70
4
71
3
72
87
73
83
40
0
40
0
40
0
40
0
40
0.0156250000000004
40
0.0156250000000004
40
0.0234375000000007
40
0.0234375000000007
40
0.0273437500000008
40
0.0273437500000008
40
0.0312500000000009
40
0.0312500000000009
40
0.0625000000000012
40
0.0625000000000012
40
0.0937500000000016
40
0.0937500000000016
40
0.125000000000002
40
0.125000000000002
40
0.156250000000002
40
0.156250000000002
40
0.187500000000003
40
0.187500000000003
40
0.218750000000003
40
0.218750000000003
40
0.250000000000003
40
0.250000000000003
40
0.281250000000004
40
0.281250000000004
40
0.312500000000004
40
0.312500000000004
40
0.343750000000005
40
0.343750000000005
40
0.347656250000005
40
0.347656250000005
40
0.351562500000005
40
0.351562500000005
40
0.359375000000005
40
0.359375000000005
40
0.375000000000005
40
0.375000000000005
40
0.406250000000005
40
0.406250000000005
40
0.437500000000005
40
0.437500000000005
40
0.468750000000005
40
0.468750000000005
40
0.500000000000005
40
0.500000000000005
40
0.531250000000005
40
0.531250000000005
40
0.562500000000005
40
0.562500000000005
40
0.593750000000005
40
0.593750000000005
40
0.625000000000005
40
0.625000000000005
40
0.656250000000005
40
0.656250000000005
40
0.671875000000005
40
0.671875000000005
40
0.675781250000005
40
0.675781250000005
40
0.679687500000005
40
0.687500000000005
40
0.687500000000005
40
0.718750000000004
40
0.718750000000004
40
0.750000000000004
40
0.750000000000004
40
0.781250000000003
40
0.781250000000003
40
0.812500000000003
40
0.812500000000003
40
0.843750000000002
40
0.843750000000002
40
0.875000000000002
40
0.875000000000002
40
0.906250000000001
40
0.906250000000001
40
0.937500000000001
40
0.937500000000001
40
0.968750000000001
40
0.968750000000001
40
1
40
1
40
1
40
1
41
1
10
51.7000000000001
20
1.54268671510025
30
0
41
1
10
51.7504899844392
20
1.21378418242617
30
0
41
1
10
51.8009799688784
20
0.887695090671542
30
0
41
1
10
51.8767149455373
20
0.404431414078715
30
0
41
1
10
51.9019599377569
20
0.244319189620541
30
0
41
1
10
51.9398274260863
20
0.0057962810637378
30
0
41
1
10
51.9524499221961
20
-0.0734107450793999
30
0
41
1
10
51.9776949144157
20
-0.232734777491942
30
0
41
1
10
51.9903174105256
20
-0.31266672420071
30
0
41
1
10
52.1039198755138
20
-1.03434850070556
30
0
41
1
10
52.2048998443922
20
-1.69237961517285
30
0
41
1
10
52.4068597821491
20
-3.02306260475123
30
0
41
1
10
52.5078397510276
20
-3.69567083244055
30
0
41
1
10
52.7097996887844
20
-5.03219542716928
30
0
41
1
10
52.8107796576629
20
-5.69602988303643
30
0
41
1
10
53.0127395954197
20
-6.9887362729894
30
0
41
1
10
53.1137195642982
20
-7.61749984014352
30
0
41
1
10
53.315679502055
20
-8.81375018808853
30
0
41
1
10
53.4166594709335
20
-9.38112663556538
30
0
41
1
10
53.6186194086904
20
-10.4316300419173
30
0
41
1
10
53.7195993775688
20
-10.9146736469934
30
0
41
1
10
53.9215593153257
20
-11.7798961441932
30
0
41
1
10
54.0225392842041
20
-12.162039845128
30
0
41
1
10
54.224499221961
20
-12.8170519587611
30
0
41
1
10
54.3254791908395
20
-13.0899378996338
30
0
41
1
10
54.5274391285964
20
-13.5264935812727
30
0
41
1
10
54.6284190974749
20
-13.6902213810185
30
0
41
1
10
54.8303790352317
20
-13.9157954615097
30
0
41
1
10
54.9313590041102
20
-13.9777190690378
30
0
41
1
10
55.0449614690984
20
-13.9971023051937
30
0
41
1
10
55.0575839652082
20
-13.9985600402321
30
0
41
1
10
55.0828289574279
20
-14.0001114106451
30
0
41
1
10
55.0954514535376
20
-14.0002080302971
30
0
41
1
10
55.1333189418671
20
-13.998469795373
30
0
41
1
10
55.1585639340867
20
-13.9945905637197
30
0
41
1
10
55.2342989107454
20
-13.9744607025297
30
0
41
1
10
55.2847888951847
20
-13.9497106424048
30
0
41
1
10
55.4362588485023
20
-13.8390468951242
30
0
41
1
10
55.5372388173808
20
-13.7165439389798
30
0
41
1
10
55.7391987551376
20
-13.3645771903316
30
0
41
1
10
55.8401787240161
20
-13.1350450669474
30
0
41
1
10
56.042138661773
20
-12.5658278308658
30
0
41
1
10
56.1431186306514
20
-12.2261070808749
30
0
41
1
10
56.3450785684083
20
-11.4414377652743
30
0
41
1
10
56.4460585372867
20
-10.9965031873956
30
0
41
1
10
56.6480184750437
20
-10.0148288257023
30
0
41
1
10
56.7489984439221
20
-9.47815518959973
30
0
41
1
10
56.950958381679
20
-8.33371310925952
30
0
41
1
10
57.0519383505574
20
-7.72604769026219
30
0
41
1
10
57.2538982883144
20
-6.46500732793882
30
0
41
1
10
57.3548782571928
20
-5.81174494706764
30
0
41
1
10
57.5568381949496
20
-4.48622477334837
30
0
41
1
10
57.657818163828
20
-3.81406149783027
30
0
41
1
10
57.8597781015849
20
-2.47557504942054
30
0
41
1
10
57.9607580704633
20
-1.80931104594146
30
0
41
1
10
58.112228023781
20
-0.829743045285568
30
0
41
1
10
58.1627180082202
20
-0.506486572821672
30
0
41
1
10
58.2258304887693
20
-0.107789117316116
30
0
41
1
10
58.2384529848791
20
-0.0284796702395909
30
0
41
1
10
58.2636979770987
20
0.130377057156608
30
0
41
1
10
58.3015654654281
20
0.369490248287093
30
0
41
1
10
58.3394329537575
20
0.610957630469585
30
0
41
1
10
58.4656579148556
20
1.4204510797405
30
0
41
1
10
58.566637883734
20
2.08297751566144
30
0
41
1
10
58.7685978214909
20
3.41841009120114
30
0
41
1
10
58.8695777903694
20
4.09126481500269
30
0
41
1
10
59.0715377281262
20
5.42327409505913
30
0
41
1
10
59.1725176970047
20
6.08234015215311
30
0
41
1
10
59.3744776347615
20
7.36023760736876
30
0
41
1
10
59.47545760364
20
7.97895801877118
30
0
41
1
10
59.6774175413969
20
9.15023814170786
30
0
41
1
10
59.7783975102753
20
9.70269060520093
30
0
41
1
10
59.9803574480322
20
10.7195003141225
30
0
41
1
10
60.0813374169106
20
11.1837824413947
30
0
41
1
10
60.2832973546675
20
12.0091499260165
30
0
41
1
10
60.384277323546
20
12.3702106782945
30
0
41
1
10
60.5862372613029
20
12.9824192177493
30
0
41
1
10
60.6872172301813
20
13.233593886927
30
0
41
1
10
60.8891771679382
20
13.6276516962017
30
0
41
1
10
60.9901571368166
20
13.77059846881
30
0
41
1
10
61.1921170745735
20
13.9567333577832
30
0
41
1
10
61.2930970434519
20
14
30
0
41
1
10
61.3940770123303
20
14
30
0
0
SPLINE
5
103
100
AcDbEntity
8
1
62
256
6
ByLayer
370
13
48
1
60
0
100
AcDbSpline
70
4
71
3
72
52
73
48
40
0
40
0
40
0
40
0
40
0.0624999999999999
40
0.0624999999999999
40
0.125
40
0.125
40
0.1875
40
0.1875
40
0.25
40
0.25
40
0.28125
40
0.28125
40
0.312499999999999
40
0.312499999999999
40
0.343749999999999
40
0.343749999999999
40
0.374999999999999
40
0.374999999999999
40
0.437499999999999
40
0.437499999999999
40
0.499999999999999
40
0.499999999999999
40
0.562499999999999
40
0.562499999999999
40
0.578125
40
0.578125
40
0.5859375
40
0.5859375
40
0.59375
40
0.59375
40
0.625
40
0.625
40
0.6875
40
0.6875
40
0.75
40
0.75
40
0.8125
40
0.8125
40
0.84375
40
0.84375
40
0.875
40
0.875
40
0.90625
40
0.90625
40
0.9375
40
0.9375
40
1
40
1
40
1
40
1
41
1
10
58.9758514756301
20
14
30
0
41
1
10
59.0868632515602
20
14
30
0
41
1
10
59.1978750274902
20
13.9476699487421
30
0
41
1
10
59.4198985793503
20
13.7212368367734
30
0
41
1
10
59.5309103552804
20
13.5470088286194
30
0
41
1
10
59.7529339071405
20
13.066562766621
30
0
41
1
10
59.8639456830705
20
12.7602519468274
30
0
41
1
10
60.0859692349307
20
12.0159829051852
30
0
41
1
10
60.1969810108608
20
11.5780048041368
30
0
41
1
10
60.3634986747558
20
10.8318575766725
30
0
41
1
10
60.4190045627209
20
10.5683770624782
30
0
41
1
10
60.5300163386509
20
10.0145933267669
30
0
41
1
10
60.5855222266159
20
9.72429378729603
30
0
41
1
10
60.6965340025461
20
9.1202205200905
30
0
41
1
10
60.7520398905111
20
8.80645156572393
30
0
41
1
10
60.8630516664412
20
8.15929699679964
30
0
41
1
10
60.9185575544062
20
7.82591685552757
30
0
41
1
10
61.0850752183013
20
6.80266827093783
30
0
41
1
10
61.1960869942314
20
6.08970201853916
30
0
41
1
10
61.4181105460915
20
4.63736081632914
30
0
41
1
10
61.5291223220216
20
3.89814219054861
30
0
41
1
10
61.7511458738817
20
2.42657963938729
30
0
41
1
10
61.8621576498118
20
1.69433122429012
30
0
41
1
10
62.0009223697244
20
0.800268043547504
30
0
41
1
10
62.028675313707
20
0.622499606095232
30
0
41
1
10
62.0703047296807
20
0.35767233328167
30
0
41
1
10
62.0841812016718
20
0.269700559607884
30
0
41
1
10
62.1119341456544
20
0.0944051837346365
30
0
41
1
10
62.1258106176456
20
0.0073049487698427
30
0
41
1
10
62.195192977602
20
-0.429660560772476
30
0
41
1
10
62.250698865567
20
-0.784558780492404
30
0
41
1
10
62.4172165294621
20
-1.86115967781242
30
0
41
1
10
62.5282283053922
20
-2.5949907500376
30
0
41
1
10
62.7502518572523
20
-4.06736454507336
30
0
41
1
10
62.8612636331823
20
-4.8058065023707
30
0
41
1
10
63.0832871850424
20
-6.25390196950337
30
0
41
1
10
63.1942989609725
20
-6.96339563965685
30
0
41
1
10
63.3608166248677
20
-7.97943564191493
30
0
41
1
10
63.4163225128327
20
-8.31008283812662
30
0
41
1
10
63.5273342887628
20
-8.95115448388876
30
0
41
1
10
63.5828401767278
20
-9.26157353872452
30
0
41
1
10
63.6938519526578
20
-9.85839815883938
30
0
41
1
10
63.7493578406229
20
-10.1447990945757
30
0
41
1
10
63.860369616553
20
-10.6903266273159
30
0
41
1
10
63.915875504518
20
-10.9494497370046
30
0
41
1
10
64.0823931684131
20
-11.6819958241307
30
0
41
1
10
64.1934049443432
20
-12.1102003161295
30
0
41
1
10
64.3044167202732
20
-12.4723271953071
30
0
0
SPLINE
5
104
100
AcDbEntity
8
1
62
256
6
ByLayer
370
13
48
1
60
0
100
AcDbSpline
70
4
71
3
72
80
73
76
40
0
40
0
40
0
40
0
40
0.0312500000000003
40
0.0312500000000003
40
0.0625000000000005
40
0.0625000000000005
40
0.0937500000000007
40
0.0937500000000007
40
0.125000000000001
40
0.125000000000001
40
0.156250000000001
40
0.156250000000001
40
0.187500000000001
40
0.187500000000001
40
0.218750000000002
40
0.218750000000002
40
0.250000000000002
40
0.250000000000002
40
0.281250000000002
40
0.281250000000002
40
0.312500000000002
40
0.312500000000002
40
0.316406250000002
40
0.316406250000002
40
0.320312500000002
40
0.328125000000002
40
0.328125000000002
40
0.343750000000002
40
0.343750000000002
40
0.375000000000003
40
0.375000000000003
40
0.406250000000003
40
0.406250000000003
40
0.437500000000003
40
0.437500000000003
40
0.468750000000003
40
0.468750000000003
40
0.500000000000003
40
0.500000000000003
40
0.531250000000003
40
0.531250000000003
40
0.562500000000003
40
0.562500000000003
40
0.593750000000003
40
0.593750000000003
40
0.625000000000003
40
0.625000000000003
40
0.656250000000004
40
0.656250000000004
40
0.660156250000004
40
0.660156250000004
40
0.664062500000004
40
0.671875000000004
40
0.671875000000004
40
0.687500000000004
40
0.687500000000004
40
0.718750000000003
40
0.718750000000003
40
0.750000000000003
40
0.750000000000003
40
0.781250000000002
40
0.781250000000002
40
0.812500000000002
40
0.812500000000002
40
0.843750000000002
40
0.843750000000002
40
0.875000000000001
40
0.875000000000001
40
0.906250000000001
40
0.906250000000001
40
0.937500000000001
40
0.937500000000001
40
0.96875
40
0.96875
40
1
40
1
40
1
40
1
41
1
10
51.7000000000001
20
-1.56567195922131
30
0
41
1
10
51.7959272946803
20
-2.19080934309383
30
0
41
1
10
51.8918545893605
20
-2.82611651798555
30
0
41
1
10
52.083709178721
20
-4.09875135878238
30
0
41
1
10
52.1796364734012
20
-4.7360284654242
30
0
41
1
10
52.3714910627617
20
-5.991023032524
30
0
41
1
10
52.4674183574419
20
-6.60866496050699
30
0
41
1
10
52.6592729468024
20
-7.80150699304016
30
0
41
1
10
52.7552002414826
20
-8.37661971259951
30
0
41
1
10
52.9470548308431
20
-9.46272255434346
30
0
41
1
10
53.0429821255234
20
-9.97363302184007
30
0
41
1
10
53.2348367148838
20
-10.9134370458004
30
0
41
1
10
53.3307640095641
20
-11.3422778412477
30
0
41
1
10
53.5226185989246
20
-12.1058908555258
30
0
41
1
10
53.6185458936048
20
-12.4406484129287
30
0
41
1
10
53.8104004829653
20
-13.0109302556123
30
0
41
1
10
53.9063277776455
20
-13.2464773208456
30
0
41
1
10
54.098182367006
20
-13.6199247241371
30
0
41
1
10
54.1941096616863
20
-13.7578744604664
30
0
41
1
10
54.3859642510468
20
-13.9433330651011
30
0
41
1
10
54.481891545727
20
-13.990902595964
30
0
41
1
10
54.5898097522423
20
-13.9997966674311
30
0
41
1
10
54.6018006640773
20
-14.0001676868811
30
0
41
1
10
54.6257824877474
20
-13.9996947626708
30
0
41
1
10
54.6617552232525
20
-13.9971538499997
30
0
41
1
10
54.6977279587575
20
-13.9890090201671
30
0
41
1
10
54.7696734297677
20
-13.9649683062243
30
0
41
1
10
54.8176370771079
20
-13.9386002767405
30
0
41
1
10
54.9615280191282
20
-13.8264334404955
30
0
41
1
10
55.0574553138085
20
-13.7074275745772
30
0
41
1
10
55.2493099031689
20
-13.3729246725816
30
0
41
1
10
55.3452371978491
20
-13.1573747032621
30
0
41
1
10
55.5370917872096
20
-12.6269008139101
30
0
41
1
10
55.6330190818898
20
-12.3119476389062
30
0
41
1
10
55.8248736712503
20
-11.5863521507058
30
0
41
1
10
55.9208009659306
20
-11.1757165151096
30
0
41
1
10
56.112655555291
20
-10.2693882459011
30
0
41
1
10
56.2085828499713
20
-9.77374123732187
30
0
41
1
10
56.4004374393318
20
-8.71418549364412
30
0
41
1
10
56.496364734012
20
-8.15035237718996
30
0
41
1
10
56.6882193233726
20
-6.97551813918517
30
0
41
1
10
56.7841466180528
20
-6.36460452412692
30
0
41
1
10
56.9760012074132
20
-5.11847853815348
30
0
41
1
10
57.0719285020934
20
-4.48334542434475
30
0
41
1
10
57.2637830914539
20
-3.21084758140952
30
0
41
1
10
57.3597103861342
20
-2.57353905097702
30
0
41
1
10
57.5515649754947
20
-1.31587370159272
30
0
41
1
10
57.647492270175
20
-0.695544357759474
30
0
41
1
10
57.7554104766902
20
-0.0156642548501793
30
0
41
1
10
57.7674013885252
20
0.0595681702496904
30
0
41
1
10
57.7913832121953
20
0.210843359743222
30
0
41
1
10
57.8273559477003
20
0.438489598799521
30
0
41
1
10
57.8633286832055
20
0.668222827260422
30
0
41
1
10
57.9352741542156
20
1.13014466850916
30
0
41
1
10
57.9832378015557
20
1.44137494496351
30
0
41
1
10
58.1271287435761
20
2.3819798007388
30
0
41
1
10
58.2230560382564
20
3.01838344598235
30
0
41
1
10
58.4149106276168
20
4.29115726806339
30
0
41
1
10
58.5108379222971
20
4.92747404257182
30
0
41
1
10
58.7026925116576
20
6.17826332080381
30
0
41
1
10
58.7986198063378
20
6.79265835734523
30
0
41
1
10
58.9904743956983
20
7.97672358595841
30
0
41
1
10
59.0864016903785
20
8.54630622809552
30
0
41
1
10
59.278256279739
20
9.61933427544312
30
0
41
1
10
59.3741835744192
20
10.1227019458724
30
0
41
1
10
59.5660381637797
20
11.0459150533744
30
0
41
1
10
59.66196545846
20
11.4657112446656
30
0
41
1
10
59.8538200478204
20
12.2103957835319
30
0
41
1
10
59.9497473425006
20
12.5352734720399
30
0
41
1
10
60.1416019318612
20
13.0856616838914
30
0
41
1
10
60.2375292265414
20
13.3111982860884
30
0
41
1
10
60.4293838159019
20
13.6651216492121
30
0
41
1
10
60.5253111105821
20
13.7935596569141
30
0
41
1
10
60.7171656999426
20
13.960968352129
30
0
41
1
10
60.8130929946229
20
14
30
0
41
1
10
60.9090202893031
20
14
30
0
0
SPLINE
5
105
100
AcDbEntity
8
1
62
256
6
ByLayer
370
13
48
1
60
0
100
AcDbSpline
70
4
71
3
72
74
73
70
40
0
40
0
40
0
40
0
40
0.0312500000000001
40
0.0312500000000001
40
0.0625000000000002
40
0.0625000000000002
40
0.0937500000000003
40
0.0937500000000003
40
0.125
40
0.125
40
0.156250000000001
40
0.156250000000001
40
0.187500000000001
40
0.187500000000001
40
0.218750000000001
40
0.218750000000001
40
0.250000000000001
40
0.250000000000001
40
0.281250000000001
40
0.281250000000001
40
0.312500000000001
40
0.312500000000001
40
0.343750000000001
40
0.343750000000001
40
0.375000000000001
40
0.375000000000001
40
0.406250000000001
40
0.406250000000001
40
0.437500000000001
40
0.437500000000001
40
0.468750000000002
40
0.468750000000002
40
0.500000000000002
40
0.500000000000002
40
0.531250000000002
40
0.531250000000002
40
0.539062500000002
40
0.539062500000002
40
0.546875000000002
40
0.546875000000002
40
0.562500000000002
40
0.562500000000002
40
0.593750000000002
40
0.593750000000002
40
0.625000000000001
40
0.625000000000001
40
0.656250000000001
40
0.656250000000001
40
0.687500000000001
40
0.687500000000001
40
0.718750000000001
40
0.718750000000001
40
0.750000000000001
40
0.750000000000001
40
0.781250000000001
40
0.781250000000001
40
0.812500000000001
40
0.812500000000001
40
0.843750000000001
40
0.843750000000001
40
0.875
40
0.875
40
0.90625
40
0.90625
40
0.9375
40
0.9375
40
0.96875
40
0.96875
40
1
40
1
40
1
40
1
41
1
10
58.4907947526028
20
14
30
0
41
1
10
58.551353314766
20
14
30
0
41
1
10
58.6119118769292
20
13.9844722857239
30
0
41
1
10
58.7330290012557
20
13.9193946560856
30
0
41
1
10
58.7935875634189
20
13.8698386005341
30
0
41
1
10
58.9147046877454
20
13.7342058849473
30
0
41
1
10
58.9752632499086
20
13.6481231779826
30
0
41
1
10
59.0963803742351
20
13.4376034484062
30
0
41
1
10
59.1569389363984
20
13.3131610634386
30
0
41
1
10
59.2780560607249
20
13.0249264958583
30
0
41
1
10
59.338614622888
20
12.8611302733508
30
0
41
1
10
59.4597317472145
20
12.4941743091101
30
0
41
1
10
59.5202903093777
20
12.2910124396543
30
0
41
1
10
59.6414074337042
20
11.8463879398121
30
0
41
1
10
59.7019659958674
20
11.6049255278403
30
0
41
1
10
59.8230831201939
20
11.0858693123983
30
0
41
1
10
59.8836416823571
20
10.8082782556257
30
0
41
1
10
60.0047588066835
20
10.2201966827366
30
0
41
1
10
60.0653173688468
20
9.9097113138252
30
0
41
1
10
60.1864344931734
20
9.26001639033731
30
0
41
1
10
60.2469930553365
20
8.92081394533108
30
0
41
1
10
60.368110179663
20
8.21861763969011
30
0
41
1
10
60.4286687418262
20
7.85563216460162
30
0
41
1
10
60.5497858661527
20
7.11132476363758
30
0
41
1
10
60.6103444283159
20
6.73001167634857
30
0
41
1
10
60.7314615526424
20
5.95476456447995
30
0
41
1
10
60.7920201148056
20
5.56083900613041
30
0
41
1
10
60.9131372391321
20
4.7660802771326
30
0
41
1
10
60.9736958012953
20
4.36525449672649
30
0
41
1
10
61.0948129256217
20
3.56216602775672
30
0
41
1
10
61.1553714877851
20
3.15990915924928
30
0
41
1
10
61.2764886121116
20
2.35898673542192
30
0
41
1
10
61.3370471742748
20
1.96032518269115
30
0
41
1
10
61.4581642986012
20
1.17103105678984
30
0
41
1
10
61.5187228607644
20
0.780400656989201
30
0
41
1
10
61.5944210634685
20
0.299477412535339
30
0
41
1
10
61.6095607040093
20
0.203659266214004
30
0
41
1
10
61.639839985091
20
0.0128075810538917
30
0
41
1
10
61.6549796256317
20
-0.0821582106718495
30
0
41
1
10
61.7003985472542
20
-0.369002312166629
30
0
41
1
10
61.7306778283358
20
-0.561777812122301
30
0
41
1
10
61.8215156715806
20
-1.1440982384733
30
0
41
1
10
61.8820742337439
20
-1.53765869285255
30
0
41
1
10
62.0031913580704
20
-2.33150530864282
30
0
41
1
10
62.0637499202336
20
-2.73178873969289
30
0
41
1
10
62.1848670445601
20
-3.53445137001833
30
0
41
1
10
62.2454256067233
20
-3.93682599047878
30
0
41
1
10
62.3665427310498
20
-4.73849042897859
30
0
41
1
10
62.427101293213
20
-5.13777390094157
30
0
41
1
10
62.5482184175395
20
-5.9276892598387
30
0
41
1
10
62.6087769797027
20
-6.31831335832103
30
0
41
1
10
62.7298941040291
20
-7.08517051202125
30
0
41
1
10
62.7904526661924
20
-7.46139490214028
30
0
41
1
10
62.9115697905188
20
-8.19378974021339
30
0
41
1
10
62.9721283526821
20
-8.549951399387
30
0
41
1
10
63.0932454770086
20
-9.23689932882527
30
0
41
1
10
63.1538040391718
20
-9.56767752564139
30
0
41
1
10
63.2749211634982
20
-10.199134771814
30
0
41
1
10
63.3354797256615
20
-10.499807257515
30
0
41
1
10
63.4565968499879
20
-11.0671495633658
30
0
41
1
10
63.5171554121512
20
-11.3338149489986
30
0
41
1
10
63.6382725364776
20
-11.8302269455536
30
0
41
1
10
63.6988310986409
20
-12.0599715966384
30
0
41
1
10
63.8199482229673
20
-12.4807103950425
30
0
41
1
10
63.8805067851306
20
-12.6717050856954
30
0
41
1
10
64.0016239094571
20
-13.0142176690968
30
0
41
1
10
64.0621824716202
20
-13.1657383394851
30
0
41
1
10
64.1832995959468
20
-13.4296309019773
30
0
41
1
10
64.2438581581101
20
-13.5420073123143
30
0
41
1
10
64.3044167202732
20
-13.635444732675
30
0
0
SPLINE
5
106
100
AcDbEntity
8
1
62
256
6
ByLayer
370
13
48
1
60
0
100
AcDbSpline
70
4
71
3
72
79
73
75
40
0
40
0
40
0
40
0
40
0.0312499999999999
40
0.0312499999999999
40
0.0624999999999998
40
0.0624999999999998
40
0.0937499999999996
40
0.0937499999999996
40
0.125
40
0.125
40
0.156249999999999
40
0.156249999999999
40
0.187499999999999
40
0.187499999999999
40
0.218749999999999
40
0.218749999999999
40
0.249999999999999
40
0.249999999999999
40
0.265624999999999
40
0.265624999999999
40
0.273437499999999
40
0.273437499999999
40
0.281249999999999
40
0.281249999999999
40
0.3125
40
0.3125
40
0.34375
40
0.34375
40
0.375
40
0.375
40
0.406250000000001
40
0.406250000000001
40
0.437500000000001
40
0.437500000000001
40
0.468750000000001
40
0.468750000000001
40
0.500000000000002
40
0.500000000000002
40
0.531250000000002
40
0.531250000000002
40
0.562500000000002
40
0.562500000000002
40
0.593750000000003
40
0.593750000000003
40
0.625000000000003
40
0.625000000000003
40
0.632812500000003
40
0.636718750000003
40
0.636718750000003
40
0.640625000000003
40
0.640625000000003
40
0.656250000000003
40
0.656250000000003
40
0.687500000000003
40
0.687500000000003
40
0.718750000000002
40
0.718750000000002
40
0.750000000000002
40
0.750000000000002
40
0.781250000000002
40
0.781250000000002
40
0.812500000000001
40
0.812500000000001
40
0.843750000000001
40
0.843750000000001
40
0.875000000000001
40
0.875000000000001
40
0.906250000000001
40
0.906250000000001
40
0.937500000000001
40
0.937500000000001
40
0.96875
40
0.96875
40
1
40
1
40
1
40
1
41
1
10
51.7000000000001
20
-4.76890336007787
30
0
41
1
10
51.7908746204821
20
-5.36818537674617
30
0
41
1
10
51.8817492409641
20
-5.96178238703038
30
0
41
1
10
52.0634984819282
20
-7.11841950686878
30
0
41
1
10
52.1543731024102
20
-7.68139463285863
30
0
41
1
10
52.3361223433743
20
-8.75769253076791
30
0
41
1
10
52.4269969638563
20
-9.27095003346227
30
0
41
1
10
52.6087462048204
20
-10.2309188444142
30
0
41
1
10
52.6996208253024
20
-10.6775785892121
30
0
41
1
10
52.8813700662665
20
-11.491465834018
30
0
41
1
10
52.9722446867486
20
-11.8586663281358
30
0
41
1
10
53.1539939277126
20
-12.5059722153009
30
0
41
1
10
53.2448685481947
20
-12.7860790872334
30
0
41
1
10
53.4266177891588
20
-13.2571486222016
30
0
41
1
10
53.5174924096409
20
-13.4481374748697
30
0
41
1
10
53.6992416506049
20
-13.7440993135694
30
0
41
1
10
53.7901162710869
20
-13.8491140658775
30
0
41
1
10
53.92642820181
20
-13.9475600601563
30
0
41
1
10
53.971865512051
20
-13.9705573596268
30
0
41
1
10
54.0400214774126
20
-13.9912054312465
30
0
41
1
10
54.0627401325331
20
-13.9957813421874
30
0
41
1
10
54.1081774427741
20
-14.0004787027107
30
0
41
1
10
54.1308960978946
20
-14.0006195053919
30
0
41
1
10
54.2444893734971
20
-13.990324085747
30
0
41
1
10
54.3353639939792
20
-13.9464488161908
30
0
41
1
10
54.5171132349432
20
-13.7780301622241
30
0
41
1
10
54.6079878554253
20
-13.6534403326718
30
0
41
1
10
54.7897370963893
20
-13.317176517904
30
0
41
1
10
54.8806117168713
20
-13.1054634457014
30
0
41
1
10
55.0623609578355
20
-12.5929223582394
30
0
41
1
10
55.1532355783175
20
-12.2920732493769
30
0
41
1
10
55.3349848192816
20
-11.6045581650434
30
0
41
1
10
55.4258594397637
20
-11.2178972950834
30
0
41
1
10
55.6076086807277
20
-10.3676529079056
30
0
41
1
10
55.6984833012098
20
-9.90410278116411
30
0
41
1
10
55.8802325421738
20
-8.91399350954407
30
0
41
1
10
55.9711071626559
20
-8.38749029682629
30
0
41
1
10
56.1528564036199
20
-7.28903828126397
30
0
41
1
10
56.243731024102
20
-6.71715594702789
30
0
41
1
10
56.4254802650661
20
-5.54727198982229
30
0
41
1
10
56.5163548855481
20
-4.9493333612773
30
0
41
1
10
56.6981041265122
20
-3.74643012423999
30
0
41
1
10
56.7889787469943
20
-3.14151376196412
30
0
41
1
10
56.9707279879583
20
-1.94180737891423
30
0
41
1
10
57.0616026084403
20
-1.347045261451
30
0
41
1
10
57.1751958840429
20
-0.618704821277106
30
0
41
1
10
57.2092738667238
20
-0.401323413392532
30
0
41
1
10
57.2433518494045
20
-0.185830097353545
30
0
41
1
10
57.266070504525
20
-0.042608788314368
30
0
41
1
10
57.2774298320852
20
0.0286550431301578
30
0
41
1
10
57.3342264698865
20
0.386564556231519
30
0
41
1
10
57.3796637801275
20
0.676440530170225
30
0
41
1
10
57.5159757108506
20
1.55451000334781
30
0
41
1
10
57.6068503313326
20
2.15124957035741
30
0
41
1
10
57.7885995722967
20
3.35305470325949
30
0
41
1
10
57.8794741927787
20
3.95808990214479
30
0
41
1
10
58.0612234337428
20
5.15907543608071
30
0
41
1
10
58.1520980542248
20
5.75497539130143
30
0
41
1
10
58.333847295189
20
6.91850056848037
30
0
41
1
10
58.4247219156709
20
7.48606171899712
30
0
41
1
10
58.606471156635
20
8.57368798600299
30
0
41
1
10
58.6973457771171
20
9.09368713483326
30
0
41
1
10
58.8790950180812
20
10.0689373487814
30
0
41
1
10
58.9699696385632
20
10.5241345854119
30
0
41
1
10
59.1517188795273
20
11.3563495608173
30
0
41
1
10
59.2425935000093
20
11.7333370676497
30
0
41
1
10
59.4243427409734
20
12.4008223879476
30
0
41
1
10
59.5152173614554
20
12.6913184094781
30
0
41
1
10
59.6969666024195
20
13.1831234490223
30
0
41
1
10
59.7878412229015
20
13.3844561703369
30
0
41
1
10
59.9695904638656
20
13.7005031943292
30
0
41
1
10
60.0604650843476
20
13.8152579985114
30
0
41
1
10
60.2422143253118
20
13.9649830828349
30
0
41
1
10
60.3330889457937
20
14
30
0
41
1
10
60.4239635662758
20
14
30
0
0
SPLINE
5
107
100
AcDbEntity
8
1
62
256
6
ByLayer
370
13
48
1
60
0
100
AcDbSpline
70
4
71
3
72
72
73
68
40
0
40
0
40
0
40
0
40
0.0312499999999998
40
0.0312499999999998
40
0.0624999999999996
40
0.0624999999999996
40
0.0937499999999993
40
0.0937499999999993
40
0.124999999999999
40
0.124999999999999
40
0.156249999999999
40
0.156249999999999
40
0.187499999999999
40
0.187499999999999
40
0.218749999999998
40
0.218749999999998
40
0.249999999999998
40
0.249999999999998
40
0.281249999999998
40
0.281249999999998
40
0.312499999999998
40
0.312499999999998
40
0.343749999999998
40
0.343749999999998
40
0.374999999999997
40
0.374999999999997
40
0.406249999999997
40
0.406249999999997
40
0.437499999999997
40
0.437499999999997
40
0.468749999999997
40
0.468749999999997
40
0.499999999999997
40
0.499999999999997
40
0.515624999999997
40
0.515624999999997
40
0.531249999999997
40
0.531249999999997
40
0.562499999999997
40
0.562499999999997
40
0.593749999999997
40
0.593749999999997
40
0.624999999999997
40
0.624999999999997
40
0.656249999999998
40
0.656249999999998
40
0.687499999999998
40
0.687499999999998
40
0.718749999999998
40
0.718749999999998
40
0.749999999999998
40
0.749999999999998
40
0.781249999999998
40
0.781249999999998
40
0.812499999999999
40
0.812499999999999
40
0.843749999999999
40
0.843749999999999
40
0.874999999999999
40
0.874999999999999
40
0.906249999999999
40
0.906249999999999
40
0.9375
40
0.9375
40
0.96875
40
0.96875
40
1
40
1
40
1
40
1
41
1
10
58.0057380295755
20
14
30
0
41
1
10
58.0713492659369
20
14
30
0
41
1
10
58.1369605022983
20
13.981769596989
30
0
41
1
10
58.2681829750212
20
13.905096780329
30
0
41
1
10
58.3337942113826
20
13.8466451879621
30
0
41
1
10
58.4650166841055
20
13.6864439344939
30
0
41
1
10
58.5306279204669
20
13.584685359643
30
0
41
1
10
58.6618503931898
20
13.3357413886269
30
0
41
1
10
58.7274616295513
20
13.1885484002278
30
0
41
1
10
58.8586841022741
20
12.8478160121349
30
0
41
1
10
58.9242953386356
20
12.6542714514131
30
0
41
1
10
59.0555178113584
20
12.2213210842857
30
0
41
1
10
59.1211290477199
20
11.9819135069362
30
0
41
1
10
59.2523515204427
20
11.4592344937148
30
0
41
1
10
59.3179627568042
20
11.1759652675865
30
0
41
1
10
59.449185229527
20
10.5690678307804
30
0
41
1
10
59.5147964658885
20
10.2454458635287
30
0
41
1
10
59.6460189386113
20
9.56272813572693
30
0
41
1
10
59.7116301749728
20
9.20364210510726
30
0
41
1
10
59.8428526476957
20
8.45601945059806
30
0
41
1
10
59.9084638840571
20
8.06749497075347
30
0
41
1
10
60.03968635678
20
7.26782390016004
30
0
41
1
10
60.1052975931414
20
6.8566904690588
30
0
41
1
10
60.2365200658643
20
6.01905005409427
30
0
41
1
10
60.3021313022257
20
5.59255578884611
30
0
41
1
10
60.4333537749486
20
4.73146855406421
30
0
41
1
10
60.49896501131
20
4.29688660836788
30
0
41
1
10
60.6301874840329
20
3.42656441644166
30
0
41
1
10
60.6957987203943
20
2.99083263525813
30
0
41
1
10
60.8270211931172
20
2.12452144700464
30
0
41
1
10
60.8926324294786
20
1.69394754900674
30
0
41
1
10
61.0238549022014
20
0.843422349255519
30
0
41
1
10
61.0894661385629
20
0.423473640352029
30
0
41
1
10
61.1878829931051
20
-0.195100903008921
30
0
41
1
10
61.2206886112858
20
-0.402918205113821
30
0
41
1
10
61.2862998476472
20
-0.822071564587191
30
0
41
1
10
61.319105465828
20
-1.0332759721891
30
0
41
1
10
61.4175223203702
20
-1.67088500486236
30
0
41
1
10
61.4831335567315
20
-2.10131376523216
30
0
41
1
10
61.6143560294544
20
-2.96744055786738
30
0
41
1
10
61.6799672658158
20
-3.40313313488431
30
0
41
1
10
61.8111897385388
20
-4.27349628803563
30
0
41
1
10
61.8768009749002
20
-4.70815845004023
30
0
41
1
10
62.0080234476231
20
-5.56953443487038
30
0
41
1
10
62.0736346839844
20
-5.99623727348546
30
0
41
1
10
62.2048571567074
20
-6.83442616697431
30
0
41
1
10
62.2704683930687
20
-7.2458995235323
30
0
41
1
10
62.4016908657916
20
-8.04637792876997
30
0
41
1
10
62.467302102153
20
-8.43536981313176
30
0
41
1
10
62.5985245748759
20
-9.18404379683628
30
0
41
1
10
62.6641358112373
20
-9.54371372101824
30
0
41
1
10
62.7953582839602
20
-10.2276982127605
30
0
41
1
10
62.8609695203217
20
-10.5520029963261
30
0
41
1
10
62.9921919930446
20
-11.1603422156121
30
0
41
1
10
63.057803229406
20
-11.4443703388031
30
0
41
1
10
63.1890257021288
20
-11.9686170673377
30
0
41
1
10
63.2546369384903
20
-12.2088333892927
30
0
41
1
10
63.3858594112132
20
-12.6434237199449
30
0
41
1
10
63.4514706475745
20
-12.8377994319997
30
0
41
1
10
63.5826931202974
20
-13.1801900906831
30
0
41
1
10
63.6483043566588
20
-13.3282101452035
30
0
41
1
10
63.7795268293817
20
-13.5787804910746
30
0
41
1
10
63.8451380657432
20
-13.681338340709
30
0
41
1
10
63.976360538466
20
-13.8430907631138
30
0
41
1
10
64.0419717748275
20
-13.9022942356582
30
0
41
1
10
64.1731942475504
20
-13.9804086293341
30
0
41
1
10
64.2388054839118
20
-13.9993287327252
30
0
41
1
10
64.3044167202732
20
-13.9999824225722
30
0
0
SPLINE
5
108
100
AcDbEntity
8
1
62
256
6
ByLayer
370
13
48
1
60
0
100
AcDbSpline
70
4
71
3
72
78
73
74
40
0
40
0
40
0
40
0
40
0.0312500000000002
40
0.0312500000000002
40
0.0625000000000004
40
0.0625000000000004
40
0.0937500000000006
40
0.0937500000000006
40
0.125000000000001
40
0.125000000000001
40
0.156250000000001
40
0.156250000000001
40
0.187500000000001
40
0.187500000000001
40
0.218750000000001
40
0.218750000000001
40
0.234375000000001
40
0.234375000000001
40
0.242187500000001
40
0.242187500000001
40
0.250000000000001
40
0.250000000000001
40
0.281250000000001
40
0.281250000000001
40
0.312500000000001
40
0.312500000000001
40
0.343750000000001
40
0.343750000000001
40
0.375000000000001
40
0.375000000000001
40
0.406250000000001
40
0.406250000000001
40
0.437500000000001
40
0.437500000000001
40
0.468750000000001
40
0.468750000000001
40
0.500000000000001
40
0.500000000000001
40
0.531250000000001
40
0.531250000000001
40
0.562500000000001
40
0.562500000000001
40
0.593750000000001
40
0.593750000000001
40
0.609375000000001
40
0.609375000000001
40
0.617187500000001
40
0.617187500000001
40
0.625000000000001
40
0.625000000000001
40
0.656250000000001
40
0.656250000000001
40
0.687500000000001
40
0.687500000000001
40
0.718750000000001
40
0.718750000000001
40
0.750000000000001
40
0.750000000000001
40
0.78125
40
0.78125
40
0.8125
40
0.8125
40
0.84375
40
0.84375
40
0.875
40
0.875
40
0.90625
40
0.90625
40
0.9375
40
0.9375
40
0.96875
40
0.96875
40
1
40
1
40
1
40
1
41
1
10
51.7
20
-7.85957592066674
30
0
41
1
10
51.7858219462838
20
-8.37771037652436
30
0
41
1
10
51.8716438925677
20
-8.87548194835571
30
0
41
1
10
52.0432877851353
20
-9.81556157503732
30
0
41
1
10
52.1291097314192
20
-10.2578270170777
30
0
41
1
10
52.3007536239869
20
-11.0748846577688
30
0
41
1
10
52.3865755702707
20
-11.4496497975643
30
0
41
1
10
52.5582194628384
20
-12.1235994113719
30
0
41
1
10
52.6440414091223
20
-12.422776743006
30
0
41
1
10
52.8156853016899
20
-12.9418710259799
30
0
41
1
10
52.9015072479738
20
-13.1618001235082
30
0
41
1
10
53.0731511405415
20
-13.5230637436599
30
0
41
1
10
53.1589730868253
20
-13.6644248461714
30
0
41
1
10
53.3306169793929
20
-13.8729608984145
30
0
41
1
10
53.4164389256768
20
-13.940169868113
30
0
41
1
10
53.5451718451025
20
-13.9907541898687
30
0
41
1
10
53.5880828182445
20
-13.999262677473
30
0
41
1
10
53.6524492779574
20
-14.00029976144
30
0
41
1
10
53.6739047645283
20
-13.9987021966815
30
0
41
1
10
53.7168157376702
20
-13.9914890066231
30
0
41
1
10
53.7382712242412
20
-13.9858723474178
30
0
41
1
10
53.845548657096
20
-13.9474084465589
30
0
41
1
10
53.9313706033798
20
-13.8833352071553
30
0
41
1
10
54.1030144959475
20
-13.6813388769502
30
0
41
1
10
54.1888364422313
20
-13.5433816031784
30
0
41
1
10
54.360480334799
20
-13.1890487367544
30
0
41
1
10
54.4463022810828
20
-12.9726460798728
30
0
41
1
10
54.6179461736505
20
-12.4605464901795
30
0
41
1
10
54.7037681199344
20
-12.164836644297
30
0
41
1
10
54.8754120125021
20
-11.497565436243
30
0
41
1
10
54.9612339587858
20
-11.1260103118349
30
0
41
1
10
55.1328778513535
20
-10.3149263974127
30
0
41
1
10
55.2186997976374
20
-9.87542384053899
30
0
41
1
10
55.3903436902052
20
-8.9402694131054
30
0
41
1
10
55.4761656364889
20
-8.44465961960202
30
0
41
1
10
55.6478095290566
20
-7.41201609034567
30
0
41
1
10
55.7336314753404
20
-6.87503218658114
30
0
41
1
10
55.9052753679081
20
-5.77585401147221
30
0
41
1
10
55.9910973141919
20
-5.21370787825936
30
0
41
1
10
56.1627412067596
20
-4.08040088069998
30
0
41
1
10
56.2485631530434
20
-3.50927854434963
30
0
41
1
10
56.4202070456111
20
-2.37286866580672
30
0
41
1
10
56.506028991895
20
-1.80760559685783
30
0
41
1
10
56.6347619113208
20
-0.97349568678797
30
0
41
1
10
56.6776728844627
20
-0.697736280738411
30
0
41
1
10
56.7420393441755
20
-0.28849102584806
30
0
41
1
10
56.7634948307465
20
-0.152806847544042
30
0
41
1
10
56.8064058038884
20
0.116953688189454
30
0
41
1
10
56.8278612904593
20
0.252367636679338
30
0
41
1
10
56.9351387233141
20
0.933792719708947
30
0
41
1
10
57.020960669598
20
1.49084527633752
30
0
41
1
10
57.1926045621657
20
2.61769942329568
30
0
41
1
10
57.2784265084496
20
3.18748432970187
30
0
41
1
10
57.4500704010172
20
4.32609490822631
30
0
41
1
10
57.5358923473011
20
4.89488909025332
30
0
41
1
10
57.7075362398687
20
6.01590484619942
30
0
41
1
10
57.7933581861526
20
6.56808250442759
30
0
41
1
10
57.9650020787203
20
7.63949102187661
30
0
41
1
10
58.0508240250041
20
8.15867179031372
30
0
41
1
10
58.2224679175717
20
9.1483895025836
30
0
41
1
10
58.3082898638556
20
9.61887915386296
30
0
41
1
10
58.4799337564233
20
10.4976920455548
30
0
41
1
10
58.5657557027071
20
10.9059799655021
30
0
41
1
10
58.7373995952748
20
11.6503148383847
30
0
41
1
10
58.8232215415587
20
11.9863449000117
30
0
41
1
10
58.9948654341263
20
12.5803419683666
30
0
41
1
10
59.0806873804101
20
12.8383122886602
30
0
41
1
10
59.2523312729779
20
13.2748259465959
30
0
41
1
10
59.3381532192616
20
13.4533897651771
30
0
41
1
10
59.5097971118294
20
13.7338118878142
30
0
41
1
10
59.5956190581132
20
13.8357015673381
30
0
41
1
10
59.7672629506808
20
13.9687780705056
30
0
41
1
10
59.8530848969647
20
14
30
0
41
1
10
59.9389068432485
20
14
30
0
0
SPLINE
5
109
100
AcDbEntity
8
1
62
256
6
ByLayer
370
13
48
1
60
0
100
AcDbSpline
70
4
71
3
72
78
73
74
40
0
40
0
40
0
40
0
40
0.0312499999999998
40
0.0312499999999998
40
0.0624999999999995
40
0.0624999999999995
40
0.0937499999999993
40
0.0937499999999993
40
0.124999999999999
40
0.124999999999999
40
0.156249999999999
40
0.156249999999999
40
0.187499999999999
40
0.187499999999999
40
0.218749999999998
40
0.218749999999998
40
0.249999999999998
40
0.249999999999998
40
0.281249999999998
40
0.281249999999998
40
0.312499999999998
40
0.312499999999998
40
0.343749999999997
40
0.343749999999997
40
0.374999999999997
40
0.374999999999997
40
0.406249999999997
40
0.406249999999997
40
0.437499999999997
40
0.437499999999997
40
0.453124999999996
40
0.453124999999996
40
0.460937499999996
40
0.460937499999996
40
0.468749999999996
40
0.468749999999996
40
0.499999999999997
40
0.499999999999997
40
0.531249999999997
40
0.531249999999997
40
0.562499999999997
40
0.562499999999997
40
0.593749999999997
40
0.593749999999997
40
0.624999999999997
40
0.624999999999997
40
0.656249999999998
40
0.656249999999998
40
0.687499999999998
40
0.687499999999998
40
0.718749999999998
40
0.718749999999998
40
0.749999999999998
40
0.749999999999998
40
0.781249999999998
40
0.781249999999998
40
0.812499999999999
40
0.812499999999999
40
0.843749999999999
40
0.843749999999999
40
0.874999999999999
40
0.874999999999999
40
0.906249999999999
40
0.906249999999999
40
0.921874999999999
40
0.921874999999999
40
0.929687499999999
40
0.929687499999999
40
0.9375
40
0.9375
40
0.96875
40
0.96875
40
1
40
1
40
1
40
1
41
1
10
57.5206813065482
20
14
30
0
41
1
10
57.5913452171079
20
14
30
0
41
1
10
57.6620091276674
20
13.9788491790591
30
0
41
1
10
57.8033369487868
20
13.8895874995653
30
0
41
1
10
57.8740008593464
20
13.821463330736
30
0
41
1
10
58.0153286804656
20
13.6345181412324
30
0
41
1
10
58.0859925910253
20
13.5156844060046
30
0
41
1
10
58.2273204121446
20
13.2249262742855
30
0
41
1
10
58.2979843227042
20
13.052991562082
30
0
41
1
10
58.4393121438234
20
12.655333371868
30
0
41
1
10
58.5099760543831
20
12.4296038088282
30
0
41
1
10
58.6513038755024
20
11.9256065141069
30
0
41
1
10
58.721967786062
20
11.647338378932
30
0
41
1
10
58.8632956071813
20
11.0415656389426
30
0
41
1
10
58.9339595177409
20
10.7140669778183
30
0
41
1
10
59.0752873388602
20
10.0151045451463
30
0
41
1
10
59.1459512494199
20
9.64365268685918
30
0
41
1
10
59.2872790705391
20
8.86375448242953
30
0
41
1
10
59.3579429810988
20
8.45532459834661
30
0
41
1
10
59.499270802218
20
7.60970813618474
30
0
41
1
10
59.5699347127776
20
7.17254038810444
30
0
41
1
10
59.7112625338969
20
6.27841475265737
30
0
41
1
10
59.7819264444566
20
5.82147560482019
30
0
41
1
10
59.9232542655758
20
4.89692934463255
30
0
41
1
10
59.9939181761354
20
4.42933866926936
30
0
41
1
10
60.1352459972547
20
3.49223132763376
30
0
41
1
10
60.2059099078144
20
3.02272723344368
30
0
41
1
10
60.3472377289337
20
2.08971433415664
30
0
41
1
10
60.4179016394932
20
1.62621350790965
30
0
41
1
10
60.5238975053327
20
0.940551442096819
30
0
41
1
10
60.5592294606126
20
0.713586061688261
30
0
41
1
10
60.6122273935322
20
0.376066110913484
30
0
41
1
10
60.6298933711722
20
0.264046835791447
30
0
41
1
10
60.665225326452
20
0.0410660903075666
30
0
41
1
10
60.682891304092
20
-0.0696750813469578
30
0
41
1
10
60.7712211922915
20
-0.627578917787503
30
0
41
1
10
60.8418851028511
20
-1.08236081358533
30
0
41
1
10
60.9832129239704
20
-2.00300030043675
30
0
41
1
10
61.0538768345301
20
-2.46885325721942
30
0
41
1
10
61.1952046556493
20
-3.40452416004223
30
0
41
1
10
61.2658685662089
20
-3.87433285623101
30
0
41
1
10
61.4071963873282
20
-4.80974363010549
30
0
41
1
10
61.4778602978878
20
-5.27533197868812
30
0
41
1
10
61.6191881190071
20
-6.19341552777095
30
0
41
1
10
61.6898520295667
20
-6.64589347923254
30
0
41
1
10
61.831179850686
20
-7.52862404866298
30
0
41
1
10
61.9018437612456
20
-7.95885766467254
30
0
41
1
10
62.0431715823649
20
-8.78827309961548
30
0
41
1
10
62.1138354929245
20
-9.18743649004105
30
0
41
1
10
62.2551633140438
20
-9.94676162239742
30
0
41
1
10
62.3258272246034
20
-10.3069079456059
30
0
41
1
10
62.4671550457227
20
-10.9816427668506
30
0
41
1
10
62.5378189562823
20
-11.2962208723234
30
0
41
1
10
62.6791467774016
20
-11.8750511412398
30
0
41
1
10
62.7498106879612
20
-12.1392990926758
30
0
41
1
10
62.8911385090805
20
-12.6147115902458
30
0
41
1
10
62.9618024196401
20
-12.8258781872097
30
0
41
1
10
63.1031302407594
20
-13.1944128699551
30
0
41
1
10
63.173794151319
20
-13.3517883564603
30
0
41
1
10
63.3151219724384
20
-13.613921908034
30
0
41
1
10
63.385785882998
20
-13.7186911267673
30
0
41
1
10
63.5271137041173
20
-13.8784044284326
30
0
41
1
10
63.5977776146769
20
-13.9333615562567
30
0
41
1
10
63.7037734805163
20
-13.981453286619
30
0
41
1
10
63.7391054357961
20
-13.9917683007584
30
0
41
1
10
63.7921033687159
20
-13.9991063892302
30
0
41
1
10
63.8097693463558
20
-14.0001975756409
30
0
41
1
10
63.8451013016357
20
-13.9997441077169
30
0
41
1
10
63.8627672792755
20
-13.9981938566238
30
0
41
1
10
63.951097167475
20
-13.9836332950388
30
0
41
1
10
64.0217610780347
20
-13.9501626472312
30
0
41
1
10
64.1630888991539
20
-13.8351365174388
30
0
41
1
10
64.2337528097136
20
-13.7535677235474
30
0
41
1
10
64.3044167202733
20
-13.646251200048
30
0
0
SPLINE
5
10A
100
AcDbEntity
8
1
62
256
6
ByLayer
370
13
48
1
60
0
100
AcDbSpline
70
4
71
3
72
74
73
70
40
0
40
0
40
0
40
0
40
0.0312500000000001
40
0.0312500000000001
40
0.0625000000000001
40
0.0625000000000001
40
0.0937500000000001
40
0.0937500000000001
40
0.125
40
0.125
40
0.15625
40
0.15625
40
0.171875
40
0.171875
40
0.1875
40
0.1875
40
0.21875
40
0.21875
40
0.25
40
0.25
40
0.28125
40
0.28125
40
0.3125
40
0.3125
40
0.34375
40
0.34375
40
0.375
40
0.375
40
0.40625
40
0.40625
40
0.4375
40
0.4375
40
0.46875
40
0.46875
40
0.5
40
0.5
40
0.53125
40
0.53125
40
0.5625
40
0.5625
40
0.578125
40
0.578125
40
0.59375
40
0.59375
40
0.625
40
0.625
40
0.65625
40
0.65625
40
0.6875
40
0.6875
40
0.71875
40
0.71875
40
0.75
40
0.75
40
0.78125
40
0.78125
40
0.8125
40
0.8125
40
0.84375
40
0.84375
40
0.875
40
0.875
40
0.90625
40
0.90625
40
0.9375
40
0.9375
40
0.96875
40
0.96875
40
1
40
1
40
1
40
1
41
1
10
51.7
20
-10.5227965898835
30
0
41
1
10
51.7807692720856
20
-10.9145448980359
30
0
41
1
10
51.8615385441713
20
-11.276939638742
30
0
41
1
10
52.0230770883426
20
-11.9357995039244
30
0
41
1
10
52.1038463604282
20
-12.2322567114222
30
0
41
1
10
52.2653849045995
20
-12.7554123512985
30
0
41
1
10
52.3461541766851
20
-12.9821166655433
30
0
41
1
10
52.5076927208564
20
-13.3654019538477
30
0
41
1
10
52.588461992942
20
-13.5219999592981
30
0
41
1
10
52.7500005371134
20
-13.7678164171228
30
0
41
1
10
52.830769809199
20
-13.8570586981935
30
0
41
1
10
52.9519237173274
20
-13.9443034649568
30
0
41
1
10
52.9923083533702
20
-13.9656322793756
30
0
41
1
10
53.0730776254559
20
-13.9936022039293
30
0
41
1
10
53.1134622614987
20
-14.0002444172575
30
0
41
1
10
53.2346161696272
20
-13.9994905889122
30
0
41
1
10
53.3153854417127
20
-13.9713076267812
30
0
41
1
10
53.476923985884
20
-13.8527226683929
30
0
41
1
10
53.5576932579697
20
-13.762294719703
30
0
41
1
10
53.7192318021409
20
-13.5140324866505
30
0
41
1
10
53.8000010742266
20
-13.3561744545568
30
0
41
1
10
53.9615396183979
20
-12.9703460669741
30
0
41
1
10
54.0423088904835
20
-12.7423588472148
30
0
41
1
10
54.2038474346547
20
-12.2166751242541
30
0
41
1
10
54.2846167067405
20
-11.9189729738765
30
0
41
1
10
54.4461552509117
20
-11.2577249791936
30
0
41
1
10
54.5269245229974
20
-10.8941873111454
30
0
41
1
10
54.6884630671686
20
-10.1085662817948
30
0
41
1
10
54.7692323392542
20
-9.68650471064964
30
0
41
1
10
54.9307708834255
20
-8.79411291035024
30
0
41
1
10
55.0115401555112
20
-8.32381481307505
30
0
41
1
10
55.1730786996824
20
-7.34738170381146
30
0
41
1
10
55.2538479717681
20
-6.84128364197719
30
0
41
1
10
55.4153865159394
20
-5.80677783237562
30
0
41
1
10
55.496155788025
20
-5.27840565416804
30
0
41
1
10
55.6576943321963
20
-4.21286260067842
30
0
41
1
10
55.7384636042819
20
-3.67572071957596
30
0
41
1
10
55.9000021484532
20
-2.60514594518833
30
0
41
1
10
55.9807714205388
20
-2.07173241116817
30
0
41
1
10
56.1019253286673
20
-1.28247093124156
30
0
41
1
10
56.1423099647101
20
-1.02117823102716
30
0
41
1
10
56.2230792367957
20
-0.503325399004609
30
0
41
1
10
56.2634638728386
20
-0.246867998190282
30
0
41
1
10
56.3846177809671
20
0.514521075432413
30
0
41
1
10
56.4653870530527
20
1.0336211687418
30
0
41
1
10
56.6269255972239
20
2.08622945586336
30
0
41
1
10
56.7076948693095
20
2.61972848493824
30
0
41
1
10
56.8692334134808
20
3.69036756033611
30
0
41
1
10
56.9500026855665
20
4.22748815330198
30
0
41
1
10
57.1115412297377
20
5.29286901630661
30
0
41
1
10
57.1923105018234
20
5.82110021481833
30
0
41
1
10
57.3538490459947
20
6.8551994695701
30
0
41
1
10
57.4346183180802
20
7.36103191764462
30
0
41
1
10
57.5961568622516
20
8.33681398893592
30
0
41
1
10
57.6769261343372
20
8.8067266775729
30
0
41
1
10
57.8384646785085
20
9.69824279634378
30
0
41
1
10
57.9192339505942
20
10.1198141661797
30
0
41
1
10
58.0807724947654
20
10.9043737201945
30
0
41
1
10
58.161541766851
20
11.267340227699
30
0
41
1
10
58.3230803110223
20
11.9273946201667
30
0
41
1
10
58.403849583108
20
12.2244744585058
30
0
41
1
10
58.5653881272792
20
12.7488943138288
30
0
41
1
10
58.6461573993648
20
12.9762400954467
30
0
41
1
10
58.8076959435362
20
13.3607968327452
30
0
41
1
10
58.8884652156218
20
13.5180247364411
30
0
41
1
10
59.0500037597931
20
13.7650637483983
30
0
41
1
10
59.1307730318787
20
13.8548986450711
30
0
41
1
10
59.2923115760499
20
13.9723537944712
30
0
41
1
10
59.3730808481357
20
14
30
0
41
1
10
59.4538501202213
20
14
30
0
0
SPLINE
5
10B
100
AcDbEntity
8
1
62
256
6
ByLayer
370
13
48
1
60
0
100
AcDbSpline
70
4
71
3
72
8
73
4
40
0
40
0
40
0
40
0
40
1
40
1
40
1
40
1
41
1
10
64.304416720273
20
0.31126179226311
30
0
41
1
10
66.0029444801821
20
0.183734350739286
30
0
41
1
10
67.7014722400911
20
0.0799791758836648
30
0
41
1
10
69.4000000000001
20
0
30
0
0
SPLINE
5
10C
100
AcDbEntity
8
1
62
256
6
ByLayer
370
13
48
1
60
0
100
AcDbSpline
70
4
71
3
72
8
73
4
40
0
40
0
40
0
40
0
40
1
40
1
40
1
40
1
41
1
10
64.3044167202732
20
2.81469975389004
30
0
41
1
10
66.0029444801821
20
1.89976033951933
30
0
41
1
10
67.701472240091
20
0.961514806846594
30
0
41
1
10
69.3999999999998
20
8.53E-14
30
0
0
SPLINE
5
10D
100
AcDbEntity
8
1
62
256
6
ByLayer
370
13
48
1
60
0
100
AcDbSpline
70
4
71
3
72
8
73
4
40
0
40
0
40
0
40
0
40
1
40
1
40
1
40
1
41
1
10
64.3044167202732
20
-13.3501393088706
30
0
41
1
10
66.0029444801822
20
-8.89293205591943
30
0
41
1
10
67.7014722400911
20
-4.44282787808385
30
0
41
1
10
69.3999999999999
20
-1.421E-13
30
0
0
SPLINE
5
10E
100
AcDbEntity
8
1
62
256
6
ByLayer
370
13
48
1
60
0
100
AcDbSpline
70
4
71
3
72
8
73
4
40
0
40
0
40
0
40
0
40
1
40
1
40
1
40
1
41
1
10
64.304416720273
20
7.1993511636887
30
0
41
1
10
66.002944480182
20
4.77917312813327
30
0
41
1
10
67.7014722400908
20
2.37935834007251
30
0
41
1
10
69.3999999999998
20
3.979E-13
30
0
0
SPLINE
5
10F
100
AcDbEntity
8
1
62
256
6
ByLayer
370
13
48
1
60
0
100
AcDbSpline
70
4
71
3
72
8
73
4
40
0
40
0
40
0
40
0
40
1
40
1
40
1
40
1
41
1
10
64.304416720273
20
-3.28305233731601
30
0
41
1
10
66.0029444801821
20
-2.21181786377642
30
0
41
1
10
67.7014722400911
20
-1.11745277727422
30
0
41
1
10
69.4000000000001
20
1.137E-13
30
0
0
SPLINE
5
110
100
AcDbEntity
8
1
62
256
6
ByLayer
370
13
48
1
60
0
100
AcDbSpline
70
4
71
3
72
8
73
4
40
0
40
0
40
0
40
0
40
1
40
1
40
1
40
1
41
1
10
64.3044167202732
20
0.417153656216954
30
0
41
1
10
66.0029444801822
20
0.301871267594066
30
0
41
1
10
67.7014722400911
20
0.162818140769332
30
0
41
1
10
69.3999999999999
20
0
30
0
0
SPLINE
5
111
100
AcDbEntity
8
1
62
256
6
ByLayer
370
13
48
1
60
0
100
AcDbSpline
70
4
71
3
72
8
73
4
40
0
40
0
40
0
40
0
40
1
40
1
40
1
40
1
41
1
10
64.304416720273
20
3.88482173813901
30
0
41
1
10
66.0029444801821
20
2.56703560300196
30
0
41
1
10
67.7014722400911
20
1.27207831097653
30
0
41
1
10
69.4000000000001
20
-1.421E-13
30
0
0
SPLINE
5
112
100
AcDbEntity
8
1
62
256
6
ByLayer
370
13
48
1
60
0
100
AcDbSpline
70
4
71
3
72
8
73
4
40
0
40
0
40
0
40
0
40
1
40
1
40
1
40
1
41
1
10
64.3044167202732
20
-9.58989856817237
30
0
41
1
10
66.0029444801822
20
-6.41059018282348
30
0
41
1
10
67.7014722400912
20
-3.21391575164782
30
0
41
1
10
69.4000000000001
20
3.126E-13
30
0
0
SPLINE
5
113
100
AcDbEntity
8
1
62
256
6
ByLayer
370
13
48
1
60
0
100
AcDbSpline
70
4
71
3
72
8
73
4
40
0
40
0
40
0
40
0
40
1
40
1
40
1
40
1
41
1
10
64.304416720273
20
10.0338452610705
30
0
41
1
10
66.0029444801821
20
6.67264694471976
30
0
41
1
10
67.7014722400911
20
3.32798850814038
30
0
41
1
10
69.4000000000001
20
-3.411E-13
30
0
0
SPLINE
5
114
100
AcDbEntity
8
1
62
256
6
ByLayer
370
13
48
1
60
0
100
AcDbSpline
70
4
71
3
72
8
73
4
40
0
40
0
40
0
40
0
40
1
40
1
40
1
40
1
41
1
10
64.3044167202732
20
12.7894627734228
30
0
41
1
10
66.0029444801821
20
8.53598112670176
30
0
41
1
10
67.7014722400911
20
4.2727714808218
30
0
41
1
10
69.4
20
0
30
0
0
SPLINE
5
115
100
AcDbEntity
8
1
62
256
6
ByLayer
370
13
48
1
60
0
100
AcDbSpline
70
4
71
3
72
8
73
4
40
0
40
0
40
0
40
0
40
1
40
1
40
1
40
1
41
1
10
64.3044167202732
20
-12.4759560470106
30
0
41
1
10
66.0029444801821
20
-8.32809342952103
30
0
41
1
10
67.7014722400909
20
-4.16938737764164
30
0
41
1
10
69.3999999999998
20
-6.821E-13
30
0
0
SPLINE
5
116
100
AcDbEntity
8
1
62
256
6
ByLayer
370
13
48
1
60
0
100
AcDbSpline
70
4
71
3
72
8
73
4
40
0
40
0
40
0
40
0
40
1
40
1
40
1
40
1
41
1
10
64.304416720273
20
-2.09758435116527
30
0
41
1
10
66.0029444801821
20
-1.42190053813351
30
0
41
1
10
67.7014722400911
20
-0.722696575402495
30
0
41
1
10
69.4000000000001
20
8.53E-14
30
0
0
SPLINE
5
117
100
AcDbEntity
8
1
62
256
6
ByLayer
370
13
48
1
60
0
100
AcDbSpline
70
4
71
3
72
8
73
4
40
0
40
0
40
0
40
0
40
1
40
1
40
1
40
1
41
1
10
64.304416720273
20
11.5617739497016
30
0
41
1
10
66.002944480182
20
7.69444003004492
30
0
41
1
10
67.7014722400908
20
3.84046540476439
30
0
41
1
10
69.3999999999998
20
6.537E-13
30
0
0
SPLINE
5
118
100
AcDbEntity
8
1
62
256
6
ByLayer
370
13
48
1
60
0
100
AcDbSpline
70
4
71
3
72
8
73
4
40
0
40
0
40
0
40
0
40
1
40
1
40
1
40
1
41
1
10
64.3044167202732
20
3.98647767106837
30
0
41
1
10
66.0029444801822
20
2.68044675705926
30
0
41
1
10
67.7014722400911
20
1.35160351663396
30
0
41
1
10
69.3999999999999
20
5.68E-14
30
0
0
SPLINE
5
119
100
AcDbEntity
8
1
62
256
6
ByLayer
370
13
48
1
60
0
100
AcDbSpline
70
4
71
3
72
8
73
4
40
0
40
0
40
0
40
0
40
1
40
1
40
1
40
1
41
1
10
64.3044167202732
20
-8.59152149356242
30
0
41
1
10
66.0029444801822
20
-5.70890586610395
30
0
41
1
10
67.7014722400911
20
-2.84502826981463
30
0
41
1
10
69.3999999999999
20
-8.53E-14
30
0
0
SPLINE
5
11A
100
AcDbEntity
8
1
62
256
6
ByLayer
370
13
48
1
60
0
100
AcDbSpline
70
4
71
3
72
8
73
4
40
0
40
0
40
0
40
0
40
1
40
1
40
1
40
1
41
1
10
64.3044167202732
20
-11.8819054122013
30
0
41
1
10
66.0029444801821
20
-7.93384630140039
30
0
41
1
10
67.7014722400909
20
-3.97315969080464
30
0
41
1
10
69.3999999999998
20
-6.537E-13
30
0
0
SPLINE
5
11B
100
AcDbEntity
8
1
62
256
6
ByLayer
370
13
48
1
60
0
100
AcDbSpline
70
4
71
3
72
8
73
4
40
0
40
0
40
0
40
0
40
1
40
1
40
1
40
1
41
1
10
64.304416720273
20
8.20764355765118
30
0
41
1
10
66.0029444801822
20
5.45249814739853
30
0
41
1
10
67.7014722400914
20
2.716581526422
30
0
41
1
10
69.4000000000007
20
-9.948E-13
30
0
0
SPLINE
5
11C
100
AcDbEntity
8
1
62
256
6
ByLayer
370
13
48
1
60
0
100
AcDbSpline
70
4
71
3
72
8
73
4
40
0
40
0
40
0
40
0
40
1
40
1
40
1
40
1
41
1
10
64.3044167202732
20
-6.56509024654321
30
0
41
1
10
66.0029444801822
20
-4.35572409811178
30
0
41
1
10
67.7014722400911
20
-2.16733236315389
30
0
41
1
10
69.3999999999999
20
-5.68E-14
30
0
0
SPLINE
5
11D
100
AcDbEntity
8
1
62
256
6
ByLayer
370
13
48
1
60
0
100
AcDbSpline
70
4
71
3
72
8
73
4
40
0
40
0
40
0
40
0
40
1
40
1
40
1
40
1
41
1
10
64.3044167202732
20
-11.1993876744056
30
0
41
1
10
66.0029444801822
20
-7.48052746941772
30
0
41
1
10
67.7014722400911
20
-3.74734971767953
30
0
41
1
10
69.3999999999999
20
-1.137E-13
30
0
0
SPLINE
5
11E
100
AcDbEntity
8
1
62
256
6
ByLayer
370
13
48
1
60
0
100
AcDbSpline
70
4
71
3
72
8
73
4
40
0
40
0
40
0
40
0
40
1
40
1
40
1
40
1
41
1
10
64.304416720273
20
12.7460093599783
30
0
41
1
10
66.0029444801821
20
8.48750287634797
30
0
41
1
10
67.7014722400911
20
4.23877797408636
30
0
41
1
10
69.4000000000001
20
-4.263E-13
30
0
0
SPLINE
5
11F
100
AcDbEntity
8
1
62
256
6
ByLayer
370
13
48
1
60
0
100
AcDbSpline
70
4
71
3
72
8
73
4
40
0
40
0
40
0
40
0
40
1
40
1
40
1
40
1
41
1
10
64.304416720273
20
13.9538500907194
30
0
41
1
10
66.002944480182
20
9.3006375198718
30
0
41
1
10
67.7014722400908
20
4.64929377956412
30
0
41
1
10
69.3999999999998
20
7.674E-13
30
0
0
SPLINE
5
120
100
AcDbEntity
8
1
62
256
6
ByLayer
370
13
48
1
60
0
100
AcDbSpline
70
4
71
3
72
8
73
4
40
0
40
0
40
0
40
0
40
1
40
1
40
1
40
1
41
1
10
64.304416720273
20
-5.57201165888156
30
0
41
1
10
66.0029444801821
20
-3.73648929498222
30
0
41
1
10
67.7014722400911
20
-1.87912786815198
30
0
41
1
10
69.4000000000001
20
1.99E-13
30
0
0
SPLINE
5
121
100
AcDbEntity
8
1
62
256
6
ByLayer
370
13
48
1
60
0
100
AcDbSpline
70
4
71
3
72
8
73
4
40
0
40
0
40
0
40
0
40
1
40
1
40
1
40
1
41
1
10
64.304416720273
20
10.8381575279179
30
0
41
1
10
66.002944480182
20
7.21038606626894
30
0
41
1
10
67.7014722400908
20
3.59762005346596
30
0
41
1
10
69.3999999999998
20
5.969E-13
30
0
0
SPLINE
5
122
100
AcDbEntity
8
1
62
256
6
ByLayer
370
13
48
1
60
0
100
AcDbSpline
70
4
71
3
72
8
73
4
40
0
40
0
40
0
40
0
40
1
40
1
40
1
40
1
41
1
10
64.304416720273
20
13.1978110862255
30
0
41
1
10
66.002944480182
20
8.79060698434137
30
0
41
1
10
67.7014722400908
20
4.39127954326401
30
0
41
1
10
69.3999999999998
20
7.39E-13
30
0
0
SPLINE
5
123
100
AcDbEntity
8
1
62
256
6
ByLayer
370
13
48
1
60
0
100
AcDbSpline
70
4
71
3
72
8
73
4
40
0
40
0
40
0
40
0
40
1
40
1
40
1
40
1
41
1
10
64.304416720273
20
9.15482568161056
30
0
41
1
10
66.0029444801822
20
6.08522641905472
30
0
41
1
10
67.7014722400914
20
3.033578318997
30
0
41
1
10
69.4000000000007
20
-1.1084E-12
30
0
0
SPLINE
5
124
100
AcDbEntity
8
1
62
256
6
ByLayer
370
13
48
1
60
0
100
AcDbSpline
70
4
71
3
72
8
73
4
40
0
40
0
40
0
40
0
40
1
40
1
40
1
40
1
41
1
10
64.3044167202732
20
-13.3816555327946
30
0
41
1
10
66.0029444801822
20
-8.92809273197389
30
0
41
1
10
67.7014722400911
20
-4.46748294854427
30
0
41
1
10
69.3999999999999
20
-1.421E-13
30
0
0
SPLINE
5
125
100
AcDbEntity
8
1
62
256
6
ByLayer
370
13
48
1
60
0
100
AcDbSpline
70
4
71
3
72
8
73
4
40
0
40
0
40
0
40
0
40
1
40
1
40
1
40
1
41
1
10
64.304416720273
20
-4.44407625333159
30
0
41
1
10
66.0029444801821
20
-2.98526702947746
30
0
41
1
10
67.7014722400911
20
-1.50388894910867
30
0
41
1
10
69.4000000000001
20
1.421E-13
30
0
0
SPLINE
5
126
100
AcDbEntity
8
1
62
256
6
ByLayer
370
13
48
1
60
0
100
AcDbSpline
70
4
71
3
72
8
73
4
40
0
40
0
40
0
40
0
40
1
40
1
40
1
40
1
41
1
10
64.304416720273
20
13.5513480921221
30
0
41
1
10
66.0029444801821
20
9.02826034967794
30
0
41
1
10
67.7014722400911
20
4.51108570155105
30
0
41
1
10
69.4000000000001
20
-4.547E-13
30
0
0
SPLINE
5
127
100
AcDbEntity
8
1
62
256
6
ByLayer
370
13
48
1
60
0
100
AcDbSpline
70
4
71
3
72
8
73
4
40
0
40
0
40
0
40
0
40
1
40
1
40
1
40
1
41
1
10
64.3044167202732
20
-4.34350059222913
30
0
41
1
10
66.0029444801822
20
-2.87306106700205
30
0
41
1
10
67.7014722400911
20
-1.42520883765056
30
0
41
1
10
69.3999999999999
20
-5.68E-14
30
0
0
SPLINE
5
128
100
AcDbEntity
8
1
62
256
6
ByLayer
370
13
48
1
60
0
100
AcDbSpline
70
4
71
3
72
8
73
4
40
0
40
0
40
0
40
0
40
1
40
1
40
1
40
1
41
1
10
64.3044167202732
20
13.5775616052001
30
0
41
1
10
66.0029444801821
20
9.05750512353842
30
0
41
1
10
67.7014722400911
20
4.5315924733498
30
0
41
1
10
69.4
20
0
30
0
0
SPLINE
5
129
100
AcDbEntity
8
1
62
256
6
ByLayer
370
13
48
1
60
0
100
AcDbSpline
70
4
71
3
72
8
73
4
40
0
40
0
40
0
40
0
40
1
40
1
40
1
40
1
41
1
10
64.3044167202732
20
-13.8758863545762
30
0
41
1
10
66.0029444801822
20
-9.24743156020199
30
0
41
1
10
67.7014722400911
20
-4.62207607465214
30
0
41
1
10
69.3999999999999
20
-1.421E-13
30
0
0
SPLINE
5
12A
100
AcDbEntity
8
1
62
256
6
ByLayer
370
13
48
1
60
0
100
AcDbSpline
70
4
71
3
72
8
73
4
40
0
40
0
40
0
40
0
40
1
40
1
40
1
40
1
41
1
10
64.3044167202732
20
8.29322246110257
30
0
41
1
10
66.0029444801821
20
5.54797316714146
30
0
41
1
10
67.7014722400911
20
2.78352970840075
30
0
41
1
10
69.4
20
0
30
0
0
SPLINE
5
12B
100
AcDbEntity
8
1
62
256
6
ByLayer
370
13
48
1
60
0
100
AcDbSpline
70
4
71
3
72
8
73
4
40
0
40
0
40
0
40
0
40
1
40
1
40
1
40
1
41
1
10
64.3044167202732
20
-13.686560969569
30
0
41
1
10
66.0029444801822
20
-9.12937759250099
30
0
41
1
10
67.7014722400911
20
-4.56713135259798
30
0
41
1
10
69.3999999999999
20
-1.421E-13
30
0
0
SPLINE
5
12C
100
AcDbEntity
8
1
62
256
6
ByLayer
370
13
48
1
60
0
100
AcDbSpline
70
4
71
3
72
8
73
4
40
0
40
0
40
0
40
0
40
1
40
1
40
1
40
1
41
1
10
64.3044167202732
20
9.2347044779851
30
0
41
1
10
66.0029444801821
20
6.17434218653167
30
0
41
1
10
67.7014722400911
20
3.09606732014404
30
0
41
1
10
69.4
20
0
30
0
0
SPLINE
5
12D
100
AcDbEntity
8
1
62
256
6
ByLayer
370
13
48
1
60
0
100
AcDbSpline
70
4
71
3
72
8
73
4
40
0
40
0
40
0
40
0
40
1
40
1
40
1
40
1
41
1
10
64.3044167202732
20
-12.9771165560214
30
0
41
1
10
66.0029444801822
20
-8.66033347430331
30
0
41
1
10
67.7014722400911
20
-4.3345717587346
30
0
41
1
10
69.3999999999999
20
-1.421E-13
30
0
0
SPLINE
5
12E
100
AcDbEntity
8
1
62
256
6
ByLayer
370
13
48
1
60
0
100
AcDbSpline
70
4
71
3
72
8
73
4
40
0
40
0
40
0
40
0
40
1
40
1
40
1
40
1
41
1
10
64.3044167202732
20
13.8212563346619
30
0
41
1
10
66.0029444801821
20
9.21795859652292
30
0
41
1
10
67.7014722400911
20
4.61081332395847
30
0
41
1
10
69.4
20
0
30
0
0
SPLINE
5
12F
100
AcDbEntity
8
1
62
256
6
ByLayer
370
13
48
1
60
0
100
AcDbSpline
70
4
71
3
72
8
73
4
40
0
40
0
40
0
40
0
40
1
40
1
40
1
40
1
41
1
10
64.3044167202732
20
-10.3625552383454
30
0
41
1
10
66.0029444801822
20
-6.8923807550762
30
0
41
1
10
67.7014722400911
20
-3.43815090101458
30
0
41
1
10
69.3999999999999
20
-1.137E-13
30
0
0
SPLINE
5
130
100
AcDbEntity
8
1
62
256
6
ByLayer
370
13
48
1
60
0
100
AcDbSpline
70
4
71
3
72
8
73
4
40
0
40
0
40
0
40
0
40
1
40
1
40
1
40
1
41
1
10
64.3044167202732
20
5.12857414251519
30
0
41
1
10
66.0029444801822
20
3.44117582339334
30
0
41
1
10
67.7014722400911
20
1.73162881963984
30
0
41
1
10
69.3999999999999
20
5.68E-14
30
0
0
SPLINE
5
131
100
AcDbEntity
8
1
62
256
6
ByLayer
370
13
48
1
60
0
100
AcDbSpline
70
4
71
3
72
8
73
4
40
0
40
0
40
0
40
0
40
1
40
1
40
1
40
1
41
1
10
64.3044167202732
20
-13.8895626832603
30
0
41
1
10
66.0029444801822
20
-9.26268938308166
30
0
41
1
10
67.7014722400912
20
-4.63277503554752
30
0
41
1
10
69.4000000000001
20
4.547E-13
30
0
0
SPLINE
5
132
100
AcDbEntity
8
1
62
256
6
ByLayer
370
13
48
1
60
0
100
AcDbSpline
70
4
71
3
72
8
73
4
40
0
40
0
40
0
40
0
40
1
40
1
40
1
40
1
41
1
10
64.3044167202732
20
10.1074292102604
30
0
41
1
10
66.0029444801821
20
6.75473994566181
30
0
41
1
10
67.7014722400911
20
3.38555306461839
30
0
41
1
10
69.4
20
0
30
0
0
SPLINE
5
133
100
AcDbEntity
8
1
62
256
6
ByLayer
370
13
48
1
60
0
100
AcDbSpline
70
4
71
3
72
8
73
4
40
0
40
0
40
0
40
0
40
1
40
1
40
1
40
1
41
1
10
64.304416720273
20
-7.6953335131864
30
0
41
1
10
66.0029444801821
20
-5.15008726454494
30
0
41
1
10
67.7014722400911
20
-2.58494270607358
30
0
41
1
10
69.4000000000001
20
2.558E-13
30
0
0
SPLINE
5
134
100
AcDbEntity
8
1
62
256
6
ByLayer
370
13
48
1
60
0
100
AcDbSpline
70
4
71
3
72
8
73
4
40
0
40
0
40
0
40
0
40
1
40
1
40
1
40
1
41
1
10
64.3044167202732
20
6.23248565278786
30
0
41
1
10
66.0029444801822
20
4.17628350616965
30
0
41
1
10
67.7014722400911
20
2.09876122543713
30
0
41
1
10
69.3999999999999
20
5.68E-14
30
0
0
SPLINE
5
135
100
AcDbEntity
8
1
62
256
6
ByLayer
370
13
48
1
60
0
100
AcDbSpline
70
4
71
3
72
8
73
4
40
0
40
0
40
0
40
0
40
1
40
1
40
1
40
1
41
1
10
64.3044167202732
20
10.9048987582994
30
0
41
1
10
66.0029444801821
20
7.28484507463807
30
0
41
1
10
67.7014722400911
20
3.64983156654677
30
0
41
1
10
69.4
20
0
30
0
0
SPLINE
5
136
100
AcDbEntity
8
1
62
256
6
ByLayer
370
13
48
1
60
0
100
AcDbSpline
70
4
71
3
72
8
73
4
40
0
40
0
40
0
40
0
40
1
40
1
40
1
40
1
41
1
10
64.304416720273
20
13.8039881066962
30
0
41
1
10
66.002944480182
20
9.19869351670243
30
0
41
1
10
67.7014722400908
20
4.59730442840555
30
0
41
1
10
69.3999999999998
20
7.674E-13
30
0
0
SPLINE
5
137
100
AcDbEntity
8
1
62
256
6
ByLayer
370
13
48
1
60
0
100
AcDbSpline
70
4
71
3
72
8
73
4
40
0
40
0
40
0
40
0
40
1
40
1
40
1
40
1
41
1
10
64.3044167202732
20
-9.51245099349558
30
0
41
1
10
66.0029444801822
20
-6.3241867770418
30
0
41
1
10
67.7014722400911
20
-3.15332868971925
30
0
41
1
10
69.3999999999999
20
-1.137E-13
30
0
0
SPLINE
5
138
100
AcDbEntity
8
1
62
256
6
ByLayer
370
13
48
1
60
0
100
AcDbSpline
70
4
71
3
72
8
73
4
40
0
40
0
40
0
40
0
40
1
40
1
40
1
40
1
41
1
10
64.3044167202732
20
-11.8255445085098
30
0
41
1
10
66.0029444801822
20
-7.87096797303153
30
0
41
1
10
67.7014722400911
20
-3.92906868373822
30
0
41
1
10
69.3999999999999
20
-1.421E-13
30
0
0
SPLINE
5
139
100
AcDbEntity
8
1
62
256
6
ByLayer
370
13
48
1
60
0
100
AcDbSpline
70
4
71
3
72
8
73
4
40
0
40
0
40
0
40
0
40
1
40
1
40
1
40
1
41
1
10
64.3044167202732
20
7.2899929937814
30
0
41
1
10
66.0029444801822
20
4.88029653785901
30
0
41
1
10
67.7014722400911
20
2.45026723807322
30
0
41
1
10
69.4
20
0
30
0
0
SPLINE
5
13A
100
AcDbEntity
8
1
62
256
6
ByLayer
370
13
48
1
60
0
100
AcDbSpline
70
4
71
3
72
8
73
4
40
0
40
0
40
0
40
0
40
1
40
1
40
1
40
1
41
1
10
64.3044167202732
20
-5.47467635747364
30
0
41
1
10
66.0029444801822
20
-3.6278983987595
30
0
41
1
10
67.7014722400911
20
-1.80298268273003
30
0
41
1
10
69.3999999999999
20
-5.68E-14
30
0
0
SPLINE
5
13B
100
AcDbEntity
8
1
62
256
6
ByLayer
370
13
48
1
60
0
100
AcDbSpline
70
4
71
3
72
8
73
4
40
0
40
0
40
0
40
0
40
1
40
1
40
1
40
1
41
1
10
64.3044167202732
20
-12.9369994744976
30
0
41
1
10
66.0029444801822
20
-8.6155773604012
30
0
41
1
10
67.7014722400911
20
-4.30318825689056
30
0
41
1
10
69.3999999999999
20
-1.421E-13
30
0
0
SPLINE
5
13C
100
AcDbEntity
8
1
62
256
6
ByLayer
370
13
48
1
60
0
100
AcDbSpline
70
4
71
3
72
8
73
4
40
0
40
0
40
0
40
0
40
1
40
1
40
1
40
1
41
1
10
64.3044167202732
20
12.2509264859146
30
0
41
1
10
66.0029444801821
20
8.1787936262821
30
0
41
1
10
67.7014722400911
20
4.09509839879792
30
0
41
1
10
69.4
20
0
30
0
0
SPLINE
5
13D
100
AcDbEntity
8
1
62
256
6
ByLayer
370
13
48
1
60
0
100
AcDbSpline
70
4
71
3
72
8
73
4
40
0
40
0
40
0
40
0
40
1
40
1
40
1
40
1
41
1
10
64.3044167202732
20
-7.60662354829893
30
0
41
1
10
66.0029444801822
20
-5.05111911576779
30
0
41
1
10
67.7014722400911
20
-2.51554510183942
30
0
41
1
10
69.3999999999999
20
-8.53E-14
30
0
0
SPLINE
5
13E
100
AcDbEntity
8
1
62
256
6
ByLayer
370
13
48
1
60
0
100
AcDbSpline
70
4
71
3
72
8
73
4
40
0
40
0
40
0
40
0
40
1
40
1
40
1
40
1
41
1
10
64.304416720273
20
6.13745577266991
30
0
41
1
10
66.0029444801821
20
4.07026462400955
30
0
41
1
10
67.7014722400911
20
2.02441956585841
30
0
41
1
10
69.4000000000001
20
-1.99E-13
30
0
0
SPLINE
5
13F
100
AcDbEntity
8
1
62
256
6
ByLayer
370
13
48
1
60
0
100
AcDbSpline
70
4
71
3
72
8
73
4
40
0
40
0
40
0
40
0
40
1
40
1
40
1
40
1
41
1
10
64.3044167202732
20
-13.9845790996323
30
0
41
1
10
66.0029444801822
20
-9.32193693168193
30
0
41
1
10
67.7014722400911
20
-4.66035005190375
30
0
41
1
10
69.3999999999999
20
-1.421E-13
30
0
0
SPLINE
5
140
100
AcDbEntity
8
1
62
256
6
ByLayer
370
13
48
1
60
0
100
AcDbSpline
70
4
71
3
72
8
73
4
40
0
40
0
40
0
40
0
40
1
40
1
40
1
40
1
41
1
10
64.304416720273
20
12.1993068174398
30
0
41
1
10
66.002944480182
20
8.12120479693317
30
0
41
1
10
67.7014722400908
20
4.05471644928352
30
0
41
1
10
69.3999999999998
20
6.821E-13
30
0
0
SPLINE
5
141
100
AcDbEntity
8
1
62
256
6
ByLayer
370
13
48
1
60
0
100
AcDbSpline
70
4
71
3
72
8
73
4
40
0
40
0
40
0
40
0
40
1
40
1
40
1
40
1
41
1
10
64.3044167202732
20
-11.1355047500384
30
0
41
1
10
66.0029444801822
20
-7.40925729395178
30
0
41
1
10
67.7014722400911
20
-3.69737425090756
30
0
41
1
10
69.3999999999999
20
-1.137E-13
30
0
0
SPLINE
5
142
100
AcDbEntity
8
1
62
256
6
ByLayer
370
13
48
1
60
0
100
AcDbSpline
70
4
71
3
72
8
73
4
40
0
40
0
40
0
40
0
40
1
40
1
40
1
40
1
41
1
10
64.304416720273
20
2.71085515266054
30
0
41
1
10
66.0029444801821
20
1.78390742539341
30
0
41
1
10
67.7014722400911
20
0.880277410944416
30
0
41
1
10
69.4000000000001
20
-8.53E-14
30
0
0
SPLINE
5
143
100
AcDbEntity
8
1
62
256
6
ByLayer
370
13
48
1
60
0
100
AcDbSpline
70
4
71
3
72
8
73
4
40
0
40
0
40
0
40
0
40
1
40
1
40
1
40
1
41
1
10
64.3044167202732
20
1.62196490056678
30
0
41
1
10
66.0029444801822
20
1.10492919621564
30
0
41
1
10
67.7014722400911
20
0.564267108118401
30
0
41
1
10
69.4
20
-2.84E-14
30
0
0
SPLINE
5
144
100
AcDbEntity
8
1
62
256
6
ByLayer
370
13
48
1
60
0
100
AcDbSpline
70
4
71
3
72
8
73
4
40
0
40
0
40
0
40
0
40
1
40
1
40
1
40
1
41
1
10
64.3044167202732
20
-0.790763518889435
30
0
41
1
10
66.0029444801822
20
-0.503434253109162
30
0
41
1
10
67.7014722400911
20
-0.239843094202485
30
0
41
1
10
69.3999999999999
20
0
30
0
0
SPLINE
5
145
100
AcDbEntity
8
1
62
256
6
ByLayer
370
13
48
1
60
0
100
AcDbSpline
70
4
71
3
72
8
73
4
40
0
40
0
40
0
40
0
40
1
40
1
40
1
40
1
41
1
10
64.3044167202732
20
-1.99279303917641
30
0
41
1
10
66.0029444801822
20
-1.30499143813961
30
0
41
1
10
67.7014722400911
20
-0.640718569821786
30
0
41
1
10
69.3999999999999
20
-2.84E-14
30
0
0
SPLINE
5
146
100
AcDbEntity
8
1
62
256
6
ByLayer
370
13
48
1
60
0
100
AcDbSpline
70
4
71
3
72
8
73
4
40
0
40
0
40
0
40
0
40
1
40
1
40
1
40
1
41
1
10
64.3044167202732
20
-8.67491070183979
30
0
41
1
10
66.0029444801822
20
-5.8019379801589
30
0
41
1
10
67.7014722400911
20
-2.91026345822667
30
0
41
1
10
69.3999999999999
20
-8.53E-14
30
0
0
SPLINE
5
147
100
AcDbEntity
8
1
62
256
6
ByLayer
370
13
48
1
60
0
100
AcDbSpline
70
4
71
3
72
8
73
4
40
0
40
0
40
0
40
0
40
1
40
1
40
1
40
1
41
1
10
64.3044167202732
20
-10.433484541052
30
0
41
1
10
66.0029444801822
20
-6.97151213329101
30
0
41
1
10
67.7014722400912
20
-3.49363873357186
30
0
41
1
10
69.4000000000001
20
3.411E-13
30
0
0
SPLINE
5
148
100
AcDbEntity
8
1
62
256
6
ByLayer
370
13
48
1
60
0
100
AcDbSpline
70
4
71
3
72
8
73
4
40
0
40
0
40
0
40
0
40
1
40
1
40
1
40
1
41
1
10
64.3044167202732
20
-13.9891492181811
30
0
41
1
10
66.0029444801822
20
-9.32703552655843
30
0
41
1
10
67.7014722400911
20
-4.66392524527416
30
0
41
1
10
69.3999999999999
20
-1.421E-13
30
0
0
SPLINE
5
149
100
AcDbEntity
8
1
62
256
6
ByLayer
370
13
48
1
60
0
100
AcDbSpline
70
4
71
3
72
8
73
4
40
0
40
0
40
0
40
0
40
1
40
1
40
1
40
1
41
1
10
64.304416720273
20
5.02986376035349
30
0
41
1
10
66.0029444801821
20
3.3310508357433
30
0
41
1
10
67.7014722400911
20
1.65440791166398
30
0
41
1
10
69.4000000000001
20
-1.705E-13
30
0
0
SPLINE
5
14A
100
AcDbEntity
8
1
62
256
6
ByLayer
370
13
48
1
60
0
100
AcDbSpline
70
4
71
3
72
8
73
4
40
0
40
0
40
0
40
0
40
1
40
1
40
1
40
1
41
1
10
64.304416720273
20
-0.896498734308011
30
0
41
1
10
66.0029444801821
20
-0.621396407009541
30
0
41
1
10
67.7014722400911
20
-0.322559513294436
30
0
41
1
10
69.4000000000001
20
2.84E-14
30
0
0
SPLINE
5
14B
100
AcDbEntity
8
1
62
256
6
ByLayer
370
13
48
1
60
0
100
AcDbSpline
70
4
71
3
72
8
73
4
40
0
40
0
40
0
40
0
40
1
40
1
40
1
40
1
41
1
10
64.304416720273
20
1.51670480930386
30
0
41
1
10
66.0029444801821
20
0.987497108561769
30
0
41
1
10
67.7014722400911
20
0.481922377575188
30
0
41
1
10
69.4000000000001
20
-5.68E-14
30
0
0
SPLINE
5
14C
100
AcDbEntity
8
1
62
256
6
ByLayer
370
13
48
1
60
0
100
AcDbSpline
70
4
71
3
72
8
73
4
40
0
40
0
40
0
40
0
40
1
40
1
40
1
40
1
41
1
10
64.3044167202732
20
-12.4275368008879
30
0
41
1
10
66.0029444801822
20
-8.2740751108343
30
0
41
1
10
67.7014722400911
20
-4.13150911127039
30
0
41
1
10
69.3999999999999
20
-1.421E-13
30
0
0
SPLINE
5
14D
100
AcDbEntity
8
1
62
256
6
ByLayer
370
13
48
1
60
0
100
AcDbSpline
70
4
71
3
72
8
73
4
40
0
40
0
40
0
40
0
40
1
40
1
40
1
40
1
41
1
10
64.3044167202732
20
-3.17998515578853
30
0
41
1
10
66.0029444801822
20
-2.09683226809491
30
0
41
1
10
67.7014722400911
20
-1.03682355504114
30
0
41
1
10
69.4
20
2.84E-14
30
0
0
SPLINE
5
14E
100
AcDbEntity
8
1
62
256
6
ByLayer
370
13
48
1
60
0
100
AcDbSpline
70
4
71
3
72
8
73
4
40
0
40
0
40
0
40
0
40
1
40
1
40
1
40
1
41
1
10
64.3044167202732
20
11.6211755373306
30
0
41
1
10
66.0029444801821
20
7.76071065893689
30
0
41
1
10
67.7014722400911
20
3.8869351319747
30
0
41
1
10
69.4
20
0
30
0
0
SPLINE
5
14F
100
AcDbEntity
8
1
62
256
6
ByLayer
370
13
48
1
60
0
100
AcDbSpline
70
4
71
3
72
8
73
4
40
0
40
0
40
0
40
0
40
1
40
1
40
1
40
1
41
1
10
64.3044167202732
20
13.9620444624347
30
0
41
1
10
66.0029444801821
20
9.30977946689083
30
0
41
1
10
67.7014722400911
20
4.65570421796244
30
0
41
1
10
69.4
20
0
30
0
0
SPLINE
5
150
100
AcDbEntity
8
1
62
256
6
ByLayer
370
13
48
1
60
0
100
AcDbSpline
70
4
71
3
72
8
73
4
40
0
40
0
40
0
40
0
40
1
40
1
40
1
40
1
41
1
10
64.3044167202732
20
13.2327747108739
30
0
41
1
10
66.0029444801821
20
8.82961370935118
30
0
41
1
10
67.7014722400911
20
4.4186315074881
30
0
41
1
10
69.4
20
-8.53E-14
30
0
0
SPLINE
5
151
100
AcDbEntity
8
1
62
256
6
ByLayer
370
13
48
1
60
0
100
AcDbSpline
70
4
71
3
72
8
73
4
40
0
40
0
40
0
40
0
40
1
40
1
40
1
40
1
41
1
10
64.304416720273
20
-6.65846047518789
30
0
41
1
10
66.0029444801821
20
-4.45989141112545
30
0
41
1
10
67.7014722400911
20
-2.24037568115045
30
0
41
1
10
69.4000000000001
20
2.274E-13
30
0
0
SPLINE
5
152
100
AcDbEntity
8
1
62
256
6
ByLayer
370
13
48
1
60
0
100
AcDbSpline
70
4
71
3
72
8
73
4
40
0
40
0
40
0
40
0
40
1
40
1
40
1
40
1
41
1
10
64.3044167202732
20
-13.663880258288
30
0
41
1
10
66.0029444801822
20
-9.1040741442211
30
0
41
1
10
67.7014722400911
20
-4.54938828362896
30
0
41
1
10
69.3999999999999
20
-1.421E-13
30
0
0
LINE
5
7D
100
AcDbEntity
8
80
62
256
6
ByLayer
370
18
48
1
60
0
100
AcDbLine
10
0
20
0
30
0
11
-5
21
0
31
0
39
0
210
0
220
0
230
1
0
LINE
5
7E
100
AcDbEntity
8
4
62
256
6
ByLayer
370
18
48
0.05
60
0
100
AcDbLine
10
-5
20
0
30
0
11
74.4
21
0
31
0
39
0
210
0
220
0
230
1
0
LINE
5
80
100
AcDbEntity
8
81
62
256
6
ByLayer
370
18
48
1
60
0
100
AcDbLine
10
69.4
20
0
30
0
11
74.4
21
0
31
0
39
0
210
0
220
0
230
1
0
LINE
5
81
100
AcDbEntity
8
SK4
62
256
6
ByLayer
370
18
48
0.05
60
0
100
AcDbLine
10
-65
20
0
30
0
11
74.4
21
0
31
0
39
0
210
0
220
0
230
1
0
LINE
5
83
100
AcDbEntity
8
1
62
256
6
ByLayer
370
18
48
1
60
0
100
AcDbLine
10
69.4
20
0
30
0
11
64.304417
21
14
31
0
39
0
210
0
220
0
230
1
0
LINE
5
84
100
AcDbEntity
8
1
62
256
6
ByLayer
370
18
48
1
60
0
100
AcDbLine
10
64.304417
20
-14
30
0
11
69.4
21
0
31
0
39
0
210
0
220
0
230
1
0
LINE
5
85
100
AcDbEntity
8
1
62
256
6
ByLayer
370
18
48
1
60
0
100
AcDbLine
10
7.267674
20
16.828494
30
0
11
3
21
18.5
31
0
39
0
210
0
220
0
230
1
0
LINE
5
86
100
AcDbEntity
8
1
62
256
6
ByLayer
370
18
48
1
60
0
100
AcDbLine
10
3
20
-18.5
30
0
11
7.267674
21
-16.828494
31
0
39
0
210
0
220
0
230
1
0
LINE
5
87
100
AcDbEntity
8
1
62
256
6
ByLayer
370
18
48
1
60
0
100
AcDbLine
10
0
20
-18.5
30
0
11
3
21
-18.5
31
0
39
0
210
0
220
0
230
1
0
LINE
5
88
100
AcDbEntity
8
1
62
256
6
ByLayer
370
18
48
1
60
0
100
AcDbLine
10
3
20
18.5
30
0
11
0
21
18.5
31
0
39
0
210
0
220
0
230
1
0
LINE
5
89
100
AcDbEntity
8
1
62
256
6
ByLayer
370
18
48
1
60
0
100
AcDbLine
10
69.4
20
0
30
0
11
64.304417
21
14
31
0
39
0
210
0
220
0
230
1
0
LINE
5
8A
100
AcDbEntity
8
1
62
256
6
ByLayer
370
18
48
1
60
0
100
AcDbLine
10
64.304417
20
-14
30
0
11
69.4
21
0
31
0
39
0
210
0
220
0
230
1
0
LINE
5
8B
100
AcDbEntity
8
1
62
256
6
ByLayer
370
18
48
1
60
0
100
AcDbLine
10
64.304417
20
14
30
0
11
51.7
21
14
31
0
39
0
210
0
220
0
230
1
0
LINE
5
8C
100
AcDbEntity
8
1
62
256
6
ByLayer
370
18
48
1
60
0
100
AcDbLine
10
51.7
20
-14
30
0
11
64.304417
21
-14
31
0
39
0
210
0
220
0
230
1
0
LINE
5
8D
100
AcDbEntity
8
SK1
62
256
6
ByLayer
370
18
48
1
60
0
100
AcDbLine
10
-60
20
-15
30
0
11
-59
21
-16
31
0
39
0
210
0
220
0
230
1
0
LINE
5
8F
100
AcDbEntity
8
SK1
62
256
6
ByLayer
370
18
48
1
60
0
100
AcDbLine
10
-59
20
16
30
0
11
-60
21
15
31
0
39
0
210
0
220
0
230
1
0
LINE
5
90
100
AcDbEntity
8
SK1
62
256
6
ByLayer
370
18
48
1
60
0
100
AcDbLine
10
-59
20
-16
30
0
11
0
21
-16
31
0
39
0
210
0
220
0
230
1
0
LINE
5
91
100
AcDbEntity
8
SK1
62
256
6
ByLayer
370
18
48
1
60
0
100
AcDbLine
10
0
20
16
30
0
11
-59
21
16
31
0
39
0
210
0
220
0
230
1
0
LINE
5
92
100
AcDbEntity
8
1
62
256
6
ByLayer
370
18
48
1
60
0
100
AcDbLine
10
64.304417
20
14
30
0
11
64.304417
21
13.555433
31
0
39
0
210
0
220
0
230
1
0
LINE
5
93
100
AcDbEntity
8
1
62
256
6
ByLayer
370
18
48
1
60
0
100
AcDbLine
10
64.304417
20
-14
30
0
11
64.304417
21
-1.997638
31
0
39
0
210
0
220
0
230
1
0
LINE
5
94
100
AcDbEntity
8
1
62
256
6
ByLayer
370
18
48
1
60
0
100
AcDbLine
10
15
20
-8.801528
30
0
11
15
21
12.563775
31
0
39
0
210
0
220
0
230
1
0
LINE
5
95
100
AcDbEntity
8
1
62
256
6
ByLayer
370
18
48
1
60
0
100
AcDbLine
10
0
20
-18.5
30
0
11
0
21
18.5
31
0
39
0
210
0
220
0
230
1
0
LINE
5
96
100
AcDbEntity
8
1
62
256
6
ByLayer
370
18
48
1
60
0
100
AcDbLine
10
3
20
-18.5
30
0
11
3
21
18.5
31
0
39
0
210
0
220
0
230
1
0
LINE
5
97
100
AcDbEntity
8
SK1
62
256
6
ByLayer
370
13
48
1
60
0
100
AcDbLine
10
-15.198909
20
-8.334638
30
0
11
-15.198909
21
8.334638
31
0
39
0
210
0
220
0
230
1
0
LINE
5
98
100
AcDbEntity
8
SK1
62
256
6
ByLayer
370
13
48
1
60
0
100
AcDbLine
10
-55.486983
20
5.39045
30
0
11
-55.486983
21
-5.39045
31
0
39
0
210
0
220
0
230
1
0
LINE
5
99
100
AcDbEntity
8
SK1
62
256
6
ByLayer
370
18
48
1
60
0
100
AcDbLine
10
-60
20
-15
30
0
11
-60
21
15
31
0
39
0
210
0
220
0
230
1
0
LINE
5
9A
100
AcDbEntity
8
SK1
62
256
6
ByLayer
370
18
48
1
60
0
100
AcDbLine
10
-59
20
-16
30
0
11
-59
21
16
31
0
39
0
210
0
220
0
230
1
0
LINE
5
9B
100
AcDbEntity
8
SK1
62
256
6
ByLayer
370
13
48
1
60
0
100
AcDbLine
10
-14.051873
20
7.587342
30
0
11
-14.051873
21
-7.587342
31
0
39
0
210
0
220
0
230
1
0
LINE
5
9C
100
AcDbEntity
8
SK1
62
256
6
ByLayer
370
13
48
1
60
0
100
AcDbLine
10
-56.60131
20
-3.674042
30
0
11
-56.60131
21
3.674042
31
0
39
0
210
0
220
0
230
1
0
LINE
5
9D
100
AcDbEntity
8
1
62
256
6
ByLayer
370
18
48
1
60
0
100
AcDbLine
10
64.304417
20
14
30
0
11
64.304417
21
-14
31
0
39
0
210
0
220
0
230
1
0
LINE
5
9E
100
AcDbEntity
8
1
62
256
6
ByLayer
370
18
48
1
60
0
100
AcDbLine
10
64.304417
20
14
30
0
11
64.304417
21
-14
31
0
39
0
210
0
220
0
230
1
0
LINE
5
9F
100
AcDbEntity
8
1
62
256
6
ByLayer
370
18
48
1
60
0
100
AcDbLine
10
64.304417
20
14
30
0
11
64.304417
21
-14
31
0
39
0
210
0
220
0
230
1
0
LINE
5
A0
100
AcDbEntity
8
1
62
256
6
ByLayer
370
18
48
1
60
0
100
AcDbLine
10
51.7
20
14
30
0
11
51.7
21
-14
31
0
39
0
210
0
220
0
230
1
0
LINE
5
A1
100
AcDbEntity
8
1
62
256
6
ByLayer
370
18
48
1
60
0
100
AcDbLine
10
51.7
20
14
30
0
11
51.7
21
-14
31
0
39
0
210
0
220
0
230
1
0
LINE
5
A2
100
AcDbEntity
8
1
62
256
6
ByLayer
370
18
48
1
60
0
100
AcDbLine
10
64.304417
20
14
30
0
11
64.304417
21
-14
31
0
39
0
210
0
220
0
230
1
0
LINE
5
A3
100
AcDbEntity
8
1
62
256
6
ByLayer
370
18
48
1
60
0
100
AcDbLine
10
51.7
20
14
30
0
11
51.7
21
-14
31
0
39
0
210
0
220
0
230
1
0
LINE
5
A4
100
AcDbEntity
8
1
62
256
6
ByLayer
370
18
48
1
60
0
100
AcDbLine
10
64.304417
20
14
30
0
11
64.304417
21
-14
31
0
39
0
210
0
220
0
230
1
0
LINE
5
A5
100
AcDbEntity
8
SK2
62
256
6
ByLayer
370
13
48
1
60
0
100
AcDbLine
10
-66.5
20
-16
30
0
11
-66.5
21
45.024569
31
0
39
0
210
0
220
0
230
1
0
LINE
5
A7
100
AcDbEntity
8
SK2
62
256
6
ByLayer
370
13
48
1
60
0
100
AcDbLine
10
-61.5875
20
16
30
0
11
-68.5
21
16
31
0
39
0
210
0
220
0
230
1
0
LINE
5
A8
100
AcDbEntity
8
SK2
62
256
6
ByLayer
370
13
48
1
60
0
100
AcDbLine
10
-61.5875
20
-16
30
0
11
-68.5
21
-16
31
0
39
0
210
0
220
0
230
1
0
LINE
5
A9
100
AcDbEntity
8
1
62
256
6
ByLayer
370
18
48
1
60
1
100
AcDbLine
10
-66.5
20
16
30
0
11
-66.039216
21
12.500002
31
0
39
0
210
0
220
0
230
1
0
LINE
5
AA
100
AcDbEntity
8
1
62
256
6
ByLayer
370
18
48
1
60
1
100
AcDbLine
10
-66.039216
20
12.500002
30
0
11
-66.960784
21
12.499998
31
0
39
0
210
0
220
0
230
1
0
LINE
5
AB
100
AcDbEntity
8
1
62
256
6
ByLayer
370
18
48
1
60
1
100
AcDbLine
10
-66.960784
20
12.499998
30
0
11
-66.5
21
16
31
0
39
0
210
0
220
0
230
1
0
LINE
5
AC
100
AcDbEntity
8
1
62
256
6
ByLayer
370
18
48
1
60
1
100
AcDbLine
10
-66.5
20
-16
30
0
11
-66.960784
21
-12.500002
31
0
39
0
210
0
220
0
230
1
0
LINE
5
AD
100
AcDbEntity
8
1
62
256
6
ByLayer
370
18
48
1
60
1
100
AcDbLine
10
-66.960784
20
-12.500002
30
0
11
-66.039216
21
-12.499998
31
0
39
0
210
0
220
0
230
1
0
LINE
5
AE
100
AcDbEntity
8
1
62
256
6
ByLayer
370
18
48
1
60
1
100
AcDbLine
10
-66.039216
20
-12.499998
30
0
11
-66.5
21
-16
31
0
39
0
210
0
220
0
230
1
0
LINE
5
AF
100
AcDbEntity
8
2
62
256
6
ByLayer
370
13
48
1
60
0
100
AcDbLine
10
76.9
20
-14
30
0
11
76.9
21
43.024569
31
0
39
0
210
0
220
0
230
1
0
LINE
5
B1
100
AcDbEntity
8
2
62
256
6
ByLayer
370
13
48
1
60
0
100
AcDbLine
10
65.891917
20
14
30
0
11
78.9
21
14
31
0
39
0
210
0
220
0
230
1
0
LINE
5
B2
100
AcDbEntity
8
2
62
256
6
ByLayer
370
13
48
1
60
0
100
AcDbLine
10
65.891917
20
-14
30
0
11
78.9
21
-14
31
0
39
0
210
0
220
0
230
1
0
LINE
5
B3
100
AcDbEntity
8
1
62
256
6
ByLayer
370
18
48
1
60
1
100
AcDbLine
10
76.9
20
14
30
0
11
77.360784
21
10.500002
31
0
39
0
210
0
220
0
230
1
0
LINE
5
B4
100
AcDbEntity
8
1
62
256
6
ByLayer
370
18
48
1
60
1
100
AcDbLine
10
77.360784
20
10.500002
30
0
11
76.439216
21
10.499998
31
0
39
0
210
0
220
0
230
1
0
LINE
5
B5
100
AcDbEntity
8
1
62
256
6
ByLayer
370
18
48
1
60
1
100
AcDbLine
10
76.439216
20
10.499998
30
0
11
76.9
21
14
31
0
39
0
210
0
220
0
230
1
0
LINE
5
B6
100
AcDbEntity
8
1
62
256
6
ByLayer
370
18
48
1
60
1
100
AcDbLine
10
76.9
20
-14
30
0
11
76.439216
21
-10.500002
31
0
39
0
210
0
220
0
230
1
0
LINE
5
B7
100
AcDbEntity
8
1
62
256
6
ByLayer
370
18
48
1
60
1
100
AcDbLine
10
76.439216
20
-10.500002
30
0
11
77.360784
21
-10.499998
31
0
39
0
210
0
220
0
230
1
0
LINE
5
B8
100
AcDbEntity
8
1
62
256
6
ByLayer
370
18
48
1
60
1
100
AcDbLine
10
77.360784
20
-10.499998
30
0
11
76.9
21
-14
31
0
39
0
210
0
220
0
230
1
0
LINE
5
B9
100
AcDbEntity
8
SK2
62
256
6
ByLayer
370
13
48
1
60
0
100
AcDbLine
10
69.942957
20
-1.491762
30
0
11
76.582423
21
-19.733545
31
0
39
0
210
0
220
0
230
1
0
LINE
5
BA
100
AcDbEntity
8
SK2
62
256
6
ByLayer
370
13
48
1
60
0
100
AcDbLine
10
69.942957
20
1.491762
30
0
11
76.582423
21
19.733545
31
0
39
0
210
0
220
0
230
1
0
LINE
5
BB
100
AcDbEntity
8
1
62
256
6
ByLayer
370
18
48
1
60
1
100
AcDbLine
10
75.898383
20
-17.85416
30
0
11
78.951575
21
-16.082064
31
0
39
0
210
0
220
0
230
1
0
LINE
5
BC
100
AcDbEntity
8
1
62
256
6
ByLayer
370
18
48
1
60
1
100
AcDbLine
10
78.951575
20
-16.082064
30
0
11
79.306196
21
-16.93267
31
0
39
0
210
0
220
0
230
1
0
LINE
5
BD
100
AcDbEntity
8
1
62
256
6
ByLayer
370
18
48
1
60
1
100
AcDbLine
10
79.306196
20
-16.93267
30
0
11
75.898383
21
-17.85416
31
0
39
0
210
0
220
0
230
1
0
LINE
5
BE
100
AcDbEntity
8
1
62
256
6
ByLayer
370
18
48
1
60
1
100
AcDbLine
10
75.898383
20
17.85416
30
0
11
79.306193
21
16.932671
31
0
39
0
210
0
220
0
230
1
0
LINE
5
BF
100
AcDbEntity
8
1
62
256
6
ByLayer
370
18
48
1
60
1
100
AcDbLine
10
79.306193
20
16.932671
30
0
11
78.951579
21
16.082063
31
0
39
0
210
0
220
0
230
1
0
LINE
5
C0
100
AcDbEntity
8
1
62
256
6
ByLayer
370
18
48
1
60
1
100
AcDbLine
10
78.951579
20
16.082063
30
0
11
75.898383
21
17.85416
31
0
39
0
210
0
220
0
230
1
0
LINE
5
157
100
AcDbEntity
8
1
62
256
6
ByLayer
370
18
48
1
60
1
100
AcDbLine
10
-66.5
20
16
30
0
11
-66.039216
21
12.500002
31
0
39
0
210
0
220
0
230
1
0
LINE
5
158
100
AcDbEntity
8
1
62
256
6
ByLayer
370
18
48
1
60
1
100
AcDbLine
10
-66.039216
20
12.500002
30
0
11
-66.960784
21
12.499998
31
0
39
0
210
0
220
0
230
1
0
LINE
5
159
100
AcDbEntity
8
1
62
256
6
ByLayer
370
18
48
1
60
1
100
AcDbLine
10
-66.960784
20
12.499998
30
0
11
-66.5
21
16
31
0
39
0
210
0
220
0
230
1
0
LINE
5
15B
100
AcDbEntity
8
1
62
256
6
ByLayer
370
18
48
1
60
1
100
AcDbLine
10
-66.5
20
-16
30
0
11
-66.960784
21
-12.500002
31
0
39
0
210
0
220
0
230
1
0
LINE
5
15C
100
AcDbEntity
8
1
62
256
6
ByLayer
370
18
48
1
60
1
100
AcDbLine
10
-66.960784
20
-12.500002
30
0
11
-66.039216
21
-12.499998
31
0
39
0
210
0
220
0
230
1
0
LINE
5
15D
100
AcDbEntity
8
1
62
256
6
ByLayer
370
18
48
1
60
1
100
AcDbLine
10
-66.039216
20
-12.499998
30
0
11
-66.5
21
-16
31
0
39
0
210
0
220
0
230
1
0
LINE
5
161
100
AcDbEntity
8
1
62
256
6
ByLayer
370
18
48
1
60
1
100
AcDbLine
10
76.9
20
14
30
0
11
77.360784
21
10.500002
31
0
39
0
210
0
220
0
230
1
0
LINE
5
162
100
AcDbEntity
8
1
62
256
6
ByLayer
370
18
48
1
60
1
100
AcDbLine
10
77.360784
20
10.500002
30
0
11
76.439216
21
10.499998
31
0
39
0
210
0
220
0
230
1
0
LINE
5
163
100
AcDbEntity
8
1
62
256
6
ByLayer
370
18
48
1
60
1
100
AcDbLine
10
76.439216
20
10.499998
30
0
11
76.9
21
14
31
0
39
0
210
0
220
0
230
1
0
LINE
5
165
100
AcDbEntity
8
1
62
256
6
ByLayer
370
18
48
1
60
1
100
AcDbLine
10
76.9
20
-14
30
0
11
76.439216
21
-10.500002
31
0
39
0
210
0
220
0
230
1
0
LINE
5
166
100
AcDbEntity
8
1
62
256
6
ByLayer
370
18
48
1
60
1
100
AcDbLine
10
76.439216
20
-10.500002
30
0
11
77.360784
21
-10.499998
31
0
39
0
210
0
220
0
230
1
0
LINE
5
167
100
AcDbEntity
8
1
62
256
6
ByLayer
370
18
48
1
60
1
100
AcDbLine
10
77.360784
20
-10.499998
30
0
11
76.9
21
-14
31
0
39
0
210
0
220
0
230
1
0
LINE
5
16A
100
AcDbEntity
8
1
62
256
6
ByLayer
370
18
48
1
60
1
100
AcDbLine
10
75.898383
20
-17.85416
30
0
11
78.951575
21
-16.082064
31
0
39
0
210
0
220
0
230
1
0
LINE
5
16B
100
AcDbEntity
8
1
62
256
6
ByLayer
370
18
48
1
60
1
100
AcDbLine
10
78.951575
20
-16.082064
30
0
11
79.306196
21
-16.93267
31
0
39
0
210
0
220
0
230
1
0
LINE
5
16C
100
AcDbEntity
8
1
62
256
6
ByLayer
370
18
48
1
60
1
100
AcDbLine
10
79.306196
20
-16.93267
30
0
11
75.898383
21
-17.85416
31
0
39
0
210
0
220
0
230
1
0
LINE
5
16E
100
AcDbEntity
8
1
62
256
6
ByLayer
370
18
48
1
60
1
100
AcDbLine
10
75.898383
20
17.85416
30
0
11
79.306193
21
16.932671
31
0
39
0
210
0
220
0
230
1
0
LINE
5
16F
100
AcDbEntity
8
1
62
256
6
ByLayer
370
18
48
1
60
1
100
AcDbLine
10
79.306193
20
16.932671
30
0
11
78.951579
21
16.082063
31
0
39
0
210
0
220
0
230
1
0
LINE
5
170
100
AcDbEntity
8
1
62
256
6
ByLayer
370
18
48
1
60
1
100
AcDbLine
10
78.951579
20
16.082063
30
0
11
75.898383
21
17.85416
31
0
39
0
210
0
220
0
230
1
0
MTEXT
5
153
100
AcDbEntity
8
SK2
62
256
6
ByLayer
370
18
48
1
60
0
100
AcDbMText
10
-67.841114
20
27.658438
30
0
210
0
220
0
230
1
1
%%c
40
3
41
0
44
1.084337
50
90
71
7
72
5
7
iso_b_vert
0
MTEXT
5
156
100
AcDbEntity
8
SK2
62
256
6
ByLayer
370
18
48
1
60
0
100
AcDbMText
10
-67.841114
20
33.635
30
0
210
0
220
0
230
1
1
\W0.7513;32.000
40
3
41
0
44
1.084337
50
90
71
7
72
5
7
iso_b_vert
0
MTEXT
5
15F
100
AcDbEntity
8
2
62
256
6
ByLayer
370
18
48
1
60
0
100
AcDbMText
10
75.558886
20
25.658438
30
0
210
0
220
0
230
1
1
%%c
40
3
41
0
44
1.084337
50
90
71
7
72
5
7
iso_b_vert
0
MTEXT
5
160
100
AcDbEntity
8
2
62
256
6
ByLayer
370
18
48
1
60
0
100
AcDbMText
10
75.558886
20
31.635
30
0
210
0
220
0
230
1
1
\W0.7513;28.000
40
3
41
0
44
1.084337
50
90
71
7
72
5
7
iso_b_vert
0
MTEXT
5
169
100
AcDbEntity
8
SK2
62
256
6
ByLayer
370
18
48
1
60
0
100
AcDbMText
10
89.309114
20
3.734657
30
0
210
0
220
0
230
1
1
\W0.7071;140%%d
40
3
41
0
44
1.084337
50
270
71
7
72
5
7
iso_b_vert
0
MTEXT
5
172
100
AcDbEntity
8
SK6
62
256
6
ByLayer
370
18
48
1
60
0
100
AcDbMText
10
-19.212197
20
-67.114886
30
0
210
0
220
0
230
1
1
\W0.7519;H85128.0
40
3
41
0
44
1.084337
50
0
71
7
72
5
7
iso_b_vert
0
HATCH
5
15A
100
AcDbEntity
8
SK2
62
256
6
ByLayer
370
13
48
1
60
0
100
AcDbHatch
10
0
20
0
30
0
210
0
220
0
230
1
2
ANSI31
70
0
71
0
91
1
92
5
93
3
72
1
10
-66.5
20
16
11
-66.0392162584472
21
12.5000016925532
72
1
10
-66.0392162584472
20
12.5000016925532
11
-66.9607837415528
21
12.4999983074468
72
1
10
-66.9607837415528
20
12.4999983074468
11
-66.5
21
16
97
0
75
0
76
1
52
0
41
0.0062
77
0
78
1
53
45
43
0
44
0
45
-0.0139193969876572
46
0.0139193969876572
79
0
47
0
98
1
10
0
20
0
0
HATCH
5
15E
100
AcDbEntity
8
SK2
62
256
6
ByLayer
370
13
48
1
60
0
100
AcDbHatch
10
0
20
0
30
0
210
0
220
0
230
1
2
ANSI31
70
0
71
0
91
1
92
5
93
3
72
1
10
-66.5
20
-16
11
-66.9607837415528
21
-12.5000016925532
72
1
10
-66.9607837415528
20
-12.5000016925532
11
-66.0392162584472
21
-12.4999983074468
72
1
10
-66.0392162584472
20
-12.4999983074468
11
-66.5
21
-16
97
0
75
0
76
1
52
0
41
0.0062
77
0
78
1
53
45
43
0
44
0
45
-0.0139193969876572
46
0.0139193969876572
79
0
47
0
98
1
10
0
20
0
0
HATCH
5
164
100
AcDbEntity
8
2
62
256
6
ByLayer
370
13
48
1
60
0
100
AcDbHatch
10
0
20
0
30
0
210
0
220
0
230
1
2
ANSI31
70
0
71
0
91
1
92
5
93
3
72
1
10
76.9
20
14
11
77.3607837415528
21
10.5000016925532
72
1
10
77.3607837415528
20
10.5000016925532
11
76.4392162584472
21
10.4999983074468
72
1
10
76.4392162584472
20
10.4999983074468
11
76.9
21
14
97
0
75
0
76
1
52
0
41
0.0062
77
0
78
1
53
45
43
0
44
0
45
-0.0139193969876572
46
0.0139193969876572
79
0
47
0
98
1
10
0
20
0
0
HATCH
5
168
100
AcDbEntity
8
2
62
256
6
ByLayer
370
13
48
1
60
0
100
AcDbHatch
10
0
20
0
30
0
210
0
220
0
230
1
2
ANSI31
70
0
71
0
91
1
92
5
93
3
72
1
10
76.9
20
-14
11
76.4392162584472
21
-10.5000016925532
72
1
10
76.4392162584472
20
-10.5000016925532
11
77.3607837415528
21
-10.4999983074468
72
1
10
77.3607837415528
20
-10.4999983074468
11
76.9
21
-14
97
0
75
0
76
1
52
0
41
0.0062
77
0
78
1
53
45
43
0
44
0
45
-0.0139193969876572
46
0.0139193969876572
79
0
47
0
98
1
10
0
20
0
0
HATCH
5
16D
100
AcDbEntity
8
SK2
62
256
6
ByLayer
370
13
48
1
60
0
100
AcDbHatch
10
0
20
0
30
0
210
0
220
0
230
1
2
ANSI31
70
0
71
0
91
1
92
5
93
3
72
1
10
75.8983827231877
20
-17.8541597949323
11
78.9515754256929
21
-16.0820638240608
72
1
10
78.9515754256929
20
-16.0820638240608
11
79.306195833975
21
-16.9326700737197
72
1
10
79.306195833975
20
-16.9326700737197
11
75.8983827231877
21
-17.8541597949323
97
0
75
0
76
1
52
0
41
0.0062
77
0
78
1
53
45
43
0
44
0
45
-0.0139193969876572
46
0.0139193969876572
79
0
47
0
98
1
10
0
20
0
0
HATCH
5
171
100
AcDbEntity
8
SK2
62
256
6
ByLayer
370
13
48
1
60
0
100
AcDbHatch
10
0
20
0
30
0
210
0
220
0
230
1
2
ANSI31
70
0
71
0
91
1
92
5
93
3
72
1
10
75.8983827231877
20
17.8541597949323
11
79.3061927095191
21
16.9326713763017
72
1
10
79.3061927095191
20
16.9326713763017
11
78.9515785501489
21
16.0820625214788
72
1
10
78.9515785501489
20
16.0820625214788
11
75.8983827231877
21
17.8541597949323
97
0
75
0
76
1
52
0
41
0.0062
77
0
78
1
53
45
43
0
44
0
45
-0.0139193969876572
46
0.0139193969876572
79
0
47
0
98
1
10
0
20
0
0
DIMENSION
5
175
100
AcDbEntity
8
SK2
62
256
6
ByLayer
370
18
48
1
60
0
100
AcDbDimension
2
_U0
10
69.4
20
-46.771062
30
0
11
4.7
21
-46.771062
31
0
70
32
71
1
72
1
41
1
210
0
220
0
230
1
3
Standard
100
AcDbAlignedDimension
13
-60
23
-16
33
0
14
69.4
24
0
34
0
50
0
100
AcDbRotatedDimension
1001
ACAD
1000
DSTYLE
1002
{
1070
   371
1070
    13
1070
   372
1070
    13
1070
     3
1000

1070
   170
1070
     0
1070
   144
1040
1.0
1070
   277
1070
     2
1070
   284
1070
     8
1070
   278
1070
    46
1070
   146
1040
1.166667
1070
   345
1005
16
1070
   347
1005
16
1070
   346
1005
16
1070
   344
1005
0
1070
   343
1005
0
1070
   172
1070
     1
1070
    76
1070
     0
1070
    75
1070
     0
1070
   282
1070
     0
1070
   281
1070
     0
1070
    71
1070
     0
1070
    74
1070
     0
1070
   279
1070
     0
1070
   173
1070
     1
1070
   340
1005
154
1070
   271
1070
     2
1070
   272
1070
     3
1070
    77
1070
     1
1070
    73
1070
     1
1070
   171
1070
     3
1070
   274
1070
     4
1070
   177
1070
     2
1070
   176
1070
     2
1070
   178
1070
     2
1070
    78
1070
     8
1070
    48
1040
-0.1
1070
    41
1040
3.5
1070
   147
1040
1.5
1070
    42
1040
1.5875
1070
    44
1040
2.0
1070
   140
1040
3.0
1002
}
1001
ACAD_DSTYLE_DIM_LINETYPE
1070
   380
1005
16
1001
ACAD_DSTYLE_DIM_EXT1_LINETYPE
1070
   381
1005
16
1001
ACAD_DSTYLE_DIM_EXT2_LINETYPE
1070
   382
1005
16
0
DIMENSION
5
18E
100
AcDbEntity
8
SK2
62
256
6
ByLayer
370
18
48
1
60
0
100
AcDbDimension
2
_U1
10
6
20
-36.771062
30
0
11
37.7
21
-36.771062
31
0
70
32
71
1
72
1
41
1
210
0
220
0
230
1
3
Standard
100
AcDbAlignedDimension
13
69.4
23
0
33
0
14
6
24
-14
34
0
50
0
100
AcDbRotatedDimension
1001
ACAD
1000
DSTYLE
1002
{
1070
   371
1070
    13
1070
   372
1070
    13
1070
     3
1000

1070
   170
1070
     0
1070
   144
1040
1.0
1070
   277
1070
     2
1070
   284
1070
     8
1070
   278
1070
    46
1070
   146
1040
1.166667
1070
   345
1005
16
1070
   347
1005
16
1070
   346
1005
16
1070
   344
1005
0
1070
   343
1005
0
1070
   172
1070
     1
1070
    76
1070
     0
1070
    75
1070
     0
1070
   282
1070
     0
1070
   281
1070
     0
1070
    71
1070
     0
1070
    74
1070
     0
1070
   279
1070
     0
1070
   173
1070
     1
1070
   340
1005
154
1070
   271
1070
     2
1070
   272
1070
     3
1070
    77
1070
     1
1070
    73
1070
     1
1070
   171
1070
     3
1070
   274
1070
     4
1070
   177
1070
     2
1070
   176
1070
     2
1070
   178
1070
     2
1070
    78
1070
     8
1070
    48
1040
-0.1
1070
    41
1040
3.5
1070
   147
1040
1.5
1070
    42
1040
1.5875
1070
    44
1040
2.0
1070
   140
1040
3.0
1002
}
1001
ACAD_DSTYLE_DIM_LINETYPE
1070
   380
1005
16
1001
ACAD_DSTYLE_DIM_EXT1_LINETYPE
1070
   381
1005
16
1001
ACAD_DSTYLE_DIM_EXT2_LINETYPE
1070
   382
1005
16
0
DIMENSION
5
1A6
100
AcDbEntity
8
SK2
62
256
6
ByLayer
370
18
48
1
60
0
100
AcDbDimension
2
_U2
10
0
20
-36.771062
30
0
11
-30
21
-36.771062
31
0
70
32
71
1
72
1
41
1
210
0
220
0
230
1
3
Standard
100
AcDbAlignedDimension
13
-60
23
-16
33
0
14
0
24
-16
34
0
50
0
100
AcDbRotatedDimension
1001
ACAD
1000
DSTYLE
1002
{
1070
   371
1070
    13
1070
   372
1070
    13
1070
     3
1000

1070
   170
1070
     0
1070
   144
1040
1.0
1070
   277
1070
     2
1070
   284
1070
     8
1070
   278
1070
    46
1070
   146
1040
1.166667
1070
   345
1005
16
1070
   347
1005
16
1070
   346
1005
16
1070
   344
1005
0
1070
   343
1005
0
1070
   172
1070
     1
1070
    76
1070
     0
1070
    75
1070
     0
1070
   282
1070
     0
1070
   281
1070
     0
1070
    71
1070
     0
1070
    74
1070
     0
1070
   279
1070
     0
1070
   173
1070
     1
1070
   340
1005
154
1070
   271
1070
     2
1070
   272
1070
     3
1070
    77
1070
     1
1070
    73
1070
     1
1070
   171
1070
     3
1070
   274
1070
     4
1070
   177
1070
     2
1070
   176
1070
     2
1070
   178
1070
     2
1070
    78
1070
     8
1070
    48
1040
-0.1
1070
    41
1040
3.5
1070
   147
1040
1.5
1070
    42
1040
1.5875
1070
    44
1040
2.0
1070
   140
1040
3.0
1002
}
1001
ACAD_DSTYLE_DIM_LINETYPE
1070
   380
1005
16
1001
ACAD_DSTYLE_DIM_EXT1_LINETYPE
1070
   381
1005
16
1001
ACAD_DSTYLE_DIM_EXT2_LINETYPE
1070
   382
1005
16
0
DIMENSION
5
1BE
100
AcDbEntity
8
SK2
62
256
6
ByLayer
370
18
48
1
60
0
100
AcDbDimension
2
_U3
10
15
20
33.771062
30
0
11
42.2
21
33.771062
31
0
70
32
71
1
72
1
41
1
210
0
220
0
230
1
3
Standard
100
AcDbAlignedDimension
13
69.4
23
0
33
0
14
15
24
14
34
0
50
0
100
AcDbRotatedDimension
1001
ACAD
1000
DSTYLE
1002
{
1070
   371
1070
    13
1070
   372
1070
    13
1070
     3
1000

1070
   170
1070
     0
1070
   144
1040
1.0
1070
   277
1070
     2
1070
   284
1070
     8
1070
   278
1070
    46
1070
   146
1040
1.166667
1070
   345
1005
16
1070
   347
1005
16
1070
   346
1005
16
1070
   344
1005
0
1070
   343
1005
0
1070
   172
1070
     1
1070
    76
1070
     0
1070
    75
1070
     0
1070
   282
1070
     0
1070
   281
1070
     0
1070
    71
1070
     0
1070
    74
1070
     0
1070
   279
1070
     0
1070
   173
1070
     1
1070
   340
1005
154
1070
   271
1070
     2
1070
   272
1070
     3
1070
    77
1070
     1
1070
    73
1070
     1
1070
   171
1070
     3
1070
   274
1070
     4
1070
   177
1070
     2
1070
   176
1070
     2
1070
   178
1070
     2
1070
    78
1070
     8
1070
    48
1040
-0.1
1070
    41
1040
3.5
1070
   147
1040
1.5
1070
    42
1040
1.5875
1070
    44
1040
2.0
1070
   140
1040
3.0
1002
}
1001
ACAD_DSTYLE_DIM_LINETYPE
1070
   380
1005
16
1001
ACAD_DSTYLE_DIM_EXT1_LINETYPE
1070
   381
1005
16
1001
ACAD_DSTYLE_DIM_EXT2_LINETYPE
1070
   382
1005
16
0
ENDSEC
0
SECTION
2
OBJECTS
0
DICTIONARY
5
246
330
0
100
AcDbDictionary
280
0
281
1
3
ACAD_GROUP
350
247
3
ACAD_MLINESTYLE
350
248
0
DICTIONARY
5
247
330
0
100
AcDbDictionary
280
0
281
1
0
DICTIONARY
5
248
330
0
100
AcDbDictionary
280
0
281
1
3
Standard
350
18
0
MLINESTYLE
5
18
330
248
100
AcDbMlineStyle
2
Standard
70
0
3

62
256
51
90
52
90
71
2
49
-0.5
62
256
6
ByLayer
49
0.5
62
256
6
ByLayer
0
RASTERVARIABLES
5
234
330

100
AcDbRasterVariables
90
0
70
1
71
1
72
1
0
ENDSEC
0
EOF
