  0
SECTION
  2
HEADER
  9
$ACADVER
  1
AC1018
  9
$ACADMAINTVER
 70
     0
  9
$DWGCODEPAGE
  3
ANSI_1252
  9
$INSBASE
 10
0.0
 20
0.0
 30
0.0
  9
$EXTMIN
 10
-0.5
 20
-0.5
 30
-0.5
  9
$EXTMAX
 10
5.0
 20
5.0
 30
5.0
  9
$LIMMIN
 10
-0.5
 20
-0.5
  9
$LIMMAX
 10
5.0
 20
5.0
  9
$ORTHOMODE
 70
     0
  9
$REGENMODE
 70
     1
  9
$FILLMODE
 70
     1
  9
$QTEXTMODE
 70
     0
  9
$MIRRTEXT
 70
     1
  9
$LTSCALE
 40
1.0
  9
$ATTMODE
 70
     1
  9
$TEXTSIZE
 40
0.2
  9
$TRACEWID
 40
0.05
  9
$TEXTSTYLE
  7
Standard
  9
$CLAYER
  8
0
  9
$CELTYPE
  6
ByLayer
  9
$CECOLOR
 62
   256
  9
$CELTSCALE
 40
1.0
  9
$DISPSILH
 70
     0
  9
$DIMSCALE
 40
1.0
  9
$DIMASZ
 40
0.18
  9
$DIMEXO
 40
0.0625
  9
$DIMDLI
 40
0.38
  9
$DIMRND
 40
0.0
  9
$DIMDLE
 40
0.0
  9
$DIMEXE
 40
0.18
  9
$DIMTP
 40
0.0
  9
$DIMTM
 40
0.0
  9
$DIMTXT
 40
0.18
  9
$DIMCEN
 40
0.09
  9
$DIMTSZ
 40
0.0
  9
$DIMTOL
 70
     0
  9
$DIMLIM
 70
     0
  9
$DIMTIH
 70
     1
  9
$DIMTOH
 70
     1
  9
$DIMSE1
 70
     0
  9
$DIMSE2
 70
     0
  9
$DIMTAD
 70
     0
  9
$DIMZIN
 70
     0
  9
$DIMBLK
  1

  9
$DIMASO
 70
     1
  9
$DIMSHO
 70
     1
  9
$DIMPOST
  1

  9
$DIMAPOST
  1

  9
$DIMALT
 70
     0
  9
$DIMALTD
 70
     2
  9
$DIMALTF
 40
25.4
  9
$DIMLFAC
 40
1.0
  9
$DIMTOFL
 70
     0
  9
$DIMTVP
 40
0.0
  9
$DIMTIX
 70
     0
  9
$DIMSOXD
 70
     0
  9
$DIMSAH
 70
     0
  9
$DIMBLK1
  1

  9
$DIMBLK2
  1

  9
$DIMSTYLE
  2
Standard
  9
$DIMCLRD
 70
     0
  9
$DIMCLRE
 70
     0
  9
$DIMCLRT
 70
     0
  9
$DIMTFAC
 40
1.0
  9
$DIMGAP
 40
0.09
  9
$DIMJUST
 70
     0
  9
$DIMSD1
 70
     0
  9
$DIMSD2
 70
     0
  9
$DIMTOLJ
 70
     1
  9
$DIMTZIN
 70
     0
  9
$DIMALTZ
 70
     0
  9
$DIMALTTZ
 70
     0
  9
$DIMUPT
 70
     0
  9
$DIMDEC
 70
     4
  9
$DIMTDEC
 70
     4
  9
$DIMALTU
 70
     2
  9
$DIMALTTD
 70
     2
  9
$DIMTXSTY
  7
Standard
  9
$DIMAUNIT
 70
     0
  9
$DIMADEC
 70
     0
  9
$DIMALTRND
 40
0.0
  9
$DIMAZIN
 70
     0
  9
$DIMDSEP
 70
    46
  9
$DIMATFIT
 70
     3
  9
$DIMFRAC
 70
     0
  9
$DIMLDRBLK
  1

  9
$DIMLUNIT
 70
     2
  9
$DIMLWD
 70
    -2
  9
$DIMLWE
 70
    -2
  9
$DIMTMOVE
 70
     0
  9
$LUNITS
 70
     2
  9
$LUPREC
 70
     4
  9
$SKETCHINC
 40
0.1
  9
$FILLETRAD
 40
0.5
  9
$AUNITS
 70
     0
  9
$AUPREC
 70
     0
  9
$MENU
  1
.
  9
$ELEVATION
 40
0.0
  9
$PELEVATION
 40
0.0
  9
$THICKNESS
 40
0.0
  9
$LIMCHECK
 70
     0
  9
$CHAMFERA
 40
0.0
  9
$CHAMFERB
 40
0.0
  9
$CHAMFERC
 40
0.0
  9
$CHAMFERD
 40
0.0
  9
$SKPOLY
 70
     0
  9
$TDCREATE
 40
2459458.430469711
  9
$TDUCREATE
 40
2459458.347136377
  9
$TDUPDATE
 40
2459458.43082478
  9
$TDUUPDATE
 40
2459458.347491447
  9
$TDINDWG
 40
0.0000000116
  9
$TDUSRTIMER
 40
0.0000000116
  9
$USRTIMER
 70
     1
  9
$ANGBASE
 50
0.0
  9
$ANGDIR
 70
     0
  9
$PDMODE
 70
     0
  9
$PDSIZE
 40
0.0
  9
$PLINEWID
 40
0.0
  9
$SPLFRAME
 70
     0
  9
$SPLINETYPE
 70
     6
  9
$SPLINESEGS
 70
     8
  9
$HANDSEED
  5
38A
  9
$SURFTAB1
 70
     6
  9
$SURFTAB2
 70
     6
  9
$SURFTYPE
 70
     6
  9
$SURFU
 70
     6
  9
$SURFV
 70
     6
  9
$UCSBASE
  2

  9
$UCSNAME
  2

  9
$UCSORG
 10
0.0
 20
0.0
 30
0.0
  9
$UCSXDIR
 10
1.0
 20
0.0
 30
0.0
  9
$UCSYDIR
 10
0.0
 20
1.0
 30
0.0
  9
$UCSORTHOREF
  2

  9
$UCSORTHOVIEW
 70
     0
  9
$UCSORGTOP
 10
0.0
 20
0.0
 30
0.0
  9
$UCSORGBOTTOM
 10
0.0
 20
0.0
 30
0.0
  9
$UCSORGLEFT
 10
0.0
 20
0.0
 30
0.0
  9
$UCSORGRIGHT
 10
0.0
 20
0.0
 30
0.0
  9
$UCSORGFRONT
 10
0.0
 20
0.0
 30
0.0
  9
$UCSORGBACK
 10
0.0
 20
0.0
 30
0.0
  9
$PUCSBASE
  2

  9
$PUCSNAME
  2

  9
$PUCSORG
 10
0.0
 20
0.0
 30
0.0
  9
$PUCSXDIR
 10
1.0
 20
0.0
 30
0.0
  9
$PUCSYDIR
 10
0.0
 20
1.0
 30
0.0
  9
$PUCSORTHOREF
  2

  9
$PUCSORTHOVIEW
 70
     0
  9
$PUCSORGTOP
 10
0.0
 20
0.0
 30
0.0
  9
$PUCSORGBOTTOM
 10
0.0
 20
0.0
 30
0.0
  9
$PUCSORGLEFT
 10
0.0
 20
0.0
 30
0.0
  9
$PUCSORGRIGHT
 10
0.0
 20
0.0
 30
0.0
  9
$PUCSORGFRONT
 10
0.0
 20
0.0
 30
0.0
  9
$PUCSORGBACK
 10
0.0
 20
0.0
 30
0.0
  9
$USERI1
 70
     0
  9
$USERI2
 70
     0
  9
$USERI3
 70
     0
  9
$USERI4
 70
     0
  9
$USERI5
 70
     0
  9
$USERR1
 40
0.0
  9
$USERR2
 40
0.0
  9
$USERR3
 40
0.0
  9
$USERR4
 40
0.0
  9
$USERR5
 40
0.0
  9
$WORLDVIEW
 70
     1
  9
$SHADEDGE
 70
     3
  9
$SHADEDIF
 70
    70
  9
$TILEMODE
 70
     1
  9
$MAXACTVP
 70
    64
  9
$PINSBASE
 10
0.0
 20
0.0
 30
0.0
  9
$PLIMCHECK
 70
     0
  9
$PEXTMIN
 10
-0.5
 20
-0.5
 30
-0.5
  9
$PEXTMAX
 10
5.0
 20
5.0
 30
5.0
  9
$PLIMMIN
 10
-0.5
 20
-0.5
  9
$PLIMMAX
 10
5.0
 20
5.0
  9
$UNITMODE
 70
     0
  9
$VISRETAIN
 70
     1
  9
$PLINEGEN
 70
     0
  9
$PSLTSCALE
 70
     1
  9
$TREEDEPTH
 70
  3020
  9
$CMLSTYLE
  2
Standard
  9
$CMLJUST
 70
     0
  9
$CMLSCALE
 40
1.0
  9
$PROXYGRAPHICS
 70
     1
  9
$MEASUREMENT
 70
     1
  9
$CELWEIGHT
370
    18
  9
$ENDCAPS
280
     0
  9
$JOINSTYLE
280
     0
  9
$LWDISPLAY
290
     1
  9
$INSUNITS
 70
     4
  9
$HYPERLINKBASE
  1

  9
$STYLESHEET
  1

  9
$XEDIT
290
     1
  9
$CEPSNTYPE
380
     0
  9
$PSTYLEMODE
290
     1
  9
$FINGERPRINTGUID
  2
{7705c720-9002-49ea-9732-62f6a98ef5cc}
  9
$VERSIONGUID
  2
{FAEB1C32-E019-11D5-929B-00C0DF256EC4}
  9
$EXTNAMES
290
     1
  9
$PSVPSCALE
 40
0.0
  9
$OLESTARTUP
290
     0
  9
$SORTENTS
280
   127
  9
$INDEXCTL
280
     0
  9
$HIDETEXT
280
     1
  9
$XCLIPFRAME
290
     0
  9
$HALOGAP
280
     0
  9
$OBSCOLOR
 70
   257
  9
$OBSLTYPE
280
     0
  9
$INTERSECTIONDISPLAY
280
     0
  9
$INTERSECTIONCOLOR
 70
   257
  9
$DIMASSOC
280
     2
  9
$PROJECTNAME
  1

  0
ENDSEC
  0
SECTION
  2
CLASSES
  0
CLASS
  1
ACDBDICTIONARYWDFLT
  2
AcDbDictionaryWithDefault
  3
ObjectDBX Classes
 90
        0
 91
        3
280
     0
281
     0
  0
CLASS
  1
VISUALSTYLE
  2
AcDbVisualStyle
  3
ObjectDBX Classes
 90
     4095
 91
        3
280
     0
281
     0
  0
CLASS
  1
MATERIAL
  2
AcDbMaterial
  3
ObjectDBX Classes
 90
     1153
 91
        3
280
     0
281
     0
  0
CLASS
  1
SCALE
  2
AcDbScale
  3
ObjectDBX Classes
 90
     1153
 91
        3
280
     0
281
     0
  0
CLASS
  1
TABLESTYLE
  2
AcDbTableStyle
  3
ObjectDBX Classes
 90
     4095
 91
        3
280
     0
281
     0
  0
CLASS
  1
MLEADERSTYLE
  2
AcDbMLeaderStyle
  3
ACDB_MLEADERSTYLE_CLASS
 90
     4095
 91
        3
280
     0
281
     0
  0
CLASS
  1
SUN
  2
AcDbSun
  3
SCENEOE
 90
     1153
 91
        3
280
     0
281
     0
  0
CLASS
  1
DIMASSOC
  2
AcDbDimAssoc
  3
"AcDbDimAssoc|Product Desc:     AcDim ARX App For Dimension|Company:          Autodesk, Inc.|WEB Address:      www.autodesk.com"
 90
        0
 91
        3
280
     0
281
     0
  0
CLASS
  1
DICTIONARYVAR
  2
AcDbDictionaryVar
  3
ObjectDBX Classes
 90
        0
 91
        3
280
     0
281
     0
  0
CLASS
  1
CELLSTYLEMAP
  2
AcDbCellStyleMap
  3
ObjectDBX Classes
 90
     1152
 91
        3
280
     0
281
     0
  0
ENDSEC
  0
SECTION
  2
TABLES
  0
TABLE
  2
VPORT
  5
8
102
{ACAD_XDICTIONARY
360
343
102
}
330
0
100
AcDbSymbolTable
 70
    16
  0
VPORT
  5
29
330
8
100
AcDbSymbolTableRecord
100
AcDbViewportTableRecord
  2
*Active
 70
     0
 10
0.0
 20
0.0
 11
1.0
 21
1.0
 12
1.985394
 22
23.347693
 13
0.0
 23
0.0
 14
0.5
 24
0.5
 15
0.5
 25
0.5
 16
0.0
 26
0.0
 36
1.0
 17
0.0
 27
0.0
 37
0.0
 40
254.0
 41
0.069908
 42
50.0
 43
274.935447
 44
-274.935447
 50
0.0
 51
0.0
 71
     0
 72
   100
 73
     1
 74
     3
 75
     0
 76
     0
 77
     0
 78
     0
281
     0
 65
     1
110
0.0
120
0.0
130
0.0
111
1.0
121
0.0
131
0.0
112
0.0
122
1.0
132
0.0
 79
     0
146
0.0
  0
VPORT
  5
331
330
8
100
AcDbSymbolTableRecord
100
AcDbViewportTableRecord
  2
L1
 70
     0
 10
0.0
 20
0.0
 11
1.0
 21
1.0
 12
1.985394
 22
23.347693
 13
0.0
 23
0.0
 14
0.5
 24
0.5
 15
0.5
 25
0.5
 16
0.0
 26
0.0
 36
1.0
 17
0.0
 27
0.0
 37
0.0
 40
254.0
 41
0.069908
 42
50.0
 43
274.935447
 44
-274.935447
 50
0.0
 51
0.0
 71
     0
 72
   100
 73
     1
 74
     3
 75
     0
 76
     0
 77
     0
 78
     0
281
     0
 65
     1
110
0.0
120
0.0
130
0.0
111
1.0
121
0.0
131
0.0
112
0.0
122
1.0
132
0.0
 79
     0
146
0.0
  0
VPORT
  5
332
330
8
100
AcDbSymbolTableRecord
100
AcDbViewportTableRecord
  2
L2
 70
     0
 10
0.0
 20
0.0
 11
0.5
 21
1.0
 12
0.0
 22
0.0
 13
0.0
 23
0.0
 14
0.5
 24
0.5
 15
0.5
 25
0.5
 16
0.0
 26
-1.0
 36
0.0
 17
0.0
 27
0.0
 37
0.0
 40
1781.061032
 41
0.00997
 42
50.0
 43
921.359141
 44
-921.359141
 50
0.0
 51
0.0
 71
     0
 72
   100
 73
     1
 74
     3
 75
     0
 76
     0
 77
     0
 78
     0
281
     0
 65
     1
110
0.0
120
0.0
130
0.0
111
1.0
121
0.0
131
0.0
112
0.0
122
1.0
132
0.0
 79
     0
146
0.0
  0
VPORT
  5
333
330
8
100
AcDbSymbolTableRecord
100
AcDbViewportTableRecord
  2
L2
 70
     0
 10
0.5
 20
0.0
 11
1.0
 21
1.0
 12
0.0
 22
0.0
 13
0.0
 23
0.0
 14
0.5
 24
0.5
 15
0.5
 25
0.5
 16
1.0
 26
0.0
 36
0.0
 17
0.0
 27
0.0
 37
0.0
 40
1781.061032
 41
0.00997
 42
50.0
 43
899.540772
 44
-899.540772
 50
0.0
 51
0.0
 71
     0
 72
   100
 73
     1
 74
     3
 75
     0
 76
     0
 77
     0
 78
     0
281
     0
 65
     1
110
0.0
120
0.0
130
0.0
111
1.0
121
0.0
131
0.0
112
0.0
122
1.0
132
0.0
 79
     0
146
0.0
  0
VPORT
  5
334
330
8
100
AcDbSymbolTableRecord
100
AcDbViewportTableRecord
  2
L3
 70
     0
 10
0.0
 20
0.5
 11
1.0
 21
1.0
 12
1.985394
 22
23.347693
 13
0.0
 23
0.0
 14
0.5
 24
0.5
 15
0.5
 25
0.5
 16
0.0
 26
0.0
 36
1.0
 17
0.0
 27
0.0
 37
0.0
 40
254.0
 41
0.069908
 42
50.0
 43
274.935447
 44
-274.935447
 50
0.0
 51
0.0
 71
     0
 72
   100
 73
     1
 74
     3
 75
     0
 76
     0
 77
     0
 78
     0
281
     0
 65
     1
110
0.0
120
0.0
130
0.0
111
1.0
121
0.0
131
0.0
112
0.0
122
1.0
132
0.0
 79
     0
146
0.0
  0
VPORT
  5
335
330
8
100
AcDbSymbolTableRecord
100
AcDbViewportTableRecord
  2
L3
 70
     0
 10
0.0
 20
0.0
 11
1.0
 21
0.5
 12
0.0
 22
0.0
 13
0.0
 23
0.0
 14
0.5
 24
0.5
 15
0.5
 25
0.5
 16
0.0
 26
-1.0
 36
0.0
 17
0.0
 27
0.0
 37
0.0
 40
1781.061032
 41
0.00997
 42
50.0
 43
921.359141
 44
-921.359141
 50
0.0
 51
0.0
 71
     0
 72
   100
 73
     1
 74
     3
 75
     0
 76
     0
 77
     0
 78
     0
281
     0
 65
     1
110
0.0
120
0.0
130
0.0
111
1.0
121
0.0
131
0.0
112
0.0
122
1.0
132
0.0
 79
     0
146
0.0
  0
VPORT
  5
336
330
8
100
AcDbSymbolTableRecord
100
AcDbViewportTableRecord
  2
L4
 70
     0
 10
0.0
 20
0.5
 11
0.5
 21
1.0
 12
1.985394
 22
23.347693
 13
0.0
 23
0.0
 14
0.5
 24
0.5
 15
0.5
 25
0.5
 16
0.0
 26
0.0
 36
1.0
 17
0.0
 27
0.0
 37
0.0
 40
254.0
 41
0.069908
 42
50.0
 43
274.935447
 44
-274.935447
 50
0.0
 51
0.0
 71
     0
 72
   100
 73
     1
 74
     3
 75
     0
 76
     0
 77
     0
 78
     0
281
     0
 65
     1
110
0.0
120
0.0
130
0.0
111
1.0
121
0.0
131
0.0
112
0.0
122
1.0
132
0.0
 79
     0
146
0.0
  0
VPORT
  5
337
330
8
100
AcDbSymbolTableRecord
100
AcDbViewportTableRecord
  2
L4
 70
     0
 10
0.0
 20
0.0
 11
0.5
 21
0.5
 12
0.0
 22
0.0
 13
0.0
 23
0.0
 14
0.5
 24
0.5
 15
0.5
 25
0.5
 16
0.0
 26
-1.0
 36
0.0
 17
0.0
 27
0.0
 37
0.0
 40
1781.061032
 41
0.00997
 42
50.0
 43
921.359141
 44
-921.359141
 50
0.0
 51
0.0
 71
     0
 72
   100
 73
     1
 74
     3
 75
     0
 76
     0
 77
     0
 78
     0
281
     0
 65
     1
110
0.0
120
0.0
130
0.0
111
1.0
121
0.0
131
0.0
112
0.0
122
1.0
132
0.0
 79
     0
146
0.0
  0
VPORT
  5
338
330
8
100
AcDbSymbolTableRecord
100
AcDbViewportTableRecord
  2
L4
 70
     0
 10
0.5
 20
0.0
 11
1.0
 21
0.5
 12
0.0
 22
0.0
 13
0.0
 23
0.0
 14
0.5
 24
0.5
 15
0.5
 25
0.5
 16
1.0
 26
0.0
 36
0.0
 17
0.0
 27
0.0
 37
0.0
 40
1781.061032
 41
0.00997
 42
50.0
 43
899.540772
 44
-899.540772
 50
0.0
 51
0.0
 71
     0
 72
   100
 73
     1
 74
     3
 75
     0
 76
     0
 77
     0
 78
     0
281
     0
 65
     1
110
0.0
120
0.0
130
0.0
111
1.0
121
0.0
131
0.0
112
0.0
122
1.0
132
0.0
 79
     0
146
0.0
  0
VPORT
  5
339
330
8
100
AcDbSymbolTableRecord
100
AcDbViewportTableRecord
  2
L4
 70
     0
 10
0.5
 20
0.5
 11
1.0
 21
1.0
 12
0.0
 22
0.0
 13
0.0
 23
0.0
 14
0.5
 24
0.5
 15
0.5
 25
0.5
 16
0.5773502691896258
 26
-0.5773502691896258
 36
0.5773502691896258
 17
0.0
 27
0.0
 37
0.0
 40
1750.898652
 41
0.010142
 42
50.0
 43
912.370885
 44
-912.370885
 50
0.0
 51
0.0
 71
     0
 72
   100
 73
     1
 74
     3
 75
     0
 76
     0
 77
     0
 78
     0
281
     0
 65
     1
110
0.0
120
0.0
130
0.0
111
1.0
121
0.0
131
0.0
112
0.0
122
1.0
132
0.0
 79
     0
146
0.0
  0
VPORT
  5
33A
330
8
100
AcDbSymbolTableRecord
100
AcDbViewportTableRecord
  2
L6
 70
     0
 10
0.0
 20
0.5
 11
0.333333
 21
1.0
 12
0.0
 22
0.0
 13
0.0
 23
0.0
 14
0.5
 24
0.5
 15
0.5
 25
0.5
 16
0.7188730927569433
 26
-0.5850486126764433
 36
0.3754192287502549
 17
0.0
 27
0.0
 37
0.0
 40
1848.611658
 41
0.009605
 42
50.0
 43
956.916742
 44
-956.916742
 50
0.0
 51
0.0
 71
     0
 72
   100
 73
     1
 74
     3
 75
     0
 76
     0
 77
     0
 78
     0
281
     0
 65
     1
110
0.0
120
0.0
130
0.0
111
1.0
121
0.0
131
0.0
112
0.0
122
1.0
132
0.0
 79
     0
146
0.0
  0
VPORT
  5
33B
330
8
100
AcDbSymbolTableRecord
100
AcDbViewportTableRecord
  2
L6
 70
     0
 10
0.0
 20
0.0
 11
0.333333
 21
0.5
 12
0.0
 22
0.0
 13
0.0
 23
0.0
 14
0.5
 24
0.5
 15
0.5
 25
0.5
 16
-1.0
 26
0.0
 36
0.0
 17
0.0
 27
0.0
 37
0.0
 40
1781.061032
 41
0.00997
 42
50.0
 43
899.540772
 44
-899.540772
 50
0.0
 51
0.0
 71
     0
 72
   100
 73
     1
 74
     3
 75
     0
 76
     0
 77
     0
 78
     0
281
     0
 65
     1
110
0.0
120
0.0
130
0.0
111
1.0
121
0.0
131
0.0
112
0.0
122
1.0
132
0.0
 79
     0
146
0.0
  0
VPORT
  5
33C
330
8
100
AcDbSymbolTableRecord
100
AcDbViewportTableRecord
  2
L6
 70
     0
 10
0.333333
 20
0.5
 11
0.666667
 21
1.0
 12
1.985394
 22
23.347693
 13
0.0
 23
0.0
 14
0.5
 24
0.5
 15
0.5
 25
0.5
 16
0.0
 26
0.0
 36
1.0
 17
0.0
 27
0.0
 37
0.0
 40
254.0
 41
0.069908
 42
50.0
 43
274.935447
 44
-274.935447
 50
0.0
 51
0.0
 71
     0
 72
   100
 73
     1
 74
     3
 75
     0
 76
     0
 77
     0
 78
     0
281
     0
 65
     1
110
0.0
120
0.0
130
0.0
111
1.0
121
0.0
131
0.0
112
0.0
122
1.0
132
0.0
 79
     0
146
0.0
  0
VPORT
  5
33D
330
8
100
AcDbSymbolTableRecord
100
AcDbViewportTableRecord
  2
L6
 70
     0
 10
0.333333
 20
0.0
 11
0.666667
 21
0.5
 12
0.0
 22
0.0
 13
0.0
 23
0.0
 14
0.5
 24
0.5
 15
0.5
 25
0.5
 16
0.0
 26
-1.0
 36
0.0
 17
0.0
 27
0.0
 37
0.0
 40
1781.061032
 41
0.00997
 42
50.0
 43
921.359141
 44
-921.359141
 50
0.0
 51
0.0
 71
     0
 72
   100
 73
     1
 74
     3
 75
     0
 76
     0
 77
     0
 78
     0
281
     0
 65
     1
110
0.0
120
0.0
130
0.0
111
1.0
121
0.0
131
0.0
112
0.0
122
1.0
132
0.0
 79
     0
146
0.0
  0
VPORT
  5
33E
330
8
100
AcDbSymbolTableRecord
100
AcDbViewportTableRecord
  2
L6
 70
     0
 10
0.666667
 20
0.5
 11
1.0
 21
1.0
 12
0.0
 22
0.0
 13
0.0
 23
0.0
 14
0.5
 24
0.5
 15
0.5
 25
0.5
 16
0.5773502691896258
 26
-0.5773502691896258
 36
0.5773502691896258
 17
0.0
 27
0.0
 37
0.0
 40
1750.898652
 41
0.010142
 42
50.0
 43
912.370885
 44
-912.370885
 50
0.0
 51
0.0
 71
     0
 72
   100
 73
     1
 74
     3
 75
     0
 76
     0
 77
     0
 78
     0
281
     0
 65
     1
110
0.0
120
0.0
130
0.0
111
1.0
121
0.0
131
0.0
112
0.0
122
1.0
132
0.0
 79
     0
146
0.0
  0
VPORT
  5
33F
330
8
100
AcDbSymbolTableRecord
100
AcDbViewportTableRecord
  2
L6
 70
     0
 10
0.666667
 20
0.0
 11
1.0
 21
0.5
 12
0.0
 22
0.0
 13
0.0
 23
0.0
 14
0.5
 24
0.5
 15
0.5
 25
0.5
 16
1.0
 26
0.0
 36
0.0
 17
0.0
 27
0.0
 37
0.0
 40
1781.061032
 41
0.00997
 42
50.0
 43
899.540772
 44
-899.540772
 50
0.0
 51
0.0
 71
     0
 72
   100
 73
     1
 74
     3
 75
     0
 76
     0
 77
     0
 78
     0
281
     0
 65
     1
110
0.0
120
0.0
130
0.0
111
1.0
121
0.0
131
0.0
112
0.0
122
1.0
132
0.0
 79
     0
146
0.0
  0
ENDTAB
  0
TABLE
  2
LTYPE
  5
5
330
0
100
AcDbSymbolTable
 70
     6
  0
LTYPE
  5
14
330
5
100
AcDbSymbolTableRecord
100
AcDbLinetypeTableRecord
  2
ByBlock
 70
     0
  3

 72
    65
 73
     0
 40
0.0
  0
LTYPE
  5
15
330
5
100
AcDbSymbolTableRecord
100
AcDbLinetypeTableRecord
  2
ByLayer
 70
     0
  3

 72
    65
 73
     0
 40
0.0
  0
LTYPE
  5
16
330
5
100
AcDbSymbolTableRecord
100
AcDbLinetypeTableRecord
  2
Continuous
 70
     0
  3
Solid line
 72
    65
 73
     0
 40
0.0
  0
LTYPE
  5
6E
330
5
100
AcDbSymbolTableRecord
100
AcDbLinetypeTableRecord
  2
CENTER
 70
     0
  3
____ _ ____ _ ____ _ ____
 72
    65
 73
     4
 40
47.4
 49
22.0
 74
     4
 75
     0
340
0
 46
0.0
 50
0.0
 44
0.0
 45
0.0
 49
-8.5
 74
     4
 75
     0
340
0
 46
0.0
 50
0.0
 44
0.0
 45
0.0
 49
8.5
 74
     4
 75
     0
340
0
 46
0.0
 50
0.0
 44
0.0
 45
0.0
 49
-8.5
 74
     4
 75
     0
340
0
 46
0.0
 50
0.0
 44
0.0
 45
0.0
  0
LTYPE
  5
6F
330
5
100
AcDbSymbolTableRecord
100
AcDbLinetypeTableRecord
  2
DASHDOT
 70
     0
  3
_._._._._._._._._._._._._._._._.
 72
    65
 73
     4
 40
70.0
 49
31.0
 74
     4
 75
     0
340
0
 46
0.0
 50
0.0
 44
0.0
 45
0.0
 49
-13.0
 74
     4
 75
     0
340
0
 46
0.0
 50
0.0
 44
0.0
 45
0.0
 49
13.0
 74
     4
 75
     0
340
0
 46
0.0
 50
0.0
 44
0.0
 45
0.0
 49
-13.0
 74
     4
 75
     0
340
0
 46
0.0
 50
0.0
 44
0.0
 45
0.0
  0
LTYPE
  5
70
330
5
100
AcDbSymbolTableRecord
100
AcDbLinetypeTableRecord
  2
DASHED
 70
     0
  3
__ __ __ __ __ __ __ __ __
 72
    65
 73
     2
 40
25.72
 49
12.86
 74
     4
 75
     0
340
0
 46
0.0
 50
0.0
 44
0.0
 45
0.0
 49
-12.86
 74
     4
 75
     0
340
0
 46
0.0
 50
0.0
 44
0.0
 45
0.0
  0
LTYPE
  5
71
330
5
100
AcDbSymbolTableRecord
100
AcDbLinetypeTableRecord
  2
DOT
 70
     0
  3
.........................
 72
    65
 73
     2
 40
10.0
 49
0.0
 74
     4
 75
     0
340
0
 46
0.0
 50
0.0
 44
0.0
 45
0.0
 49
-10.0
 74
     4
 75
     0
340
0
 46
0.0
 50
0.0
 44
0.0
 45
0.0
  0
LTYPE
  5
72
330
5
100
AcDbSymbolTableRecord
100
AcDbLinetypeTableRecord
  2
PHANTOM
 70
     0
  3
____ _ _ ____ _ _ _____ _ _ ____
 72
    65
 73
     6
 40
50.5
 49
18.0
 74
     4
 75
     0
340
0
 46
0.0
 50
0.0
 44
0.0
 45
0.0
 49
-6.5
 74
     4
 75
     0
340
0
 46
0.0
 50
0.0
 44
0.0
 45
0.0
 49
6.5
 74
     4
 75
     0
340
0
 46
0.0
 50
0.0
 44
0.0
 45
0.0
 49
-6.5
 74
     4
 75
     0
340
0
 46
0.0
 50
0.0
 44
0.0
 45
0.0
 49
6.5
 74
     4
 75
     0
340
0
 46
0.0
 50
0.0
 44
0.0
 45
0.0
 49
-6.5
 74
     4
 75
     0
340
0
 46
0.0
 50
0.0
 44
0.0
 45
0.0
  0
ENDTAB
  0
TABLE
  2
LAYER
  5
99901
330
0
100
AcDbSymbolTable
 70
    19
  0
LAYER
  5
99902
102
{ACAD_XDICTIONARY
360
60E
102
}
330
2
100
AcDbSymbolTableRecord
100
AcDbLayerTableRecord
  2
0
 70
     0
 62
     7
  6
CONTINUOUS
370
    -3
390
F
  0
LAYER
  5
99903
102
{ACAD_XDICTIONARY
360
610
102
}
330
2
100
AcDbSymbolTableRecord
100
AcDbLayerTableRecord
  2
1
 70
     0
 62
     4
  6
CONTINUOUS
370
    -3
390
F
  0
LAYER
  5
99904
102
{ACAD_XDICTIONARY
360
612
102
}
330
2
100
AcDbSymbolTableRecord
100
AcDbLayerTableRecord
  2
2
 70
     0
 62
     7
  6
CONTINUOUS
370
    -3
390
F
  0
LAYER
  5
99905
102
{ACAD_XDICTIONARY
360
614
102
}
330
2
100
AcDbSymbolTableRecord
100
AcDbLayerTableRecord
  2
4
 70
     0
 62
     2
  6
CENTER
370
    -3
390
F
  0
LAYER
  5
99906
102
{ACAD_XDICTIONARY
360
616
102
}
330
2
100
AcDbSymbolTableRecord
100
AcDbLayerTableRecord
  2
SK2
 70
     0
 62
     7
  6
CONTINUOUS
370
    -3
390
F
  0
LAYER
  5
99907
102
{ACAD_XDICTIONARY
360
618
102
}
330
2
100
AcDbSymbolTableRecord
100
AcDbLayerTableRecord
  2
SK3
 70
     0
 62
     1
  6
DASHED
370
    -3
390
F
  0
LAYER
  5
99908
102
{ACAD_XDICTIONARY
360
61A
102
}
330
2
100
AcDbSymbolTableRecord
100
AcDbLayerTableRecord
  2
SK4
 70
     0
 62
     2
  6
CENTER
370
    -3
390
F
  0
LAYER
  5
99909
102
{ACAD_XDICTIONARY
360
61C
102
}
330
2
100
AcDbSymbolTableRecord
100
AcDbLayerTableRecord
  2
SK6
 70
     0
 62
     5
  6
CONTINUOUS
370
    -3
390
F
  0
LAYER
  5
9990A
102
{ACAD_XDICTIONARY
360
61E
102
}
330
2
100
AcDbSymbolTableRecord
100
AcDbLayerTableRecord
  2
CUT
 70
     0
 62
     1
  6
CONTINUOUS
370
    -3
390
F
  0
LAYER
  5
9990B
102
{ACAD_XDICTIONARY
360
620
102
}
330
2
100
AcDbSymbolTableRecord
100
AcDbLayerTableRecord
  2
NOCUT
 70
     0
 62
     7
  6
CONTINUOUS
370
    -3
390
F
  0
LAYER
  5
9990C
102
{ACAD_XDICTIONARY
360
622
102
}
330
2
100
AcDbSymbolTableRecord
100
AcDbLayerTableRecord
  2
80
 70
     0
 62
     6
  6
CONTINUOUS
370
    -3
390
F
  0
LAYER
  5
9990D
102
{ACAD_XDICTIONARY
360
624
102
}
330
2
100
AcDbSymbolTableRecord
100
AcDbLayerTableRecord
  2
81
 70
     0
 62
     3
  6
CONTINUOUS
370
    -3
390
F
  0
LAYER
  5
9990E
102
{ACAD_XDICTIONARY
360
626
102
}
330
2
100
AcDbSymbolTableRecord
100
AcDbLayerTableRecord
  2
SK1
 70
     0
 62
     4
  6
CONTINUOUS
370
    -3
390
F
  0
ENDTAB
  0
TABLE
  2
STYLE
  5
3
330
0
100
AcDbSymbolTable
 70
     3
  0
STYLE
  5
11
330
3
100
AcDbSymbolTableRecord
100
AcDbTextStyleTableRecord
  2
Standard
 70
     0
 40
0.0
 41
1.0
 50
0.0
 71
     0
 42
0.2
  3
txt
  4

  0
STYLE
  5
288
330
3
100
AcDbSymbolTableRecord
100
AcDbTextStyleTableRecord
  2
iso_b_vert
 70
     0
 40
0.0
 41
1.0
 50
0.0
 71
     0
 42
0.2
  3
simplex.shx
  4

  0
STYLE
  5
289
330
3
100
AcDbSymbolTableRecord
100
AcDbTextStyleTableRecord
  2
DWGDirectTextStyle
 70
     0
 40
0.0
 41
1.0
 50
0.0
 71
     0
 42
0.2
  3
simplex
  4

  0
ENDTAB
  0
TABLE
  2
VIEW
  5
6
330
0
100
AcDbSymbolTable
 70
     8
  0
VIEW
  5
328
330
6
100
AcDbSymbolTableRecord
100
AcDbViewTableRecord
  2
Top
 70
     0
 40
254.0
 10
1.985394
 20
23.347693
 41
472.686224
 11
0.0
 21
0.0
 31
1.0
 12
0.0
 22
0.0
 32
0.0
 42
50.0
 43
274.935447
 44
-274.935447
 50
0.0
 71
     0
281
     0
 72
     0
  0
VIEW
  5
329
330
6
100
AcDbSymbolTableRecord
100
AcDbViewTableRecord
  2
Front
 70
     0
 40
1781.061032
 10
0.0
 20
0.0
 41
472.686224
 11
0.0
 21
-1.0
 31
0.0
 12
0.0
 22
0.0
 32
0.0
 42
50.0
 43
921.359141
 44
-921.359141
 50
0.0
 71
     0
281
     0
 72
     0
  0
VIEW
  5
32A
330
6
100
AcDbSymbolTableRecord
100
AcDbViewTableRecord
  2
Right
 70
     0
 40
1781.061032
 10
0.0
 20
0.0
 41
254.0
 11
1.0
 21
0.0
 31
0.0
 12
0.0
 22
0.0
 32
0.0
 42
50.0
 43
899.540772
 44
-899.540772
 50
0.0
 71
     0
281
     0
 72
     0
  0
VIEW
  5
32B
330
6
100
AcDbSymbolTableRecord
100
AcDbViewTableRecord
  2
Back
 70
     0
 40
1781.061032
 10
0.0
 20
0.0
 41
472.686224
 11
0.0
 21
1.0
 31
0.0
 12
0.0
 22
0.0
 32
0.0
 42
50.0
 43
921.359141
 44
-921.359141
 50
0.0
 71
     0
281
     0
 72
     0
  0
VIEW
  5
32C
330
6
100
AcDbSymbolTableRecord
100
AcDbViewTableRecord
  2
Bottom
 70
     0
 40
254.0
 10
0.0
 20
0.0
 41
472.686224
 11
0.0
 21
0.0
 31
-1.0
 12
0.0
 22
0.0
 32
0.0
 42
50.0
 43
890.530516
 44
-890.530516
 50
180.0
 71
     0
281
     0
 72
     0
  0
VIEW
  5
32D
330
6
100
AcDbSymbolTableRecord
100
AcDbViewTableRecord
  2
Left
 70
     0
 40
1781.061032
 10
0.0
 20
0.0
 41
254.0
 11
-1.0
 21
0.0
 31
0.0
 12
0.0
 22
0.0
 32
0.0
 42
50.0
 43
899.540772
 44
-899.540772
 50
0.0
 71
     0
281
     0
 72
     0
  0
VIEW
  5
32E
330
6
100
AcDbSymbolTableRecord
100
AcDbViewTableRecord
  2
Isometric
 70
     0
 40
1750.898652
 10
0.0
 20
0.0
 41
513.844757
 11
0.5773502691896258
 21
-0.5773502691896258
 31
0.5773502691896258
 12
0.0
 22
0.0
 32
0.0
 42
50.0
 43
912.370885
 44
-912.370885
 50
0.0
 71
     0
281
     0
 72
     0
  0
VIEW
  5
32F
330
6
100
AcDbSymbolTableRecord
100
AcDbViewTableRecord
  2
Trimetric
 70
     0
 40
1848.611658
 10
0.0
 20
0.0
 41
495.372123
 11
0.7188730927569433
 21
-0.5850486126764433
 31
0.3754192287502549
 12
0.0
 22
0.0
 32
0.0
 42
50.0
 43
956.916742
 44
-956.916742
 50
0.0
 71
     0
281
     0
 72
     0
  0
ENDTAB
  0
TABLE
  2
UCS
  5
7
330
0
100
AcDbSymbolTable
 70
     0
  0
ENDTAB
  0
TABLE
  2
APPID
  5
9
330
0
100
AcDbSymbolTable
 70
     7
  0
APPID
  5
12
330
9
100
AcDbSymbolTableRecord
100
AcDbRegAppTableRecord
  2
ACAD
 70
     0
  0
APPID
  5
290
330
9
100
AcDbSymbolTableRecord
100
AcDbRegAppTableRecord
  2
ACAD_DSTYLE_DIMBREAK
 70
     0
  0
APPID
  5
30E
330
9
100
AcDbSymbolTableRecord
100
AcDbRegAppTableRecord
  2
ACAD_DSTYLE_DIMANGULAR_EXTENSION
 70
     0
  0
APPID
  5
340
330
9
100
AcDbSymbolTableRecord
100
AcDbRegAppTableRecord
  2
ACAD_DSTYLE_DIM_LINETYPE
 70
     0
  0
APPID
  5
341
330
9
100
AcDbSymbolTableRecord
100
AcDbRegAppTableRecord
  2
ACAD_DSTYLE_DIM_EXT1_LINETYPE
 70
     0
  0
APPID
  5
342
330
9
100
AcDbSymbolTableRecord
100
AcDbRegAppTableRecord
  2
ACAD_DSTYLE_DIM_EXT2_LINETYPE
 70
     0
  0
APPID
  5
382
330
9
100
AcDbSymbolTableRecord
100
AcDbRegAppTableRecord
  2
ACAD_MLEADERVER
 70
     0
  0
ENDTAB
  0
TABLE
  2
DIMSTYLE
  5
A
330
0
100
AcDbSymbolTable
 70
     1
100
AcDbDimStyleTable
  0
DIMSTYLE
105
27
102
{ACAD_REACTORS
330
291
330
2AB
330
2C5
330
2DD
330
2F5
330
30D
102
}
330
A
100
AcDbSymbolTableRecord
100
AcDbDimStyleTableRecord
  2
Standard
 70
     0
178
     0
340
11
1001
ACAD_DSTYLE_DIMBREAK
1070
   391
1040
6.35
  0
ENDTAB
  0
TABLE
  2
BLOCK_RECORD
  5
1
330
0
100
AcDbSymbolTable
 70
    13
  0
BLOCK_RECORD
  5
1F
330
1
100
AcDbSymbolTableRecord
100
AcDbBlockTableRecord
  2
*Model_Space
340
22
  0
BLOCK_RECORD
  5
1B
330
1
100
AcDbSymbolTableRecord
100
AcDbBlockTableRecord
  2
*Paper_Space
340
1E
  0
BLOCK_RECORD
  5
23
330
1
100
AcDbSymbolTableRecord
100
AcDbBlockTableRecord
  2
*Paper_Space0
340
26
  0
BLOCK_RECORD
  5
295
330
1
100
AcDbSymbolTableRecord
100
AcDbBlockTableRecord
  2
*D1
340
0
  0
BLOCK_RECORD
  5
2A1
330
1
100
AcDbSymbolTableRecord
100
AcDbBlockTableRecord
  2
_U0
340
0
  0
BLOCK_RECORD
  5
2AE
330
1
100
AcDbSymbolTableRecord
100
AcDbBlockTableRecord
  2
*D3
340
0
  0
BLOCK_RECORD
  5
2BC
330
1
100
AcDbSymbolTableRecord
100
AcDbBlockTableRecord
  2
_U1
340
0
  0
BLOCK_RECORD
  5
2C8
330
1
100
AcDbSymbolTableRecord
100
AcDbBlockTableRecord
  2
*D5
340
0
  0
BLOCK_RECORD
  5
2D4
330
1
100
AcDbSymbolTableRecord
100
AcDbBlockTableRecord
  2
_U2
340
0
  0
BLOCK_RECORD
  5
2E0
330
1
100
AcDbSymbolTableRecord
100
AcDbBlockTableRecord
  2
*D7
340
0
  0
BLOCK_RECORD
  5
2EC
330
1
100
AcDbSymbolTableRecord
100
AcDbBlockTableRecord
  2
_U3
340
0
  0
BLOCK_RECORD
  5
2F8
330
1
100
AcDbSymbolTableRecord
100
AcDbBlockTableRecord
  2
*D9
340
0
  0
BLOCK_RECORD
  5
304
330
1
100
AcDbSymbolTableRecord
100
AcDbBlockTableRecord
  2
_U4
340
0
  0
BLOCK_RECORD
  5
311
330
1
100
AcDbSymbolTableRecord
100
AcDbBlockTableRecord
  2
*D11
340
0
  0
BLOCK_RECORD
  5
31F
330
1
100
AcDbSymbolTableRecord
100
AcDbBlockTableRecord
  2
_U5
340
0
  0
ENDTAB
  0
ENDSEC
  0
SECTION
  2
BLOCKS
  0
BLOCK
  5
20
330
1F
100
AcDbEntity
  8
0
100
AcDbBlockBegin
  2
*Model_Space
 70
     0
 10
0.0
 20
0.0
 30
0.0
  3
*Model_Space
  1

  0
ENDBLK
  5
21
330
1F
100
AcDbEntity
  8
0
100
AcDbBlockEnd
  0
BLOCK
  5
1C
330
1B
100
AcDbEntity
 67
     1
  8
0
100
AcDbBlockBegin
  2
*Paper_Space
 70
     0
 10
0.0
 20
0.0
 30
0.0
  3
*Paper_Space
  1

  0
ENDBLK
  5
1D
330
1B
100
AcDbEntity
 67
     1
  8
0
100
AcDbBlockEnd
  0
BLOCK
  5
24
330
23
100
AcDbEntity
  8
0
100
AcDbBlockBegin
  2
*Paper_Space0
 70
     0
 10
0.0
 20
0.0
 30
0.0
  3
*Paper_Space0
  1

  0
ENDBLK
  5
25
330
23
100
AcDbEntity
  8
0
100
AcDbBlockEnd
  0
BLOCK
  5
296
330
295
100
AcDbEntity
  8
0
100
AcDbBlockBegin
  2
*D1
 70
     1
 10
0.0
 20
0.0
 30
0.0
  3
*D1
  1

  0
LINE
  5
298
330
295
100
AcDbEntity
  8
SK2
370
    -2
100
AcDbLine
 10
16.2625
 20
12.7
 30
0.0
 11
-71.949875
 21
12.7
 31
0.0
  0
LINE
  5
299
330
295
100
AcDbEntity
  8
SK2
370
    -2
100
AcDbLine
 10
-56.7375
 20
-12.7
 30
0.0
 11
-71.949875
 21
-12.7
 31
0.0
  0
LINE
  5
29A
330
295
100
AcDbEntity
  8
SK2
370
    -2
100
AcDbLine
 10
-68.774875
 20
9.525
 30
0.0
 11
-68.774875
 21
-9.525
 31
0.0
  0
SOLID
  5
29B
330
295
100
AcDbEntity
  8
SK2
100
AcDbTrace
 10
-68.245708
 20
9.525
 30
0.0
 11
-69.304042
 21
9.525
 31
0.0
 12
-68.774875
 22
12.7
 32
0.0
 13
-68.774875
 23
12.7
 33
0.0
  0
SOLID
  5
29C
330
295
100
AcDbEntity
  8
SK2
100
AcDbTrace
 10
-69.304042
 20
-9.525
 30
0.0
 11
-68.245708
 21
-9.525
 31
0.0
 12
-68.774875
 22
-12.7
 32
0.0
 13
-68.774875
 23
-12.7
 33
0.0
  0
MTEXT
  5
29D
330
295
100
AcDbEntity
  8
SK2
370
    18
100
AcDbMText
 10
-76.081334
 20
0.0
 30
0.0
 40
3.5001
 41
0.0
 71
     5
 72
     1
  1
\A1;25.4
  7
iso_b_vert
 11
0.0
 21
1.0
 31
0.0
 73
     1
 44
1.0
  0
POINT
  5
29E
330
295
100
AcDbEntity
  8
Defpoints
 62
     0
100
AcDbPoint
 10
17.85
 20
12.7
 30
0.0
  0
POINT
  5
29F
330
295
100
AcDbEntity
  8
Defpoints
 62
     0
100
AcDbPoint
 10
-55.15
 20
-12.7
 30
0.0
  0
POINT
  5
2A0
330
295
100
AcDbEntity
  8
Defpoints
 62
     0
100
AcDbPoint
 10
-68.774875
 20
-12.7
 30
0.0
  0
ENDBLK
  5
297
330
295
100
AcDbEntity
  8
0
100
AcDbBlockEnd
  0
BLOCK
  5
2A9
330
2A1
100
AcDbEntity
  8
0
100
AcDbBlockBegin
  2
_U0
 70
     0
 10
0.0
 20
0.0
 30
0.0
  3
_U0
  1

  0
MTEXT
  5
2A2
330
2A1
100
AcDbEntity
  8
SK2
370
    13
100
AcDbMText
 10
-70.339553
 20
1.208202
 30
0.0
 40
3.5001
 41
0.0
 71
     7
 72
     5
  1
\W0.7724;25,4
  7
iso_b_vert
 11
6.123233995736766E-17
 21
1.0
 31
0.0
 73
     2
 44
1.084337
  0
MTEXT
  5
2A3
330
2A1
100
AcDbEntity
  8
SK2
370
    13
100
AcDbMText
 10
-70.339553
 20
-9.292098
 30
0.0
 40
3.5001
 41
0.0
 71
     7
 72
     5
  1
%%c
  7
iso_b_vert
 11
6.123233995736766E-17
 21
1.0
 31
0.0
 73
     2
 44
1.084337
  0
LINE
  5
2A4
330
2A1
100
AcDbEntity
  8
SK2
370
    13
100
AcDbLine
 10
-21.330375
 20
12.7
 30
0.0
 11
-71.949875
 21
12.7
 31
0.0
  0
LINE
  5
2A5
330
2A1
100
AcDbEntity
  8
SK2
370
    13
100
AcDbLine
 10
-56.7375
 20
-12.7
 30
0.0
 11
-71.949875
 21
-12.7
 31
0.0
  0
LINE
  5
2A6
330
2A1
100
AcDbEntity
  8
SK2
370
    13
100
AcDbLine
 10
-68.774875
 20
21.45025
 30
0.0
 11
-68.774875
 21
-21.45025
 31
0.0
  0
SOLID
  5
2A7
330
2A1
100
AcDbEntity
  8
SK2
370
    18
100
AcDbTrace
 10
-68.774875
 20
12.7
 30
0.0
 11
-69.192872
 21
15.874998
 31
0.0
 12
-68.356878
 22
15.875002
 32
0.0
 13
-68.356878
 23
15.875002
 33
0.0
  0
SOLID
  5
2A8
330
2A1
100
AcDbEntity
  8
SK2
370
    18
100
AcDbTrace
 10
-68.774875
 20
-12.7
 30
0.0
 11
-68.356878
 21
-15.874998
 31
0.0
 12
-69.192872
 22
-15.875002
 32
0.0
 13
-69.192872
 23
-15.875002
 33
0.0
  0
ENDBLK
  5
2AA
330
2A1
100
AcDbEntity
  8
0
100
AcDbBlockEnd
  0
BLOCK
  5
2AF
330
2AE
100
AcDbEntity
  8
0
100
AcDbBlockBegin
  2
*D3
 70
     1
 10
0.0
 20
0.0
 30
0.0
  3
*D3
  1

  0
LINE
  5
2B1
330
2AE
100
AcDbEntity
  8
2
370
    -2
100
AcDbLine
 10
56.435281
 20
23.637358
 30
0.0
 11
56.435281
 21
29.724758
 31
0.0
  0
LINE
  5
2B2
330
2AE
100
AcDbEntity
  8
2
370
    -2
100
AcDbLine
 10
62.85
 20
18.4375
 30
0.0
 11
62.85
 21
29.724758
 31
0.0
  0
LINE
  5
2B3
330
2AE
100
AcDbEntity
  8
2
370
    -2
100
AcDbLine
 10
62.85
 20
26.549758
 30
0.0
 11
87.813032
 21
26.549758
 31
0.0
  0
LINE
  5
2B4
330
2AE
100
AcDbEntity
  8
2
370
    -2
100
AcDbLine
 10
53.260281
 20
26.549758
 30
0.0
 11
50.085281
 21
26.549758
 31
0.0
  0
LINE
  5
2B5
330
2AE
100
AcDbEntity
  8
2
370
    -2
100
AcDbLine
 10
66.025
 20
26.549758
 30
0.0
 11
69.2
 21
26.549758
 31
0.0
  0
SOLID
  5
2B6
330
2AE
100
AcDbEntity
  8
2
100
AcDbTrace
 10
53.260281
 20
26.020591
 30
0.0
 11
53.260281
 21
27.078924
 31
0.0
 12
56.435281
 22
26.549758
 32
0.0
 13
56.435281
 23
26.549758
 33
0.0
  0
SOLID
  5
2B7
330
2AE
100
AcDbEntity
  8
2
100
AcDbTrace
 10
66.025
 20
27.078924
 30
0.0
 11
66.025
 21
26.020591
 31
0.0
 12
62.85
 22
26.549758
 32
0.0
 13
62.85
 23
26.549758
 33
0.0
  0
MTEXT
  5
2B8
330
2AE
100
AcDbEntity
  8
2
370
    18
100
AcDbMText
 10
78.506516
 20
33.856216
 30
0.0
 40
3.5001
 41
0.0
 71
     5
 72
     1
  1
\A1;6.4
  7
iso_b_vert
 73
     1
 44
1.0
  0
POINT
  5
2B9
330
2AE
100
AcDbEntity
  8
Defpoints
 62
     0
100
AcDbPoint
 10
56.435281
 20
22.049858
 30
0.0
  0
POINT
  5
2BA
330
2AE
100
AcDbEntity
  8
Defpoints
 62
     0
100
AcDbPoint
 10
62.85
 20
16.85
 30
0.0
  0
POINT
  5
2BB
330
2AE
100
AcDbEntity
  8
Defpoints
 62
     0
100
AcDbPoint
 10
62.85
 20
26.549758
 30
0.0
  0
ENDBLK
  5
2B0
330
2AE
100
AcDbEntity
  8
0
100
AcDbBlockEnd
  0
BLOCK
  5
2C3
330
2BC
100
AcDbEntity
  8
0
100
AcDbBlockBegin
  2
_U1
 70
     0
 10
0.0
 20
0.0
 30
0.0
  3
_U1
  1

  0
MTEXT
  5
2BD
330
2BC
100
AcDbEntity
  8
2
370
    13
100
AcDbMText
 10
74.148005
 20
27.582421
 30
0.0
 40
3.5001
 41
0.0
 71
     7
 72
     5
  1
\W0.7656;6,4
  7
iso_b_vert
 73
     2
 44
1.084337
  0
LINE
  5
2BE
330
2BC
100
AcDbEntity
  8
2
370
    13
100
AcDbLine
 10
56.435281
 20
23.637358
 30
0.0
 11
56.435281
 21
29.724758
 31
0.0
  0
LINE
  5
2BF
330
2BC
100
AcDbEntity
  8
2
370
    13
100
AcDbLine
 10
62.85
 20
18.4375
 30
0.0
 11
62.85
 21
29.724758
 31
0.0
  0
LINE
  5
2C0
330
2BC
100
AcDbEntity
  8
2
370
    13
100
AcDbLine
 10
79.745864
 20
26.549758
 30
0.0
 11
47.685031
 21
26.549758
 31
0.0
  0
SOLID
  5
2C1
330
2BC
100
AcDbEntity
  8
2
370
    18
100
AcDbTrace
 10
56.435281
 20
26.549758
 30
0.0
 11
53.260283
 21
26.131761
 31
0.0
 12
53.26028
 22
26.967754
 32
0.0
 13
53.26028
 23
26.967754
 33
0.0
  0
SOLID
  5
2C2
330
2BC
100
AcDbEntity
  8
2
370
    18
100
AcDbTrace
 10
62.85
 20
26.549758
 30
0.0
 11
66.024998
 21
26.967754
 31
0.0
 12
66.025002
 22
26.131761
 32
0.0
 13
66.025002
 23
26.131761
 33
0.0
  0
ENDBLK
  5
2C4
330
2BC
100
AcDbEntity
  8
0
100
AcDbBlockEnd
  0
BLOCK
  5
2C9
330
2C8
100
AcDbEntity
  8
0
100
AcDbBlockBegin
  2
*D5
 70
     1
 10
0.0
 20
0.0
 30
0.0
  3
*D5
  1

  0
LINE
  5
2CB
330
2C8
100
AcDbEntity
  8
2
370
    -2
100
AcDbLine
 10
17.85
 20
14.2875
 30
0.0
 11
17.85
 21
39.5249
 31
0.0
  0
LINE
  5
2CC
330
2C8
100
AcDbEntity
  8
2
370
    -2
100
AcDbLine
 10
62.85
 20
18.4375
 30
0.0
 11
62.85
 21
39.5249
 31
0.0
  0
LINE
  5
2CD
330
2C8
100
AcDbEntity
  8
2
370
    -2
100
AcDbLine
 10
21.025
 20
36.3499
 30
0.0
 11
59.675
 21
36.3499
 31
0.0
  0
SOLID
  5
2CE
330
2C8
100
AcDbEntity
  8
2
100
AcDbTrace
 10
21.025
 20
36.879067
 30
0.0
 11
21.025
 21
35.820733
 31
0.0
 12
17.85
 22
36.3499
 32
0.0
 13
17.85
 23
36.3499
 33
0.0
  0
SOLID
  5
2CF
330
2C8
100
AcDbEntity
  8
2
100
AcDbTrace
 10
59.675
 20
35.820733
 30
0.0
 11
59.675
 21
36.879067
 31
0.0
 12
62.85
 22
36.3499
 32
0.0
 13
62.85
 23
36.3499
 33
0.0
  0
MTEXT
  5
2D0
330
2C8
100
AcDbEntity
  8
2
370
    18
100
AcDbMText
 10
40.35
 20
43.656359
 30
0.0
 40
3.5001
 41
0.0
 71
     5
 72
     1
  1
\A1;45
  7
iso_b_vert
 73
     1
 44
1.0
  0
POINT
  5
2D1
330
2C8
100
AcDbEntity
  8
Defpoints
 62
     0
100
AcDbPoint
 10
17.85
 20
12.7
 30
0.0
  0
POINT
  5
2D2
330
2C8
100
AcDbEntity
  8
Defpoints
 62
     0
100
AcDbPoint
 10
62.85
 20
16.85
 30
0.0
  0
POINT
  5
2D3
330
2C8
100
AcDbEntity
  8
Defpoints
 62
     0
100
AcDbPoint
 10
62.85
 20
36.3499
 30
0.0
  0
ENDBLK
  5
2CA
330
2C8
100
AcDbEntity
  8
0
100
AcDbBlockEnd
  0
BLOCK
  5
2DB
330
2D4
100
AcDbEntity
  8
0
100
AcDbBlockBegin
  2
_U2
 70
     0
 10
0.0
 20
0.0
 30
0.0
  3
_U2
  1

  0
MTEXT
  5
2D5
330
2D4
100
AcDbEntity
  8
2
370
    13
100
AcDbMText
 10
38.260707
 20
37.382563
 30
0.0
 40
3.5001
 41
0.0
 71
     7
 72
     5
  1
\W0.8010;45
  7
iso_b_vert
 73
     2
 44
1.084337
  0
LINE
  5
2D6
330
2D4
100
AcDbEntity
  8
2
370
    13
100
AcDbLine
 10
17.85
 20
14.2875
 30
0.0
 11
17.85
 21
39.5249
 31
0.0
  0
LINE
  5
2D7
330
2D4
100
AcDbEntity
  8
2
370
    13
100
AcDbLine
 10
62.85
 20
18.4375
 30
0.0
 11
62.85
 21
39.5249
 31
0.0
  0
LINE
  5
2D8
330
2D4
100
AcDbEntity
  8
2
370
    13
100
AcDbLine
 10
17.85
 20
36.3499
 30
0.0
 11
62.85
 21
36.3499
 31
0.0
  0
SOLID
  5
2D9
330
2D4
100
AcDbEntity
  8
2
370
    18
100
AcDbTrace
 10
17.85
 20
36.3499
 30
0.0
 11
21.024998
 21
36.767897
 31
0.0
 12
21.025002
 22
35.931903
 32
0.0
 13
21.025002
 23
35.931903
 33
0.0
  0
SOLID
  5
2DA
330
2D4
100
AcDbEntity
  8
2
370
    18
100
AcDbTrace
 10
62.85
 20
36.3499
 30
0.0
 11
59.675002
 21
35.931903
 31
0.0
 12
59.674998
 22
36.767897
 32
0.0
 13
59.674998
 23
36.767897
 33
0.0
  0
ENDBLK
  5
2DC
330
2D4
100
AcDbEntity
  8
0
100
AcDbBlockEnd
  0
BLOCK
  5
2E1
330
2E0
100
AcDbEntity
  8
0
100
AcDbBlockBegin
  2
*D7
 70
     1
 10
0.0
 20
0.0
 30
0.0
  3
*D7
  1

  0
LINE
  5
2E3
330
2E0
100
AcDbEntity
  8
SK2
370
    -2
100
AcDbLine
 10
0.0
 20
2.5875
 30
0.0
 11
0.0
 21
47.5249
 31
0.0
  0
LINE
  5
2E4
330
2E0
100
AcDbEntity
  8
SK2
370
    -2
100
AcDbLine
 10
62.85
 20
18.4375
 30
0.0
 11
62.85
 21
47.5249
 31
0.0
  0
LINE
  5
2E5
330
2E0
100
AcDbEntity
  8
SK2
370
    -2
100
AcDbLine
 10
3.175
 20
44.3499
 30
0.0
 11
59.675
 21
44.3499
 31
0.0
  0
SOLID
  5
2E6
330
2E0
100
AcDbEntity
  8
SK2
100
AcDbTrace
 10
3.175
 20
44.879067
 30
0.0
 11
3.175
 21
43.820733
 31
0.0
 12
0.0
 22
44.3499
 32
0.0
 13
0.0
 23
44.3499
 33
0.0
  0
SOLID
  5
2E7
330
2E0
100
AcDbEntity
  8
SK2
100
AcDbTrace
 10
59.675
 20
43.820733
 30
0.0
 11
59.675
 21
44.879067
 31
0.0
 12
62.85
 22
44.3499
 32
0.0
 13
62.85
 23
44.3499
 33
0.0
  0
MTEXT
  5
2E8
330
2E0
100
AcDbEntity
  8
SK2
370
    18
100
AcDbMText
 10
31.425
 20
51.656359
 30
0.0
 40
3.5001
 41
0.0
 71
     5
 72
     1
  1
\A1;62.9
  7
iso_b_vert
 73
     1
 44
1.0
  0
POINT
  5
2E9
330
2E0
100
AcDbEntity
  8
Defpoints
 62
     0
100
AcDbPoint
 10
0.0
 20
1.0
 30
0.0
  0
POINT
  5
2EA
330
2E0
100
AcDbEntity
  8
Defpoints
 62
     0
100
AcDbPoint
 10
62.85
 20
16.85
 30
0.0
  0
POINT
  5
2EB
330
2E0
100
AcDbEntity
  8
Defpoints
 62
     0
100
AcDbPoint
 10
62.85
 20
44.3499
 30
0.0
  0
ENDBLK
  5
2E2
330
2E0
100
AcDbEntity
  8
0
100
AcDbBlockEnd
  0
BLOCK
  5
2F3
330
2EC
100
AcDbEntity
  8
0
100
AcDbBlockBegin
  2
_U3
 70
     0
 10
0.0
 20
0.0
 30
0.0
  3
_U3
  1

  0
MTEXT
  5
2ED
330
2EC
100
AcDbEntity
  8
SK2
370
    13
100
AcDbMText
 10
27.595325
 20
45.382563
 30
0.0
 40
3.5001
 41
0.0
 71
     7
 72
     5
  1
\W0.7485;62,8
  7
iso_b_vert
 73
     2
 44
1.084337
  0
LINE
  5
2EE
330
2EC
100
AcDbEntity
  8
SK2
370
    13
100
AcDbLine
 10
0.0
 20
2.5875
 30
0.0
 11
0.0
 21
47.5249
 31
0.0
  0
LINE
  5
2EF
330
2EC
100
AcDbEntity
  8
SK2
370
    13
100
AcDbLine
 10
62.85
 20
18.4375
 30
0.0
 11
62.85
 21
47.5249
 31
0.0
  0
LINE
  5
2F0
330
2EC
100
AcDbEntity
  8
SK2
370
    13
100
AcDbLine
 10
0.0
 20
44.3499
 30
0.0
 11
62.85
 21
44.3499
 31
0.0
  0
SOLID
  5
2F1
330
2EC
100
AcDbEntity
  8
SK2
370
    18
100
AcDbTrace
 10
0.0
 20
44.3499
 30
0.0
 11
3.174998
 21
44.767897
 31
0.0
 12
3.175002
 22
43.931903
 32
0.0
 13
3.175002
 23
43.931903
 33
0.0
  0
SOLID
  5
2F2
330
2EC
100
AcDbEntity
  8
SK2
370
    18
100
AcDbTrace
 10
62.85
 20
44.3499
 30
0.0
 11
59.675002
 21
43.931903
 31
0.0
 12
59.674998
 22
44.767897
 32
0.0
 13
59.674998
 23
44.767897
 33
0.0
  0
ENDBLK
  5
2F4
330
2EC
100
AcDbEntity
  8
0
100
AcDbBlockEnd
  0
BLOCK
  5
2F9
330
2F8
100
AcDbEntity
  8
0
100
AcDbBlockBegin
  2
*D9
 70
     1
 10
0.0
 20
0.0
 30
0.0
  3
*D9
  1

  0
LINE
  5
2FB
330
2F8
100
AcDbEntity
  8
SK2
370
    -2
100
AcDbLine
 10
-57.15
 20
12.2875
 30
0.0
 11
-57.15
 21
55.5249
 31
0.0
  0
LINE
  5
2FC
330
2F8
100
AcDbEntity
  8
SK2
370
    -2
100
AcDbLine
 10
62.85
 20
18.4375
 30
0.0
 11
62.85
 21
55.5249
 31
0.0
  0
LINE
  5
2FD
330
2F8
100
AcDbEntity
  8
SK2
370
    -2
100
AcDbLine
 10
-53.975
 20
52.3499
 30
0.0
 11
59.675
 21
52.3499
 31
0.0
  0
SOLID
  5
2FE
330
2F8
100
AcDbEntity
  8
SK2
100
AcDbTrace
 10
-53.975
 20
52.879067
 30
0.0
 11
-53.975
 21
51.820733
 31
0.0
 12
-57.15
 22
52.3499
 32
0.0
 13
-57.15
 23
52.3499
 33
0.0
  0
SOLID
  5
2FF
330
2F8
100
AcDbEntity
  8
SK2
100
AcDbTrace
 10
59.675
 20
51.820733
 30
0.0
 11
59.675
 21
52.879067
 31
0.0
 12
62.85
 22
52.3499
 32
0.0
 13
62.85
 23
52.3499
 33
0.0
  0
MTEXT
  5
300
330
2F8
100
AcDbEntity
  8
SK2
370
    18
100
AcDbMText
 10
2.85
 20
59.656359
 30
0.0
 40
3.5001
 41
0.0
 71
     5
 72
     1
  1
\A1;120
  7
iso_b_vert
 73
     1
 44
1.0
  0
POINT
  5
301
330
2F8
100
AcDbEntity
  8
Defpoints
 62
     0
100
AcDbPoint
 10
-57.15
 20
10.7
 30
0.0
  0
POINT
  5
302
330
2F8
100
AcDbEntity
  8
Defpoints
 62
     0
100
AcDbPoint
 10
62.85
 20
16.85
 30
0.0
  0
POINT
  5
303
330
2F8
100
AcDbEntity
  8
Defpoints
 62
     0
100
AcDbPoint
 10
62.85
 20
52.3499
 30
0.0
  0
ENDBLK
  5
2FA
330
2F8
100
AcDbEntity
  8
0
100
AcDbBlockEnd
  0
BLOCK
  5
30B
330
304
100
AcDbEntity
  8
0
100
AcDbBlockBegin
  2
_U4
 70
     0
 10
0.0
 20
0.0
 30
0.0
  3
_U4
  1

  0
MTEXT
  5
305
330
304
100
AcDbEntity
  8
SK2
370
    13
100
AcDbMText
 10
0.074655
 20
53.382563
 30
0.0
 40
3.5001
 41
0.0
 71
     7
 72
     5
  1
\W0.7088;120
  7
iso_b_vert
 73
     2
 44
1.084337
  0
LINE
  5
306
330
304
100
AcDbEntity
  8
SK2
370
    13
100
AcDbLine
 10
-57.15
 20
12.2875
 30
0.0
 11
-57.15
 21
55.5249
 31
0.0
  0
LINE
  5
307
330
304
100
AcDbEntity
  8
SK2
370
    13
100
AcDbLine
 10
62.85
 20
18.4375
 30
0.0
 11
62.85
 21
55.5249
 31
0.0
  0
LINE
  5
308
330
304
100
AcDbEntity
  8
SK2
370
    13
100
AcDbLine
 10
-57.15
 20
52.3499
 30
0.0
 11
62.85
 21
52.3499
 31
0.0
  0
SOLID
  5
309
330
304
100
AcDbEntity
  8
SK2
370
    18
100
AcDbTrace
 10
-57.15
 20
52.3499
 30
0.0
 11
-53.975002
 21
52.767897
 31
0.0
 12
-53.974998
 22
51.931903
 32
0.0
 13
-53.974998
 23
51.931903
 33
0.0
  0
SOLID
  5
30A
330
304
100
AcDbEntity
  8
SK2
370
    18
100
AcDbTrace
 10
62.85
 20
52.3499
 30
0.0
 11
59.675002
 21
51.931903
 31
0.0
 12
59.674998
 22
52.767897
 32
0.0
 13
59.674998
 23
52.767897
 33
0.0
  0
ENDBLK
  5
30C
330
304
100
AcDbEntity
  8
0
100
AcDbBlockEnd
  0
BLOCK
  5
312
330
311
100
AcDbEntity
  8
0
100
AcDbBlockBegin
  2
*D11
 70
     1
 10
0.0
 20
0.0
 30
0.0
  3
*D11
  1

  0
LINE
  5
314
330
311
100
AcDbEntity
  8
2
370
    -2
100
AcDbLine
 10
62.85
 20
18.4375
 30
0.0
 11
62.85
 21
36.911361
 31
0.0
  0
LINE
  5
315
330
311
100
AcDbEntity
  8
2
370
    -2
100
AcDbLine
 10
61.430237
 20
17.249067
 30
0.0
 11
47.942735
 21
30.73657
 31
0.0
  0
ARC
  5
316
330
311
100
AcDbEntity
  8
2
370
    -2
100
AcDbCircle
 10
62.85
 20
15.829304
 30
0.0
 40
17.90705704012444
100
AcDbArc
 50
100.172148
 51
124.827852
  0
SOLID
  5
317
330
311
100
AcDbEntity
  8
2
100
AcDbTrace
 10
59.734413
 20
32.927807
 30
0.0
 11
59.640589
 21
33.981974
 31
0.0
 12
62.85
 22
33.736361
 32
0.0
 13
62.85
 23
33.736361
 33
0.0
  0
SOLID
  5
318
330
311
100
AcDbEntity
  8
2
100
AcDbTrace
 10
52.28352
 20
30.934576
 30
0.0
 11
52.962585
 21
30.122825
 31
0.0
 12
50.187799
 22
28.491506
 32
0.0
 13
50.187799
 23
28.491506
 33
0.0
  0
MTEXT
  5
319
330
311
100
AcDbEntity
  8
2
370
    18
100
AcDbMText
 10
53.201205
 20
39.123555
 30
0.0
 40
3.5001
 41
0.0
 71
     5
 72
     1
  1
\A1;45%%d
  7
iso_b_vert
 73
     1
 44
1.0
  0
POINT
  5
31A
330
311
100
AcDbEntity
  8
Defpoints
 62
     0
100
AcDbPoint
 10
58.215313
 20
33.126193
 30
0.0
  0
POINT
  5
31B
330
311
100
AcDbEntity
  8
Defpoints
 62
     0
100
AcDbPoint
 10
62.55984
 20
16.119464
 30
0.0
  0
POINT
  5
31C
330
311
100
AcDbEntity
  8
Defpoints
 62
     0
100
AcDbPoint
 10
62.85
 20
14.85
 30
0.0
  0
POINT
  5
31D
330
311
100
AcDbEntity
  8
Defpoints
 62
     0
100
AcDbPoint
 10
62.85
 20
16.85
 30
0.0
  0
POINT
  5
31E
330
311
100
AcDbEntity
  8
Defpoints
 62
     0
100
AcDbPoint
 10
62.552769
 20
16.126535
 30
0.0
  0
ENDBLK
  5
313
330
311
100
AcDbEntity
  8
0
100
AcDbBlockEnd
  0
BLOCK
  5
326
330
31F
100
AcDbEntity
  8
0
100
AcDbBlockBegin
  2
_U5
 70
     0
 10
0.0
 20
0.0
 30
0.0
  3
_U5
  1

  0
MTEXT
  5
320
330
31F
100
AcDbEntity
  8
2
370
    13
100
AcDbMText
 10
54.058162
 20
28.809514
 30
0.0
 40
3.5001
 41
0.0
 71
     7
 72
     5
  1
\W0.9173;45%%d
  7
iso_b_vert
 11
0.9238795325112864
 21
0.3826834323650901
 31
0.0
 73
     2
 44
1.084337
  0
LINE
  5
321
330
31F
100
AcDbEntity
  8
2
370
    13
100
AcDbLine
 10
62.85
 20
18.4375
 30
0.0
 11
62.85
 21
33.411261
 31
0.0
  0
LINE
  5
322
330
31F
100
AcDbEntity
  8
2
370
    13
100
AcDbLine
 10
61.430237
 20
17.249067
 30
0.0
 11
50.417679
 21
28.261625
 31
0.0
  0
ARC
  5
323
330
31F
100
AcDbEntity
  8
2
370
    13
100
AcDbCircle
 10
62.85
 20
15.829304
 30
0.0
 40
14.40695704012444
100
AcDbArc
 50
58.727061
 51
166.272882
  0
SOLID
  5
324
330
31F
100
AcDbEntity
  8
2
370
    18
100
AcDbTrace
 10
62.85
 20
30.236261
 30
0.0
 11
66.043145
 21
30.479493
 31
0.0
 12
65.997297
 22
29.644758
 32
0.0
 13
65.997297
 23
29.644758
 33
0.0
  0
SOLID
  5
325
330
31F
100
AcDbEntity
  8
2
370
    18
100
AcDbTrace
 10
52.662743
 20
26.016561
 30
0.0
 11
50.855526
 21
23.372832
 31
0.0
 12
50.232856
 22
23.930655
 32
0.0
 13
50.232856
 23
23.930655
 33
0.0
  0
ENDBLK
  5
327
330
31F
100
AcDbEntity
  8
0
100
AcDbBlockEnd
  0
ENDSEC
  0
SECTION
  2
ENTITIES
  0
POINT
  5
73
330
1F
100
AcDbEntity
  8
80
370
    18
100
AcDbPoint
 10
0.0
 20
0.0
 30
0.0
  0
LINE
  5
77
330
1F
100
AcDbEntity
  8
NOCUT
370
    18
100
AcDbLine
 10
-57.05
 20
10.8
 30
0.0
 11
-44.45
 21
10.8
 31
0.0
  0
LINE
  5
78
330
1F
100
AcDbEntity
  8
NOCUT
370
    18
100
AcDbLine
 10
29.697012
 20
12.0
 30
0.0
 11
18.35
 21
12.0
 31
0.0
  0
LINE
  5
79
330
1F
100
AcDbEntity
  8
NOCUT
370
    18
100
AcDbLine
 10
61.06934
 20
16.465632
 30
0.0
 11
57.468261
 21
20.194658
 31
0.0
  0
LINE
  5
7A
330
1F
100
AcDbEntity
  8
NOCUT
370
    18
100
AcDbLine
 10
17.85
 20
12.5
 30
0.0
 11
17.85
 21
12.7
 31
0.0
  0
LINE
  5
7B
330
1F
100
AcDbEntity
  8
NOCUT
370
    18
100
AcDbLine
 10
25.159401
 20
0.0
 30
0.0
 11
22.85
 21
4.0
 31
0.0
  0
LINE
  5
7C
330
1F
100
AcDbEntity
  8
NOCUT
370
    18
100
AcDbLine
 10
-57.15
 20
-10.7
 30
0.0
 11
-55.15
 21
-12.7
 31
0.0
  0
LINE
  5
7D
330
1F
100
AcDbEntity
  8
NOCUT
370
    18
100
AcDbLine
 10
46.565752
 20
-20.5
 30
0.0
 11
56.748921
 21
-20.5
 31
0.0
  0
LINE
  5
7E
330
1F
100
AcDbEntity
  8
NOCUT
370
    18
100
AcDbLine
 10
59.658694
 20
11.152141
 30
0.0
 11
61.019131
 21
12.377084
 31
0.0
  0
LINE
  5
7F
330
1F
100
AcDbEntity
  8
NOCUT
370
    18
100
AcDbLine
 10
-57.15
 20
-5.154701
 30
0.0
 11
-57.15
 21
-10.7
 31
0.0
  0
LINE
  5
80
330
1F
100
AcDbEntity
  8
NOCUT
370
    18
100
AcDbLine
 10
-57.15
 20
5.154701
 30
0.0
 11
-55.15
 21
4.0
 31
0.0
  0
LINE
  5
81
330
1F
100
AcDbEntity
  8
NOCUT
370
    18
100
AcDbLine
 10
-21.61
 20
10.8
 30
0.0
 11
-19.742875
 21
12.7
 31
0.0
  0
LINE
  5
82
330
1F
100
AcDbEntity
  8
NOCUT
370
    18
100
AcDbLine
 10
43.69787
 20
19.59576
 30
0.0
 11
35.432776
 21
13.80848
 31
0.0
  0
LINE
  5
83
330
1F
100
AcDbEntity
  8
NOCUT
370
    18
100
AcDbLine
 10
61.35
 20
-15.770974
 30
0.0
 11
61.35
 21
-13.120229
 31
0.0
  0
LINE
  5
84
330
1F
100
AcDbEntity
  8
NOCUT
370
    18
100
AcDbLine
 10
17.85
 20
12.7
 30
0.0
 11
-19.742875
 21
12.7
 31
0.0
  0
LINE
  5
85
330
1F
100
AcDbEntity
  8
NOCUT
370
    18
100
AcDbLine
 10
-55.15
 20
-4.0
 30
0.0
 11
22.85
 21
-4.0
 31
0.0
  0
LINE
  5
86
330
1F
100
AcDbEntity
  8
NOCUT
370
    18
100
AcDbLine
 10
-44.45
 20
10.8
 30
0.0
 11
-42.582875
 21
12.7
 31
0.0
  0
LINE
  5
87
330
1F
100
AcDbEntity
  8
NOCUT
370
    18
100
AcDbLine
 10
18.35
 20
-12.0
 30
0.0
 11
29.697012
 21
-12.0
 31
0.0
  0
LINE
  5
88
330
1F
100
AcDbEntity
  8
NOCUT
370
    18
100
AcDbLine
 10
57.468261
 20
-20.194658
 30
0.0
 11
61.06934
 21
-16.465632
 31
0.0
  0
LINE
  5
89
330
1F
100
AcDbEntity
  8
NOCUT
370
    18
100
AcDbLine
 10
17.85
 20
-12.7
 30
0.0
 11
17.85
 21
-12.5
 31
0.0
  0
LINE
  5
8A
330
1F
100
AcDbEntity
  8
NOCUT
370
    18
100
AcDbLine
 10
22.85
 20
-4.0
 30
0.0
 11
25.159401
 21
0.0
 31
0.0
  0
LINE
  5
8B
330
1F
100
AcDbEntity
  8
NOCUT
370
    18
100
AcDbLine
 10
-57.05
 20
10.8
 30
0.0
 11
-57.15
 21
10.7
 31
0.0
  0
LINE
  5
8C
330
1F
100
AcDbEntity
  8
NOCUT
370
    18
100
AcDbLine
 10
56.35
 20
-3.720693
 30
0.0
 11
56.35
 21
3.720693
 31
0.0
  0
LINE
  5
8D
330
1F
100
AcDbEntity
  8
NOCUT
370
    18
100
AcDbLine
 10
-57.15
 20
10.7
 30
0.0
 11
-57.15
 21
5.154701
 31
0.0
  0
LINE
  5
8E
330
1F
100
AcDbEntity
  8
NOCUT
370
    18
100
AcDbLine
 10
-55.15
 20
-4.0
 30
0.0
 11
-57.15
 21
-5.154701
 31
0.0
  0
LINE
  5
8F
330
1F
100
AcDbEntity
  8
NOCUT
370
    18
100
AcDbLine
 10
-36.557125
 20
12.7
 30
0.0
 11
-34.69
 21
10.8
 31
0.0
  0
LINE
  5
90
330
1F
100
AcDbEntity
  8
NOCUT
370
    18
100
AcDbLine
 10
56.748921
 20
20.5
 30
0.0
 11
46.565752
 21
20.5
 31
0.0
  0
LINE
  5
91
330
1F
100
AcDbEntity
  8
NOCUT
370
    18
100
AcDbLine
 10
61.019131
 20
-12.377084
 30
0.0
 11
59.658694
 21
-11.152141
 31
0.0
  0
LINE
  5
92
330
1F
100
AcDbEntity
  8
NOCUT
370
    18
100
AcDbLine
 10
-55.15
 20
-12.7
 30
0.0
 11
17.85
 21
-12.7
 31
0.0
  0
LINE
  5
93
330
1F
100
AcDbEntity
  8
NOCUT
370
    18
100
AcDbLine
 10
22.85
 20
4.0
 30
0.0
 11
-55.15
 21
4.0
 31
0.0
  0
LINE
  5
94
330
1F
100
AcDbEntity
  8
NOCUT
370
    18
100
AcDbLine
 10
-34.69
 20
10.8
 30
0.0
 11
-21.61
 21
10.8
 31
0.0
  0
LINE
  5
95
330
1F
100
AcDbEntity
  8
NOCUT
370
    18
100
AcDbLine
 10
35.432776
 20
-13.80848
 30
0.0
 11
43.69787
 21
-19.59576
 31
0.0
  0
LINE
  5
96
330
1F
100
AcDbEntity
  8
NOCUT
370
    18
100
AcDbLine
 10
61.35
 20
13.120229
 30
0.0
 11
61.35
 21
15.770974
 31
0.0
  0
LINE
  5
97
330
1F
100
AcDbEntity
  8
NOCUT
370
    18
100
AcDbLine
 10
-36.557125
 20
12.7
 30
0.0
 11
-42.582875
 21
12.7
 31
0.0
  0
LINE
  5
98
330
1F
100
AcDbEntity
  8
CUT
370
    18
100
AcDbLine
 10
62.85
 20
15.467187
 30
0.0
 11
62.85
 21
13.787539
 31
0.0
  0
LINE
  5
9A
330
1F
100
AcDbEntity
  8
CUT
370
    18
100
AcDbLine
 10
46.970768
 20
13.12114
 30
0.0
 11
46.970768
 21
14.876222
 31
0.0
  0
LINE
  5
9B
330
1F
100
AcDbEntity
  8
CUT
370
    18
100
AcDbLine
 10
62.85
 20
-13.787539
 30
0.0
 11
62.85
 21
-15.467187
 31
0.0
  0
LINE
  5
9C
330
1F
100
AcDbEntity
  8
1
370
    13
100
AcDbLine
 10
53.77283
 20
-18.309902
 30
0.0
 11
54.188314
 21
-18.750273
 31
0.0
  0
LINE
  5
9E
330
1F
100
AcDbEntity
  8
1
370
    13
100
AcDbLine
 10
61.35
 20
15.756725
 30
0.0
 11
61.35
 21
13.596497
 31
0.0
  0
LINE
  5
9F
330
1F
100
AcDbEntity
  8
1
370
    13
100
AcDbLine
 10
56.29529
 20
1.153453
 30
0.0
 11
56.29529
 21
2.479638
 31
0.0
  0
LINE
  5
A0
330
1F
100
AcDbEntity
  8
1
370
    13
100
AcDbLine
 10
61.282162
 20
-6.924518
 30
0.0
 11
61.282162
 21
-6.072832
 31
0.0
  0
LINE
  5
A1
330
1F
100
AcDbEntity
  8
1
370
    13
100
AcDbLine
 10
56.35
 20
2.499943
 30
0.0
 11
56.35
 21
1.127047
 31
0.0
  0
LINE
  5
A2
330
1F
100
AcDbEntity
  8
1
370
    13
100
AcDbLine
 10
61.35
 20
-0.240587
 30
0.0
 11
61.35
 21
-5.973083
 31
0.0
  0
LINE
  5
A3
330
1F
100
AcDbEntity
  8
1
370
    13
100
AcDbLine
 10
61.35
 20
-5.974035
 30
0.0
 11
61.35
 21
-7.129221
 31
0.0
  0
LINE
  5
A4
330
1F
100
AcDbEntity
  8
1
370
    13
100
AcDbLine
 10
61.35
 20
-0.182326
 30
0.0
 11
61.35
 21
-0.240587
 31
0.0
  0
LINE
  5
A5
330
1F
100
AcDbEntity
  8
1
370
    13
100
AcDbLine
 10
62.85
 20
7.825464
 30
0.0
 11
62.85
 21
7.641355
 31
0.0
  0
LINE
  5
A7
330
1F
100
AcDbEntity
  8
1
370
    13
100
AcDbLine
 10
56.365476
 20
0.425965
 30
0.0
 11
57.088446
 21
0.606693
 31
0.0
  0
LINE
  5
A8
330
1F
100
AcDbEntity
  8
1
370
    13
100
AcDbLine
 10
57.763627
 20
0.850486
 30
0.0
 11
61.759883
 21
2.882579
 31
0.0
  0
LINE
  5
A9
330
1F
100
AcDbEntity
  8
1
370
    13
100
AcDbLine
 10
46.970768
 20
9.262916
 30
0.0
 11
46.970768
 21
10.514877
 31
0.0
  0
LINE
  5
AA
330
1F
100
AcDbEntity
  8
1
370
    13
100
AcDbLine
 10
47.260928
 20
10.959771
 30
0.0
 11
53.385487
 21
14.363388
 31
0.0
  0
LINE
  5
AB
330
1F
100
AcDbEntity
  8
1
370
    13
100
AcDbLine
 10
54.060668
 20
14.454966
 30
0.0
 11
55.7601
 21
14.147435
 31
0.0
  0
LINE
  5
AC
330
1F
100
AcDbEntity
  8
1
370
    13
100
AcDbLine
 10
56.435281
 20
13.811495
 30
0.0
 11
62.55984
 21
8.191267
 31
0.0
  0
LINE
  5
AD
330
1F
100
AcDbEntity
  8
1
370
    13
100
AcDbLine
 10
62.85
 20
7.641358
 30
0.0
 11
62.85
 21
6.389397
 31
0.0
  0
LINE
  5
AE
330
1F
100
AcDbEntity
  8
1
370
    13
100
AcDbLine
 10
62.55984
 20
5.944503
 30
0.0
 11
56.435281
 21
2.540885
 31
0.0
  0
LINE
  5
AF
330
1F
100
AcDbEntity
  8
1
370
    13
100
AcDbLine
 10
55.7601
 20
2.449308
 30
0.0
 11
54.060668
 21
2.756838
 31
0.0
  0
LINE
  5
B0
330
1F
100
AcDbEntity
  8
1
370
    13
100
AcDbLine
 10
53.385487
 20
3.092779
 30
0.0
 11
47.260928
 21
8.713007
 31
0.0
  0
LINE
  5
B1
330
1F
100
AcDbEntity
  8
1
370
    13
100
AcDbLine
 10
57.088446
 20
15.460224
 30
0.0
 11
54.717322
 21
15.889304
 31
0.0
  0
LINE
  5
B2
330
1F
100
AcDbEntity
  8
1
370
    13
100
AcDbLine
 10
61.759883
 20
11.457101
 30
0.0
 11
57.763627
 21
15.124283
 31
0.0
  0
LINE
  5
B3
330
1F
100
AcDbEntity
  8
1
370
    13
100
AcDbLine
 10
54.042141
 20
15.797727
 30
0.0
 11
53.892095
 21
15.714341
 31
0.0
  0
LINE
  5
B4
330
1F
100
AcDbEntity
  8
1
370
    13
100
AcDbLine
 10
51.883056
 20
-19.981855
 30
0.0
 11
53.385487
 21
-21.58079
 31
0.0
  0
LINE
  5
B5
330
1F
100
AcDbEntity
  8
1
370
    13
100
AcDbLine
 10
54.060668
 20
-21.916161
 30
0.0
 11
55.7601
 21
-22.033453
 31
0.0
  0
LINE
  5
B6
330
1F
100
AcDbEntity
  8
1
370
    13
100
AcDbLine
 10
61.719296
 20
-11.554892
 30
0.0
 11
61.759883
 21
-11.598086
 31
0.0
  0
LINE
  5
B7
330
1F
100
AcDbEntity
  8
1
370
    13
100
AcDbLine
 10
62.050043
 20
-12.290062
 30
0.0
 11
62.050043
 21
-14.649836
 31
0.0
  0
LINE
  5
B8
330
1F
100
AcDbEntity
  8
1
370
    13
100
AcDbLine
 10
61.759883
 20
-15.301759
 30
0.0
 11
57.763627
 21
-19.003072
 31
0.0
  0
LINE
  5
B9
330
1F
100
AcDbEntity
  8
1
370
    13
100
AcDbLine
 10
56.435281
 20
-21.791281
 30
0.0
 11
62.55984
 21
-16.118745
 31
0.0
  0
LINE
  5
BA
330
1F
100
AcDbEntity
  8
1
370
    13
100
AcDbLine
 10
62.85
 20
-15.466822
 30
0.0
 11
62.85
 21
-13.775524
 31
0.0
  0
LINE
  5
BB
330
1F
100
AcDbEntity
  8
1
370
    13
100
AcDbLine
 10
56.912667
 20
15.599913
 30
0.0
 11
54.505803
 21
16.035462
 31
0.0
  0
LINE
  5
BD
330
1F
100
AcDbEntity
  8
1
370
    13
100
AcDbLine
 10
55.002016
 20
17.119344
 30
0.0
 11
57.916454
 21
16.591945
 31
0.0
  0
LINE
  5
BE
330
1F
100
AcDbEntity
  8
1
370
    13
100
AcDbLine
 10
58.456599
 20
16.323193
 30
0.0
 11
61.166204
 21
13.836712
 31
0.0
  0
LINE
  5
BF
330
1F
100
AcDbEntity
  8
1
370
    13
100
AcDbLine
 10
53.969781
 20
16.772612
 30
0.0
 11
54.461871
 21
17.046082
 31
0.0
  0
LINE
  5
C0
330
1F
100
AcDbEntity
  8
1
370
    13
100
AcDbLine
 10
56.367587
 20
0.388636
 30
0.0
 11
56.912667
 21
0.524894
 31
0.0
  0
LINE
  5
C1
330
1F
100
AcDbEntity
  8
1
370
    13
100
AcDbLine
 10
57.916454
 20
-1.873765
 30
0.0
 11
57.014162
 21
-2.099319
 31
0.0
  0
LINE
  5
C2
330
1F
100
AcDbEntity
  8
1
370
    13
100
AcDbLine
 10
61.166204
 20
-0.300899
 30
0.0
 11
58.456599
 21
-1.67873
 31
0.0
  0
LINE
  5
C3
330
1F
100
AcDbEntity
  8
1
370
    13
100
AcDbLine
 10
56.912667
 20
-19.378849
 30
0.0
 11
54.505803
 21
-19.212731
 31
0.0
  0
LINE
  5
C4
330
1F
100
AcDbEntity
  8
1
370
    13
100
AcDbLine
 10
61.398332
 20
-14.046992
 30
0.0
 11
61.398332
 21
-11.146503
 31
0.0
  0
LINE
  5
C5
330
1F
100
AcDbEntity
  8
1
370
    13
100
AcDbLine
 10
58.456599
 20
-17.078153
 30
0.0
 11
61.166204
 21
-14.568531
 31
0.0
  0
LINE
  5
C6
330
1F
100
AcDbEntity
  8
1
370
    13
100
AcDbLine
 10
61.770705
 20
-15.1859
 30
0.0
 11
57.452811
 21
-19.185112
 31
0.0
  0
LINE
  5
C7
330
1F
100
AcDbEntity
  8
1
370
    13
100
AcDbLine
 10
62.002833
 20
-12.269019
 30
0.0
 11
62.002833
 21
-14.664362
 31
0.0
  0
LINE
  5
C8
330
1F
100
AcDbEntity
  8
1
370
    13
100
AcDbLine
 10
55.96641
 20
20.5
 30
0.0
 11
46.565752
 21
20.5
 31
0.0
  0
LINE
  5
C9
330
1F
100
AcDbEntity
  8
1
370
    13
100
AcDbLine
 10
43.69787
 20
19.59576
 30
0.0
 11
35.432776
 21
13.80848
 31
0.0
  0
LINE
  5
CA
102
{ACAD_REACTORS
330
293
102
}
330
1F
100
AcDbEntity
  8
SK1
370
    13
100
AcDbLine
 10
-55.15
 20
-12.7
 30
0.0
 11
17.85
 21
-12.7
 31
0.0
  0
LINE
  5
CB
330
1F
100
AcDbEntity
  8
SK1
370
    13
100
AcDbLine
 10
-36.557125
 20
12.7
 30
0.0
 11
-42.582875
 21
12.7
 31
0.0
  0
LINE
  5
CC
102
{ACAD_REACTORS
330
293
102
}
330
1F
100
AcDbEntity
  8
SK1
370
    13
100
AcDbLine
 10
17.85
 20
12.7
 30
0.0
 11
-19.742875
 21
12.7
 31
0.0
  0
LINE
  5
CD
330
1F
100
AcDbEntity
  8
SK1
370
    13
100
AcDbLine
 10
-57.05
 20
10.8
 30
0.0
 11
-57.15
 21
10.7
 31
0.0
  0
LINE
  5
CE
330
1F
100
AcDbEntity
  8
SK1
370
    13
100
AcDbLine
 10
-57.15
 20
-10.7
 30
0.0
 11
-55.15
 21
-12.7
 31
0.0
  0
LINE
  5
CF
330
1F
100
AcDbEntity
  8
1
370
    13
100
AcDbLine
 10
18.35
 20
-12.0
 30
0.0
 11
29.697012
 21
-12.0
 31
0.0
  0
LINE
  5
D0
330
1F
100
AcDbEntity
  8
1
370
    13
100
AcDbLine
 10
29.697012
 20
12.0
 30
0.0
 11
18.35
 21
12.0
 31
0.0
  0
LINE
  5
D1
330
1F
100
AcDbEntity
  8
1
370
    13
100
AcDbLine
 10
35.432776
 20
-13.80848
 30
0.0
 11
36.676547
 21
-14.679377
 31
0.0
  0
LINE
  5
D2
330
1F
100
AcDbEntity
  8
1
370
    13
100
AcDbLine
 10
57.466436
 20
7.86915
 30
0.0
 11
57.747633
 21
8.632436
 31
0.0
  0
LINE
  5
D3
330
1F
100
AcDbEntity
  8
1
370
    13
100
AcDbLine
 10
52.868222
 20
10.43003
 30
0.0
 11
52.587024
 21
9.666744
 31
0.0
  0
LINE
  5
D4
330
1F
100
AcDbEntity
  8
1
370
    13
100
AcDbLine
 10
54.22942
 20
9.568324
 30
0.0
 11
54.302677
 21
9.767172
 31
0.0
  0
LINE
  5
D5
330
1F
100
AcDbEntity
  8
1
370
    13
100
AcDbLine
 10
56.245056
 20
9.041192
 30
0.0
 11
56.165282
 21
8.824652
 31
0.0
  0
LINE
  5
D6
330
1F
100
AcDbEntity
  8
1
370
    13
100
AcDbLine
 10
56.115102
 20
8.757633
 30
0.0
 11
55.691348
 21
7.607391
 31
0.0
  0
LINE
  5
D7
330
1F
100
AcDbEntity
  8
1
370
    13
100
AcDbLine
 10
53.755486
 20
8.351063
 30
0.0
 11
54.166897
 21
9.467802
 31
0.0
  0
LINE
  5
D8
330
1F
100
AcDbEntity
  8
1
370
    13
100
AcDbLine
 10
58.241155
 20
-13.14383
 30
0.0
 11
59.21908
 21
-12.131408
 31
0.0
  0
LINE
  5
D9
330
1F
100
AcDbEntity
  8
1
370
    13
100
AcDbLine
 10
56.701689
 20
-9.699794
 30
0.0
 11
56.025983
 21
-10.399336
 31
0.0
  0
LINE
  5
DA
330
1F
100
AcDbEntity
  8
1
370
    13
100
AcDbLine
 10
62.048894
 20
3.117718
 30
0.0
 11
62.582627
 21
5.957646
 31
0.0
  0
LINE
  5
DB
330
1F
100
AcDbEntity
  8
1
370
    13
100
AcDbLine
 10
62.834406
 20
7.766373
 30
0.0
 11
62.034449
 21
11.032207
 31
0.0
  0
LINE
  5
DC
330
1F
100
AcDbEntity
  8
1
370
    13
100
AcDbLine
 10
47.654291
 20
11.358519
 30
0.0
 11
47.127499
 21
10.863477
 31
0.0
  0
LINE
  5
DD
330
1F
100
AcDbEntity
  8
1
370
    13
100
AcDbLine
 10
62.731187
 20
-13.320343
 30
0.0
 11
61.931231
 21
-11.834881
 31
0.0
  0
LINE
  5
DE
330
1F
100
AcDbEntity
  8
1
370
    13
100
AcDbLine
 10
61.935414
 20
11.25322
 30
0.0
 11
61.385856
 21
13.496797
 31
0.0
  0
LINE
  5
DF
330
1F
100
AcDbEntity
  8
1
370
    13
100
AcDbLine
 10
61.397412
 20
-0.112787
 30
0.0
 11
61.987915
 21
3.029204
 31
0.0
  0
LINE
  5
E0
330
1F
100
AcDbEntity
  8
1
370
    13
100
AcDbLine
 10
61.907783
 20
-11.904874
 30
0.0
 11
61.350008
 21
-10.869125
 31
0.0
  0
LINE
  5
E1
330
1F
100
AcDbEntity
  8
80
370
    18
100
AcDbLine
 10
-1.0
 20
0.0
 30
0.0
 11
1.0
 21
0.0
 31
0.0
  0
LINE
  5
E2
102
{ACAD_REACTORS
330
2DF
102
}
330
1F
100
AcDbEntity
  8
80
370
    18
100
AcDbLine
 10
0.0
 20
1.0
 30
0.0
 11
0.0
 21
-1.0
 31
0.0
  0
LINE
  5
E3
102
{ACAD_REACTORS
330
310
102
}
330
1F
100
AcDbEntity
  8
2
370
    18
100
AcDbLine
 10
62.55984
 20
16.119464
 30
0.0
 11
62.552769
 21
16.126535
 31
0.0
  0
LINE
  5
E4
330
1F
100
AcDbEntity
  8
4
370
    18
100
AcDbLine
 10
15.85
 20
0.0
 30
0.0
 11
65.85
 21
0.0
 31
0.0
  0
LINE
  5
E5
330
1F
100
AcDbEntity
  8
SK4
370
    18
100
AcDbLine
 10
-59.15
 20
0.0
 30
0.0
 11
19.85
 21
0.0
 31
0.0
  0
LINE
  5
E6
330
1F
100
AcDbEntity
  8
1
370
    18
100
AcDbLine
 10
54.148947
 20
-18.887248
 30
0.0
 11
54.188314
 21
-18.750273
 31
0.0
  0
LINE
  5
E7
330
1F
100
AcDbEntity
  8
1
370
    18
100
AcDbLine
 10
56.254194
 20
-9.351519
 30
0.0
 11
56.176304
 21
-9.427795
 31
0.0
  0
LINE
  5
E8
330
1F
100
AcDbEntity
  8
1
370
    18
100
AcDbLine
 10
58.746656
 20
-13.006805
 30
0.0
 11
59.412986
 21
-12.554117
 31
0.0
  0
LINE
  5
E9
330
1F
100
AcDbEntity
  8
1
370
    18
100
AcDbLine
 10
54.148947
 20
16.345899
 30
0.0
 11
54.188314
 21
16.55204
 31
0.0
  0
LINE
  5
EA
330
1F
100
AcDbEntity
  8
1
370
    18
100
AcDbLine
 10
54.120914
 20
16.286765
 30
0.0
 11
53.812777
 21
15.47116
 31
0.0
  0
LINE
  5
EB
330
1F
100
AcDbEntity
  8
1
370
    18
100
AcDbLine
 10
60.626267
 20
16.580009
 30
0.0
 11
60.737724
 21
16.682285
 31
0.0
  0
LINE
  5
EC
330
1F
100
AcDbEntity
  8
1
370
    18
100
AcDbLine
 10
54.960384
 20
9.665039
 30
0.0
 11
54.980723
 21
9.61878
 31
0.0
  0
LINE
  5
ED
330
1F
100
AcDbEntity
  8
1
370
    18
100
AcDbLine
 10
54.960384
 20
9.665039
 30
0.0
 11
54.901507
 21
9.739071
 31
0.0
  0
LINE
  5
EE
330
1F
100
AcDbEntity
  8
1
370
    18
100
AcDbLine
 10
54.237266
 20
9.728153
 30
0.0
 11
54.229292
 21
9.653023
 31
0.0
  0
LINE
  5
EF
330
1F
100
AcDbEntity
  8
1
370
    18
100
AcDbLine
 10
53.694096
 20
9.355597
 30
0.0
 11
53.754319
 21
9.336385
 31
0.0
  0
LINE
  5
F0
330
1F
100
AcDbEntity
  8
1
370
    18
100
AcDbLine
 10
53.694096
 20
9.355597
 30
0.0
 11
53.590154
 21
9.368532
 31
0.0
  0
LINE
  5
F1
330
1F
100
AcDbEntity
  8
1
370
    18
100
AcDbLine
 10
53.412171
 20
8.911398
 30
0.0
 11
53.498201
 21
8.852455
 31
0.0
  0
LINE
  5
F2
330
1F
100
AcDbEntity
  8
1
370
    18
100
AcDbLine
 10
53.555997
 20
8.827013
 30
0.0
 11
53.498201
 21
8.852455
 31
0.0
  0
LINE
  5
F3
330
1F
100
AcDbEntity
  8
1
370
    18
100
AcDbLine
 10
53.694096
 20
8.278415
 30
0.0
 11
53.649031
 21
8.217319
 31
0.0
  0
LINE
  5
F4
330
1F
100
AcDbEntity
  8
1
370
    18
100
AcDbLine
 10
54.135289
 20
7.771102
 30
0.0
 11
54.229292
 21
7.78729
 31
0.0
  0
LINE
  5
F5
330
1F
100
AcDbEntity
  8
1
370
    18
100
AcDbLine
 10
54.275805
 20
7.808256
 30
0.0
 11
54.229292
 21
7.78729
 31
0.0
  0
LINE
  5
F6
330
1F
100
AcDbEntity
  8
1
370
    18
100
AcDbLine
 10
54.960384
 20
7.510676
 30
0.0
 11
54.940045
 21
7.556935
 31
0.0
  0
LINE
  5
F7
330
1F
100
AcDbEntity
  8
1
370
    18
100
AcDbLine
 10
54.960384
 20
7.510676
 30
0.0
 11
55.019261
 21
7.436644
 31
0.0
  0
LINE
  5
F8
330
1F
100
AcDbEntity
  8
1
370
    18
100
AcDbLine
 10
55.683502
 20
7.447562
 30
0.0
 11
55.691476
 21
7.522692
 31
0.0
  0
LINE
  5
F9
330
1F
100
AcDbEntity
  8
1
370
    18
100
AcDbLine
 10
56.226672
 20
7.820118
 30
0.0
 11
56.166449
 21
7.83933
 31
0.0
  0
LINE
  5
FA
330
1F
100
AcDbEntity
  8
1
370
    18
100
AcDbLine
 10
56.226672
 20
7.820118
 30
0.0
 11
56.330615
 21
7.807183
 31
0.0
  0
LINE
  5
FB
330
1F
100
AcDbEntity
  8
1
370
    18
100
AcDbLine
 10
56.508597
 20
8.264317
 30
0.0
 11
56.422568
 21
8.323259
 31
0.0
  0
LINE
  5
FC
330
1F
100
AcDbEntity
  8
1
370
    18
100
AcDbLine
 10
56.364771
 20
8.348702
 30
0.0
 11
56.422568
 21
8.323259
 31
0.0
  0
LINE
  5
FD
330
1F
100
AcDbEntity
  8
1
370
    18
100
AcDbLine
 10
56.226672
 20
8.8973
 30
0.0
 11
56.271738
 21
8.958396
 31
0.0
  0
LINE
  5
FE
330
1F
100
AcDbEntity
  8
1
370
    18
100
AcDbLine
 10
55.78548
 20
9.404613
 30
0.0
 11
55.691476
 21
9.388425
 31
0.0
  0
LINE
  5
FF
330
1F
100
AcDbEntity
  8
1
370
    18
100
AcDbLine
 10
55.644964
 20
9.367459
 30
0.0
 11
55.691476
 21
9.388425
 31
0.0
  0
LINE
  5
100
330
1F
100
AcDbEntity
  8
1
370
    18
100
AcDbLine
 10
58.361312
 20
-11.97803
 30
0.0
 11
58.984452
 21
-11.654625
 31
0.0
  0
LINE
  5
101
330
1F
100
AcDbEntity
  8
1
370
    18
100
AcDbLine
 10
62.85
 20
7.825464
 30
0.0
 11
62.804917
 21
7.886757
 31
0.0
  0
LINE
  5
102
330
1F
100
AcDbEntity
  8
1
370
    18
100
AcDbLine
 10
57.088446
 20
0.606693
 30
0.0
 11
57.763627
 21
0.850486
 31
0.0
  0
LINE
  5
103
330
1F
100
AcDbEntity
  8
1
370
    18
100
AcDbLine
 10
61.759883
 20
2.882579
 30
0.0
 11
62.048894
 21
3.117718
 31
0.0
  0
LINE
  5
104
330
1F
100
AcDbEntity
  8
1
370
    18
100
AcDbLine
 10
46.970768
 20
9.262916
 30
0.0
 11
47.260928
 21
8.713007
 31
0.0
  0
LINE
  5
105
330
1F
100
AcDbEntity
  8
1
370
    18
100
AcDbLine
 10
47.260928
 20
10.959771
 30
0.0
 11
46.970768
 21
10.514877
 31
0.0
  0
LINE
  5
106
330
1F
100
AcDbEntity
  8
1
370
    18
100
AcDbLine
 10
54.060668
 20
14.454966
 30
0.0
 11
53.385487
 21
14.363388
 31
0.0
  0
LINE
  5
107
330
1F
100
AcDbEntity
  8
1
370
    18
100
AcDbLine
 10
56.435281
 20
13.811495
 30
0.0
 11
55.7601
 21
14.147435
 31
0.0
  0
LINE
  5
108
330
1F
100
AcDbEntity
  8
1
370
    18
100
AcDbLine
 10
62.85
 20
7.641358
 30
0.0
 11
62.55984
 21
8.191267
 31
0.0
  0
LINE
  5
109
330
1F
100
AcDbEntity
  8
1
370
    18
100
AcDbLine
 10
62.55984
 20
5.944503
 30
0.0
 11
62.85
 21
6.389397
 31
0.0
  0
LINE
  5
10A
330
1F
100
AcDbEntity
  8
1
370
    18
100
AcDbLine
 10
55.7601
 20
2.449308
 30
0.0
 11
56.435281
 21
2.540885
 31
0.0
  0
LINE
  5
10B
330
1F
100
AcDbEntity
  8
1
370
    18
100
AcDbLine
 10
53.385487
 20
3.092779
 30
0.0
 11
54.060668
 21
2.756838
 31
0.0
  0
LINE
  5
10C
330
1F
100
AcDbEntity
  8
1
370
    18
100
AcDbLine
 10
57.763627
 20
15.124283
 30
0.0
 11
57.088446
 21
15.460224
 31
0.0
  0
LINE
  5
10D
330
1F
100
AcDbEntity
  8
1
370
    18
100
AcDbLine
 10
54.717322
 20
15.889304
 30
0.0
 11
54.042141
 21
15.797727
 31
0.0
  0
LINE
  5
10E
330
1F
100
AcDbEntity
  8
1
370
    18
100
AcDbLine
 10
62.034449
 20
11.03221
 30
0.0
 11
61.759883
 21
11.457101
 31
0.0
  0
LINE
  5
10F
330
1F
100
AcDbEntity
  8
1
370
    18
100
AcDbLine
 10
52.718141
 20
8.414195
 30
0.0
 11
52.786993
 21
8.326513
 31
0.0
  0
LINE
  5
110
330
1F
100
AcDbEntity
  8
1
370
    18
100
AcDbLine
 10
57.856296
 20
7.84618
 30
0.0
 11
57.899714
 21
7.923224
 31
0.0
  0
LINE
  5
111
330
1F
100
AcDbEntity
  8
1
370
    18
100
AcDbLine
 10
53.385487
 20
-21.58079
 30
0.0
 11
54.060668
 21
-21.916161
 31
0.0
  0
LINE
  5
112
330
1F
100
AcDbEntity
  8
1
370
    18
100
AcDbLine
 10
62.050043
 20
-12.290062
 30
0.0
 11
61.759883
 21
-11.598086
 31
0.0
  0
LINE
  5
113
330
1F
100
AcDbEntity
  8
1
370
    18
100
AcDbLine
 10
61.759883
 20
-15.301759
 30
0.0
 11
62.050043
 21
-14.649836
 31
0.0
  0
LINE
  5
114
330
1F
100
AcDbEntity
  8
1
370
    18
100
AcDbLine
 10
57.436801
 20
-19.199532
 30
0.0
 11
57.763627
 21
-19.003072
 31
0.0
  0
LINE
  5
115
330
1F
100
AcDbEntity
  8
1
370
    18
100
AcDbLine
 10
55.7601
 20
-22.033453
 30
0.0
 11
56.435281
 21
-21.791281
 31
0.0
  0
LINE
  5
116
330
1F
100
AcDbEntity
  8
1
370
    18
100
AcDbLine
 10
62.55984
 20
-16.118745
 30
0.0
 11
62.85
 21
-15.466822
 31
0.0
  0
LINE
  5
117
330
1F
100
AcDbEntity
  8
1
370
    18
100
AcDbLine
 10
62.85
 20
-13.775524
 30
0.0
 11
62.73119
 21
-13.320349
 31
0.0
  0
LINE
  5
118
330
1F
100
AcDbEntity
  8
1
370
    18
100
AcDbLine
 10
57.452811
 20
15.331161
 30
0.0
 11
56.912667
 21
15.599913
 31
0.0
  0
LINE
  5
119
330
1F
100
AcDbEntity
  8
1
370
    18
100
AcDbLine
 10
54.505803
 20
16.035462
 30
0.0
 11
53.965659
 21
15.962199
 31
0.0
  0
LINE
  5
11A
330
1F
100
AcDbEntity
  8
1
370
    18
100
AcDbLine
 10
58.456599
 20
16.323193
 30
0.0
 11
57.916454
 21
16.591945
 31
0.0
  0
LINE
  5
11B
330
1F
100
AcDbEntity
  8
1
370
    18
100
AcDbLine
 10
55.002016
 20
17.119344
 30
0.0
 11
54.461871
 21
17.046082
 31
0.0
  0
LINE
  5
11C
330
1F
100
AcDbEntity
  8
1
370
    18
100
AcDbLine
 10
61.385856
 20
13.496799
 30
0.0
 11
61.166204
 21
13.836712
 31
0.0
  0
LINE
  5
11D
330
1F
100
AcDbEntity
  8
1
370
    18
100
AcDbLine
 10
56.912667
 20
0.524894
 30
0.0
 11
57.452811
 21
0.719929
 31
0.0
  0
LINE
  5
11E
330
1F
100
AcDbEntity
  8
1
370
    18
100
AcDbLine
 10
57.916454
 20
-1.873765
 30
0.0
 11
58.456599
 21
-1.67873
 31
0.0
  0
LINE
  5
11F
330
1F
100
AcDbEntity
  8
1
370
    18
100
AcDbLine
 10
61.166204
 20
-0.300899
 30
0.0
 11
61.398332
 21
-0.103233
 31
0.0
  0
LINE
  5
120
330
1F
100
AcDbEntity
  8
1
370
    18
100
AcDbLine
 10
54.053187
 20
-19.026346
 30
0.0
 11
54.505803
 21
-19.212731
 31
0.0
  0
LINE
  5
121
330
1F
100
AcDbEntity
  8
1
370
    18
100
AcDbLine
 10
61.398332
 20
-11.146503
 30
0.0
 11
61.349997
 21
-10.885189
 31
0.0
  0
LINE
  5
122
330
1F
100
AcDbEntity
  8
1
370
    18
100
AcDbLine
 10
61.166204
 20
-14.568531
 30
0.0
 11
61.398332
 21
-14.046992
 31
0.0
  0
LINE
  5
123
330
1F
100
AcDbEntity
  8
1
370
    18
100
AcDbLine
 10
57.916454
 20
-17.27189
 30
0.0
 11
58.456599
 21
-17.078153
 31
0.0
  0
LINE
  5
124
330
1F
100
AcDbEntity
  8
1
370
    18
100
AcDbLine
 10
56.912667
 20
-19.378849
 30
0.0
 11
57.452811
 21
-19.185112
 31
0.0
  0
LINE
  5
125
330
1F
100
AcDbEntity
  8
1
370
    18
100
AcDbLine
 10
61.770705
 20
-15.1859
 30
0.0
 11
62.002833
 21
-14.664362
 31
0.0
  0
LINE
  5
126
330
1F
100
AcDbEntity
  8
1
370
    18
100
AcDbLine
 10
62.002833
 20
-12.269019
 30
0.0
 11
61.907785
 21
-11.904879
 31
0.0
  0
LINE
  5
127
330
1F
100
AcDbEntity
  8
1
370
    18
100
AcDbLine
 10
58.893617
 20
-12.938942
 30
0.0
 11
59.327803
 21
-12.036715
 31
0.0
  0
LINE
  5
128
330
1F
100
AcDbEntity
  8
1
370
    18
100
AcDbLine
 10
45.306523
 20
-2.244782
 30
0.0
 11
46.627618
 21
-3.110663
 31
0.0
  0
LINE
  5
129
330
1F
100
AcDbEntity
  8
1
370
    18
100
AcDbLine
 10
60.994208
 20
-6.574443
 30
0.0
 11
59.633771
 21
-5.325317
 31
0.0
  0
LINE
  5
12A
330
1F
100
AcDbEntity
  8
1
370
    18
100
AcDbLine
 10
61.282162
 20
-7.030576
 30
0.0
 11
60.994208
 21
-6.574443
 31
0.0
  0
LINE
  5
12B
330
1F
100
AcDbEntity
  8
1
370
    18
100
AcDbLine
 10
60.737724
 20
-8.567985
 30
0.0
 11
61.037905
 21
-8.550994
 31
0.0
  0
LINE
  5
12C
330
1F
100
AcDbEntity
  8
1
370
    18
100
AcDbLine
 10
46.627618
 20
-3.110663
 30
0.0
 11
46.565752
 21
-3.229753
 31
0.0
  0
LINE
  5
12D
330
1F
100
AcDbEntity
  8
1
370
    18
100
AcDbLine
 10
56.491974
 20
-8.374992
 30
0.0
 11
56.470124
 21
-8.440625
 31
0.0
  0
LINE
  5
12E
330
1F
100
AcDbEntity
  8
1
370
    18
100
AcDbLine
 10
56.380137
 20
-8.502596
 30
0.0
 11
56.470167
 21
-8.440528
 31
0.0
  0
LINE
  5
12F
330
1F
100
AcDbEntity
  8
1
370
    18
100
AcDbLine
 10
43.834131
 20
-0.978936
 30
0.0
 11
43.69787
 21
-1.083465
 31
0.0
  0
LINE
  5
130
330
1F
100
AcDbEntity
  8
1
370
    18
100
AcDbLine
 10
35.439778
 20
9.924126
 30
0.0
 11
35.576039
 21
9.946448
 31
0.0
  0
LINE
  5
131
330
1F
100
AcDbEntity
  8
1
370
    18
100
AcDbLine
 10
45.237932
 20
-19.408489
 30
0.0
 11
46.565752
 21
-19.670322
 31
0.0
  0
LINE
  5
132
330
1F
100
AcDbEntity
  8
1
370
    18
100
AcDbLine
 10
56.061057
 20
-9.508102
 30
0.0
 11
56.380141
 21
-8.502638
 31
0.0
  0
LINE
  5
133
330
1F
100
AcDbEntity
  8
1
370
    18
100
AcDbLine
 10
56.647828
 20
-17.921125
 30
0.0
 11
56.748921
 21
-17.91164
 31
0.0
  0
LINE
  5
134
330
1F
100
AcDbEntity
  8
1
370
    18
100
AcDbLine
 10
53.860765
 20
-19.285058
 30
0.0
 11
54.148947
 21
-18.887248
 31
0.0
  0
LINE
  5
135
330
1F
100
AcDbEntity
  8
1
370
    18
100
AcDbLine
 10
46.565752
 20
-19.670322
 30
0.0
 11
52.132402
 21
-19.996492
 31
0.0
  0
LINE
  5
136
330
1F
100
AcDbEntity
  8
1
370
    18
100
AcDbLine
 10
37.063531
 20
-13.532609
 30
0.0
 11
37.779478
 21
-14.036186
 31
0.0
  0
LINE
  5
137
330
1F
100
AcDbEntity
  8
1
370
    18
100
AcDbLine
 10
56.412967
 20
-12.198779
 30
0.0
 11
56.785448
 21
-12.731085
 31
0.0
  0
LINE
  5
138
330
1F
100
AcDbEntity
  8
1
370
    18
100
AcDbLine
 10
56.785448
 20
-12.731085
 30
0.0
 11
56.748921
 21
-12.828688
 31
0.0
  0
LINE
  5
139
330
1F
100
AcDbEntity
  8
1
370
    18
100
AcDbLine
 10
60.896065
 20
-9.378879
 30
0.0
 11
61.00676
 21
-9.380834
 31
0.0
  0
LINE
  5
13A
330
1F
100
AcDbEntity
  8
1
370
    18
100
AcDbLine
 10
57.468261
 20
-13.416337
 30
0.0
 11
57.437929
 21
-13.318145
 31
0.0
  0
LINE
  5
13B
330
1F
100
AcDbEntity
  8
1
370
    18
100
AcDbLine
 10
58.219373
 20
-17.078993
 30
0.0
 11
61.06934
 21
-14.520646
 31
0.0
  0
LINE
  5
13C
330
1F
100
AcDbEntity
  8
1
370
    18
100
AcDbLine
 10
57.468261
 20
-17.602024
 30
0.0
 11
58.219373
 21
-17.078993
 31
0.0
  0
LINE
  5
13D
330
1F
100
AcDbEntity
  8
1
370
    18
100
AcDbLine
 10
61.06934
 20
-8.697239
 30
0.0
 11
60.886736
 21
-8.707569
 31
0.0
  0
LINE
  5
13E
330
1F
100
AcDbEntity
  8
1
370
    18
100
AcDbLine
 10
57.040699
 20
-13.10661
 30
0.0
 11
57.049209
 21
-13.005142
 31
0.0
  0
LINE
  5
13F
330
1F
100
AcDbEntity
  8
1
370
    18
100
AcDbLine
 10
52.117686
 20
13.802224
 30
0.0
 11
52.132408
 21
13.90884
 31
0.0
  0
LINE
  5
140
330
1F
100
AcDbEntity
  8
1
370
    18
100
AcDbLine
 10
53.82691
 20
15.546474
 30
0.0
 11
53.803839
 21
15.451928
 31
0.0
  0
LINE
  5
141
330
1F
100
AcDbEntity
  8
1
370
    18
100
AcDbLine
 10
53.860766
 20
15.663529
 30
0.0
 11
53.82691
 21
15.546474
 31
0.0
  0
LINE
  5
142
330
1F
100
AcDbEntity
  8
1
370
    18
100
AcDbLine
 10
53.803842
 20
15.451927
 30
0.0
 11
52.163523
 21
13.796842
 31
0.0
  0
LINE
  5
143
330
1F
100
AcDbEntity
  8
1
370
    18
100
AcDbLine
 10
51.960731
 20
13.754268
 30
0.0
 11
46.536452
 21
14.65012
 31
0.0
  0
LINE
  5
144
330
1F
100
AcDbEntity
  8
1
370
    18
100
AcDbLine
 10
46.536452
 20
14.65012
 30
0.0
 11
46.565752
 21
14.834794
 31
0.0
  0
LINE
  5
145
330
1F
100
AcDbEntity
  8
1
370
    18
100
AcDbLine
 10
46.565752
 20
14.834794
 30
0.0
 11
52.132402
 21
13.90884
 31
0.0
  0
LINE
  5
146
330
1F
100
AcDbEntity
  8
1
370
    18
100
AcDbLine
 10
51.960731
 20
13.754268
 30
0.0
 11
52.117657
 21
13.802291
 31
0.0
  0
LINE
  5
147
330
1F
100
AcDbEntity
  8
1
370
    18
100
AcDbLine
 10
47.708469
 20
11.404659
 30
0.0
 11
47.829583
 21
11.402097
 31
0.0
  0
LINE
  5
148
330
1F
100
AcDbEntity
  8
1
370
    18
100
AcDbLine
 10
56.647828
 20
17.58103
 30
0.0
 11
56.748921
 21
17.591059
 31
0.0
  0
LINE
  5
149
330
1F
100
AcDbEntity
  8
1
370
    18
100
AcDbLine
 10
53.860765
 20
15.663526
 30
0.0
 11
54.148947
 21
16.345899
 31
0.0
  0
LINE
  5
14A
330
1F
100
AcDbEntity
  8
1
370
    18
100
AcDbLine
 10
56.170879
 20
20.4135
 30
0.0
 11
55.96393
 21
20.492306
 31
0.0
  0
LINE
  5
14B
330
1F
100
AcDbEntity
  8
1
370
    18
100
AcDbLine
 10
40.244464
 20
13.287968
 30
0.0
 11
37.824574
 21
12.435584
 31
0.0
  0
LINE
  5
14C
330
1F
100
AcDbEntity
  8
1
370
    18
100
AcDbLine
 10
44.899091
 20
14.712501
 30
0.0
 11
43.742965
 21
14.476319
 31
0.0
  0
LINE
  5
14D
330
1F
100
AcDbEntity
  8
1
370
    18
100
AcDbLine
 10
60.745767
 20
-8.581322
 30
0.0
 11
60.886855
 21
-8.707188
 31
0.0
  0
LINE
  5
14E
330
1F
100
AcDbEntity
  8
1
370
    18
100
AcDbLine
 10
61.06934
 20
-8.697239
 30
0.0
 11
61.037905
 21
-8.550994
 31
0.0
  0
LINE
  5
14F
330
1F
100
AcDbEntity
  8
1
370
    18
100
AcDbLine
 10
43.742965
 20
14.476319
 30
0.0
 11
43.69787
 21
14.646546
 31
0.0
  0
LINE
  5
150
330
1F
100
AcDbEntity
  8
1
370
    18
100
AcDbLine
 10
45.237932
 20
14.917106
 30
0.0
 11
46.565752
 21
14.834794
 31
0.0
  0
LINE
  5
151
330
1F
100
AcDbEntity
  8
1
370
    18
100
AcDbLine
 10
35.432776
 20
-13.268176
 30
0.0
 11
35.432776
 21
-13.039377
 31
0.0
  0
LINE
  5
152
330
1F
100
AcDbEntity
  8
1
370
    18
100
AcDbLine
 10
35.432776
 20
9.946521
 30
0.0
 11
35.432776
 21
10.454985
 31
0.0
  0
LINE
  5
153
330
1F
100
AcDbEntity
  8
1
370
    18
100
AcDbLine
 10
61.282162
 20
-7.030576
 30
0.0
 11
61.35
 21
-7.12923
 31
0.0
  0
LINE
  5
154
330
1F
100
AcDbEntity
  8
1
370
    18
100
AcDbLine
 10
37.779478
 20
12.613128
 30
0.0
 11
37.824574
 21
12.435584
 31
0.0
  0
LINE
  5
155
330
1F
100
AcDbEntity
  8
1
370
    18
100
AcDbLine
 10
37.150589
 20
12.32039
 30
0.0
 11
37.779478
 21
12.613128
 31
0.0
  0
LINE
  5
156
330
1F
100
AcDbEntity
  8
SK1
370
    18
100
AcDbLine
 10
-56.910241
 20
10.8
 30
0.0
 11
-57.0411
 21
10.8
 31
0.0
  0
LINE
  5
157
330
1F
100
AcDbEntity
  8
SK1
370
    18
100
AcDbLine
 10
-55.15
 20
10.8
 30
0.0
 11
-56.910241
 21
10.8
 31
0.0
  0
LINE
  5
158
330
1F
100
AcDbEntity
  8
1
370
    18
100
AcDbLine
 10
56.647828
 20
17.58103
 30
0.0
 11
56.391191
 21
16.862358
 31
0.0
  0
LINE
  5
159
330
1F
100
AcDbEntity
  8
1
370
    18
100
AcDbLine
 10
61.212187
 20
-6.817658
 30
0.0
 11
61.35
 21
-7.12923
 31
0.0
  0
LINE
  5
15A
330
1F
100
AcDbEntity
  8
1
370
    18
100
AcDbLine
 10
56.438595
 20
-0.758024
 30
0.0
 11
56.50443
 21
-0.853138
 31
0.0
  0
LINE
  5
15B
330
1F
100
AcDbEntity
  8
1
370
    18
100
AcDbLine
 10
56.35
 20
0.106529
 30
0.0
 11
56.412183
 21
-0.409313
 31
0.0
  0
LINE
  5
15C
330
1F
100
AcDbEntity
  8
1
370
    18
100
AcDbLine
 10
57.468261
 20
17.373919
 30
0.0
 11
58.219373
 21
16.538986
 31
0.0
  0
LINE
  5
15D
330
1F
100
AcDbEntity
  8
1
370
    18
100
AcDbLine
 10
57.468261
 20
19.779878
 30
0.0
 11
57.040699
 21
20.15527
 31
0.0
  0
LINE
  5
15E
330
1F
100
AcDbEntity
  8
1
370
    18
100
AcDbLine
 10
35.561873
 20
10.445035
 30
0.0
 11
35.568874
 21
9.96761
 31
0.0
  0
LINE
  5
15F
330
1F
100
AcDbEntity
  8
1
370
    18
100
AcDbLine
 10
55.265268
 20
0.265439
 30
0.0
 11
56.351937
 21
-0.31628
 31
0.0
  0
LINE
  5
160
330
1F
100
AcDbEntity
  8
1
370
    18
100
AcDbLine
 10
58.219373
 20
16.538986
 30
0.0
 11
61.06934
 21
13.983486
 31
0.0
  0
LINE
  5
161
330
1F
100
AcDbEntity
  8
1
370
    18
100
AcDbLine
 10
58.045794
 20
19.041358
 30
0.0
 11
57.468261
 21
19.779878
 31
0.0
  0
LINE
  5
162
330
1F
100
AcDbEntity
  8
1
370
    18
100
AcDbLine
 10
61.00676
 20
16.477759
 30
0.0
 11
61.017159
 21
16.424296
 31
0.0
  0
LINE
  5
163
330
1F
100
AcDbEntity
  8
1
370
    18
100
AcDbLine
 10
60.965557
 20
16.546969
 30
0.0
 11
61.00676
 21
16.477759
 31
0.0
  0
LINE
  5
164
330
1F
100
AcDbEntity
  8
1
370
    18
100
AcDbLine
 10
60.886723
 20
16.64886
 30
0.0
 11
60.965557
 21
16.546969
 31
0.0
  0
LINE
  5
165
330
1F
100
AcDbEntity
  8
1
370
    18
100
AcDbLine
 10
61.06934
 20
16.456729
 30
0.0
 11
60.886736
 21
16.648847
 31
0.0
  0
LINE
  5
166
330
1F
100
AcDbEntity
  8
1
370
    18
100
AcDbLine
 10
61.06934
 20
13.983486
 30
0.0
 11
61.306579
 21
13.653776
 31
0.0
  0
LINE
  5
167
330
1F
100
AcDbEntity
  8
1
370
    18
100
AcDbLine
 10
35.703515
 20
-12.997563
 30
0.0
 11
35.616103
 21
-13.01876
 31
0.0
  0
LINE
  5
168
330
1F
100
AcDbEntity
  8
1
370
    18
100
AcDbLine
 10
35.561873
 20
-13.055818
 30
0.0
 11
35.568874
 21
-13.266028
 31
0.0
  0
LINE
  5
169
330
1F
100
AcDbEntity
  8
1
370
    18
100
AcDbLine
 10
60.896065
 20
16.46243
 30
0.0
 11
61.00676
 21
16.477759
 31
0.0
  0
LINE
  5
16A
330
1F
100
AcDbEntity
  8
1
370
    18
100
AcDbLine
 10
56.363014
 20
-0.320866
 30
0.0
 11
56.297181
 21
0.186419
 31
0.0
  0
LINE
  5
16B
330
1F
100
AcDbEntity
  8
1
370
    18
100
AcDbLine
 10
56.362971
 20
-0.32095
 30
0.0
 11
56.428597
 21
-0.431241
 31
0.0
  0
LINE
  5
16C
330
1F
100
AcDbEntity
  8
1
370
    18
100
AcDbLine
 10
36.095215
 20
-14.195337
 30
0.0
 11
35.439778
 21
-13.283177
 31
0.0
  0
LINE
  5
16D
330
1F
100
AcDbEntity
  8
1
370
    18
100
AcDbLine
 10
35.439778
 20
-13.283177
 30
0.0
 11
35.576039
 21
-13.279804
 31
0.0
  0
LINE
  5
16E
330
1F
100
AcDbEntity
  8
1
370
    18
100
AcDbLine
 10
56.35
 20
0.106529
 30
0.0
 11
56.297181
 21
0.186419
 31
0.0
  0
LINE
  5
16F
330
1F
100
AcDbEntity
  8
1
370
    18
100
AcDbLine
 10
60.994208
 20
-5.888745
 30
0.0
 11
60.263847
 21
-5.908828
 31
0.0
  0
LINE
  5
170
330
1F
100
AcDbEntity
  8
1
370
    18
100
AcDbLine
 10
61.203894
 20
-5.930771
 30
0.0
 11
60.994208
 21
-5.888745
 31
0.0
  0
LINE
  5
171
330
1F
100
AcDbEntity
  8
1
370
    18
100
AcDbLine
 10
56.35
 20
1.127047
 30
0.0
 11
56.35
 21
0.106529
 31
0.0
  0
LINE
  5
172
330
1F
100
AcDbEntity
  8
1
370
    18
100
AcDbLine
 10
56.35
 20
1.127047
 30
0.0
 11
56.29529
 21
1.153453
 31
0.0
  0
LINE
  5
173
330
1F
100
AcDbEntity
  8
1
370
    18
100
AcDbLine
 10
56.380137
 20
20.405772
 30
0.0
 11
56.470167
 21
20.333371
 31
0.0
  0
LINE
  5
174
330
1F
100
AcDbEntity
  8
1
370
    18
100
AcDbLine
 10
60.745767
 20
16.685359
 30
0.0
 11
60.886855
 21
16.648733
 31
0.0
  0
LINE
  5
175
330
1F
100
AcDbEntity
  8
1
370
    18
100
AcDbLine
 10
56.462162
 20
-0.634196
 30
0.0
 11
56.35
 21
1.07857
 31
0.0
  0
LINE
  5
176
330
1F
100
AcDbEntity
  8
1
370
    18
100
AcDbLine
 10
58.503418
 20
-1.702721
 30
0.0
 11
58.637475
 21
-1.743946
 31
0.0
  0
LINE
  5
177
330
1F
100
AcDbEntity
  8
1
370
    18
100
AcDbLine
 10
58.50341
 20
-1.702723
 30
0.0
 11
58.466909
 21
-1.660083
 31
0.0
  0
LINE
  5
178
330
1F
100
AcDbEntity
  8
1
370
    18
100
AcDbLine
 10
60.108711
 20
-5.765955
 30
0.0
 11
61.019131
 21
-5.745207
 31
0.0
  0
LINE
  5
179
330
1F
100
AcDbEntity
  8
1
370
    18
100
AcDbLine
 10
61.019131
 20
-5.745207
 30
0.0
 11
60.994208
 21
-5.888745
 31
0.0
  0
LINE
  5
17A
330
1F
100
AcDbEntity
  8
1
370
    18
100
AcDbLine
 10
61.35
 20
-5.974035
 30
0.0
 11
61.282162
 21
-6.072832
 31
0.0
  0
LINE
  5
17B
330
1F
100
AcDbEntity
  8
1
370
    18
100
AcDbLine
 10
61.35
 20
-0.240587
 30
0.0
 11
61.019131
 21
-0.482718
 31
0.0
  0
LINE
  5
17C
330
1F
100
AcDbEntity
  8
1
370
    18
100
AcDbLine
 10
61.019131
 20
-0.482718
 30
0.0
 11
60.947626
 21
-0.412045
 31
0.0
  0
LINE
  5
17D
330
1F
100
AcDbEntity
  8
1
370
    18
100
AcDbLine
 10
56.181019
 20
8.87562
 30
0.0
 11
56.115418
 21
8.758498
 31
0.0
  0
LINE
  5
17E
330
1F
100
AcDbEntity
  8
1
370
    18
100
AcDbLine
 10
55.375513
 20
8.637507
 30
0.0
 11
55.4262
 21
8.541244
 31
0.0
  0
LINE
  5
17F
330
1F
100
AcDbEntity
  8
1
370
    18
100
AcDbLine
 10
55.375513
 20
8.637507
 30
0.0
 11
55.360592
 21
8.698472
 31
0.0
  0
LINE
  5
180
330
1F
100
AcDbEntity
  8
1
370
    18
100
AcDbLine
 10
54.696351
 20
8.949792
 30
0.0
 11
54.644421
 21
8.914121
 31
0.0
  0
LINE
  5
181
330
1F
100
AcDbEntity
  8
1
370
    18
100
AcDbLine
 10
54.542227
 20
8.875702
 30
0.0
 11
54.644421
 21
8.914121
 31
0.0
  0
LINE
  5
182
330
1F
100
AcDbEntity
  8
1
370
    18
100
AcDbLine
 10
61.212346
 20
-6.818122
 30
0.0
 11
61.152521
 21
-6.742193
 31
0.0
  0
LINE
  5
183
330
1F
100
AcDbEntity
  8
CUT
370
    18
100
AcDbLine
 10
54.060668
 20
-6.122717
 30
0.0
 11
55.7601
 21
-6.277482
 31
0.0
  0
LINE
  5
184
330
1F
100
AcDbEntity
  8
CUT
370
    18
100
AcDbLine
 10
54.060668
 20
22.285026
 30
0.0
 11
55.7601
 21
22.328043
 31
0.0
  0
LINE
  5
185
330
1F
100
AcDbEntity
  8
CUT
370
    18
100
AcDbLine
 10
62.55984
 20
13.101713
 30
0.0
 11
56.435281
 21
6.621252
 31
0.0
  0
LINE
  5
186
330
1F
100
AcDbEntity
  8
CUT
370
    18
100
AcDbLine
 10
62.55984
 20
-16.119464
 30
0.0
 11
56.435281
 21
-22.049858
 31
0.0
  0
LINE
  5
187
330
1F
100
AcDbEntity
  8
CUT
370
    18
100
AcDbLine
 10
53.385487
 20
-21.971622
 30
0.0
 11
47.260928
 21
-15.574356
 31
0.0
  0
LINE
  5
188
330
1F
100
AcDbEntity
  8
CUT
370
    18
100
AcDbLine
 10
55.7601
 20
6.277482
 30
0.0
 11
54.060668
 21
6.122717
 31
0.0
  0
LINE
  5
189
330
1F
100
AcDbEntity
  8
CUT
370
    18
100
AcDbLine
 10
56.435281
 20
22.049858
 30
0.0
 11
62.55984
 21
16.119464
 31
0.0
  0
LINE
  5
18A
330
1F
100
AcDbEntity
  8
CUT
370
    18
100
AcDbLine
 10
55.7601
 20
-22.328043
 30
0.0
 11
54.060668
 21
-22.285026
 31
0.0
  0
LINE
  5
18B
330
1F
100
AcDbEntity
  8
CUT
370
    18
100
AcDbLine
 10
49.920741
 20
9.71898
 30
0.0
 11
47.260928
 21
12.424907
 31
0.0
  0
LINE
  5
18C
330
1F
100
AcDbEntity
  8
CUT
370
    18
100
AcDbLine
 10
56.435281
 20
-6.621252
 30
0.0
 11
62.55984
 21
-13.101713
 31
0.0
  0
LINE
  5
18D
330
1F
100
AcDbEntity
  8
CUT
370
    18
100
AcDbLine
 10
47.260928
 20
15.574356
 30
0.0
 11
53.385487
 21
21.971622
 31
0.0
  0
LINE
  5
18E
330
1F
100
AcDbEntity
  8
1
370
    13
100
AcDbLine
 10
61.282162
 20
-8.360159
 30
0.0
 11
61.282162
 21
-7.030576
 31
0.0
  0
LINE
  5
18F
330
1F
100
AcDbEntity
  8
1
370
    13
100
AcDbLine
 10
47.708424
 20
11.404629
 30
0.0
 11
51.960731
 21
13.754268
 31
0.0
  0
LINE
  5
190
330
1F
100
AcDbEntity
  8
1
370
    13
100
AcDbLine
 10
52.163523
 20
13.796843
 30
0.0
 11
47.829583
 21
11.402097
 31
0.0
  0
LINE
  5
191
330
1F
100
AcDbEntity
  8
1
370
    13
100
AcDbLine
 10
61.35
 20
-8.458813
 30
0.0
 11
61.35
 21
-13.874282
 31
0.0
  0
LINE
  5
192
330
1F
100
AcDbEntity
  8
1
370
    13
100
AcDbLine
 10
61.35
 20
-7.12923
 30
0.0
 11
61.35
 21
-8.458813
 31
0.0
  0
LINE
  5
193
330
1F
100
AcDbEntity
  8
SK1
370
    13
100
AcDbLine
 10
-42.582875
 20
12.7
 30
0.0
 11
-44.45
 21
10.8
 31
0.0
  0
LINE
  5
194
330
1F
100
AcDbEntity
  8
SK1
370
    13
100
AcDbLine
 10
-55.15
 20
10.8
 30
0.0
 11
-55.15
 21
-12.7
 31
0.0
  0
LINE
  5
195
330
1F
100
AcDbEntity
  8
SK1
370
    13
100
AcDbLine
 10
-55.15
 20
10.8
 30
0.0
 11
-44.45
 21
10.8
 31
0.0
  0
LINE
  5
196
330
1F
100
AcDbEntity
  8
SK1
370
    13
100
AcDbLine
 10
-34.69
 20
10.8
 30
0.0
 11
-36.557125
 21
12.7
 31
0.0
  0
LINE
  5
197
330
1F
100
AcDbEntity
  8
SK1
370
    13
100
AcDbLine
 10
-34.69
 20
10.8
 30
0.0
 11
-21.61
 21
10.8
 31
0.0
  0
LINE
  5
198
330
1F
100
AcDbEntity
  8
SK1
370
    13
100
AcDbLine
 10
-19.742875
 20
12.7
 30
0.0
 11
-21.61
 21
10.8
 31
0.0
  0
LINE
  5
199
102
{ACAD_REACTORS
330
2C7
102
}
330
1F
100
AcDbEntity
  8
SK1
370
    13
100
AcDbLine
 10
17.85
 20
12.7
 30
0.0
 11
17.85
 21
-12.7
 31
0.0
  0
LINE
  5
19A
102
{ACAD_REACTORS
330
2F7
102
}
330
1F
100
AcDbEntity
  8
SK1
370
    13
100
AcDbLine
 10
-57.15
 20
10.7
 30
0.0
 11
-57.15
 21
-10.7
 31
0.0
  0
LINE
  5
19B
330
1F
100
AcDbEntity
  8
81
370
    18
100
AcDbLine
 10
61.85
 20
15.85
 30
0.0
 11
63.85
 21
15.85
 31
0.0
  0
LINE
  5
19C
102
{ACAD_REACTORS
330
2AD
330
2C7
330
2DF
330
2F7
330
310
102
}
330
1F
100
AcDbEntity
  8
81
370
    18
100
AcDbLine
 10
62.85
 20
14.85
 30
0.0
 11
62.85
 21
16.85
 31
0.0
  0
LINE
  5
19D
330
1F
100
AcDbEntity
  8
CUT
370
    18
100
AcDbLine
 10
46.970768
 20
-14.876222
 30
0.0
 11
46.970768
 21
-13.12114
 31
0.0
  0
LINE
  5
19E
102
{ACAD_REACTORS
330
330
102
}
330
1F
100
AcDbEntity
  8
2
370
    13
100
AcDbLine
 10
75.225125
 20
15.85
 30
0.0
 11
75.225125
 21
-10.415385
 31
0.0
  0
LINE
  5
19F
102
{ACAD_REACTORS
330
330
102
}
330
1F
100
AcDbEntity
  8
2
370
    13
100
AcDbLine
 10
65.4375
 20
15.85
 30
0.0
 11
78.400125
 21
15.85
 31
0.0
  0
LINE
  5
1A0
330
1F
100
AcDbEntity
  8
2
 60
     1
370
    18
100
AcDbLine
 10
75.225125
 20
15.85
 30
0.0
 11
75.643122
 21
12.675002
 31
0.0
  0
LINE
  5
1A1
330
1F
100
AcDbEntity
  8
2
 60
     1
370
    18
100
AcDbLine
 10
75.643122
 20
12.675002
 30
0.0
 11
74.807128
 21
12.674998
 31
0.0
  0
LINE
  5
1A2
330
1F
100
AcDbEntity
  8
2
 60
     1
370
    18
100
AcDbLine
 10
74.807128
 20
12.674998
 30
0.0
 11
75.225125
 21
15.85
 31
0.0
  0
ARC
  5
1A3
330
1F
100
AcDbEntity
  8
1
370
    18
100
AcDbCircle
 10
57.619557
 20
-8.483704
 30
0.0
 40
1.132811582659708
100
AcDbArc
 50
111.747997
 51
174.49308
  0
ARC
  5
1A4
330
1F
100
AcDbEntity
  8
1
370
    18
100
AcDbCircle
 10
58.016718
 20
-9.787651
 30
0.0
 40
2.493724308952234
100
AcDbArc
 50
69.074034
 51
109.122002
  0
ARC
  5
1A5
330
1F
100
AcDbEntity
  8
1
370
    18
100
AcDbCircle
 10
57.365026
 20
-12.067093
 30
0.0
 40
4.859922687487405
100
AcDbArc
 50
46.053863
 51
71.496551
  0
ARC
  5
1A6
330
1F
100
AcDbEntity
  8
1
370
    18
100
AcDbCircle
 10
57.609801
 20
-10.818765
 30
0.0
 40
1.997618129083111
100
AcDbArc
 50
98.994823
 51
132.735262
  0
ARC
  5
1A7
330
1F
100
AcDbEntity
  8
1
370
    18
100
AcDbCircle
 10
57.642349
 20
-11.100754
 30
0.0
 40
2.281259752117198
100
AcDbArc
 50
51.87075
 51
98.694931
  0
ARC
  5
1A8
330
1F
100
AcDbEntity
  8
1
370
    18
100
AcDbCircle
 10
57.618073
 20
-11.179446
 30
0.0
 40
2.358333145574596
100
AcDbArc
 50
6.818963
 51
52.587262
  0
ARC
  5
1A9
330
1F
100
AcDbEntity
  8
1
370
    18
100
AcDbCircle
 10
57.934231
 20
-11.147842
 30
0.0
 40
2.040668372320118
100
AcDbArc
 50
316.439132
 51
6.991853
  0
ARC
  5
1AA
330
1F
100
AcDbEntity
  8
1
370
    18
100
AcDbCircle
 10
57.93248
 20
-10.97407
 30
0.0
 40
2.189724337998018
100
AcDbArc
 50
243.667552
 51
291.82769
  0
ARC
  5
1AB
330
1F
100
AcDbEntity
  8
1
370
    18
100
AcDbCircle
 10
57.178382
 20
-11.212578
 30
0.0
 40
1.793249083463114
100
AcDbArc
 50
93.674649
 51
128.143515
  0
ARC
  5
1AC
330
1F
100
AcDbEntity
  8
1
370
    18
100
AcDbCircle
 10
57.514068
 20
-11.524218
 30
0.0
 40
1.749620294253527
100
AcDbArc
 50
291.269887
 51
335.595121
  0
ARC
  5
1AD
330
1F
100
AcDbEntity
  8
1
370
    18
100
AcDbCircle
 10
56.018171
 20
8.488638
 30
0.0
 40
1.575194316801154
100
AcDbArc
 50
280.969303
 51
336.841434
  0
ARC
  5
1AE
330
1F
100
AcDbEntity
  8
1
370
    18
100
AcDbCircle
 10
55.592022
 20
10.13614
 30
0.0
 40
3.275363481872712
100
AcDbArc
 50
248.860453
 51
282.804114
  0
ARC
  5
1AF
330
1F
100
AcDbEntity
  8
1
370
    18
100
AcDbCircle
 10
55.488634
 20
10.182228
 30
0.0
 40
3.283010565580691
100
AcDbArc
 50
216.944031
 51
250.83384
  0
ARC
  5
1B0
330
1F
100
AcDbEntity
  8
1
370
    18
100
AcDbCircle
 10
54.095851
 20
9.199047
 30
0.0
 40
1.579774654538834
100
AcDbArc
 50
162.863517
 51
218.806026
  0
ARC
  5
1B1
330
1F
100
AcDbEntity
  8
1
370
    18
100
AcDbCircle
 10
54.036078
 20
9.046796
 30
0.0
 40
1.575978870794206
100
AcDbArc
 50
100.887627
 51
156.92311
  0
ARC
  5
1B2
330
1F
100
AcDbEntity
  8
1
370
    18
100
AcDbCircle
 10
54.461198
 20
7.397171
 30
0.0
 40
3.277918469766884
100
AcDbArc
 50
68.813032
 51
102.738677
  0
ARC
  5
1B3
330
1F
100
AcDbEntity
  8
1
370
    18
100
AcDbCircle
 10
54.566308
 20
7.355782
 30
0.0
 40
3.280467505581692
100
AcDbArc
 50
36.878718
 51
70.786412
  0
ARC
  5
1B4
330
1F
100
AcDbEntity
  8
1
370
    18
100
AcDbCircle
 10
55.959565
 20
8.337154
 30
0.0
 40
1.577873759903519
100
AcDbArc
 50
342.746242
 51
38.735264
  0
ARC
  5
1B5
330
1F
100
AcDbEntity
  8
1
370
    18
100
AcDbCircle
 10
55.745189
 20
8.31007
 30
0.0
 40
0.9676097330615796
100
AcDbArc
 50
291.157565
 51
339.146043
  0
ARC
  5
1B6
330
1F
100
AcDbEntity
  8
1
370
    18
100
AcDbCircle
 10
55.330747
 20
9.386579
 30
0.0
 40
2.121139870370315
100
AcDbArc
 50
248.461175
 51
291.102359
  0
ARC
  5
1B7
330
1F
100
AcDbEntity
  8
1
370
    18
100
AcDbCircle
 10
55.220574
 20
9.46599
 30
0.0
 40
2.158574412776177
100
AcDbArc
 50
209.826527
 51
251.957337
  0
ARC
  5
1B8
330
1F
100
AcDbEntity
  8
1
370
    18
100
AcDbCircle
 10
54.158507
 20
8.876673
 30
0.0
 40
0.9442352753671238
100
AcDbArc
 50
135.953758
 51
210.857729
  0
ARC
  5
1B9
330
1F
100
AcDbEntity
  8
1
370
    18
100
AcDbCircle
 10
54.531255
 20
8.297989
 30
0.0
 40
1.622078289054941
100
AcDbArc
 50
79.085862
 51
130.406633
  0
ARC
  5
1BA
330
1F
100
AcDbEntity
  8
1
370
    18
100
AcDbCircle
 10
54.526832
 20
7.424103
 30
0.0
 40
2.486220329380015
100
AcDbArc
 50
44.569082
 51
82.801447
  0
ARC
  5
1BB
330
1F
100
AcDbEntity
  8
1
370
    18
100
AcDbCircle
 10
55.508274
 20
8.285294
 30
0.0
 40
1.185069742296716
100
AcDbArc
 50
344.350192
 51
48.208689
  0
ARC
  5
1BC
330
1F
100
AcDbEntity
  8
1
370
    18
100
AcDbCircle
 10
55.575683
 20
10.187807
 30
0.0
 40
0.8232676834271129
100
AcDbArc
 50
223.723677
 51
274.827318
  0
ARC
  5
1BD
330
1F
100
AcDbEntity
  8
1
370
    18
100
AcDbCircle
 10
54.578585
 20
9.173992
 30
0.0
 40
0.650840238260389
100
AcDbArc
 50
60.253545
 51
121.629667
  0
ARC
  5
1BE
330
1F
100
AcDbEntity
  8
1
370
    18
100
AcDbCircle
 10
53.855184
 20
9.727493
 30
0.0
 40
0.4039045349201201
100
AcDbArc
 50
255.538697
 51
342.586023
  0
ARC
  5
1BF
330
1F
100
AcDbEntity
  8
1
370
    18
100
AcDbCircle
 10
53.690303
 20
9.066324
 30
0.0
 40
0.318370253607813
100
AcDbArc
 50
108.334811
 51
209.118796
  0
ARC
  5
1C0
330
1F
100
AcDbEntity
  8
1
370
    18
100
AcDbCircle
 10
53.323143
 20
8.456406
 30
0.0
 40
0.4376878148959299
100
AcDbArc
 50
339.826509
 51
57.858674
  0
ARC
  5
1C1
330
1F
100
AcDbEntity
  8
1
370
    18
100
AcDbCircle
 10
54.308541
 20
8.447955
 30
0.0
 40
0.6986747127990376
100
AcDbArc
 50
199.275175
 51
255.642456
  0
ARC
  5
1C2
330
1F
100
AcDbEntity
  8
1
370
    18
100
AcDbCircle
 10
54.345085
 20
6.987908
 30
0.0
 40
0.8232676834267575
100
AcDbArc
 50
43.723677
 51
94.827318
  0
ARC
  5
1C3
330
1F
100
AcDbEntity
  8
1
370
    18
100
AcDbCircle
 10
55.342184
 20
8.001723
 30
0.0
 40
0.6508402382597896
100
AcDbArc
 50
240.253545
 51
301.629667
  0
ARC
  5
1C4
330
1F
100
AcDbEntity
  8
1
370
    18
100
AcDbCircle
 10
56.065584
 20
7.448222
 30
0.0
 40
0.4039045349202719
100
AcDbArc
 50
75.538697
 51
162.586023
  0
ARC
  5
1C5
330
1F
100
AcDbEntity
  8
1
370
    18
100
AcDbCircle
 10
56.230465
 20
8.109391
 30
0.0
 40
0.3183702536080464
100
AcDbArc
 50
288.334811
 51
29.118796
  0
ARC
  5
1C6
330
1F
100
AcDbEntity
  8
1
370
    18
100
AcDbCircle
 10
56.597625
 20
8.719309
 30
0.0
 40
0.43768781489576
100
AcDbArc
 50
159.826509
 51
237.858674
  0
ARC
  5
1C7
330
1F
100
AcDbEntity
  8
1
370
    18
100
AcDbCircle
 10
55.612228
 20
8.72776
 30
0.0
 40
0.6986747127989464
100
AcDbArc
 50
19.275175
 51
75.642456
  0
ARC
  5
1C8
330
1F
100
AcDbEntity
  8
1
370
    18
100
AcDbCircle
 10
58.174487
 20
-10.700264
 30
0.0
 40
1.291351718983088
100
AcDbArc
 50
216.276691
 51
278.318389
  0
ARC
  5
1C9
330
1F
100
AcDbEntity
  8
1
370
    18
100
AcDbCircle
 10
58.097579
 20
-10.714619
 30
0.0
 40
1.221329121536407
100
AcDbArc
 50
153.342998
 51
217.868752
  0
ARC
  5
1CA
330
1F
100
AcDbEntity
  8
1
370
    18
100
AcDbCircle
 10
57.992537
 20
-10.697302
 30
0.0
 40
1.120130390420283
100
AcDbArc
 50
83.134056
 51
151.723802
  0
ARC
  5
1CB
330
1F
100
AcDbEntity
  8
1
370
    18
100
AcDbCircle
 10
57.978279
 20
-10.898948
 30
0.0
 40
1.322071871086917
100
AcDbArc
 50
22.54071
 51
83.565263
  0
ARC
  5
1CC
330
1F
100
AcDbEntity
  8
1
370
    18
100
AcDbCircle
 10
58.133835
 20
-10.8603
 30
0.0
 40
1.163830643928124
100
AcDbArc
 50
316.960023
 51
23.719162
  0
ARC
  5
1CD
330
1F
100
AcDbEntity
  8
1
370
    18
100
AcDbCircle
 10
58.111228
 20
-11.060624
 30
0.0
 40
1.540750537375195
100
AcDbArc
 50
283.433018
 51
315.974773
  0
ARC
  5
1CE
330
1F
100
AcDbEntity
  8
1
370
    18
100
AcDbCircle
 10
58.074568
 20
-10.836345
 30
0.0
 40
1.767486755609033
100
AcDbArc
 50
229.650589
 51
282.899912
  0
ARC
  5
1CF
330
1F
100
AcDbEntity
  8
1
370
    18
100
AcDbCircle
 10
58.077593
 20
-10.782239
 30
0.0
 40
1.810975794043056
100
AcDbArc
 50
178.325566
 51
230.686015
  0
ARC
  5
1D0
330
1F
100
AcDbEntity
  8
1
370
    18
100
AcDbCircle
 10
57.816766
 20
-10.777706
 30
0.0
 40
1.550130695108121
100
AcDbArc
 50
119.885137
 51
178.211353
  0
ARC
  5
1D1
330
1F
100
AcDbEntity
  8
1
370
    18
100
AcDbCircle
 10
57.856259
 20
-10.90749
 30
0.0
 40
1.68260939251169
100
AcDbArc
 50
63.751759
 51
118.849036
  0
ARC
  5
1D2
330
1F
100
AcDbEntity
  8
1
370
    18
100
AcDbCircle
 10
57.804669
 20
-11.075133
 30
0.0
 40
1.855991873640074
100
AcDbArc
 50
13.134035
 51
64.612232
  0
ARC
  5
1D3
330
1F
100
AcDbEntity
  8
1
370
    18
100
AcDbCircle
 10
58.053953
 20
-11.030316
 30
0.0
 40
1.603097848807111
100
AcDbArc
 50
316.618541
 51
13.598663
  0
ARC
  5
1D4
330
1F
100
AcDbEntity
  8
1
370
    18
100
AcDbCircle
 10
56.294469
 20
7.958583
 30
0.0
 40
1.61819043461942
100
AcDbArc
 50
298.468247
 51
339.232839
  0
ARC
  5
1D5
330
1F
100
AcDbEntity
  8
1
370
    18
100
AcDbCircle
 10
55.622887
 20
9.259886
 30
0.0
 40
3.082411326191969
100
AcDbArc
 50
261.408913
 51
297.912111
  0
ARC
  5
1D6
330
1F
100
AcDbEntity
  8
1
370
    18
100
AcDbCircle
 10
55.693069
 20
10.572726
 30
0.0
 40
4.392832830481021
100
AcDbArc
 50
234.363931
 51
263.061944
  0
ARC
  5
1D7
330
1F
100
AcDbEntity
  8
1
370
    18
100
AcDbCircle
 10
54.766724
 20
9.428651
 30
0.0
 40
2.924556511524584
100
AcDbArc
 50
198.221227
 51
236.054788
  0
ARC
  5
1D8
330
1F
100
AcDbEntity
  8
1
370
    18
100
AcDbCircle
 10
53.465417
 20
8.978947
 30
0.0
 40
1.548018448378759
100
AcDbArc
 50
138.978711
 51
197.471616
  0
ARC
  5
1D9
330
1F
100
AcDbEntity
  8
1
370
    18
100
AcDbCircle
 10
53.988189
 20
8.352378
 30
0.0
 40
2.357239645852499
100
AcDbArc
 50
91.995488
 51
135.826782
  0
ARC
  5
1DA
330
1F
100
AcDbEntity
  8
1
370
    18
100
AcDbCircle
 10
54.183204
 20
6.500158
 30
0.0
 40
4.217142824371876
100
AcDbArc
 50
64.264456
 51
93.767451
  0
ARC
  5
1DB
330
1F
100
AcDbEntity
  8
1
370
    18
100
AcDbCircle
 10
54.51232
 20
6.956592
 30
0.0
 40
3.664394014534362
100
AcDbArc
 50
33.347553
 51
65.801319
  0
ARC
  5
1DC
330
1F
100
AcDbEntity
  8
1
370
    18
100
AcDbCircle
 10
56.080042
 20
7.940166
 30
0.0
 40
1.81455299942642
100
AcDbArc
 50
342.178568
 51
34.616117
  0
ARC
  5
1DD
330
1F
100
AcDbEntity
  8
1
370
    18
100
AcDbCircle
 10
54.193364
 20
9.65798
 30
0.0
 40
1.929581766755573
100
AcDbArc
 50
170.120465
 51
220.134788
  0
ARC
  5
1DE
330
1F
100
AcDbEntity
  8
1
370
    18
100
AcDbCircle
 10
56.189146
 20
8.977383
 30
0.0
 40
2.014698347113457
100
AcDbArc
 50
277.287028
 51
325.842132
  0
ARC
  5
1DF
330
1F
100
AcDbEntity
  8
1
370
    18
100
AcDbCircle
 10
57.054282
 20
-11.380699
 30
0.0
 40
2.055587679645737
100
AcDbArc
 50
84.471095
 51
117.357826
  0
ARC
  5
1E0
330
1F
100
AcDbEntity
  8
1
370
    18
100
AcDbCircle
 10
138.609084
 20
157.371049
 30
0.0
 40
184.9728901642777
100
AcDbArc
 50
240.180453
 51
243.644375
  0
ARC
  5
1E1
330
1F
100
AcDbEntity
  8
1
370
    18
100
AcDbCircle
 10
53.117881
 20
8.330391
 30
0.0
 40
13.14730400662406
100
AcDbArc
 50
225.078816
 51
233.548548
  0
ARC
  5
1E2
330
1F
100
AcDbEntity
  8
1
370
    18
100
AcDbCircle
 10
101.093768
 20
56.493565
 30
0.0
 40
81.1280130113363
100
AcDbArc
 50
221.796925
 51
225.106301
  0
ARC
  5
1E3
330
1F
100
AcDbEntity
  8
1
370
    18
100
AcDbCircle
 10
74.892117
 20
33.133353
 30
0.0
 40
46.02499321956419
100
AcDbArc
 50
217.409114
 51
221.856543
  0
ARC
  5
1E4
330
1F
100
AcDbEntity
  8
1
370
    18
100
AcDbCircle
 10
58.409158
 20
20.599362
 30
0.0
 40
25.31792080148093
100
AcDbArc
 50
210.835801
 51
217.539146
  0
ARC
  5
1E5
330
1F
100
AcDbEntity
  8
1
370
    18
100
AcDbCircle
 10
47.255769
 20
14.024267
 30
0.0
 40
12.37112403652882
100
AcDbArc
 50
199.245952
 51
211.1663
  0
ARC
  5
1E6
330
1F
100
AcDbEntity
  8
1
370
    18
100
AcDbCircle
 10
63.238877
 20
1.281811
 30
0.0
 40
7.099631116341905
100
AcDbArc
 50
196.697318
 51
214.134291
  0
ARC
  5
1E7
330
1F
100
AcDbEntity
  8
1
370
    18
100
AcDbCircle
 10
69.310608
 20
5.348648
 30
0.0
 40
14.40745296583824
100
AcDbArc
 50
213.971892
 51
227.805076
  0
ARC
  5
1E8
330
1F
100
AcDbEntity
  8
1
370
    18
100
AcDbCircle
 10
61.075607
 20
-8.347515
 30
0.0
 40
0.2069415962109585
100
AcDbArc
 50
259.502696
 51
356.49728
  0
ARC
  5
1E9
330
1F
100
AcDbEntity
  8
1
370
    18
100
AcDbCircle
 10
45.126108
 20
4.436265
 30
0.0
 40
0.3703385992120428
100
AcDbArc
 50
159.095795
 51
213.180991
  0
ARC
  5
1EA
330
1F
100
AcDbEntity
  8
1
370
    18
100
AcDbCircle
 10
47.172525
 20
5.651036
 30
0.0
 40
2.749846404553295
100
AcDbArc
 50
211.028602
 51
234.411461
  0
ARC
  5
1EB
330
1F
100
AcDbEntity
  8
1
370
    18
100
AcDbCircle
 10
49.066642
 20
7.916698
 30
0.0
 40
5.698941012197367
100
AcDbArc
 50
232.180947
 51
245.033801
  0
ARC
  5
1EC
330
1F
100
AcDbEntity
  8
1
370
    18
100
AcDbCircle
 10
47.828273
 20
5.000771
 30
0.0
 40
2.535097538196438
100
AcDbArc
 50
242.589613
 51
267.285041
  0
ARC
  5
1ED
330
1F
100
AcDbEntity
  8
1
370
    18
100
AcDbCircle
 10
47.734458
 20
2.793209
 30
0.0
 40
0.3257507004285032
100
AcDbArc
 50
265.37518
 51
324.412888
  0
ARC
  5
1EE
330
1F
100
AcDbEntity
  8
1
370
    18
100
AcDbCircle
 10
47.653192
 20
2.735764
 30
0.0
 40
0.3705328263598001
100
AcDbArc
 50
339.110031
 51
33.165155
  0
ARC
  5
1EF
330
1F
100
AcDbEntity
  8
1
370
    18
100
AcDbCircle
 10
45.606969
 20
1.52099
 30
0.0
 40
2.749879177208864
100
AcDbArc
 50
31.028776
 51
54.41139
  0
ARC
  5
1F0
330
1F
100
AcDbEntity
  8
1
370
    18
100
AcDbCircle
 10
43.712874
 20
-0.744648
 30
0.0
 40
5.698940947541036
100
AcDbArc
 50
52.180947
 51
65.033801
  0
ARC
  5
1F1
330
1F
100
AcDbEntity
  8
1
370
    18
100
AcDbCircle
 10
44.95124
 20
2.171271
 30
0.0
 40
2.535106459744193
100
AcDbArc
 50
62.589637
 51
87.284988
  0
ARC
  5
1F2
330
1F
100
AcDbEntity
  8
1
370
    18
100
AcDbCircle
 10
45.045138
 20
4.378672
 30
0.0
 40
0.3259132471441913
100
AcDbArc
 50
85.391607
 51
144.397737
  0
ARC
  5
1F3
330
1F
100
AcDbEntity
  8
1
370
    18
100
AcDbCircle
 10
138.461845
 20
156.045534
 30
0.0
 40
183.8844981960813
100
AcDbArc
 50
240.016605
 51
243.48856
  0
ARC
  5
1F4
330
1F
100
AcDbEntity
  8
1
370
    18
100
AcDbCircle
 10
48.657909
 20
14.619623
 30
0.0
 40
14.02735468029119
100
AcDbArc
 50
199.556643
 51
213.80053
  0
ARC
  5
1F5
330
1F
100
AcDbEntity
  8
1
370
    18
100
AcDbCircle
 10
66.050116
 20
25.881886
 30
0.0
 40
34.74659589009464
100
AcDbArc
 50
213.278404
 51
220.979729
  0
ARC
  5
1F6
330
1F
100
AcDbEntity
  8
1
370
    18
100
AcDbCircle
 10
97.343889
 20
52.609023
 30
0.0
 40
75.89979401079418
100
AcDbArc
 50
220.719461
 51
225.024805
  0
ARC
  5
1F7
330
1F
100
AcDbEntity
  8
1
370
    18
100
AcDbCircle
 10
53.363616
 20
8.842779
 30
0.0
 40
13.85485344733816
100
AcDbArc
 50
225.76177
 51
240.616783
  0
ARC
  5
1F8
330
1F
100
AcDbEntity
  8
1
370
    18
100
AcDbCircle
 10
46.967687
 20
-14.256821
 30
0.0
 40
5.434310678424166
100
AcDbArc
 50
233.008348
 51
251.439693
  0
ARC
  5
1F9
330
1F
100
AcDbEntity
  8
1
370
    18
100
AcDbCircle
 10
60.618831
 20
-10.482868
 30
0.0
 40
4.660843796934834
100
AcDbArc
 50
167.928089
 51
190.757478
  0
ARC
  5
1FA
330
1F
100
AcDbEntity
  8
1
370
    18
100
AcDbCircle
 10
59.03081
 20
-10.824193
 30
0.0
 40
3.037271067003624
100
AcDbArc
 50
190.023274
 51
221.297259
  0
ARC
  5
1FB
330
1F
100
AcDbEntity
  8
1
370
    18
100
AcDbCircle
 10
55.227485
 20
-23.705368
 30
0.0
 40
5.956076245445918
100
AcDbArc
 50
76.203777
 51
92.785228
  0
ARC
  5
1FC
330
1F
100
AcDbEntity
  8
1
370
    18
100
AcDbCircle
 10
55.042657
 20
-20.318457
 30
0.0
 40
2.56426258066225
100
AcDbArc
 50
92.337627
 51
110.838904
  0
ARC
  5
1FD
330
1F
100
AcDbEntity
  8
1
370
    18
100
AcDbCircle
 10
54.247175
 20
-18.396498
 30
0.0
 40
0.4887068830375579
100
AcDbArc
 50
103.819331
 51
167.308202
  0
ARC
  5
1FE
330
1F
100
AcDbEntity
  8
1
370
    18
100
AcDbCircle
 10
54.365943
 20
-18.169369
 30
0.0
 40
0.6074550881649005
100
AcDbArc
 50
191.370061
 51
252.997374
  0
ARC
  5
1FF
330
1F
100
AcDbEntity
  8
1
370
    18
100
AcDbCircle
 10
49.843068
 20
-11.979594
 30
0.0
 40
8.337367980762835
100
AcDbArc
 50
285.937429
 51
298.808957
  0
ARC
  5
200
330
1F
100
AcDbEntity
  8
1
370
    18
100
AcDbCircle
 10
291.565476
 20
309.828164
 30
0.0
 40
411.4628245611844
100
AcDbArc
 50
232.499819
 51
232.957602
  0
ARC
  5
201
330
1F
100
AcDbEntity
  8
1
370
    18
100
AcDbCircle
 10
220.965268
 20
217.913893
 30
0.0
 40
295.5636524832159
100
AcDbArc
 50
231.699596
 51
232.510807
  0
ARC
  5
202
330
1F
100
AcDbEntity
  8
1
370
    18
100
AcDbCircle
 10
34.976964
 20
-16.643671
 30
0.0
 40
3.745993303968273
100
AcDbArc
 50
56.15053
 51
77.829823
  0
ARC
  5
203
330
1F
100
AcDbEntity
  8
1
370
    18
100
AcDbCircle
 10
35.659059
 20
-13.355174
 30
0.0
 40
0.3885111369774431
100
AcDbArc
 50
73.918341
 51
125.622631
  0
ARC
  5
204
330
1F
100
AcDbEntity
  8
1
370
    18
100
AcDbCircle
 10
59.535575
 20
-10.611507
 30
0.0
 40
3.502872465676497
100
AcDbArc
 50
185.924611
 51
206.944963
  0
ARC
  5
205
330
1F
100
AcDbEntity
  8
1
370
    18
100
AcDbCircle
 10
60.896598
 20
-10.473322
 30
0.0
 40
4.870890003404608
100
AcDbArc
 50
155.334486
 51
185.888883
  0
ARC
  5
206
330
1F
100
AcDbEntity
  8
1
370
    18
100
AcDbCircle
 10
66.081821
 20
-4.017058
 30
0.0
 40
12.74259520617848
100
AcDbArc
 50
224.134832
 51
224.858426
  0
ARC
  5
207
330
1F
100
AcDbEntity
  8
1
370
    18
100
AcDbCircle
 10
63.673586
 20
-6.352968
 30
0.0
 40
9.38758917680305
100
AcDbArc
 50
222.798349
 51
224.137778
  0
ARC
  5
208
330
1F
100
AcDbEntity
  8
1
370
    18
100
AcDbCircle
 10
56.608507
 20
-9.763137
 30
0.0
 40
4.302749020304232
100
AcDbArc
 50
11.246417
 51
15.9421
  0
ARC
  5
209
330
1F
100
AcDbEntity
  8
1
370
    18
100
AcDbCircle
 10
56.248294
 20
-9.835389
 30
0.0
 40
4.670136507443695
100
AcDbArc
 50
5.609673
 51
11.253936
  0
ARC
  5
20A
330
1F
100
AcDbEntity
  8
1
370
    18
100
AcDbCircle
 10
57.706679
 20
-9.607912
 30
0.0
 40
3.197598915742498
100
AcDbArc
 50
336.008207
 51
4.107419
  0
ARC
  5
20B
330
1F
100
AcDbEntity
  8
1
370
    18
100
AcDbCircle
 10
55.878252
 20
-8.900599
 30
0.0
 40
5.15657057843937
100
AcDbArc
 50
317.441957
 51
337.088788
  0
ARC
  5
20C
330
1F
100
AcDbEntity
  8
1
370
    18
100
AcDbCircle
 10
56.900438
 20
-9.970902
 30
0.0
 40
3.681030011037262
100
AcDbArc
 50
295.001331
 51
318.952502
  0
ARC
  5
20D
330
1F
100
AcDbEntity
  8
1
370
    18
100
AcDbCircle
 10
57.93631
 20
-12.329551
 30
0.0
 40
1.107113742285034
100
AcDbArc
 50
243.245903
 51
298.006879
  0
ARC
  5
20E
330
1F
100
AcDbEntity
  8
1
370
    18
100
AcDbCircle
 10
57.980048
 20
-12.407835
 30
0.0
 40
1.13092948134965
100
AcDbArc
 50
243.093457
 51
297.993576
  0
ARC
  5
20F
330
1F
100
AcDbEntity
  8
1
370
    18
100
AcDbCircle
 10
56.922358
 20
-9.998559
 30
0.0
 40
3.759930600324013
100
AcDbArc
 50
294.991633
 51
319.023957
  0
ARC
  5
210
330
1F
100
AcDbEntity
  8
1
370
    18
100
AcDbCircle
 10
55.863191
 20
-8.89517
 30
0.0
 40
5.284939139481091
100
AcDbArc
 50
317.522263
 51
337.149903
  0
ARC
  5
211
330
1F
100
AcDbEntity
  8
1
370
    18
100
AcDbCircle
 10
57.729897
 20
-9.616168
 30
0.0
 40
3.285302440957093
100
AcDbArc
 50
336.095328
 51
4.107747
  0
ARC
  5
212
330
1F
100
AcDbEntity
  8
1
370
    18
100
AcDbCircle
 10
56.173981
 20
-9.887323
 30
0.0
 40
4.859247406248094
100
AcDbArc
 50
5.982912
 51
9.573297
  0
ARC
  5
213
330
1F
100
AcDbEntity
  8
1
370
    18
100
AcDbCircle
 10
56.502472
 20
-9.83182
 30
0.0
 40
4.52610023708983
100
AcDbArc
 50
9.572054
 51
14.382368
  0
ARC
  5
214
330
1F
100
AcDbEntity
  8
1
370
    18
100
AcDbCircle
 10
56.618902
 20
-16.619125
 30
0.0
 40
1.299039030564161
100
AcDbArc
 50
275.7443
 51
310.831502
  0
ARC
  5
215
330
1F
100
AcDbEntity
  8
1
370
    18
100
AcDbCircle
 10
62.392644
 20
-7.181314
 30
0.0
 40
7.984011572813151
100
AcDbArc
 50
225.018529
 51
226.338953
  0
ARC
  5
216
330
1F
100
AcDbEntity
  8
1
370
    18
100
AcDbCircle
 10
63.563204
 20
-5.953172
 30
0.0
 40
9.680637968635219
100
AcDbArc
 50
226.345293
 51
227.641438
  0
ARC
  5
217
330
1F
100
AcDbEntity
  8
1
370
    18
100
AcDbCircle
 10
58.754985
 20
-11.236998
 30
0.0
 40
2.53657833354917
100
AcDbArc
 50
227.481641
 51
233.274796
  0
ARC
  5
218
330
1F
100
AcDbEntity
  8
1
370
    18
100
AcDbCircle
 10
58.293731
 20
-11.863403
 30
0.0
 40
1.758693282354726
100
AcDbArc
 50
233.115972
 51
242.006891
  0
ARC
  5
219
330
1F
100
AcDbEntity
  8
1
370
    18
100
AcDbCircle
 10
58.324683
 20
-11.867124
 30
0.0
 40
1.700527632545725
100
AcDbArc
 50
231.907777
 51
238.569885
  0
ARC
  5
21A
330
1F
100
AcDbEntity
  8
1
370
    18
100
AcDbCircle
 10
58.80123
 20
-11.253439
 30
0.0
 40
2.477506963264231
100
AcDbArc
 50
224.994807
 51
231.989857
  0
ARC
  5
21B
330
1F
100
AcDbEntity
  8
1
370
    18
100
AcDbCircle
 10
15.284246
 20
52.057861
 30
0.0
 40
53.03485276500093
100
AcDbArc
 50
315.53032
 51
316.667245
  0
ARC
  5
21C
330
1F
100
AcDbEntity
  8
1
370
    18
100
AcDbCircle
 10
4.685903
 20
62.45944
 30
0.0
 40
67.88469133889917
100
AcDbArc
 50
314.341048
 51
315.531744
  0
ARC
  5
21D
330
1F
100
AcDbEntity
  8
1
370
    18
100
AcDbCircle
 10
55.232195
 20
12.015595
 30
0.0
 40
5.742654504166612
100
AcDbArc
 50
75.728807
 51
92.935881
  0
ARC
  5
21E
330
1F
100
AcDbEntity
  8
1
370
    18
100
AcDbCircle
 10
55.02856
 20
15.324597
 30
0.0
 40
2.42780236692555
100
AcDbArc
 50
92.13614
 51
111.711325
  0
ARC
  5
21F
330
1F
100
AcDbEntity
  8
1
370
    18
100
AcDbCircle
 10
54.274037
 20
17.09205
 30
0.0
 40
0.5088031147797656
100
AcDbArc
 50
106.392753
 51
171.82056
  0
ARC
  5
220
330
1F
100
AcDbEntity
  8
1
370
    18
100
AcDbCircle
 10
54.571461
 20
17.262291
 30
0.0
 40
0.8070059073370724
100
AcDbArc
 50
186.964468
 51
241.655206
  0
ARC
  5
221
330
1F
100
AcDbEntity
  8
1
370
    18
100
AcDbCircle
 10
57.887044
 20
25.780981
 30
0.0
 40
5.635164460572136
100
AcDbArc
 50
252.269168
 51
258.347936
  0
ARC
  5
222
330
1F
100
AcDbEntity
  8
1
370
    18
100
AcDbCircle
 10
47.886455
 20
9.480828
 30
0.0
 40
1.932043716167982
100
AcDbArc
 50
95.287425
 51
121.96964
  0
ARC
  5
223
330
1F
100
AcDbEntity
  8
1
370
    18
100
AcDbCircle
 10
47.428065
 20
10.215806
 30
0.0
 40
1.065837287450045
100
AcDbArc
 50
121.984865
 51
161.988932
  0
ARC
  5
224
330
1F
100
AcDbEntity
  8
1
370
    18
100
AcDbCircle
 10
47.446149
 20
10.254109
 30
0.0
 40
1.072015591016785
100
AcDbArc
 50
164.235227
 51
204.015683
  0
ARC
  5
225
330
1F
100
AcDbEntity
  8
1
370
    18
100
AcDbCircle
 10
48.223724
 20
10.596375
 30
0.0
 40
1.921580732946652
100
AcDbArc
 50
203.901618
 51
230.760844
  0
ARC
  5
226
330
1F
100
AcDbEntity
  8
1
370
    18
100
AcDbCircle
 10
148.85388
 20
-300.713992
 30
0.0
 40
332.254776844141
100
AcDbArc
 50
108.442716
 51
109.079874
  0
ARC
  5
227
330
1F
100
AcDbEntity
  8
1
370
    18
100
AcDbCircle
 10
45.469473
 20
8.163976
 30
0.0
 40
6.573317424970462
100
AcDbArc
 50
80.65843
 51
94.977944
  0
ARC
  5
228
330
1F
100
AcDbEntity
  8
1
370
    18
100
AcDbCircle
 10
45.40414
 20
9.452651
 30
0.0
 40
5.466982458920947
100
AcDbArc
 50
91.742183
 51
108.186105
  0
ARC
  5
229
330
1F
100
AcDbEntity
  8
1
370
    18
100
AcDbCircle
 10
60.487734
 20
-13.883992
 30
0.0
 40
0.8623185893150647
100
AcDbArc
 50
312.412844
 51
0.630293
  0
ARC
  5
22A
330
1F
100
AcDbEntity
  8
1
370
    18
100
AcDbCircle
 10
61.084391
 20
-8.430556
 30
0.0
 40
0.2671079644412323
100
AcDbArc
 50
266.769757
 51
353.927271
  0
ARC
  5
22B
330
1F
100
AcDbEntity
  8
1
370
    18
100
AcDbCircle
 10
155.565925
 20
-321.881768
 30
0.0
 40
354.6346960136761
100
AcDbArc
 50
108.387734
 51
108.833724
  0
ARC
  5
22C
330
1F
100
AcDbEntity
  8
1
370
    18
100
AcDbCircle
 10
120.060892
 20
-217.851338
 30
0.0
 40
244.7122819027455
100
AcDbArc
 50
108.828883
 51
109.647799
  0
ARC
  5
22D
330
1F
100
AcDbEntity
  8
1
370
    18
100
AcDbCircle
 10
39.537007
 20
8.111721
 30
0.0
 40
4.838169426942283
100
AcDbArc
 50
119.554288
 51
136.364595
  0
ARC
  5
22E
330
1F
100
AcDbEntity
  8
1
370
    18
100
AcDbCircle
 10
37.705497
 20
9.759146
 30
0.0
 40
2.376866039506139
100
AcDbArc
 50
134.639632
 51
162.976542
  0
ARC
  5
22F
330
1F
100
AcDbEntity
  8
1
370
    18
100
AcDbCircle
 10
48.047719
 20
10.501282
 30
0.0
 40
1.564641569423799
100
AcDbArc
 50
197.913921
 51
226.056523
  0
ARC
  5
230
330
1F
100
AcDbEntity
  8
1
370
    18
100
AcDbCircle
 10
47.451921
 20
10.302961
 30
0.0
 40
0.9367431085991569
100
AcDbArc
 50
157.300431
 51
197.580786
  0
ARC
  5
231
330
1F
100
AcDbEntity
  8
1
370
    18
100
AcDbCircle
 10
47.566757
 20
10.216484
 30
0.0
 40
1.076639241612151
100
AcDbArc
 50
119.08449
 51
155.412829
  0
ARC
  5
232
330
1F
100
AcDbEntity
  8
1
370
    18
100
AcDbCircle
 10
47.983369
 20
9.491835
 30
0.0
 40
1.912463665060093
100
AcDbArc
 50
95.251659
 51
119.438836
  0
ARC
  5
233
330
1F
100
AcDbEntity
  8
1
370
    18
100
AcDbCircle
 10
63.544294
 20
1.287276
 30
0.0
 40
7.358060653432259
100
AcDbArc
 50
196.911479
 51
215.182756
  0
ARC
  5
234
330
1F
100
AcDbEntity
  8
1
370
    18
100
AcDbCircle
 10
58.52379
 20
-0.303427
 30
0.0
 40
2.092844521275269
100
AcDbArc
 50
190.454949
 51
195.228088
  0
ARC
  5
235
330
1F
100
AcDbEntity
  8
1
370
    18
100
AcDbCircle
 10
59.851048
 20
-0.057897
 30
0.0
 40
3.442621779252052
100
AcDbArc
 50
186.224034
 51
190.465044
  0
ARC
  5
236
330
1F
100
AcDbEntity
  8
1
370
    18
100
AcDbCircle
 10
45.161251
 20
3.846906
 30
0.0
 40
0.6477501409144173
100
AcDbArc
 50
65.67415
 51
128.609666
  0
ARC
  5
237
330
1F
100
AcDbEntity
  8
1
370
    18
100
AcDbCircle
 10
44.397149
 20
0.209766
 30
0.0
 40
4.351271465610082
100
AcDbArc
 50
62.546164
 51
76.294853
  0
ARC
  5
238
330
1F
100
AcDbEntity
  8
1
370
    18
100
AcDbCircle
 10
44.367647
 20
-0.150398
 30
0.0
 40
4.686563080536582
100
AcDbArc
 50
46.438465
 51
64.256376
  0
ARC
  5
239
330
1F
100
AcDbEntity
  8
1
370
    18
100
AcDbCircle
 10
46.741759
 20
2.311692
 30
0.0
 40
1.266588798430274
100
AcDbArc
 50
24.067428
 51
47.508684
  0
ARC
  5
23A
330
1F
100
AcDbEntity
  8
1
370
    18
100
AcDbCircle
 10
47.718662
 20
2.725558
 30
0.0
 40
0.2068512100758358
100
AcDbArc
 50
302.750634
 51
29.756377
  0
ARC
  5
23B
330
1F
100
AcDbEntity
  8
1
370
    18
100
AcDbCircle
 10
47.524216
 20
3.226752
 30
0.0
 40
0.7414137695239609
100
AcDbArc
 50
250.56123
 51
294.405792
  0
ARC
  5
23C
330
1F
100
AcDbEntity
  8
1
370
    18
100
AcDbCircle
 10
56.870036
 20
16.692207
 30
0.0
 40
0.9069755259298591
100
AcDbArc
 50
48.731995
 51
97.674046
  0
ARC
  5
23D
330
1F
100
AcDbEntity
  8
1
370
    18
100
AcDbCircle
 10
56.56277
 20
19.310158
 30
0.0
 40
0.9698207668625164
100
AcDbArc
 50
70.872241
 51
78.933725
  0
ARC
  5
23E
330
1F
100
AcDbEntity
  8
1
370
    18
100
AcDbCircle
 10
56.538679
 20
19.241348
 30
0.0
 40
1.042725950619992
100
AcDbArc
 50
61.219918
 51
70.860545
  0
ARC
  5
23F
330
1F
100
AcDbEntity
  8
1
370
    18
100
AcDbCircle
 10
37.789949
 20
9.717714
 30
0.0
 40
2.343782639134303
100
AcDbArc
 50
129.318501
 51
161.921536
  0
ARC
  5
240
330
1F
100
AcDbEntity
  8
1
370
    18
100
AcDbCircle
 10
39.305702
 20
8.218586
 30
0.0
 40
4.469543151144143
100
AcDbArc
 50
109.352712
 51
132.175117
  0
ARC
  5
241
330
1F
100
AcDbEntity
  8
1
370
    18
100
AcDbCircle
 10
47.436143
 20
2.139463
 30
0.0
 40
6.037774058821287
100
AcDbArc
 50
2.16272
 51
5.160102
  0
ARC
  5
242
330
1F
100
AcDbEntity
  8
1
370
    18
100
AcDbCircle
 10
27.560538
 20
0.350894
 30
0.0
 40
25.99369198699762
100
AcDbArc
 50
5.146275
 51
6.023793
  0
ARC
  5
243
330
1F
100
AcDbEntity
  8
1
370
    18
100
AcDbCircle
 10
55.109137
 20
2.328863
 30
0.0
 40
1.639971443999289
100
AcDbArc
 50
178.656509
 51
225.67502
  0
ARC
  5
244
330
1F
100
AcDbEntity
  8
1
370
    18
100
AcDbCircle
 10
59.318406
 20
7.590861
 30
0.0
 40
8.371961836557396
100
AcDbArc
 50
230.233951
 51
241.044351
  0
ARC
  5
245
330
1F
100
AcDbEntity
  8
1
370
    18
100
AcDbCircle
 10
60.139056
 20
0.15688
 30
0.0
 40
3.816561908927472
100
AcDbArc
 50
187.121624
 51
190.333125
  0
ARC
  5
246
330
1F
100
AcDbEntity
  8
1
370
    18
100
AcDbCircle
 10
58.59252
 20
-0.129597
 30
0.0
 40
2.243727277927351
100
AcDbArc
 50
190.220087
 51
196.2651
  0
ARC
  5
247
330
1F
100
AcDbEntity
  8
1
370
    18
100
AcDbCircle
 10
70.594781
 20
29.400572
 30
0.0
 40
16.27238108746023
100
AcDbArc
 50
219.539742
 51
227.09496
  0
ARC
  5
248
330
1F
100
AcDbEntity
  8
1
370
    18
100
AcDbCircle
 10
65.078317
 20
23.306167
 30
0.0
 40
8.053532797781093
100
AcDbArc
 50
226.324698
 51
237.349997
  0
ARC
  5
249
330
1F
100
AcDbEntity
  8
1
370
    18
100
AcDbCircle
 10
61.157395
 20
17.14195
 30
0.0
 40
0.7484073889870553
100
AcDbArc
 50
235.490486
 51
257.043262
  0
ARC
  5
24A
330
1F
100
AcDbEntity
  8
1
370
    18
100
AcDbCircle
 10
60.33181
 20
15.754757
 30
0.0
 40
1.018191455306174
100
AcDbArc
 50
0.110749
 51
43.585004
  0
ARC
  5
24B
330
1F
100
AcDbEntity
  8
1
370
    18
100
AcDbCircle
 10
35.770815
 20
-13.687226
 30
0.0
 40
0.692938200485717
100
AcDbArc
 50
83.148846
 51
95.573486
  0
ARC
  5
24C
330
1F
100
AcDbEntity
  8
1
370
    18
100
AcDbCircle
 10
-13.944577
 20
0.499371
 30
0.0
 40
70.24291233563007
100
AcDbArc
 50
0.148508
 51
0.53353
  0
ARC
  5
24D
330
1F
100
AcDbEntity
  8
1
370
    18
100
AcDbCircle
 10
11.071705
 20
0.517881
 30
0.0
 40
45.22669049686329
100
AcDbArc
 50
359.580082
 51
0.207204
  0
ARC
  5
24E
330
1F
100
AcDbEntity
  8
1
370
    18
100
AcDbCircle
 10
39.976189
 20
-10.06055
 30
0.0
 40
5.670839893148516
100
AcDbArc
 50
226.813617
 51
249.735607
  0
ARC
  5
24F
330
1F
100
AcDbEntity
  8
1
370
    18
100
AcDbCircle
 10
42.529612
 20
-3.560015
 30
0.0
 40
12.6542236613412
100
AcDbArc
 50
249.084047
 51
259.926521
  0
ARC
  5
250
330
1F
100
AcDbEntity
  8
1
370
    18
100
AcDbCircle
 10
42.841548
 20
-2.878441
 30
0.0
 40
13.35415428721392
100
AcDbArc
 50
251.329494
 51
258.906475
  0
ARC
  5
251
330
1F
100
AcDbEntity
  8
1
370
    18
100
AcDbCircle
 10
40.836114
 20
-8.66153
 30
0.0
 40
7.233572185481519
100
AcDbArc
 50
236.560737
 51
251.714329
  0
ARC
  5
252
330
1F
100
AcDbEntity
  8
1
370
    18
100
AcDbCircle
 10
38.867424
 20
-11.603824
 30
0.0
 40
3.693524576201859
100
AcDbArc
 50
206.98528
 51
236.89355
  0
ARC
  5
253
330
1F
100
AcDbEntity
  8
1
370
    18
100
AcDbCircle
 10
61.126952
 20
-6.065753
 30
0.0
 40
0.155371278374788
100
AcDbArc
 50
357.388882
 51
60.316294
  0
ARC
  5
254
330
1F
100
AcDbEntity
  8
1
370
    18
100
AcDbCircle
 10
59.587091
 20
15.703023
 30
0.0
 40
1.519050208864215
100
AcDbArc
 50
35.183147
 51
40.291312
  0
ARC
  5
255
330
1F
100
AcDbEntity
  8
1
370
    18
100
AcDbCircle
 10
60.244517
 20
16.160766
 30
0.0
 40
0.717994056680746
100
AcDbArc
 50
24.843966
 51
35.556965
  0
ARC
  5
256
330
1F
100
AcDbEntity
  8
1
370
    18
100
AcDbCircle
 10
57.587067
 20
-2.424891
 30
0.0
 40
0.7460567443709892
100
AcDbArc
 50
277.776276
 51
326.149612
  0
ARC
  5
257
330
1F
100
AcDbEntity
  8
1
370
    18
100
AcDbCircle
 10
56.173324
 20
-1.408697
 30
0.0
 40
2.486850587247398
100
AcDbArc
 50
324.848863
 51
352.251937
  0
ARC
  5
258
330
1F
100
AcDbEntity
  8
1
370
    18
100
AcDbCircle
 10
65.975021
 20
-13.663814
 30
0.0
 40
13.99723231277124
100
AcDbArc
 50
119.589015
 51
121.615391
  0
ARC
  5
259
330
1F
100
AcDbEntity
  8
1
370
    18
100
AcDbCircle
 10
67.479549
 20
-16.312697
 30
0.0
 40
17.04357226352298
100
AcDbArc
 50
117.314484
 51
119.590256
  0
ARC
  5
25A
330
1F
100
AcDbEntity
  8
1
370
    18
100
AcDbCircle
 10
55.882286
 20
-1.335622
 30
0.0
 40
2.646711661502207
100
AcDbArc
 50
331.91446
 51
352.027426
  0
ARC
  5
25B
330
1F
100
AcDbEntity
  8
1
370
    18
100
AcDbCircle
 10
57.463491
 20
-2.256115
 30
0.0
 40
0.8211365747183955
100
AcDbArc
 50
280.217641
 51
336.642792
  0
ARC
  5
25C
330
1F
100
AcDbEntity
  8
1
370
    18
100
AcDbCircle
 10
147.136289
 20
-172.865356
 30
0.0
 40
192.6961593317162
100
AcDbArc
 50
116.799944
 51
116.998455
  0
ARC
  5
25D
330
1F
100
AcDbEntity
  8
1
370
    18
100
AcDbCircle
 10
164.618942
 20
-207.465337
 30
0.0
 40
231.4621464907255
100
AcDbArc
 50
116.589074
 51
116.801046
  0
ARC
  5
25E
330
1F
100
AcDbEntity
  8
1
370
    18
100
AcDbCircle
 10
61.084792
 20
-6.003887
 30
0.0
 40
0.266883154380084
100
AcDbArc
 50
6.422035
 51
104.24264
  0
ARC
  5
25F
330
1F
100
AcDbEntity
  8
1
370
    18
100
AcDbCircle
 10
55.755294
 20
9.038226
 30
0.0
 40
0.5960656696084068
100
AcDbArc
 50
236.488026
 51
297.266539
  0
ARC
  5
260
330
1F
100
AcDbEntity
  8
1
370
    18
100
AcDbCircle
 10
54.867732
 20
8.399296
 30
0.0
 40
0.5765563886968541
100
AcDbArc
 50
31.258568
 51
107.292428
  0
ARC
  5
261
330
1F
100
AcDbEntity
  8
1
370
    18
100
AcDbCircle
 10
54.631876
 20
9.471764
 30
0.0
 40
0.6027665061083156
100
AcDbArc
 50
202.628134
 51
261.446773
  0
ARC
  5
262
330
1F
100
AcDbEntity
  8
CUT
370
    18
100
AcDbCircle
 10
47.971916
 20
13.129796
 30
0.0
 40
1.001185068351029
100
AcDbArc
 50
180.495355
 51
224.753194
  0
ARC
  5
263
330
1F
100
AcDbEntity
  8
CUT
370
    18
100
AcDbCircle
 10
55.628288
 20
-7.371295
 30
0.0
 40
1.101726709681109
100
AcDbArc
 50
42.905306
 51
83.128616
  0
ARC
  5
264
330
1F
100
AcDbEntity
  8
CUT
370
    18
100
AcDbCircle
 10
54.098748
 20
21.318999
 30
0.0
 40
0.9667771257898822
100
AcDbArc
 50
92.257363
 51
137.541923
  0
ARC
  5
265
330
1F
100
AcDbEntity
  8
CUT
370
    18
100
AcDbCircle
 10
47.977465
 20
-13.132108
 30
0.0
 40
1.006756025682255
100
AcDbArc
 50
135.375674
 51
179.375776
  0
ARC
  5
266
330
1F
100
AcDbEntity
  8
CUT
370
    18
100
AcDbCircle
 10
61.829207
 20
13.815124
 30
0.0
 40
1.021165617195372
100
AcDbArc
 50
315.683309
 51
358.452067
  0
ARC
  5
267
330
1F
100
AcDbEntity
  8
CUT
370
    18
100
AcDbCircle
 10
55.775477
 20
-21.406908
 30
0.0
 40
0.9212632823914458
100
AcDbArc
 50
269.043626
 51
315.74121
  0
ARC
  5
268
330
1F
100
AcDbEntity
  8
CUT
370
    18
100
AcDbCircle
 10
53.987908
 20
-7.00624
 30
0.0
 40
0.886513758357948
100
AcDbArc
 50
85.292207
 51
132.807672
  0
ARC
  5
269
330
1F
100
AcDbEntity
  8
CUT
370
    18
100
AcDbCircle
 10
47.984844
 20
14.864115
 30
0.0
 40
1.014148238144677
100
AcDbArc
 50
135.546312
 51
179.315987
  0
ARC
  5
26A
330
1F
100
AcDbEntity
  8
CUT
370
    18
100
AcDbCircle
 10
47.978651
 20
-14.866689
 30
0.0
 40
1.007928043126813
100
AcDbArc
 50
180.54191
 51
224.595791
  0
ARC
  5
26B
330
1F
100
AcDbEntity
  8
CUT
370
    18
100
AcDbCircle
 10
169.19806
 20
-129.352536
 30
0.0
 40
168.9400327632713
100
AcDbArc
 50
133.27689
 51
136.201438
  0
ARC
  5
26C
330
1F
100
AcDbEntity
  8
CUT
370
    18
100
AcDbCircle
 10
55.633925
 20
7.360225
 30
0.0
 40
1.090070313593025
100
AcDbArc
 50
276.646872
 51
317.319206
  0
ARC
  5
26D
330
1F
100
AcDbEntity
  8
CUT
370
    18
100
AcDbCircle
 10
61.955831
 20
-15.4601
 30
0.0
 40
0.8941966601882837
100
AcDbArc
 50
312.491146
 51
359.545882
  0
ARC
  5
26E
330
1F
100
AcDbEntity
  8
CUT
370
    18
100
AcDbCircle
 10
55.772553
 20
21.399811
 30
0.0
 40
0.9283148250607166
100
AcDbArc
 50
44.446534
 51
90.768631
  0
ARC
  5
26F
330
1F
100
AcDbEntity
  8
CUT
370
    18
100
AcDbCircle
 10
54.103546
 20
-21.308662
 30
0.0
 40
0.9773051486082808
100
AcDbArc
 50
222.715295
 51
267.485419
  0
ARC
  5
270
330
1F
100
AcDbEntity
  8
CUT
370
    18
100
AcDbCircle
 10
53.988351
 20
7.007522
 30
0.0
 40
0.8877556113819167
100
AcDbArc
 50
227.227603
 51
274.672519
  0
ARC
  5
271
330
1F
100
AcDbEntity
  8
CUT
370
    18
100
AcDbCircle
 10
61.843173
 20
-13.809215
 30
0.0
 40
1.007060294179071
100
AcDbArc
 50
1.233345
 51
44.631279
  0
ARC
  5
272
330
1F
100
AcDbEntity
  8
CUT
370
    18
100
AcDbCircle
 10
131.068345
 20
89.852369
 30
0.0
 40
114.045138122287
100
AcDbArc
 50
224.639701
 51
227.065732
  0
ARC
  5
273
330
1F
100
AcDbEntity
  8
CUT
370
    18
100
AcDbCircle
 10
61.959944
 20
15.461929
 30
0.0
 40
0.8900715201307036
100
AcDbArc
 50
0.338454
 51
47.624518
  0
ARC
  5
274
330
1F
100
AcDbEntity
  8
1
370
    13
100
AcDbCircle
 10
46.565752
 20
15.5
 30
0.0
 40
5.0
100
AcDbArc
 50
90.0
 51
125.0
  0
ARC
  5
275
330
1F
100
AcDbEntity
  8
1
370
    13
100
AcDbCircle
 10
29.697012
 20
-22.0
 30
0.0
 40
10.0
100
AcDbArc
 50
55.0
 51
90.0
  0
ARC
  5
276
330
1F
100
AcDbEntity
  8
1
370
    13
100
AcDbCircle
 10
29.697012
 20
22.0
 30
0.0
 40
10.0
100
AcDbArc
 50
270.0
 51
305.0
  0
ARC
  5
277
330
1F
100
AcDbEntity
  8
1
370
    13
100
AcDbCircle
 10
18.35
 20
12.5
 30
0.0
 40
0.5
100
AcDbArc
 50
180.0
 51
270.0
  0
ARC
  5
278
330
1F
100
AcDbEntity
  8
1
370
    13
100
AcDbCircle
 10
18.35
 20
-12.5
 30
0.0
 40
0.5
100
AcDbArc
 50
90.0
 51
180.0
  0
ARC
  5
279
330
1F
100
AcDbEntity
  8
NOCUT
370
    18
100
AcDbCircle
 10
66.35
 20
-3.720693
 30
0.0
 40
10.0
100
AcDbArc
 50
180.0
 51
228.0
  0
ARC
  5
27A
330
1F
100
AcDbEntity
  8
NOCUT
370
    18
100
AcDbCircle
 10
56.748921
 20
19.5
 30
0.0
 40
1.0
100
AcDbArc
 50
44.0
 51
90.0
  0
ARC
  5
27B
330
1F
100
AcDbEntity
  8
NOCUT
370
    18
100
AcDbCircle
 10
46.565752
 20
15.5
 30
0.0
 40
5.0
100
AcDbArc
 50
90.0
 51
125.0
  0
ARC
  5
27C
330
1F
100
AcDbEntity
  8
NOCUT
370
    18
100
AcDbCircle
 10
18.35
 20
-12.5
 30
0.0
 40
0.5
100
AcDbArc
 50
90.0
 51
180.0
  0
ARC
  5
27D
330
1F
100
AcDbEntity
  8
NOCUT
370
    18
100
AcDbCircle
 10
29.697012
 20
-22.0
 30
0.0
 40
10.0
100
AcDbArc
 50
55.0
 51
90.0
  0
ARC
  5
27E
330
1F
100
AcDbEntity
  8
NOCUT
370
    18
100
AcDbCircle
 10
60.35
 20
-15.770974
 30
0.0
 40
1.0
100
AcDbArc
 50
316.0
 51
0.0
  0
ARC
  5
27F
330
1F
100
AcDbEntity
  8
NOCUT
370
    18
100
AcDbCircle
 10
66.35
 20
3.720693
 30
0.0
 40
10.0
100
AcDbArc
 50
132.0
 51
180.0
  0
ARC
  5
280
330
1F
100
AcDbEntity
  8
NOCUT
370
    18
100
AcDbCircle
 10
60.35
 20
-13.120229
 30
0.0
 40
1.0
100
AcDbArc
 50
0.0
 51
48.0
  0
ARC
  5
281
330
1F
100
AcDbEntity
  8
NOCUT
370
    18
100
AcDbCircle
 10
56.748921
 20
-19.5
 30
0.0
 40
1.0
100
AcDbArc
 50
270.0
 51
316.0
  0
ARC
  5
282
330
1F
100
AcDbEntity
  8
NOCUT
370
    18
100
AcDbCircle
 10
18.35
 20
12.5
 30
0.0
 40
0.5
100
AcDbArc
 50
180.0
 51
270.0
  0
ARC
  5
283
330
1F
100
AcDbEntity
  8
NOCUT
370
    18
100
AcDbCircle
 10
46.565752
 20
-15.5
 30
0.0
 40
5.0
100
AcDbArc
 50
235.0
 51
270.0
  0
ARC
  5
284
330
1F
100
AcDbEntity
  8
NOCUT
370
    18
100
AcDbCircle
 10
60.35
 20
15.770974
 30
0.0
 40
1.0
100
AcDbArc
 50
0.0
 51
44.0
  0
ARC
  5
285
330
1F
100
AcDbEntity
  8
NOCUT
370
    18
100
AcDbCircle
 10
29.697012
 20
22.0
 30
0.0
 40
10.0
100
AcDbArc
 50
270.0
 51
305.0
  0
ARC
  5
286
330
1F
100
AcDbEntity
  8
NOCUT
370
    18
100
AcDbCircle
 10
60.35
 20
13.120229
 30
0.0
 40
1.0
100
AcDbArc
 50
312.0
 51
0.0
  0
MTEXT
  5
287
102
{ACAD_REACTORS
330
330
102
}
330
1F
100
AcDbEntity
  8
2
370
    18
100
AcDbMText
 10
73.660447
 20
-6.892986
 30
0.0
 40
3.5001
 41
0.0
 71
     7
 72
     5
  1
%%c
  7
iso_b_vert
 11
7.273661547324616E-16
 21
1.0
 31
0.0
 73
     2
 44
1.084337
  0
MTEXT
  5
28A
102
{ACAD_REACTORS
330
330
102
}
330
1F
100
AcDbEntity
  8
2
370
    18
100
AcDbMText
 10
73.660447
 20
1.82992
 30
0.0
 40
3.5001
 41
0.0
 71
     7
 72
     5
  1
\W0.7109;31,7
  7
iso_b_vert
 11
7.273661547324616E-16
 21
1.0
 31
0.0
 73
     2
 44
1.084337
  0
LINE
  5
28B
102
{ACAD_REACTORS
330
28E
102
}
330
1F
100
AcDbEntity
  8
2
 60
     1
370
    18
100
AcDbLine
 10
75.225125
 20
15.85
 30
0.0
 11
75.643122
 21
12.675002
 31
0.0
  0
LINE
  5
28C
102
{ACAD_REACTORS
330
28E
102
}
330
1F
100
AcDbEntity
  8
2
 60
     1
370
    18
100
AcDbLine
 10
75.643122
 20
12.675002
 30
0.0
 11
74.807128
 21
12.674998
 31
0.0
  0
LINE
  5
28D
102
{ACAD_REACTORS
330
28E
102
}
330
1F
100
AcDbEntity
  8
2
 60
     1
370
    18
100
AcDbLine
 10
74.807128
 20
12.674998
 30
0.0
 11
75.225125
 21
15.85
 31
0.0
  0
HATCH
  5
28E
102
{ACAD_REACTORS
330
330
102
}
330
1F
100
AcDbEntity
  8
2
370
    13
100
AcDbHatch
 10
0.0
 20
0.0
 30
0.0
210
0.0
220
0.0
230
1.0
  2
ANSI31
 70
     0
 71
     1
 91
        1
 92
        0
 93
        3
 72
     1
 10
75.22512499999999
 20
15.84999999999999
 11
75.64312167983715
 21
12.67500153538753
 72
     1
 10
75.64312167983715
 20
12.67500153538753
 11
74.80712832016283
 21
12.67499846461246
 72
     1
 10
74.80712832016283
 20
12.67499846461246
 11
75.22512499999999
 21
15.84999999999999
 97
        3
330
28B
330
28C
330
28D
 75
     0
 76
     1
 52
0.0
 41
0.0062
 77
     0
 78
     1
 53
44.99999999999919
 43
0.0
 44
0.0
 45
-0.013919396987657
 46
0.0139193969876574
 79
     0
 98
        0
  0
MTEXT
  5
28F
330
1F
100
AcDbEntity
  8
SK6
370
    13
100
AcDbMText
 10
-56.981725
 20
65.199246
 30
0.0
 40
3.175
 41
0.0
 71
     7
 72
     5
  1
\W0.7750;125N3R177W100-ISSD13F-C
  7
iso_b_vert
 73
     2
 44
1.084337
  0
DIMENSION
  5
291
102
{ACAD_REACTORS
330
293
102
}
102
{ACAD_XDICTIONARY
360
292
102
}
330
1F
100
AcDbEntity
  8
SK2
370
    13
100
AcDbDimension
  2
_U0
 10
-68.774875
 20
-12.7
 30
0.0
 11
-68.774875
 21
0.0
 31
0.0
 70
   160
 71
     1
 42
25.4
 52
90.0
  3
Standard
100
AcDbAlignedDimension
 13
17.85
 23
12.7
 33
0.0
 14
-55.15
 24
-12.7
 34
0.0
 50
-90.0
100
AcDbRotatedDimension
1001
ACAD
1000
DSTYLE
1002
{
1070
   371
1070
    13
1070
   372
1070
    13
1070
     3
1000
%%c<>
1070
   170
1070
     0
1070
   144
1040
1.0
1070
   277
1070
     2
1070
   284
1070
     8
1070
   278
1070
    44
1070
   146
1040
0.907117
1070
   345
1005
16
1070
   347
1005
16
1070
   346
1005
16
1070
   344
1005
0
1070
   343
1005
0
1070
   172
1070
     1
1070
    76
1070
     0
1070
    75
1070
     0
1070
   282
1070
     0
1070
   281
1070
     0
1070
    71
1070
     0
1070
    74
1070
     0
1070
   279
1070
     0
1070
   173
1070
     1
1070
   340
1005
288
1070
   271
1070
     1
1070
   272
1070
     2
1070
    77
1070
     1
1070
    73
1070
     0
1070
   171
1070
     3
1070
   274
1070
     4
1070
   177
1070
    95
1070
   176
1070
    95
1070
   178
1070
    95
1070
    78
1070
     8
1070
    48
1040
-0.1
1070
    41
1040
3.175
1070
   147
1040
1.75005
1070
    42
1040
1.5875
1070
    44
1040
3.175
1070
   140
1040
3.5001
1002
}
1001
ACAD_DSTYLE_DIM_LINETYPE
1070
   380
1005
16
1001
ACAD_DSTYLE_DIM_EXT1_LINETYPE
1070
   381
1005
16
1001
ACAD_DSTYLE_DIM_EXT2_LINETYPE
1070
   382
1005
16
  0
DIMENSION
  5
2AB
102
{ACAD_REACTORS
330
2AD
102
}
102
{ACAD_XDICTIONARY
360
2AC
102
}
330
1F
100
AcDbEntity
  8
2
370
    13
100
AcDbDimension
  2
_U1
 10
62.85
 20
26.549758
 30
0.0
 11
78.506516
 21
26.549758
 31
0.0
 70
   160
 71
     1
 42
6.414719
 52
90.0
  3
Standard
100
AcDbAlignedDimension
 13
56.435281
 23
22.049858
 33
0.0
 14
62.85
 24
16.85
 34
0.0
100
AcDbRotatedDimension
1001
ACAD
1000
DSTYLE
1002
{
1070
   371
1070
    13
1070
   372
1070
    13
1070
   170
1070
     0
1070
   144
1040
1.0
1070
   277
1070
     2
1070
   284
1070
     8
1070
   278
1070
    44
1070
   146
1040
0.907117
1070
   345
1005
16
1070
   347
1005
16
1070
   346
1005
16
1070
   344
1005
0
1070
   343
1005
0
1070
   172
1070
     1
1070
    76
1070
     0
1070
    75
1070
     0
1070
   282
1070
     0
1070
   281
1070
     0
1070
    71
1070
     0
1070
    74
1070
     0
1070
   279
1070
     0
1070
   173
1070
     1
1070
   340
1005
288
1070
   271
1070
     1
1070
   272
1070
     2
1070
    77
1070
     1
1070
    73
1070
     1
1070
   171
1070
     3
1070
   274
1070
     4
1070
   177
1070
   254
1070
   176
1070
   254
1070
   178
1070
   254
1070
    78
1070
     8
1070
    48
1040
-0.1
1070
    41
1040
3.175
1070
   147
1040
1.75005
1070
    42
1040
1.5875
1070
    44
1040
3.175
1070
   140
1040
3.5001
1002
}
1001
ACAD_DSTYLE_DIM_LINETYPE
1070
   380
1005
16
1001
ACAD_DSTYLE_DIM_EXT1_LINETYPE
1070
   381
1005
16
1001
ACAD_DSTYLE_DIM_EXT2_LINETYPE
1070
   382
1005
16
  0
DIMENSION
  5
2C5
102
{ACAD_REACTORS
330
2C7
102
}
102
{ACAD_XDICTIONARY
360
2C6
102
}
330
1F
100
AcDbEntity
  8
2
370
    13
100
AcDbDimension
  2
_U2
 10
62.85
 20
36.3499
 30
0.0
 11
40.35
 21
36.3499
 31
0.0
 70
   160
 71
     1
 42
45.0
 52
90.0
  3
Standard
100
AcDbAlignedDimension
 13
17.85
 23
12.7
 33
0.0
 14
62.85
 24
16.85
 34
0.0
100
AcDbRotatedDimension
1001
ACAD
1000
DSTYLE
1002
{
1070
   371
1070
    13
1070
   372
1070
    13
1070
   170
1070
     0
1070
   144
1040
1.0
1070
   277
1070
     2
1070
   284
1070
     8
1070
   278
1070
    44
1070
   146
1040
0.907117
1070
   345
1005
16
1070
   347
1005
16
1070
   346
1005
16
1070
   344
1005
0
1070
   343
1005
0
1070
   172
1070
     1
1070
    76
1070
     0
1070
    75
1070
     0
1070
   282
1070
     0
1070
   281
1070
     0
1070
    71
1070
     0
1070
    74
1070
     0
1070
   279
1070
     0
1070
   173
1070
     1
1070
   340
1005
288
1070
   271
1070
     1
1070
   272
1070
     2
1070
    77
1070
     1
1070
    73
1070
     1
1070
   171
1070
     3
1070
   274
1070
     4
1070
   177
1070
   254
1070
   176
1070
   254
1070
   178
1070
   254
1070
    78
1070
     8
1070
    48
1040
-0.1
1070
    41
1040
3.175
1070
   147
1040
1.75005
1070
    42
1040
1.5875
1070
    44
1040
3.175
1070
   140
1040
3.5001
1002
}
1001
ACAD_DSTYLE_DIM_LINETYPE
1070
   380
1005
16
1001
ACAD_DSTYLE_DIM_EXT1_LINETYPE
1070
   381
1005
16
1001
ACAD_DSTYLE_DIM_EXT2_LINETYPE
1070
   382
1005
16
  0
DIMENSION
  5
2DD
102
{ACAD_REACTORS
330
2DF
102
}
102
{ACAD_XDICTIONARY
360
2DE
102
}
330
1F
100
AcDbEntity
  8
SK2
370
    13
100
AcDbDimension
  2
_U3
 10
62.85
 20
44.3499
 30
0.0
 11
31.425
 21
44.3499
 31
0.0
 70
   160
 71
     1
 42
62.85
 52
90.0
  3
Standard
100
AcDbAlignedDimension
 13
0.0
 23
1.0
 33
0.0
 14
62.85
 24
16.85
 34
0.0
100
AcDbRotatedDimension
1001
ACAD
1000
DSTYLE
1002
{
1070
   371
1070
    13
1070
   372
1070
    13
1070
   170
1070
     0
1070
   144
1040
1.0
1070
   277
1070
     2
1070
   284
1070
     8
1070
   278
1070
    44
1070
   146
1040
0.907117
1070
   345
1005
16
1070
   347
1005
16
1070
   346
1005
16
1070
   344
1005
0
1070
   343
1005
0
1070
   172
1070
     1
1070
    76
1070
     0
1070
    75
1070
     0
1070
   282
1070
     0
1070
   281
1070
     0
1070
    71
1070
     0
1070
    74
1070
     0
1070
   279
1070
     0
1070
   173
1070
     1
1070
   340
1005
288
1070
   271
1070
     1
1070
   272
1070
     2
1070
    77
1070
     1
1070
    73
1070
     1
1070
   171
1070
     3
1070
   274
1070
     4
1070
   177
1070
    95
1070
   176
1070
    95
1070
   178
1070
    95
1070
    78
1070
     8
1070
    48
1040
-0.1
1070
    41
1040
3.175
1070
   147
1040
1.75005
1070
    42
1040
1.5875
1070
    44
1040
3.175
1070
   140
1040
3.5001
1002
}
1001
ACAD_DSTYLE_DIM_LINETYPE
1070
   380
1005
16
1001
ACAD_DSTYLE_DIM_EXT1_LINETYPE
1070
   381
1005
16
1001
ACAD_DSTYLE_DIM_EXT2_LINETYPE
1070
   382
1005
16
  0
DIMENSION
  5
2F5
102
{ACAD_REACTORS
330
2F7
102
}
102
{ACAD_XDICTIONARY
360
2F6
102
}
330
1F
100
AcDbEntity
  8
SK2
370
    13
100
AcDbDimension
  2
_U4
 10
62.85
 20
52.3499
 30
0.0
 11
2.85
 21
52.3499
 31
0.0
 70
   160
 71
     1
 42
120.0
 52
90.0
  3
Standard
100
AcDbAlignedDimension
 13
-57.15
 23
10.7
 33
0.0
 14
62.85
 24
16.85
 34
0.0
100
AcDbRotatedDimension
1001
ACAD
1000
DSTYLE
1002
{
1070
   371
1070
    13
1070
   372
1070
    13
1070
   170
1070
     0
1070
   144
1040
1.0
1070
   277
1070
     2
1070
   284
1070
     8
1070
   278
1070
    44
1070
   146
1040
0.907117
1070
   345
1005
16
1070
   347
1005
16
1070
   346
1005
16
1070
   344
1005
0
1070
   343
1005
0
1070
   172
1070
     1
1070
    76
1070
     0
1070
    75
1070
     0
1070
   282
1070
     0
1070
   281
1070
     0
1070
    71
1070
     0
1070
    74
1070
     0
1070
   279
1070
     0
1070
   173
1070
     1
1070
   340
1005
288
1070
   271
1070
     1
1070
   272
1070
     2
1070
    77
1070
     1
1070
    73
1070
     1
1070
   171
1070
     3
1070
   274
1070
     4
1070
   177
1070
    95
1070
   176
1070
    95
1070
   178
1070
    95
1070
    78
1070
     8
1070
    48
1040
-0.1
1070
    41
1040
3.175
1070
   147
1040
1.75005
1070
    42
1040
1.5875
1070
    44
1040
3.175
1070
   140
1040
3.5001
1002
}
1001
ACAD_DSTYLE_DIM_LINETYPE
1070
   380
1005
16
1001
ACAD_DSTYLE_DIM_EXT1_LINETYPE
1070
   381
1005
16
1001
ACAD_DSTYLE_DIM_EXT2_LINETYPE
1070
   382
1005
16
  0
DIMENSION
  5
30D
102
{ACAD_REACTORS
330
310
102
}
102
{ACAD_XDICTIONARY
360
30F
102
}
330
1F
100
AcDbEntity
  8
2
370
    13
100
AcDbDimension
  2
_U5
 10
62.552769
 20
16.126535
 30
0.0
 11
55.997266
 21
32.373268
 31
0.0
 70
   162
 71
     1
 42
0.785398
  3
Standard
100
AcDb2LineAngularDimension
 13
62.85
 23
14.85
 33
0.0
 14
62.85
 24
16.85
 34
0.0
 15
62.55984
 25
16.119464
 35
0.0
 16
58.215313
 26
33.126193
 36
0.0
1001
ACAD
1000
DSTYLE
1002
{
1070
   371
1070
    13
1070
   372
1070
    13
1070
   170
1070
     0
1070
   179
1070
     1
1070
   275
1070
     0
1070
   144
1040
1.0
1070
   277
1070
     2
1070
    79
1070
     2
1070
   284
1070
     8
1070
   278
1070
    44
1070
   146
1040
0.907117
1070
   345
1005
16
1070
   347
1005
16
1070
   346
1005
16
1070
   344
1005
0
1070
   343
1005
0
1070
   172
1070
     1
1070
    76
1070
     0
1070
    75
1070
     0
1070
   282
1070
     0
1070
   281
1070
     0
1070
    71
1070
     0
1070
   279
1070
     0
1070
   173
1070
     1
1070
   340
1005
288
1070
   271
1070
     1
1070
   272
1070
     1
1070
    77
1070
     1
1070
    73
1070
     0
1070
   171
1070
     3
1070
   274
1070
     4
1070
   177
1070
   254
1070
   176
1070
   254
1070
   178
1070
   254
1070
    78
1070
     8
1070
    41
1040
3.175
1070
   147
1040
1.75005
1070
    42
1040
1.5875
1070
    44
1040
3.175
1070
   140
1040
3.5001
1002
}
1001
ACAD_DSTYLE_DIMANGULAR_EXTENSION
1070
   387
1070
     1
1001
ACAD_DSTYLE_DIM_LINETYPE
1070
   380
1005
16
1001
ACAD_DSTYLE_DIM_EXT1_LINETYPE
1070
   381
1005
16
1001
ACAD_DSTYLE_DIM_EXT2_LINETYPE
1070
   382
1005
16
  0
ENDSEC
  0
SECTION
  2
OBJECTS
  0
DICTIONARY
  5
C
330
0
100
AcDbDictionary
281
     1
  3
ACAD_DETAILVIEWSTYLE
350
388
  3
ACAD_GROUP
350
D
  3
ACAD_LAYOUT
350
1A
  3
ACAD_MATERIAL
350
43
  3
ACAD_MLEADERSTYLE
350
6B
  3
ACAD_MLINESTYLE
350
17
  3
ACAD_PLOTSETTINGS
350
19
  3
ACAD_PLOTSTYLENAME
350
E
  3
ACAD_SCALELIST
350
47
  3
ACAD_SECTIONVIEWSTYLE
350
389
  3
ACAD_TABLESTYLE
350
69
  3
ACAD_VISUALSTYLE
350
2A
  3
ACDB_RECOMPOSE_DATA
350
385
  3
AcDbVariableDictionary
350
345
  0
DICTIONARY
  5
343
330
8
100
AcDbDictionary
280
     1
281
     1
  3
ACAD_XREC_ROUNDTRIP
360
344
  0
DICTIONARY
  5
292
330
291
100
AcDbDictionary
280
     1
281
     1
  3
ACAD_DIMASSOC
360
293
  0
DICTIONARY
  5
2AC
330
2AB
100
AcDbDictionary
280
     1
281
     1
  3
ACAD_DIMASSOC
360
2AD
  0
DICTIONARY
  5
2C6
330
2C5
100
AcDbDictionary
280
     1
281
     1
  3
ACAD_DIMASSOC
360
2C7
  0
DICTIONARY
  5
2DE
330
2DD
100
AcDbDictionary
280
     1
281
     1
  3
ACAD_DIMASSOC
360
2DF
  0
DICTIONARY
  5
2F6
330
2F5
100
AcDbDictionary
280
     1
281
     1
  3
ACAD_DIMASSOC
360
2F7
  0
DICTIONARY
  5
30F
330
30D
100
AcDbDictionary
280
     1
281
     1
  3
ACAD_DIMASSOC
360
310
  0
DICTIONARY
  5
388
102
{ACAD_REACTORS
330
C
102
}
330
C
100
AcDbDictionary
281
     1
  0
DICTIONARY
  5
D
102
{ACAD_REACTORS
330
C
102
}
330
C
100
AcDbDictionary
281
     1
  3
ANNOTATION
350
330
  0
DICTIONARY
  5
1A
102
{ACAD_REACTORS
330
C
102
}
330
C
100
AcDbDictionary
281
     1
  3
Layout1
350
1E
  3
Layout2
350
26
  3
Model
350
22
  0
DICTIONARY
  5
43
102
{ACAD_REACTORS
330
C
102
}
330
C
100
AcDbDictionary
281
     1
  3
ByBlock
350
45
  3
ByLayer
350
44
  3
Global
350
46
  0
DICTIONARY
  5
6B
102
{ACAD_REACTORS
330
C
102
}
330
C
100
AcDbDictionary
281
     1
  3
Standard
350
6C
  0
DICTIONARY
  5
17
102
{ACAD_REACTORS
330
C
102
}
330
C
100
AcDbDictionary
281
     1
  3
Standard
350
18
  0
DICTIONARY
  5
19
102
{ACAD_REACTORS
330
C
102
}
330
C
100
AcDbDictionary
281
     1
  0
ACDBDICTIONARYWDFLT
  5
E
102
{ACAD_REACTORS
330
C
102
}
330
C
100
AcDbDictionary
281
     1
  3
Normal
350
F
100
AcDbDictionaryWithDefault
340
F
  0
DICTIONARY
  5
47
102
{ACAD_REACTORS
330
C
102
}
330
C
100
AcDbDictionary
281
     1
  3
A0
350
48
  3
A1
350
49
  3
A2
350
4A
  3
A3
350
4B
  3
A4
350
4C
  3
A5
350
4D
  3
A6
350
4E
  3
A7
350
4F
  3
A8
350
50
  3
A9
350
51
  3
B0
350
52
  3
B1
350
53
  3
B2
350
54
  3
B3
350
55
  3
B4
350
56
  3
B5
350
57
  3
B6
350
58
  3
B7
350
59
  3
B8
350
5A
  3
B9
350
5B
  3
C0
350
5C
  3
C1
350
5D
  3
C2
350
5E
  3
C3
350
5F
  3
C4
350
60
  3
C5
350
61
  3
C6
350
62
  3
C7
350
63
  3
C8
350
64
  3
C9
350
65
  3
D0
350
66
  3
D1
350
67
  3
D2
350
68
  0
DICTIONARY
  5
389
102
{ACAD_REACTORS
330
C
102
}
330
C
100
AcDbDictionary
281
     1
  0
DICTIONARY
  5
69
102
{ACAD_REACTORS
330
C
102
}
330
C
100
AcDbDictionary
281
     1
  3
Standard
350
6A
  0
DICTIONARY
  5
2A
102
{ACAD_REACTORS
330
C
102
}
330
C
100
AcDbDictionary
281
     1
  3
2dWireframe
350
2F
  3
Basic
350
32
  3
Brighten
350
36
  3
ColorChange
350
3A
  3
Conceptual
350
34
  3
Dim
350
35
  3
EdgeColorOff
350
3D
  3
Facepattern
350
39
  3
Flat
350
2B
  3
FlatWithEdges
350
2C
  3
Gouraud
350
2D
  3
GouraudWithEdges
350
2E
  3
Hidden
350
31
  3
JitterOff
350
3B
  3
Linepattern
350
38
  3
OverhangOff
350
3C
  3
Realistic
350
33
  3
Shaded
350
42
  3
Shaded with edges
350
41
  3
Shades of Gray
350
3E
  3
Sketchy
350
3F
  3
Thicken
350
37
  3
Wireframe
350
30
  3
X-Ray
350
40
  0
XRECORD
  5
385
102
{ACAD_REACTORS
330
C
102
}
330
C
100
AcDbXrecord
280
     1
 90
        1
330
6A
  0
DICTIONARY
  5
345
102
{ACAD_REACTORS
330
C
102
}
330
C
100
AcDbDictionary
281
     1
  3
CANNOSCALE
350
346
  3
CMLEADERSTYLE
350
387
  3
CTABLESTYLE
350
386
  3
MSLTSCALE
350
347
  3
XCLIPFRAME
350
348
  0
XRECORD
  5
344
102
{ACAD_REACTORS
330
343
102
}
330
343
100
AcDbXrecord
280
     1
102
VTR_0.000_0.000_1.000_1.000_VISUALSTYLE
340
2F
102
VTR_0.000_0.000_1.000_1.000_GRIDDISPLAY
 70
     3
102
VTR_0.000_0.000_1.000_1.000_GRIDMAJOR
 70
     5
102
VTR_0.000_0.000_1.000_1.000_DEFAULTLIGHTING
280
     1
102
VTR_0.000_0.000_1.000_1.000_DEFAULTLIGHTINGTYPE
 70
     1
102
VTR_0.000_0.000_1.000_1.000_BRIGHTNESS
141
0.0
102
VTR_0.000_0.000_1.000_1.000_CONTRAST
142
0.0
102
VTR_0.000_0.000_0.500_1.000_VISUALSTYLE
340
2F
102
VTR_0.000_0.000_0.500_1.000_GRIDDISPLAY
 70
     3
102
VTR_0.000_0.000_0.500_1.000_GRIDMAJOR
 70
     5
102
VTR_0.000_0.000_0.500_1.000_DEFAULTLIGHTING
280
     1
102
VTR_0.000_0.000_0.500_1.000_DEFAULTLIGHTINGTYPE
 70
     1
102
VTR_0.000_0.000_0.500_1.000_BRIGHTNESS
141
0.0
102
VTR_0.000_0.000_0.500_1.000_CONTRAST
142
0.0
102
VTR_0.500_0.000_1.000_1.000_VISUALSTYLE
340
2F
102
VTR_0.500_0.000_1.000_1.000_GRIDDISPLAY
 70
     3
102
VTR_0.500_0.000_1.000_1.000_GRIDMAJOR
 70
     5
102
VTR_0.500_0.000_1.000_1.000_DEFAULTLIGHTING
280
     1
102
VTR_0.500_0.000_1.000_1.000_DEFAULTLIGHTINGTYPE
 70
     1
102
VTR_0.500_0.000_1.000_1.000_BRIGHTNESS
141
0.0
102
VTR_0.500_0.000_1.000_1.000_CONTRAST
142
0.0
102
VTR_0.000_0.500_1.000_1.000_VISUALSTYLE
340
2F
102
VTR_0.000_0.500_1.000_1.000_GRIDDISPLAY
 70
     3
102
VTR_0.000_0.500_1.000_1.000_GRIDMAJOR
 70
     5
102
VTR_0.000_0.500_1.000_1.000_DEFAULTLIGHTING
280
     1
102
VTR_0.000_0.500_1.000_1.000_DEFAULTLIGHTINGTYPE
 70
     1
102
VTR_0.000_0.500_1.000_1.000_BRIGHTNESS
141
0.0
102
VTR_0.000_0.500_1.000_1.000_CONTRAST
142
0.0
102
VTR_0.000_0.000_1.000_0.500_VISUALSTYLE
340
2F
102
VTR_0.000_0.000_1.000_0.500_GRIDDISPLAY
 70
     3
102
VTR_0.000_0.000_1.000_0.500_GRIDMAJOR
 70
     5
102
VTR_0.000_0.000_1.000_0.500_DEFAULTLIGHTING
280
     1
102
VTR_0.000_0.000_1.000_0.500_DEFAULTLIGHTINGTYPE
 70
     1
102
VTR_0.000_0.000_1.000_0.500_BRIGHTNESS
141
0.0
102
VTR_0.000_0.000_1.000_0.500_CONTRAST
142
0.0
102
VTR_0.000_0.500_0.500_1.000_VISUALSTYLE
340
2F
102
VTR_0.000_0.500_0.500_1.000_GRIDDISPLAY
 70
     3
102
VTR_0.000_0.500_0.500_1.000_GRIDMAJOR
 70
     5
102
VTR_0.000_0.500_0.500_1.000_DEFAULTLIGHTING
280
     1
102
VTR_0.000_0.500_0.500_1.000_DEFAULTLIGHTINGTYPE
 70
     1
102
VTR_0.000_0.500_0.500_1.000_BRIGHTNESS
141
0.0
102
VTR_0.000_0.500_0.500_1.000_CONTRAST
142
0.0
102
VTR_0.000_0.000_0.500_0.500_VISUALSTYLE
340
2F
102
VTR_0.000_0.000_0.500_0.500_GRIDDISPLAY
 70
     3
102
VTR_0.000_0.000_0.500_0.500_GRIDMAJOR
 70
     5
102
VTR_0.000_0.000_0.500_0.500_DEFAULTLIGHTING
280
     1
102
VTR_0.000_0.000_0.500_0.500_DEFAULTLIGHTINGTYPE
 70
     1
102
VTR_0.000_0.000_0.500_0.500_BRIGHTNESS
141
0.0
102
VTR_0.000_0.000_0.500_0.500_CONTRAST
142
0.0
102
VTR_0.500_0.000_1.000_0.500_VISUALSTYLE
340
2F
102
VTR_0.500_0.000_1.000_0.500_GRIDDISPLAY
 70
     3
102
VTR_0.500_0.000_1.000_0.500_GRIDMAJOR
 70
     5
102
VTR_0.500_0.000_1.000_0.500_DEFAULTLIGHTING
280
     1
102
VTR_0.500_0.000_1.000_0.500_DEFAULTLIGHTINGTYPE
 70
     1
102
VTR_0.500_0.000_1.000_0.500_BRIGHTNESS
141
0.0
102
VTR_0.500_0.000_1.000_0.500_CONTRAST
142
0.0
102
VTR_0.500_0.500_1.000_1.000_VISUALSTYLE
340
2F
102
VTR_0.500_0.500_1.000_1.000_GRIDDISPLAY
 70
     3
102
VTR_0.500_0.500_1.000_1.000_GRIDMAJOR
 70
     5
102
VTR_0.500_0.500_1.000_1.000_DEFAULTLIGHTING
280
     1
102
VTR_0.500_0.500_1.000_1.000_DEFAULTLIGHTINGTYPE
 70
     1
102
VTR_0.500_0.500_1.000_1.000_BRIGHTNESS
141
0.0
102
VTR_0.500_0.500_1.000_1.000_CONTRAST
142
0.0
102
VTR_0.000_0.500_0.333_1.000_VISUALSTYLE
340
2F
102
VTR_0.000_0.500_0.333_1.000_GRIDDISPLAY
 70
     3
102
VTR_0.000_0.500_0.333_1.000_GRIDMAJOR
 70
     5
102
VTR_0.000_0.500_0.333_1.000_DEFAULTLIGHTING
280
     1
102
VTR_0.000_0.500_0.333_1.000_DEFAULTLIGHTINGTYPE
 70
     1
102
VTR_0.000_0.500_0.333_1.000_BRIGHTNESS
141
0.0
102
VTR_0.000_0.500_0.333_1.000_CONTRAST
142
0.0
102
VTR_0.000_0.000_0.333_0.500_VISUALSTYLE
340
2F
102
VTR_0.000_0.000_0.333_0.500_GRIDDISPLAY
 70
     3
102
VTR_0.000_0.000_0.333_0.500_GRIDMAJOR
 70
     5
102
VTR_0.000_0.000_0.333_0.500_DEFAULTLIGHTING
280
     1
102
VTR_0.000_0.000_0.333_0.500_DEFAULTLIGHTINGTYPE
 70
     1
102
VTR_0.000_0.000_0.333_0.500_BRIGHTNESS
141
0.0
102
VTR_0.000_0.000_0.333_0.500_CONTRAST
142
0.0
102
VTR_0.333_0.500_0.667_1.000_VISUALSTYLE
340
2F
102
VTR_0.333_0.500_0.667_1.000_GRIDDISPLAY
 70
     3
102
VTR_0.333_0.500_0.667_1.000_GRIDMAJOR
 70
     5
102
VTR_0.333_0.500_0.667_1.000_DEFAULTLIGHTING
280
     1
102
VTR_0.333_0.500_0.667_1.000_DEFAULTLIGHTINGTYPE
 70
     1
102
VTR_0.333_0.500_0.667_1.000_BRIGHTNESS
141
0.0
102
VTR_0.333_0.500_0.667_1.000_CONTRAST
142
0.0
102
VTR_0.333_0.000_0.667_0.500_VISUALSTYLE
340
2F
102
VTR_0.333_0.000_0.667_0.500_GRIDDISPLAY
 70
     3
102
VTR_0.333_0.000_0.667_0.500_GRIDMAJOR
 70
     5
102
VTR_0.333_0.000_0.667_0.500_DEFAULTLIGHTING
280
     1
102
VTR_0.333_0.000_0.667_0.500_DEFAULTLIGHTINGTYPE
 70
     1
102
VTR_0.333_0.000_0.667_0.500_BRIGHTNESS
141
0.0
102
VTR_0.333_0.000_0.667_0.500_CONTRAST
142
0.0
102
VTR_0.667_0.500_1.000_1.000_VISUALSTYLE
340
2F
102
VTR_0.667_0.500_1.000_1.000_GRIDDISPLAY
 70
     3
102
VTR_0.667_0.500_1.000_1.000_GRIDMAJOR
 70
     5
102
VTR_0.667_0.500_1.000_1.000_DEFAULTLIGHTING
280
     1
102
VTR_0.667_0.500_1.000_1.000_DEFAULTLIGHTINGTYPE
 70
     1
102
VTR_0.667_0.500_1.000_1.000_BRIGHTNESS
141
0.0
102
VTR_0.667_0.500_1.000_1.000_CONTRAST
142
0.0
102
VTR_0.667_0.000_1.000_0.500_VISUALSTYLE
340
2F
102
VTR_0.667_0.000_1.000_0.500_GRIDDISPLAY
 70
     3
102
VTR_0.667_0.000_1.000_0.500_GRIDMAJOR
 70
     5
102
VTR_0.667_0.000_1.000_0.500_DEFAULTLIGHTING
280
     1
102
VTR_0.667_0.000_1.000_0.500_DEFAULTLIGHTINGTYPE
 70
     1
102
VTR_0.667_0.000_1.000_0.500_BRIGHTNESS
141
0.0
102
VTR_0.667_0.000_1.000_0.500_CONTRAST
142
0.0
  0
DIMASSOC
  5
293
102
{ACAD_REACTORS
330
292
102
}
330
292
100
AcDbDimAssoc
330
291
 90
        3
 70
     0
 71
     1
  1
AcDbOsnapPointRef
 72
    13
331
CC
 73
     2
 91
        1
 40
0.0
 10
17.85
 20
12.7
 30
0.0
 75
     0
  1
AcDbOsnapPointRef
 72
    13
331
CA
 73
     2
 91
        2
 40
0.0
 10
-55.15
 20
-12.7
 30
0.0
 75
     0
  0
DIMASSOC
  5
2AD
102
{ACAD_REACTORS
330
2AC
102
}
330
2AC
100
AcDbDimAssoc
330
2AB
 90
        3
 70
     0
 71
     1
  1
AcDbOsnapPointRef
 72
     4
331
75
 73
     3
 91
        1
 40
0.0
 10
56.435281
 20
22.049858
 30
0.0
 75
     0
  1
AcDbOsnapPointRef
 72
     1
331
19C
 73
     2
 91
        2
 40
1.0
 10
62.85
 20
16.85
 30
0.0
 75
     0
  0
DIMASSOC
  5
2C7
102
{ACAD_REACTORS
330
2C6
102
}
330
2C6
100
AcDbDimAssoc
330
2C5
 90
        3
 70
     0
 71
     1
  1
AcDbOsnapPointRef
 72
    13
331
199
 73
     2
 91
        1
 40
0.0
 10
17.85
 20
12.7
 30
0.0
 75
     0
  1
AcDbOsnapPointRef
 72
     1
331
19C
 73
     2
 91
        2
 40
1.0
 10
62.85
 20
16.85
 30
0.0
 75
     0
  0
DIMASSOC
  5
2DF
102
{ACAD_REACTORS
330
2DE
102
}
330
2DE
100
AcDbDimAssoc
330
2DD
 90
        3
 70
     0
 71
     1
  1
AcDbOsnapPointRef
 72
    13
331
E2
 73
     2
 91
        1
 40
0.0
 10
0.0
 20
1.0
 30
0.0
 75
     0
  1
AcDbOsnapPointRef
 72
     1
331
19C
 73
     2
 91
        2
 40
1.0
 10
62.85
 20
16.85
 30
0.0
 75
     0
  0
DIMASSOC
  5
2F7
102
{ACAD_REACTORS
330
2F6
102
}
330
2F6
100
AcDbDimAssoc
330
2F5
 90
        3
 70
     0
 71
     1
  1
AcDbOsnapPointRef
 72
    13
331
19A
 73
     2
 91
        1
 40
0.0
 10
-57.15
 20
10.7
 30
0.0
 75
     0
  1
AcDbOsnapPointRef
 72
     1
331
19C
 73
     2
 91
        2
 40
1.0
 10
62.85
 20
16.85
 30
0.0
 75
     0
  0
DIMASSOC
  5
310
102
{ACAD_REACTORS
330
30F
102
}
330
30F
100
AcDbDimAssoc
330
30D
 90
       15
 70
     0
 71
     1
  1
AcDbOsnapPointRef
 72
    13
331
19C
 73
     2
 91
        1
 40
0.0
 10
62.85
 20
14.85
 30
0.0
 75
     0
  1
AcDbOsnapPointRef
 72
     1
331
19C
 73
     2
 91
        1
 40
1.0
 10
62.85
 20
16.85
 30
0.0
 75
     0
  1
AcDbOsnapPointRef
 72
    13
331
E3
 73
     2
 91
        2
 40
0.0
 10
62.55984
 20
16.119464
 30
0.0
 75
     0
  1
AcDbOsnapPointRef
 72
     1
331
E3
 73
     2
 91
        2
 40
1.0
 10
62.552769
 20
16.126535
 30
0.0
 75
     0
  0
GROUP
  5
330
102
{ACAD_REACTORS
330
D
102
}
330
D
100
AcDbGroup
300

 70
     0
 71
     1
340
287
340
28A
340
19E
340
19F
340
28E
  0
LAYOUT
  5
1E
102
{ACAD_REACTORS
330
1A
102
}
330
1A
100
AcDbPlotSettings
  1

  2
none_device
  4

  6

 40
0.0
 41
0.0
 42
0.0
 43
0.0
 44
0.0
 45
0.0
 46
0.0
 47
0.0
 48
0.0
 49
0.0
140
0.0
141
0.0
142
1.0
143
1.0
 70
   688
 72
     0
 73
     0
 74
     5
  7

 75
    16
 76
     0
 77
     2
 78
   300
147
1.0
148
0.0
149
0.0
100
AcDbLayout
  1
Layout1
 70
     1
 71
     1
 10
-0.5
 20
-0.5
 11
5.0
 21
5.0
 12
0.0
 22
0.0
 32
0.0
 14
-0.5
 24
-0.5
 34
-0.5
 15
5.0
 25
5.0
 35
5.0
146
0.0
 13
0.0
 23
0.0
 33
0.0
 16
1.0
 26
0.0
 36
0.0
 17
0.0
 27
1.0
 37
0.0
 76
     0
330
1B
  0
LAYOUT
  5
26
102
{ACAD_REACTORS
330
1A
102
}
330
1A
100
AcDbPlotSettings
  1

  2
none_device
  4

  6

 40
0.0
 41
0.0
 42
0.0
 43
0.0
 44
0.0
 45
0.0
 46
0.0
 47
0.0
 48
0.0
 49
0.0
140
0.0
141
0.0
142
1.0
143
1.0
 70
   688
 72
     0
 73
     0
 74
     5
  7

 75
    16
 76
     0
 77
     2
 78
   300
147
1.0
148
0.0
149
0.0
100
AcDbLayout
  1
Layout2
 70
     1
 71
     2
 10
0.0
 20
0.0
 11
0.0
 21
0.0
 12
0.0
 22
0.0
 32
0.0
 14
0.0
 24
0.0
 34
0.0
 15
0.0
 25
0.0
 35
0.0
146
0.0
 13
0.0
 23
0.0
 33
0.0
 16
1.0
 26
0.0
 36
0.0
 17
0.0
 27
1.0
 37
0.0
 76
     0
330
23
  0
LAYOUT
  5
22
102
{ACAD_REACTORS
330
1A
102
}
330
1A
100
AcDbPlotSettings
  1

  2
none_device
  4
Letter_(8.50_x_11.00_Inches)
  6

 40
6.35
 41
6.35
 42
6.350005
 43
6.350005
 44
215.9
 45
279.4
 46
0.0
 47
0.0
 48
0.0
 49
0.0
140
0.0
141
0.0
142
1.0
143
1.0
 70
  1712
 72
     0
 73
     0
 74
     0
  7

 75
     0
 76
     0
 77
     2
 78
   300
147
1.0
148
0.0
149
0.0
100
AcDbLayout
  1
Model
 70
     1
 71
     0
 10
-0.5
 20
-0.5
 11
5.0
 21
5.0
 12
0.0
 22
0.0
 32
0.0
 14
-0.5
 24
-0.5
 34
-0.5
 15
5.0
 25
5.0
 35
5.0
146
0.0
 13
0.0
 23
0.0
 33
0.0
 16
1.0
 26
0.0
 36
0.0
 17
0.0
 27
1.0
 37
0.0
 76
     0
330
1F
331
29
  0
MATERIAL
  5
45
102
{ACAD_REACTORS
330
43
102
}
102
{ACAD_XDICTIONARY
360
37B
102
}
330
43
100
AcDbMaterial
  1
ByBlock
  0
MATERIAL
  5
44
102
{ACAD_REACTORS
330
43
102
}
102
{ACAD_XDICTIONARY
360
379
102
}
330
43
100
AcDbMaterial
  1
ByLayer
  0
MATERIAL
  5
46
102
{ACAD_REACTORS
330
43
102
}
102
{ACAD_XDICTIONARY
360
37D
102
}
330
43
100
AcDbMaterial
  1
Global
  0
MLEADERSTYLE
  5
6C
102
{ACAD_REACTORS
330
6B
102
}
102
{ACAD_XDICTIONARY
360
383
102
}
330
6B
100
AcDbMLeaderStyle
170
     2
171
     1
172
     0
 90
        2
 40
0.0
 41
0.0
173
     1
 91
-1056964608
340
14
 92
       -2
290
     1
 42
0.09
291
     1
 43
0.36
  3
Standard
341
0
 44
0.18
300

342
11
174
     1
178
     6
175
     1
176
     0
 93
-1056964608
 45
0.18
292
     0
297
     0
 46
0.18
343
0
 94
-1056964608
 47
1.0
 49
1.0
140
1.0
293
     1
141
0.0
294
     1
177
     0
142
1.0
295
     0
296
     0
143
0.125
1001
ACAD_MLEADERVER
1070
     2
  0
MLINESTYLE
  5
18
102
{ACAD_REACTORS
330
17
102
}
330
17
100
AcDbMlineStyle
  2
Standard
 70
     0
  3

 62
   256
 51
90.0
 52
90.0
 71
     2
 49
0.5
 62
   256
  6
BYLAYER
 49
-0.5
 62
   256
  6
BYLAYER
  0
ACDBPLACEHOLDER
  5
F
102
{ACAD_REACTORS
330
E
102
}
330
E
  0
SCALE
  5
48
102
{ACAD_REACTORS
330
47
102
}
330
47
100
AcDbScale
 70
     0
300
1:1
140
1.0
141
1.0
290
     1
  0
SCALE
  5
49
102
{ACAD_REACTORS
330
47
102
}
330
47
100
AcDbScale
 70
     0
300
1:2
140
1.0
141
2.0
290
     0
  0
SCALE
  5
4A
102
{ACAD_REACTORS
330
47
102
}
330
47
100
AcDbScale
 70
     0
300
1:4
140
1.0
141
4.0
290
     0
  0
SCALE
  5
4B
102
{ACAD_REACTORS
330
47
102
}
330
47
100
AcDbScale
 70
     0
300
1:5
140
1.0
141
5.0
290
     0
  0
SCALE
  5
4C
102
{ACAD_REACTORS
330
47
102
}
330
47
100
AcDbScale
 70
     0
300
1:8
140
1.0
141
8.0
290
     0
  0
SCALE
  5
4D
102
{ACAD_REACTORS
330
47
102
}
330
47
100
AcDbScale
 70
     0
300
1:10
140
1.0
141
10.0
290
     0
  0
SCALE
  5
4E
102
{ACAD_REACTORS
330
47
102
}
330
47
100
AcDbScale
 70
     0
300
1:16
140
1.0
141
16.0
290
     0
  0
SCALE
  5
4F
102
{ACAD_REACTORS
330
47
102
}
330
47
100
AcDbScale
 70
     0
300
1:20
140
1.0
141
20.0
290
     0
  0
SCALE
  5
50
102
{ACAD_REACTORS
330
47
102
}
330
47
100
AcDbScale
 70
     0
300
1:30
140
1.0
141
30.0
290
     0
  0
SCALE
  5
51
102
{ACAD_REACTORS
330
47
102
}
330
47
100
AcDbScale
 70
     0
300
1:40
140
1.0
141
40.0
290
     0
  0
SCALE
  5
52
102
{ACAD_REACTORS
330
47
102
}
330
47
100
AcDbScale
 70
     0
300
1:50
140
1.0
141
50.0
290
     0
  0
SCALE
  5
53
102
{ACAD_REACTORS
330
47
102
}
330
47
100
AcDbScale
 70
     0
300
1:100
140
1.0
141
100.0
290
     0
  0
SCALE
  5
54
102
{ACAD_REACTORS
330
47
102
}
330
47
100
AcDbScale
 70
     0
300
2:1
140
2.0
141
1.0
290
     0
  0
SCALE
  5
55
102
{ACAD_REACTORS
330
47
102
}
330
47
100
AcDbScale
 70
     0
300
4:1
140
4.0
141
1.0
290
     0
  0
SCALE
  5
56
102
{ACAD_REACTORS
330
47
102
}
330
47
100
AcDbScale
 70
     0
300
8:1
140
8.0
141
1.0
290
     0
  0
SCALE
  5
57
102
{ACAD_REACTORS
330
47
102
}
330
47
100
AcDbScale
 70
     0
300
10:1
140
10.0
141
1.0
290
     0
  0
SCALE
  5
58
102
{ACAD_REACTORS
330
47
102
}
330
47
100
AcDbScale
 70
     0
300
100:1
140
100.0
141
1.0
290
     0
  0
SCALE
  5
59
102
{ACAD_REACTORS
330
47
102
}
330
47
100
AcDbScale
 70
     0
300
1/128" = 1'-0"
140
0.007812
141
12.0
290
     0
  0
SCALE
  5
5A
102
{ACAD_REACTORS
330
47
102
}
330
47
100
AcDbScale
 70
     0
300
1/64" = 1'-0"
140
0.015625
141
12.0
290
     0
  0
SCALE
  5
5B
102
{ACAD_REACTORS
330
47
102
}
330
47
100
AcDbScale
 70
     0
300
1/32" = 1'-0"
140
0.03125
141
12.0
290
     0
  0
SCALE
  5
5C
102
{ACAD_REACTORS
330
47
102
}
330
47
100
AcDbScale
 70
     0
300
1/16" = 1'-0"
140
0.0625
141
12.0
290
     0
  0
SCALE
  5
5D
102
{ACAD_REACTORS
330
47
102
}
330
47
100
AcDbScale
 70
     0
300
3/32" = 1'-0"
140
0.09375
141
12.0
290
     0
  0
SCALE
  5
5E
102
{ACAD_REACTORS
330
47
102
}
330
47
100
AcDbScale
 70
     0
300
1/8" = 1'-0"
140
0.125
141
12.0
290
     0
  0
SCALE
  5
5F
102
{ACAD_REACTORS
330
47
102
}
330
47
100
AcDbScale
 70
     0
300
3/16" = 1'-0"
140
0.1875
141
12.0
290
     0
  0
SCALE
  5
60
102
{ACAD_REACTORS
330
47
102
}
330
47
100
AcDbScale
 70
     0
300
1/4" = 1'-0"
140
0.25
141
12.0
290
     0
  0
SCALE
  5
61
102
{ACAD_REACTORS
330
47
102
}
330
47
100
AcDbScale
 70
     0
300
3/8" = 1'-0"
140
0.375
141
12.0
290
     0
  0
SCALE
  5
62
102
{ACAD_REACTORS
330
47
102
}
330
47
100
AcDbScale
 70
     0
300
1/2" = 1'-0"
140
0.5
141
12.0
290
     0
  0
SCALE
  5
63
102
{ACAD_REACTORS
330
47
102
}
330
47
100
AcDbScale
 70
     0
300
3/4" = 1'-0"
140
0.75
141
12.0
290
     0
  0
SCALE
  5
64
102
{ACAD_REACTORS
330
47
102
}
330
47
100
AcDbScale
 70
     0
300
1" = 1'-0"
140
1.0
141
12.0
290
     0
  0
SCALE
  5
65
102
{ACAD_REACTORS
330
47
102
}
330
47
100
AcDbScale
 70
     0
300
1-1/2" = 1'-0"
140
1.5
141
12.0
290
     0
  0
SCALE
  5
66
102
{ACAD_REACTORS
330
47
102
}
330
47
100
AcDbScale
 70
     0
300
3" = 1'-0"
140
3.0
141
12.0
290
     0
  0
SCALE
  5
67
102
{ACAD_REACTORS
330
47
102
}
330
47
100
AcDbScale
 70
     0
300
6" = 1'-0"
140
6.0
141
12.0
290
     0
  0
SCALE
  5
68
102
{ACAD_REACTORS
330
47
102
}
330
47
100
AcDbScale
 70
     0
300
1'-0" = 1'-0"
140
12.0
141
12.0
290
     0
  0
TABLESTYLE
  5
6A
102
{ACAD_REACTORS
330
69
102
}
102
{ACAD_XDICTIONARY
360
37F
102
}
330
69
100
AcDbTableStyle
  3
Standard
 70
     0
 71
     0
 40
0.06
 41
0.06
280
     0
281
     0
  7
Standard
140
0.18
170
     2
 62
     0
 63
   257
283
     0
274
    -2
284
     1
 64
     0
275
    -2
285
     1
 65
     0
276
    -2
286
     1
 66
     0
277
    -2
287
     1
 67
     0
278
    -2
288
     1
 68
     0
279
    -2
289
     1
 69
     0
  7
Standard
140
0.25
170
     5
 62
     0
 63
   257
283
     0
274
    -2
284
     1
 64
     0
275
    -2
285
     1
 65
     0
276
    -2
286
     1
 66
     0
277
    -2
287
     1
 67
     0
278
    -2
288
     1
 68
     0
279
    -2
289
     1
 69
     0
  7
Standard
140
0.18
170
     5
 62
     0
 63
   257
283
     0
274
    -2
284
     1
 64
     0
275
    -2
285
     1
 65
     0
276
    -2
286
     1
 66
     0
277
    -2
287
     1
 67
     0
278
    -2
288
     1
 68
     0
279
    -2
289
     1
 69
     0
  0
VISUALSTYLE
  5
2F
102
{ACAD_REACTORS
330
2A
102
}
102
{ACAD_XDICTIONARY
360
351
102
}
330
2A
100
AcDbVisualStyle
  2
2dWireframe
 70
     4
 71
     0
 72
     2
 73
     0
 90
        0
 40
0.6
 41
30.0
 62
     5
 63
     7
421
 16777215
 74
     1
 91
        4
 64
     7
 65
   257
 75
     1
175
     1
 42
1.0
 92
        0
 66
   257
 43
1.0
 76
     1
 77
     6
 78
     2
 67
     7
 79
     5
170
     0
171
     0
290
     0
174
     0
 93
        1
 44
0.0
173
     0
291
     0
 45
0.0
1001
ACAD
1000
AcDbSavedByObjectVersion
1070
     0
  0
VISUALSTYLE
  5
32
102
{ACAD_REACTORS
330
2A
102
}
102
{ACAD_XDICTIONARY
360
357
102
}
330
2A
100
AcDbVisualStyle
  2
Basic
 70
     7
 71
     1
 72
     0
 73
     1
 90
        0
 40
0.6
 41
30.0
 62
     5
 63
     7
421
 16777215
 74
     0
 91
        4
 64
     7
 65
   257
 75
     1
175
     1
 42
1.0
 92
        8
 66
     7
 43
1.0
 76
     1
 77
     6
 78
     2
 67
     7
 79
     5
170
     0
171
     0
290
     0
174
     0
 93
        1
 44
0.0
173
     0
291
     1
 45
0.0
1001
ACAD
1000
AcDbSavedByObjectVersion
1070
     0
  0
VISUALSTYLE
  5
36
102
{ACAD_REACTORS
330
2A
102
}
102
{ACAD_XDICTIONARY
360
35F
102
}
330
2A
100
AcDbVisualStyle
  2
Brighten
 70
    12
 71
     2
 72
     2
 73
     0
 90
        0
 40
0.6
 41
30.0
 62
     5
 63
     7
421
 16777215
 74
     1
 91
        4
 64
     7
 65
   257
 75
     1
175
     1
 42
1.0
 92
        8
 66
     7
 43
1.0
 76
     1
 77
     6
 78
     2
 67
     7
 79
     5
170
     0
171
     0
290
     0
174
     0
 93
        1
 44
50.0
173
     0
291
     1
 45
0.0
1001
ACAD
1000
AcDbSavedByObjectVersion
1070
     0
  0
VISUALSTYLE
  5
3A
102
{ACAD_REACTORS
330
2A
102
}
102
{ACAD_XDICTIONARY
360
367
102
}
330
2A
100
AcDbVisualStyle
  2
ColorChange
 70
    16
 71
     2
 72
     2
 73
     3
 90
        0
 40
0.6
 41
30.0
 62
     5
 63
     8
421
  8421504
 74
     1
 91
        4
 64
     7
 65
   257
 75
     1
175
     1
 42
1.0
 92
        8
 66
     8
424
  8421504
 43
1.0
 76
     1
 77
     6
 78
     2
 67
     7
 79
     5
170
     0
171
     0
290
     0
174
     0
 93
        1
 44
0.0
173
     0
291
     1
 45
0.0
1001
ACAD
1000
AcDbSavedByObjectVersion
1070
     0
  0
VISUALSTYLE
  5
34
102
{ACAD_REACTORS
330
2A
102
}
102
{ACAD_XDICTIONARY
360
35B
102
}
330
2A
100
AcDbVisualStyle
  2
Conceptual
 70
     9
 71
     3
 72
     2
 73
     0
 90
        0
 40
0.6
 41
30.0
 62
     5
 63
     7
421
 16777215
 74
     2
 91
        2
 64
     7
 65
   257
 75
     1
175
     1
 42
179.0
 92
        8
 66
     7
 43
1.0
 76
     1
 77
     6
 78
     2
 67
     7
 79
     3
170
     0
171
     0
290
     0
174
     0
 93
        1
 44
0.0
173
     0
291
     0
 45
0.0
1001
ACAD
1000
AcDbSavedByObjectVersion
1070
     0
  0
VISUALSTYLE
  5
35
102
{ACAD_REACTORS
330
2A
102
}
102
{ACAD_XDICTIONARY
360
35D
102
}
330
2A
100
AcDbVisualStyle
  2
Dim
 70
    11
 71
     2
 72
     2
 73
     0
 90
        0
 40
0.6
 41
30.0
 62
     5
 63
     7
421
 16777215
 74
     1
 91
        4
 64
     7
 65
   257
 75
     1
175
     1
 42
1.0
 92
        8
 66
     7
 43
1.0
 76
     1
 77
     6
 78
     2
 67
     7
 79
     5
170
     0
171
     0
290
     0
174
     0
 93
        1
 44
-50.0
173
     0
291
     1
 45
0.0
1001
ACAD
1000
AcDbSavedByObjectVersion
1070
     0
  0
VISUALSTYLE
  5
3D
102
{ACAD_REACTORS
330
2A
102
}
102
{ACAD_XDICTIONARY
360
36D
102
}
330
2A
100
AcDbVisualStyle
  2
EdgeColorOff
 70
    22
 71
     2
 72
     2
 73
     0
 90
        0
 40
0.6
 41
30.0
 62
     5
 63
     7
421
 16777215
 74
     1
 91
        4
 64
     7
 65
   257
 75
     1
175
     1
 42
1.0
 92
        8
 66
     7
 43
1.0
 76
     1
 77
     6
 78
     2
 67
     7
 79
     5
170
     0
171
     0
290
     0
174
     0
 93
        1
 44
0.0
173
     0
291
     1
 45
0.0
1001
ACAD
1000
AcDbSavedByObjectVersion
1070
     0
  0
VISUALSTYLE
  5
39
102
{ACAD_REACTORS
330
2A
102
}
102
{ACAD_XDICTIONARY
360
365
102
}
330
2A
100
AcDbVisualStyle
  2
Facepattern
 70
    15
 71
     2
 72
     2
 73
     0
 90
        0
 40
0.6
 41
30.0
 62
     5
 63
     7
421
 16777215
 74
     1
 91
        4
 64
     7
 65
   257
 75
     1
175
     1
 42
1.0
 92
        8
 66
     7
 43
1.0
 76
     1
 77
     6
 78
     2
 67
     7
 79
     5
170
     0
171
     0
290
     0
174
     0
 93
        1
 44
0.0
173
     0
291
     1
 45
0.0
1001
ACAD
1000
AcDbSavedByObjectVersion
1070
     0
  0
VISUALSTYLE
  5
2B
102
{ACAD_REACTORS
330
2A
102
}
102
{ACAD_XDICTIONARY
360
349
102
}
330
2A
100
AcDbVisualStyle
  2
Flat
 70
     0
 71
     2
 72
     1
 73
     1
 90
        2
 40
0.6
 41
30.0
 62
     5
 63
     7
421
 16777215
 74
     0
 91
        0
 64
     7
 65
   257
 75
     1
175
     1
 42
1.0
 92
        8
 66
     7
 43
1.0
 76
     1
 77
     6
 78
     2
 67
     7
 79
     5
170
     0
171
     0
290
     0
174
     0
 93
       13
 44
0.0
173
     0
291
     1
 45
0.0
1001
ACAD
1000
AcDbSavedByObjectVersion
1070
     0
  0
VISUALSTYLE
  5
2C
102
{ACAD_REACTORS
330
2A
102
}
102
{ACAD_XDICTIONARY
360
34B
102
}
330
2A
100
AcDbVisualStyle
  2
FlatWithEdges
 70
     1
 71
     2
 72
     1
 73
     1
 90
        2
 40
0.6
 41
30.0
 62
     5
 63
     7
421
 16777215
 74
     1
 91
        0
 64
     7
 65
   257
 75
     1
175
     1
 42
1.0
 92
        0
 66
   257
 43
1.0
 76
     1
 77
     6
 78
     2
 67
     7
 79
     5
170
     0
171
     0
290
     0
174
     0
 93
       13
 44
0.0
173
     0
291
     1
 45
0.0
1001
ACAD
1000
AcDbSavedByObjectVersion
1070
     0
  0
VISUALSTYLE
  5
2D
102
{ACAD_REACTORS
330
2A
102
}
102
{ACAD_XDICTIONARY
360
34D
102
}
330
2A
100
AcDbVisualStyle
  2
Gouraud
 70
     2
 71
     2
 72
     2
 73
     1
 90
        2
 40
0.6
 41
30.0
 62
     5
 63
     7
421
 16777215
 74
     0
 91
        0
 64
     7
 65
   257
 75
     1
175
     1
 42
1.0
 92
        0
 66
     7
 43
1.0
 76
     1
 77
     6
 78
     2
 67
     7
 79
     5
170
     0
171
     0
290
     0
174
     0
 93
       13
 44
0.0
173
     0
291
     1
 45
0.0
1001
ACAD
1000
AcDbSavedByObjectVersion
1070
     0
  0
VISUALSTYLE
  5
2E
102
{ACAD_REACTORS
330
2A
102
}
102
{ACAD_XDICTIONARY
360
34F
102
}
330
2A
100
AcDbVisualStyle
  2
GouraudWithEdges
 70
     3
 71
     2
 72
     2
 73
     1
 90
        2
 40
0.6
 41
30.0
 62
     5
 63
     7
421
 16777215
 74
     1
 91
        0
 64
     7
 65
   257
 75
     1
175
     1
 42
1.0
 92
        0
 66
   257
 43
1.0
 76
     1
 77
     6
 78
     2
 67
     7
 79
     5
170
     0
171
     0
290
     0
174
     0
 93
       13
 44
0.0
173
     0
291
     1
 45
0.0
1001
ACAD
1000
AcDbSavedByObjectVersion
1070
     0
  0
VISUALSTYLE
  5
31
102
{ACAD_REACTORS
330
2A
102
}
102
{ACAD_XDICTIONARY
360
355
102
}
330
2A
100
AcDbVisualStyle
  2
Hidden
 70
     6
 71
     1
 72
     2
 73
     2
 90
        0
 40
0.6
 41
30.0
 62
     5
 63
     7
421
 16777215
 74
     2
 91
        2
 64
     7
 65
   257
 75
     2
175
     1
 42
40.0
 92
        0
 66
   257
 43
1.0
 76
     1
 77
     6
 78
     2
 67
     7
 79
     3
170
     0
171
     0
290
     0
174
     0
 93
        1
 44
0.0
173
     0
291
     0
 45
0.0
1001
ACAD
1000
AcDbSavedByObjectVersion
1070
     0
  0
VISUALSTYLE
  5
3B
102
{ACAD_REACTORS
330
2A
102
}
102
{ACAD_XDICTIONARY
360
369
102
}
330
2A
100
AcDbVisualStyle
  2
JitterOff
 70
    20
 71
     2
 72
     2
 73
     0
 90
        0
 40
0.6
 41
30.0
 62
     5
 63
     7
421
 16777215
 74
     1
 91
        4
 64
     7
 65
   257
 75
     1
175
     1
 42
1.0
 92
       10
 66
     7
 43
1.0
 76
     1
 77
     6
 78
     2
 67
     7
 79
     5
170
     0
171
     0
290
     0
174
     0
 93
        1
 44
0.0
173
     0
291
     1
 45
0.0
1001
ACAD
1000
AcDbSavedByObjectVersion
1070
     0
  0
VISUALSTYLE
  5
38
102
{ACAD_REACTORS
330
2A
102
}
102
{ACAD_XDICTIONARY
360
363
102
}
330
2A
100
AcDbVisualStyle
  2
Linepattern
 70
    14
 71
     2
 72
     2
 73
     0
 90
        0
 40
0.6
 41
30.0
 62
     5
 63
     7
421
 16777215
 74
     1
 91
        4
 64
     7
 65
   257
 75
     7
175
     7
 42
1.0
 92
        8
 66
     7
 43
1.0
 76
     1
 77
     6
 78
     2
 67
     7
 79
     5
170
     0
171
     0
290
     0
174
     0
 93
        1
 44
0.0
173
     0
291
     1
 45
0.0
1001
ACAD
1000
AcDbSavedByObjectVersion
1070
     0
  0
VISUALSTYLE
  5
3C
102
{ACAD_REACTORS
330
2A
102
}
102
{ACAD_XDICTIONARY
360
36B
102
}
330
2A
100
AcDbVisualStyle
  2
OverhangOff
 70
    21
 71
     2
 72
     2
 73
     0
 90
        0
 40
0.6
 41
30.0
 62
     5
 63
     7
421
 16777215
 74
     1
 91
        4
 64
     7
 65
   257
 75
     1
175
     1
 42
1.0
 92
        9
 66
     7
 43
1.0
 76
     1
 77
     6
 78
     2
 67
     7
 79
     5
170
     0
171
     0
290
     0
174
     0
 93
        1
 44
0.0
173
     0
291
     1
 45
0.0
1001
ACAD
1000
AcDbSavedByObjectVersion
1070
     0
  0
VISUALSTYLE
  5
33
102
{ACAD_REACTORS
330
2A
102
}
102
{ACAD_XDICTIONARY
360
359
102
}
330
2A
100
AcDbVisualStyle
  2
Realistic
 70
     8
 71
     2
 72
     3
 73
     0
 90
        2
 40
0.6
 41
30.0
 62
     5
 63
     7
421
 16777215
 74
     0
 91
        0
 64
     7
 65
   257
 75
     1
175
     1
 42
1.0
 92
        8
 66
   257
 43
1.0
 76
     1
 77
     6
 78
     2
 67
     7
 79
     3
170
     0
171
     0
290
     0
174
     0
 93
       13
 44
0.0
173
     0
291
     0
 45
0.0
1001
ACAD
1000
AcDbSavedByObjectVersion
1070
     0
  0
VISUALSTYLE
  5
42
102
{ACAD_REACTORS
330
2A
102
}
102
{ACAD_XDICTIONARY
360
377
102
}
330
2A
100
AcDbVisualStyle
  2
Shaded
 70
    27
 71
     2
 72
     2
 73
     1
 90
        2
 40
0.6
 41
30.0
 62
     5
 63
     7
421
 16777215
 74
     0
 91
        4
 64
     7
 65
   257
 75
     1
175
     1
 42
1.0
 92
        8
 66
   257
 43
1.0
 76
     1
 77
     6
 78
     2
 67
     8
425
  7895160
 79
     3
170
     0
171
     0
290
     0
174
     0
 93
        5
 44
0.0
173
     0
291
     0
 45
0.0
1001
ACAD
1000
AcDbSavedByObjectVersion
1070
     0
  0
VISUALSTYLE
  5
41
102
{ACAD_REACTORS
330
2A
102
}
102
{ACAD_XDICTIONARY
360
375
102
}
330
2A
100
AcDbVisualStyle
  2
Shaded with edges
 70
    26
 71
     2
 72
     2
 73
     1
 90
        2
 40
0.6
 41
30.0
 62
     5
 63
     7
421
 16777215
 74
     1
 91
       10
 64
     7
 65
   257
 75
     2
175
     1
 42
1.0
 92
        8
 66
   257
 43
1.0
 76
     1
 77
     6
 78
     2
 67
     7
 79
     3
170
     0
171
     0
290
     0
174
     0
 93
        5
 44
0.0
173
     0
291
     0
 45
0.0
1001
ACAD
1000
AcDbSavedByObjectVersion
1070
     0
  0
VISUALSTYLE
  5
3E
102
{ACAD_REACTORS
330
2A
102
}
102
{ACAD_XDICTIONARY
360
36F
102
}
330
2A
100
AcDbVisualStyle
  2
Shades of Gray
 70
    23
 71
     2
 72
     2
 73
     3
 90
        0
 40
0.6
 41
30.0
 62
     5
 63
     7
421
 16777215
 74
     2
 91
        2
 64
     7
 65
     7
 75
     1
175
     1
 42
40.0
 92
        8
 66
     7
 43
1.0
 76
     1
 77
     6
 78
     2
 67
     7
 79
     3
170
     0
171
     0
290
     0
174
     0
 93
        1
 44
0.0
173
     0
291
     0
 45
0.0
1001
ACAD
1000
AcDbSavedByObjectVersion
1070
     0
  0
VISUALSTYLE
  5
3F
102
{ACAD_REACTORS
330
2A
102
}
102
{ACAD_XDICTIONARY
360
371
102
}
330
2A
100
AcDbVisualStyle
  2
Sketchy
 70
    24
 71
     1
 72
     2
 73
     2
 90
        0
 40
0.6
 41
30.0
 62
     5
 63
     7
421
 16777215
 74
     2
 91
        2
 64
     7
 65
     7
 75
     1
175
     1
 42
40.0
 92
       11
 66
     7
 43
1.0
 76
     1
 77
     6
 78
     2
 67
     7
 79
     6
170
     0
171
     0
290
     0
174
     0
 93
        1
 44
0.0
173
     0
291
     0
 45
0.0
1001
ACAD
1000
AcDbSavedByObjectVersion
1070
     0
  0
VISUALSTYLE
  5
37
102
{ACAD_REACTORS
330
2A
102
}
102
{ACAD_XDICTIONARY
360
361
102
}
330
2A
100
AcDbVisualStyle
  2
Thicken
 70
    13
 71
     2
 72
     2
 73
     0
 90
        0
 40
0.6
 41
30.0
 62
     5
 63
     7
421
 16777215
 74
     1
 91
        4
 64
     7
 65
   257
 75
     1
175
     1
 42
1.0
 92
       12
 66
     7
 43
1.0
 76
     1
 77
     6
 78
     2
 67
     7
 79
     5
170
     0
171
     0
290
     0
174
     0
 93
        1
 44
0.0
173
     0
291
     1
 45
0.0
1001
ACAD
1000
AcDbSavedByObjectVersion
1070
     0
  0
VISUALSTYLE
  5
30
102
{ACAD_REACTORS
330
2A
102
}
102
{ACAD_XDICTIONARY
360
353
102
}
330
2A
100
AcDbVisualStyle
  2
Wireframe
 70
     5
 71
     0
 72
     2
 73
     0
 90
        0
 40
0.6
 41
30.0
 62
     5
 63
     7
421
 16777215
 74
     1
 91
        4
 64
     7
 65
   257
 75
     1
175
     1
 42
1.0
 92
        0
 66
   257
 43
1.0
 76
     1
 77
     6
 78
     2
 67
     7
 79
     3
170
     0
171
     0
290
     0
174
     0
 93
        1
 44
0.0
173
     0
291
     0
 45
0.0
1001
ACAD
1000
AcDbSavedByObjectVersion
1070
     0
  0
VISUALSTYLE
  5
40
102
{ACAD_REACTORS
330
2A
102
}
102
{ACAD_XDICTIONARY
360
373
102
}
330
2A
100
AcDbVisualStyle
  2
X-Ray
 70
    25
 71
     2
 72
     2
 73
     1
 90
        1
 40
0.5
 41
30.0
 62
     5
 63
     7
421
 16777215
 74
     1
 91
        0
 64
     7
 65
   257
 75
     1
175
     1
 42
1.0
 92
        8
 66
     7
 43
1.0
 76
     1
 77
     6
 78
     2
 67
     7
 79
     3
170
     0
171
     0
290
     0
174
     0
 93
       13
 44
0.0
173
     0
291
     0
 45
0.0
1001
ACAD
1000
AcDbSavedByObjectVersion
1070
     0
  0
DICTIONARYVAR
  5
346
102
{ACAD_REACTORS
330
345
102
}
330
345
100
DictionaryVariables
280
     0
  1
1:1
  0
DICTIONARYVAR
  5
387
102
{ACAD_REACTORS
330
345
102
}
330
345
100
DictionaryVariables
280
     0
  1
Standard
  0
DICTIONARYVAR
  5
386
102
{ACAD_REACTORS
330
345
102
}
330
345
100
DictionaryVariables
280
     0
  1
Standard
  0
DICTIONARYVAR
  5
347
102
{ACAD_REACTORS
330
345
102
}
330
345
100
DictionaryVariables
280
     0
  1
1
  0
DICTIONARYVAR
  5
348
102
{ACAD_REACTORS
330
345
102
}
330
345
100
DictionaryVariables
280
     0
  1
2
  0
DICTIONARY
  5
37B
330
45
100
AcDbDictionary
280
     1
281
     1
  3
ACAD_XREC_ROUNDTRIP
360
37C
  0
DICTIONARY
  5
379
330
44
100
AcDbDictionary
280
     1
281
     1
  3
ACAD_XREC_ROUNDTRIP
360
37A
  0
DICTIONARY
  5
37D
330
46
100
AcDbDictionary
280
     1
281
     1
  3
ACAD_XREC_ROUNDTRIP
360
37E
  0
DICTIONARY
  5
383
330
6C
100
AcDbDictionary
280
     1
281
     1
  3
ACAD_XREC_ROUNDTRIP
360
384
  0
DICTIONARY
  5
37F
330
6A
100
AcDbDictionary
280
     1
281
     1
  3
ACAD_ROUNDTRIP_2008_TABLESTYLE_CELLSTYLEMAP
360
381
  3
ACAD_XREC_ROUNDTRIP
360
380
  0
DICTIONARY
  5
351
330
2F
100
AcDbDictionary
280
     1
281
     1
  3
ACAD_XREC_ROUNDTRIP
360
352
  0
DICTIONARY
  5
357
330
32
100
AcDbDictionary
280
     1
281
     1
  3
ACAD_XREC_ROUNDTRIP
360
358
  0
DICTIONARY
  5
35F
330
36
100
AcDbDictionary
280
     1
281
     1
  3
ACAD_XREC_ROUNDTRIP
360
360
  0
DICTIONARY
  5
367
330
3A
100
AcDbDictionary
280
     1
281
     1
  3
ACAD_XREC_ROUNDTRIP
360
368
  0
DICTIONARY
  5
35B
330
34
100
AcDbDictionary
280
     1
281
     1
  3
ACAD_XREC_ROUNDTRIP
360
35C
  0
DICTIONARY
  5
35D
330
35
100
AcDbDictionary
280
     1
281
     1
  3
ACAD_XREC_ROUNDTRIP
360
35E
  0
DICTIONARY
  5
36D
330
3D
100
AcDbDictionary
280
     1
281
     1
  3
ACAD_XREC_ROUNDTRIP
360
36E
  0
DICTIONARY
  5
365
330
39
100
AcDbDictionary
280
     1
281
     1
  3
ACAD_XREC_ROUNDTRIP
360
366
  0
DICTIONARY
  5
349
330
2B
100
AcDbDictionary
280
     1
281
     1
  3
ACAD_XREC_ROUNDTRIP
360
34A
  0
DICTIONARY
  5
34B
330
2C
100
AcDbDictionary
280
     1
281
     1
  3
ACAD_XREC_ROUNDTRIP
360
34C
  0
DICTIONARY
  5
34D
330
2D
100
AcDbDictionary
280
     1
281
     1
  3
ACAD_XREC_ROUNDTRIP
360
34E
  0
DICTIONARY
  5
34F
330
2E
100
AcDbDictionary
280
     1
281
     1
  3
ACAD_XREC_ROUNDTRIP
360
350
  0
DICTIONARY
  5
355
330
31
100
AcDbDictionary
280
     1
281
     1
  3
ACAD_XREC_ROUNDTRIP
360
356
  0
DICTIONARY
  5
369
330
3B
100
AcDbDictionary
280
     1
281
     1
  3
ACAD_XREC_ROUNDTRIP
360
36A
  0
DICTIONARY
  5
363
330
38
100
AcDbDictionary
280
     1
281
     1
  3
ACAD_XREC_ROUNDTRIP
360
364
  0
DICTIONARY
  5
36B
330
3C
100
AcDbDictionary
280
     1
281
     1
  3
ACAD_XREC_ROUNDTRIP
360
36C
  0
DICTIONARY
  5
359
330
33
100
AcDbDictionary
280
     1
281
     1
  3
ACAD_XREC_ROUNDTRIP
360
35A
  0
DICTIONARY
  5
377
330
42
100
AcDbDictionary
280
     1
281
     1
  3
ACAD_XREC_ROUNDTRIP
360
378
  0
DICTIONARY
  5
375
330
41
100
AcDbDictionary
280
     1
281
     1
  3
ACAD_XREC_ROUNDTRIP
360
376
  0
DICTIONARY
  5
36F
330
3E
100
AcDbDictionary
280
     1
281
     1
  3
ACAD_XREC_ROUNDTRIP
360
370
  0
DICTIONARY
  5
371
330
3F
100
AcDbDictionary
280
     1
281
     1
  3
ACAD_XREC_ROUNDTRIP
360
372
  0
DICTIONARY
  5
361
330
37
100
AcDbDictionary
280
     1
281
     1
  3
ACAD_XREC_ROUNDTRIP
360
362
  0
DICTIONARY
  5
353
330
30
100
AcDbDictionary
280
     1
281
     1
  3
ACAD_XREC_ROUNDTRIP
360
354
  0
DICTIONARY
  5
373
330
40
100
AcDbDictionary
280
     1
281
     1
  3
ACAD_XREC_ROUNDTRIP
360
374
  0
XRECORD
  5
37C
102
{ACAD_REACTORS
330
37B
102
}
330
37B
100
AcDbXrecord
280
     1
102
MATERIAL
148
0.0
149
0.0
149
0.0
 93
        0
 94
      127
282
     0
 72
     1
 77
     1
171
     1
175
     1
179
     1
273
     0
  0
XRECORD
  5
37A
102
{ACAD_REACTORS
330
379
102
}
330
379
100
AcDbXrecord
280
     1
102
MATERIAL
148
0.0
149
0.0
149
0.0
 93
        0
 94
      127
282
     0
 72
     1
 77
     1
171
     1
175
     1
179
     1
273
     0
  0
XRECORD
  5
37E
102
{ACAD_REACTORS
330
37D
102
}
330
37D
100
AcDbXrecord
280
     1
102
MATERIAL
148
0.0
149
0.0
149
0.0
 93
        0
 94
      127
282
     0
 72
     1
 77
     1
171
     1
175
     1
179
     1
273
     0
  0
XRECORD
  5
384
102
{ACAD_REACTORS
330
383
102
}
330
383
100
AcDbXrecord
280
     1
102
ACAD_ROUNDTRIP_2010_MLEADER_STYLE
  0
CELLSTYLEMAP
  5
381
102
{ACAD_REACTORS
330
37F
102
}
330
37F
100
AcDbCellStyleMap
 90
        3
300
CELLSTYLE
  1
TABLEFORMAT_BEGIN
 90
        5
170
     1
 91
        0
 92
    32768
 62
   257
 93
        1
300
CONTENTFORMAT
  1
CONTENTFORMAT_BEGIN
 90
        0
 91
        0
 92
        4
 93
        0
300

 40
0.0
140
1.0
 94
        5
 62
     0
340
11
144
0.25
309
CONTENTFORMAT_END
171
     1
301
MARGIN
  1
CELLMARGIN_BEGIN
 40
0.06
 40
0.06
 40
0.06
 40
0.06
 40
0.06
 40
0.06
309
CELLMARGIN_END
 94
        6
 95
        1
302
GRIDFORMAT
  1
GRIDFORMAT_BEGIN
 90
        0
 91
        1
 62
     0
 92
       -2
340
14
 93
        0
 40
0.045
309
GRIDFORMAT_END
 95
        2
302
GRIDFORMAT
  1
GRIDFORMAT_BEGIN
 90
        0
 91
        1
 62
     0
 92
       -2
340
14
 93
        0
 40
0.045
309
GRIDFORMAT_END
 95
        4
302
GRIDFORMAT
  1
GRIDFORMAT_BEGIN
 90
        0
 91
        1
 62
     0
 92
       -2
340
14
 93
        0
 40
0.045
309
GRIDFORMAT_END
 95
        8
302
GRIDFORMAT
  1
GRIDFORMAT_BEGIN
 90
        0
 91
        1
 62
     0
 92
       -2
340
14
 93
        0
 40
0.045
309
GRIDFORMAT_END
 95
       16
302
GRIDFORMAT
  1
GRIDFORMAT_BEGIN
 90
        0
 91
        1
 62
     0
 92
       -2
340
14
 93
        0
 40
0.045
309
GRIDFORMAT_END
 95
       32
302
GRIDFORMAT
  1
GRIDFORMAT_BEGIN
 90
        0
 91
        1
 62
     0
 92
       -2
340
14
 93
        0
 40
0.045
309
GRIDFORMAT_END
309
TABLEFORMAT_END
  1
CELLSTYLE_BEGIN
 90
        1
 91
        1
300
_TITLE
309
CELLSTYLE_END
300
CELLSTYLE
  1
TABLEFORMAT_BEGIN
 90
        5
170
     1
 91
        0
 92
        0
 62
   257
 93
        1
300
CONTENTFORMAT
  1
CONTENTFORMAT_BEGIN
 90
        0
 91
        0
 92
        4
 93
        0
300

 40
0.0
140
1.0
 94
        5
 62
     0
340
11
144
0.18
309
CONTENTFORMAT_END
171
     1
301
MARGIN
  1
CELLMARGIN_BEGIN
 40
0.06
 40
0.06
 40
0.06
 40
0.06
 40
0.06
 40
0.06
309
CELLMARGIN_END
 94
        6
 95
        1
302
GRIDFORMAT
  1
GRIDFORMAT_BEGIN
 90
        0
 91
        1
 62
     0
 92
       -2
340
14
 93
        0
 40
0.045
309
GRIDFORMAT_END
 95
        2
302
GRIDFORMAT
  1
GRIDFORMAT_BEGIN
 90
        0
 91
        1
 62
     0
 92
       -2
340
14
 93
        0
 40
0.045
309
GRIDFORMAT_END
 95
        4
302
GRIDFORMAT
  1
GRIDFORMAT_BEGIN
 90
        0
 91
        1
 62
     0
 92
       -2
340
14
 93
        0
 40
0.045
309
GRIDFORMAT_END
 95
        8
302
GRIDFORMAT
  1
GRIDFORMAT_BEGIN
 90
        0
 91
        1
 62
     0
 92
       -2
340
14
 93
        0
 40
0.045
309
GRIDFORMAT_END
 95
       16
302
GRIDFORMAT
  1
GRIDFORMAT_BEGIN
 90
        0
 91
        1
 62
     0
 92
       -2
340
14
 93
        0
 40
0.045
309
GRIDFORMAT_END
 95
       32
302
GRIDFORMAT
  1
GRIDFORMAT_BEGIN
 90
        0
 91
        1
 62
     0
 92
       -2
340
14
 93
        0
 40
0.045
309
GRIDFORMAT_END
309
TABLEFORMAT_END
  1
CELLSTYLE_BEGIN
 90
        2
 91
        1
300
_HEADER
309
CELLSTYLE_END
300
CELLSTYLE
  1
TABLEFORMAT_BEGIN
 90
        5
170
     1
 91
        0
 92
        0
 62
   257
 93
        1
300
CONTENTFORMAT
  1
CONTENTFORMAT_BEGIN
 90
        0
 91
        0
 92
        4
 93
        0
300

 40
0.0
140
1.0
 94
        2
 62
     0
340
11
144
0.18
309
CONTENTFORMAT_END
171
     1
301
MARGIN
  1
CELLMARGIN_BEGIN
 40
0.06
 40
0.06
 40
0.06
 40
0.06
 40
0.06
 40
0.06
309
CELLMARGIN_END
 94
        6
 95
        1
302
GRIDFORMAT
  1
GRIDFORMAT_BEGIN
 90
        0
 91
        1
 62
     0
 92
       -2
340
14
 93
        0
 40
0.045
309
GRIDFORMAT_END
 95
        2
302
GRIDFORMAT
  1
GRIDFORMAT_BEGIN
 90
        0
 91
        1
 62
     0
 92
       -2
340
14
 93
        0
 40
0.045
309
GRIDFORMAT_END
 95
        4
302
GRIDFORMAT
  1
GRIDFORMAT_BEGIN
 90
        0
 91
        1
 62
     0
 92
       -2
340
14
 93
        0
 40
0.045
309
GRIDFORMAT_END
 95
        8
302
GRIDFORMAT
  1
GRIDFORMAT_BEGIN
 90
        0
 91
        1
 62
     0
 92
       -2
340
14
 93
        0
 40
0.045
309
GRIDFORMAT_END
 95
       16
302
GRIDFORMAT
  1
GRIDFORMAT_BEGIN
 90
        0
 91
        1
 62
     0
 92
       -2
340
14
 93
        0
 40
0.045
309
GRIDFORMAT_END
 95
       32
302
GRIDFORMAT
  1
GRIDFORMAT_BEGIN
 90
        0
 91
        1
 62
     0
 92
       -2
340
14
 93
        0
 40
0.045
309
GRIDFORMAT_END
309
TABLEFORMAT_END
  1
CELLSTYLE_BEGIN
 90
        3
 91
        2
300
_DATA
309
CELLSTYLE_END
  0
XRECORD
  5
380
102
{ACAD_REACTORS
330
37F
102
}
330
37F
100
AcDbXrecord
280
     1
102
ACAD_ROUNDTRIP_PRE2007_TABLESTYLE
 90
        4
 91
        0
  1

 92
        4
 93
        0
  2

 94
        4
 95
        0
  3

  0
XRECORD
  5
352
102
{ACAD_REACTORS
330
351
102
}
330
351
100
AcDbXrecord
280
     1
102
RTVSPropertyOp0
 70
     1
102
RTVSPropertyOp1
 70
     1
102
RTVSPropertyOp2
 70
     1
102
RTVSPropertyOp3
 70
     1
102
RTVSPropertyOp4
 70
     1
102
RTVSPropertyOp5
 70
     1
102
RTVSPropertyOp6
 70
     1
102
RTVSPropertyOp7
 70
     1
102
RTVSPropertyOp8
 70
     1
102
RTVSPropertyOp9
 70
     1
102
RTVSPropertyOp10
 70
     1
102
RTVSPropertyOp11
 70
     1
102
RTVSPropertyOp12
 70
     1
102
RTVSPropertyOp13
 70
     1
102
RTVSPropertyOp14
 70
     1
102
RTVSPropertyOp15
 70
     1
102
RTVSPropertyOp16
 70
     1
102
RTVSPropertyOp17
 70
     1
102
RTVSPropertyOp18
 70
     1
102
RTVSPropertyOp19
 70
     1
102
RTVSPropertyOp20
 70
     1
102
RTVSPropertyOp21
 70
     1
102
RTVSPropertyOp22
 70
     1
102
RTVSPropertyOp23
 70
     1
102
RTVSPropertyOp24
 70
     1
102
RTVSPropertyOp25
 70
     1
102
RTVSPropertyOp26
 70
     1
102
RTVSPropertyOp27
 70
     1
102
RTVSPropertyOp28
 70
     1
102
RTVSPropertyOp29
 70
     1
102
RTVSPropertyOp30
 70
     1
102
RTVSPropertyOp31
 70
     1
102
RTVSPropertyOp32
 70
     1
102
RTVSPropertyOp33
 70
     1
102
RTVSPropertyOp34
 70
     1
102
RTVSPropertyOp35
 70
     1
102
RTVSPropertyOp36
 70
     1
102
RTVSPropertyOp37
 70
     1
102
RTVSPropertyOp38
 70
     1
102
RTVSPropertyOp39
 70
     1
102
RTVSPropertyOp40
 70
     1
102
RTVSPropertyOp41
 70
     1
102
RTVSPropertyOp42
 70
     1
102
RTVSPropertyOp43
 70
     1
102
RTVSPropertyOp44
 70
     1
102
RTVSPropertyOp45
 70
     1
102
RTVSPropertyOp46
 70
     1
102
RTVSPropertyOp47
 70
     1
102
RTVSPropertyOp48
 70
     1
102
RTVSPropertyOp49
 70
     1
102
RTVSPropertyOp50
 70
     1
102
RTVSPropertyOp51
 70
     0
102
RTVSPropertyOp52
 70
     0
102
RTVSPropertyOp53
 70
     1
102
RTVSPropertyOp54
 70
     1
102
RTVSPropertyOp55
 70
     1
102
RTVSPropertyOp56
 70
     1
102
RTVSPropertyOp57
 70
     1
102
RTVSPost2010Prop28
280
     1
102
RTVSPost2010PropOp28
 70
     1
102
RTVSPost2010Prop29
280
     1
102
RTVSPost2010PropOp29
 70
     1
102
RTVSPost2010Prop30
280
     0
102
RTVSPost2010PropOp30
 70
     1
102
RTVSPost2010Prop31
280
     0
102
RTVSPost2010PropOp31
 70
     1
102
RTVSPost2010Prop32
280
     0
102
RTVSPost2010PropOp32
 70
     1
102
RTVSPost2010Prop33
280
     0
102
RTVSPost2010PropOp33
 70
     1
102
RTVSPost2010Prop34
280
     0
102
RTVSPost2010PropOp34
 70
     1
102
RTVSPost2010Prop35
280
     0
102
RTVSPost2010PropOp35
 70
     1
102
RTVSPost2010Prop36
280
     0
102
RTVSPost2010PropOp36
 70
     1
102
RTVSPost2010Prop37
 90
       50
102
RTVSPost2010PropOp37
 70
     1
102
RTVSPost2010Prop38
140
0.0
102
RTVSPost2010PropOp38
 70
     1
102
RTVSPost2010Prop39
140
1.0
102
RTVSPost2010PropOp39
 70
     1
102
RTVSPost2010Prop40
 90
        0
102
RTVSPost2010PropOp40
 70
     1
102
RTVSPost2010Prop41ColorIndex
 90
       18
102
RTVSPost2010Prop41ColorRGB
 90
        0
102
RTVSPost2010PropOp41
 70
     1
102
RTVSPost2010Prop42
 90
       50
102
RTVSPost2010PropOp42
 70
     1
102
RTVSPost2010Prop43
 90
        3
102
RTVSPost2010PropOp43
 70
     1
102
RTVSPost2010Prop44ColorIndex
 90
        5
102
RTVSPost2010Prop44ColorRGB
 90
      255
102
RTVSPost2010PropOp44
 70
     1
102
RTVSPost2010Prop45
280
     0
102
RTVSPost2010PropOp45
 70
     1
102
RTVSPost2010Prop46
 90
       50
102
RTVSPost2010PropOp46
 70
     1
102
RTVSPost2010Prop47
 90
       50
102
RTVSPost2010PropOp47
 70
     1
102
RTVSPost2010Prop48
 90
       50
102
RTVSPost2010PropOp48
 70
     1
102
RTVSPost2010Prop49
280
     0
102
RTVSPost2010PropOp49
 70
     1
102
RTVSPost2010Prop50
 90
       50
102
RTVSPost2010PropOp50
 70
     1
102
RTVSPost2010Prop51ColorIndex
 90
      256
102
RTVSPost2010Prop51ColorRGB
 90
-16777216
102
RTVSPost2010PropOp51
 70
     0
102
RTVSPost2010Prop52
140
1.0
102
RTVSPost2010PropOp52
 70
     0
102
RTVSPost2010Prop53
 90
        2
102
RTVSPost2010PropOp53
 70
     1
102
RTVSPost2010Prop54
  1
strokes_ogs.tif
102
RTVSPost2010PropOp54
 70
     1
102
RTVSPost2010Prop55
280
     0
102
RTVSPost2010PropOp55
 70
     1
102
RTVSPost2010Prop56
140
1.0
102
RTVSPost2010PropOp56
 70
     1
102
RTVSPost2010Prop57
140
1.0
102
RTVSPost2010PropOp57
 70
     1
  0
XRECORD
  5
358
102
{ACAD_REACTORS
330
357
102
}
330
357
100
AcDbXrecord
280
     1
102
RTVSPropertyOp0
 70
     1
102
RTVSPropertyOp1
 70
     1
102
RTVSPropertyOp2
 70
     1
102
RTVSPropertyOp3
 70
     1
102
RTVSPropertyOp4
 70
     1
102
RTVSPropertyOp5
 70
     1
102
RTVSPropertyOp6
 70
     1
102
RTVSPropertyOp7
 70
     1
102
RTVSPropertyOp8
 70
     1
102
RTVSPropertyOp9
 70
     1
102
RTVSPropertyOp10
 70
     1
102
RTVSPropertyOp11
 70
     1
102
RTVSPropertyOp12
 70
     1
102
RTVSPropertyOp13
 70
     1
102
RTVSPropertyOp14
 70
     1
102
RTVSPropertyOp15
 70
     1
102
RTVSPropertyOp16
 70
     1
102
RTVSPropertyOp17
 70
     1
102
RTVSPropertyOp18
 70
     1
102
RTVSPropertyOp19
 70
     1
102
RTVSPropertyOp20
 70
     1
102
RTVSPropertyOp21
 70
     1
102
RTVSPropertyOp22
 70
     1
102
RTVSPropertyOp23
 70
     1
102
RTVSPropertyOp24
 70
     1
102
RTVSPropertyOp25
 70
     1
102
RTVSPropertyOp26
 70
     1
102
RTVSPropertyOp27
 70
     1
102
RTVSPropertyOp28
 70
     1
102
RTVSPropertyOp29
 70
     1
102
RTVSPropertyOp30
 70
     1
102
RTVSPropertyOp31
 70
     1
102
RTVSPropertyOp32
 70
     1
102
RTVSPropertyOp33
 70
     1
102
RTVSPropertyOp34
 70
     1
102
RTVSPropertyOp35
 70
     1
102
RTVSPropertyOp36
 70
     1
102
RTVSPropertyOp37
 70
     1
102
RTVSPropertyOp38
 70
     1
102
RTVSPropertyOp39
 70
     1
102
RTVSPropertyOp40
 70
     1
102
RTVSPropertyOp41
 70
     1
102
RTVSPropertyOp42
 70
     1
102
RTVSPropertyOp43
 70
     1
102
RTVSPropertyOp44
 70
     1
102
RTVSPropertyOp45
 70
     1
102
RTVSPropertyOp46
 70
     1
102
RTVSPropertyOp47
 70
     1
102
RTVSPropertyOp48
 70
     1
102
RTVSPropertyOp49
 70
     1
102
RTVSPropertyOp50
 70
     1
102
RTVSPropertyOp51
 70
     0
102
RTVSPropertyOp52
 70
     0
102
RTVSPropertyOp53
 70
     1
102
RTVSPropertyOp54
 70
     1
102
RTVSPropertyOp55
 70
     1
102
RTVSPropertyOp56
 70
     1
102
RTVSPropertyOp57
 70
     1
102
RTVSPost2010Prop28
280
     0
102
RTVSPost2010PropOp28
 70
     1
102
RTVSPost2010Prop29
280
     1
102
RTVSPost2010PropOp29
 70
     1
102
RTVSPost2010Prop30
280
     1
102
RTVSPost2010PropOp30
 70
     1
102
RTVSPost2010Prop31
280
     0
102
RTVSPost2010PropOp31
 70
     1
102
RTVSPost2010Prop32
280
     0
102
RTVSPost2010PropOp32
 70
     1
102
RTVSPost2010Prop33
280
     0
102
RTVSPost2010PropOp33
 70
     1
102
RTVSPost2010Prop34
280
     0
102
RTVSPost2010PropOp34
 70
     1
102
RTVSPost2010Prop35
280
     0
102
RTVSPost2010PropOp35
 70
     1
102
RTVSPost2010Prop36
280
     0
102
RTVSPost2010PropOp36
 70
     1
102
RTVSPost2010Prop37
 90
       50
102
RTVSPost2010PropOp37
 70
     1
102
RTVSPost2010Prop38
140
0.0
102
RTVSPost2010PropOp38
 70
     1
102
RTVSPost2010Prop39
140
1.0
102
RTVSPost2010PropOp39
 70
     1
102
RTVSPost2010Prop40
 90
        0
102
RTVSPost2010PropOp40
 70
     1
102
RTVSPost2010Prop41ColorIndex
 90
       18
102
RTVSPost2010Prop41ColorRGB
 90
        0
102
RTVSPost2010PropOp41
 70
     1
102
RTVSPost2010Prop42
 90
       50
102
RTVSPost2010PropOp42
 70
     1
102
RTVSPost2010Prop43
 90
        3
102
RTVSPost2010PropOp43
 70
     1
102
RTVSPost2010Prop44ColorIndex
 90
        5
102
RTVSPost2010Prop44ColorRGB
 90
      255
102
RTVSPost2010PropOp44
 70
     1
102
RTVSPost2010Prop45
280
     0
102
RTVSPost2010PropOp45
 70
     1
102
RTVSPost2010Prop46
 90
       50
102
RTVSPost2010PropOp46
 70
     1
102
RTVSPost2010Prop47
 90
       50
102
RTVSPost2010PropOp47
 70
     1
102
RTVSPost2010Prop48
 90
       50
102
RTVSPost2010PropOp48
 70
     1
102
RTVSPost2010Prop49
280
     0
102
RTVSPost2010PropOp49
 70
     1
102
RTVSPost2010Prop50
 90
       50
102
RTVSPost2010PropOp50
 70
     1
102
RTVSPost2010Prop51ColorIndex
 90
      256
102
RTVSPost2010Prop51ColorRGB
 90
-16777216
102
RTVSPost2010PropOp51
 70
     0
102
RTVSPost2010Prop52
140
1.0
102
RTVSPost2010PropOp52
 70
     0
102
RTVSPost2010Prop53
 90
        2
102
RTVSPost2010PropOp53
 70
     1
102
RTVSPost2010Prop54
  1
strokes_ogs.tif
102
RTVSPost2010PropOp54
 70
     1
102
RTVSPost2010Prop55
280
     0
102
RTVSPost2010PropOp55
 70
     1
102
RTVSPost2010Prop56
140
1.0
102
RTVSPost2010PropOp56
 70
     1
102
RTVSPost2010Prop57
140
1.0
102
RTVSPost2010PropOp57
 70
     1
  0
XRECORD
  5
360
102
{ACAD_REACTORS
330
35F
102
}
330
35F
100
AcDbXrecord
280
     1
102
RTVSPropertyOp0
 70
     1
102
RTVSPropertyOp1
 70
     1
102
RTVSPropertyOp2
 70
     1
102
RTVSPropertyOp3
 70
     1
102
RTVSPropertyOp4
 70
     1
102
RTVSPropertyOp5
 70
     1
102
RTVSPropertyOp6
 70
     1
102
RTVSPropertyOp7
 70
     1
102
RTVSPropertyOp8
 70
     1
102
RTVSPropertyOp9
 70
     1
102
RTVSPropertyOp10
 70
     1
102
RTVSPropertyOp11
 70
     1
102
RTVSPropertyOp12
 70
     1
102
RTVSPropertyOp13
 70
     1
102
RTVSPropertyOp14
 70
     1
102
RTVSPropertyOp15
 70
     1
102
RTVSPropertyOp16
 70
     1
102
RTVSPropertyOp17
 70
     1
102
RTVSPropertyOp18
 70
     1
102
RTVSPropertyOp19
 70
     1
102
RTVSPropertyOp20
 70
     1
102
RTVSPropertyOp21
 70
     1
102
RTVSPropertyOp22
 70
     1
102
RTVSPropertyOp23
 70
     1
102
RTVSPropertyOp24
 70
     1
102
RTVSPropertyOp25
 70
     1
102
RTVSPropertyOp26
 70
     1
102
RTVSPropertyOp27
 70
     1
102
RTVSPropertyOp28
 70
     1
102
RTVSPropertyOp29
 70
     1
102
RTVSPropertyOp30
 70
     1
102
RTVSPropertyOp31
 70
     1
102
RTVSPropertyOp32
 70
     1
102
RTVSPropertyOp33
 70
     1
102
RTVSPropertyOp34
 70
     1
102
RTVSPropertyOp35
 70
     1
102
RTVSPropertyOp36
 70
     1
102
RTVSPropertyOp37
 70
     1
102
RTVSPropertyOp38
 70
     1
102
RTVSPropertyOp39
 70
     1
102
RTVSPropertyOp40
 70
     1
102
RTVSPropertyOp41
 70
     1
102
RTVSPropertyOp42
 70
     1
102
RTVSPropertyOp43
 70
     1
102
RTVSPropertyOp44
 70
     1
102
RTVSPropertyOp45
 70
     1
102
RTVSPropertyOp46
 70
     1
102
RTVSPropertyOp47
 70
     1
102
RTVSPropertyOp48
 70
     1
102
RTVSPropertyOp49
 70
     1
102
RTVSPropertyOp50
 70
     1
102
RTVSPropertyOp51
 70
     0
102
RTVSPropertyOp52
 70
     0
102
RTVSPropertyOp53
 70
     1
102
RTVSPropertyOp54
 70
     1
102
RTVSPropertyOp55
 70
     1
102
RTVSPropertyOp56
 70
     1
102
RTVSPropertyOp57
 70
     1
102
RTVSPost2010Prop28
280
     0
102
RTVSPost2010PropOp28
 70
     1
102
RTVSPost2010Prop29
280
     1
102
RTVSPost2010PropOp29
 70
     1
102
RTVSPost2010Prop30
280
     1
102
RTVSPost2010PropOp30
 70
     1
102
RTVSPost2010Prop31
280
     0
102
RTVSPost2010PropOp31
 70
     1
102
RTVSPost2010Prop32
280
     0
102
RTVSPost2010PropOp32
 70
     1
102
RTVSPost2010Prop33
280
     0
102
RTVSPost2010PropOp33
 70
     1
102
RTVSPost2010Prop34
280
     0
102
RTVSPost2010PropOp34
 70
     1
102
RTVSPost2010Prop35
280
     0
102
RTVSPost2010PropOp35
 70
     1
102
RTVSPost2010Prop36
280
     0
102
RTVSPost2010PropOp36
 70
     1
102
RTVSPost2010Prop37
 90
       50
102
RTVSPost2010PropOp37
 70
     1
102
RTVSPost2010Prop38
140
0.0
102
RTVSPost2010PropOp38
 70
     1
102
RTVSPost2010Prop39
140
1.0
102
RTVSPost2010PropOp39
 70
     1
102
RTVSPost2010Prop40
 90
        0
102
RTVSPost2010PropOp40
 70
     1
102
RTVSPost2010Prop41ColorIndex
 90
       18
102
RTVSPost2010Prop41ColorRGB
 90
        0
102
RTVSPost2010PropOp41
 70
     1
102
RTVSPost2010Prop42
 90
       50
102
RTVSPost2010PropOp42
 70
     1
102
RTVSPost2010Prop43
 90
        3
102
RTVSPost2010PropOp43
 70
     1
102
RTVSPost2010Prop44ColorIndex
 90
        5
102
RTVSPost2010Prop44ColorRGB
 90
      255
102
RTVSPost2010PropOp44
 70
     1
102
RTVSPost2010Prop45
280
     0
102
RTVSPost2010PropOp45
 70
     1
102
RTVSPost2010Prop46
 90
       50
102
RTVSPost2010PropOp46
 70
     1
102
RTVSPost2010Prop47
 90
       50
102
RTVSPost2010PropOp47
 70
     1
102
RTVSPost2010Prop48
 90
       50
102
RTVSPost2010PropOp48
 70
     1
102
RTVSPost2010Prop49
280
     0
102
RTVSPost2010PropOp49
 70
     1
102
RTVSPost2010Prop50
 90
       50
102
RTVSPost2010PropOp50
 70
     1
102
RTVSPost2010Prop51ColorIndex
 90
      256
102
RTVSPost2010Prop51ColorRGB
 90
-16777216
102
RTVSPost2010PropOp51
 70
     0
102
RTVSPost2010Prop52
140
1.0
102
RTVSPost2010PropOp52
 70
     0
102
RTVSPost2010Prop53
 90
        2
102
RTVSPost2010PropOp53
 70
     1
102
RTVSPost2010Prop54
  1
strokes_ogs.tif
102
RTVSPost2010PropOp54
 70
     1
102
RTVSPost2010Prop55
280
     0
102
RTVSPost2010PropOp55
 70
     1
102
RTVSPost2010Prop56
140
1.0
102
RTVSPost2010PropOp56
 70
     1
102
RTVSPost2010Prop57
140
1.0
102
RTVSPost2010PropOp57
 70
     1
  0
XRECORD
  5
368
102
{ACAD_REACTORS
330
367
102
}
330
367
100
AcDbXrecord
280
     1
102
RTVSPropertyOp0
 70
     1
102
RTVSPropertyOp1
 70
     1
102
RTVSPropertyOp2
 70
     1
102
RTVSPropertyOp3
 70
     1
102
RTVSPropertyOp4
 70
     1
102
RTVSPropertyOp5
 70
     1
102
RTVSPropertyOp6
 70
     1
102
RTVSPropertyOp7
 70
     1
102
RTVSPropertyOp8
 70
     1
102
RTVSPropertyOp9
 70
     1
102
RTVSPropertyOp10
 70
     1
102
RTVSPropertyOp11
 70
     1
102
RTVSPropertyOp12
 70
     1
102
RTVSPropertyOp13
 70
     1
102
RTVSPropertyOp14
 70
     1
102
RTVSPropertyOp15
 70
     1
102
RTVSPropertyOp16
 70
     1
102
RTVSPropertyOp17
 70
     1
102
RTVSPropertyOp18
 70
     1
102
RTVSPropertyOp19
 70
     1
102
RTVSPropertyOp20
 70
     1
102
RTVSPropertyOp21
 70
     1
102
RTVSPropertyOp22
 70
     1
102
RTVSPropertyOp23
 70
     1
102
RTVSPropertyOp24
 70
     1
102
RTVSPropertyOp25
 70
     1
102
RTVSPropertyOp26
 70
     1
102
RTVSPropertyOp27
 70
     1
102
RTVSPropertyOp28
 70
     1
102
RTVSPropertyOp29
 70
     1
102
RTVSPropertyOp30
 70
     1
102
RTVSPropertyOp31
 70
     1
102
RTVSPropertyOp32
 70
     1
102
RTVSPropertyOp33
 70
     1
102
RTVSPropertyOp34
 70
     1
102
RTVSPropertyOp35
 70
     1
102
RTVSPropertyOp36
 70
     1
102
RTVSPropertyOp37
 70
     1
102
RTVSPropertyOp38
 70
     1
102
RTVSPropertyOp39
 70
     1
102
RTVSPropertyOp40
 70
     1
102
RTVSPropertyOp41
 70
     1
102
RTVSPropertyOp42
 70
     1
102
RTVSPropertyOp43
 70
     1
102
RTVSPropertyOp44
 70
     1
102
RTVSPropertyOp45
 70
     1
102
RTVSPropertyOp46
 70
     1
102
RTVSPropertyOp47
 70
     1
102
RTVSPropertyOp48
 70
     1
102
RTVSPropertyOp49
 70
     1
102
RTVSPropertyOp50
 70
     1
102
RTVSPropertyOp51
 70
     0
102
RTVSPropertyOp52
 70
     0
102
RTVSPropertyOp53
 70
     1
102
RTVSPropertyOp54
 70
     1
102
RTVSPropertyOp55
 70
     1
102
RTVSPropertyOp56
 70
     1
102
RTVSPropertyOp57
 70
     1
102
RTVSPost2010Prop28
280
     0
102
RTVSPost2010PropOp28
 70
     1
102
RTVSPost2010Prop29
280
     1
102
RTVSPost2010PropOp29
 70
     1
102
RTVSPost2010Prop30
280
     1
102
RTVSPost2010PropOp30
 70
     1
102
RTVSPost2010Prop31
280
     0
102
RTVSPost2010PropOp31
 70
     1
102
RTVSPost2010Prop32
280
     0
102
RTVSPost2010PropOp32
 70
     1
102
RTVSPost2010Prop33
280
     0
102
RTVSPost2010PropOp33
 70
     1
102
RTVSPost2010Prop34
280
     0
102
RTVSPost2010PropOp34
 70
     1
102
RTVSPost2010Prop35
280
     0
102
RTVSPost2010PropOp35
 70
     1
102
RTVSPost2010Prop36
280
     0
102
RTVSPost2010PropOp36
 70
     1
102
RTVSPost2010Prop37
 90
       50
102
RTVSPost2010PropOp37
 70
     1
102
RTVSPost2010Prop38
140
0.0
102
RTVSPost2010PropOp38
 70
     1
102
RTVSPost2010Prop39
140
1.0
102
RTVSPost2010PropOp39
 70
     1
102
RTVSPost2010Prop40
 90
        0
102
RTVSPost2010PropOp40
 70
     1
102
RTVSPost2010Prop41ColorIndex
 90
       18
102
RTVSPost2010Prop41ColorRGB
 90
        0
102
RTVSPost2010PropOp41
 70
     1
102
RTVSPost2010Prop42
 90
       50
102
RTVSPost2010PropOp42
 70
     1
102
RTVSPost2010Prop43
 90
        3
102
RTVSPost2010PropOp43
 70
     1
102
RTVSPost2010Prop44ColorIndex
 90
        5
102
RTVSPost2010Prop44ColorRGB
 90
      255
102
RTVSPost2010PropOp44
 70
     1
102
RTVSPost2010Prop45
280
     0
102
RTVSPost2010PropOp45
 70
     1
102
RTVSPost2010Prop46
 90
       50
102
RTVSPost2010PropOp46
 70
     1
102
RTVSPost2010Prop47
 90
       50
102
RTVSPost2010PropOp47
 70
     1
102
RTVSPost2010Prop48
 90
       50
102
RTVSPost2010PropOp48
 70
     1
102
RTVSPost2010Prop49
280
     0
102
RTVSPost2010PropOp49
 70
     1
102
RTVSPost2010Prop50
 90
       50
102
RTVSPost2010PropOp50
 70
     1
102
RTVSPost2010Prop51ColorIndex
 90
      256
102
RTVSPost2010Prop51ColorRGB
 90
-16777216
102
RTVSPost2010PropOp51
 70
     0
102
RTVSPost2010Prop52
140
1.0
102
RTVSPost2010PropOp52
 70
     0
102
RTVSPost2010Prop53
 90
        2
102
RTVSPost2010PropOp53
 70
     1
102
RTVSPost2010Prop54
  1
strokes_ogs.tif
102
RTVSPost2010PropOp54
 70
     1
102
RTVSPost2010Prop55
280
     0
102
RTVSPost2010PropOp55
 70
     1
102
RTVSPost2010Prop56
140
1.0
102
RTVSPost2010PropOp56
 70
     1
102
RTVSPost2010Prop57
140
1.0
102
RTVSPost2010PropOp57
 70
     1
  0
XRECORD
  5
35C
102
{ACAD_REACTORS
330
35B
102
}
330
35B
100
AcDbXrecord
280
     1
102
RTVSPropertyOp0
 70
     1
102
RTVSPropertyOp1
 70
     1
102
RTVSPropertyOp2
 70
     1
102
RTVSPropertyOp3
 70
     1
102
RTVSPropertyOp4
 70
     1
102
RTVSPropertyOp5
 70
     1
102
RTVSPropertyOp6
 70
     1
102
RTVSPropertyOp7
 70
     1
102
RTVSPropertyOp8
 70
     1
102
RTVSPropertyOp9
 70
     1
102
RTVSPropertyOp10
 70
     1
102
RTVSPropertyOp11
 70
     1
102
RTVSPropertyOp12
 70
     1
102
RTVSPropertyOp13
 70
     1
102
RTVSPropertyOp14
 70
     1
102
RTVSPropertyOp15
 70
     1
102
RTVSPropertyOp16
 70
     1
102
RTVSPropertyOp17
 70
     1
102
RTVSPropertyOp18
 70
     1
102
RTVSPropertyOp19
 70
     1
102
RTVSPropertyOp20
 70
     1
102
RTVSPropertyOp21
 70
     1
102
RTVSPropertyOp22
 70
     1
102
RTVSPropertyOp23
 70
     1
102
RTVSPropertyOp24
 70
     1
102
RTVSPropertyOp25
 70
     1
102
RTVSPropertyOp26
 70
     1
102
RTVSPropertyOp27
 70
     1
102
RTVSPropertyOp28
 70
     1
102
RTVSPropertyOp29
 70
     1
102
RTVSPropertyOp30
 70
     1
102
RTVSPropertyOp31
 70
     1
102
RTVSPropertyOp32
 70
     1
102
RTVSPropertyOp33
 70
     1
102
RTVSPropertyOp34
 70
     1
102
RTVSPropertyOp35
 70
     1
102
RTVSPropertyOp36
 70
     1
102
RTVSPropertyOp37
 70
     1
102
RTVSPropertyOp38
 70
     1
102
RTVSPropertyOp39
 70
     1
102
RTVSPropertyOp40
 70
     1
102
RTVSPropertyOp41
 70
     1
102
RTVSPropertyOp42
 70
     1
102
RTVSPropertyOp43
 70
     1
102
RTVSPropertyOp44
 70
     1
102
RTVSPropertyOp45
 70
     1
102
RTVSPropertyOp46
 70
     1
102
RTVSPropertyOp47
 70
     1
102
RTVSPropertyOp48
 70
     1
102
RTVSPropertyOp49
 70
     1
102
RTVSPropertyOp50
 70
     1
102
RTVSPropertyOp51
 70
     0
102
RTVSPropertyOp52
 70
     0
102
RTVSPropertyOp53
 70
     1
102
RTVSPropertyOp54
 70
     1
102
RTVSPropertyOp55
 70
     1
102
RTVSPropertyOp56
 70
     1
102
RTVSPropertyOp57
 70
     1
102
RTVSPost2010Prop28
280
     0
102
RTVSPost2010PropOp28
 70
     1
102
RTVSPost2010Prop29
280
     1
102
RTVSPost2010PropOp29
 70
     1
102
RTVSPost2010Prop30
280
     1
102
RTVSPost2010PropOp30
 70
     1
102
RTVSPost2010Prop31
280
     0
102
RTVSPost2010PropOp31
 70
     1
102
RTVSPost2010Prop32
280
     0
102
RTVSPost2010PropOp32
 70
     1
102
RTVSPost2010Prop33
280
     0
102
RTVSPost2010PropOp33
 70
     1
102
RTVSPost2010Prop34
280
     0
102
RTVSPost2010PropOp34
 70
     1
102
RTVSPost2010Prop35
280
     0
102
RTVSPost2010PropOp35
 70
     1
102
RTVSPost2010Prop36
280
     0
102
RTVSPost2010PropOp36
 70
     1
102
RTVSPost2010Prop37
 90
       50
102
RTVSPost2010PropOp37
 70
     1
102
RTVSPost2010Prop38
140
0.0
102
RTVSPost2010PropOp38
 70
     1
102
RTVSPost2010Prop39
140
1.0
102
RTVSPost2010PropOp39
 70
     1
102
RTVSPost2010Prop40
 90
        0
102
RTVSPost2010PropOp40
 70
     1
102
RTVSPost2010Prop41ColorIndex
 90
       18
102
RTVSPost2010Prop41ColorRGB
 90
        0
102
RTVSPost2010PropOp41
 70
     1
102
RTVSPost2010Prop42
 90
       50
102
RTVSPost2010PropOp42
 70
     1
102
RTVSPost2010Prop43
 90
        3
102
RTVSPost2010PropOp43
 70
     1
102
RTVSPost2010Prop44ColorIndex
 90
        5
102
RTVSPost2010Prop44ColorRGB
 90
      255
102
RTVSPost2010PropOp44
 70
     1
102
RTVSPost2010Prop45
280
     0
102
RTVSPost2010PropOp45
 70
     1
102
RTVSPost2010Prop46
 90
       50
102
RTVSPost2010PropOp46
 70
     1
102
RTVSPost2010Prop47
 90
       50
102
RTVSPost2010PropOp47
 70
     1
102
RTVSPost2010Prop48
 90
       50
102
RTVSPost2010PropOp48
 70
     1
102
RTVSPost2010Prop49
280
     0
102
RTVSPost2010PropOp49
 70
     1
102
RTVSPost2010Prop50
 90
       50
102
RTVSPost2010PropOp50
 70
     1
102
RTVSPost2010Prop51ColorIndex
 90
      256
102
RTVSPost2010Prop51ColorRGB
 90
-16777216
102
RTVSPost2010PropOp51
 70
     0
102
RTVSPost2010Prop52
140
1.0
102
RTVSPost2010PropOp52
 70
     0
102
RTVSPost2010Prop53
 90
        2
102
RTVSPost2010PropOp53
 70
     1
102
RTVSPost2010Prop54
  1
strokes_ogs.tif
102
RTVSPost2010PropOp54
 70
     1
102
RTVSPost2010Prop55
280
     0
102
RTVSPost2010PropOp55
 70
     1
102
RTVSPost2010Prop56
140
1.0
102
RTVSPost2010PropOp56
 70
     1
102
RTVSPost2010Prop57
140
1.0
102
RTVSPost2010PropOp57
 70
     1
  0
XRECORD
  5
35E
102
{ACAD_REACTORS
330
35D
102
}
330
35D
100
AcDbXrecord
280
     1
102
RTVSPropertyOp0
 70
     1
102
RTVSPropertyOp1
 70
     1
102
RTVSPropertyOp2
 70
     1
102
RTVSPropertyOp3
 70
     1
102
RTVSPropertyOp4
 70
     1
102
RTVSPropertyOp5
 70
     1
102
RTVSPropertyOp6
 70
     1
102
RTVSPropertyOp7
 70
     1
102
RTVSPropertyOp8
 70
     1
102
RTVSPropertyOp9
 70
     1
102
RTVSPropertyOp10
 70
     1
102
RTVSPropertyOp11
 70
     1
102
RTVSPropertyOp12
 70
     1
102
RTVSPropertyOp13
 70
     1
102
RTVSPropertyOp14
 70
     1
102
RTVSPropertyOp15
 70
     1
102
RTVSPropertyOp16
 70
     1
102
RTVSPropertyOp17
 70
     1
102
RTVSPropertyOp18
 70
     1
102
RTVSPropertyOp19
 70
     1
102
RTVSPropertyOp20
 70
     1
102
RTVSPropertyOp21
 70
     1
102
RTVSPropertyOp22
 70
     1
102
RTVSPropertyOp23
 70
     1
102
RTVSPropertyOp24
 70
     1
102
RTVSPropertyOp25
 70
     1
102
RTVSPropertyOp26
 70
     1
102
RTVSPropertyOp27
 70
     1
102
RTVSPropertyOp28
 70
     1
102
RTVSPropertyOp29
 70
     1
102
RTVSPropertyOp30
 70
     1
102
RTVSPropertyOp31
 70
     1
102
RTVSPropertyOp32
 70
     1
102
RTVSPropertyOp33
 70
     1
102
RTVSPropertyOp34
 70
     1
102
RTVSPropertyOp35
 70
     1
102
RTVSPropertyOp36
 70
     1
102
RTVSPropertyOp37
 70
     1
102
RTVSPropertyOp38
 70
     1
102
RTVSPropertyOp39
 70
     1
102
RTVSPropertyOp40
 70
     1
102
RTVSPropertyOp41
 70
     1
102
RTVSPropertyOp42
 70
     1
102
RTVSPropertyOp43
 70
     1
102
RTVSPropertyOp44
 70
     1
102
RTVSPropertyOp45
 70
     1
102
RTVSPropertyOp46
 70
     1
102
RTVSPropertyOp47
 70
     1
102
RTVSPropertyOp48
 70
     1
102
RTVSPropertyOp49
 70
     1
102
RTVSPropertyOp50
 70
     1
102
RTVSPropertyOp51
 70
     0
102
RTVSPropertyOp52
 70
     0
102
RTVSPropertyOp53
 70
     1
102
RTVSPropertyOp54
 70
     1
102
RTVSPropertyOp55
 70
     1
102
RTVSPropertyOp56
 70
     1
102
RTVSPropertyOp57
 70
     1
102
RTVSPost2010Prop28
280
     0
102
RTVSPost2010PropOp28
 70
     1
102
RTVSPost2010Prop29
280
     1
102
RTVSPost2010PropOp29
 70
     1
102
RTVSPost2010Prop30
280
     1
102
RTVSPost2010PropOp30
 70
     1
102
RTVSPost2010Prop31
280
     0
102
RTVSPost2010PropOp31
 70
     1
102
RTVSPost2010Prop32
280
     0
102
RTVSPost2010PropOp32
 70
     1
102
RTVSPost2010Prop33
280
     0
102
RTVSPost2010PropOp33
 70
     1
102
RTVSPost2010Prop34
280
     0
102
RTVSPost2010PropOp34
 70
     1
102
RTVSPost2010Prop35
280
     0
102
RTVSPost2010PropOp35
 70
     1
102
RTVSPost2010Prop36
280
     0
102
RTVSPost2010PropOp36
 70
     1
102
RTVSPost2010Prop37
 90
       50
102
RTVSPost2010PropOp37
 70
     1
102
RTVSPost2010Prop38
140
0.0
102
RTVSPost2010PropOp38
 70
     1
102
RTVSPost2010Prop39
140
1.0
102
RTVSPost2010PropOp39
 70
     1
102
RTVSPost2010Prop40
 90
        0
102
RTVSPost2010PropOp40
 70
     1
102
RTVSPost2010Prop41ColorIndex
 90
       18
102
RTVSPost2010Prop41ColorRGB
 90
        0
102
RTVSPost2010PropOp41
 70
     1
102
RTVSPost2010Prop42
 90
       50
102
RTVSPost2010PropOp42
 70
     1
102
RTVSPost2010Prop43
 90
        3
102
RTVSPost2010PropOp43
 70
     1
102
RTVSPost2010Prop44ColorIndex
 90
        5
102
RTVSPost2010Prop44ColorRGB
 90
      255
102
RTVSPost2010PropOp44
 70
     1
102
RTVSPost2010Prop45
280
     0
102
RTVSPost2010PropOp45
 70
     1
102
RTVSPost2010Prop46
 90
       50
102
RTVSPost2010PropOp46
 70
     1
102
RTVSPost2010Prop47
 90
       50
102
RTVSPost2010PropOp47
 70
     1
102
RTVSPost2010Prop48
 90
       50
102
RTVSPost2010PropOp48
 70
     1
102
RTVSPost2010Prop49
280
     0
102
RTVSPost2010PropOp49
 70
     1
102
RTVSPost2010Prop50
 90
       50
102
RTVSPost2010PropOp50
 70
     1
102
RTVSPost2010Prop51ColorIndex
 90
      256
102
RTVSPost2010Prop51ColorRGB
 90
-16777216
102
RTVSPost2010PropOp51
 70
     0
102
RTVSPost2010Prop52
140
1.0
102
RTVSPost2010PropOp52
 70
     0
102
RTVSPost2010Prop53
 90
        2
102
RTVSPost2010PropOp53
 70
     1
102
RTVSPost2010Prop54
  1
strokes_ogs.tif
102
RTVSPost2010PropOp54
 70
     1
102
RTVSPost2010Prop55
280
     0
102
RTVSPost2010PropOp55
 70
     1
102
RTVSPost2010Prop56
140
1.0
102
RTVSPost2010PropOp56
 70
     1
102
RTVSPost2010Prop57
140
1.0
102
RTVSPost2010PropOp57
 70
     1
  0
XRECORD
  5
36E
102
{ACAD_REACTORS
330
36D
102
}
330
36D
100
AcDbXrecord
280
     1
102
RTVSPropertyOp0
 70
     0
102
RTVSPropertyOp1
 70
     0
102
RTVSPropertyOp2
 70
     0
102
RTVSPropertyOp3
 70
     0
102
RTVSPropertyOp4
 70
     0
102
RTVSPropertyOp5
 70
     0
102
RTVSPropertyOp6
 70
     0
102
RTVSPropertyOp7
 70
     0
102
RTVSPropertyOp8
 70
     0
102
RTVSPropertyOp9
 70
     0
102
RTVSPropertyOp10
 70
     0
102
RTVSPropertyOp11
 70
     0
102
RTVSPropertyOp12
 70
     0
102
RTVSPropertyOp13
 70
     0
102
RTVSPropertyOp14
 70
     2
102
RTVSPropertyOp15
 70
     0
102
RTVSPropertyOp16
 70
     0
102
RTVSPropertyOp17
 70
     0
102
RTVSPropertyOp18
 70
     0
102
RTVSPropertyOp19
 70
     0
102
RTVSPropertyOp20
 70
     0
102
RTVSPropertyOp21
 70
     0
102
RTVSPropertyOp22
 70
     0
102
RTVSPropertyOp23
 70
     0
102
RTVSPropertyOp24
 70
     0
102
RTVSPropertyOp25
 70
     0
102
RTVSPropertyOp26
 70
     0
102
RTVSPropertyOp27
 70
     0
102
RTVSPropertyOp28
 70
     0
102
RTVSPropertyOp29
 70
     0
102
RTVSPropertyOp30
 70
     0
102
RTVSPropertyOp31
 70
     0
102
RTVSPropertyOp32
 70
     0
102
RTVSPropertyOp33
 70
     0
102
RTVSPropertyOp34
 70
     0
102
RTVSPropertyOp35
 70
     0
102
RTVSPropertyOp36
 70
     0
102
RTVSPropertyOp37
 70
     0
102
RTVSPropertyOp38
 70
     0
102
RTVSPropertyOp39
 70
     0
102
RTVSPropertyOp40
 70
     0
102
RTVSPropertyOp41
 70
     0
102
RTVSPropertyOp42
 70
     0
102
RTVSPropertyOp43
 70
     0
102
RTVSPropertyOp44
 70
     0
102
RTVSPropertyOp45
 70
     0
102
RTVSPropertyOp46
 70
     0
102
RTVSPropertyOp47
 70
     0
102
RTVSPropertyOp48
 70
     0
102
RTVSPropertyOp49
 70
     0
102
RTVSPropertyOp50
 70
     0
102
RTVSPropertyOp51
 70
     0
102
RTVSPropertyOp52
 70
     0
102
RTVSPropertyOp53
 70
     0
102
RTVSPropertyOp54
 70
     0
102
RTVSPropertyOp55
 70
     0
102
RTVSPropertyOp56
 70
     0
102
RTVSPropertyOp57
 70
     0
102
RTVSPost2010Prop28
280
     0
102
RTVSPost2010PropOp28
 70
     0
102
RTVSPost2010Prop29
280
     1
102
RTVSPost2010PropOp29
 70
     0
102
RTVSPost2010Prop30
280
     1
102
RTVSPost2010PropOp30
 70
     0
102
RTVSPost2010Prop31
280
     0
102
RTVSPost2010PropOp31
 70
     0
102
RTVSPost2010Prop32
280
     0
102
RTVSPost2010PropOp32
 70
     0
102
RTVSPost2010Prop33
280
     0
102
RTVSPost2010PropOp33
 70
     0
102
RTVSPost2010Prop34
280
     0
102
RTVSPost2010PropOp34
 70
     0
102
RTVSPost2010Prop35
280
     0
102
RTVSPost2010PropOp35
 70
     0
102
RTVSPost2010Prop36
280
     0
102
RTVSPost2010PropOp36
 70
     0
102
RTVSPost2010Prop37
 90
       50
102
RTVSPost2010PropOp37
 70
     0
102
RTVSPost2010Prop38
140
0.0
102
RTVSPost2010PropOp38
 70
     0
102
RTVSPost2010Prop39
140
1.0
102
RTVSPost2010PropOp39
 70
     0
102
RTVSPost2010Prop40
 90
        0
102
RTVSPost2010PropOp40
 70
     0
102
RTVSPost2010Prop41ColorIndex
 90
       18
102
RTVSPost2010Prop41ColorRGB
 90
        0
102
RTVSPost2010PropOp41
 70
     0
102
RTVSPost2010Prop42
 90
       50
102
RTVSPost2010PropOp42
 70
     0
102
RTVSPost2010Prop43
 90
        3
102
RTVSPost2010PropOp43
 70
     0
102
RTVSPost2010Prop44ColorIndex
 90
        5
102
RTVSPost2010Prop44ColorRGB
 90
      255
102
RTVSPost2010PropOp44
 70
     0
102
RTVSPost2010Prop45
280
     0
102
RTVSPost2010PropOp45
 70
     0
102
RTVSPost2010Prop46
 90
       50
102
RTVSPost2010PropOp46
 70
     0
102
RTVSPost2010Prop47
 90
       50
102
RTVSPost2010PropOp47
 70
     0
102
RTVSPost2010Prop48
 90
       50
102
RTVSPost2010PropOp48
 70
     0
102
RTVSPost2010Prop49
280
     0
102
RTVSPost2010PropOp49
 70
     0
102
RTVSPost2010Prop50
 90
       50
102
RTVSPost2010PropOp50
 70
     0
102
RTVSPost2010Prop51ColorIndex
 90
      256
102
RTVSPost2010Prop51ColorRGB
 90
-16777216
102
RTVSPost2010PropOp51
 70
     0
102
RTVSPost2010Prop52
140
1.0
102
RTVSPost2010PropOp52
 70
     0
102
RTVSPost2010Prop53
 90
        2
102
RTVSPost2010PropOp53
 70
     0
102
RTVSPost2010Prop54
  1
strokes_ogs.tif
102
RTVSPost2010PropOp54
 70
     0
102
RTVSPost2010Prop55
280
     0
102
RTVSPost2010PropOp55
 70
     0
102
RTVSPost2010Prop56
140
1.0
102
RTVSPost2010PropOp56
 70
     0
102
RTVSPost2010Prop57
140
1.0
102
RTVSPost2010PropOp57
 70
     0
  0
XRECORD
  5
366
102
{ACAD_REACTORS
330
365
102
}
330
365
100
AcDbXrecord
280
     1
102
RTVSPropertyOp0
 70
     1
102
RTVSPropertyOp1
 70
     1
102
RTVSPropertyOp2
 70
     1
102
RTVSPropertyOp3
 70
     1
102
RTVSPropertyOp4
 70
     1
102
RTVSPropertyOp5
 70
     1
102
RTVSPropertyOp6
 70
     1
102
RTVSPropertyOp7
 70
     1
102
RTVSPropertyOp8
 70
     1
102
RTVSPropertyOp9
 70
     1
102
RTVSPropertyOp10
 70
     1
102
RTVSPropertyOp11
 70
     1
102
RTVSPropertyOp12
 70
     1
102
RTVSPropertyOp13
 70
     1
102
RTVSPropertyOp14
 70
     1
102
RTVSPropertyOp15
 70
     1
102
RTVSPropertyOp16
 70
     1
102
RTVSPropertyOp17
 70
     1
102
RTVSPropertyOp18
 70
     1
102
RTVSPropertyOp19
 70
     1
102
RTVSPropertyOp20
 70
     1
102
RTVSPropertyOp21
 70
     1
102
RTVSPropertyOp22
 70
     1
102
RTVSPropertyOp23
 70
     1
102
RTVSPropertyOp24
 70
     1
102
RTVSPropertyOp25
 70
     1
102
RTVSPropertyOp26
 70
     1
102
RTVSPropertyOp27
 70
     1
102
RTVSPropertyOp28
 70
     1
102
RTVSPropertyOp29
 70
     1
102
RTVSPropertyOp30
 70
     1
102
RTVSPropertyOp31
 70
     1
102
RTVSPropertyOp32
 70
     1
102
RTVSPropertyOp33
 70
     1
102
RTVSPropertyOp34
 70
     1
102
RTVSPropertyOp35
 70
     1
102
RTVSPropertyOp36
 70
     1
102
RTVSPropertyOp37
 70
     1
102
RTVSPropertyOp38
 70
     1
102
RTVSPropertyOp39
 70
     1
102
RTVSPropertyOp40
 70
     1
102
RTVSPropertyOp41
 70
     1
102
RTVSPropertyOp42
 70
     1
102
RTVSPropertyOp43
 70
     1
102
RTVSPropertyOp44
 70
     1
102
RTVSPropertyOp45
 70
     1
102
RTVSPropertyOp46
 70
     1
102
RTVSPropertyOp47
 70
     1
102
RTVSPropertyOp48
 70
     1
102
RTVSPropertyOp49
 70
     1
102
RTVSPropertyOp50
 70
     1
102
RTVSPropertyOp51
 70
     0
102
RTVSPropertyOp52
 70
     0
102
RTVSPropertyOp53
 70
     1
102
RTVSPropertyOp54
 70
     1
102
RTVSPropertyOp55
 70
     1
102
RTVSPropertyOp56
 70
     1
102
RTVSPropertyOp57
 70
     1
102
RTVSPost2010Prop28
280
     0
102
RTVSPost2010PropOp28
 70
     1
102
RTVSPost2010Prop29
280
     1
102
RTVSPost2010PropOp29
 70
     1
102
RTVSPost2010Prop30
280
     1
102
RTVSPost2010PropOp30
 70
     1
102
RTVSPost2010Prop31
280
     0
102
RTVSPost2010PropOp31
 70
     1
102
RTVSPost2010Prop32
280
     0
102
RTVSPost2010PropOp32
 70
     1
102
RTVSPost2010Prop33
280
     0
102
RTVSPost2010PropOp33
 70
     1
102
RTVSPost2010Prop34
280
     0
102
RTVSPost2010PropOp34
 70
     1
102
RTVSPost2010Prop35
280
     0
102
RTVSPost2010PropOp35
 70
     1
102
RTVSPost2010Prop36
280
     0
102
RTVSPost2010PropOp36
 70
     1
102
RTVSPost2010Prop37
 90
       50
102
RTVSPost2010PropOp37
 70
     1
102
RTVSPost2010Prop38
140
0.0
102
RTVSPost2010PropOp38
 70
     1
102
RTVSPost2010Prop39
140
1.0
102
RTVSPost2010PropOp39
 70
     1
102
RTVSPost2010Prop40
 90
        0
102
RTVSPost2010PropOp40
 70
     1
102
RTVSPost2010Prop41ColorIndex
 90
       18
102
RTVSPost2010Prop41ColorRGB
 90
        0
102
RTVSPost2010PropOp41
 70
     1
102
RTVSPost2010Prop42
 90
       50
102
RTVSPost2010PropOp42
 70
     1
102
RTVSPost2010Prop43
 90
        3
102
RTVSPost2010PropOp43
 70
     1
102
RTVSPost2010Prop44ColorIndex
 90
        5
102
RTVSPost2010Prop44ColorRGB
 90
      255
102
RTVSPost2010PropOp44
 70
     1
102
RTVSPost2010Prop45
280
     0
102
RTVSPost2010PropOp45
 70
     1
102
RTVSPost2010Prop46
 90
       50
102
RTVSPost2010PropOp46
 70
     1
102
RTVSPost2010Prop47
 90
       50
102
RTVSPost2010PropOp47
 70
     1
102
RTVSPost2010Prop48
 90
       50
102
RTVSPost2010PropOp48
 70
     1
102
RTVSPost2010Prop49
280
     0
102
RTVSPost2010PropOp49
 70
     1
102
RTVSPost2010Prop50
 90
       50
102
RTVSPost2010PropOp50
 70
     1
102
RTVSPost2010Prop51ColorIndex
 90
      256
102
RTVSPost2010Prop51ColorRGB
 90
-16777216
102
RTVSPost2010PropOp51
 70
     0
102
RTVSPost2010Prop52
140
1.0
102
RTVSPost2010PropOp52
 70
     0
102
RTVSPost2010Prop53
 90
        2
102
RTVSPost2010PropOp53
 70
     1
102
RTVSPost2010Prop54
  1
strokes_ogs.tif
102
RTVSPost2010PropOp54
 70
     1
102
RTVSPost2010Prop55
280
     0
102
RTVSPost2010PropOp55
 70
     1
102
RTVSPost2010Prop56
140
1.0
102
RTVSPost2010PropOp56
 70
     1
102
RTVSPost2010Prop57
140
1.0
102
RTVSPost2010PropOp57
 70
     1
  0
XRECORD
  5
34A
102
{ACAD_REACTORS
330
349
102
}
330
349
100
AcDbXrecord
280
     1
102
RTVSPropertyOp0
 70
     1
102
RTVSPropertyOp1
 70
     1
102
RTVSPropertyOp2
 70
     1
102
RTVSPropertyOp3
 70
     1
102
RTVSPropertyOp4
 70
     1
102
RTVSPropertyOp5
 70
     1
102
RTVSPropertyOp6
 70
     1
102
RTVSPropertyOp7
 70
     1
102
RTVSPropertyOp8
 70
     1
102
RTVSPropertyOp9
 70
     1
102
RTVSPropertyOp10
 70
     1
102
RTVSPropertyOp11
 70
     1
102
RTVSPropertyOp12
 70
     1
102
RTVSPropertyOp13
 70
     1
102
RTVSPropertyOp14
 70
     1
102
RTVSPropertyOp15
 70
     1
102
RTVSPropertyOp16
 70
     1
102
RTVSPropertyOp17
 70
     1
102
RTVSPropertyOp18
 70
     1
102
RTVSPropertyOp19
 70
     1
102
RTVSPropertyOp20
 70
     1
102
RTVSPropertyOp21
 70
     1
102
RTVSPropertyOp22
 70
     1
102
RTVSPropertyOp23
 70
     1
102
RTVSPropertyOp24
 70
     1
102
RTVSPropertyOp25
 70
     1
102
RTVSPropertyOp26
 70
     1
102
RTVSPropertyOp27
 70
     1
102
RTVSPropertyOp28
 70
     1
102
RTVSPropertyOp29
 70
     1
102
RTVSPropertyOp30
 70
     1
102
RTVSPropertyOp31
 70
     1
102
RTVSPropertyOp32
 70
     1
102
RTVSPropertyOp33
 70
     1
102
RTVSPropertyOp34
 70
     1
102
RTVSPropertyOp35
 70
     1
102
RTVSPropertyOp36
 70
     1
102
RTVSPropertyOp37
 70
     1
102
RTVSPropertyOp38
 70
     1
102
RTVSPropertyOp39
 70
     1
102
RTVSPropertyOp40
 70
     1
102
RTVSPropertyOp41
 70
     1
102
RTVSPropertyOp42
 70
     1
102
RTVSPropertyOp43
 70
     1
102
RTVSPropertyOp44
 70
     1
102
RTVSPropertyOp45
 70
     1
102
RTVSPropertyOp46
 70
     1
102
RTVSPropertyOp47
 70
     1
102
RTVSPropertyOp48
 70
     1
102
RTVSPropertyOp49
 70
     1
102
RTVSPropertyOp50
 70
     1
102
RTVSPropertyOp51
 70
     0
102
RTVSPropertyOp52
 70
     0
102
RTVSPropertyOp53
 70
     1
102
RTVSPropertyOp54
 70
     1
102
RTVSPropertyOp55
 70
     1
102
RTVSPropertyOp56
 70
     1
102
RTVSPropertyOp57
 70
     1
102
RTVSPost2010Prop28
280
     0
102
RTVSPost2010PropOp28
 70
     1
102
RTVSPost2010Prop29
280
     1
102
RTVSPost2010PropOp29
 70
     1
102
RTVSPost2010Prop30
280
     1
102
RTVSPost2010PropOp30
 70
     1
102
RTVSPost2010Prop31
280
     0
102
RTVSPost2010PropOp31
 70
     1
102
RTVSPost2010Prop32
280
     0
102
RTVSPost2010PropOp32
 70
     1
102
RTVSPost2010Prop33
280
     0
102
RTVSPost2010PropOp33
 70
     1
102
RTVSPost2010Prop34
280
     0
102
RTVSPost2010PropOp34
 70
     1
102
RTVSPost2010Prop35
280
     0
102
RTVSPost2010PropOp35
 70
     1
102
RTVSPost2010Prop36
280
     0
102
RTVSPost2010PropOp36
 70
     1
102
RTVSPost2010Prop37
 90
       50
102
RTVSPost2010PropOp37
 70
     1
102
RTVSPost2010Prop38
140
0.0
102
RTVSPost2010PropOp38
 70
     1
102
RTVSPost2010Prop39
140
1.0
102
RTVSPost2010PropOp39
 70
     1
102
RTVSPost2010Prop40
 90
        0
102
RTVSPost2010PropOp40
 70
     1
102
RTVSPost2010Prop41ColorIndex
 90
       18
102
RTVSPost2010Prop41ColorRGB
 90
        0
102
RTVSPost2010PropOp41
 70
     1
102
RTVSPost2010Prop42
 90
       50
102
RTVSPost2010PropOp42
 70
     1
102
RTVSPost2010Prop43
 90
        3
102
RTVSPost2010PropOp43
 70
     1
102
RTVSPost2010Prop44ColorIndex
 90
        5
102
RTVSPost2010Prop44ColorRGB
 90
      255
102
RTVSPost2010PropOp44
 70
     1
102
RTVSPost2010Prop45
280
     0
102
RTVSPost2010PropOp45
 70
     1
102
RTVSPost2010Prop46
 90
       50
102
RTVSPost2010PropOp46
 70
     1
102
RTVSPost2010Prop47
 90
       50
102
RTVSPost2010PropOp47
 70
     1
102
RTVSPost2010Prop48
 90
       50
102
RTVSPost2010PropOp48
 70
     1
102
RTVSPost2010Prop49
280
     0
102
RTVSPost2010PropOp49
 70
     1
102
RTVSPost2010Prop50
 90
       50
102
RTVSPost2010PropOp50
 70
     1
102
RTVSPost2010Prop51ColorIndex
 90
      256
102
RTVSPost2010Prop51ColorRGB
 90
-16777216
102
RTVSPost2010PropOp51
 70
     0
102
RTVSPost2010Prop52
140
1.0
102
RTVSPost2010PropOp52
 70
     0
102
RTVSPost2010Prop53
 90
        2
102
RTVSPost2010PropOp53
 70
     1
102
RTVSPost2010Prop54
  1
strokes_ogs.tif
102
RTVSPost2010PropOp54
 70
     1
102
RTVSPost2010Prop55
280
     0
102
RTVSPost2010PropOp55
 70
     1
102
RTVSPost2010Prop56
140
1.0
102
RTVSPost2010PropOp56
 70
     1
102
RTVSPost2010Prop57
140
1.0
102
RTVSPost2010PropOp57
 70
     1
  0
XRECORD
  5
34C
102
{ACAD_REACTORS
330
34B
102
}
330
34B
100
AcDbXrecord
280
     1
102
RTVSPropertyOp0
 70
     1
102
RTVSPropertyOp1
 70
     1
102
RTVSPropertyOp2
 70
     1
102
RTVSPropertyOp3
 70
     1
102
RTVSPropertyOp4
 70
     1
102
RTVSPropertyOp5
 70
     1
102
RTVSPropertyOp6
 70
     1
102
RTVSPropertyOp7
 70
     1
102
RTVSPropertyOp8
 70
     1
102
RTVSPropertyOp9
 70
     1
102
RTVSPropertyOp10
 70
     1
102
RTVSPropertyOp11
 70
     1
102
RTVSPropertyOp12
 70
     1
102
RTVSPropertyOp13
 70
     1
102
RTVSPropertyOp14
 70
     1
102
RTVSPropertyOp15
 70
     1
102
RTVSPropertyOp16
 70
     1
102
RTVSPropertyOp17
 70
     1
102
RTVSPropertyOp18
 70
     1
102
RTVSPropertyOp19
 70
     1
102
RTVSPropertyOp20
 70
     1
102
RTVSPropertyOp21
 70
     1
102
RTVSPropertyOp22
 70
     1
102
RTVSPropertyOp23
 70
     1
102
RTVSPropertyOp24
 70
     1
102
RTVSPropertyOp25
 70
     1
102
RTVSPropertyOp26
 70
     1
102
RTVSPropertyOp27
 70
     1
102
RTVSPropertyOp28
 70
     1
102
RTVSPropertyOp29
 70
     1
102
RTVSPropertyOp30
 70
     1
102
RTVSPropertyOp31
 70
     1
102
RTVSPropertyOp32
 70
     1
102
RTVSPropertyOp33
 70
     1
102
RTVSPropertyOp34
 70
     1
102
RTVSPropertyOp35
 70
     1
102
RTVSPropertyOp36
 70
     1
102
RTVSPropertyOp37
 70
     1
102
RTVSPropertyOp38
 70
     1
102
RTVSPropertyOp39
 70
     1
102
RTVSPropertyOp40
 70
     1
102
RTVSPropertyOp41
 70
     1
102
RTVSPropertyOp42
 70
     1
102
RTVSPropertyOp43
 70
     1
102
RTVSPropertyOp44
 70
     1
102
RTVSPropertyOp45
 70
     1
102
RTVSPropertyOp46
 70
     1
102
RTVSPropertyOp47
 70
     1
102
RTVSPropertyOp48
 70
     1
102
RTVSPropertyOp49
 70
     1
102
RTVSPropertyOp50
 70
     1
102
RTVSPropertyOp51
 70
     0
102
RTVSPropertyOp52
 70
     0
102
RTVSPropertyOp53
 70
     1
102
RTVSPropertyOp54
 70
     1
102
RTVSPropertyOp55
 70
     1
102
RTVSPropertyOp56
 70
     1
102
RTVSPropertyOp57
 70
     1
102
RTVSPost2010Prop28
280
     0
102
RTVSPost2010PropOp28
 70
     1
102
RTVSPost2010Prop29
280
     1
102
RTVSPost2010PropOp29
 70
     1
102
RTVSPost2010Prop30
280
     1
102
RTVSPost2010PropOp30
 70
     1
102
RTVSPost2010Prop31
280
     0
102
RTVSPost2010PropOp31
 70
     1
102
RTVSPost2010Prop32
280
     0
102
RTVSPost2010PropOp32
 70
     1
102
RTVSPost2010Prop33
280
     0
102
RTVSPost2010PropOp33
 70
     1
102
RTVSPost2010Prop34
280
     0
102
RTVSPost2010PropOp34
 70
     1
102
RTVSPost2010Prop35
280
     0
102
RTVSPost2010PropOp35
 70
     1
102
RTVSPost2010Prop36
280
     0
102
RTVSPost2010PropOp36
 70
     1
102
RTVSPost2010Prop37
 90
       50
102
RTVSPost2010PropOp37
 70
     1
102
RTVSPost2010Prop38
140
0.0
102
RTVSPost2010PropOp38
 70
     1
102
RTVSPost2010Prop39
140
1.0
102
RTVSPost2010PropOp39
 70
     1
102
RTVSPost2010Prop40
 90
        0
102
RTVSPost2010PropOp40
 70
     1
102
RTVSPost2010Prop41ColorIndex
 90
       18
102
RTVSPost2010Prop41ColorRGB
 90
        0
102
RTVSPost2010PropOp41
 70
     1
102
RTVSPost2010Prop42
 90
       50
102
RTVSPost2010PropOp42
 70
     1
102
RTVSPost2010Prop43
 90
        3
102
RTVSPost2010PropOp43
 70
     1
102
RTVSPost2010Prop44ColorIndex
 90
        5
102
RTVSPost2010Prop44ColorRGB
 90
      255
102
RTVSPost2010PropOp44
 70
     1
102
RTVSPost2010Prop45
280
     0
102
RTVSPost2010PropOp45
 70
     1
102
RTVSPost2010Prop46
 90
       50
102
RTVSPost2010PropOp46
 70
     1
102
RTVSPost2010Prop47
 90
       50
102
RTVSPost2010PropOp47
 70
     1
102
RTVSPost2010Prop48
 90
       50
102
RTVSPost2010PropOp48
 70
     1
102
RTVSPost2010Prop49
280
     0
102
RTVSPost2010PropOp49
 70
     1
102
RTVSPost2010Prop50
 90
       50
102
RTVSPost2010PropOp50
 70
     1
102
RTVSPost2010Prop51ColorIndex
 90
      256
102
RTVSPost2010Prop51ColorRGB
 90
-16777216
102
RTVSPost2010PropOp51
 70
     0
102
RTVSPost2010Prop52
140
1.0
102
RTVSPost2010PropOp52
 70
     0
102
RTVSPost2010Prop53
 90
        2
102
RTVSPost2010PropOp53
 70
     1
102
RTVSPost2010Prop54
  1
strokes_ogs.tif
102
RTVSPost2010PropOp54
 70
     1
102
RTVSPost2010Prop55
280
     0
102
RTVSPost2010PropOp55
 70
     1
102
RTVSPost2010Prop56
140
1.0
102
RTVSPost2010PropOp56
 70
     1
102
RTVSPost2010Prop57
140
1.0
102
RTVSPost2010PropOp57
 70
     1
  0
XRECORD
  5
34E
102
{ACAD_REACTORS
330
34D
102
}
330
34D
100
AcDbXrecord
280
     1
102
RTVSPropertyOp0
 70
     1
102
RTVSPropertyOp1
 70
     1
102
RTVSPropertyOp2
 70
     1
102
RTVSPropertyOp3
 70
     1
102
RTVSPropertyOp4
 70
     1
102
RTVSPropertyOp5
 70
     1
102
RTVSPropertyOp6
 70
     1
102
RTVSPropertyOp7
 70
     1
102
RTVSPropertyOp8
 70
     1
102
RTVSPropertyOp9
 70
     1
102
RTVSPropertyOp10
 70
     1
102
RTVSPropertyOp11
 70
     1
102
RTVSPropertyOp12
 70
     1
102
RTVSPropertyOp13
 70
     1
102
RTVSPropertyOp14
 70
     1
102
RTVSPropertyOp15
 70
     1
102
RTVSPropertyOp16
 70
     1
102
RTVSPropertyOp17
 70
     1
102
RTVSPropertyOp18
 70
     1
102
RTVSPropertyOp19
 70
     1
102
RTVSPropertyOp20
 70
     1
102
RTVSPropertyOp21
 70
     1
102
RTVSPropertyOp22
 70
     1
102
RTVSPropertyOp23
 70
     1
102
RTVSPropertyOp24
 70
     1
102
RTVSPropertyOp25
 70
     1
102
RTVSPropertyOp26
 70
     1
102
RTVSPropertyOp27
 70
     1
102
RTVSPropertyOp28
 70
     1
102
RTVSPropertyOp29
 70
     1
102
RTVSPropertyOp30
 70
     1
102
RTVSPropertyOp31
 70
     1
102
RTVSPropertyOp32
 70
     1
102
RTVSPropertyOp33
 70
     1
102
RTVSPropertyOp34
 70
     1
102
RTVSPropertyOp35
 70
     1
102
RTVSPropertyOp36
 70
     1
102
RTVSPropertyOp37
 70
     1
102
RTVSPropertyOp38
 70
     1
102
RTVSPropertyOp39
 70
     1
102
RTVSPropertyOp40
 70
     1
102
RTVSPropertyOp41
 70
     1
102
RTVSPropertyOp42
 70
     1
102
RTVSPropertyOp43
 70
     1
102
RTVSPropertyOp44
 70
     1
102
RTVSPropertyOp45
 70
     1
102
RTVSPropertyOp46
 70
     1
102
RTVSPropertyOp47
 70
     1
102
RTVSPropertyOp48
 70
     1
102
RTVSPropertyOp49
 70
     1
102
RTVSPropertyOp50
 70
     1
102
RTVSPropertyOp51
 70
     0
102
RTVSPropertyOp52
 70
     0
102
RTVSPropertyOp53
 70
     1
102
RTVSPropertyOp54
 70
     1
102
RTVSPropertyOp55
 70
     1
102
RTVSPropertyOp56
 70
     1
102
RTVSPropertyOp57
 70
     1
102
RTVSPost2010Prop28
280
     0
102
RTVSPost2010PropOp28
 70
     1
102
RTVSPost2010Prop29
280
     1
102
RTVSPost2010PropOp29
 70
     1
102
RTVSPost2010Prop30
280
     1
102
RTVSPost2010PropOp30
 70
     1
102
RTVSPost2010Prop31
280
     0
102
RTVSPost2010PropOp31
 70
     1
102
RTVSPost2010Prop32
280
     0
102
RTVSPost2010PropOp32
 70
     1
102
RTVSPost2010Prop33
280
     0
102
RTVSPost2010PropOp33
 70
     1
102
RTVSPost2010Prop34
280
     0
102
RTVSPost2010PropOp34
 70
     1
102
RTVSPost2010Prop35
280
     0
102
RTVSPost2010PropOp35
 70
     1
102
RTVSPost2010Prop36
280
     0
102
RTVSPost2010PropOp36
 70
     1
102
RTVSPost2010Prop37
 90
       50
102
RTVSPost2010PropOp37
 70
     1
102
RTVSPost2010Prop38
140
0.0
102
RTVSPost2010PropOp38
 70
     1
102
RTVSPost2010Prop39
140
1.0
102
RTVSPost2010PropOp39
 70
     1
102
RTVSPost2010Prop40
 90
        0
102
RTVSPost2010PropOp40
 70
     1
102
RTVSPost2010Prop41ColorIndex
 90
       18
102
RTVSPost2010Prop41ColorRGB
 90
        0
102
RTVSPost2010PropOp41
 70
     1
102
RTVSPost2010Prop42
 90
       50
102
RTVSPost2010PropOp42
 70
     1
102
RTVSPost2010Prop43
 90
        3
102
RTVSPost2010PropOp43
 70
     1
102
RTVSPost2010Prop44ColorIndex
 90
        5
102
RTVSPost2010Prop44ColorRGB
 90
      255
102
RTVSPost2010PropOp44
 70
     1
102
RTVSPost2010Prop45
280
     0
102
RTVSPost2010PropOp45
 70
     1
102
RTVSPost2010Prop46
 90
       50
102
RTVSPost2010PropOp46
 70
     1
102
RTVSPost2010Prop47
 90
       50
102
RTVSPost2010PropOp47
 70
     1
102
RTVSPost2010Prop48
 90
       50
102
RTVSPost2010PropOp48
 70
     1
102
RTVSPost2010Prop49
280
     0
102
RTVSPost2010PropOp49
 70
     1
102
RTVSPost2010Prop50
 90
       50
102
RTVSPost2010PropOp50
 70
     1
102
RTVSPost2010Prop51ColorIndex
 90
      256
102
RTVSPost2010Prop51ColorRGB
 90
-16777216
102
RTVSPost2010PropOp51
 70
     0
102
RTVSPost2010Prop52
140
1.0
102
RTVSPost2010PropOp52
 70
     0
102
RTVSPost2010Prop53
 90
        2
102
RTVSPost2010PropOp53
 70
     1
102
RTVSPost2010Prop54
  1
strokes_ogs.tif
102
RTVSPost2010PropOp54
 70
     1
102
RTVSPost2010Prop55
280
     0
102
RTVSPost2010PropOp55
 70
     1
102
RTVSPost2010Prop56
140
1.0
102
RTVSPost2010PropOp56
 70
     1
102
RTVSPost2010Prop57
140
1.0
102
RTVSPost2010PropOp57
 70
     1
  0
XRECORD
  5
350
102
{ACAD_REACTORS
330
34F
102
}
330
34F
100
AcDbXrecord
280
     1
102
RTVSPropertyOp0
 70
     1
102
RTVSPropertyOp1
 70
     1
102
RTVSPropertyOp2
 70
     1
102
RTVSPropertyOp3
 70
     1
102
RTVSPropertyOp4
 70
     1
102
RTVSPropertyOp5
 70
     1
102
RTVSPropertyOp6
 70
     1
102
RTVSPropertyOp7
 70
     1
102
RTVSPropertyOp8
 70
     1
102
RTVSPropertyOp9
 70
     1
102
RTVSPropertyOp10
 70
     1
102
RTVSPropertyOp11
 70
     1
102
RTVSPropertyOp12
 70
     1
102
RTVSPropertyOp13
 70
     1
102
RTVSPropertyOp14
 70
     1
102
RTVSPropertyOp15
 70
     1
102
RTVSPropertyOp16
 70
     1
102
RTVSPropertyOp17
 70
     1
102
RTVSPropertyOp18
 70
     1
102
RTVSPropertyOp19
 70
     1
102
RTVSPropertyOp20
 70
     1
102
RTVSPropertyOp21
 70
     1
102
RTVSPropertyOp22
 70
     1
102
RTVSPropertyOp23
 70
     1
102
RTVSPropertyOp24
 70
     1
102
RTVSPropertyOp25
 70
     1
102
RTVSPropertyOp26
 70
     1
102
RTVSPropertyOp27
 70
     1
102
RTVSPropertyOp28
 70
     1
102
RTVSPropertyOp29
 70
     1
102
RTVSPropertyOp30
 70
     1
102
RTVSPropertyOp31
 70
     1
102
RTVSPropertyOp32
 70
     1
102
RTVSPropertyOp33
 70
     1
102
RTVSPropertyOp34
 70
     1
102
RTVSPropertyOp35
 70
     1
102
RTVSPropertyOp36
 70
     1
102
RTVSPropertyOp37
 70
     1
102
RTVSPropertyOp38
 70
     1
102
RTVSPropertyOp39
 70
     1
102
RTVSPropertyOp40
 70
     1
102
RTVSPropertyOp41
 70
     1
102
RTVSPropertyOp42
 70
     1
102
RTVSPropertyOp43
 70
     1
102
RTVSPropertyOp44
 70
     1
102
RTVSPropertyOp45
 70
     1
102
RTVSPropertyOp46
 70
     1
102
RTVSPropertyOp47
 70
     1
102
RTVSPropertyOp48
 70
     1
102
RTVSPropertyOp49
 70
     1
102
RTVSPropertyOp50
 70
     1
102
RTVSPropertyOp51
 70
     0
102
RTVSPropertyOp52
 70
     0
102
RTVSPropertyOp53
 70
     1
102
RTVSPropertyOp54
 70
     1
102
RTVSPropertyOp55
 70
     1
102
RTVSPropertyOp56
 70
     1
102
RTVSPropertyOp57
 70
     1
102
RTVSPost2010Prop28
280
     0
102
RTVSPost2010PropOp28
 70
     1
102
RTVSPost2010Prop29
280
     1
102
RTVSPost2010PropOp29
 70
     1
102
RTVSPost2010Prop30
280
     1
102
RTVSPost2010PropOp30
 70
     1
102
RTVSPost2010Prop31
280
     0
102
RTVSPost2010PropOp31
 70
     1
102
RTVSPost2010Prop32
280
     0
102
RTVSPost2010PropOp32
 70
     1
102
RTVSPost2010Prop33
280
     0
102
RTVSPost2010PropOp33
 70
     1
102
RTVSPost2010Prop34
280
     0
102
RTVSPost2010PropOp34
 70
     1
102
RTVSPost2010Prop35
280
     0
102
RTVSPost2010PropOp35
 70
     1
102
RTVSPost2010Prop36
280
     0
102
RTVSPost2010PropOp36
 70
     1
102
RTVSPost2010Prop37
 90
       50
102
RTVSPost2010PropOp37
 70
     1
102
RTVSPost2010Prop38
140
0.0
102
RTVSPost2010PropOp38
 70
     1
102
RTVSPost2010Prop39
140
1.0
102
RTVSPost2010PropOp39
 70
     1
102
RTVSPost2010Prop40
 90
        0
102
RTVSPost2010PropOp40
 70
     1
102
RTVSPost2010Prop41ColorIndex
 90
       18
102
RTVSPost2010Prop41ColorRGB
 90
        0
102
RTVSPost2010PropOp41
 70
     1
102
RTVSPost2010Prop42
 90
       50
102
RTVSPost2010PropOp42
 70
     1
102
RTVSPost2010Prop43
 90
        3
102
RTVSPost2010PropOp43
 70
     1
102
RTVSPost2010Prop44ColorIndex
 90
        5
102
RTVSPost2010Prop44ColorRGB
 90
      255
102
RTVSPost2010PropOp44
 70
     1
102
RTVSPost2010Prop45
280
     0
102
RTVSPost2010PropOp45
 70
     1
102
RTVSPost2010Prop46
 90
       50
102
RTVSPost2010PropOp46
 70
     1
102
RTVSPost2010Prop47
 90
       50
102
RTVSPost2010PropOp47
 70
     1
102
RTVSPost2010Prop48
 90
       50
102
RTVSPost2010PropOp48
 70
     1
102
RTVSPost2010Prop49
280
     0
102
RTVSPost2010PropOp49
 70
     1
102
RTVSPost2010Prop50
 90
       50
102
RTVSPost2010PropOp50
 70
     1
102
RTVSPost2010Prop51ColorIndex
 90
      256
102
RTVSPost2010Prop51ColorRGB
 90
-16777216
102
RTVSPost2010PropOp51
 70
     0
102
RTVSPost2010Prop52
140
1.0
102
RTVSPost2010PropOp52
 70
     0
102
RTVSPost2010Prop53
 90
        2
102
RTVSPost2010PropOp53
 70
     1
102
RTVSPost2010Prop54
  1
strokes_ogs.tif
102
RTVSPost2010PropOp54
 70
     1
102
RTVSPost2010Prop55
280
     0
102
RTVSPost2010PropOp55
 70
     1
102
RTVSPost2010Prop56
140
1.0
102
RTVSPost2010PropOp56
 70
     1
102
RTVSPost2010Prop57
140
1.0
102
RTVSPost2010PropOp57
 70
     1
  0
XRECORD
  5
356
102
{ACAD_REACTORS
330
355
102
}
330
355
100
AcDbXrecord
280
     1
102
RTVSPropertyOp0
 70
     1
102
RTVSPropertyOp1
 70
     1
102
RTVSPropertyOp2
 70
     1
102
RTVSPropertyOp3
 70
     1
102
RTVSPropertyOp4
 70
     1
102
RTVSPropertyOp5
 70
     1
102
RTVSPropertyOp6
 70
     1
102
RTVSPropertyOp7
 70
     1
102
RTVSPropertyOp8
 70
     1
102
RTVSPropertyOp9
 70
     1
102
RTVSPropertyOp10
 70
     1
102
RTVSPropertyOp11
 70
     1
102
RTVSPropertyOp12
 70
     1
102
RTVSPropertyOp13
 70
     1
102
RTVSPropertyOp14
 70
     1
102
RTVSPropertyOp15
 70
     1
102
RTVSPropertyOp16
 70
     1
102
RTVSPropertyOp17
 70
     1
102
RTVSPropertyOp18
 70
     1
102
RTVSPropertyOp19
 70
     1
102
RTVSPropertyOp20
 70
     1
102
RTVSPropertyOp21
 70
     1
102
RTVSPropertyOp22
 70
     1
102
RTVSPropertyOp23
 70
     1
102
RTVSPropertyOp24
 70
     1
102
RTVSPropertyOp25
 70
     1
102
RTVSPropertyOp26
 70
     1
102
RTVSPropertyOp27
 70
     1
102
RTVSPropertyOp28
 70
     1
102
RTVSPropertyOp29
 70
     1
102
RTVSPropertyOp30
 70
     1
102
RTVSPropertyOp31
 70
     1
102
RTVSPropertyOp32
 70
     1
102
RTVSPropertyOp33
 70
     1
102
RTVSPropertyOp34
 70
     1
102
RTVSPropertyOp35
 70
     1
102
RTVSPropertyOp36
 70
     1
102
RTVSPropertyOp37
 70
     1
102
RTVSPropertyOp38
 70
     1
102
RTVSPropertyOp39
 70
     1
102
RTVSPropertyOp40
 70
     1
102
RTVSPropertyOp41
 70
     1
102
RTVSPropertyOp42
 70
     1
102
RTVSPropertyOp43
 70
     1
102
RTVSPropertyOp44
 70
     1
102
RTVSPropertyOp45
 70
     1
102
RTVSPropertyOp46
 70
     1
102
RTVSPropertyOp47
 70
     1
102
RTVSPropertyOp48
 70
     1
102
RTVSPropertyOp49
 70
     1
102
RTVSPropertyOp50
 70
     1
102
RTVSPropertyOp51
 70
     0
102
RTVSPropertyOp52
 70
     0
102
RTVSPropertyOp53
 70
     1
102
RTVSPropertyOp54
 70
     1
102
RTVSPropertyOp55
 70
     1
102
RTVSPropertyOp56
 70
     1
102
RTVSPropertyOp57
 70
     1
102
RTVSPost2010Prop28
280
     0
102
RTVSPost2010PropOp28
 70
     1
102
RTVSPost2010Prop29
280
     1
102
RTVSPost2010PropOp29
 70
     1
102
RTVSPost2010Prop30
280
     1
102
RTVSPost2010PropOp30
 70
     1
102
RTVSPost2010Prop31
280
     0
102
RTVSPost2010PropOp31
 70
     1
102
RTVSPost2010Prop32
280
     0
102
RTVSPost2010PropOp32
 70
     1
102
RTVSPost2010Prop33
280
     0
102
RTVSPost2010PropOp33
 70
     1
102
RTVSPost2010Prop34
280
     0
102
RTVSPost2010PropOp34
 70
     1
102
RTVSPost2010Prop35
280
     0
102
RTVSPost2010PropOp35
 70
     1
102
RTVSPost2010Prop36
280
     0
102
RTVSPost2010PropOp36
 70
     1
102
RTVSPost2010Prop37
 90
       50
102
RTVSPost2010PropOp37
 70
     1
102
RTVSPost2010Prop38
140
0.0
102
RTVSPost2010PropOp38
 70
     1
102
RTVSPost2010Prop39
140
1.0
102
RTVSPost2010PropOp39
 70
     1
102
RTVSPost2010Prop40
 90
        0
102
RTVSPost2010PropOp40
 70
     1
102
RTVSPost2010Prop41ColorIndex
 90
       18
102
RTVSPost2010Prop41ColorRGB
 90
        0
102
RTVSPost2010PropOp41
 70
     1
102
RTVSPost2010Prop42
 90
       50
102
RTVSPost2010PropOp42
 70
     1
102
RTVSPost2010Prop43
 90
        3
102
RTVSPost2010PropOp43
 70
     1
102
RTVSPost2010Prop44ColorIndex
 90
        5
102
RTVSPost2010Prop44ColorRGB
 90
      255
102
RTVSPost2010PropOp44
 70
     1
102
RTVSPost2010Prop45
280
     0
102
RTVSPost2010PropOp45
 70
     1
102
RTVSPost2010Prop46
 90
       50
102
RTVSPost2010PropOp46
 70
     1
102
RTVSPost2010Prop47
 90
       50
102
RTVSPost2010PropOp47
 70
     1
102
RTVSPost2010Prop48
 90
       50
102
RTVSPost2010PropOp48
 70
     1
102
RTVSPost2010Prop49
280
     0
102
RTVSPost2010PropOp49
 70
     1
102
RTVSPost2010Prop50
 90
       50
102
RTVSPost2010PropOp50
 70
     1
102
RTVSPost2010Prop51ColorIndex
 90
      256
102
RTVSPost2010Prop51ColorRGB
 90
-16777216
102
RTVSPost2010PropOp51
 70
     0
102
RTVSPost2010Prop52
140
1.0
102
RTVSPost2010PropOp52
 70
     0
102
RTVSPost2010Prop53
 90
        2
102
RTVSPost2010PropOp53
 70
     1
102
RTVSPost2010Prop54
  1
strokes_ogs.tif
102
RTVSPost2010PropOp54
 70
     1
102
RTVSPost2010Prop55
280
     0
102
RTVSPost2010PropOp55
 70
     1
102
RTVSPost2010Prop56
140
1.0
102
RTVSPost2010PropOp56
 70
     1
102
RTVSPost2010Prop57
140
1.0
102
RTVSPost2010PropOp57
 70
     1
  0
XRECORD
  5
36A
102
{ACAD_REACTORS
330
369
102
}
330
369
100
AcDbXrecord
280
     1
102
RTVSPropertyOp0
 70
     0
102
RTVSPropertyOp1
 70
     0
102
RTVSPropertyOp2
 70
     0
102
RTVSPropertyOp3
 70
     0
102
RTVSPropertyOp4
 70
     0
102
RTVSPropertyOp5
 70
     0
102
RTVSPropertyOp6
 70
     0
102
RTVSPropertyOp7
 70
     0
102
RTVSPropertyOp8
 70
     0
102
RTVSPropertyOp9
 70
     0
102
RTVSPropertyOp10
 70
     0
102
RTVSPropertyOp11
 70
     0
102
RTVSPropertyOp12
 70
     0
102
RTVSPropertyOp13
 70
     0
102
RTVSPropertyOp14
 70
     2
102
RTVSPropertyOp15
 70
     0
102
RTVSPropertyOp16
 70
     0
102
RTVSPropertyOp17
 70
     0
102
RTVSPropertyOp18
 70
     0
102
RTVSPropertyOp19
 70
     0
102
RTVSPropertyOp20
 70
     0
102
RTVSPropertyOp21
 70
     0
102
RTVSPropertyOp22
 70
     0
102
RTVSPropertyOp23
 70
     0
102
RTVSPropertyOp24
 70
     0
102
RTVSPropertyOp25
 70
     0
102
RTVSPropertyOp26
 70
     0
102
RTVSPropertyOp27
 70
     0
102
RTVSPropertyOp28
 70
     0
102
RTVSPropertyOp29
 70
     0
102
RTVSPropertyOp30
 70
     0
102
RTVSPropertyOp31
 70
     0
102
RTVSPropertyOp32
 70
     0
102
RTVSPropertyOp33
 70
     0
102
RTVSPropertyOp34
 70
     0
102
RTVSPropertyOp35
 70
     0
102
RTVSPropertyOp36
 70
     0
102
RTVSPropertyOp37
 70
     0
102
RTVSPropertyOp38
 70
     0
102
RTVSPropertyOp39
 70
     0
102
RTVSPropertyOp40
 70
     0
102
RTVSPropertyOp41
 70
     0
102
RTVSPropertyOp42
 70
     0
102
RTVSPropertyOp43
 70
     0
102
RTVSPropertyOp44
 70
     0
102
RTVSPropertyOp45
 70
     0
102
RTVSPropertyOp46
 70
     0
102
RTVSPropertyOp47
 70
     0
102
RTVSPropertyOp48
 70
     0
102
RTVSPropertyOp49
 70
     0
102
RTVSPropertyOp50
 70
     0
102
RTVSPropertyOp51
 70
     0
102
RTVSPropertyOp52
 70
     0
102
RTVSPropertyOp53
 70
     0
102
RTVSPropertyOp54
 70
     0
102
RTVSPropertyOp55
 70
     0
102
RTVSPropertyOp56
 70
     0
102
RTVSPropertyOp57
 70
     0
102
RTVSPost2010Prop28
280
     0
102
RTVSPost2010PropOp28
 70
     0
102
RTVSPost2010Prop29
280
     1
102
RTVSPost2010PropOp29
 70
     0
102
RTVSPost2010Prop30
280
     1
102
RTVSPost2010PropOp30
 70
     0
102
RTVSPost2010Prop31
280
     0
102
RTVSPost2010PropOp31
 70
     0
102
RTVSPost2010Prop32
280
     0
102
RTVSPost2010PropOp32
 70
     0
102
RTVSPost2010Prop33
280
     0
102
RTVSPost2010PropOp33
 70
     0
102
RTVSPost2010Prop34
280
     0
102
RTVSPost2010PropOp34
 70
     0
102
RTVSPost2010Prop35
280
     0
102
RTVSPost2010PropOp35
 70
     0
102
RTVSPost2010Prop36
280
     0
102
RTVSPost2010PropOp36
 70
     0
102
RTVSPost2010Prop37
 90
       50
102
RTVSPost2010PropOp37
 70
     0
102
RTVSPost2010Prop38
140
0.0
102
RTVSPost2010PropOp38
 70
     0
102
RTVSPost2010Prop39
140
1.0
102
RTVSPost2010PropOp39
 70
     0
102
RTVSPost2010Prop40
 90
        0
102
RTVSPost2010PropOp40
 70
     0
102
RTVSPost2010Prop41ColorIndex
 90
       18
102
RTVSPost2010Prop41ColorRGB
 90
        0
102
RTVSPost2010PropOp41
 70
     0
102
RTVSPost2010Prop42
 90
       50
102
RTVSPost2010PropOp42
 70
     0
102
RTVSPost2010Prop43
 90
        3
102
RTVSPost2010PropOp43
 70
     0
102
RTVSPost2010Prop44ColorIndex
 90
        5
102
RTVSPost2010Prop44ColorRGB
 90
      255
102
RTVSPost2010PropOp44
 70
     0
102
RTVSPost2010Prop45
280
     0
102
RTVSPost2010PropOp45
 70
     0
102
RTVSPost2010Prop46
 90
       50
102
RTVSPost2010PropOp46
 70
     0
102
RTVSPost2010Prop47
 90
       50
102
RTVSPost2010PropOp47
 70
     0
102
RTVSPost2010Prop48
 90
       50
102
RTVSPost2010PropOp48
 70
     0
102
RTVSPost2010Prop49
280
     0
102
RTVSPost2010PropOp49
 70
     0
102
RTVSPost2010Prop50
 90
       50
102
RTVSPost2010PropOp50
 70
     0
102
RTVSPost2010Prop51ColorIndex
 90
      256
102
RTVSPost2010Prop51ColorRGB
 90
-16777216
102
RTVSPost2010PropOp51
 70
     0
102
RTVSPost2010Prop52
140
1.0
102
RTVSPost2010PropOp52
 70
     0
102
RTVSPost2010Prop53
 90
        2
102
RTVSPost2010PropOp53
 70
     0
102
RTVSPost2010Prop54
  1
strokes_ogs.tif
102
RTVSPost2010PropOp54
 70
     0
102
RTVSPost2010Prop55
280
     0
102
RTVSPost2010PropOp55
 70
     0
102
RTVSPost2010Prop56
140
1.0
102
RTVSPost2010PropOp56
 70
     0
102
RTVSPost2010Prop57
140
1.0
102
RTVSPost2010PropOp57
 70
     0
  0
XRECORD
  5
364
102
{ACAD_REACTORS
330
363
102
}
330
363
100
AcDbXrecord
280
     1
102
RTVSPropertyOp0
 70
     1
102
RTVSPropertyOp1
 70
     1
102
RTVSPropertyOp2
 70
     1
102
RTVSPropertyOp3
 70
     1
102
RTVSPropertyOp4
 70
     1
102
RTVSPropertyOp5
 70
     1
102
RTVSPropertyOp6
 70
     1
102
RTVSPropertyOp7
 70
     1
102
RTVSPropertyOp8
 70
     1
102
RTVSPropertyOp9
 70
     1
102
RTVSPropertyOp10
 70
     1
102
RTVSPropertyOp11
 70
     1
102
RTVSPropertyOp12
 70
     1
102
RTVSPropertyOp13
 70
     1
102
RTVSPropertyOp14
 70
     1
102
RTVSPropertyOp15
 70
     1
102
RTVSPropertyOp16
 70
     1
102
RTVSPropertyOp17
 70
     1
102
RTVSPropertyOp18
 70
     1
102
RTVSPropertyOp19
 70
     1
102
RTVSPropertyOp20
 70
     1
102
RTVSPropertyOp21
 70
     1
102
RTVSPropertyOp22
 70
     1
102
RTVSPropertyOp23
 70
     1
102
RTVSPropertyOp24
 70
     1
102
RTVSPropertyOp25
 70
     1
102
RTVSPropertyOp26
 70
     1
102
RTVSPropertyOp27
 70
     1
102
RTVSPropertyOp28
 70
     1
102
RTVSPropertyOp29
 70
     1
102
RTVSPropertyOp30
 70
     1
102
RTVSPropertyOp31
 70
     1
102
RTVSPropertyOp32
 70
     1
102
RTVSPropertyOp33
 70
     1
102
RTVSPropertyOp34
 70
     1
102
RTVSPropertyOp35
 70
     1
102
RTVSPropertyOp36
 70
     1
102
RTVSPropertyOp37
 70
     1
102
RTVSPropertyOp38
 70
     1
102
RTVSPropertyOp39
 70
     1
102
RTVSPropertyOp40
 70
     1
102
RTVSPropertyOp41
 70
     1
102
RTVSPropertyOp42
 70
     1
102
RTVSPropertyOp43
 70
     1
102
RTVSPropertyOp44
 70
     1
102
RTVSPropertyOp45
 70
     1
102
RTVSPropertyOp46
 70
     1
102
RTVSPropertyOp47
 70
     1
102
RTVSPropertyOp48
 70
     1
102
RTVSPropertyOp49
 70
     1
102
RTVSPropertyOp50
 70
     1
102
RTVSPropertyOp51
 70
     0
102
RTVSPropertyOp52
 70
     0
102
RTVSPropertyOp53
 70
     1
102
RTVSPropertyOp54
 70
     1
102
RTVSPropertyOp55
 70
     1
102
RTVSPropertyOp56
 70
     1
102
RTVSPropertyOp57
 70
     1
102
RTVSPost2010Prop28
280
     0
102
RTVSPost2010PropOp28
 70
     1
102
RTVSPost2010Prop29
280
     1
102
RTVSPost2010PropOp29
 70
     1
102
RTVSPost2010Prop30
280
     1
102
RTVSPost2010PropOp30
 70
     1
102
RTVSPost2010Prop31
280
     0
102
RTVSPost2010PropOp31
 70
     1
102
RTVSPost2010Prop32
280
     0
102
RTVSPost2010PropOp32
 70
     1
102
RTVSPost2010Prop33
280
     0
102
RTVSPost2010PropOp33
 70
     1
102
RTVSPost2010Prop34
280
     0
102
RTVSPost2010PropOp34
 70
     1
102
RTVSPost2010Prop35
280
     0
102
RTVSPost2010PropOp35
 70
     1
102
RTVSPost2010Prop36
280
     0
102
RTVSPost2010PropOp36
 70
     1
102
RTVSPost2010Prop37
 90
       50
102
RTVSPost2010PropOp37
 70
     1
102
RTVSPost2010Prop38
140
0.0
102
RTVSPost2010PropOp38
 70
     1
102
RTVSPost2010Prop39
140
1.0
102
RTVSPost2010PropOp39
 70
     1
102
RTVSPost2010Prop40
 90
        0
102
RTVSPost2010PropOp40
 70
     1
102
RTVSPost2010Prop41ColorIndex
 90
       18
102
RTVSPost2010Prop41ColorRGB
 90
        0
102
RTVSPost2010PropOp41
 70
     1
102
RTVSPost2010Prop42
 90
       50
102
RTVSPost2010PropOp42
 70
     1
102
RTVSPost2010Prop43
 90
        3
102
RTVSPost2010PropOp43
 70
     1
102
RTVSPost2010Prop44ColorIndex
 90
        5
102
RTVSPost2010Prop44ColorRGB
 90
      255
102
RTVSPost2010PropOp44
 70
     1
102
RTVSPost2010Prop45
280
     0
102
RTVSPost2010PropOp45
 70
     1
102
RTVSPost2010Prop46
 90
       50
102
RTVSPost2010PropOp46
 70
     1
102
RTVSPost2010Prop47
 90
       50
102
RTVSPost2010PropOp47
 70
     1
102
RTVSPost2010Prop48
 90
       50
102
RTVSPost2010PropOp48
 70
     1
102
RTVSPost2010Prop49
280
     0
102
RTVSPost2010PropOp49
 70
     1
102
RTVSPost2010Prop50
 90
       50
102
RTVSPost2010PropOp50
 70
     1
102
RTVSPost2010Prop51ColorIndex
 90
      256
102
RTVSPost2010Prop51ColorRGB
 90
-16777216
102
RTVSPost2010PropOp51
 70
     0
102
RTVSPost2010Prop52
140
1.0
102
RTVSPost2010PropOp52
 70
     0
102
RTVSPost2010Prop53
 90
        2
102
RTVSPost2010PropOp53
 70
     1
102
RTVSPost2010Prop54
  1
strokes_ogs.tif
102
RTVSPost2010PropOp54
 70
     1
102
RTVSPost2010Prop55
280
     0
102
RTVSPost2010PropOp55
 70
     1
102
RTVSPost2010Prop56
140
1.0
102
RTVSPost2010PropOp56
 70
     1
102
RTVSPost2010Prop57
140
1.0
102
RTVSPost2010PropOp57
 70
     1
  0
XRECORD
  5
36C
102
{ACAD_REACTORS
330
36B
102
}
330
36B
100
AcDbXrecord
280
     1
102
RTVSPropertyOp0
 70
     0
102
RTVSPropertyOp1
 70
     0
102
RTVSPropertyOp2
 70
     0
102
RTVSPropertyOp3
 70
     0
102
RTVSPropertyOp4
 70
     0
102
RTVSPropertyOp5
 70
     0
102
RTVSPropertyOp6
 70
     0
102
RTVSPropertyOp7
 70
     0
102
RTVSPropertyOp8
 70
     0
102
RTVSPropertyOp9
 70
     0
102
RTVSPropertyOp10
 70
     0
102
RTVSPropertyOp11
 70
     0
102
RTVSPropertyOp12
 70
     0
102
RTVSPropertyOp13
 70
     0
102
RTVSPropertyOp14
 70
     2
102
RTVSPropertyOp15
 70
     0
102
RTVSPropertyOp16
 70
     0
102
RTVSPropertyOp17
 70
     0
102
RTVSPropertyOp18
 70
     0
102
RTVSPropertyOp19
 70
     0
102
RTVSPropertyOp20
 70
     0
102
RTVSPropertyOp21
 70
     0
102
RTVSPropertyOp22
 70
     0
102
RTVSPropertyOp23
 70
     0
102
RTVSPropertyOp24
 70
     0
102
RTVSPropertyOp25
 70
     0
102
RTVSPropertyOp26
 70
     0
102
RTVSPropertyOp27
 70
     0
102
RTVSPropertyOp28
 70
     0
102
RTVSPropertyOp29
 70
     0
102
RTVSPropertyOp30
 70
     0
102
RTVSPropertyOp31
 70
     0
102
RTVSPropertyOp32
 70
     0
102
RTVSPropertyOp33
 70
     0
102
RTVSPropertyOp34
 70
     0
102
RTVSPropertyOp35
 70
     0
102
RTVSPropertyOp36
 70
     0
102
RTVSPropertyOp37
 70
     0
102
RTVSPropertyOp38
 70
     0
102
RTVSPropertyOp39
 70
     0
102
RTVSPropertyOp40
 70
     0
102
RTVSPropertyOp41
 70
     0
102
RTVSPropertyOp42
 70
     0
102
RTVSPropertyOp43
 70
     0
102
RTVSPropertyOp44
 70
     0
102
RTVSPropertyOp45
 70
     0
102
RTVSPropertyOp46
 70
     0
102
RTVSPropertyOp47
 70
     0
102
RTVSPropertyOp48
 70
     0
102
RTVSPropertyOp49
 70
     0
102
RTVSPropertyOp50
 70
     0
102
RTVSPropertyOp51
 70
     0
102
RTVSPropertyOp52
 70
     0
102
RTVSPropertyOp53
 70
     0
102
RTVSPropertyOp54
 70
     0
102
RTVSPropertyOp55
 70
     0
102
RTVSPropertyOp56
 70
     0
102
RTVSPropertyOp57
 70
     0
102
RTVSPost2010Prop28
280
     0
102
RTVSPost2010PropOp28
 70
     0
102
RTVSPost2010Prop29
280
     1
102
RTVSPost2010PropOp29
 70
     0
102
RTVSPost2010Prop30
280
     1
102
RTVSPost2010PropOp30
 70
     0
102
RTVSPost2010Prop31
280
     0
102
RTVSPost2010PropOp31
 70
     0
102
RTVSPost2010Prop32
280
     0
102
RTVSPost2010PropOp32
 70
     0
102
RTVSPost2010Prop33
280
     0
102
RTVSPost2010PropOp33
 70
     0
102
RTVSPost2010Prop34
280
     0
102
RTVSPost2010PropOp34
 70
     0
102
RTVSPost2010Prop35
280
     0
102
RTVSPost2010PropOp35
 70
     0
102
RTVSPost2010Prop36
280
     0
102
RTVSPost2010PropOp36
 70
     0
102
RTVSPost2010Prop37
 90
       50
102
RTVSPost2010PropOp37
 70
     0
102
RTVSPost2010Prop38
140
0.0
102
RTVSPost2010PropOp38
 70
     0
102
RTVSPost2010Prop39
140
1.0
102
RTVSPost2010PropOp39
 70
     0
102
RTVSPost2010Prop40
 90
        0
102
RTVSPost2010PropOp40
 70
     0
102
RTVSPost2010Prop41ColorIndex
 90
       18
102
RTVSPost2010Prop41ColorRGB
 90
        0
102
RTVSPost2010PropOp41
 70
     0
102
RTVSPost2010Prop42
 90
       50
102
RTVSPost2010PropOp42
 70
     0
102
RTVSPost2010Prop43
 90
        3
102
RTVSPost2010PropOp43
 70
     0
102
RTVSPost2010Prop44ColorIndex
 90
        5
102
RTVSPost2010Prop44ColorRGB
 90
      255
102
RTVSPost2010PropOp44
 70
     0
102
RTVSPost2010Prop45
280
     0
102
RTVSPost2010PropOp45
 70
     0
102
RTVSPost2010Prop46
 90
       50
102
RTVSPost2010PropOp46
 70
     0
102
RTVSPost2010Prop47
 90
       50
102
RTVSPost2010PropOp47
 70
     0
102
RTVSPost2010Prop48
 90
       50
102
RTVSPost2010PropOp48
 70
     0
102
RTVSPost2010Prop49
280
     0
102
RTVSPost2010PropOp49
 70
     0
102
RTVSPost2010Prop50
 90
       50
102
RTVSPost2010PropOp50
 70
     0
102
RTVSPost2010Prop51ColorIndex
 90
      256
102
RTVSPost2010Prop51ColorRGB
 90
-16777216
102
RTVSPost2010PropOp51
 70
     0
102
RTVSPost2010Prop52
140
1.0
102
RTVSPost2010PropOp52
 70
     0
102
RTVSPost2010Prop53
 90
        2
102
RTVSPost2010PropOp53
 70
     0
102
RTVSPost2010Prop54
  1
strokes_ogs.tif
102
RTVSPost2010PropOp54
 70
     0
102
RTVSPost2010Prop55
280
     0
102
RTVSPost2010PropOp55
 70
     0
102
RTVSPost2010Prop56
140
1.0
102
RTVSPost2010PropOp56
 70
     0
102
RTVSPost2010Prop57
140
1.0
102
RTVSPost2010PropOp57
 70
     0
  0
XRECORD
  5
35A
102
{ACAD_REACTORS
330
359
102
}
330
359
100
AcDbXrecord
280
     1
102
RTVSPropertyOp0
 70
     1
102
RTVSPropertyOp1
 70
     1
102
RTVSPropertyOp2
 70
     1
102
RTVSPropertyOp3
 70
     1
102
RTVSPropertyOp4
 70
     1
102
RTVSPropertyOp5
 70
     1
102
RTVSPropertyOp6
 70
     1
102
RTVSPropertyOp7
 70
     1
102
RTVSPropertyOp8
 70
     1
102
RTVSPropertyOp9
 70
     1
102
RTVSPropertyOp10
 70
     1
102
RTVSPropertyOp11
 70
     1
102
RTVSPropertyOp12
 70
     1
102
RTVSPropertyOp13
 70
     1
102
RTVSPropertyOp14
 70
     1
102
RTVSPropertyOp15
 70
     1
102
RTVSPropertyOp16
 70
     1
102
RTVSPropertyOp17
 70
     1
102
RTVSPropertyOp18
 70
     1
102
RTVSPropertyOp19
 70
     1
102
RTVSPropertyOp20
 70
     1
102
RTVSPropertyOp21
 70
     1
102
RTVSPropertyOp22
 70
     1
102
RTVSPropertyOp23
 70
     1
102
RTVSPropertyOp24
 70
     1
102
RTVSPropertyOp25
 70
     1
102
RTVSPropertyOp26
 70
     1
102
RTVSPropertyOp27
 70
     1
102
RTVSPropertyOp28
 70
     1
102
RTVSPropertyOp29
 70
     1
102
RTVSPropertyOp30
 70
     1
102
RTVSPropertyOp31
 70
     1
102
RTVSPropertyOp32
 70
     1
102
RTVSPropertyOp33
 70
     1
102
RTVSPropertyOp34
 70
     1
102
RTVSPropertyOp35
 70
     1
102
RTVSPropertyOp36
 70
     1
102
RTVSPropertyOp37
 70
     1
102
RTVSPropertyOp38
 70
     1
102
RTVSPropertyOp39
 70
     1
102
RTVSPropertyOp40
 70
     1
102
RTVSPropertyOp41
 70
     1
102
RTVSPropertyOp42
 70
     1
102
RTVSPropertyOp43
 70
     1
102
RTVSPropertyOp44
 70
     1
102
RTVSPropertyOp45
 70
     1
102
RTVSPropertyOp46
 70
     1
102
RTVSPropertyOp47
 70
     1
102
RTVSPropertyOp48
 70
     1
102
RTVSPropertyOp49
 70
     1
102
RTVSPropertyOp50
 70
     1
102
RTVSPropertyOp51
 70
     0
102
RTVSPropertyOp52
 70
     0
102
RTVSPropertyOp53
 70
     1
102
RTVSPropertyOp54
 70
     1
102
RTVSPropertyOp55
 70
     1
102
RTVSPropertyOp56
 70
     1
102
RTVSPropertyOp57
 70
     1
102
RTVSPost2010Prop28
280
     0
102
RTVSPost2010PropOp28
 70
     1
102
RTVSPost2010Prop29
280
     1
102
RTVSPost2010PropOp29
 70
     1
102
RTVSPost2010Prop30
280
     1
102
RTVSPost2010PropOp30
 70
     1
102
RTVSPost2010Prop31
280
     0
102
RTVSPost2010PropOp31
 70
     1
102
RTVSPost2010Prop32
280
     0
102
RTVSPost2010PropOp32
 70
     1
102
RTVSPost2010Prop33
280
     0
102
RTVSPost2010PropOp33
 70
     1
102
RTVSPost2010Prop34
280
     0
102
RTVSPost2010PropOp34
 70
     1
102
RTVSPost2010Prop35
280
     0
102
RTVSPost2010PropOp35
 70
     1
102
RTVSPost2010Prop36
280
     0
102
RTVSPost2010PropOp36
 70
     1
102
RTVSPost2010Prop37
 90
       50
102
RTVSPost2010PropOp37
 70
     1
102
RTVSPost2010Prop38
140
0.0
102
RTVSPost2010PropOp38
 70
     1
102
RTVSPost2010Prop39
140
1.0
102
RTVSPost2010PropOp39
 70
     1
102
RTVSPost2010Prop40
 90
        0
102
RTVSPost2010PropOp40
 70
     1
102
RTVSPost2010Prop41ColorIndex
 90
       18
102
RTVSPost2010Prop41ColorRGB
 90
        0
102
RTVSPost2010PropOp41
 70
     1
102
RTVSPost2010Prop42
 90
       50
102
RTVSPost2010PropOp42
 70
     1
102
RTVSPost2010Prop43
 90
        3
102
RTVSPost2010PropOp43
 70
     1
102
RTVSPost2010Prop44ColorIndex
 90
        5
102
RTVSPost2010Prop44ColorRGB
 90
      255
102
RTVSPost2010PropOp44
 70
     1
102
RTVSPost2010Prop45
280
     0
102
RTVSPost2010PropOp45
 70
     1
102
RTVSPost2010Prop46
 90
       50
102
RTVSPost2010PropOp46
 70
     1
102
RTVSPost2010Prop47
 90
       50
102
RTVSPost2010PropOp47
 70
     1
102
RTVSPost2010Prop48
 90
       50
102
RTVSPost2010PropOp48
 70
     1
102
RTVSPost2010Prop49
280
     0
102
RTVSPost2010PropOp49
 70
     1
102
RTVSPost2010Prop50
 90
       50
102
RTVSPost2010PropOp50
 70
     1
102
RTVSPost2010Prop51ColorIndex
 90
      256
102
RTVSPost2010Prop51ColorRGB
 90
-16777216
102
RTVSPost2010PropOp51
 70
     0
102
RTVSPost2010Prop52
140
1.0
102
RTVSPost2010PropOp52
 70
     0
102
RTVSPost2010Prop53
 90
        2
102
RTVSPost2010PropOp53
 70
     1
102
RTVSPost2010Prop54
  1
strokes_ogs.tif
102
RTVSPost2010PropOp54
 70
     1
102
RTVSPost2010Prop55
280
     0
102
RTVSPost2010PropOp55
 70
     1
102
RTVSPost2010Prop56
140
1.0
102
RTVSPost2010PropOp56
 70
     1
102
RTVSPost2010Prop57
140
1.0
102
RTVSPost2010PropOp57
 70
     1
  0
XRECORD
  5
378
102
{ACAD_REACTORS
330
377
102
}
330
377
100
AcDbXrecord
280
     1
102
RTVSPropertyOp0
 70
     1
102
RTVSPropertyOp1
 70
     1
102
RTVSPropertyOp2
 70
     1
102
RTVSPropertyOp3
 70
     1
102
RTVSPropertyOp4
 70
     1
102
RTVSPropertyOp5
 70
     1
102
RTVSPropertyOp6
 70
     1
102
RTVSPropertyOp7
 70
     1
102
RTVSPropertyOp8
 70
     1
102
RTVSPropertyOp9
 70
     1
102
RTVSPropertyOp10
 70
     1
102
RTVSPropertyOp11
 70
     1
102
RTVSPropertyOp12
 70
     1
102
RTVSPropertyOp13
 70
     1
102
RTVSPropertyOp14
 70
     1
102
RTVSPropertyOp15
 70
     1
102
RTVSPropertyOp16
 70
     1
102
RTVSPropertyOp17
 70
     1
102
RTVSPropertyOp18
 70
     1
102
RTVSPropertyOp19
 70
     1
102
RTVSPropertyOp20
 70
     1
102
RTVSPropertyOp21
 70
     1
102
RTVSPropertyOp22
 70
     1
102
RTVSPropertyOp23
 70
     1
102
RTVSPropertyOp24
 70
     1
102
RTVSPropertyOp25
 70
     1
102
RTVSPropertyOp26
 70
     1
102
RTVSPropertyOp27
 70
     1
102
RTVSPropertyOp28
 70
     1
102
RTVSPropertyOp29
 70
     1
102
RTVSPropertyOp30
 70
     1
102
RTVSPropertyOp31
 70
     1
102
RTVSPropertyOp32
 70
     1
102
RTVSPropertyOp33
 70
     1
102
RTVSPropertyOp34
 70
     1
102
RTVSPropertyOp35
 70
     1
102
RTVSPropertyOp36
 70
     1
102
RTVSPropertyOp37
 70
     1
102
RTVSPropertyOp38
 70
     1
102
RTVSPropertyOp39
 70
     1
102
RTVSPropertyOp40
 70
     1
102
RTVSPropertyOp41
 70
     1
102
RTVSPropertyOp42
 70
     1
102
RTVSPropertyOp43
 70
     1
102
RTVSPropertyOp44
 70
     1
102
RTVSPropertyOp45
 70
     1
102
RTVSPropertyOp46
 70
     1
102
RTVSPropertyOp47
 70
     1
102
RTVSPropertyOp48
 70
     1
102
RTVSPropertyOp49
 70
     1
102
RTVSPropertyOp50
 70
     1
102
RTVSPropertyOp51
 70
     0
102
RTVSPropertyOp52
 70
     0
102
RTVSPropertyOp53
 70
     1
102
RTVSPropertyOp54
 70
     1
102
RTVSPropertyOp55
 70
     1
102
RTVSPropertyOp56
 70
     1
102
RTVSPropertyOp57
 70
     1
102
RTVSPost2010Prop28
280
     0
102
RTVSPost2010PropOp28
 70
     1
102
RTVSPost2010Prop29
280
     1
102
RTVSPost2010PropOp29
 70
     1
102
RTVSPost2010Prop30
280
     1
102
RTVSPost2010PropOp30
 70
     1
102
RTVSPost2010Prop31
280
     0
102
RTVSPost2010PropOp31
 70
     1
102
RTVSPost2010Prop32
280
     0
102
RTVSPost2010PropOp32
 70
     1
102
RTVSPost2010Prop33
280
     0
102
RTVSPost2010PropOp33
 70
     1
102
RTVSPost2010Prop34
280
     0
102
RTVSPost2010PropOp34
 70
     1
102
RTVSPost2010Prop35
280
     0
102
RTVSPost2010PropOp35
 70
     1
102
RTVSPost2010Prop36
280
     0
102
RTVSPost2010PropOp36
 70
     1
102
RTVSPost2010Prop37
 90
       50
102
RTVSPost2010PropOp37
 70
     1
102
RTVSPost2010Prop38
140
0.0
102
RTVSPost2010PropOp38
 70
     1
102
RTVSPost2010Prop39
140
1.0
102
RTVSPost2010PropOp39
 70
     1
102
RTVSPost2010Prop40
 90
        0
102
RTVSPost2010PropOp40
 70
     1
102
RTVSPost2010Prop41ColorIndex
 90
       18
102
RTVSPost2010Prop41ColorRGB
 90
        0
102
RTVSPost2010PropOp41
 70
     1
102
RTVSPost2010Prop42
 90
       50
102
RTVSPost2010PropOp42
 70
     1
102
RTVSPost2010Prop43
 90
        3
102
RTVSPost2010PropOp43
 70
     1
102
RTVSPost2010Prop44ColorIndex
 90
        5
102
RTVSPost2010Prop44ColorRGB
 90
      255
102
RTVSPost2010PropOp44
 70
     1
102
RTVSPost2010Prop45
280
     0
102
RTVSPost2010PropOp45
 70
     1
102
RTVSPost2010Prop46
 90
       50
102
RTVSPost2010PropOp46
 70
     1
102
RTVSPost2010Prop47
 90
       50
102
RTVSPost2010PropOp47
 70
     1
102
RTVSPost2010Prop48
 90
       50
102
RTVSPost2010PropOp48
 70
     1
102
RTVSPost2010Prop49
280
     0
102
RTVSPost2010PropOp49
 70
     1
102
RTVSPost2010Prop50
 90
       50
102
RTVSPost2010PropOp50
 70
     1
102
RTVSPost2010Prop51ColorIndex
 90
      256
102
RTVSPost2010Prop51ColorRGB
 90
-16777216
102
RTVSPost2010PropOp51
 70
     0
102
RTVSPost2010Prop52
140
1.0
102
RTVSPost2010PropOp52
 70
     0
102
RTVSPost2010Prop53
 90
        2
102
RTVSPost2010PropOp53
 70
     1
102
RTVSPost2010Prop54
  1
strokes_ogs.tif
102
RTVSPost2010PropOp54
 70
     1
102
RTVSPost2010Prop55
280
     0
102
RTVSPost2010PropOp55
 70
     1
102
RTVSPost2010Prop56
140
1.0
102
RTVSPost2010PropOp56
 70
     1
102
RTVSPost2010Prop57
140
1.0
102
RTVSPost2010PropOp57
 70
     1
  0
XRECORD
  5
376
102
{ACAD_REACTORS
330
375
102
}
330
375
100
AcDbXrecord
280
     1
102
RTVSPropertyOp0
 70
     1
102
RTVSPropertyOp1
 70
     1
102
RTVSPropertyOp2
 70
     1
102
RTVSPropertyOp3
 70
     1
102
RTVSPropertyOp4
 70
     1
102
RTVSPropertyOp5
 70
     1
102
RTVSPropertyOp6
 70
     1
102
RTVSPropertyOp7
 70
     1
102
RTVSPropertyOp8
 70
     1
102
RTVSPropertyOp9
 70
     1
102
RTVSPropertyOp10
 70
     1
102
RTVSPropertyOp11
 70
     1
102
RTVSPropertyOp12
 70
     1
102
RTVSPropertyOp13
 70
     1
102
RTVSPropertyOp14
 70
     1
102
RTVSPropertyOp15
 70
     1
102
RTVSPropertyOp16
 70
     1
102
RTVSPropertyOp17
 70
     1
102
RTVSPropertyOp18
 70
     1
102
RTVSPropertyOp19
 70
     1
102
RTVSPropertyOp20
 70
     1
102
RTVSPropertyOp21
 70
     1
102
RTVSPropertyOp22
 70
     1
102
RTVSPropertyOp23
 70
     1
102
RTVSPropertyOp24
 70
     1
102
RTVSPropertyOp25
 70
     1
102
RTVSPropertyOp26
 70
     1
102
RTVSPropertyOp27
 70
     1
102
RTVSPropertyOp28
 70
     1
102
RTVSPropertyOp29
 70
     1
102
RTVSPropertyOp30
 70
     1
102
RTVSPropertyOp31
 70
     1
102
RTVSPropertyOp32
 70
     1
102
RTVSPropertyOp33
 70
     1
102
RTVSPropertyOp34
 70
     1
102
RTVSPropertyOp35
 70
     1
102
RTVSPropertyOp36
 70
     1
102
RTVSPropertyOp37
 70
     1
102
RTVSPropertyOp38
 70
     1
102
RTVSPropertyOp39
 70
     1
102
RTVSPropertyOp40
 70
     1
102
RTVSPropertyOp41
 70
     1
102
RTVSPropertyOp42
 70
     1
102
RTVSPropertyOp43
 70
     1
102
RTVSPropertyOp44
 70
     1
102
RTVSPropertyOp45
 70
     1
102
RTVSPropertyOp46
 70
     1
102
RTVSPropertyOp47
 70
     1
102
RTVSPropertyOp48
 70
     1
102
RTVSPropertyOp49
 70
     1
102
RTVSPropertyOp50
 70
     1
102
RTVSPropertyOp51
 70
     0
102
RTVSPropertyOp52
 70
     0
102
RTVSPropertyOp53
 70
     1
102
RTVSPropertyOp54
 70
     1
102
RTVSPropertyOp55
 70
     1
102
RTVSPropertyOp56
 70
     1
102
RTVSPropertyOp57
 70
     1
102
RTVSPost2010Prop28
280
     0
102
RTVSPost2010PropOp28
 70
     1
102
RTVSPost2010Prop29
280
     1
102
RTVSPost2010PropOp29
 70
     1
102
RTVSPost2010Prop30
280
     1
102
RTVSPost2010PropOp30
 70
     1
102
RTVSPost2010Prop31
280
     0
102
RTVSPost2010PropOp31
 70
     1
102
RTVSPost2010Prop32
280
     0
102
RTVSPost2010PropOp32
 70
     1
102
RTVSPost2010Prop33
280
     0
102
RTVSPost2010PropOp33
 70
     1
102
RTVSPost2010Prop34
280
     0
102
RTVSPost2010PropOp34
 70
     1
102
RTVSPost2010Prop35
280
     0
102
RTVSPost2010PropOp35
 70
     1
102
RTVSPost2010Prop36
280
     0
102
RTVSPost2010PropOp36
 70
     1
102
RTVSPost2010Prop37
 90
       50
102
RTVSPost2010PropOp37
 70
     1
102
RTVSPost2010Prop38
140
0.0
102
RTVSPost2010PropOp38
 70
     1
102
RTVSPost2010Prop39
140
1.0
102
RTVSPost2010PropOp39
 70
     1
102
RTVSPost2010Prop40
 90
        0
102
RTVSPost2010PropOp40
 70
     1
102
RTVSPost2010Prop41ColorIndex
 90
       18
102
RTVSPost2010Prop41ColorRGB
 90
        0
102
RTVSPost2010PropOp41
 70
     1
102
RTVSPost2010Prop42
 90
       50
102
RTVSPost2010PropOp42
 70
     1
102
RTVSPost2010Prop43
 90
        3
102
RTVSPost2010PropOp43
 70
     1
102
RTVSPost2010Prop44ColorIndex
 90
        5
102
RTVSPost2010Prop44ColorRGB
 90
      255
102
RTVSPost2010PropOp44
 70
     1
102
RTVSPost2010Prop45
280
     0
102
RTVSPost2010PropOp45
 70
     1
102
RTVSPost2010Prop46
 90
       50
102
RTVSPost2010PropOp46
 70
     1
102
RTVSPost2010Prop47
 90
       50
102
RTVSPost2010PropOp47
 70
     1
102
RTVSPost2010Prop48
 90
       50
102
RTVSPost2010PropOp48
 70
     1
102
RTVSPost2010Prop49
280
     0
102
RTVSPost2010PropOp49
 70
     1
102
RTVSPost2010Prop50
 90
       50
102
RTVSPost2010PropOp50
 70
     1
102
RTVSPost2010Prop51ColorIndex
 90
      256
102
RTVSPost2010Prop51ColorRGB
 90
-16777216
102
RTVSPost2010PropOp51
 70
     0
102
RTVSPost2010Prop52
140
1.0
102
RTVSPost2010PropOp52
 70
     0
102
RTVSPost2010Prop53
 90
        2
102
RTVSPost2010PropOp53
 70
     1
102
RTVSPost2010Prop54
  1
strokes_ogs.tif
102
RTVSPost2010PropOp54
 70
     1
102
RTVSPost2010Prop55
280
     0
102
RTVSPost2010PropOp55
 70
     1
102
RTVSPost2010Prop56
140
1.0
102
RTVSPost2010PropOp56
 70
     1
102
RTVSPost2010Prop57
140
1.0
102
RTVSPost2010PropOp57
 70
     1
  0
XRECORD
  5
370
102
{ACAD_REACTORS
330
36F
102
}
330
36F
100
AcDbXrecord
280
     1
102
RTVSPropertyOp0
 70
     1
102
RTVSPropertyOp1
 70
     1
102
RTVSPropertyOp2
 70
     1
102
RTVSPropertyOp3
 70
     1
102
RTVSPropertyOp4
 70
     1
102
RTVSPropertyOp5
 70
     1
102
RTVSPropertyOp6
 70
     1
102
RTVSPropertyOp7
 70
     1
102
RTVSPropertyOp8
 70
     1
102
RTVSPropertyOp9
 70
     1
102
RTVSPropertyOp10
 70
     1
102
RTVSPropertyOp11
 70
     1
102
RTVSPropertyOp12
 70
     1
102
RTVSPropertyOp13
 70
     1
102
RTVSPropertyOp14
 70
     1
102
RTVSPropertyOp15
 70
     1
102
RTVSPropertyOp16
 70
     1
102
RTVSPropertyOp17
 70
     1
102
RTVSPropertyOp18
 70
     1
102
RTVSPropertyOp19
 70
     1
102
RTVSPropertyOp20
 70
     1
102
RTVSPropertyOp21
 70
     1
102
RTVSPropertyOp22
 70
     1
102
RTVSPropertyOp23
 70
     1
102
RTVSPropertyOp24
 70
     1
102
RTVSPropertyOp25
 70
     1
102
RTVSPropertyOp26
 70
     1
102
RTVSPropertyOp27
 70
     1
102
RTVSPropertyOp28
 70
     1
102
RTVSPropertyOp29
 70
     1
102
RTVSPropertyOp30
 70
     1
102
RTVSPropertyOp31
 70
     1
102
RTVSPropertyOp32
 70
     1
102
RTVSPropertyOp33
 70
     1
102
RTVSPropertyOp34
 70
     1
102
RTVSPropertyOp35
 70
     1
102
RTVSPropertyOp36
 70
     1
102
RTVSPropertyOp37
 70
     1
102
RTVSPropertyOp38
 70
     1
102
RTVSPropertyOp39
 70
     1
102
RTVSPropertyOp40
 70
     1
102
RTVSPropertyOp41
 70
     1
102
RTVSPropertyOp42
 70
     1
102
RTVSPropertyOp43
 70
     1
102
RTVSPropertyOp44
 70
     1
102
RTVSPropertyOp45
 70
     1
102
RTVSPropertyOp46
 70
     1
102
RTVSPropertyOp47
 70
     1
102
RTVSPropertyOp48
 70
     1
102
RTVSPropertyOp49
 70
     1
102
RTVSPropertyOp50
 70
     1
102
RTVSPropertyOp51
 70
     0
102
RTVSPropertyOp52
 70
     0
102
RTVSPropertyOp53
 70
     1
102
RTVSPropertyOp54
 70
     1
102
RTVSPropertyOp55
 70
     1
102
RTVSPropertyOp56
 70
     1
102
RTVSPropertyOp57
 70
     1
102
RTVSPost2010Prop28
280
     0
102
RTVSPost2010PropOp28
 70
     1
102
RTVSPost2010Prop29
280
     1
102
RTVSPost2010PropOp29
 70
     1
102
RTVSPost2010Prop30
280
     1
102
RTVSPost2010PropOp30
 70
     1
102
RTVSPost2010Prop31
280
     0
102
RTVSPost2010PropOp31
 70
     1
102
RTVSPost2010Prop32
280
     0
102
RTVSPost2010PropOp32
 70
     1
102
RTVSPost2010Prop33
280
     0
102
RTVSPost2010PropOp33
 70
     1
102
RTVSPost2010Prop34
280
     0
102
RTVSPost2010PropOp34
 70
     1
102
RTVSPost2010Prop35
280
     0
102
RTVSPost2010PropOp35
 70
     1
102
RTVSPost2010Prop36
280
     0
102
RTVSPost2010PropOp36
 70
     1
102
RTVSPost2010Prop37
 90
       50
102
RTVSPost2010PropOp37
 70
     1
102
RTVSPost2010Prop38
140
0.0
102
RTVSPost2010PropOp38
 70
     1
102
RTVSPost2010Prop39
140
1.0
102
RTVSPost2010PropOp39
 70
     1
102
RTVSPost2010Prop40
 90
        0
102
RTVSPost2010PropOp40
 70
     1
102
RTVSPost2010Prop41ColorIndex
 90
       18
102
RTVSPost2010Prop41ColorRGB
 90
        0
102
RTVSPost2010PropOp41
 70
     1
102
RTVSPost2010Prop42
 90
       50
102
RTVSPost2010PropOp42
 70
     1
102
RTVSPost2010Prop43
 90
        3
102
RTVSPost2010PropOp43
 70
     1
102
RTVSPost2010Prop44ColorIndex
 90
        5
102
RTVSPost2010Prop44ColorRGB
 90
      255
102
RTVSPost2010PropOp44
 70
     1
102
RTVSPost2010Prop45
280
     0
102
RTVSPost2010PropOp45
 70
     1
102
RTVSPost2010Prop46
 90
       50
102
RTVSPost2010PropOp46
 70
     1
102
RTVSPost2010Prop47
 90
       50
102
RTVSPost2010PropOp47
 70
     1
102
RTVSPost2010Prop48
 90
       50
102
RTVSPost2010PropOp48
 70
     1
102
RTVSPost2010Prop49
280
     0
102
RTVSPost2010PropOp49
 70
     1
102
RTVSPost2010Prop50
 90
       50
102
RTVSPost2010PropOp50
 70
     1
102
RTVSPost2010Prop51ColorIndex
 90
      256
102
RTVSPost2010Prop51ColorRGB
 90
-16777216
102
RTVSPost2010PropOp51
 70
     0
102
RTVSPost2010Prop52
140
1.0
102
RTVSPost2010PropOp52
 70
     0
102
RTVSPost2010Prop53
 90
        2
102
RTVSPost2010PropOp53
 70
     1
102
RTVSPost2010Prop54
  1
strokes_ogs.tif
102
RTVSPost2010PropOp54
 70
     1
102
RTVSPost2010Prop55
280
     0
102
RTVSPost2010PropOp55
 70
     1
102
RTVSPost2010Prop56
140
1.0
102
RTVSPost2010PropOp56
 70
     1
102
RTVSPost2010Prop57
140
1.0
102
RTVSPost2010PropOp57
 70
     1
  0
XRECORD
  5
372
102
{ACAD_REACTORS
330
371
102
}
330
371
100
AcDbXrecord
280
     1
102
RTVSPropertyOp0
 70
     1
102
RTVSPropertyOp1
 70
     1
102
RTVSPropertyOp2
 70
     1
102
RTVSPropertyOp3
 70
     1
102
RTVSPropertyOp4
 70
     1
102
RTVSPropertyOp5
 70
     1
102
RTVSPropertyOp6
 70
     1
102
RTVSPropertyOp7
 70
     1
102
RTVSPropertyOp8
 70
     1
102
RTVSPropertyOp9
 70
     1
102
RTVSPropertyOp10
 70
     1
102
RTVSPropertyOp11
 70
     1
102
RTVSPropertyOp12
 70
     1
102
RTVSPropertyOp13
 70
     1
102
RTVSPropertyOp14
 70
     1
102
RTVSPropertyOp15
 70
     1
102
RTVSPropertyOp16
 70
     1
102
RTVSPropertyOp17
 70
     1
102
RTVSPropertyOp18
 70
     1
102
RTVSPropertyOp19
 70
     1
102
RTVSPropertyOp20
 70
     1
102
RTVSPropertyOp21
 70
     1
102
RTVSPropertyOp22
 70
     1
102
RTVSPropertyOp23
 70
     1
102
RTVSPropertyOp24
 70
     1
102
RTVSPropertyOp25
 70
     1
102
RTVSPropertyOp26
 70
     1
102
RTVSPropertyOp27
 70
     1
102
RTVSPropertyOp28
 70
     1
102
RTVSPropertyOp29
 70
     1
102
RTVSPropertyOp30
 70
     1
102
RTVSPropertyOp31
 70
     1
102
RTVSPropertyOp32
 70
     1
102
RTVSPropertyOp33
 70
     1
102
RTVSPropertyOp34
 70
     1
102
RTVSPropertyOp35
 70
     1
102
RTVSPropertyOp36
 70
     1
102
RTVSPropertyOp37
 70
     1
102
RTVSPropertyOp38
 70
     1
102
RTVSPropertyOp39
 70
     1
102
RTVSPropertyOp40
 70
     1
102
RTVSPropertyOp41
 70
     1
102
RTVSPropertyOp42
 70
     1
102
RTVSPropertyOp43
 70
     1
102
RTVSPropertyOp44
 70
     1
102
RTVSPropertyOp45
 70
     1
102
RTVSPropertyOp46
 70
     1
102
RTVSPropertyOp47
 70
     1
102
RTVSPropertyOp48
 70
     1
102
RTVSPropertyOp49
 70
     1
102
RTVSPropertyOp50
 70
     1
102
RTVSPropertyOp51
 70
     0
102
RTVSPropertyOp52
 70
     0
102
RTVSPropertyOp53
 70
     1
102
RTVSPropertyOp54
 70
     1
102
RTVSPropertyOp55
 70
     1
102
RTVSPropertyOp56
 70
     1
102
RTVSPropertyOp57
 70
     1
102
RTVSPost2010Prop28
280
     0
102
RTVSPost2010PropOp28
 70
     1
102
RTVSPost2010Prop29
280
     1
102
RTVSPost2010PropOp29
 70
     1
102
RTVSPost2010Prop30
280
     1
102
RTVSPost2010PropOp30
 70
     1
102
RTVSPost2010Prop31
280
     0
102
RTVSPost2010PropOp31
 70
     1
102
RTVSPost2010Prop32
280
     0
102
RTVSPost2010PropOp32
 70
     1
102
RTVSPost2010Prop33
280
     0
102
RTVSPost2010PropOp33
 70
     1
102
RTVSPost2010Prop34
280
     0
102
RTVSPost2010PropOp34
 70
     1
102
RTVSPost2010Prop35
280
     0
102
RTVSPost2010PropOp35
 70
     1
102
RTVSPost2010Prop36
280
     0
102
RTVSPost2010PropOp36
 70
     1
102
RTVSPost2010Prop37
 90
       50
102
RTVSPost2010PropOp37
 70
     1
102
RTVSPost2010Prop38
140
0.0
102
RTVSPost2010PropOp38
 70
     1
102
RTVSPost2010Prop39
140
1.0
102
RTVSPost2010PropOp39
 70
     1
102
RTVSPost2010Prop40
 90
        0
102
RTVSPost2010PropOp40
 70
     1
102
RTVSPost2010Prop41ColorIndex
 90
       18
102
RTVSPost2010Prop41ColorRGB
 90
        0
102
RTVSPost2010PropOp41
 70
     1
102
RTVSPost2010Prop42
 90
       50
102
RTVSPost2010PropOp42
 70
     1
102
RTVSPost2010Prop43
 90
        3
102
RTVSPost2010PropOp43
 70
     1
102
RTVSPost2010Prop44ColorIndex
 90
        5
102
RTVSPost2010Prop44ColorRGB
 90
      255
102
RTVSPost2010PropOp44
 70
     1
102
RTVSPost2010Prop45
280
     0
102
RTVSPost2010PropOp45
 70
     1
102
RTVSPost2010Prop46
 90
       50
102
RTVSPost2010PropOp46
 70
     1
102
RTVSPost2010Prop47
 90
       50
102
RTVSPost2010PropOp47
 70
     1
102
RTVSPost2010Prop48
 90
       50
102
RTVSPost2010PropOp48
 70
     1
102
RTVSPost2010Prop49
280
     0
102
RTVSPost2010PropOp49
 70
     1
102
RTVSPost2010Prop50
 90
       50
102
RTVSPost2010PropOp50
 70
     1
102
RTVSPost2010Prop51ColorIndex
 90
      256
102
RTVSPost2010Prop51ColorRGB
 90
-16777216
102
RTVSPost2010PropOp51
 70
     0
102
RTVSPost2010Prop52
140
1.0
102
RTVSPost2010PropOp52
 70
     0
102
RTVSPost2010Prop53
 90
        2
102
RTVSPost2010PropOp53
 70
     1
102
RTVSPost2010Prop54
  1
strokes_ogs.tif
102
RTVSPost2010PropOp54
 70
     1
102
RTVSPost2010Prop55
280
     0
102
RTVSPost2010PropOp55
 70
     1
102
RTVSPost2010Prop56
140
1.0
102
RTVSPost2010PropOp56
 70
     1
102
RTVSPost2010Prop57
140
1.0
102
RTVSPost2010PropOp57
 70
     1
  0
XRECORD
  5
362
102
{ACAD_REACTORS
330
361
102
}
330
361
100
AcDbXrecord
280
     1
102
RTVSPropertyOp0
 70
     1
102
RTVSPropertyOp1
 70
     1
102
RTVSPropertyOp2
 70
     1
102
RTVSPropertyOp3
 70
     1
102
RTVSPropertyOp4
 70
     1
102
RTVSPropertyOp5
 70
     1
102
RTVSPropertyOp6
 70
     1
102
RTVSPropertyOp7
 70
     1
102
RTVSPropertyOp8
 70
     1
102
RTVSPropertyOp9
 70
     1
102
RTVSPropertyOp10
 70
     1
102
RTVSPropertyOp11
 70
     1
102
RTVSPropertyOp12
 70
     1
102
RTVSPropertyOp13
 70
     1
102
RTVSPropertyOp14
 70
     1
102
RTVSPropertyOp15
 70
     1
102
RTVSPropertyOp16
 70
     1
102
RTVSPropertyOp17
 70
     1
102
RTVSPropertyOp18
 70
     1
102
RTVSPropertyOp19
 70
     1
102
RTVSPropertyOp20
 70
     1
102
RTVSPropertyOp21
 70
     1
102
RTVSPropertyOp22
 70
     1
102
RTVSPropertyOp23
 70
     1
102
RTVSPropertyOp24
 70
     1
102
RTVSPropertyOp25
 70
     1
102
RTVSPropertyOp26
 70
     1
102
RTVSPropertyOp27
 70
     1
102
RTVSPropertyOp28
 70
     1
102
RTVSPropertyOp29
 70
     1
102
RTVSPropertyOp30
 70
     1
102
RTVSPropertyOp31
 70
     1
102
RTVSPropertyOp32
 70
     1
102
RTVSPropertyOp33
 70
     1
102
RTVSPropertyOp34
 70
     1
102
RTVSPropertyOp35
 70
     1
102
RTVSPropertyOp36
 70
     1
102
RTVSPropertyOp37
 70
     1
102
RTVSPropertyOp38
 70
     1
102
RTVSPropertyOp39
 70
     1
102
RTVSPropertyOp40
 70
     1
102
RTVSPropertyOp41
 70
     1
102
RTVSPropertyOp42
 70
     1
102
RTVSPropertyOp43
 70
     1
102
RTVSPropertyOp44
 70
     1
102
RTVSPropertyOp45
 70
     1
102
RTVSPropertyOp46
 70
     1
102
RTVSPropertyOp47
 70
     1
102
RTVSPropertyOp48
 70
     1
102
RTVSPropertyOp49
 70
     1
102
RTVSPropertyOp50
 70
     1
102
RTVSPropertyOp51
 70
     0
102
RTVSPropertyOp52
 70
     0
102
RTVSPropertyOp53
 70
     1
102
RTVSPropertyOp54
 70
     1
102
RTVSPropertyOp55
 70
     1
102
RTVSPropertyOp56
 70
     1
102
RTVSPropertyOp57
 70
     1
102
RTVSPost2010Prop28
280
     0
102
RTVSPost2010PropOp28
 70
     1
102
RTVSPost2010Prop29
280
     1
102
RTVSPost2010PropOp29
 70
     1
102
RTVSPost2010Prop30
280
     1
102
RTVSPost2010PropOp30
 70
     1
102
RTVSPost2010Prop31
280
     0
102
RTVSPost2010PropOp31
 70
     1
102
RTVSPost2010Prop32
280
     0
102
RTVSPost2010PropOp32
 70
     1
102
RTVSPost2010Prop33
280
     0
102
RTVSPost2010PropOp33
 70
     1
102
RTVSPost2010Prop34
280
     0
102
RTVSPost2010PropOp34
 70
     1
102
RTVSPost2010Prop35
280
     0
102
RTVSPost2010PropOp35
 70
     1
102
RTVSPost2010Prop36
280
     0
102
RTVSPost2010PropOp36
 70
     1
102
RTVSPost2010Prop37
 90
       50
102
RTVSPost2010PropOp37
 70
     1
102
RTVSPost2010Prop38
140
0.0
102
RTVSPost2010PropOp38
 70
     1
102
RTVSPost2010Prop39
140
1.0
102
RTVSPost2010PropOp39
 70
     1
102
RTVSPost2010Prop40
 90
        0
102
RTVSPost2010PropOp40
 70
     1
102
RTVSPost2010Prop41ColorIndex
 90
       18
102
RTVSPost2010Prop41ColorRGB
 90
        0
102
RTVSPost2010PropOp41
 70
     1
102
RTVSPost2010Prop42
 90
       50
102
RTVSPost2010PropOp42
 70
     1
102
RTVSPost2010Prop43
 90
        3
102
RTVSPost2010PropOp43
 70
     1
102
RTVSPost2010Prop44ColorIndex
 90
        5
102
RTVSPost2010Prop44ColorRGB
 90
      255
102
RTVSPost2010PropOp44
 70
     1
102
RTVSPost2010Prop45
280
     0
102
RTVSPost2010PropOp45
 70
     1
102
RTVSPost2010Prop46
 90
       50
102
RTVSPost2010PropOp46
 70
     1
102
RTVSPost2010Prop47
 90
       50
102
RTVSPost2010PropOp47
 70
     1
102
RTVSPost2010Prop48
 90
       50
102
RTVSPost2010PropOp48
 70
     1
102
RTVSPost2010Prop49
280
     0
102
RTVSPost2010PropOp49
 70
     1
102
RTVSPost2010Prop50
 90
       50
102
RTVSPost2010PropOp50
 70
     1
102
RTVSPost2010Prop51ColorIndex
 90
      256
102
RTVSPost2010Prop51ColorRGB
 90
-16777216
102
RTVSPost2010PropOp51
 70
     0
102
RTVSPost2010Prop52
140
1.0
102
RTVSPost2010PropOp52
 70
     0
102
RTVSPost2010Prop53
 90
        2
102
RTVSPost2010PropOp53
 70
     1
102
RTVSPost2010Prop54
  1
strokes_ogs.tif
102
RTVSPost2010PropOp54
 70
     1
102
RTVSPost2010Prop55
280
     0
102
RTVSPost2010PropOp55
 70
     1
102
RTVSPost2010Prop56
140
1.0
102
RTVSPost2010PropOp56
 70
     1
102
RTVSPost2010Prop57
140
1.0
102
RTVSPost2010PropOp57
 70
     1
  0
XRECORD
  5
354
102
{ACAD_REACTORS
330
353
102
}
330
353
100
AcDbXrecord
280
     1
102
RTVSPropertyOp0
 70
     1
102
RTVSPropertyOp1
 70
     1
102
RTVSPropertyOp2
 70
     1
102
RTVSPropertyOp3
 70
     1
102
RTVSPropertyOp4
 70
     1
102
RTVSPropertyOp5
 70
     1
102
RTVSPropertyOp6
 70
     1
102
RTVSPropertyOp7
 70
     1
102
RTVSPropertyOp8
 70
     1
102
RTVSPropertyOp9
 70
     1
102
RTVSPropertyOp10
 70
     1
102
RTVSPropertyOp11
 70
     1
102
RTVSPropertyOp12
 70
     1
102
RTVSPropertyOp13
 70
     1
102
RTVSPropertyOp14
 70
     1
102
RTVSPropertyOp15
 70
     1
102
RTVSPropertyOp16
 70
     1
102
RTVSPropertyOp17
 70
     1
102
RTVSPropertyOp18
 70
     1
102
RTVSPropertyOp19
 70
     1
102
RTVSPropertyOp20
 70
     1
102
RTVSPropertyOp21
 70
     1
102
RTVSPropertyOp22
 70
     1
102
RTVSPropertyOp23
 70
     1
102
RTVSPropertyOp24
 70
     1
102
RTVSPropertyOp25
 70
     1
102
RTVSPropertyOp26
 70
     1
102
RTVSPropertyOp27
 70
     1
102
RTVSPropertyOp28
 70
     1
102
RTVSPropertyOp29
 70
     1
102
RTVSPropertyOp30
 70
     1
102
RTVSPropertyOp31
 70
     1
102
RTVSPropertyOp32
 70
     1
102
RTVSPropertyOp33
 70
     1
102
RTVSPropertyOp34
 70
     1
102
RTVSPropertyOp35
 70
     1
102
RTVSPropertyOp36
 70
     1
102
RTVSPropertyOp37
 70
     1
102
RTVSPropertyOp38
 70
     1
102
RTVSPropertyOp39
 70
     1
102
RTVSPropertyOp40
 70
     1
102
RTVSPropertyOp41
 70
     1
102
RTVSPropertyOp42
 70
     1
102
RTVSPropertyOp43
 70
     1
102
RTVSPropertyOp44
 70
     1
102
RTVSPropertyOp45
 70
     1
102
RTVSPropertyOp46
 70
     1
102
RTVSPropertyOp47
 70
     1
102
RTVSPropertyOp48
 70
     1
102
RTVSPropertyOp49
 70
     1
102
RTVSPropertyOp50
 70
     1
102
RTVSPropertyOp51
 70
     0
102
RTVSPropertyOp52
 70
     0
102
RTVSPropertyOp53
 70
     1
102
RTVSPropertyOp54
 70
     1
102
RTVSPropertyOp55
 70
     1
102
RTVSPropertyOp56
 70
     1
102
RTVSPropertyOp57
 70
     1
102
RTVSPost2010Prop28
280
     0
102
RTVSPost2010PropOp28
 70
     1
102
RTVSPost2010Prop29
280
     1
102
RTVSPost2010PropOp29
 70
     1
102
RTVSPost2010Prop30
280
     1
102
RTVSPost2010PropOp30
 70
     1
102
RTVSPost2010Prop31
280
     0
102
RTVSPost2010PropOp31
 70
     1
102
RTVSPost2010Prop32
280
     0
102
RTVSPost2010PropOp32
 70
     1
102
RTVSPost2010Prop33
280
     0
102
RTVSPost2010PropOp33
 70
     1
102
RTVSPost2010Prop34
280
     0
102
RTVSPost2010PropOp34
 70
     1
102
RTVSPost2010Prop35
280
     0
102
RTVSPost2010PropOp35
 70
     1
102
RTVSPost2010Prop36
280
     0
102
RTVSPost2010PropOp36
 70
     1
102
RTVSPost2010Prop37
 90
       50
102
RTVSPost2010PropOp37
 70
     1
102
RTVSPost2010Prop38
140
0.0
102
RTVSPost2010PropOp38
 70
     1
102
RTVSPost2010Prop39
140
1.0
102
RTVSPost2010PropOp39
 70
     1
102
RTVSPost2010Prop40
 90
        0
102
RTVSPost2010PropOp40
 70
     1
102
RTVSPost2010Prop41ColorIndex
 90
       18
102
RTVSPost2010Prop41ColorRGB
 90
        0
102
RTVSPost2010PropOp41
 70
     1
102
RTVSPost2010Prop42
 90
       50
102
RTVSPost2010PropOp42
 70
     1
102
RTVSPost2010Prop43
 90
        3
102
RTVSPost2010PropOp43
 70
     1
102
RTVSPost2010Prop44ColorIndex
 90
        5
102
RTVSPost2010Prop44ColorRGB
 90
      255
102
RTVSPost2010PropOp44
 70
     1
102
RTVSPost2010Prop45
280
     0
102
RTVSPost2010PropOp45
 70
     1
102
RTVSPost2010Prop46
 90
       50
102
RTVSPost2010PropOp46
 70
     1
102
RTVSPost2010Prop47
 90
       50
102
RTVSPost2010PropOp47
 70
     1
102
RTVSPost2010Prop48
 90
       50
102
RTVSPost2010PropOp48
 70
     1
102
RTVSPost2010Prop49
280
     0
102
RTVSPost2010PropOp49
 70
     1
102
RTVSPost2010Prop50
 90
       50
102
RTVSPost2010PropOp50
 70
     1
102
RTVSPost2010Prop51ColorIndex
 90
      256
102
RTVSPost2010Prop51ColorRGB
 90
-16777216
102
RTVSPost2010PropOp51
 70
     0
102
RTVSPost2010Prop52
140
1.0
102
RTVSPost2010PropOp52
 70
     0
102
RTVSPost2010Prop53
 90
        2
102
RTVSPost2010PropOp53
 70
     1
102
RTVSPost2010Prop54
  1
strokes_ogs.tif
102
RTVSPost2010PropOp54
 70
     1
102
RTVSPost2010Prop55
280
     0
102
RTVSPost2010PropOp55
 70
     1
102
RTVSPost2010Prop56
140
1.0
102
RTVSPost2010PropOp56
 70
     1
102
RTVSPost2010Prop57
140
1.0
102
RTVSPost2010PropOp57
 70
     1
  0
XRECORD
  5
374
102
{ACAD_REACTORS
330
373
102
}
330
373
100
AcDbXrecord
280
     1
102
RTVSPropertyOp0
 70
     1
102
RTVSPropertyOp1
 70
     1
102
RTVSPropertyOp2
 70
     1
102
RTVSPropertyOp3
 70
     1
102
RTVSPropertyOp4
 70
     1
102
RTVSPropertyOp5
 70
     1
102
RTVSPropertyOp6
 70
     1
102
RTVSPropertyOp7
 70
     1
102
RTVSPropertyOp8
 70
     1
102
RTVSPropertyOp9
 70
     1
102
RTVSPropertyOp10
 70
     1
102
RTVSPropertyOp11
 70
     1
102
RTVSPropertyOp12
 70
     1
102
RTVSPropertyOp13
 70
     1
102
RTVSPropertyOp14
 70
     1
102
RTVSPropertyOp15
 70
     1
102
RTVSPropertyOp16
 70
     1
102
RTVSPropertyOp17
 70
     1
102
RTVSPropertyOp18
 70
     1
102
RTVSPropertyOp19
 70
     1
102
RTVSPropertyOp20
 70
     1
102
RTVSPropertyOp21
 70
     1
102
RTVSPropertyOp22
 70
     1
102
RTVSPropertyOp23
 70
     1
102
RTVSPropertyOp24
 70
     1
102
RTVSPropertyOp25
 70
     1
102
RTVSPropertyOp26
 70
     1
102
RTVSPropertyOp27
 70
     1
102
RTVSPropertyOp28
 70
     1
102
RTVSPropertyOp29
 70
     1
102
RTVSPropertyOp30
 70
     1
102
RTVSPropertyOp31
 70
     1
102
RTVSPropertyOp32
 70
     1
102
RTVSPropertyOp33
 70
     1
102
RTVSPropertyOp34
 70
     1
102
RTVSPropertyOp35
 70
     1
102
RTVSPropertyOp36
 70
     1
102
RTVSPropertyOp37
 70
     1
102
RTVSPropertyOp38
 70
     1
102
RTVSPropertyOp39
 70
     1
102
RTVSPropertyOp40
 70
     1
102
RTVSPropertyOp41
 70
     1
102
RTVSPropertyOp42
 70
     1
102
RTVSPropertyOp43
 70
     1
102
RTVSPropertyOp44
 70
     1
102
RTVSPropertyOp45
 70
     1
102
RTVSPropertyOp46
 70
     1
102
RTVSPropertyOp47
 70
     1
102
RTVSPropertyOp48
 70
     1
102
RTVSPropertyOp49
 70
     1
102
RTVSPropertyOp50
 70
     1
102
RTVSPropertyOp51
 70
     0
102
RTVSPropertyOp52
 70
     0
102
RTVSPropertyOp53
 70
     1
102
RTVSPropertyOp54
 70
     1
102
RTVSPropertyOp55
 70
     1
102
RTVSPropertyOp56
 70
     1
102
RTVSPropertyOp57
 70
     1
102
RTVSPost2010Prop28
280
     0
102
RTVSPost2010PropOp28
 70
     1
102
RTVSPost2010Prop29
280
     1
102
RTVSPost2010PropOp29
 70
     1
102
RTVSPost2010Prop30
280
     1
102
RTVSPost2010PropOp30
 70
     1
102
RTVSPost2010Prop31
280
     0
102
RTVSPost2010PropOp31
 70
     1
102
RTVSPost2010Prop32
280
     0
102
RTVSPost2010PropOp32
 70
     1
102
RTVSPost2010Prop33
280
     0
102
RTVSPost2010PropOp33
 70
     1
102
RTVSPost2010Prop34
280
     0
102
RTVSPost2010PropOp34
 70
     1
102
RTVSPost2010Prop35
280
     0
102
RTVSPost2010PropOp35
 70
     1
102
RTVSPost2010Prop36
280
     0
102
RTVSPost2010PropOp36
 70
     1
102
RTVSPost2010Prop37
 90
       50
102
RTVSPost2010PropOp37
 70
     1
102
RTVSPost2010Prop38
140
0.0
102
RTVSPost2010PropOp38
 70
     1
102
RTVSPost2010Prop39
140
1.0
102
RTVSPost2010PropOp39
 70
     1
102
RTVSPost2010Prop40
 90
        0
102
RTVSPost2010PropOp40
 70
     1
102
RTVSPost2010Prop41ColorIndex
 90
       18
102
RTVSPost2010Prop41ColorRGB
 90
        0
102
RTVSPost2010PropOp41
 70
     1
102
RTVSPost2010Prop42
 90
       50
102
RTVSPost2010PropOp42
 70
     1
102
RTVSPost2010Prop43
 90
        3
102
RTVSPost2010PropOp43
 70
     1
102
RTVSPost2010Prop44ColorIndex
 90
        5
102
RTVSPost2010Prop44ColorRGB
 90
      255
102
RTVSPost2010PropOp44
 70
     1
102
RTVSPost2010Prop45
280
     0
102
RTVSPost2010PropOp45
 70
     1
102
RTVSPost2010Prop46
 90
       50
102
RTVSPost2010PropOp46
 70
     1
102
RTVSPost2010Prop47
 90
       50
102
RTVSPost2010PropOp47
 70
     1
102
RTVSPost2010Prop48
 90
       50
102
RTVSPost2010PropOp48
 70
     1
102
RTVSPost2010Prop49
280
     0
102
RTVSPost2010PropOp49
 70
     1
102
RTVSPost2010Prop50
 90
       50
102
RTVSPost2010PropOp50
 70
     1
102
RTVSPost2010Prop51ColorIndex
 90
      256
102
RTVSPost2010Prop51ColorRGB
 90
-16777216
102
RTVSPost2010PropOp51
 70
     0
102
RTVSPost2010Prop52
140
1.0
102
RTVSPost2010PropOp52
 70
     0
102
RTVSPost2010Prop53
 90
        2
102
RTVSPost2010PropOp53
 70
     1
102
RTVSPost2010Prop54
  1
strokes_ogs.tif
102
RTVSPost2010PropOp54
 70
     1
102
RTVSPost2010Prop55
280
     0
102
RTVSPost2010PropOp55
 70
     1
102
RTVSPost2010Prop56
140
1.0
102
RTVSPost2010PropOp56
 70
     1
102
RTVSPost2010Prop57
140
1.0
102
RTVSPost2010PropOp57
 70
     1
  0
ENDSEC
  0
EOF
