  0
SECTION
  2
HEADER
  9
$ACADVER
  1
AC1015
  9
$ACADMAINTVER
 70
    20
  9
$DWGCODEPAGE
  3
ANSI_1250
  9
$INSBASE
 10
0.0
 20
0.0
 30
0.0
  9
$EXTMIN
 10
-72.02587572623919
 20
-9.525000341245696
 30
0.0
  9
$EXTMAX
 10
84.65504799999999
 20
62.8924017262392
 30
0.0
  9
$LIMMIN
 10
-0.5
 20
-0.5
  9
$LIMMAX
 10
5.0
 20
5.0
  9
$ORTHOMODE
 70
     0
  9
$REGENMODE
 70
     1
  9
$FILLMODE
 70
     1
  9
$QTEXTMODE
 70
     0
  9
$MIRRTEXT
 70
     1
  9
$LTSCALE
 40
1.0
  9
$ATTMODE
 70
     1
  9
$TEXTSIZE
 40
0.2
  9
$TRACEWID
 40
0.05
  9
$TEXTSTYLE
  7
Standard
  9
$CLAYER
  8
0
  9
$CELTYPE
  6
ByLayer
  9
$CECOLOR
 62
   256
  9
$CELTSCALE
 40
1.0
  9
$DISPSILH
 70
     0
  9
$DIMSCALE
 40
1.0
  9
$DIMASZ
 40
0.18
  9
$DIMEXO
 40
0.0625
  9
$DIMDLI
 40
0.38
  9
$DIMRND
 40
0.0
  9
$DIMDLE
 40
0.0
  9
$DIMEXE
 40
0.18
  9
$DIMTP
 40
0.0
  9
$DIMTM
 40
0.0
  9
$DIMTXT
 40
0.18
  9
$DIMCEN
 40
0.09
  9
$DIMTSZ
 40
0.0
  9
$DIMTOL
 70
     0
  9
$DIMLIM
 70
     0
  9
$DIMTIH
 70
     1
  9
$DIMTOH
 70
     1
  9
$DIMSE1
 70
     0
  9
$DIMSE2
 70
     0
  9
$DIMTAD
 70
     0
  9
$DIMZIN
 70
     0
  9
$DIMBLK
  1

  9
$DIMASO
 70
     1
  9
$DIMSHO
 70
     1
  9
$DIMPOST
  1

  9
$DIMAPOST
  1

  9
$DIMALT
 70
     0
  9
$DIMALTD
 70
     2
  9
$DIMALTF
 40
25.4
  9
$DIMLFAC
 40
1.0
  9
$DIMTOFL
 70
     0
  9
$DIMTVP
 40
0.0
  9
$DIMTIX
 70
     0
  9
$DIMSOXD
 70
     0
  9
$DIMSAH
 70
     0
  9
$DIMBLK1
  1

  9
$DIMBLK2
  1

  9
$DIMSTYLE
  2
Standard
  9
$DIMCLRD
 70
     0
  9
$DIMCLRE
 70
     0
  9
$DIMCLRT
 70
     0
  9
$DIMTFAC
 40
1.0
  9
$DIMGAP
 40
0.09
  9
$DIMJUST
 70
     0
  9
$DIMSD1
 70
     0
  9
$DIMSD2
 70
     0
  9
$DIMTOLJ
 70
     1
  9
$DIMTZIN
 70
     0
  9
$DIMALTZ
 70
     0
  9
$DIMALTTZ
 70
     0
  9
$DIMUPT
 70
     0
  9
$DIMDEC
 70
     4
  9
$DIMTDEC
 70
     4
  9
$DIMALTU
 70
     2
  9
$DIMALTTD
 70
     2
  9
$DIMTXSTY
  7
Standard
  9
$DIMAUNIT
 70
     0
  9
$DIMADEC
 70
     0
  9
$DIMALTRND
 40
0.0
  9
$DIMAZIN
 70
     0
  9
$DIMDSEP
 70
    46
  9
$DIMATFIT
 70
     3
  9
$DIMFRAC
 70
     0
  9
$DIMLDRBLK
  1

  9
$DIMLUNIT
 70
     2
  9
$DIMLWD
 70
    -2
  9
$DIMLWE
 70
    -2
  9
$DIMTMOVE
 70
     0
  9
$LUNITS
 70
     2
  9
$LUPREC
 70
     4
  9
$SKETCHINC
 40
0.1
  9
$FILLETRAD
 40
0.5
  9
$AUNITS
 70
     0
  9
$AUPREC
 70
     0
  9
$MENU
  1
.
  9
$ELEVATION
 40
0.0
  9
$PELEVATION
 40
0.0
  9
$THICKNESS
 40
0.0
  9
$LIMCHECK
 70
     0
  9
$CHAMFERA
 40
0.0
  9
$CHAMFERB
 40
0.0
  9
$CHAMFERC
 40
0.0
  9
$CHAMFERD
 40
0.0
  9
$SKPOLY
 70
     0
  9
$TDCREATE
 40
2459025.429432871
  9
$TDUCREATE
 40
2459025.346103773
  9
$TDUPDATE
 40
2459025.431203704
  9
$TDUUPDATE
 40
2459025.347870370
  9
$TDINDWG
 40
0.0005671412
  9
$TDUSRTIMER
 40
0.0005671412
  9
$USRTIMER
 70
     1
  9
$ANGBASE
 50
0.0
  9
$ANGDIR
 70
     0
  9
$PDMODE
 70
     0
  9
$PDSIZE
 40
0.0
  9
$PLINEWID
 40
0.0
  9
$SPLFRAME
 70
     0
  9
$SPLINETYPE
 70
     6
  9
$SPLINESEGS
 70
     8
  9
$HANDSEED
  5
680
  9
$SURFTAB1
 70
     6
  9
$SURFTAB2
 70
     6
  9
$SURFTYPE
 70
     6
  9
$SURFU
 70
     6
  9
$SURFV
 70
     6
  9
$UCSBASE
  2

  9
$UCSNAME
  2

  9
$UCSORG
 10
0.0
 20
0.0
 30
0.0
  9
$UCSXDIR
 10
1.0
 20
0.0
 30
0.0
  9
$UCSYDIR
 10
0.0
 20
1.0
 30
0.0
  9
$UCSORTHOREF
  2

  9
$UCSORTHOVIEW
 70
     0
  9
$UCSORGTOP
 10
0.0
 20
0.0
 30
0.0
  9
$UCSORGBOTTOM
 10
0.0
 20
0.0
 30
0.0
  9
$UCSORGLEFT
 10
0.0
 20
0.0
 30
0.0
  9
$UCSORGRIGHT
 10
0.0
 20
0.0
 30
0.0
  9
$UCSORGFRONT
 10
0.0
 20
0.0
 30
0.0
  9
$UCSORGBACK
 10
0.0
 20
0.0
 30
0.0
  9
$PUCSBASE
  2

  9
$PUCSNAME
  2

  9
$PUCSORG
 10
0.0
 20
0.0
 30
0.0
  9
$PUCSXDIR
 10
1.0
 20
0.0
 30
0.0
  9
$PUCSYDIR
 10
0.0
 20
1.0
 30
0.0
  9
$PUCSORTHOREF
  2

  9
$PUCSORTHOVIEW
 70
     0
  9
$PUCSORGTOP
 10
0.0
 20
0.0
 30
0.0
  9
$PUCSORGBOTTOM
 10
0.0
 20
0.0
 30
0.0
  9
$PUCSORGLEFT
 10
0.0
 20
0.0
 30
0.0
  9
$PUCSORGRIGHT
 10
0.0
 20
0.0
 30
0.0
  9
$PUCSORGFRONT
 10
0.0
 20
0.0
 30
0.0
  9
$PUCSORGBACK
 10
0.0
 20
0.0
 30
0.0
  9
$USERI1
 70
     0
  9
$USERI2
 70
     0
  9
$USERI3
 70
     0
  9
$USERI4
 70
     0
  9
$USERI5
 70
     0
  9
$USERR1
 40
0.0
  9
$USERR2
 40
0.0
  9
$USERR3
 40
0.0
  9
$USERR4
 40
0.0
  9
$USERR5
 40
0.0
  9
$WORLDVIEW
 70
     1
  9
$SHADEDGE
 70
     3
  9
$SHADEDIF
 70
    70
  9
$TILEMODE
 70
     1
  9
$MAXACTVP
 70
    64
  9
$PINSBASE
 10
0.0
 20
0.0
 30
0.0
  9
$PLIMCHECK
 70
     0
  9
$PEXTMIN
 10
-0.5
 20
-0.5
 30
-0.5
  9
$PEXTMAX
 10
5.0
 20
5.0
 30
5.0
  9
$PLIMMIN
 10
-0.5
 20
-0.5
  9
$PLIMMAX
 10
5.0
 20
5.0
  9
$UNITMODE
 70
     0
  9
$VISRETAIN
 70
     1
  9
$PLINEGEN
 70
     0
  9
$PSLTSCALE
 70
     1
  9
$TREEDEPTH
 70
  3020
  9
$CMLSTYLE
  2
Standard
  9
$CMLJUST
 70
     0
  9
$CMLSCALE
 40
1.0
  9
$PROXYGRAPHICS
 70
     1
  9
$MEASUREMENT
 70
     1
  9
$CELWEIGHT
370
    18
  9
$ENDCAPS
280
     0
  9
$JOINSTYLE
280
     0
  9
$LWDISPLAY
290
     1
  9
$INSUNITS
 70
     4
  9
$HYPERLINKBASE
  1

  9
$STYLESHEET
  1

  9
$XEDIT
290
     1
  9
$CEPSNTYPE
380
     0
  9
$PSTYLEMODE
290
     1
  9
$FINGERPRINTGUID
  2
{B75BC47C-87C7-4B82-B9B9-02693278B92A}
  9
$VERSIONGUID
  2
{E73FA407-662D-D349-A50B-E357B5A9A8BE}
  9
$EXTNAMES
290
     1
  9
$PSVPSCALE
 40
0.0
  9
$OLESTARTUP
290
     0
  0
ENDSEC
  0
SECTION
  2
CLASSES
  0
CLASS
  1
ACDBDICTIONARYWDFLT
  2
AcDbDictionaryWithDefault
  3
ObjectDBX Classes
 90
        0
280
     0
281
     0
  0
CLASS
  1
VISUALSTYLE
  2
AcDbVisualStyle
  3
ObjectDBX Classes
 90
     4095
280
     0
281
     0
  0
CLASS
  1
MATERIAL
  2
AcDbMaterial
  3
ObjectDBX Classes
 90
     1153
280
     0
281
     0
  0
CLASS
  1
SCALE
  2
AcDbScale
  3
ObjectDBX Classes
 90
     1153
280
     0
281
     0
  0
CLASS
  1
TABLESTYLE
  2
AcDbTableStyle
  3
ObjectDBX Classes
 90
     4095
280
     0
281
     0
  0
CLASS
  1
MLEADERSTYLE
  2
AcDbMLeaderStyle
  3
ACDB_MLEADERSTYLE_CLASS
 90
     4095
280
     0
281
     0
  0
CLASS
  1
SUN
  2
AcDbSun
  3
SCENEOE
 90
    33921
280
     0
281
     0
  0
CLASS
  1
DIMASSOC
  2
AcDbDimAssoc
  3
"AcDbDimAssoc|Product Desc:     AcDim ARX App For Dimension|Company:          Autodesk, Inc.|WEB Address:      www.autodesk.com"
 90
        0
280
     0
281
     0
  0
CLASS
  1
DICTIONARYVAR
  2
AcDbDictionaryVar
  3
ObjectDBX Classes
 90
        0
280
     0
281
     0
  0
CLASS
  1
CELLSTYLEMAP
  2
AcDbCellStyleMap
  3
ObjectDBX Classes
 90
     1152
280
     0
281
     0
  0
CLASS
  1
ACDBSECTIONVIEWSTYLE
  2
AcDbSectionViewStyle
  3
ObjectDBX Classes
 90
     1025
280
     0
281
     0
  0
CLASS
  1
ACDBDETAILVIEWSTYLE
  2
AcDbDetailViewStyle
  3
ObjectDBX Classes
 90
     1025
280
     0
281
     0
  0
CLASS
  1
ACDBPLACEHOLDER
  2
AcDbPlaceHolder
  3
ObjectDBX Classes
 90
        0
280
     0
281
     0
  0
CLASS
  1
LAYOUT
  2
AcDbLayout
  3
ObjectDBX Classes
 90
        0
280
     0
281
     0
  0
ENDSEC
  0
SECTION
  2
TABLES
  0
TABLE
  2
VPORT
  5
8
330
0
100
AcDbSymbolTable
 70
    16
  0
VPORT
  5
29
330
8
100
AcDbSymbolTableRecord
100
AcDbViewportTableRecord
  2
*Active
 70
     0
 10
0.0
 20
0.0
 11
1.0
 21
1.0
 12
11.037623580103
 22
-7.302971528346503
 13
0.0
 23
0.0
 14
0.5
 24
0.5
 15
0.5
 25
0.5
 16
0.0
 26
0.0
 36
1.0
 17
0.0
 27
0.0
 37
0.0
 40
187.6895789237954
 41
2.188141391106043
 42
50.0
 43
265.969659
 44
-265.969659
 50
0.0
 51
0.0
 71
     0
 72
   100
 73
     1
 74
     3
 75
     0
 76
     0
 77
     0
 78
     0
281
     0
 65
     1
110
0.0
120
0.0
130
0.0
111
1.0
121
0.0
131
0.0
112
0.0
122
1.0
132
0.0
 79
     0
146
0.0
1001
ACAD_NAV_VCDISPLAY
1070
     3
  0
VPORT
  5
3AB
330
8
100
AcDbSymbolTableRecord
100
AcDbViewportTableRecord
  2
L1
 70
     0
 10
0.0
 20
0.0
 11
1.0
 21
1.0
 12
6.331119999999999
 22
25.021317
 13
0.0
 23
0.0
 14
0.5
 24
0.5
 15
0.5
 25
0.5
 16
0.0
 26
0.0
 36
1.0
 17
0.0
 27
0.0
 37
0.0
 40
207.433333
 41
0.085602
 42
50.0
 43
265.969659
 44
-265.969659
 50
0.0
 51
0.0
 71
     0
 72
   100
 73
     1
 74
     3
 75
     0
 76
     0
 77
     0
 78
     0
281
     0
 65
     1
110
0.0
120
0.0
130
0.0
111
1.0
121
0.0
131
0.0
112
0.0
122
1.0
132
0.0
 79
     0
146
0.0
  0
VPORT
  5
3AC
330
8
100
AcDbSymbolTableRecord
100
AcDbViewportTableRecord
  2
L2
 70
     0
 10
0.0
 20
0.0
 11
0.5
 21
1.0
 12
0.0
 22
0.0
 13
0.0
 23
0.0
 14
0.5
 24
0.5
 15
0.5
 25
0.5
 16
0.0
 26
-1.0
 36
0.0
 17
0.0
 27
0.0
 37
0.0
 40
1352.580743
 41
0.013128
 42
50.0
 43
697.6196049999999
 44
-697.6196049999999
 50
0.0
 51
0.0
 71
     0
 72
   100
 73
     1
 74
     3
 75
     0
 76
     0
 77
     0
 78
     0
281
     0
 65
     1
110
0.0
120
0.0
130
0.0
111
1.0
121
0.0
131
0.0
112
0.0
122
1.0
132
0.0
 79
     0
146
0.0
  0
VPORT
  5
3AD
330
8
100
AcDbSymbolTableRecord
100
AcDbViewportTableRecord
  2
L2
 70
     0
 10
0.5
 20
0.0
 11
1.0
 21
1.0
 12
0.0
 22
0.0
 13
0.0
 23
0.0
 14
0.5
 24
0.5
 15
0.5
 25
0.5
 16
1.0
 26
0.0
 36
0.0
 17
0.0
 27
0.0
 37
0.0
 40
1352.580743
 41
0.013128
 42
50.0
 43
684.197204
 44
-684.197204
 50
0.0
 51
0.0
 71
     0
 72
   100
 73
     1
 74
     3
 75
     0
 76
     0
 77
     0
 78
     0
281
     0
 65
     1
110
0.0
120
0.0
130
0.0
111
1.0
121
0.0
131
0.0
112
0.0
122
1.0
132
0.0
 79
     0
146
0.0
  0
VPORT
  5
3AE
330
8
100
AcDbSymbolTableRecord
100
AcDbViewportTableRecord
  2
L3
 70
     0
 10
0.0
 20
0.5
 11
1.0
 21
1.0
 12
6.331119999999999
 22
25.021317
 13
0.0
 23
0.0
 14
0.5
 24
0.5
 15
0.5
 25
0.5
 16
0.0
 26
0.0
 36
1.0
 17
0.0
 27
0.0
 37
0.0
 40
207.433333
 41
0.085602
 42
50.0
 43
265.969659
 44
-265.969659
 50
0.0
 51
0.0
 71
     0
 72
   100
 73
     1
 74
     3
 75
     0
 76
     0
 77
     0
 78
     0
281
     0
 65
     1
110
0.0
120
0.0
130
0.0
111
1.0
121
0.0
131
0.0
112
0.0
122
1.0
132
0.0
 79
     0
146
0.0
  0
VPORT
  5
3AF
330
8
100
AcDbSymbolTableRecord
100
AcDbViewportTableRecord
  2
L3
 70
     0
 10
0.0
 20
0.0
 11
1.0
 21
0.5
 12
0.0
 22
0.0
 13
0.0
 23
0.0
 14
0.5
 24
0.5
 15
0.5
 25
0.5
 16
0.0
 26
-1.0
 36
0.0
 17
0.0
 27
0.0
 37
0.0
 40
1352.580743
 41
0.013128
 42
50.0
 43
697.6196049999999
 44
-697.6196049999999
 50
0.0
 51
0.0
 71
     0
 72
   100
 73
     1
 74
     3
 75
     0
 76
     0
 77
     0
 78
     0
281
     0
 65
     1
110
0.0
120
0.0
130
0.0
111
1.0
121
0.0
131
0.0
112
0.0
122
1.0
132
0.0
 79
     0
146
0.0
  0
VPORT
  5
3B0
330
8
100
AcDbSymbolTableRecord
100
AcDbViewportTableRecord
  2
L4
 70
     0
 10
0.0
 20
0.5
 11
0.5
 21
1.0
 12
6.331119999999999
 22
25.021317
 13
0.0
 23
0.0
 14
0.5
 24
0.5
 15
0.5
 25
0.5
 16
0.0
 26
0.0
 36
1.0
 17
0.0
 27
0.0
 37
0.0
 40
207.433333
 41
0.085602
 42
50.0
 43
265.969659
 44
-265.969659
 50
0.0
 51
0.0
 71
     0
 72
   100
 73
     1
 74
     3
 75
     0
 76
     0
 77
     0
 78
     0
281
     0
 65
     1
110
0.0
120
0.0
130
0.0
111
1.0
121
0.0
131
0.0
112
0.0
122
1.0
132
0.0
 79
     0
146
0.0
  0
VPORT
  5
3B1
330
8
100
AcDbSymbolTableRecord
100
AcDbViewportTableRecord
  2
L4
 70
     0
 10
0.0
 20
0.0
 11
0.5
 21
0.5
 12
0.0
 22
0.0
 13
0.0
 23
0.0
 14
0.5
 24
0.5
 15
0.5
 25
0.5
 16
0.0
 26
-1.0
 36
0.0
 17
0.0
 27
0.0
 37
0.0
 40
1352.580743
 41
0.013128
 42
50.0
 43
697.6196049999999
 44
-697.6196049999999
 50
0.0
 51
0.0
 71
     0
 72
   100
 73
     1
 74
     3
 75
     0
 76
     0
 77
     0
 78
     0
281
     0
 65
     1
110
0.0
120
0.0
130
0.0
111
1.0
121
0.0
131
0.0
112
0.0
122
1.0
132
0.0
 79
     0
146
0.0
  0
VPORT
  5
3B2
330
8
100
AcDbSymbolTableRecord
100
AcDbViewportTableRecord
  2
L4
 70
     0
 10
0.5
 20
0.0
 11
1.0
 21
0.5
 12
0.0
 22
0.0
 13
0.0
 23
0.0
 14
0.5
 24
0.5
 15
0.5
 25
0.5
 16
1.0
 26
0.0
 36
0.0
 17
0.0
 27
0.0
 37
0.0
 40
1352.580743
 41
0.013128
 42
50.0
 43
684.197204
 44
-684.197204
 50
0.0
 51
0.0
 71
     0
 72
   100
 73
     1
 74
     3
 75
     0
 76
     0
 77
     0
 78
     0
281
     0
 65
     1
110
0.0
120
0.0
130
0.0
111
1.0
121
0.0
131
0.0
112
0.0
122
1.0
132
0.0
 79
     0
146
0.0
  0
VPORT
  5
3B3
330
8
100
AcDbSymbolTableRecord
100
AcDbViewportTableRecord
  2
L4
 70
     0
 10
0.5
 20
0.5
 11
1.0
 21
1.0
 12
0.0
 22
0.0
 13
0.0
 23
0.0
 14
0.5
 24
0.5
 15
0.5
 25
0.5
 16
0.5773502691896259
 26
-0.5773502691896259
 36
0.5773502691896259
 17
0.0
 27
0.0
 37
0.0
 40
1328.834164
 41
0.013363
 42
50.0
 43
692.2684709999999
 44
-692.2684709999999
 50
0.0
 51
0.0
 71
     0
 72
   100
 73
     1
 74
     3
 75
     0
 76
     0
 77
     0
 78
     0
281
     0
 65
     1
110
0.0
120
0.0
130
0.0
111
1.0
121
0.0
131
0.0
112
0.0
122
1.0
132
0.0
 79
     0
146
0.0
  0
VPORT
  5
3B4
330
8
100
AcDbSymbolTableRecord
100
AcDbViewportTableRecord
  2
L6
 70
     0
 10
0.0
 20
0.5
 11
0.333333
 21
1.0
 12
0.0
 22
0.0
 13
0.0
 23
0.0
 14
0.5
 24
0.5
 15
0.5
 25
0.5
 16
0.7188730927569434
 26
-0.5850486126764433
 36
0.3754192287502549
 17
0.0
 27
0.0
 37
0.0
 40
1402.492696
 41
0.012661
 42
50.0
 43
726.139223
 44
-726.139223
 50
0.0
 51
0.0
 71
     0
 72
   100
 73
     1
 74
     3
 75
     0
 76
     0
 77
     0
 78
     0
281
     0
 65
     1
110
0.0
120
0.0
130
0.0
111
1.0
121
0.0
131
0.0
112
0.0
122
1.0
132
0.0
 79
     0
146
0.0
  0
VPORT
  5
3B5
330
8
100
AcDbSymbolTableRecord
100
AcDbViewportTableRecord
  2
L6
 70
     0
 10
0.0
 20
0.0
 11
0.333333
 21
0.5
 12
0.0
 22
0.0
 13
0.0
 23
0.0
 14
0.5
 24
0.5
 15
0.5
 25
0.5
 16
-1.0
 26
0.0
 36
0.0
 17
0.0
 27
0.0
 37
0.0
 40
1352.580743
 41
0.013128
 42
50.0
 43
684.197204
 44
-684.197204
 50
0.0
 51
0.0
 71
     0
 72
   100
 73
     1
 74
     3
 75
     0
 76
     0
 77
     0
 78
     0
281
     0
 65
     1
110
0.0
120
0.0
130
0.0
111
1.0
121
0.0
131
0.0
112
0.0
122
1.0
132
0.0
 79
     0
146
0.0
  0
VPORT
  5
3B6
330
8
100
AcDbSymbolTableRecord
100
AcDbViewportTableRecord
  2
L6
 70
     0
 10
0.333333
 20
0.5
 11
0.666667
 21
1.0
 12
6.331119999999999
 22
25.021317
 13
0.0
 23
0.0
 14
0.5
 24
0.5
 15
0.5
 25
0.5
 16
0.0
 26
0.0
 36
1.0
 17
0.0
 27
0.0
 37
0.0
 40
207.433333
 41
0.085602
 42
50.0
 43
265.969659
 44
-265.969659
 50
0.0
 51
0.0
 71
     0
 72
   100
 73
     1
 74
     3
 75
     0
 76
     0
 77
     0
 78
     0
281
     0
 65
     1
110
0.0
120
0.0
130
0.0
111
1.0
121
0.0
131
0.0
112
0.0
122
1.0
132
0.0
 79
     0
146
0.0
  0
VPORT
  5
3B7
330
8
100
AcDbSymbolTableRecord
100
AcDbViewportTableRecord
  2
L6
 70
     0
 10
0.333333
 20
0.0
 11
0.666667
 21
0.5
 12
0.0
 22
0.0
 13
0.0
 23
0.0
 14
0.5
 24
0.5
 15
0.5
 25
0.5
 16
0.0
 26
-1.0
 36
0.0
 17
0.0
 27
0.0
 37
0.0
 40
1352.580743
 41
0.013128
 42
50.0
 43
697.6196049999999
 44
-697.6196049999999
 50
0.0
 51
0.0
 71
     0
 72
   100
 73
     1
 74
     3
 75
     0
 76
     0
 77
     0
 78
     0
281
     0
 65
     1
110
0.0
120
0.0
130
0.0
111
1.0
121
0.0
131
0.0
112
0.0
122
1.0
132
0.0
 79
     0
146
0.0
  0
VPORT
  5
3B8
330
8
100
AcDbSymbolTableRecord
100
AcDbViewportTableRecord
  2
L6
 70
     0
 10
0.666667
 20
0.5
 11
1.0
 21
1.0
 12
0.0
 22
0.0
 13
0.0
 23
0.0
 14
0.5
 24
0.5
 15
0.5
 25
0.5
 16
0.5773502691896259
 26
-0.5773502691896259
 36
0.5773502691896259
 17
0.0
 27
0.0
 37
0.0
 40
1328.834164
 41
0.013363
 42
50.0
 43
692.2684709999999
 44
-692.2684709999999
 50
0.0
 51
0.0
 71
     0
 72
   100
 73
     1
 74
     3
 75
     0
 76
     0
 77
     0
 78
     0
281
     0
 65
     1
110
0.0
120
0.0
130
0.0
111
1.0
121
0.0
131
0.0
112
0.0
122
1.0
132
0.0
 79
     0
146
0.0
  0
VPORT
  5
3B9
330
8
100
AcDbSymbolTableRecord
100
AcDbViewportTableRecord
  2
L6
 70
     0
 10
0.666667
 20
0.0
 11
1.0
 21
0.5
 12
0.0
 22
0.0
 13
0.0
 23
0.0
 14
0.5
 24
0.5
 15
0.5
 25
0.5
 16
1.0
 26
0.0
 36
0.0
 17
0.0
 27
0.0
 37
0.0
 40
1352.580743
 41
0.013128
 42
50.0
 43
684.197204
 44
-684.197204
 50
0.0
 51
0.0
 71
     0
 72
   100
 73
     1
 74
     3
 75
     0
 76
     0
 77
     0
 78
     0
281
     0
 65
     1
110
0.0
120
0.0
130
0.0
111
1.0
121
0.0
131
0.0
112
0.0
122
1.0
132
0.0
 79
     0
146
0.0
  0
ENDTAB
  0
TABLE
  2
LTYPE
  5
5
330
0
100
AcDbSymbolTable
 70
     6
  0
LTYPE
  5
14
330
5
100
AcDbSymbolTableRecord
100
AcDbLinetypeTableRecord
  2
ByBlock
 70
     0
  3

 72
    65
 73
     0
 40
0.0
  0
LTYPE
  5
15
330
5
100
AcDbSymbolTableRecord
100
AcDbLinetypeTableRecord
  2
ByLayer
 70
     0
  3

 72
    65
 73
     0
 40
0.0
  0
LTYPE
  5
16
330
5
100
AcDbSymbolTableRecord
100
AcDbLinetypeTableRecord
  2
Continuous
 70
     0
  3
Solid line
 72
    65
 73
     0
 40
0.0
  0
LTYPE
  5
6E
330
5
100
AcDbSymbolTableRecord
100
AcDbLinetypeTableRecord
  2
CENTER
 70
     0
  3
____ _ ____ _ ____ _ ____
 72
    65
 73
     4
 40
47.4
 49
22.0
 74
     4
 75
     0
340
0
 46
0.0
 50
0.0
 44
0.0
 45
0.0
 49
-8.5
 74
     4
 75
     0
340
0
 46
0.0
 50
0.0
 44
0.0
 45
0.0
 49
8.5
 74
     4
 75
     0
340
0
 46
0.0
 50
0.0
 44
0.0
 45
0.0
 49
-8.5
 74
     4
 75
     0
340
0
 46
0.0
 50
0.0
 44
0.0
 45
0.0
  0
LTYPE
  5
6F
330
5
100
AcDbSymbolTableRecord
100
AcDbLinetypeTableRecord
  2
DASHDOT
 70
     0
  3
_._._._._._._._._._._._._._._._.
 72
    65
 73
     4
 40
70.0
 49
31.0
 74
     4
 75
     0
340
0
 46
0.0
 50
0.0
 44
0.0
 45
0.0
 49
-13.0
 74
     4
 75
     0
340
0
 46
0.0
 50
0.0
 44
0.0
 45
0.0
 49
13.0
 74
     4
 75
     0
340
0
 46
0.0
 50
0.0
 44
0.0
 45
0.0
 49
-13.0
 74
     4
 75
     0
340
0
 46
0.0
 50
0.0
 44
0.0
 45
0.0
  0
LTYPE
  5
70
330
5
100
AcDbSymbolTableRecord
100
AcDbLinetypeTableRecord
  2
DASHED
 70
     0
  3
__ __ __ __ __ __ __ __ __
 72
    65
 73
     2
 40
25.72
 49
12.86
 74
     4
 75
     0
340
0
 46
0.0
 50
0.0
 44
0.0
 45
0.0
 49
-12.86
 74
     4
 75
     0
340
0
 46
0.0
 50
0.0
 44
0.0
 45
0.0
  0
LTYPE
  5
71
330
5
100
AcDbSymbolTableRecord
100
AcDbLinetypeTableRecord
  2
DOT
 70
     0
  3
.........................
 72
    65
 73
     2
 40
10.0
 49
0.0
 74
     4
 75
     0
340
0
 46
0.0
 50
0.0
 44
0.0
 45
0.0
 49
-10.0
 74
     4
 75
     0
340
0
 46
0.0
 50
0.0
 44
0.0
 45
0.0
  0
LTYPE
  5
72
330
5
100
AcDbSymbolTableRecord
100
AcDbLinetypeTableRecord
  2
PHANTOM
 70
     0
  3
____ _ _ ____ _ _ _____ _ _ ____
 72
    65
 73
     6
 40
50.5
 49
18.0
 74
     4
 75
     0
340
0
 46
0.0
 50
0.0
 44
0.0
 45
0.0
 49
-6.5
 74
     4
 75
     0
340
0
 46
0.0
 50
0.0
 44
0.0
 45
0.0
 49
6.5
 74
     4
 75
     0
340
0
 46
0.0
 50
0.0
 44
0.0
 45
0.0
 49
-6.5
 74
     4
 75
     0
340
0
 46
0.0
 50
0.0
 44
0.0
 45
0.0
 49
6.5
 74
     4
 75
     0
340
0
 46
0.0
 50
0.0
 44
0.0
 45
0.0
 49
-6.5
 74
     4
 75
     0
340
0
 46
0.0
 50
0.0
 44
0.0
 45
0.0
  0
ENDTAB
  0
TABLE
  2
LAYER
  5
2
330
0
100
AcDbSymbolTable
 70
    14
  0
LAYER
  5
10
102
{ACAD_XDICTIONARY
360
60E
102
}
330
2
100
AcDbSymbolTableRecord
100
AcDbLayerTableRecord
  2
0
 70
     0
 62
     7
  6
Continuous
370
    -3
390
F
  0
LAYER
  5
601
102
{ACAD_XDICTIONARY
360
610
102
}
330
2
100
AcDbSymbolTableRecord
100
AcDbLayerTableRecord
  2
1
 70
     0
 62
     4
  6
Continuous
370
    -3
390
F
  0
LAYER
  5
602
102
{ACAD_XDICTIONARY
360
612
102
}
330
2
100
AcDbSymbolTableRecord
100
AcDbLayerTableRecord
  2
2
 70
     0
 62
     7
  6
Continuous
370
    -3
390
F
  0
LAYER
  5
603
102
{ACAD_XDICTIONARY
360
614
102
}
330
2
100
AcDbSymbolTableRecord
100
AcDbLayerTableRecord
  2
4
 70
     0
 62
     2
  6
CENTER
370
    -3
390
F
  0
LAYER
  5
605
102
{ACAD_XDICTIONARY
360
616
102
}
330
2
100
AcDbSymbolTableRecord
100
AcDbLayerTableRecord
  2
SK2
 70
     0
 62
     7
  6
Continuous
370
    -3
390
F
  0
LAYER
  5
606
102
{ACAD_XDICTIONARY
360
618
102
}
330
2
100
AcDbSymbolTableRecord
100
AcDbLayerTableRecord
  2
SK3
 70
     0
 62
     1
  6
DASHED
370
    -3
390
F
  0
LAYER
  5
607
102
{ACAD_XDICTIONARY
360
61A
102
}
330
2
100
AcDbSymbolTableRecord
100
AcDbLayerTableRecord
  2
SK4
 70
     0
 62
     2
  6
CENTER
370
    -3
390
F
  0
LAYER
  5
608
102
{ACAD_XDICTIONARY
360
61C
102
}
330
2
100
AcDbSymbolTableRecord
100
AcDbLayerTableRecord
  2
SK6
 70
     0
 62
     5
  6
Continuous
370
    -3
390
F
  0
LAYER
  5
609
102
{ACAD_XDICTIONARY
360
61E
102
}
330
2
100
AcDbSymbolTableRecord
100
AcDbLayerTableRecord
  2
CUT
 70
     0
 62
     1
  6
Continuous
370
    -3
390
F
  0
LAYER
  5
60A
102
{ACAD_XDICTIONARY
360
620
102
}
330
2
100
AcDbSymbolTableRecord
100
AcDbLayerTableRecord
  2
NOCUT
 70
     0
 62
     7
  6
Continuous
370
    -3
390
F
  0
LAYER
  5
60B
102
{ACAD_XDICTIONARY
360
622
102
}
330
2
100
AcDbSymbolTableRecord
100
AcDbLayerTableRecord
  2
80
 70
     0
 62
     6
  6
Continuous
370
    -3
390
F
  0
LAYER
  5
60C
102
{ACAD_XDICTIONARY
360
624
102
}
330
2
100
AcDbSymbolTableRecord
100
AcDbLayerTableRecord
  2
81
 70
     0
 62
     3
  6
Continuous
370
    -3
390
F
  0
LAYER
  5
60D
102
{ACAD_XDICTIONARY
360
626
102
}
330
2
100
AcDbSymbolTableRecord
100
AcDbLayerTableRecord
  2
SK1
 70
     0
 62
     4
  6
Continuous
370
    -3
390
F
  0
LAYER
  5
406
330
2
100
AcDbSymbolTableRecord
100
AcDbLayerTableRecord
  2
Defpoints
 70
     0
 62
     7
  6
Continuous
290
     0
370
    -3
390
F
  0
ENDTAB
  0
TABLE
  2
STYLE
  5
3
330
0
100
AcDbSymbolTable
 70
     2
  0
STYLE
  5
11
330
3
100
AcDbSymbolTableRecord
100
AcDbTextStyleTableRecord
  2
Standard
 70
     0
 40
0.0
 41
1.0
 50
0.0
 71
     0
 42
0.2
  3
txt
  4

  0
STYLE
  5
30F
330
3
100
AcDbSymbolTableRecord
100
AcDbTextStyleTableRecord
  2
Arial
 70
     0
 40
0.0
 41
1.0
 50
0.0
 71
     0
 42
0.2
  3
Arial
  4

1001
ACAD
1000
Arial
1071
        0
  0
ENDTAB
  0
TABLE
  2
VIEW
  5
6
330
0
100
AcDbSymbolTable
 70
     8
  0
VIEW
  5
3A3
330
6
100
AcDbSymbolTableRecord
100
AcDbViewTableRecord
  2
Top
 70
     0
 40
207.433333
 10
6.331119999999999
 20
25.021317
 41
342.370833
 11
0.0
 21
0.0
 31
1.0
 12
0.0
 22
0.0
 32
0.0
 42
50.0
 43
265.969659
 44
-265.969659
 50
0.0
 71
     0
281
     0
 72
     0
  0
VIEW
  5
3A4
330
6
100
AcDbSymbolTableRecord
100
AcDbViewTableRecord
  2
Front
 70
     0
 40
1352.580743
 10
0.0
 20
0.0
 41
342.370833
 11
0.0
 21
-1.0
 31
0.0
 12
0.0
 22
0.0
 32
0.0
 42
50.0
 43
697.6196049999999
 44
-697.6196049999999
 50
0.0
 71
     0
281
     0
 72
     0
  0
VIEW
  5
3A5
330
6
100
AcDbSymbolTableRecord
100
AcDbViewTableRecord
  2
Right
 70
     0
 40
1352.580743
 10
0.0
 20
0.0
 41
207.433333
 11
1.0
 21
0.0
 31
0.0
 12
0.0
 22
0.0
 32
0.0
 42
50.0
 43
684.197204
 44
-684.197204
 50
0.0
 71
     0
281
     0
 72
     0
  0
VIEW
  5
3A6
330
6
100
AcDbSymbolTableRecord
100
AcDbViewTableRecord
  2
Back
 70
     0
 40
1352.580743
 10
0.0
 20
0.0
 41
342.370833
 11
0.0
 21
1.0
 31
0.0
 12
0.0
 22
0.0
 32
0.0
 42
50.0
 43
697.6196049999999
 44
-697.6196049999999
 50
0.0
 71
     0
281
     0
 72
     0
  0
VIEW
  5
3A7
330
6
100
AcDbSymbolTableRecord
100
AcDbViewTableRecord
  2
Bottom
 70
     0
 40
207.433333
 10
0.0
 20
0.0
 41
342.370833
 11
0.0
 21
0.0
 31
-1.0
 12
0.0
 22
0.0
 32
0.0
 42
50.0
 43
676.2903719999999
 44
-676.2903719999999
 50
180.0
 71
     0
281
     0
 72
     0
  0
VIEW
  5
3A8
330
6
100
AcDbSymbolTableRecord
100
AcDbViewTableRecord
  2
Left
 70
     0
 40
1352.580743
 10
0.0
 20
0.0
 41
207.433333
 11
-1.0
 21
0.0
 31
0.0
 12
0.0
 22
0.0
 32
0.0
 42
50.0
 43
684.197204
 44
-684.197204
 50
0.0
 71
     0
281
     0
 72
     0
  0
VIEW
  5
3A9
330
6
100
AcDbSymbolTableRecord
100
AcDbViewTableRecord
  2
Isometric
 70
     0
 40
1328.834164
 10
0.0
 20
0.0
 41
388.770255
 11
0.5773502691896259
 21
-0.5773502691896259
 31
0.5773502691896259
 12
0.0
 22
0.0
 32
0.0
 42
50.0
 43
692.2684709999999
 44
-692.2684709999999
 50
0.0
 71
     0
281
     0
 72
     0
  0
VIEW
  5
3AA
330
6
100
AcDbSymbolTableRecord
100
AcDbViewTableRecord
  2
Trimetric
 70
     0
 40
1402.492696
 10
0.0
 20
0.0
 41
376.997243
 11
0.7188730927569434
 21
-0.5850486126764433
 31
0.3754192287502549
 12
0.0
 22
0.0
 32
0.0
 42
50.0
 43
726.139223
 44
-726.139223
 50
0.0
 71
     0
281
     0
 72
     0
  0
ENDTAB
  0
TABLE
  2
UCS
  5
7
330
0
100
AcDbSymbolTable
 70
     0
  0
ENDTAB
  0
TABLE
  2
APPID
  5
9
330
0
100
AcDbSymbolTable
 70
     7
  0
APPID
  5
12
330
9
100
AcDbSymbolTableRecord
100
AcDbRegAppTableRecord
  2
ACAD
 70
     0
  0
APPID
  5
310
330
9
100
AcDbSymbolTableRecord
100
AcDbRegAppTableRecord
  2
ACAD_DSTYLE_DIMBREAK
 70
     0
  0
APPID
  5
3BA
330
9
100
AcDbSymbolTableRecord
100
AcDbRegAppTableRecord
  2
ACAD_DSTYLE_DIM_LINETYPE
 70
     0
  0
APPID
  5
3BB
330
9
100
AcDbSymbolTableRecord
100
AcDbRegAppTableRecord
  2
ACAD_DSTYLE_DIM_EXT1_LINETYPE
 70
     0
  0
APPID
  5
3BC
330
9
100
AcDbSymbolTableRecord
100
AcDbRegAppTableRecord
  2
ACAD_DSTYLE_DIM_EXT2_LINETYPE
 70
     0
  0
APPID
  5
3FC
330
9
100
AcDbSymbolTableRecord
100
AcDbRegAppTableRecord
  2
ACAD_MLEADERVER
 70
     0
  0
APPID
  5
641
330
9
100
AcDbSymbolTableRecord
100
AcDbRegAppTableRecord
  2
ACAD_NAV_VCDISPLAY
 70
     0
  0
ENDTAB
  0
TABLE
  2
DIMSTYLE
  5
A
330
0
100
AcDbSymbolTable
 70
     1
100
AcDbDimStyleTable
 71
     0
  0
DIMSTYLE
105
27
102
{ACAD_REACTORS
330
311
330
32B
330
345
330
35B
330
373
330
38B
102
}
330
A
100
AcDbSymbolTableRecord
100
AcDbDimStyleTableRecord
  2
Standard
 70
     0
340
11
1001
ACAD_DSTYLE_DIMBREAK
1070
   391
1040
6.349999999999999
  0
ENDTAB
  0
TABLE
  2
BLOCK_RECORD
  5
1
330
0
100
AcDbSymbolTable
 70
    13
  0
BLOCK_RECORD
  5
1F
330
1
100
AcDbSymbolTableRecord
100
AcDbBlockTableRecord
  2
*Model_Space
340
22
  0
BLOCK_RECORD
  5
1B
330
1
100
AcDbSymbolTableRecord
100
AcDbBlockTableRecord
  2
*Paper_Space
340
1E
  0
BLOCK_RECORD
  5
23
330
1
100
AcDbSymbolTableRecord
100
AcDbBlockTableRecord
  2
*Paper_Space0
340
26
  0
BLOCK_RECORD
  5
315
330
1
100
AcDbSymbolTableRecord
100
AcDbBlockTableRecord
  2
*D1
340
0
  0
BLOCK_RECORD
  5
321
330
1
100
AcDbSymbolTableRecord
100
AcDbBlockTableRecord
  2
_U0
340
0
  0
BLOCK_RECORD
  5
32E
330
1
100
AcDbSymbolTableRecord
100
AcDbBlockTableRecord
  2
*D3
340
0
  0
BLOCK_RECORD
  5
33C
330
1
100
AcDbSymbolTableRecord
100
AcDbBlockTableRecord
  2
_U1
340
0
  0
BLOCK_RECORD
  5
348
330
1
100
AcDbSymbolTableRecord
100
AcDbBlockTableRecord
  2
*D5
340
0
  0
BLOCK_RECORD
  5
353
330
1
100
AcDbSymbolTableRecord
100
AcDbBlockTableRecord
  2
_U2
340
0
  0
BLOCK_RECORD
  5
35E
330
1
100
AcDbSymbolTableRecord
100
AcDbBlockTableRecord
  2
*D7
340
0
  0
BLOCK_RECORD
  5
36A
330
1
100
AcDbSymbolTableRecord
100
AcDbBlockTableRecord
  2
_U3
340
0
  0
BLOCK_RECORD
  5
376
330
1
100
AcDbSymbolTableRecord
100
AcDbBlockTableRecord
  2
*D9
340
0
  0
BLOCK_RECORD
  5
382
330
1
100
AcDbSymbolTableRecord
100
AcDbBlockTableRecord
  2
_U4
340
0
  0
BLOCK_RECORD
  5
38E
330
1
100
AcDbSymbolTableRecord
100
AcDbBlockTableRecord
  2
*D11
340
0
  0
BLOCK_RECORD
  5
39A
330
1
100
AcDbSymbolTableRecord
100
AcDbBlockTableRecord
  2
_U5
340
0
  0
ENDTAB
  0
ENDSEC
  0
SECTION
  2
BLOCKS
  0
BLOCK
  5
20
330
1F
100
AcDbEntity
  8
0
100
AcDbBlockBegin
  2
*Model_Space
 70
     0
 10
0.0
 20
0.0
 30
0.0
  3
*Model_Space
  1

  0
ENDBLK
  5
21
330
1F
100
AcDbEntity
  8
0
100
AcDbBlockEnd
  0
BLOCK
  5
1C
330
1B
100
AcDbEntity
 67
     1
  8
0
100
AcDbBlockBegin
  2
*Paper_Space
 70
     0
 10
0.0
 20
0.0
 30
0.0
  3
*Paper_Space
  1

  0
ENDBLK
  5
1D
330
1B
100
AcDbEntity
 67
     1
  8
0
100
AcDbBlockEnd
  0
BLOCK
  5
24
330
23
100
AcDbEntity
 67
     1
  8
0
100
AcDbBlockBegin
  2
*Paper_Space0
 70
     0
 10
0.0
 20
0.0
 30
0.0
  3
*Paper_Space0
  1

  0
ENDBLK
  5
25
330
23
100
AcDbEntity
 67
     1
  8
0
100
AcDbBlockEnd
  0
BLOCK
  5
316
330
315
100
AcDbEntity
  8
0
100
AcDbBlockBegin
  2
*D1
 70
     1
 10
0.0
 20
0.0
 30
0.0
  3
*D1
  1

  0
LINE
  5
318
330
315
100
AcDbEntity
  8
SK2
370
    -2
100
AcDbLine
 10
49.8
 20
9.525
 30
0.0
 11
-69.157196
 21
9.525
 31
0.0
  0
LINE
  5
319
330
315
100
AcDbEntity
  8
SK2
370
    -2
100
AcDbLine
 10
-54.7
 20
-9.525
 30
0.0
 11
-69.157196
 21
-9.525
 31
0.0
  0
LINE
  5
31A
330
315
100
AcDbEntity
  8
SK2
370
    -2
100
AcDbLine
 10
-67.15719599999999
 20
7.025
 30
0.0
 11
-67.15719599999999
 21
-7.025
 31
0.0
  0
SOLID
  5
31B
330
315
100
AcDbEntity
  8
SK2
100
AcDbTrace
 10
-66.74052900000001
 20
7.025
 30
0.0
 11
-67.573863
 21
7.025
 31
0.0
 12
-67.15719599999999
 22
9.525
 32
0.0
 13
-67.15719599999999
 23
9.525
 33
0.0
  0
SOLID
  5
31C
330
315
100
AcDbEntity
  8
SK2
100
AcDbTrace
 10
-67.573863
 20
-7.025
 30
0.0
 11
-66.74052900000001
 21
-7.025
 31
0.0
 12
-67.15719599999999
 22
-9.525
 32
0.0
 13
-67.15719599999999
 23
-9.525
 33
0.0
  0
MTEXT
  5
31D
330
315
100
AcDbEntity
  8
SK2
370
    18
100
AcDbMText
 10
-70.93344599999999
 20
0.0
 30
0.0
 40
2.5
 41
0.0
 71
     5
 72
     1
  1
\A1;19.1
  7
Arial
 11
0.0
 21
1.0
 31
0.0
 73
     1
 44
1.0
1001
ACAD
1000
MTEXTBEGIN
1070
    73
1070
     1
1070
    44
1040
1.0
1070
    74
1070
     0
1000
MTEXTEND
  0
POINT
  5
31E
330
315
100
AcDbEntity
  8
Defpoints
 62
     0
100
AcDbPoint
 10
50.8
 20
9.525
 30
0.0
  0
POINT
  5
31F
330
315
100
AcDbEntity
  8
Defpoints
 62
     0
100
AcDbPoint
 10
-53.7
 20
-9.525
 30
0.0
  0
POINT
  5
320
330
315
100
AcDbEntity
  8
Defpoints
 62
     0
100
AcDbPoint
 10
-67.15719599999999
 20
-9.525
 30
0.0
  0
ENDBLK
  5
317
330
315
100
AcDbEntity
  8
0
100
AcDbBlockEnd
  0
BLOCK
  5
329
330
321
100
AcDbEntity
  8
0
100
AcDbBlockBegin
  2
_U0
 70
     0
 10
0.0
 20
0.0
 30
0.0
  3
_U0
  1

  0
MTEXT
  5
322
330
321
100
AcDbEntity
  8
SK2
370
    13
100
AcDbMText
 10
-68.030878
 20
0.15277
 30
0.0
 40
2.5
 41
0.0
 71
     7
 72
     5
  1
\fArial|b0|i0;\W1.0000;19
  7
Arial
 11
0.0000000000000001
 21
1.0
 31
0.0
 73
     2
 44
1.047437
1001
ACAD
1000
MTEXTBEGIN
1070
    73
1070
     2
1070
    44
1040
1.047437
1070
    74
1070
     0
1000
MTEXTEND
  0
MTEXT
  5
323
330
321
100
AcDbEntity
  8
SK2
370
    13
100
AcDbMText
 10
-68.030878
 20
-4.06249
 30
0.0
 40
2.5
 41
0.0
 71
     7
 72
     5
  1
\fArial|b0|i0;%%c
  7
Arial
 11
0.0000000000000001
 21
1.0
 31
0.0
 73
     2
 44
1.047437
1001
ACAD
1000
MTEXTBEGIN
1070
    73
1070
     2
1070
    44
1040
1.047437
1070
    74
1070
     0
1000
MTEXTEND
  0
LINE
  5
324
330
321
100
AcDbEntity
  8
SK2
370
    13
100
AcDbLine
 10
-54.7
 20
9.525
 30
0.0
 11
-69.157196
 21
9.525
 31
0.0
  0
LINE
  5
325
330
321
100
AcDbEntity
  8
SK2
370
    13
100
AcDbLine
 10
-54.7
 20
-9.525
 30
0.0
 11
-69.157196
 21
-9.525
 31
0.0
  0
LINE
  5
326
330
321
100
AcDbEntity
  8
SK2
370
    13
100
AcDbLine
 10
-67.15719599999999
 20
9.525
 30
0.0
 11
-67.15719599999999
 21
-9.525
 31
0.0
  0
SOLID
  5
327
330
321
100
AcDbEntity
  8
SK2
370
    18
100
AcDbTrace
 10
-67.15719599999999
 20
9.525
 30
0.0
 11
-66.716379
 21
7.025002
 31
0.0
 12
-67.59801299999999
 22
7.024997999999999
 32
0.0
 13
-67.59801299999999
 23
7.024997999999999
 33
0.0
  0
SOLID
  5
328
330
321
100
AcDbEntity
  8
SK2
370
    18
100
AcDbTrace
 10
-67.15719599999999
 20
-9.525
 30
0.0
 11
-67.59801299999999
 21
-7.025002
 31
0.0
 12
-66.716379
 22
-7.024997999999999
 32
0.0
 13
-66.716379
 23
-7.024997999999999
 33
0.0
  0
ENDBLK
  5
32A
330
321
100
AcDbEntity
  8
0
100
AcDbBlockEnd
  0
BLOCK
  5
32F
330
32E
100
AcDbEntity
  8
0
100
AcDbBlockBegin
  2
*D3
 70
     1
 10
0.0
 20
0.0
 30
0.0
  3
*D3
  1

  0
LINE
  5
331
330
32E
100
AcDbEntity
  8
2
370
    -2
100
AcDbLine
 10
68.3
 20
10.466102
 30
0.0
 11
68.3
 21
17.019884
 31
0.0
  0
LINE
  5
332
330
32E
100
AcDbEntity
  8
2
370
    -2
100
AcDbLine
 10
70.8
 20
11.525
 30
0.0
 11
70.8
 21
17.019884
 31
0.0
  0
LINE
  5
333
330
32E
100
AcDbEntity
  8
2
370
    -2
100
AcDbLine
 10
70.8
 20
15.019884
 30
0.0
 11
86.78127399999999
 21
15.019884
 31
0.0
  0
LINE
  5
334
330
32E
100
AcDbEntity
  8
2
370
    -2
100
AcDbLine
 10
65.8
 20
15.019884
 30
0.0
 11
63.3
 21
15.019884
 31
0.0
  0
LINE
  5
335
330
32E
100
AcDbEntity
  8
2
370
    -2
100
AcDbLine
 10
73.3
 20
15.019884
 30
0.0
 11
75.8
 21
15.019884
 31
0.0
  0
SOLID
  5
336
330
32E
100
AcDbEntity
  8
2
100
AcDbTrace
 10
65.8
 20
14.603217
 30
0.0
 11
65.8
 21
15.436551
 31
0.0
 12
68.3
 22
15.019884
 32
0.0
 13
68.3
 23
15.019884
 33
0.0
  0
SOLID
  5
337
330
32E
100
AcDbEntity
  8
2
100
AcDbTrace
 10
73.3
 20
15.436551
 30
0.0
 11
73.3
 21
14.603217
 31
0.0
 12
70.8
 22
15.019884
 32
0.0
 13
70.8
 23
15.019884
 33
0.0
  0
MTEXT
  5
338
330
32E
100
AcDbEntity
  8
2
370
    18
100
AcDbMText
 10
81.977524
 20
18.796134
 30
0.0
 40
2.5
 41
0.0
 71
     5
 72
     1
  1
\A1;2.5
  7
Arial
 73
     1
 44
1.0
1001
ACAD
1000
MTEXTBEGIN
1070
    73
1070
     1
1070
    44
1040
1.0
1070
    74
1070
     0
1000
MTEXTEND
  0
POINT
  5
339
330
32E
100
AcDbEntity
  8
Defpoints
 62
     0
100
AcDbPoint
 10
68.3
 20
9.466102000000001
 30
0.0
  0
POINT
  5
33A
330
32E
100
AcDbEntity
  8
Defpoints
 62
     0
100
AcDbPoint
 10
70.8
 20
10.525
 30
0.0
  0
POINT
  5
33B
330
32E
100
AcDbEntity
  8
Defpoints
 62
     0
100
AcDbPoint
 10
70.8
 20
15.019884
 30
0.0
  0
ENDBLK
  5
330
330
32E
100
AcDbEntity
  8
0
100
AcDbBlockEnd
  0
BLOCK
  5
343
330
33C
100
AcDbEntity
  8
0
100
AcDbBlockBegin
  2
_U1
 70
     0
 10
0.0
 20
0.0
 30
0.0
  3
_U1
  1

  0
LINE
  5
62F
330
33C
100
AcDbEntity
  8
2
  6
Continuous
 62
   254
370
    13
100
AcDbLine
 10
65.83882940870342
 20
10.36666277929328
 30
0.0
 11
65.83882940870342
 21
17.019884
 31
0.0
  0
LINE
  5
630
330
33C
100
AcDbEntity
  8
2
  6
Continuous
 62
   254
370
    13
100
AcDbLine
 10
70.8
 20
11.525
 30
0.0
 11
70.8
 21
17.019884
 31
0.0
  0
LINE
  5
631
330
33C
100
AcDbEntity
  8
2
  6
Continuous
 62
   254
370
    13
100
AcDbLine
 10
63.33882940870342
 20
15.019884
 30
0.0
 11
60.83882940870342
 21
15.019884
 31
0.0
  0
LINE
  5
632
330
33C
100
AcDbEntity
  8
2
  6
Continuous
 62
   254
370
    13
100
AcDbLine
 10
73.3
 20
15.019884
 30
0.0
 11
84.05630981173262
 21
15.019884
 31
0.0
  0
LINE
  5
633
330
33C
100
AcDbEntity
  8
2
  6
Continuous
 62
   254
370
    13
100
AcDbLine
 10
65.83882940870342
 20
15.019884
 30
0.0
 11
70.8
 21
15.019884
 31
0.0
  0
SOLID
  5
634
330
33C
100
AcDbEntity
  8
2
 62
   254
370
    18
100
AcDbTrace
 10
63.33882940870342
 20
15.43655066666666
 30
0.0
 11
63.33882940870342
 21
14.60321733333333
 31
0.0
 12
65.83882940870342
 22
15.019884
 32
0.0
 13
65.83882940870342
 23
15.019884
 33
0.0
  0
SOLID
  5
635
330
33C
100
AcDbEntity
  8
2
 62
   254
370
    18
100
AcDbTrace
 10
73.3
 20
15.43655066666666
 30
0.0
 11
73.3
 21
14.60321733333333
 31
0.0
 12
70.8
 22
15.019884
 32
0.0
 13
70.8
 23
15.019884
 33
0.0
  0
MTEXT
  5
636
330
33C
100
AcDbEntity
  8
2
 62
   254
370
    13
100
AcDbMText
 10
81.1487381882674
 20
18.81251701500682
 30
0.0
 40
2.5
 41
0.0
 71
     1
 72
     1
  1
\A1;5
  7
Arial
 73
     1
 44
1.0
1001
ACAD
1000
MTEXTBEGIN
1070
    73
1070
     1
1070
    44
1040
1.0
1070
    74
1070
     0
1000
MTEXTEND
  0
POINT
  5
637
330
33C
100
AcDbEntity
  8
Defpoints
 62
     0
370
    18
100
AcDbPoint
 10
65.83882940870342
 20
9.366662779293278
 30
0.0
  0
POINT
  5
638
330
33C
100
AcDbEntity
  8
Defpoints
 62
     0
370
    18
100
AcDbPoint
 10
70.8
 20
10.525
 30
0.0
  0
POINT
  5
639
330
33C
100
AcDbEntity
  8
Defpoints
 62
     0
370
    18
100
AcDbPoint
 10
70.8
 20
15.019884
 30
0.0
  0
ENDBLK
  5
344
330
33C
100
AcDbEntity
  8
0
100
AcDbBlockEnd
  0
BLOCK
  5
349
330
348
100
AcDbEntity
  8
0
100
AcDbBlockBegin
  2
*D5
 70
     1
 10
0.0
 20
0.0
 30
0.0
  3
*D5
  1

  0
LINE
  5
34B
330
348
100
AcDbEntity
  8
2
370
    -2
100
AcDbLine
 10
70.8
 20
9.525
 30
0.0
 11
83.84280399999999
 21
9.525
 31
0.0
  0
LINE
  5
34C
330
348
100
AcDbEntity
  8
2
370
    -2
100
AcDbLine
 10
71.79999999999999
 20
-9.525
 30
0.0
 11
83.84280399999999
 21
-9.525
 31
0.0
  0
LINE
  5
34D
330
348
100
AcDbEntity
  8
2
370
    -2
100
AcDbLine
 10
81.842804
 20
7.025
 30
0.0
 11
81.842804
 21
-6.605
 31
0.0
  0
SOLID
  5
34E
330
348
100
AcDbEntity
  8
2
100
AcDbTrace
 10
82.25947099999999
 20
7.025
 30
0.0
 11
81.426137
 21
7.025
 31
0.0
 12
81.842804
 22
9.525
 32
0.0
 13
81.842804
 23
9.525
 33
0.0
  0
MTEXT
  5
34F
330
348
100
AcDbEntity
  8
2
370
    18
100
AcDbMText
 10
78.06655400000001
 20
0.0
 30
0.0
 40
2.5
 41
0.0
 71
     5
 72
     1
  1
\A1;19.05
  7
Arial
 11
0.0
 21
1.0
 31
0.0
 73
     1
 44
1.0
1001
ACAD
1000
MTEXTBEGIN
1070
    73
1070
     1
1070
    44
1040
1.0
1070
    74
1070
     0
1000
MTEXTEND
  0
POINT
  5
350
330
348
100
AcDbEntity
  8
Defpoints
 62
     0
100
AcDbPoint
 10
69.8
 20
9.525
 30
0.0
  0
POINT
  5
351
330
348
100
AcDbEntity
  8
Defpoints
 62
     0
100
AcDbPoint
 10
70.8
 20
-9.525
 30
0.0
  0
POINT
  5
352
330
348
100
AcDbEntity
  8
Defpoints
 62
     0
100
AcDbPoint
 10
81.842804
 20
-9.525
 30
0.0
  0
ENDBLK
  5
34A
330
348
100
AcDbEntity
  8
0
100
AcDbBlockEnd
  0
BLOCK
  5
359
330
353
100
AcDbEntity
  8
0
100
AcDbBlockBegin
  2
_U2
 70
     0
 10
0.0
 20
0.0
 30
0.0
  3
_U2
  1

  0
MTEXT
  5
354
330
353
100
AcDbEntity
  8
2
370
    13
100
AcDbMText
 10
80.969122
 20
-2.649754
 30
0.0
 40
2.5
 41
0.0
 71
     7
 72
     5
  1
\fArial|b0|i0;\W1.0000;19,05
  7
Arial
 11
0.0000000000000001
 21
1.0
 31
0.0
 73
     2
 44
1.047437
1001
ACAD
1000
MTEXTBEGIN
1070
    73
1070
     2
1070
    44
1040
1.047437
1070
    74
1070
     0
1000
MTEXTEND
  0
MTEXT
  5
355
330
353
100
AcDbEntity
  8
2
370
    13
100
AcDbMText
 10
80.969122
 20
-6.865013999999999
 30
0.0
 40
2.5
 41
0.0
 71
     7
 72
     5
  1
\fArial|b0|i0;%%c
  7
Arial
 11
0.0000000000000001
 21
1.0
 31
0.0
 73
     2
 44
1.047437
1001
ACAD
1000
MTEXTBEGIN
1070
    73
1070
     2
1070
    44
1040
1.047437
1070
    74
1070
     0
1000
MTEXTEND
  0
LINE
  5
356
330
353
100
AcDbEntity
  8
2
370
    13
100
AcDbLine
 10
72.8
 20
9.525
 30
0.0
 11
83.84280399999999
 21
9.525
 31
0.0
  0
LINE
  5
357
330
353
100
AcDbEntity
  8
2
370
    13
100
AcDbLine
 10
81.842804
 20
15.775
 30
0.0
 11
81.842804
 21
9.525
 31
0.0
  0
SOLID
  5
358
330
353
100
AcDbEntity
  8
2
370
    18
100
AcDbTrace
 10
81.842804
 20
9.525
 30
0.0
 11
81.401987
 21
12.024998
 31
0.0
 12
82.283621
 22
12.025002
 32
0.0
 13
82.283621
 23
12.025002
 33
0.0
  0
ENDBLK
  5
35A
330
353
100
AcDbEntity
  8
0
100
AcDbBlockEnd
  0
BLOCK
  5
35F
330
35E
100
AcDbEntity
  8
0
100
AcDbBlockBegin
  2
*D7
 70
     1
 10
0.0
 20
0.0
 30
0.0
  3
*D7
  1

  0
LINE
  5
361
330
35E
100
AcDbEntity
  8
2
370
    -2
100
AcDbLine
 10
50.8
 20
10.525
 30
0.0
 11
50.8
 21
33.01988400000001
 31
0.0
  0
LINE
  5
362
330
35E
100
AcDbEntity
  8
2
370
    -2
100
AcDbLine
 10
70.8
 20
11.525
 30
0.0
 11
70.8
 21
33.01988400000001
 31
0.0
  0
LINE
  5
363
330
35E
100
AcDbEntity
  8
2
370
    -2
100
AcDbLine
 10
53.3
 20
31.019884
 30
0.0
 11
68.3
 21
31.019884
 31
0.0
  0
SOLID
  5
364
330
35E
100
AcDbEntity
  8
2
100
AcDbTrace
 10
53.3
 20
31.436551
 30
0.0
 11
53.3
 21
30.603217
 31
0.0
 12
50.8
 22
31.019884
 32
0.0
 13
50.8
 23
31.019884
 33
0.0
  0
SOLID
  5
365
330
35E
100
AcDbEntity
  8
2
100
AcDbTrace
 10
68.3
 20
30.603217
 30
0.0
 11
68.3
 21
31.436551
 31
0.0
 12
70.8
 22
31.019884
 32
0.0
 13
70.8
 23
31.019884
 33
0.0
  0
MTEXT
  5
366
330
35E
100
AcDbEntity
  8
2
370
    18
100
AcDbMText
 10
60.8
 20
34.796134
 30
0.0
 40
2.5
 41
0.0
 71
     5
 72
     1
  1
\A1;20
  7
Arial
 73
     1
 44
1.0
1001
ACAD
1000
MTEXTBEGIN
1070
    73
1070
     1
1070
    44
1040
1.0
1070
    74
1070
     0
1000
MTEXTEND
  0
POINT
  5
367
330
35E
100
AcDbEntity
  8
Defpoints
 62
     0
100
AcDbPoint
 10
50.8
 20
9.525
 30
0.0
  0
POINT
  5
368
330
35E
100
AcDbEntity
  8
Defpoints
 62
     0
100
AcDbPoint
 10
70.8
 20
10.525
 30
0.0
  0
POINT
  5
369
330
35E
100
AcDbEntity
  8
Defpoints
 62
     0
100
AcDbPoint
 10
70.8
 20
31.019884
 30
0.0
  0
ENDBLK
  5
360
330
35E
100
AcDbEntity
  8
0
100
AcDbBlockEnd
  0
BLOCK
  5
371
330
36A
100
AcDbEntity
  8
0
100
AcDbBlockBegin
  2
_U3
 70
     0
 10
0.0
 20
0.0
 30
0.0
  3
_U3
  1

  0
MTEXT
  5
36B
330
36A
100
AcDbEntity
  8
2
370
    13
100
AcDbMText
 10
58.86514
 20
31.642288
 30
0.0
 40
2.5
 41
0.0
 71
     7
 72
     5
  1
\fArial|b0|i0;\W1.0000;20
  7
Arial
 73
     2
 44
1.047437
1001
ACAD
1000
MTEXTBEGIN
1070
    73
1070
     2
1070
    44
1040
1.047437
1070
    74
1070
     0
1000
MTEXTEND
  0
LINE
  5
36C
330
36A
100
AcDbEntity
  8
2
370
    13
100
AcDbLine
 10
50.8
 20
10.525
 30
0.0
 11
50.8
 21
33.01988400000001
 31
0.0
  0
LINE
  5
36D
330
36A
100
AcDbEntity
  8
2
370
    13
100
AcDbLine
 10
70.8
 20
11.525
 30
0.0
 11
70.8
 21
33.01988400000001
 31
0.0
  0
LINE
  5
36E
330
36A
100
AcDbEntity
  8
2
370
    13
100
AcDbLine
 10
50.8
 20
31.019884
 30
0.0
 11
70.8
 21
31.019884
 31
0.0
  0
SOLID
  5
36F
330
36A
100
AcDbEntity
  8
2
370
    18
100
AcDbTrace
 10
50.8
 20
31.019884
 30
0.0
 11
53.29999799999999
 21
31.460701
 31
0.0
 12
53.300002
 22
30.579067
 32
0.0
 13
53.300002
 23
30.579067
 33
0.0
  0
SOLID
  5
370
330
36A
100
AcDbEntity
  8
2
370
    18
100
AcDbTrace
 10
70.8
 20
31.019884
 30
0.0
 11
68.300002
 21
30.579067
 31
0.0
 12
68.299998
 22
31.460701
 32
0.0
 13
68.299998
 23
31.460701
 33
0.0
  0
ENDBLK
  5
372
330
36A
100
AcDbEntity
  8
0
100
AcDbBlockEnd
  0
BLOCK
  5
377
330
376
100
AcDbEntity
  8
0
100
AcDbBlockBegin
  2
*D9
 70
     1
 10
0.0
 20
0.0
 30
0.0
  3
*D9
  1

  0
LINE
  5
379
330
376
100
AcDbEntity
  8
SK2
370
    -2
100
AcDbLine
 10
0.0
 20
2.0
 30
0.0
 11
0.0
 21
41.019884
 31
0.0
  0
LINE
  5
37A
330
376
100
AcDbEntity
  8
SK2
370
    -2
100
AcDbLine
 10
70.8
 20
11.525
 30
0.0
 11
70.8
 21
41.019884
 31
0.0
  0
LINE
  5
37B
330
376
100
AcDbEntity
  8
SK2
370
    -2
100
AcDbLine
 10
2.5
 20
39.019884
 30
0.0
 11
68.3
 21
39.019884
 31
0.0
  0
SOLID
  5
37C
330
376
100
AcDbEntity
  8
SK2
100
AcDbTrace
 10
2.5
 20
39.436551
 30
0.0
 11
2.5
 21
38.603217
 31
0.0
 12
0.0
 22
39.019884
 32
0.0
 13
0.0
 23
39.019884
 33
0.0
  0
SOLID
  5
37D
330
376
100
AcDbEntity
  8
SK2
100
AcDbTrace
 10
68.3
 20
38.603217
 30
0.0
 11
68.3
 21
39.436551
 31
0.0
 12
70.8
 22
39.019884
 32
0.0
 13
70.8
 23
39.019884
 33
0.0
  0
MTEXT
  5
37E
330
376
100
AcDbEntity
  8
SK2
370
    18
100
AcDbMText
 10
35.4
 20
42.796134
 30
0.0
 40
2.5
 41
0.0
 71
     5
 72
     1
  1
\A1;70.8
  7
Arial
 73
     1
 44
1.0
1001
ACAD
1000
MTEXTBEGIN
1070
    73
1070
     1
1070
    44
1040
1.0
1070
    74
1070
     0
1000
MTEXTEND
  0
POINT
  5
37F
330
376
100
AcDbEntity
  8
Defpoints
 62
     0
100
AcDbPoint
 10
0.0
 20
1.0
 30
0.0
  0
POINT
  5
380
330
376
100
AcDbEntity
  8
Defpoints
 62
     0
100
AcDbPoint
 10
70.8
 20
10.525
 30
0.0
  0
POINT
  5
381
330
376
100
AcDbEntity
  8
Defpoints
 62
     0
100
AcDbPoint
 10
70.8
 20
39.019884
 30
0.0
  0
ENDBLK
  5
378
330
376
100
AcDbEntity
  8
0
100
AcDbBlockEnd
  0
BLOCK
  5
389
330
382
100
AcDbEntity
  8
0
100
AcDbBlockBegin
  2
_U4
 70
     0
 10
0.0
 20
0.0
 30
0.0
  3
_U4
  1

  0
MTEXT
  5
383
330
382
100
AcDbEntity
  8
SK2
370
    13
100
AcDbMText
 10
31.758796
 20
39.642288
 30
0.0
 40
2.5
 41
0.0
 71
     7
 72
     5
  1
\fArial|b0|i0;\W1.0000;70,8
  7
Arial
 73
     2
 44
1.047437
1001
ACAD
1000
MTEXTBEGIN
1070
    73
1070
     2
1070
    44
1040
1.047437
1070
    74
1070
     0
1000
MTEXTEND
  0
LINE
  5
384
330
382
100
AcDbEntity
  8
SK2
370
    13
100
AcDbLine
 10
0.0
 20
2.0
 30
0.0
 11
0.0
 21
41.019884
 31
0.0
  0
LINE
  5
385
330
382
100
AcDbEntity
  8
SK2
370
    13
100
AcDbLine
 10
70.8
 20
11.525
 30
0.0
 11
70.8
 21
41.019884
 31
0.0
  0
LINE
  5
386
330
382
100
AcDbEntity
  8
SK2
370
    13
100
AcDbLine
 10
0.0
 20
39.019884
 30
0.0
 11
70.8
 21
39.019884
 31
0.0
  0
SOLID
  5
387
330
382
100
AcDbEntity
  8
SK2
370
    18
100
AcDbTrace
 10
0.0
 20
39.019884
 30
0.0
 11
2.499998
 21
39.460701
 31
0.0
 12
2.500001999999999
 22
38.579067
 32
0.0
 13
2.500001999999999
 23
38.579067
 33
0.0
  0
SOLID
  5
388
330
382
100
AcDbEntity
  8
SK2
370
    18
100
AcDbTrace
 10
70.8
 20
39.019884
 30
0.0
 11
68.300002
 21
38.579067
 31
0.0
 12
68.299998
 22
39.460701
 32
0.0
 13
68.299998
 23
39.460701
 33
0.0
  0
ENDBLK
  5
38A
330
382
100
AcDbEntity
  8
0
100
AcDbBlockEnd
  0
BLOCK
  5
38F
330
38E
100
AcDbEntity
  8
0
100
AcDbBlockBegin
  2
*D11
 70
     1
 10
0.0
 20
0.0
 30
0.0
  3
*D11
  1

  0
LINE
  5
391
330
38E
100
AcDbEntity
  8
SK2
370
    -2
100
AcDbLine
 10
-54.2
 20
10.025
 30
0.0
 11
-54.2
 21
49.019884
 31
0.0
  0
LINE
  5
392
330
38E
100
AcDbEntity
  8
SK2
370
    -2
100
AcDbLine
 10
70.8
 20
11.525
 30
0.0
 11
70.8
 21
49.019884
 31
0.0
  0
LINE
  5
393
330
38E
100
AcDbEntity
  8
SK2
370
    -2
100
AcDbLine
 10
-51.7
 20
47.019884
 30
0.0
 11
68.3
 21
47.019884
 31
0.0
  0
SOLID
  5
394
330
38E
100
AcDbEntity
  8
SK2
100
AcDbTrace
 10
-51.7
 20
47.436551
 30
0.0
 11
-51.7
 21
46.60321699999999
 31
0.0
 12
-54.2
 22
47.019884
 32
0.0
 13
-54.2
 23
47.019884
 33
0.0
  0
SOLID
  5
395
330
38E
100
AcDbEntity
  8
SK2
100
AcDbTrace
 10
68.3
 20
46.60321699999999
 30
0.0
 11
68.3
 21
47.436551
 31
0.0
 12
70.8
 22
47.019884
 32
0.0
 13
70.8
 23
47.019884
 33
0.0
  0
MTEXT
  5
396
330
38E
100
AcDbEntity
  8
SK2
370
    18
100
AcDbMText
 10
8.3
 20
50.796134
 30
0.0
 40
2.5
 41
0.0
 71
     5
 72
     1
  1
\A1;125
  7
Arial
 73
     1
 44
1.0
1001
ACAD
1000
MTEXTBEGIN
1070
    73
1070
     1
1070
    44
1040
1.0
1070
    74
1070
     0
1000
MTEXTEND
  0
POINT
  5
397
330
38E
100
AcDbEntity
  8
Defpoints
 62
     0
100
AcDbPoint
 10
-54.2
 20
9.025
 30
0.0
  0
POINT
  5
398
330
38E
100
AcDbEntity
  8
Defpoints
 62
     0
100
AcDbPoint
 10
70.8
 20
10.525
 30
0.0
  0
POINT
  5
399
330
38E
100
AcDbEntity
  8
Defpoints
 62
     0
100
AcDbPoint
 10
70.8
 20
47.019884
 30
0.0
  0
ENDBLK
  5
390
330
38E
100
AcDbEntity
  8
0
100
AcDbBlockEnd
  0
BLOCK
  5
3A1
330
39A
100
AcDbEntity
  8
0
100
AcDbBlockBegin
  2
_U5
 70
     0
 10
0.0
 20
0.0
 30
0.0
  3
_U5
  1

  0
MTEXT
  5
39B
330
39A
100
AcDbEntity
  8
SK2
370
    13
100
AcDbMText
 10
5.268959999999999
 20
47.642288
 30
0.0
 40
2.5
 41
0.0
 71
     7
 72
     5
  1
\fArial|b0|i0;\W1.0000;125
  7
Arial
 73
     2
 44
1.047437
1001
ACAD
1000
MTEXTBEGIN
1070
    73
1070
     2
1070
    44
1040
1.047437
1070
    74
1070
     0
1000
MTEXTEND
  0
LINE
  5
39C
330
39A
100
AcDbEntity
  8
SK2
370
    13
100
AcDbLine
 10
-54.2
 20
10.025
 30
0.0
 11
-54.2
 21
49.019884
 31
0.0
  0
LINE
  5
39D
330
39A
100
AcDbEntity
  8
SK2
370
    13
100
AcDbLine
 10
70.8
 20
11.525
 30
0.0
 11
70.8
 21
49.019884
 31
0.0
  0
LINE
  5
39E
330
39A
100
AcDbEntity
  8
SK2
370
    13
100
AcDbLine
 10
-54.2
 20
47.019884
 30
0.0
 11
70.8
 21
47.019884
 31
0.0
  0
SOLID
  5
39F
330
39A
100
AcDbEntity
  8
SK2
370
    18
100
AcDbTrace
 10
-54.2
 20
47.019884
 30
0.0
 11
-51.700002
 21
47.46070099999999
 31
0.0
 12
-51.699998
 22
46.57906699999999
 32
0.0
 13
-51.699998
 23
46.57906699999999
 33
0.0
  0
SOLID
  5
3A0
330
39A
100
AcDbEntity
  8
SK2
370
    18
100
AcDbTrace
 10
70.8
 20
47.019884
 30
0.0
 11
68.300002
 21
46.57906699999999
 31
0.0
 12
68.299998
 22
47.46070099999999
 32
0.0
 13
68.299998
 23
47.46070099999999
 33
0.0
  0
ENDBLK
  5
3A2
330
39A
100
AcDbEntity
  8
0
100
AcDbBlockEnd
  0
ENDSEC
  0
SECTION
  2
ENTITIES
  0
LINE
  5
76
330
1F
100
AcDbEntity
  8
1
370
    18
100
AcDbLine
 10
70.068002
 20
-0.262604
 30
0.0
 11
68.186301
 21
-0.075922
 31
0.0
  0
LINE
  5
78
330
1F
100
AcDbEntity
  8
1
370
    18
100
AcDbLine
 10
70.135543
 20
-0.424238
 30
0.0
 11
70.068002
 21
-0.262604
 31
0.0
  0
LINE
  5
79
330
1F
100
AcDbEntity
  8
1
370
    18
100
AcDbLine
 10
66.56182499999999
 20
6.744358999999999
 30
0.0
 11
66.58629799999999
 21
6.595683999999999
 31
0.0
  0
LINE
  5
7A
330
1F
100
AcDbEntity
  8
1
370
    18
100
AcDbLine
 10
68.329303
 20
0.748212
 30
0.0
 11
68.170377
 21
0.864527
 31
0.0
  0
LINE
  5
7B
330
1F
100
AcDbEntity
  8
1
370
    18
100
AcDbLine
 10
65.05119599999999
 20
7.487472
 30
0.0
 11
65.25255200000001
 21
7.228349999999999
 31
0.0
  0
LINE
  5
7C
330
1F
100
AcDbEntity
  8
1
370
    18
100
AcDbLine
 10
65.25255200000001
 20
7.228349999999999
 30
0.0
 11
65.551507
 21
6.81085
 31
0.0
  0
LINE
  5
7D
330
1F
100
AcDbEntity
  8
1
370
    18
100
AcDbLine
 10
68.693737
 20
6.987290999999999
 30
0.0
 11
68.84077099999998
 21
7.039622
 31
0.0
  0
LINE
  5
7E
330
1F
100
AcDbEntity
  8
1
370
    18
100
AcDbLine
 10
64.622237
 20
-6.922397999999999
 30
0.0
 11
64.820064
 21
-6.821444
 31
0.0
  0
LINE
  5
7F
330
1F
100
AcDbEntity
  8
1
370
    18
100
AcDbLine
 10
65.72539499999999
 20
-6.928441
 30
0.0
 11
65.25255200000001
 21
-8.147083999999999
 31
0.0
  0
LINE
  5
80
330
1F
100
AcDbEntity
  8
1
370
    18
100
AcDbLine
 10
67.539896
 20
-7.777872
 30
0.0
 11
67.465617
 21
-7.170847999999999
 31
0.0
  0
LINE
  5
81
330
1F
100
AcDbEntity
  8
1
370
    18
100
AcDbLine
 10
67.52614499999999
 20
-7.905744
 30
0.0
 11
67.539896
 21
-7.777872
 31
0.0
  0
LINE
  5
82
330
1F
100
AcDbEntity
  8
1
370
    18
100
AcDbLine
 10
66.59210300000001
 20
-8.350814999999998
 30
0.0
 11
66.569378
 21
-9.011460000000001
 31
0.0
  0
LINE
  5
83
330
1F
100
AcDbEntity
  8
1
370
    18
100
AcDbLine
 10
65.25255200000001
 20
-8.147083999999999
 30
0.0
 11
65.05119599999999
 21
-9.034786999999999
 31
0.0
  0
LINE
  5
84
330
1F
100
AcDbEntity
  8
1
370
    18
100
AcDbLine
 10
68.19892299999999
 20
-7.896322999999999
 30
0.0
 11
67.52614499999999
 21
-7.905744
 31
0.0
  0
LINE
  5
85
330
1F
100
AcDbEntity
  8
1
370
    18
100
AcDbLine
 10
68.683641
 20
-8.860932
 30
0.0
 11
68.877481
 21
-9.015472
 31
0.0
  0
LINE
  5
86
330
1F
100
AcDbEntity
  8
1
370
    18
100
AcDbLine
 10
66.57159899999999
 20
-8.944838999999999
 30
0.0
 11
67.514374
 21
-8.913916
 31
0.0
  0
LINE
  5
87
330
1F
100
AcDbEntity
  8
1
370
    18
100
AcDbLine
 10
68.349737
 20
-8.034853999999999
 30
0.0
 11
68.371234
 21
-7.950986999999999
 31
0.0
  0
LINE
  5
88
330
1F
100
AcDbEntity
  8
1
370
    18
100
AcDbLine
 10
67.537052
 20
-8.913031
 30
0.0
 11
68.683641
 21
-8.860932
 31
0.0
  0
LINE
  5
89
330
1F
100
AcDbEntity
  8
1
370
    18
100
AcDbLine
 10
67.82204799999999
 20
2.830273
 30
0.0
 11
67.14912199999999
 21
2.985858
 31
0.0
  0
LINE
  5
8B
330
1F
100
AcDbEntity
  8
1
370
    18
100
AcDbLine
 10
66.04603199999999
 20
2.355952999999999
 30
0.0
 11
66.232466
 21
2.252766999999999
 31
0.0
  0
LINE
  5
8C
330
1F
100
AcDbEntity
  8
1
370
    18
100
AcDbLine
 10
66.645326
 20
2.751128
 30
0.0
 11
66.93472599999999
 21
2.774354
 31
0.0
  0
LINE
  5
8D
330
1F
100
AcDbEntity
  8
1
370
    18
100
AcDbLine
 10
66.59384799999999
 20
2.764993
 30
0.0
 11
66.645326
 21
2.751128
 31
0.0
  0
LINE
  5
8E
330
1F
100
AcDbEntity
  8
1
370
    18
100
AcDbLine
 10
66.59384799999999
 20
2.764993
 30
0.0
 11
66.50984499999999
 21
2.779022
 31
0.0
  0
LINE
  5
8F
330
1F
100
AcDbEntity
  8
1
370
    18
100
AcDbLine
 10
66.50984499999999
 20
2.779022
 30
0.0
 11
66.341871
 21
2.694933
 31
0.0
  0
LINE
  5
90
330
1F
100
AcDbEntity
  8
1
370
    18
100
AcDbLine
 10
66.341871
 20
2.694933
 30
0.0
 11
66.390574
 21
2.663231999999999
 31
0.0
  0
LINE
  5
91
330
1F
100
AcDbEntity
  8
1
370
    18
100
AcDbLine
 10
66.431348
 20
2.522358
 30
0.0
 11
66.43288599999999
 21
2.644779
 31
0.0
  0
LINE
  5
92
330
1F
100
AcDbEntity
  8
1
370
    18
100
AcDbLine
 10
66.388712
 20
2.515083999999999
 30
0.0
 11
66.339375
 21
2.496284999999999
 31
0.0
  0
LINE
  5
93
330
1F
100
AcDbEntity
  8
1
370
    18
100
AcDbLine
 10
66.339375
 20
2.496284999999999
 30
0.0
 11
66.504684
 21
2.368336
 31
0.0
  0
LINE
  5
94
330
1F
100
AcDbEntity
  8
1
370
    18
100
AcDbLine
 10
66.504684
 20
2.368336
 30
0.0
 11
66.588762
 21
2.360244999999999
 31
0.0
  0
LINE
  5
95
330
1F
100
AcDbEntity
  8
1
370
    18
100
AcDbLine
 10
66.640417
 20
2.360538
 30
0.0
 11
66.588762
 21
2.360244999999999
 31
0.0
  0
LINE
  5
96
330
1F
100
AcDbEntity
  8
1
370
    18
100
AcDbLine
 10
66.92827900000001
 20
2.261343999999999
 30
0.0
 11
66.640417
 21
2.360538
 31
0.0
  0
LINE
  5
97
330
1F
100
AcDbEntity
  8
1
370
    18
100
AcDbLine
 10
66.97178700000001
 20
2.207377
 30
0.0
 11
67.30506899999999
 21
2.163515999999999
 31
0.0
  0
LINE
  5
98
330
1F
100
AcDbEntity
  8
1
370
    18
100
AcDbLine
 10
67.639188
 20
2.229099
 30
0.0
 11
67.349788
 21
2.205872999999999
 31
0.0
  0
LINE
  5
99
330
1F
100
AcDbEntity
  8
1
370
    18
100
AcDbLine
 10
67.690665
 20
2.215233
 30
0.0
 11
67.639188
 21
2.229099
 31
0.0
  0
LINE
  5
9A
330
1F
100
AcDbEntity
  8
1
370
    18
100
AcDbLine
 10
67.690665
 20
2.215233
 30
0.0
 11
67.77466899999999
 21
2.201204999999999
 31
0.0
  0
LINE
  5
9B
330
1F
100
AcDbEntity
  8
1
370
    18
100
AcDbLine
 10
67.77466899999999
 20
2.201204999999999
 30
0.0
 11
67.942642
 21
2.285293999999999
 31
0.0
  0
LINE
  5
9C
330
1F
100
AcDbEntity
  8
1
370
    13
100
AcDbLine
 10
70.38921999999999
 20
-8.591499
 30
0.0
 11
70.38921999999999
 21
-7.928763
 31
0.0
  0
LINE
  5
9D
330
1F
100
AcDbEntity
  8
1
370
    13
100
AcDbLine
 10
68.47805499999999
 20
2.294750999999999
 30
0.0
 11
68.508553
 21
2.498356
 31
0.0
  0
LINE
  5
9E
330
1F
100
AcDbEntity
  8
1
370
    13
100
AcDbLine
 10
65.83834300000001
 20
2.898331999999999
 30
0.0
 11
65.807845
 21
2.694726999999999
 31
0.0
  0
LINE
  5
9F
330
1F
100
AcDbEntity
  8
1
370
    13
100
AcDbLine
 10
67.84091100000001
 20
2.584891999999999
 30
0.0
 11
67.814497
 21
2.408554
 31
0.0
  0
LINE
  5
A0
330
1F
100
AcDbEntity
  8
1
370
    13
100
AcDbLine
 10
66.470017
 20
2.571671999999999
 30
0.0
 11
66.500912
 21
2.777922999999999
 31
0.0
  0
LINE
  5
A1
330
1F
100
AcDbEntity
  8
1
370
    13
100
AcDbLine
 10
67.412121
 20
2.687354999999999
 30
0.0
 11
67.33835899999999
 21
2.194925
 31
0.0
  0
LINE
  5
A2
330
1F
100
AcDbEntity
  8
1
370
    13
100
AcDbLine
 10
66.93936500000001
 20
2.245022
 30
0.0
 11
67.025126
 21
2.817558
 31
0.0
  0
LINE
  5
A3
330
1F
100
AcDbEntity
  8
80
370
    18
100
AcDbLine
 10
-1.0
 20
0.0
 30
0.0
 11
1.0
 21
0.0
 31
0.0
  0
LINE
  5
A5
102
{ACAD_REACTORS
330
375
102
}
330
1F
100
AcDbEntity
  8
80
370
    18
100
AcDbLine
 10
0.0
 20
-1.0
 30
0.0
 11
0.0
 21
1.0
 31
0.0
  0
LINE
  5
A6
330
1F
100
AcDbEntity
  8
CUT
370
    18
100
AcDbLine
 10
70.766533
 20
7.952921
 30
0.0
 11
70.48558400000001
 21
6.351391
 31
0.0
  0
LINE
  5
A8
102
{ACAD_REACTORS
330
347
102
}
330
1F
100
AcDbEntity
  8
81
370
    18
100
AcDbLine
 10
69.8
 20
9.525
 30
0.0
 11
71.79999999999999
 21
9.525
 31
0.0
  0
LINE
  5
A9
102
{ACAD_REACTORS
330
32D
330
35D
330
375
330
38D
102
}
330
1F
100
AcDbEntity
  8
81
370
    18
100
AcDbLine
 10
70.8
 20
8.525
 30
0.0
 11
70.8
 21
10.525
 31
0.0
  0
LINE
  5
AA
330
1F
100
AcDbEntity
  8
CUT
370
    18
100
AcDbLine
 10
63.35394399999999
 20
5.492715
 30
0.0
 11
63.357591
 21
6.284518
 31
0.0
  0
LINE
  5
AB
330
1F
100
AcDbEntity
  8
CUT
370
    18
100
AcDbLine
 10
63.877478
 20
8.376983
 30
0.0
 11
63.944703
 21
9.027321999999999
 31
0.0
  0
LINE
  5
AC
330
1F
100
AcDbEntity
  8
CUT
370
    18
100
AcDbLine
 10
70.797941
 20
9.057872999999998
 30
0.0
 11
70.79429399999999
 21
8.266069999999999
 31
0.0
  0
LINE
  5
AD
330
1F
100
AcDbEntity
  8
CUT
370
    18
100
AcDbLine
 10
63.398722
 20
6.585986
 30
0.0
 11
63.818649
 21
8.066097
 31
0.0
  0
LINE
  5
AE
330
1F
100
AcDbEntity
  8
CUT
370
    18
100
AcDbLine
 10
70.43673299999999
 20
6.031787
 30
0.0
 11
70.35385699999999
 21
5.395120999999999
 31
0.0
  0
LINE
  5
AF
330
1F
100
AcDbEntity
  8
NOCUT
370
    18
100
AcDbLine
 10
62.96845199999999
 20
8.733356999999999
 30
0.0
 11
63.292786
 21
8.895524999999999
 31
0.0
  0
LINE
  5
B0
330
1F
100
AcDbEntity
  8
NOCUT
370
    18
100
AcDbLine
 10
70.38772900000001
 20
-8.270913999999999
 30
0.0
 11
70.389215
 21
-8.591500999999999
 31
0.0
  0
LINE
  5
B1
330
1F
100
AcDbEntity
  8
NOCUT
370
    18
100
AcDbLine
 10
70.013402
 20
4.098573
 30
0.0
 11
69.654631
 21
3.112858999999999
 31
0.0
  0
LINE
  5
B2
330
1F
100
AcDbEntity
  8
NOCUT
370
    18
100
AcDbLine
 10
50.8
 20
-9.525
 30
0.0
 11
-53.7
 21
-9.525
 31
0.0
  0
LINE
  5
B3
330
1F
100
AcDbEntity
  8
NOCUT
370
    18
100
AcDbLine
 10
-54.2
 20
3.654701
 30
0.0
 11
-52.2
 21
2.5
 31
0.0
  0
LINE
  5
B4
330
1F
100
AcDbEntity
  8
NOCUT
370
    18
100
AcDbLine
 10
67.537052
 20
9.043442
 30
0.0
 11
69.99737399999999
 21
8.993271999999999
 31
0.0
  0
LINE
  5
B5
330
1F
100
AcDbEntity
  8
NOCUT
370
    18
100
AcDbLine
 10
70.134017
 20
6.287697
 30
0.0
 11
70.134017
 21
4.782613999999999
 31
0.0
  0
LINE
  5
B6
330
1F
100
AcDbEntity
  8
NOCUT
370
    18
100
AcDbLine
 10
55.24065
 20
8.564441
 30
0.0
 11
62.25291
 21
8.564441
 31
0.0
  0
LINE
  5
B7
330
1F
100
AcDbEntity
  8
NOCUT
370
    18
100
AcDbLine
 10
55.8
 20
2.5
 30
0.0
 11
57.243376
 21
0.0
 31
0.0
  0
LINE
  5
B8
330
1F
100
AcDbEntity
  8
NOCUT
370
    18
100
AcDbLine
 10
65.23966699999999
 20
9.064358999999999
 30
0.0
 11
67.514374
 21
9.043775999999999
 31
0.0
  0
LINE
  5
B9
330
1F
100
AcDbEntity
  8
NOCUT
370
    18
100
AcDbLine
 10
70.37767099999999
 20
8.134005
 30
0.0
 11
70.154153
 21
6.570789999999999
 31
0.0
  0
LINE
  5
BA
330
1F
100
AcDbEntity
  8
NOCUT
370
    18
100
AcDbLine
 10
54.36614200000001
 20
-8.641510999999999
 30
0.0
 11
51.70338
 21
-9.114524000000001
 31
0.0
  0
LINE
  5
BB
330
1F
100
AcDbEntity
  8
NOCUT
370
    18
100
AcDbLine
 10
55.8
 20
-2.5
 30
0.0
 11
-52.2
 21
-2.5
 31
0.0
  0
LINE
  5
BC
330
1F
100
AcDbEntity
  8
NOCUT
370
    18
100
AcDbLine
 10
-53.7
 20
9.525
 30
0.0
 11
-54.2
 21
9.025
 31
0.0
  0
LINE
  5
BD
330
1F
100
AcDbEntity
  8
NOCUT
370
    18
100
AcDbLine
 10
65.22156999999999
 20
-9.064441
 30
0.0
 11
64.008328
 21
-9.064441
 31
0.0
  0
LINE
  5
BE
330
1F
100
AcDbEntity
  8
NOCUT
370
    18
100
AcDbLine
 10
70.389215
 20
8.591500999999999
 30
0.0
 11
70.38772900000001
 21
8.270913999999999
 31
0.0
  0
LINE
  5
BF
330
1F
100
AcDbEntity
  8
NOCUT
370
    18
100
AcDbLine
 10
69.534017
 20
2.428818999999999
 30
0.0
 11
69.534017
 21
-2.428818999999999
 31
0.0
  0
LINE
  5
C0
330
1F
100
AcDbEntity
  8
NOCUT
370
    18
100
AcDbLine
 10
-54.2
 20
3.654701
 30
0.0
 11
-54.2
 21
9.025
 31
0.0
  0
LINE
  5
C1
330
1F
100
AcDbEntity
  8
NOCUT
370
    18
100
AcDbLine
 10
-52.2
 20
-2.5
 30
0.0
 11
-54.2
 21
-3.654701
 31
0.0
  0
LINE
  5
C2
330
1F
100
AcDbEntity
  8
NOCUT
370
    18
100
AcDbLine
 10
63.292786
 20
-8.895524999999999
 30
0.0
 11
62.96845199999999
 21
-8.733356999999999
 31
0.0
  0
LINE
  5
C3
330
1F
100
AcDbEntity
  8
NOCUT
370
    18
100
AcDbLine
 10
69.99737399999999
 20
-8.993271999999999
 30
0.0
 11
67.537052
 21
-9.043442
 31
0.0
  0
LINE
  5
C4
330
1F
100
AcDbEntity
  8
NOCUT
370
    18
100
AcDbLine
 10
69.654631
 20
-3.112858999999999
 30
0.0
 11
70.013402
 21
-4.098573
 31
0.0
  0
LINE
  5
C5
330
1F
100
AcDbEntity
  8
NOCUT
370
    18
100
AcDbLine
 10
-53.7
 20
9.525
 30
0.0
 11
50.8
 21
9.525
 31
0.0
  0
LINE
  5
C6
330
1F
100
AcDbEntity
  8
NOCUT
370
    18
100
AcDbLine
 10
57.243376
 20
0.0
 30
0.0
 11
55.8
 21
-2.5
 31
0.0
  0
LINE
  5
C7
330
1F
100
AcDbEntity
  8
NOCUT
370
    18
100
AcDbLine
 10
67.514374
 20
-9.043775999999999
 30
0.0
 11
65.23966699999999
 21
-9.064358999999999
 31
0.0
  0
LINE
  5
C8
330
1F
100
AcDbEntity
  8
NOCUT
370
    18
100
AcDbLine
 10
70.134017
 20
-4.782613999999999
 30
0.0
 11
70.134017
 21
-6.287697
 31
0.0
  0
LINE
  5
C9
330
1F
100
AcDbEntity
  8
NOCUT
370
    18
100
AcDbLine
 10
62.25291
 20
-8.564441
 30
0.0
 11
55.24065
 21
-8.564441
 31
0.0
  0
LINE
  5
CA
330
1F
100
AcDbEntity
  8
NOCUT
370
    18
100
AcDbLine
 10
-52.2
 20
2.5
 30
0.0
 11
55.8
 21
2.5
 31
0.0
  0
LINE
  5
CB
330
1F
100
AcDbEntity
  8
NOCUT
370
    18
100
AcDbLine
 10
64.008328
 20
9.064441
 30
0.0
 11
65.22156999999999
 21
9.064441
 31
0.0
  0
LINE
  5
CC
330
1F
100
AcDbEntity
  8
NOCUT
370
    18
100
AcDbLine
 10
70.154153
 20
-6.570789999999999
 30
0.0
 11
70.37767099999999
 21
-8.134005
 31
0.0
  0
LINE
  5
CD
330
1F
100
AcDbEntity
  8
NOCUT
370
    18
100
AcDbLine
 10
51.70338
 20
9.114524000000001
 30
0.0
 11
54.36614200000001
 21
8.641510999999999
 31
0.0
  0
LINE
  5
CE
330
1F
100
AcDbEntity
  8
NOCUT
370
    18
100
AcDbLine
 10
-54.2
 20
-9.025
 30
0.0
 11
-54.2
 21
-3.654701
 31
0.0
  0
LINE
  5
CF
330
1F
100
AcDbEntity
  8
NOCUT
370
    18
100
AcDbLine
 10
-54.2
 20
-9.025
 30
0.0
 11
-53.7
 21
-9.525
 31
0.0
  0
LINE
  5
D0
330
1F
100
AcDbEntity
  8
1
370
    18
100
AcDbLine
 10
67.942642
 20
2.285293999999999
 30
0.0
 11
67.89394
 21
2.316993999999999
 31
0.0
  0
LINE
  5
D1
330
1F
100
AcDbEntity
  8
1
370
    18
100
AcDbLine
 10
67.853166
 20
2.457867999999999
 30
0.0
 11
67.85162800000001
 21
2.335447999999999
 31
0.0
  0
LINE
  5
D2
330
1F
100
AcDbEntity
  8
1
370
    18
100
AcDbLine
 10
67.895802
 20
2.465142999999999
 30
0.0
 11
67.945139
 21
2.483941
 31
0.0
  0
LINE
  5
D3
330
1F
100
AcDbEntity
  8
1
370
    18
100
AcDbLine
 10
67.945139
 20
2.483941
 30
0.0
 11
67.77983
 21
2.611890999999999
 31
0.0
  0
LINE
  5
D4
330
1F
100
AcDbEntity
  8
1
370
    18
100
AcDbLine
 10
67.77983
 20
2.611890999999999
 30
0.0
 11
67.695752
 21
2.619981999999999
 31
0.0
  0
LINE
  5
D5
330
1F
100
AcDbEntity
  8
1
370
    18
100
AcDbLine
 10
67.64409599999999
 20
2.619689
 30
0.0
 11
67.695752
 21
2.619981999999999
 31
0.0
  0
LINE
  5
D6
330
1F
100
AcDbEntity
  8
1
370
    18
100
AcDbLine
 10
67.35623499999999
 20
2.718883
 30
0.0
 11
67.64409599999999
 21
2.619689
 31
0.0
  0
LINE
  5
D7
330
1F
100
AcDbEntity
  8
1
370
    18
100
AcDbLine
 10
67.31272699999999
 20
2.77285
 30
0.0
 11
66.979445
 21
2.81671
 31
0.0
  0
LINE
  5
D8
330
1F
100
AcDbEntity
  8
1
370
    18
100
AcDbLine
 10
70.780951
 20
-6.093757
 30
0.0
 11
70.766533
 21
-6.038020999999999
 31
0.0
  0
LINE
  5
DA
330
1F
100
AcDbEntity
  8
1
370
    18
100
AcDbLine
 10
70.79429399999999
 20
-6.269841
 30
0.0
 11
70.793336
 21
-6.194351
 31
0.0
  0
LINE
  5
DB
330
1F
100
AcDbEntity
  8
1
370
    18
100
AcDbLine
 10
70.766533
 20
7.952921
 30
0.0
 11
70.780951
 21
8.037547999999999
 31
0.0
  0
LINE
  5
DC
330
1F
100
AcDbEntity
  8
1
370
    18
100
AcDbLine
 10
70.793336
 20
8.173783
 30
0.0
 11
70.79429399999999
 21
8.266069999999999
 31
0.0
  0
LINE
  5
DD
330
1F
100
AcDbEntity
  8
1
370
    18
100
AcDbLine
 10
70.48558400000001
 20
6.351391
 30
0.0
 11
70.43673299999999
 21
6.031787
 31
0.0
  0
LINE
  5
DE
330
1F
100
AcDbEntity
  8
1
370
    18
100
AcDbLine
 10
65.697603
 20
7.518927999999999
 30
0.0
 11
65.73206
 21
6.744886999999999
 31
0.0
  0
LINE
  5
DF
330
1F
100
AcDbEntity
  8
1
370
    18
100
AcDbLine
 10
67.23941700000001
 20
8.573498999999999
 30
0.0
 11
66.960015
 21
8.540974999999999
 31
0.0
  0
LINE
  5
E0
330
1F
100
AcDbEntity
  8
1
370
    18
100
AcDbLine
 10
65.80615
 20
7.220189999999999
 30
0.0
 11
65.85584
 21
6.715457
 31
0.0
  0
LINE
  5
E1
330
1F
100
AcDbEntity
  8
1
370
    18
100
AcDbLine
 10
68.42541700000001
 20
7.971064999999999
 30
0.0
 11
68.19734100000001
 21
8.225490999999999
 31
0.0
  0
LINE
  5
E2
330
1F
100
AcDbEntity
  8
1
370
    18
100
AcDbLine
 10
63.818649
 20
8.066097
 30
0.0
 11
63.877478
 21
8.376983
 31
0.0
  0
LINE
  5
E3
330
1F
100
AcDbEntity
  8
CUT
370
    18
100
AcDbLine
 10
63.398722
 20
6.585986
 30
0.0
 11
63.378011
 21
6.506857
 31
0.0
  0
LINE
  5
E4
330
1F
100
AcDbEntity
  8
CUT
370
    18
100
AcDbLine
 10
70.48558400000001
 20
6.351391
 30
0.0
 11
70.43673299999999
 21
6.031787
 31
0.0
  0
LINE
  5
E5
330
1F
100
AcDbEntity
  8
CUT
370
    18
100
AcDbLine
 10
63.359711
 20
6.37579
 30
0.0
 11
63.357591
 21
6.284518
 31
0.0
  0
LINE
  5
E6
330
1F
100
AcDbEntity
  8
CUT
370
    18
100
AcDbLine
 10
70.766533
 20
7.952921
 30
0.0
 11
70.780951
 21
8.037547999999999
 31
0.0
  0
LINE
  5
E7
330
1F
100
AcDbEntity
  8
1
370
    13
100
AcDbLine
 10
70.766533
 20
-6.038020999999999
 30
0.0
 11
70.526251
 21
-5.176480999999999
 31
0.0
  0
LINE
  5
E8
330
1F
100
AcDbEntity
  8
1
370
    13
100
AcDbLine
 10
70.484939
 20
-7.583027
 30
0.0
 11
70.486909
 21
-7.945841999999999
 31
0.0
  0
LINE
  5
E9
330
1F
100
AcDbEntity
  8
1
370
    13
100
AcDbLine
 10
70.795626
 20
-6.515226999999999
 30
0.0
 11
70.79429399999999
 21
-6.269841
 31
0.0
  0
LINE
  5
EA
330
1F
100
AcDbEntity
  8
1
370
    13
100
AcDbLine
 10
70.797941
 20
-6.941355
 30
0.0
 11
70.79618499999999
 21
-6.618021
 31
0.0
  0
LINE
  5
EB
330
1F
100
AcDbEntity
  8
1
370
    13
100
AcDbLine
 10
70.69481999999999
 20
8.275933999999999
 30
0.0
 11
70.698391
 21
9.051114
 31
0.0
  0
LINE
  5
EC
330
1F
100
AcDbEntity
  8
1
370
    13
100
AcDbLine
 10
70.797941
 20
9.057872999999998
 30
0.0
 11
70.79429399999999
 21
8.266069999999999
 31
0.0
  0
LINE
  5
ED
330
1F
100
AcDbEntity
  8
1
370
    13
100
AcDbLine
 10
70.389219
 20
6.378974999999999
 30
0.0
 11
70.66376099999999
 21
7.943985
 31
0.0
  0
LINE
  5
EE
330
1F
100
AcDbEntity
  8
1
370
    13
100
AcDbLine
 10
70.766533
 20
7.952921
 30
0.0
 11
70.48558400000001
 21
6.351391
 31
0.0
  0
LINE
  5
EF
330
1F
100
AcDbEntity
  8
1
370
    13
100
AcDbLine
 10
70.43673299999999
 20
6.031787
 30
0.0
 11
70.389216
 21
5.666748
 31
0.0
  0
LINE
  5
F0
330
1F
100
AcDbEntity
  8
1
370
    13
100
AcDbLine
 10
63.92007299999999
 20
8.067351999999999
 30
0.0
 11
63.778022
 21
7.566664999999999
 31
0.0
  0
LINE
  5
F1
330
1F
100
AcDbEntity
  8
1
370
    13
100
AcDbLine
 10
63.677928
 20
7.570097999999999
 30
0.0
 11
63.818649
 21
8.066097
 31
0.0
  0
LINE
  5
F2
330
1F
100
AcDbEntity
  8
1
370
    13
100
AcDbLine
 10
64.03121099999999
 20
8.884282999999999
 30
0.0
 11
63.978902
 21
8.378237999999999
 31
0.0
  0
LINE
  5
F3
330
1F
100
AcDbEntity
  8
1
370
    13
100
AcDbLine
 10
63.877478
 20
8.376983
 30
0.0
 11
63.944703
 21
9.027321999999999
 31
0.0
  0
LINE
  5
F4
330
1F
100
AcDbEntity
  8
1
370
    13
100
AcDbLine
 10
68.15480500000001
 20
8.125382
 30
0.0
 11
68.03115799999999
 21
8.233407000000001
 31
0.0
  0
LINE
  5
F5
330
1F
100
AcDbEntity
  8
1
370
    13
100
AcDbLine
 10
67.867329
 20
7.038553
 30
0.0
 11
67.941664
 21
6.973608999999999
 31
0.0
  0
LINE
  5
F6
330
1F
100
AcDbEntity
  8
1
370
    13
100
AcDbLine
 10
67.41981599999999
 20
7.847782999999999
 30
0.0
 11
67.54444699999999
 21
7.738899
 31
0.0
  0
LINE
  5
F7
330
1F
100
AcDbEntity
  8
1
370
    13
100
AcDbLine
 10
66.53784399999999
 20
7.290747999999999
 30
0.0
 11
66.417185
 21
7.396161999999999
 31
0.0
  0
LINE
  5
F8
330
1F
100
AcDbEntity
  8
1
370
    13
100
AcDbLine
 10
66.596905
 20
7.759874
 30
0.0
 11
66.71628699999999
 21
7.655574999999999
 31
0.0
  0
LINE
  5
F9
330
1F
100
AcDbEntity
  8
SK1
370
    13
100
AcDbLine
 10
-53.7
 20
9.525
 30
0.0
 11
-54.2
 21
9.025
 31
0.0
  0
LINE
  5
FA
330
1F
100
AcDbEntity
  8
SK1
370
    13
100
AcDbLine
 10
-54.2
 20
-9.025
 30
0.0
 11
-53.7
 21
-9.525
 31
0.0
  0
LINE
  5
FB
102
{ACAD_REACTORS
330
313
102
}
330
1F
100
AcDbEntity
  8
SK1
370
    13
100
AcDbLine
 10
-53.7
 20
-9.525
 30
0.0
 11
50.8
 21
-9.525
 31
0.0
  0
LINE
  5
FC
102
{ACAD_REACTORS
330
313
102
}
330
1F
100
AcDbEntity
  8
SK1
370
    13
100
AcDbLine
 10
50.8
 20
9.525
 30
0.0
 11
-53.7
 21
9.525
 31
0.0
  0
LINE
  5
FD
330
1F
100
AcDbEntity
  8
1
370
    13
100
AcDbLine
 10
51.70338
 20
-9.114524000000001
 30
0.0
 11
54.36614200000001
 21
-8.641510999999999
 31
0.0
  0
LINE
  5
FE
330
1F
100
AcDbEntity
  8
1
370
    13
100
AcDbLine
 10
54.36614200000001
 20
8.641510999999999
 30
0.0
 11
51.70338
 21
9.114524000000001
 31
0.0
  0
LINE
  5
FF
330
1F
100
AcDbEntity
  8
1
370
    13
100
AcDbLine
 10
55.90749699999999
 20
8.564441
 30
0.0
 11
55.24065
 21
8.564441
 31
0.0
  0
LINE
  5
100
330
1F
100
AcDbEntity
  8
1
370
    13
100
AcDbLine
 10
55.24065
 20
-8.564441
 30
0.0
 11
62.25291
 21
-8.564441
 31
0.0
  0
LINE
  5
101
330
1F
100
AcDbEntity
  8
1
370
    13
100
AcDbLine
 10
62.96845199999999
 20
-8.733356999999999
 30
0.0
 11
63.292786
 21
-8.895524999999999
 31
0.0
  0
LINE
  5
102
330
1F
100
AcDbEntity
  8
1
370
    13
100
AcDbLine
 10
64.008328
 20
-9.064441
 30
0.0
 11
65.098838
 21
-9.064441
 31
0.0
  0
LINE
  5
103
330
1F
100
AcDbEntity
  8
1
370
    13
100
AcDbLine
 10
62.764325
 20
-2.218504
 30
0.0
 11
65.25255200000001
 21
-2.007054999999999
 31
0.0
  0
LINE
  5
104
330
1F
100
AcDbEntity
  8
1
370
    13
100
AcDbLine
 10
70.389215
 20
-3.181081999999999
 30
0.0
 11
70.389215
 21
-5.132933999999999
 31
0.0
  0
LINE
  5
105
330
1F
100
AcDbEntity
  8
1
370
    13
100
AcDbLine
 10
68.534649
 20
-1.728143
 30
0.0
 11
70.20808199999999
 21
-1.585935
 31
0.0
  0
LINE
  5
106
330
1F
100
AcDbEntity
  8
1
370
    13
100
AcDbLine
 10
68.7725
 20
-2.414702999999999
 30
0.0
 11
68.732474
 21
-3.405751999999999
 31
0.0
  0
LINE
  5
107
330
1F
100
AcDbEntity
  8
1
370
    13
100
AcDbLine
 10
68.677982
 20
-2.880002
 30
0.0
 11
68.683641
 21
-3.780376999999999
 31
0.0
  0
LINE
  5
108
330
1F
100
AcDbEntity
  8
1
370
    13
100
AcDbLine
 10
66.030951
 20
-0.5426510000000001
 30
0.0
 11
65.436504
 21
-0.6736870000000001
 31
0.0
  0
LINE
  5
109
330
1F
100
AcDbEntity
  8
1
370
    13
100
AcDbLine
 10
63.99301
 20
3.720548999999999
 30
0.0
 11
64.034531
 21
3.821965
 31
0.0
  0
LINE
  5
10A
330
1F
100
AcDbEntity
  8
1
370
    13
100
AcDbLine
 10
64.404877
 20
4.640373999999999
 30
0.0
 11
64.062811
 21
3.891039
 31
0.0
  0
LINE
  5
10B
330
1F
100
AcDbEntity
  8
1
370
    13
100
AcDbLine
 10
63.121467
 20
2.444389
 30
0.0
 11
63.85965699999999
 21
3.685062999999999
 31
0.0
  0
LINE
  5
10C
330
1F
100
AcDbEntity
  8
1
370
    13
100
AcDbLine
 10
63.927936
 20
3.694742999999999
 30
0.0
 11
63.2165
 21
2.499036
 31
0.0
  0
LINE
  5
10D
330
1F
100
AcDbEntity
  8
1
370
    13
100
AcDbLine
 10
63.2165
 20
2.499036
 30
0.0
 11
63.15675500000001
 21
2.464783999999999
 31
0.0
  0
LINE
  5
10E
330
1F
100
AcDbEntity
  8
1
370
    13
100
AcDbLine
 10
63.2165
 20
2.499036
 30
0.0
 11
63.662944
 21
3.047496999999999
 31
0.0
  0
LINE
  5
10F
330
1F
100
AcDbEntity
  8
1
370
    13
100
AcDbLine
 10
70.389215
 20
6.941703999999999
 30
0.0
 11
70.389215
 21
4.465113999999999
 31
0.0
  0
LINE
  5
110
330
1F
100
AcDbEntity
  8
1
370
    13
100
AcDbLine
 10
68.01331600000001
 20
-0.105671
 30
0.0
 11
67.01191
 21
-0.326414
 31
0.0
  0
LINE
  5
111
330
1F
100
AcDbEntity
  8
1
370
    13
100
AcDbLine
 10
68.329303
 20
0.748212
 30
0.0
 11
68.186301
 21
-0.075922
 31
0.0
  0
LINE
  5
112
330
1F
100
AcDbEntity
  8
1
370
    13
100
AcDbLine
 10
70.134017
 20
0.57342
 30
0.0
 11
70.134017
 21
-0.362356
 31
0.0
  0
LINE
  5
113
330
1F
100
AcDbEntity
  8
1
370
    13
100
AcDbLine
 10
70.068002
 20
-0.262604
 30
0.0
 11
70.068002
 21
0.6278990000000001
 31
0.0
  0
LINE
  5
114
330
1F
100
AcDbEntity
  8
1
370
    13
100
AcDbLine
 10
62.764325
 20
-8.548721
 30
0.0
 11
65.25255200000001
 21
-8.147083999999999
 31
0.0
  0
LINE
  5
115
330
1F
100
AcDbEntity
  8
1
370
    13
100
AcDbLine
 10
67.539896
 20
-7.777872
 30
0.0
 11
69.4642
 21
-7.46726
 31
0.0
  0
LINE
  5
116
330
1F
100
AcDbEntity
  8
1
370
    13
100
AcDbLine
 10
68.889946
 20
-8.638227999999999
 30
0.0
 11
68.881766
 21
-8.991932999999999
 31
0.0
  0
LINE
  5
117
330
1F
100
AcDbEntity
  8
1
370
    13
100
AcDbLine
 10
68.67976899999999
 20
-8.147973
 30
0.0
 11
68.683641
 21
-8.860932
 31
0.0
  0
LINE
  5
118
330
1F
100
AcDbEntity
  8
1
370
    13
100
AcDbLine
 10
63.481784
 20
7.5636
 30
0.0
 11
63.85965699999999
 21
8.576064
 31
0.0
  0
LINE
  5
119
330
1F
100
AcDbEntity
  8
1
370
    13
100
AcDbLine
 10
63.88193799999999
 20
8.420147
 30
0.0
 11
63.56346999999999
 21
7.566852
 31
0.0
  0
LINE
  5
11A
330
1F
100
AcDbEntity
  8
1
370
    13
100
AcDbLine
 10
70.38772900000001
 20
-0.026409
 30
0.0
 11
70.38772900000001
 21
-2.321763
 31
0.0
  0
LINE
  5
11B
330
1F
100
AcDbEntity
  8
1
370
    13
100
AcDbLine
 10
70.389215
 20
-2.117499
 30
0.0
 11
70.389215
 21
-0.029329
 31
0.0
  0
LINE
  5
11C
330
1F
100
AcDbEntity
  8
1
370
    13
100
AcDbLine
 10
70.474406
 20
0.090057
 30
0.0
 11
70.186549
 21
-0.313244
 31
0.0
  0
LINE
  5
11D
330
1F
100
AcDbEntity
  8
1
370
    13
100
AcDbLine
 10
70.43673299999999
 20
1.566283
 30
0.0
 11
70.37889599999999
 21
1.518050999999999
 31
0.0
  0
LINE
  5
11E
330
1F
100
AcDbEntity
  8
1
370
    13
100
AcDbLine
 10
70.53111499999999
 20
1.796120999999999
 30
0.0
 11
70.48558400000001
 21
1.66469
 31
0.0
  0
LINE
  5
11F
330
1F
100
AcDbEntity
  8
1
370
    13
100
AcDbLine
 10
70.766533
 20
2.47568
 30
0.0
 11
70.712863
 21
2.320756
 31
0.0
  0
LINE
  5
120
330
1F
100
AcDbEntity
  8
1
370
    13
100
AcDbLine
 10
70.797941
 20
2.723116999999999
 30
0.0
 11
70.79429399999999
 21
2.582043
 31
0.0
  0
LINE
  5
121
330
1F
100
AcDbEntity
  8
1
370
    13
100
AcDbLine
 10
70.69481999999999
 20
1.918633
 30
0.0
 11
70.698391
 21
2.202736
 31
0.0
  0
LINE
  5
122
330
1F
100
AcDbEntity
  8
1
370
    13
100
AcDbLine
 10
70.797941
 20
2.195104999999999
 30
0.0
 11
70.79429399999999
 21
1.904909999999999
 31
0.0
  0
LINE
  5
123
330
1F
100
AcDbEntity
  8
1
370
    13
100
AcDbLine
 10
64.03121099999999
 20
3.588115
 30
0.0
 11
63.978902
 21
3.452884999999999
 31
0.0
  0
LINE
  5
124
330
1F
100
AcDbEntity
  8
1
370
    13
100
AcDbLine
 10
63.877478
 20
3.466233
 30
0.0
 11
63.944703
 21
3.640022
 31
0.0
  0
LINE
  5
125
330
1F
100
AcDbEntity
  8
1
370
    13
100
AcDbLine
 10
65.02032199999999
 20
5.204305
 30
0.0
 11
67.33456499999999
 21
4.922495999999999
 31
0.0
  0
LINE
  5
126
330
1F
100
AcDbEntity
  8
1
370
    13
100
AcDbLine
 10
70.38415999999999
 20
1.800695999999999
 30
0.0
 11
70.66376099999999
 21
1.854497
 31
0.0
  0
LINE
  5
127
330
1F
100
AcDbEntity
  8
1
370
    13
100
AcDbLine
 10
70.766533
 20
1.841409
 30
0.0
 11
70.48558400000001
 21
1.787347999999999
 31
0.0
  0
LINE
  5
128
330
1F
100
AcDbEntity
  8
1
370
    13
100
AcDbLine
 10
63.92007299999999
 20
3.311174999999999
 30
0.0
 11
63.50215999999999
 21
2.334013999999999
 31
0.0
  0
LINE
  5
129
330
1F
100
AcDbEntity
  8
1
370
    13
100
AcDbLine
 10
63.398722
 20
2.342652999999999
 30
0.0
 11
63.818649
 21
3.324523
 31
0.0
  0
LINE
  5
12A
330
1F
100
AcDbEntity
  8
1
370
    13
100
AcDbLine
 10
63.456099
 20
2.169728
 30
0.0
 11
63.45252900000001
 21
1.885625999999999
 31
0.0
  0
LINE
  5
12B
330
1F
100
AcDbEntity
  8
1
370
    13
100
AcDbLine
 10
63.35394399999999
 20
1.899697999999999
 30
0.0
 11
63.357591
 21
2.189893
 31
0.0
  0
LINE
  5
12C
330
1F
100
AcDbEntity
  8
1
370
    13
100
AcDbLine
 10
70.27082199999999
 20
1.509069
 30
0.0
 11
70.33530899999999
 21
1.725595999999999
 31
0.0
  0
LINE
  5
12D
330
1F
100
AcDbEntity
  8
1
370
    13
100
AcDbLine
 10
70.43673299999999
 20
1.712249
 30
0.0
 11
70.35385699999999
 21
1.433980999999999
 31
0.0
  0
LINE
  5
12E
330
1F
100
AcDbEntity
  8
1
370
    13
100
AcDbLine
 10
63.903399
 20
-6.094998
 30
0.0
 11
63.944703
 21
-6.412077
 31
0.0
  0
LINE
  5
12F
330
1F
100
AcDbEntity
  8
1
370
    13
100
AcDbLine
 10
65.02032199999999
 20
-5.035036999999999
 30
0.0
 11
67.33456499999999
 21
-5.294260999999999
 31
0.0
  0
LINE
  5
130
330
1F
100
AcDbEntity
  8
1
370
    13
100
AcDbLine
 10
70.797941
 20
-7.325822999999999
 30
0.0
 11
70.79429399999999
 21
-6.745607999999999
 31
0.0
  0
LINE
  5
131
330
1F
100
AcDbEntity
  8
1
370
    13
100
AcDbLine
 10
70.484939
 20
-5.002461
 30
0.0
 11
70.486909
 21
-5.315948999999999
 31
0.0
  0
LINE
  5
132
330
1F
100
AcDbEntity
  8
1
370
    13
100
AcDbLine
 10
70.474406
 20
-4.894639999999999
 30
0.0
 11
70.38921399999999
 21
-4.442376999999999
 31
0.0
  0
LINE
  5
133
102
{ACAD_REACTORS
330
38D
102
}
330
1F
100
AcDbEntity
  8
SK1
370
    13
100
AcDbLine
 10
-54.2
 20
-9.025
 30
0.0
 11
-54.2
 21
9.025
 31
0.0
  0
LINE
  5
134
330
1F
100
AcDbEntity
  8
SK1
370
    13
100
AcDbLine
 10
-53.7
 20
-9.525
 30
0.0
 11
-53.7
 21
9.525
 31
0.0
  0
LINE
  5
135
102
{ACAD_REACTORS
330
35D
102
}
330
1F
100
AcDbEntity
  8
SK1
370
    13
100
AcDbLine
 10
50.8
 20
9.525
 30
0.0
 11
50.8
 21
-9.525
 31
0.0
  0
LINE
  5
136
330
1F
100
AcDbEntity
  8
CUT
370
    18
100
AcDbLine
 10
70.793336
 20
8.173783
 30
0.0
 11
70.79429399999999
 21
8.266069999999999
 31
0.0
  0
LINE
  5
137
330
1F
100
AcDbEntity
  8
CUT
370
    18
100
AcDbLine
 10
63.818649
 20
8.066097
 30
0.0
 11
63.877478
 21
8.376983
 31
0.0
  0
LINE
  5
138
330
1F
100
AcDbEntity
  8
1
370
    18
100
AcDbLine
 10
70.13467299999999
 20
-0.346595
 30
0.0
 11
70.186543
 21
-0.3132519999999999
 31
0.0
  0
LINE
  5
139
330
1F
100
AcDbEntity
  8
1
370
    18
100
AcDbLine
 10
70.700919
 20
1.828783
 30
0.0
 11
70.48491099999999
 21
0.11632
 31
0.0
  0
LINE
  5
13A
330
1F
100
AcDbEntity
  8
1
370
    18
100
AcDbLine
 10
70.793336
 20
2.56144
 30
0.0
 11
70.758489
 21
2.285179999999999
 31
0.0
  0
LINE
  5
13B
330
1F
100
AcDbEntity
  8
1
370
    18
100
AcDbLine
 10
70.72834499999999
 20
2.759609999999999
 30
0.0
 11
70.79378299999999
 21
2.742718999999999
 31
0.0
  0
LINE
  5
13C
330
1F
100
AcDbEntity
  8
1
370
    18
100
AcDbLine
 10
67.87119399999999
 20
7.693788999999999
 30
0.0
 11
67.81492599999999
 21
7.672241
 31
0.0
  0
LINE
  5
13D
330
1F
100
AcDbEntity
  8
1
370
    18
100
AcDbLine
 10
67.765795
 20
7.650081
 30
0.0
 11
67.81492599999999
 21
7.672241
 31
0.0
  0
LINE
  5
13E
330
1F
100
AcDbEntity
  8
1
370
    18
100
AcDbLine
 10
66.45515500000001
 20
6.835278999999998
 30
0.0
 11
66.478678
 21
6.72473
 31
0.0
  0
LINE
  5
13F
330
1F
100
AcDbEntity
  8
1
370
    18
100
AcDbLine
 10
66.507886
 20
6.901814999999999
 30
0.0
 11
66.45515500000001
 21
6.835278999999998
 31
0.0
  0
LINE
  5
140
330
1F
100
AcDbEntity
  8
1
370
    18
100
AcDbLine
 10
66.553046
 20
6.935233999999999
 30
0.0
 11
66.554585
 21
7.269261
 31
0.0
  0
LINE
  5
141
330
1F
100
AcDbEntity
  8
1
370
    18
100
AcDbLine
 10
66.507886
 20
6.901814999999999
 30
0.0
 11
66.553046
 21
6.935233999999999
 31
0.0
  0
LINE
  5
142
330
1F
100
AcDbEntity
  8
1
370
    18
100
AcDbLine
 10
66.76702500000001
 20
7.637722
 30
0.0
 11
67.056425
 21
7.808307
 31
0.0
  0
LINE
  5
143
330
1F
100
AcDbEntity
  8
1
370
    18
100
AcDbLine
 10
67.056425
 20
7.808307
 30
0.0
 11
67.063243
 21
7.865041
 31
0.0
  0
LINE
  5
144
330
1F
100
AcDbEntity
  8
1
370
    18
100
AcDbLine
 10
67.095225
 20
7.945433999999999
 30
0.0
 11
67.063243
 21
7.865041
 31
0.0
  0
LINE
  5
145
330
1F
100
AcDbEntity
  8
1
370
    18
100
AcDbLine
 10
66.62562499999999
 20
7.668630999999999
 30
0.0
 11
66.457651
 21
7.377294
 31
0.0
  0
LINE
  5
146
330
1F
100
AcDbEntity
  8
1
370
    18
100
AcDbLine
 10
66.716234
 20
7.655619999999999
 30
0.0
 11
66.76702500000001
 21
7.637722
 31
0.0
  0
LINE
  5
147
330
1F
100
AcDbEntity
  8
1
370
    18
100
AcDbLine
 10
66.71302199999999
 20
7.658605999999999
 30
0.0
 11
66.62562499999999
 21
7.668630999999999
 31
0.0
  0
LINE
  5
148
330
1F
100
AcDbEntity
  8
1
370
    18
100
AcDbLine
 10
70.682917
 20
2.253063999999999
 30
0.0
 11
70.698391
 21
2.202736
 31
0.0
  0
LINE
  5
149
330
1F
100
AcDbEntity
  8
1
370
    18
100
AcDbLine
 10
70.408881
 20
2.444504
 30
0.0
 11
70.319867
 21
2.465634999999999
 31
0.0
  0
LINE
  5
14A
330
1F
100
AcDbEntity
  8
1
370
    18
100
AcDbLine
 10
70.768433
 20
2.279154999999999
 30
0.0
 11
70.79817199999999
 21
2.21729
 31
0.0
  0
LINE
  5
14B
330
1F
100
AcDbEntity
  8
1
370
    18
100
AcDbLine
 10
70.213942
 20
2.481592
 30
0.0
 11
70.31761
 21
2.458849
 31
0.0
  0
LINE
  5
14C
330
1F
100
AcDbEntity
  8
1
370
    18
100
AcDbLine
 10
67.127206
 20
3.126558999999999
 30
0.0
 11
70.141147
 21
2.497519
 31
0.0
  0
LINE
  5
14D
330
1F
100
AcDbEntity
  8
1
370
    18
100
AcDbLine
 10
64.319901
 20
3.661566999999999
 30
0.0
 11
67.127205
 21
3.126590999999999
 31
0.0
  0
LINE
  5
14E
330
1F
100
AcDbEntity
  8
1
370
    18
100
AcDbLine
 10
64.32022499999999
 20
3.673003
 30
0.0
 11
70.31985899999999
 21
2.465637
 31
0.0
  0
LINE
  5
14F
330
1F
100
AcDbEntity
  8
1
370
    18
100
AcDbLine
 10
70.69971800000001
 20
2.944188999999999
 30
0.0
 11
70.798215
 21
2.216972
 31
0.0
  0
LINE
  5
150
330
1F
100
AcDbEntity
  8
1
370
    18
100
AcDbLine
 10
68.881766
 20
-8.991932999999999
 30
0.0
 11
70.002066
 21
-8.967116
 31
0.0
  0
LINE
  5
151
330
1F
100
AcDbEntity
  8
1
370
    18
100
AcDbLine
 10
62.72594399999999
 20
-8.576539
 30
0.0
 11
62.810217
 21
-8.578692
 31
0.0
  0
LINE
  5
152
330
1F
100
AcDbEntity
  8
1
370
    18
100
AcDbLine
 10
62.764325
 20
-8.548721
 30
0.0
 11
62.810217
 21
-8.578692
 31
0.0
  0
LINE
  5
153
330
1F
100
AcDbEntity
  8
1
370
    18
100
AcDbLine
 10
64.01444599999999
 20
-9.030472999999998
 30
0.0
 11
65.05100300000001
 21
-9.035667999999999
 31
0.0
  0
LINE
  5
154
330
1F
100
AcDbEntity
  8
1
370
    18
100
AcDbLine
 10
63.330209
 20
-8.853868999999999
 30
0.0
 11
64.01444599999999
 21
-9.030472999999998
 31
0.0
  0
LINE
  5
155
330
1F
100
AcDbEntity
  8
1
370
    18
100
AcDbLine
 10
63.005875
 20
-8.673474
 30
0.0
 11
63.330209
 21
-8.853868999999999
 31
0.0
  0
LINE
  5
156
330
1F
100
AcDbEntity
  8
1
370
    18
100
AcDbLine
 10
62.810217
 20
-8.578692
 30
0.0
 11
63.005875
 21
-8.673474
 31
0.0
  0
LINE
  5
157
330
1F
100
AcDbEntity
  8
1
370
    18
100
AcDbLine
 10
63.292786
 20
-8.869872
 30
0.0
 11
62.96845199999999
 21
-8.689342999999999
 31
0.0
  0
LINE
  5
158
330
1F
100
AcDbEntity
  8
1
370
    18
100
AcDbLine
 10
64.008328
 20
-9.053966
 30
0.0
 11
63.292786
 21
-8.869872
 31
0.0
  0
LINE
  5
159
330
1F
100
AcDbEntity
  8
1
370
    18
100
AcDbLine
 10
70.37767099999999
 20
-8.121449
 30
0.0
 11
70.38772900000001
 21
-8.264235000000001
 31
0.0
  0
LINE
  5
15A
330
1F
100
AcDbEntity
  8
1
370
    18
100
AcDbLine
 10
70.38772900000001
 20
-8.264235000000001
 30
0.0
 11
70.32384799999999
 21
-8.310985
 31
0.0
  0
LINE
  5
15B
330
1F
100
AcDbEntity
  8
1
370
    18
100
AcDbLine
 10
65.048503
 20
-9.059217
 30
0.0
 11
64.008328
 21
-9.053966
 31
0.0
  0
LINE
  5
15C
330
1F
100
AcDbEntity
  8
1
370
    18
100
AcDbLine
 10
70.38772900000001
 20
-8.264235000000001
 30
0.0
 11
70.389215
 21
-8.591405999999999
 31
0.0
  0
LINE
  5
15D
330
1F
100
AcDbEntity
  8
1
370
    18
100
AcDbLine
 10
70.389215
 20
-8.591405999999999
 30
0.0
 11
70.325334
 21
-8.638157000000001
 31
0.0
  0
LINE
  5
15E
330
1F
100
AcDbEntity
  8
1
370
    18
100
AcDbLine
 10
70.389215
 20
-7.92668
 30
0.0
 11
70.38772900000001
 21
-7.652491999999999
 31
0.0
  0
LINE
  5
15F
330
1F
100
AcDbEntity
  8
1
370
    18
100
AcDbLine
 10
69.99737399999999
 20
-8.990655
 30
0.0
 11
68.87754699999999
 21
-9.015477999999999
 31
0.0
  0
LINE
  5
160
330
1F
100
AcDbEntity
  8
1
370
    18
100
AcDbLine
 10
62.239231
 20
8.308702
 30
0.0
 11
57.641282
 21
8.051966
 31
0.0
  0
LINE
  5
161
330
1F
100
AcDbEntity
  8
1
370
    18
100
AcDbLine
 10
62.986078
 20
8.505247
 30
0.0
 11
62.239231
 21
8.308702
 31
0.0
  0
LINE
  5
162
330
1F
100
AcDbEntity
  8
1
370
    18
100
AcDbLine
 10
63.310412
 20
8.669717999999999
 30
0.0
 11
62.986078
 21
8.505247
 31
0.0
  0
LINE
  5
163
330
1F
100
AcDbEntity
  8
1
370
    18
100
AcDbLine
 10
63.92536800000001
 20
8.843967999999998
 30
0.0
 11
63.31039699999999
 21
8.669747
 31
0.0
  0
LINE
  5
164
330
1F
100
AcDbEntity
  8
1
370
    18
100
AcDbLine
 10
63.85965699999999
 20
8.576064
 30
0.0
 11
63.910598
 21
8.709217999999999
 31
0.0
  0
LINE
  5
165
330
1F
100
AcDbEntity
  8
1
370
    18
100
AcDbLine
 10
63.85965699999999
 20
8.576064
 30
0.0
 11
63.927936
 21
8.543395
 31
0.0
  0
LINE
  5
166
330
1F
100
AcDbEntity
  8
1
370
    18
100
AcDbLine
 10
63.29278699999999
 20
8.701575999999999
 30
0.0
 11
63.928989
 21
8.882636999999999
 31
0.0
  0
LINE
  5
167
330
1F
100
AcDbEntity
  8
1
370
    18
100
AcDbLine
 10
62.25291
 20
8.347545
 30
0.0
 11
62.96845199999999
 21
8.537063999999999
 31
0.0
  0
LINE
  5
168
330
1F
100
AcDbEntity
  8
1
370
    18
100
AcDbLine
 10
62.96845199999999
 20
8.537063999999999
 30
0.0
 11
63.292786
 21
8.701577999999999
 31
0.0
  0
LINE
  5
169
330
1F
100
AcDbEntity
  8
1
370
    18
100
AcDbLine
 10
70.37767099999999
 20
-0.05049
 30
0.0
 11
70.154153
 21
-0.363311
 31
0.0
  0
LINE
  5
16A
330
1F
100
AcDbEntity
  8
1
370
    18
100
AcDbLine
 10
70.361671
 20
-2.478972
 30
0.0
 11
70.37767099999999
 21
-2.403102
 31
0.0
  0
LINE
  5
16B
330
1F
100
AcDbEntity
  8
1
370
    18
100
AcDbLine
 10
70.37767099999999
 20
-2.403102
 30
0.0
 11
70.38772900000001
 21
-2.321763
 31
0.0
  0
LINE
  5
16C
330
1F
100
AcDbEntity
  8
1
370
    18
100
AcDbLine
 10
70.38772900000001
 20
-2.321763
 30
0.0
 11
70.389215
 21
-2.117496
 31
0.0
  0
LINE
  5
16D
330
1F
100
AcDbEntity
  8
1
370
    18
100
AcDbLine
 10
70.48491099999999
 20
-7.577897
 30
0.0
 11
70.47524799999999
 21
-7.465092999999999
 31
0.0
  0
LINE
  5
16E
330
1F
100
AcDbEntity
  8
1
370
    18
100
AcDbLine
 10
70.780951
 20
-6.093757
 30
0.0
 11
70.790361
 21
-6.148158
 31
0.0
  0
LINE
  5
16F
330
1F
100
AcDbEntity
  8
1
370
    18
100
AcDbLine
 10
70.79817299999999
 20
-6.992139999999999
 30
0.0
 11
70.797941
 21
-6.941355
 31
0.0
  0
LINE
  5
170
330
1F
100
AcDbEntity
  8
1
370
    18
100
AcDbLine
 10
70.486909
 20
-7.945835
 30
0.0
 11
70.349795
 21
-8.21258
 31
0.0
  0
LINE
  5
171
330
1F
100
AcDbEntity
  8
1
370
    18
100
AcDbLine
 10
70.69425999999999
 20
8.258530999999999
 30
0.0
 11
70.667605
 21
7.962730999999999
 31
0.0
  0
LINE
  5
172
330
1F
100
AcDbEntity
  8
1
370
    18
100
AcDbLine
 10
70.790361
 20
8.1135
 30
0.0
 11
70.793336
 21
8.173783
 31
0.0
  0
LINE
  5
173
330
1F
100
AcDbEntity
  8
1
370
    18
100
AcDbLine
 10
70.780951
 20
8.037547999999999
 30
0.0
 11
70.790361
 21
8.1135
 31
0.0
  0
LINE
  5
174
330
1F
100
AcDbEntity
  8
1
370
    18
100
AcDbLine
 10
70.408881
 20
9.504286999999999
 30
0.0
 11
70.319867
 21
9.503678999999999
 31
0.0
  0
LINE
  5
175
330
1F
100
AcDbEntity
  8
1
370
    18
100
AcDbLine
 10
70.79817299999999
 20
9.117492999999999
 30
0.0
 11
70.797941
 21
9.057872999999998
 31
0.0
  0
LINE
  5
176
330
1F
100
AcDbEntity
  8
1
370
    18
100
AcDbLine
 10
70.141147
 20
9.472857000000001
 30
0.0
 11
70.31761
 21
9.473672
 31
0.0
  0
LINE
  5
177
330
1F
100
AcDbEntity
  8
1
370
    18
100
AcDbLine
 10
67.127206
 20
9.434203999999999
 30
0.0
 11
70.141147
 21
9.472857000000001
 31
0.0
  0
LINE
  5
178
330
1F
100
AcDbEntity
  8
1
370
    18
100
AcDbLine
 10
64.319901
 20
9.362363
 30
0.0
 11
67.127205
 21
9.434302
 31
0.0
  0
LINE
  5
179
330
1F
100
AcDbEntity
  8
1
370
    18
100
AcDbLine
 10
64.32022499999999
 20
9.392061999999999
 30
0.0
 11
70.31985899999999
 21
9.503678999999999
 31
0.0
  0
LINE
  5
17A
330
1F
100
AcDbEntity
  8
1
370
    18
100
AcDbLine
 10
70.69425999999999
 20
1.912454
 30
0.0
 11
70.6798
 21
1.860329999999999
 31
0.0
  0
LINE
  5
17B
330
1F
100
AcDbEntity
  8
1
370
    18
100
AcDbLine
 10
67.86467299999999
 20
4.855859999999999
 30
0.0
 11
67.33525799999999
 21
4.922412
 31
0.0
  0
LINE
  5
17C
330
1F
100
AcDbEntity
  8
1
370
    18
100
AcDbLine
 10
64.41285500000001
 20
4.649378999999999
 30
0.0
 11
64.478651
 21
4.790633
 31
0.0
  0
LINE
  5
17D
330
1F
100
AcDbEntity
  8
1
370
    18
100
AcDbLine
 10
64.478649
 20
4.790629
 30
0.0
 11
64.6368
 21
5.128721999999999
 31
0.0
  0
LINE
  5
17E
330
1F
100
AcDbEntity
  8
1
370
    18
100
AcDbLine
 10
63.920839
 20
3.313037999999999
 30
0.0
 11
63.97695200000001
 21
3.448933
 31
0.0
  0
LINE
  5
17F
330
1F
100
AcDbEntity
  8
1
370
    18
100
AcDbLine
 10
63.456697
 20
2.176156999999999
 30
0.0
 11
63.49669
 21
2.322599
 31
0.0
  0
LINE
  5
180
330
1F
100
AcDbEntity
  8
1
370
    18
100
AcDbLine
 10
70.141147
 20
2.49752
 30
0.0
 11
70.05434
 21
2.517201
 31
0.0
  0
LINE
  5
181
330
1F
100
AcDbEntity
  8
1
370
    18
100
AcDbLine
 10
70.087467
 20
4.570810999999999
 30
0.0
 11
67.865313
 21
4.855776999999999
 31
0.0
  0
LINE
  5
182
330
1F
100
AcDbEntity
  8
1
370
    18
100
AcDbLine
 10
70.681639
 20
3.071250999999999
 30
0.0
 11
70.69971800000001
 21
2.944191999999999
 31
0.0
  0
LINE
  5
183
330
1F
100
AcDbEntity
  8
1
370
    18
100
AcDbLine
 10
70.37046499999999
 20
4.491516
 30
0.0
 11
70.087468
 21
4.570810999999999
 31
0.0
  0
LINE
  5
184
330
1F
100
AcDbEntity
  8
1
370
    18
100
AcDbLine
 10
70.486909
 20
4.372505
 30
0.0
 11
70.681639
 21
3.071253
 31
0.0
  0
LINE
  5
185
330
1F
100
AcDbEntity
  8
1
370
    18
100
AcDbLine
 10
64.136988
 20
3.671618
 30
0.0
 11
64.319901
 21
3.661566
 31
0.0
  0
LINE
  5
186
330
1F
100
AcDbEntity
  8
1
370
    18
100
AcDbLine
 10
64.043537
 20
3.619977999999999
 30
0.0
 11
64.136988
 21
3.671618
 31
0.0
  0
LINE
  5
187
330
1F
100
AcDbEntity
  8
1
370
    18
100
AcDbLine
 10
63.983664
 20
3.673264
 30
0.0
 11
63.944702
 21
3.640019999999999
 31
0.0
  0
LINE
  5
188
330
1F
100
AcDbEntity
  8
1
370
    18
100
AcDbLine
 10
63.944703
 20
3.640022
 30
0.0
 11
64.022904
 21
3.809114
 31
0.0
  0
LINE
  5
189
330
1F
100
AcDbEntity
  8
1
370
    18
100
AcDbLine
 10
64.036726
 20
3.838948
 30
0.0
 11
64.41285699999999
 21
4.649383999999999
 31
0.0
  0
LINE
  5
18A
330
1F
100
AcDbEntity
  8
1
370
    18
100
AcDbLine
 10
67.05933
 20
3.114943999999999
 30
0.0
 11
66.894064
 21
3.126269999999999
 31
0.0
  0
LINE
  5
18B
330
1F
100
AcDbEntity
  8
1
370
    18
100
AcDbLine
 10
63.330209
 20
-2.646962999999999
 30
0.0
 11
63.292786
 21
-2.696793999999999
 31
0.0
  0
LINE
  5
18C
330
1F
100
AcDbEntity
  8
1
370
    18
100
AcDbLine
 10
67.054526
 20
-1.785431
 30
0.0
 11
67.491641
 21
-1.409836
 31
0.0
  0
LINE
  5
18D
330
1F
100
AcDbEntity
  8
1
370
    18
100
AcDbLine
 10
65.22156999999999
 20
-3.716795999999999
 30
0.0
 11
65.048503
 21
-3.108350999999999
 31
0.0
  0
LINE
  5
18E
330
1F
100
AcDbEntity
  8
1
370
    18
100
AcDbLine
 10
65.05100300000001
 20
-3.053084
 30
0.0
 11
65.048503
 21
-3.108350999999999
 31
0.0
  0
LINE
  5
18F
330
1F
100
AcDbEntity
  8
1
370
    18
100
AcDbLine
 10
65.048503
 20
-3.108350999999999
 30
0.0
 11
64.008328
 21
-2.98775
 31
0.0
  0
LINE
  5
190
330
1F
100
AcDbEntity
  8
1
370
    18
100
AcDbLine
 10
64.01444599999999
 20
-2.933825999999999
 30
0.0
 11
65.05100300000001
 21
-3.053084
 31
0.0
  0
LINE
  5
191
330
1F
100
AcDbEntity
  8
1
370
    18
100
AcDbLine
 10
63.005875
 20
-2.394783
 30
0.0
 11
63.330209
 21
-2.646962999999999
 31
0.0
  0
LINE
  5
192
330
1F
100
AcDbEntity
  8
1
370
    18
100
AcDbLine
 10
62.810217
 20
-2.259529999999999
 30
0.0
 11
63.005875
 21
-2.394783
 31
0.0
  0
LINE
  5
193
330
1F
100
AcDbEntity
  8
1
370
    18
100
AcDbLine
 10
62.764325
 20
-2.218504
 30
0.0
 11
62.810217
 21
-2.259529999999999
 31
0.0
  0
LINE
  5
194
330
1F
100
AcDbEntity
  8
1
370
    18
100
AcDbLine
 10
62.25291
 20
-8.494766999999999
 30
0.0
 11
60.918652
 21
-8.482577
 31
0.0
  0
LINE
  5
195
330
1F
100
AcDbEntity
  8
1
370
    18
100
AcDbLine
 10
62.25291
 20
7.486521999999999
 30
0.0
 11
60.918652
 21
7.530732
 31
0.0
  0
LINE
  5
196
330
1F
100
AcDbEntity
  8
1
370
    18
100
AcDbLine
 10
62.25291
 20
-2.171359999999999
 30
0.0
 11
60.918652
 21
-2.082323
 31
0.0
  0
LINE
  5
197
330
1F
100
AcDbEntity
  8
1
370
    18
100
AcDbLine
 10
63.292786
 20
-2.696793999999999
 30
0.0
 11
62.96845199999999
 21
-2.443147999999999
 31
0.0
  0
LINE
  5
198
330
1F
100
AcDbEntity
  8
1
370
    18
100
AcDbLine
 10
63.005875
 20
-2.394783
 30
0.0
 11
62.96845199999999
 21
-2.443147999999999
 31
0.0
  0
LINE
  5
199
330
1F
100
AcDbEntity
  8
1
370
    18
100
AcDbLine
 10
62.96845199999999
 20
-5.782246999999999
 30
0.0
 11
63.292786
 21
-5.911042
 31
0.0
  0
LINE
  5
19A
330
1F
100
AcDbEntity
  8
1
370
    18
100
AcDbLine
 10
62.72594399999999
 20
-2.275116999999999
 30
0.0
 11
62.810217
 21
-2.259529999999999
 31
0.0
  0
LINE
  5
19B
330
1F
100
AcDbEntity
  8
1
370
    18
100
AcDbLine
 10
65.274169
 20
-4.877491
 30
0.0
 11
67.514374
 21
-5.131733
 31
0.0
  0
LINE
  5
19C
330
1F
100
AcDbEntity
  8
1
370
    18
100
AcDbLine
 10
70.38365699999999
 20
1.800583
 30
0.0
 11
70.337572
 21
1.731640999999999
 31
0.0
  0
LINE
  5
19D
330
1F
100
AcDbEntity
  8
1
370
    18
100
AcDbLine
 10
69.964535
 20
1.318137999999999
 30
0.0
 11
67.106987
 21
1.517729
 31
0.0
  0
LINE
  5
19E
330
1F
100
AcDbEntity
  8
1
370
    18
100
AcDbLine
 10
67.106987
 20
1.517688999999999
 30
0.0
 11
64.02774100000001
 21
1.710798
 31
0.0
  0
LINE
  5
19F
330
1F
100
AcDbEntity
  8
1
370
    18
100
AcDbLine
 10
64.02774100000001
 20
1.710800999999999
 30
0.0
 11
63.847088
 21
1.721495999999999
 31
0.0
  0
LINE
  5
1A0
330
1F
100
AcDbEntity
  8
1
370
    18
100
AcDbLine
 10
63.479837
 20
1.828149
 30
0.0
 11
63.45252900000001
 21
1.885625999999999
 31
0.0
  0
LINE
  5
1A1
330
1F
100
AcDbEntity
  8
1
370
    18
100
AcDbLine
 10
63.752127
 20
1.711211
 30
0.0
 11
63.84373100000001
 21
1.707367999999999
 31
0.0
  0
LINE
  5
1A2
330
1F
100
AcDbEntity
  8
1
370
    18
100
AcDbLine
 10
63.384198
 20
1.820627999999999
 30
0.0
 11
63.353805
 21
1.878134999999999
 31
0.0
  0
LINE
  5
1A3
330
1F
100
AcDbEntity
  8
1
370
    18
100
AcDbLine
 10
69.96437199999999
 20
1.307780999999999
 30
0.0
 11
63.84374000000001
 21
1.707367999999999
 31
0.0
  0
LINE
  5
1A4
330
1F
100
AcDbEntity
  8
1
370
    18
100
AcDbLine
 10
70.087467
 20
-5.569784999999999
 30
0.0
 11
67.865313
 21
-5.349546
 31
0.0
  0
LINE
  5
1A5
330
1F
100
AcDbEntity
  8
1
370
    18
100
AcDbLine
 10
67.86467299999999
 20
-5.349483999999999
 30
0.0
 11
67.33525799999999
 21
-5.294337999999999
 31
0.0
  0
LINE
  5
1A6
330
1F
100
AcDbEntity
  8
1
370
    18
100
AcDbLine
 10
70.408881
 20
-7.60043
 30
0.0
 11
70.319867
 21
-7.586913
 31
0.0
  0
LINE
  5
1A7
330
1F
100
AcDbEntity
  8
1
370
    18
100
AcDbLine
 10
64.32022499999999
 20
-6.740991
 30
0.0
 11
70.31985899999999
 21
-7.586911999999999
 31
0.0
  0
LINE
  5
1A8
330
1F
100
AcDbEntity
  8
1
370
    18
100
AcDbLine
 10
70.48491099999999
 20
-4.998028999999999
 30
0.0
 11
70.47524799999999
 21
-4.899106999999999
 31
0.0
  0
LINE
  5
1A9
330
1F
100
AcDbEntity
  8
1
370
    18
100
AcDbLine
 10
70.47524799999999
 20
-4.899106999999999
 30
0.0
 11
70.780951
 21
-6.561675999999999
 31
0.0
  0
LINE
  5
1AA
330
1F
100
AcDbEntity
  8
1
370
    18
100
AcDbLine
 10
70.780951
 20
-6.561675999999999
 30
0.0
 11
70.790361
 21
-6.626641
 31
0.0
  0
LINE
  5
1AB
330
1F
100
AcDbEntity
  8
1
370
    18
100
AcDbLine
 10
70.768433
 20
-7.476088
 30
0.0
 11
70.79817199999999
 21
-7.369296
 31
0.0
  0
LINE
  5
1AC
330
1F
100
AcDbEntity
  8
1
370
    18
100
AcDbLine
 10
63.920839
 20
8.070163
 30
0.0
 11
63.97695200000001
 21
8.363707000000001
 31
0.0
  0
LINE
  5
1AD
330
1F
100
AcDbEntity
  8
1
370
    18
100
AcDbLine
 10
64.036641
 20
8.936746000000001
 30
0.0
 11
64.03121099999999
 21
8.884282999999999
 31
0.0
  0
LINE
  5
1AE
330
1F
100
AcDbEntity
  8
1
370
    18
100
AcDbLine
 10
64.043551
 20
9.003517999999999
 30
0.0
 11
64.036641
 21
8.936746000000001
 31
0.0
  0
LINE
  5
1AF
330
1F
100
AcDbEntity
  8
1
370
    18
100
AcDbLine
 10
70.46522299999999
 20
-8.058847
 30
0.0
 11
70.65801999999999
 21
-7.568985999999999
 31
0.0
  0
LINE
  5
1B0
330
1F
100
AcDbEntity
  8
CUT
370
    18
100
AcDbLine
 10
63.359711
 20
6.37579
 30
0.0
 11
63.378011
 21
6.506857
 31
0.0
  0
LINE
  5
1B1
330
1F
100
AcDbEntity
  8
CUT
370
    18
100
AcDbLine
 10
70.319867
 20
9.503678999999999
 30
0.0
 11
70.408881
 21
9.504286999999999
 31
0.0
  0
LINE
  5
1B2
330
1F
100
AcDbEntity
  8
CUT
370
    18
100
AcDbLine
 10
63.353805
 20
5.433014
 30
0.0
 11
63.35394399999999
 21
5.492715
 31
0.0
  0
LINE
  5
1B3
330
1F
100
AcDbEntity
  8
CUT
370
    18
100
AcDbLine
 10
64.32022499999999
 20
9.392061999999999
 30
0.0
 11
70.31985899999999
 21
9.503678999999999
 31
0.0
  0
LINE
  5
1B4
330
1F
100
AcDbEntity
  8
CUT
370
    18
100
AcDbLine
 10
70.793336
 20
8.173783
 30
0.0
 11
70.780951
 21
8.037547999999999
 31
0.0
  0
LINE
  5
1B5
330
1F
100
AcDbEntity
  8
CUT
370
    18
100
AcDbLine
 10
63.84373100000001
 20
5.036674999999999
 30
0.0
 11
63.752127
 21
5.038329
 31
0.0
  0
LINE
  5
1B6
330
1F
100
AcDbEntity
  8
CUT
370
    18
100
AcDbLine
 10
69.96437199999999
 20
5.04258
 30
0.0
 11
63.84374000000001
 21
5.036673999999999
 31
0.0
  0
LINE
  5
1B7
330
1F
100
AcDbEntity
  8
CUT
370
    18
100
AcDbLine
 10
70.79817299999999
 20
9.117492999999999
 30
0.0
 11
70.797941
 21
9.057872999999998
 31
0.0
  0
LINE
  5
1B8
330
1F
100
AcDbEntity
  8
1
370
    18
100
AcDbLine
 10
63.310412
 20
-5.929891
 30
0.0
 11
62.986078
 21
-5.801247
 31
0.0
  0
LINE
  5
1B9
330
1F
100
AcDbEntity
  8
1
370
    18
100
AcDbLine
 10
62.986078
 20
-5.801247
 30
0.0
 11
62.239231
 21
-5.600544999999999
 31
0.0
  0
LINE
  5
1BA
330
1F
100
AcDbEntity
  8
1
370
    18
100
AcDbLine
 10
70.135543
 20
-0.424238
 30
0.0
 11
70.139358
 21
-0.5090930000000001
 31
0.0
  0
LINE
  5
1BB
330
1F
100
AcDbEntity
  8
1
370
    18
100
AcDbLine
 10
70.134017
 20
-0.362356
 30
0.0
 11
70.135543
 21
-0.424238
 31
0.0
  0
LINE
  5
1BC
330
1F
100
AcDbEntity
  8
1
370
    18
100
AcDbLine
 10
70.068002
 20
0.6278990000000001
 30
0.0
 11
70.134017
 21
0.57342
 31
0.0
  0
LINE
  5
1BD
330
1F
100
AcDbEntity
  8
1
370
    18
100
AcDbLine
 10
63.368081
 20
1.692060999999999
 30
0.0
 11
63.469774
 21
1.771974
 31
0.0
  0
LINE
  5
1BE
330
1F
100
AcDbEntity
  8
1
370
    18
100
AcDbLine
 10
63.363677
 20
1.315296999999999
 30
0.0
 11
63.04837599999999
 21
1.326284999999999
 31
0.0
  0
LINE
  5
1BF
330
1F
100
AcDbEntity
  8
1
370
    18
100
AcDbLine
 10
62.781225
 20
2.318576999999999
 30
0.0
 11
62.45327299999999
 21
1.982312999999999
 31
0.0
  0
LINE
  5
1C0
330
1F
100
AcDbEntity
  8
1
370
    18
100
AcDbLine
 10
66.685577
 20
6.552262999999999
 30
0.0
 11
66.58629799999999
 21
6.595683999999999
 31
0.0
  0
LINE
  5
1C1
330
1F
100
AcDbEntity
  8
1
370
    18
100
AcDbLine
 10
59.76117399999999
 20
-8.419845
 30
0.0
 11
60.922489
 21
-8.447039999999999
 31
0.0
  0
LINE
  5
1C2
330
1F
100
AcDbEntity
  8
1
370
    18
100
AcDbLine
 10
63.77998299999999
 20
1.218173999999999
 30
0.0
 11
63.363677
 21
1.315296999999999
 31
0.0
  0
LINE
  5
1C3
330
1F
100
AcDbEntity
  8
1
370
    18
100
AcDbLine
 10
64.888694
 20
0.8486349999999999
 30
0.0
 11
63.77998299999999
 21
1.218173999999999
 31
0.0
  0
LINE
  5
1C4
330
1F
100
AcDbEntity
  8
1
370
    18
100
AcDbLine
 10
62.279566
 20
1.391145
 30
0.0
 11
62.39691099999999
 21
0.9600549999999998
 31
0.0
  0
LINE
  5
1C5
330
1F
100
AcDbEntity
  8
1
370
    18
100
AcDbLine
 10
68.875135
 20
7.209035
 30
0.0
 11
70.002066
 21
7.123563
 31
0.0
  0
LINE
  5
1C6
330
1F
100
AcDbEntity
  8
1
370
    18
100
AcDbLine
 10
70.002066
 20
7.123563
 30
0.0
 11
70.30582800000001
 21
7.042975999999999
 31
0.0
  0
LINE
  5
1C7
330
1F
100
AcDbEntity
  8
1
370
    18
100
AcDbLine
 10
67.050915
 20
1.2195
 30
0.0
 11
65.74815100000001
 21
1.599371999999999
 31
0.0
  0
LINE
  5
1C8
330
1F
100
AcDbEntity
  8
1
370
    18
100
AcDbLine
 10
68.170377
 20
0.864527
 30
0.0
 11
67.084512
 21
1.209022999999999
 31
0.0
  0
LINE
  5
1C9
330
1F
100
AcDbEntity
  8
1
370
    18
100
AcDbLine
 10
70.134017
 20
1.317220999999999
 30
0.0
 11
70.134017
 21
0.57342
 31
0.0
  0
LINE
  5
1CA
330
1F
100
AcDbEntity
  8
1
370
    18
100
AcDbLine
 10
64.01444599999999
 20
7.558574
 30
0.0
 11
65.05100300000001
 21
7.487728999999998
 31
0.0
  0
LINE
  5
1CB
330
1F
100
AcDbEntity
  8
1
370
    18
100
AcDbLine
 10
63.330209
 20
7.557527999999999
 30
0.0
 11
64.01444599999999
 21
7.558574
 31
0.0
  0
LINE
  5
1CC
330
1F
100
AcDbEntity
  8
1
370
    18
100
AcDbLine
 10
63.005875
 20
7.530339999999999
 30
0.0
 11
63.330209
 21
7.557527999999999
 31
0.0
  0
LINE
  5
1CD
330
1F
100
AcDbEntity
  8
1
370
    18
100
AcDbLine
 10
62.72594399999999
 20
7.505597999999999
 30
0.0
 11
62.810217
 21
7.517814999999999
 31
0.0
  0
LINE
  5
1CE
330
1F
100
AcDbEntity
  8
1
370
    18
100
AcDbLine
 10
62.810217
 20
7.517814999999999
 30
0.0
 11
63.005875
 21
7.530339999999999
 31
0.0
  0
LINE
  5
1CF
330
1F
100
AcDbEntity
  8
1
370
    18
100
AcDbLine
 10
62.25674699999999
 20
7.488833
 30
0.0
 11
62.764325
 21
7.512741
 31
0.0
  0
LINE
  5
1D0
330
1F
100
AcDbEntity
  8
1
370
    18
100
AcDbLine
 10
60.922489
 20
7.532672999999999
 30
0.0
 11
62.256748
 21
7.488824
 31
0.0
  0
LINE
  5
1D1
330
1F
100
AcDbEntity
  8
1
370
    18
100
AcDbLine
 10
63.042385
 20
-5.804787999999999
 30
0.0
 11
63.556165
 21
-6.332017999999999
 31
0.0
  0
LINE
  5
1D2
330
1F
100
AcDbEntity
  8
1
370
    18
100
AcDbLine
 10
62.25674699999999
 20
-8.459147999999999
 30
0.0
 11
62.764325
 21
-8.548721
 31
0.0
  0
LINE
  5
1D3
330
1F
100
AcDbEntity
  8
1
370
    18
100
AcDbLine
 10
60.922489
 20
-8.447039999999999
 30
0.0
 11
62.256748
 21
-8.45913
 31
0.0
  0
LINE
  5
1D4
330
1F
100
AcDbEntity
  8
1
370
    18
100
AcDbLine
 10
63.417871
 20
-5.959335
 30
0.0
 11
63.556165
 21
-6.332017999999999
 31
0.0
  0
LINE
  5
1D5
330
1F
100
AcDbEntity
  8
1
370
    18
100
AcDbLine
 10
65.22156999999999
 20
-9.057714999999999
 30
0.0
 11
65.111238
 21
-9.064274000000001
 31
0.0
  0
LINE
  5
1D6
330
1F
100
AcDbEntity
  8
1
370
    18
100
AcDbLine
 10
70.308768
 20
-7.595569999999999
 30
0.0
 11
70.37767099999999
 21
-8.121449
 31
0.0
  0
LINE
  5
1D7
330
1F
100
AcDbEntity
  8
1
370
    18
100
AcDbLine
 10
70.37767099999999
 20
-8.121449
 30
0.0
 11
70.31449399999999
 21
-8.177767999999998
 31
0.0
  0
LINE
  5
1D8
330
1F
100
AcDbEntity
  8
1
370
    18
100
AcDbLine
 10
70.31449499999999
 20
-8.177767999999998
 30
0.0
 11
70.236026
 21
-7.575547
 31
0.0
  0
LINE
  5
1D9
330
1F
100
AcDbEntity
  8
1
370
    18
100
AcDbLine
 10
70.32384799999999
 20
-8.310985
 30
0.0
 11
70.31449399999999
 21
-8.177767999999998
 31
0.0
  0
LINE
  5
1DA
330
1F
100
AcDbEntity
  8
1
370
    18
100
AcDbLine
 10
70.325334
 20
-8.638157000000001
 30
0.0
 11
70.32384799999999
 21
-8.310985
 31
0.0
  0
LINE
  5
1DB
330
1F
100
AcDbEntity
  8
1
370
    18
100
AcDbLine
 10
69.99737399999999
 20
-3.569116
 30
0.0
 11
70.002066
 21
-3.51049
 31
0.0
  0
LINE
  5
1DC
330
1F
100
AcDbEntity
  8
1
370
    18
100
AcDbLine
 10
70.265315
 20
-3.372761
 30
0.0
 11
70.325334
 21
-3.150354999999999
 31
0.0
  0
LINE
  5
1DD
330
1F
100
AcDbEntity
  8
1
370
    18
100
AcDbLine
 10
70.389215
 20
-3.181084999999999
 30
0.0
 11
70.325334
 21
-3.150354999999999
 31
0.0
  0
LINE
  5
1DE
330
1F
100
AcDbEntity
  8
1
370
    18
100
AcDbLine
 10
62.25674699999999
 20
-2.109561
 30
0.0
 11
62.764325
 21
-2.218504
 31
0.0
  0
LINE
  5
1DF
330
1F
100
AcDbEntity
  8
1
370
    18
100
AcDbLine
 10
69.99737399999999
 20
-3.569116
 30
0.0
 11
68.72736399999999
 21
-3.463442999999999
 31
0.0
  0
LINE
  5
1E0
330
1F
100
AcDbEntity
  8
1
370
    18
100
AcDbLine
 10
68.72736399999999
 20
-3.463442999999999
 30
0.0
 11
68.732474
 21
-3.405751999999999
 31
0.0
  0
LINE
  5
1E1
330
1F
100
AcDbEntity
  8
1
370
    18
100
AcDbLine
 10
68.732474
 20
-3.405751999999999
 30
0.0
 11
70.002066
 21
-3.51049
 31
0.0
  0
LINE
  5
1E2
330
1F
100
AcDbEntity
  8
1
370
    18
100
AcDbLine
 10
70.31449499999999
 20
-2.595825
 30
0.0
 11
70.20808199999999
 21
-1.585935
 31
0.0
  0
LINE
  5
1E3
330
1F
100
AcDbEntity
  8
1
370
    18
100
AcDbLine
 10
70.32384799999999
 20
-2.756959999999999
 30
0.0
 11
70.31449399999999
 21
-2.595825
 31
0.0
  0
LINE
  5
1E4
330
1F
100
AcDbEntity
  8
1
370
    18
100
AcDbLine
 10
70.325334
 20
-3.150354999999999
 30
0.0
 11
70.32384799999999
 21
-2.756959999999999
 31
0.0
  0
LINE
  5
1E5
330
1F
100
AcDbEntity
  8
1
370
    18
100
AcDbLine
 10
63.042385
 20
0.198451
 30
0.0
 11
63.556165
 21
-0.298936
 31
0.0
  0
LINE
  5
1E6
330
1F
100
AcDbEntity
  8
1
370
    18
100
AcDbLine
 10
64.875648
 20
-0.7280330000000001
 30
0.0
 11
65.306747
 21
-0.6983310000000001
 31
0.0
  0
LINE
  5
1E7
330
1F
100
AcDbEntity
  8
1
370
    18
100
AcDbLine
 10
60.922489
 20
-2.021234999999999
 30
0.0
 11
62.256748
 21
-2.109545
 31
0.0
  0
LINE
  5
1E8
330
1F
100
AcDbEntity
  8
1
370
    18
100
AcDbLine
 10
67.537052
 20
-5.134076
 30
0.0
 11
69.99737399999999
 21
-5.383045
 31
0.0
  0
LINE
  5
1E9
330
1F
100
AcDbEntity
  8
1
370
    18
100
AcDbLine
 10
55.753814
 20
4.109936
 30
0.0
 11
55.702633
 21
4.121659999999999
 31
0.0
  0
LINE
  5
1EA
330
1F
100
AcDbEntity
  8
1
370
    18
100
AcDbLine
 10
64.046018
 20
3.883294999999999
 30
0.0
 11
63.927936
 21
3.694742999999999
 31
0.0
  0
LINE
  5
1EB
330
1F
100
AcDbEntity
  8
1
370
    18
100
AcDbLine
 10
63.85965699999999
 20
3.685062999999999
 30
0.0
 11
63.927936
 21
3.694742999999999
 31
0.0
  0
LINE
  5
1EC
330
1F
100
AcDbEntity
  8
1
370
    18
100
AcDbLine
 10
63.85965699999999
 20
3.685062999999999
 30
0.0
 11
63.965946
 21
3.853844999999999
 31
0.0
  0
LINE
  5
1ED
330
1F
100
AcDbEntity
  8
1
370
    18
100
AcDbLine
 10
64.008328
 20
3.931887999999999
 30
0.0
 11
63.998064
 21
3.869481
 31
0.0
  0
LINE
  5
1EE
330
1F
100
AcDbEntity
  8
1
370
    18
100
AcDbLine
 10
65.048503
 20
7.476985
 30
0.0
 11
64.008328
 21
7.548630999999999
 31
0.0
  0
LINE
  5
1EF
330
1F
100
AcDbEntity
  8
1
370
    18
100
AcDbLine
 10
65.22156999999999
 20
7.086272999999999
 30
0.0
 11
65.048503
 21
7.476985
 31
0.0
  0
LINE
  5
1F0
330
1F
100
AcDbEntity
  8
1
370
    18
100
AcDbLine
 10
63.965946
 20
3.853844999999999
 30
0.0
 11
63.31039699999999
 21
3.868605
 31
0.0
  0
LINE
  5
1F1
330
1F
100
AcDbEntity
  8
1
370
    18
100
AcDbLine
 10
63.29278699999999
 20
3.949197
 30
0.0
 11
64.008328
 21
3.931887999999999
 31
0.0
  0
LINE
  5
1F2
330
1F
100
AcDbEntity
  8
1
370
    18
100
AcDbLine
 10
62.239231
 20
3.842128999999999
 30
0.0
 11
57.20524300000001
 21
4.715171999999999
 31
0.0
  0
LINE
  5
1F3
330
1F
100
AcDbEntity
  8
1
370
    18
100
AcDbLine
 10
62.986078
 20
3.821573
 30
0.0
 11
62.239231
 21
3.842128999999999
 31
0.0
  0
LINE
  5
1F4
330
1F
100
AcDbEntity
  8
1
370
    18
100
AcDbLine
 10
63.310412
 20
3.868580999999999
 30
0.0
 11
62.986078
 21
3.821573
 31
0.0
  0
LINE
  5
1F5
330
1F
100
AcDbEntity
  8
1
370
    18
100
AcDbLine
 10
70.38772900000001
 20
-2.787700999999999
 30
0.0
 11
70.389215
 21
-3.181084999999999
 31
0.0
  0
LINE
  5
1F6
330
1F
100
AcDbEntity
  8
1
370
    18
100
AcDbLine
 10
70.38772900000001
 20
-2.787700999999999
 30
0.0
 11
70.32384799999999
 21
-2.756959999999999
 31
0.0
  0
LINE
  5
1F7
330
1F
100
AcDbEntity
  8
1
370
    18
100
AcDbLine
 10
57.20524300000001
 20
4.715171999999999
 30
0.0
 11
57.218922
 21
4.807273
 31
0.0
  0
LINE
  5
1F8
330
1F
100
AcDbEntity
  8
1
370
    18
100
AcDbLine
 10
70.37767099999999
 20
-2.623479999999999
 30
0.0
 11
70.31449399999999
 21
-2.595825
 31
0.0
  0
LINE
  5
1F9
330
1F
100
AcDbEntity
  8
1
370
    18
100
AcDbLine
 10
70.20808199999999
 20
-1.585935
 30
0.0
 11
70.243802
 21
-1.330802999999999
 31
0.0
  0
LINE
  5
1FA
330
1F
100
AcDbEntity
  8
1
370
    18
100
AcDbLine
 10
62.96845199999999
 20
3.902358999999999
 30
0.0
 11
63.292786
 21
3.949187
 31
0.0
  0
LINE
  5
1FB
330
1F
100
AcDbEntity
  8
1
370
    18
100
AcDbLine
 10
63.292786
 20
7.542378
 30
0.0
 11
62.96845199999999
 21
7.515985999999999
 31
0.0
  0
LINE
  5
1FC
330
1F
100
AcDbEntity
  8
1
370
    18
100
AcDbLine
 10
70.37767099999999
 20
-2.623479999999999
 30
0.0
 11
70.38772900000001
 21
-2.787700999999999
 31
0.0
  0
LINE
  5
1FD
330
1F
100
AcDbEntity
  8
1
370
    18
100
AcDbLine
 10
70.79429399999999
 20
-6.745607999999999
 30
0.0
 11
70.793336
 21
-6.675399999999999
 31
0.0
  0
LINE
  5
1FE
330
1F
100
AcDbEntity
  8
1
370
    18
100
AcDbLine
 10
66.815399
 20
-2.578075
 30
0.0
 11
66.583727
 21
-2.374070999999999
 31
0.0
  0
LINE
  5
1FF
330
1F
100
AcDbEntity
  8
1
370
    18
100
AcDbLine
 10
67.238163
 20
-3.601796999999999
 30
0.0
 11
67.14756
 21
-3.220243999999999
 31
0.0
  0
LINE
  5
200
330
1F
100
AcDbEntity
  8
1
370
    18
100
AcDbLine
 10
65.25255200000001
 20
-2.007054999999999
 30
0.0
 11
65.05119599999999
 21
-3.052045999999999
 31
0.0
  0
LINE
  5
201
330
1F
100
AcDbEntity
  8
1
370
    18
100
AcDbLine
 10
64.04546899999999
 20
-6.105337
 30
0.0
 11
64.35136999999999
 21
-5.427870999999999
 31
0.0
  0
LINE
  5
202
330
1F
100
AcDbEntity
  8
1
370
    18
100
AcDbLine
 10
67.238163
 20
-3.601796999999999
 30
0.0
 11
67.514374
 21
-3.638191999999999
 31
0.0
  0
LINE
  5
203
330
1F
100
AcDbEntity
  8
1
370
    18
100
AcDbLine
 10
68.7725
 20
-2.414702999999999
 30
0.0
 11
68.534649
 21
-1.728143
 31
0.0
  0
LINE
  5
204
330
1F
100
AcDbEntity
  8
1
370
    18
100
AcDbLine
 10
68.683641
 20
-3.780376999999999
 30
0.0
 11
68.727271
 21
-3.46413
 31
0.0
  0
LINE
  5
205
330
1F
100
AcDbEntity
  8
1
370
    18
100
AcDbLine
 10
62.39691099999999
 20
0.9600549999999998
 30
0.0
 11
62.44144499999999
 21
0.8974870000000001
 31
0.0
  0
LINE
  5
206
330
1F
100
AcDbEntity
  8
1
370
    18
100
AcDbLine
 10
62.44144499999999
 20
0.8974870000000001
 30
0.0
 11
63.042385
 21
0.198451
 31
0.0
  0
LINE
  5
207
330
1F
100
AcDbEntity
  8
1
370
    18
100
AcDbLine
 10
64.64177600000001
 20
-0.883366
 30
0.0
 11
64.875648
 21
-0.7280330000000001
 31
0.0
  0
LINE
  5
208
330
1F
100
AcDbEntity
  8
1
370
    18
100
AcDbLine
 10
65.306747
 20
-0.6983310000000001
 30
0.0
 11
65.436504
 21
-0.6736870000000001
 31
0.0
  0
LINE
  5
209
330
1F
100
AcDbEntity
  8
1
370
    18
100
AcDbLine
 10
67.537052
 20
-3.641072
 30
0.0
 11
68.683641
 21
-3.780376999999999
 31
0.0
  0
LINE
  5
20A
330
1F
100
AcDbEntity
  8
1
370
    18
100
AcDbLine
 10
66.766372
 20
-2.175933
 30
0.0
 11
66.583727
 21
-2.374070999999999
 31
0.0
  0
LINE
  5
20B
330
1F
100
AcDbEntity
  8
1
370
    18
100
AcDbLine
 10
63.734413
 20
3.127564
 30
0.0
 11
63.662944
 21
3.047496999999999
 31
0.0
  0
LINE
  5
20C
330
1F
100
AcDbEntity
  8
1
370
    18
100
AcDbLine
 10
64.35136999999999
 20
4.6977
 30
0.0
 11
64.04546899999999
 21
3.92496
 31
0.0
  0
LINE
  5
20D
330
1F
100
AcDbEntity
  8
1
370
    18
100
AcDbLine
 10
64.392342
 20
4.720169999999999
 30
0.0
 11
64.404877
 21
4.640373999999999
 31
0.0
  0
LINE
  5
20E
330
1F
100
AcDbEntity
  8
1
370
    18
100
AcDbLine
 10
63.121467
 20
2.444389
 30
0.0
 11
62.781225
 21
2.318576999999999
 31
0.0
  0
LINE
  5
20F
330
1F
100
AcDbEntity
  8
1
370
    18
100
AcDbLine
 10
64.353199
 20
-5.018413999999999
 30
0.0
 11
64.404877
 21
-5.286565
 31
0.0
  0
LINE
  5
210
330
1F
100
AcDbEntity
  8
1
370
    18
100
AcDbLine
 10
68.683641
 20
6.177151
 30
0.0
 11
67.537052
 21
6.311323
 31
0.0
  0
LINE
  5
211
330
1F
100
AcDbEntity
  8
1
370
    18
100
AcDbLine
 10
68.87091600000001
 20
7.196852
 30
0.0
 11
68.683641
 21
6.177151
 31
0.0
  0
LINE
  5
212
330
1F
100
AcDbEntity
  8
1
370
    18
100
AcDbLine
 10
66.56182499999999
 20
6.744358999999999
 30
0.0
 11
66.50429200000001
 21
6.426555999999999
 31
0.0
  0
LINE
  5
213
330
1F
100
AcDbEntity
  8
1
370
    18
100
AcDbLine
 10
67.514374
 20
6.313913999999999
 30
0.0
 11
66.50429200000001
 21
6.426555999999999
 31
0.0
  0
LINE
  5
214
330
1F
100
AcDbEntity
  8
1
370
    18
100
AcDbLine
 10
64.66917399999999
 20
-0.555594
 30
0.0
 11
64.241028
 21
0.074721
 31
0.0
  0
LINE
  5
215
330
1F
100
AcDbEntity
  8
1
370
    18
100
AcDbLine
 10
68.186301
 20
-0.075922
 30
0.0
 11
68.01331600000001
 21
-0.105671
 31
0.0
  0
LINE
  5
216
330
1F
100
AcDbEntity
  8
1
370
    18
100
AcDbLine
 10
65.140439
 20
0.729843
 30
0.0
 11
64.888694
 21
0.8486349999999999
 31
0.0
  0
LINE
  5
217
330
1F
100
AcDbEntity
  8
1
370
    18
100
AcDbLine
 10
63.818649
 20
3.324523
 30
0.0
 11
63.877478
 21
3.466233
 31
0.0
  0
LINE
  5
218
330
1F
100
AcDbEntity
  8
1
370
    18
100
AcDbLine
 10
63.398722
 20
2.342652999999999
 30
0.0
 11
63.378011
 21
2.293981
 31
0.0
  0
LINE
  5
219
330
1F
100
AcDbEntity
  8
1
370
    18
100
AcDbLine
 10
70.48558400000001
 20
1.787347999999999
 30
0.0
 11
70.43673299999999
 21
1.712249
 31
0.0
  0
LINE
  5
21A
330
1F
100
AcDbEntity
  8
1
370
    18
100
AcDbLine
 10
70.43673299999999
 20
1.566283
 30
0.0
 11
70.48558400000001
 21
1.66469
 31
0.0
  0
LINE
  5
21B
330
1F
100
AcDbEntity
  8
1
370
    18
100
AcDbLine
 10
66.645326
 20
7.744044999999999
 30
0.0
 11
66.93472599999999
 21
7.91463
 31
0.0
  0
LINE
  5
21C
330
1F
100
AcDbEntity
  8
1
370
    18
100
AcDbLine
 10
66.59384799999999
 20
7.762722999999999
 30
0.0
 11
66.645326
 21
7.744044999999999
 31
0.0
  0
LINE
  5
21D
330
1F
100
AcDbEntity
  8
1
370
    18
100
AcDbLine
 10
66.59384799999999
 20
7.762722999999999
 30
0.0
 11
66.50984499999999
 21
7.769783
 31
0.0
  0
LINE
  5
21E
330
1F
100
AcDbEntity
  8
1
370
    18
100
AcDbLine
 10
66.50984499999999
 20
7.769783
 30
0.0
 11
66.341871
 21
7.478446
 31
0.0
  0
LINE
  5
21F
330
1F
100
AcDbEntity
  8
1
370
    18
100
AcDbLine
 10
66.341871
 20
7.478446
 30
0.0
 11
66.390574
 21
7.410158
 31
0.0
  0
LINE
  5
220
330
1F
100
AcDbEntity
  8
1
370
    18
100
AcDbLine
 10
66.43288599999999
 20
7.375583999999999
 30
0.0
 11
66.390574
 21
7.410158
 31
0.0
  0
LINE
  5
221
330
1F
100
AcDbEntity
  8
1
370
    18
100
AcDbLine
 10
66.431348
 20
7.041557
 30
0.0
 11
66.43288599999999
 21
7.375583999999999
 31
0.0
  0
LINE
  5
222
330
1F
100
AcDbEntity
  8
1
370
    18
100
AcDbLine
 10
66.388712
 20
7.005932
 30
0.0
 11
66.431348
 21
7.041557
 31
0.0
  0
LINE
  5
223
330
1F
100
AcDbEntity
  8
1
370
    18
100
AcDbLine
 10
66.388712
 20
7.005932
 30
0.0
 11
66.339375
 21
6.936430999999999
 31
0.0
  0
LINE
  5
224
330
1F
100
AcDbEntity
  8
1
370
    18
100
AcDbLine
 10
66.339375
 20
6.936430999999999
 30
0.0
 11
66.430195
 21
6.714766
 31
0.0
  0
LINE
  5
225
330
1F
100
AcDbEntity
  8
1
370
    18
100
AcDbLine
 10
66.640417
 20
6.678310999999999
 30
0.0
 11
66.588762
 21
6.658357
 31
0.0
  0
LINE
  5
226
330
1F
100
AcDbEntity
  8
1
370
    18
100
AcDbLine
 10
66.86469599999999
 20
6.586933
 30
0.0
 11
66.640417
 21
6.678310999999999
 31
0.0
  0
LINE
  5
227
330
1F
100
AcDbEntity
  8
1
370
    18
100
AcDbLine
 10
67.942642
 20
6.956269999999999
 30
0.0
 11
67.89394
 21
7.024557
 31
0.0
  0
LINE
  5
228
330
1F
100
AcDbEntity
  8
1
370
    18
100
AcDbLine
 10
67.85162800000001
 20
7.059132
 30
0.0
 11
67.89394
 21
7.024557
 31
0.0
  0
LINE
  5
229
330
1F
100
AcDbEntity
  8
1
370
    18
100
AcDbLine
 10
67.853166
 20
7.393158
 30
0.0
 11
67.85162800000001
 21
7.059132
 31
0.0
  0
LINE
  5
22A
330
1F
100
AcDbEntity
  8
1
370
    18
100
AcDbLine
 10
67.895802
 20
7.428783
 30
0.0
 11
67.853166
 21
7.393158
 31
0.0
  0
LINE
  5
22B
330
1F
100
AcDbEntity
  8
1
370
    18
100
AcDbLine
 10
67.895802
 20
7.428783
 30
0.0
 11
67.945139
 21
7.498283999999999
 31
0.0
  0
LINE
  5
22C
330
1F
100
AcDbEntity
  8
1
370
    18
100
AcDbLine
 10
67.945139
 20
7.498283999999999
 30
0.0
 11
67.77983
 21
7.785497999999999
 31
0.0
  0
LINE
  5
22D
330
1F
100
AcDbEntity
  8
1
370
    18
100
AcDbLine
 10
67.77983
 20
7.785497999999999
 30
0.0
 11
67.695752
 21
7.776358
 31
0.0
  0
LINE
  5
22E
330
1F
100
AcDbEntity
  8
1
370
    18
100
AcDbLine
 10
67.64409599999999
 20
7.756403999999998
 30
0.0
 11
67.695752
 21
7.776358
 31
0.0
  0
LINE
  5
22F
330
1F
100
AcDbEntity
  8
1
370
    18
100
AcDbLine
 10
67.35623499999999
 20
7.919846
 30
0.0
 11
67.64409599999999
 21
7.756403999999998
 31
0.0
  0
LINE
  5
230
330
1F
100
AcDbEntity
  8
1
370
    18
100
AcDbLine
 10
67.34739300000001
 20
7.974149
 30
0.0
 11
67.35623499999999
 21
7.919846
 31
0.0
  0
LINE
  5
231
330
1F
100
AcDbEntity
  8
1
370
    18
100
AcDbLine
 10
67.34739300000001
 20
7.974149
 30
0.0
 11
67.31272699999999
 21
8.05071
 31
0.0
  0
LINE
  5
232
330
1F
100
AcDbEntity
  8
1
370
    18
100
AcDbLine
 10
67.31272699999999
 20
8.05071
 30
0.0
 11
66.979445
 21
8.046585999999999
 31
0.0
  0
LINE
  5
233
330
1F
100
AcDbEntity
  8
1
370
    18
100
AcDbLine
 10
66.979445
 20
8.046585999999999
 30
0.0
 11
66.944069
 21
7.969158
 31
0.0
  0
LINE
  5
234
330
1F
100
AcDbEntity
  8
1
370
    18
100
AcDbLine
 10
66.93472599999999
 20
7.91463
 30
0.0
 11
66.944069
 21
7.969158
 31
0.0
  0
LINE
  5
235
330
1F
100
AcDbEntity
  8
4
370
    18
100
AcDbLine
 10
48.79999999999999
 20
0.0
 30
0.0
 11
73.79999999999999
 21
0.0
 31
0.0
  0
LINE
  5
236
330
1F
100
AcDbEntity
  8
SK4
370
    18
100
AcDbLine
 10
-56.2
 20
0.0
 30
0.0
 11
52.8
 21
0.0
 31
0.0
  0
LINE
  5
237
330
1F
100
AcDbEntity
  8
1
370
    18
100
AcDbLine
 10
64.39232
 20
-5.327579
 30
0.0
 11
64.35136999999999
 21
-5.427870999999999
 31
0.0
  0
LINE
  5
238
330
1F
100
AcDbEntity
  8
1
370
    18
100
AcDbLine
 10
65.225786
 20
-4.881464
 30
0.0
 11
65.18950699999999
 21
-4.846277999999999
 31
0.0
  0
LINE
  5
239
330
1F
100
AcDbEntity
  8
1
370
    18
100
AcDbLine
 10
62.25291
 20
3.927036
 30
0.0
 11
62.96845199999999
 21
3.902358999999999
 31
0.0
  0
LINE
  5
23A
330
1F
100
AcDbEntity
  8
1
370
    18
100
AcDbLine
 10
62.239231
 20
3.842128999999999
 30
0.0
 11
62.25291
 21
3.927036
 31
0.0
  0
LINE
  5
23B
330
1F
100
AcDbEntity
  8
1
370
    18
100
AcDbLine
 10
65.22156999999999
 20
5.30144
 30
0.0
 11
65.174068
 21
5.215041999999999
 31
0.0
  0
LINE
  5
23C
330
1F
100
AcDbEntity
  8
1
370
    18
100
AcDbLine
 10
67.537052
 20
4.979442999999999
 30
0.0
 11
69.99737399999999
 21
4.663174999999999
 31
0.0
  0
LINE
  5
23D
330
1F
100
AcDbEntity
  8
1
370
    18
100
AcDbLine
 10
69.986276
 20
4.562325
 30
0.0
 11
69.99737399999999
 21
4.663174999999999
 31
0.0
  0
LINE
  5
23E
330
1F
100
AcDbEntity
  8
1
370
    18
100
AcDbLine
 10
67.525954
 20
4.876345999999999
 30
0.0
 11
67.537052
 21
4.979442999999999
 31
0.0
  0
LINE
  5
23F
330
1F
100
AcDbEntity
  8
1
370
    18
100
AcDbLine
 10
69.99737399999999
 20
7.110661
 30
0.0
 11
68.87090999999999
 21
7.196852999999999
 31
0.0
  0
LINE
  5
240
330
1F
100
AcDbEntity
  8
1
370
    18
100
AcDbLine
 10
69.99737399999999
 20
4.663174999999999
 30
0.0
 11
70.36623500000001
 21
4.520959999999999
 31
0.0
  0
LINE
  5
241
330
1F
100
AcDbEntity
  8
1
370
    18
100
AcDbLine
 10
70.29010699999999
 20
7.044478999999999
 30
0.0
 11
69.99737399999999
 21
7.110661
 31
0.0
  0
LINE
  5
242
330
1F
100
AcDbEntity
  8
1
370
    18
100
AcDbLine
 10
65.23966699999999
 20
-4.845525
 30
0.0
 11
65.18950699999999
 21
-4.846277999999999
 31
0.0
  0
LINE
  5
243
330
1F
100
AcDbEntity
  8
1
370
    18
100
AcDbLine
 10
67.50407
 20
-5.139622
 30
0.0
 11
65.23545099999999
 21
-4.884180999999999
 31
0.0
  0
LINE
  5
244
330
1F
100
AcDbEntity
  8
1
370
    18
100
AcDbLine
 10
55.753814
 20
-5.403586999999999
 30
0.0
 11
55.702633
 21
-5.416770999999999
 31
0.0
  0
LINE
  5
245
330
1F
100
AcDbEntity
  8
1
370
    18
100
AcDbLine
 10
65.225787
 20
5.171189
 30
0.0
 11
65.27416999999999
 21
5.256387999999999
 31
0.0
  0
LINE
  5
246
330
1F
100
AcDbEntity
  8
1
370
    18
100
AcDbLine
 10
65.274169
 20
5.256387999999999
 30
0.0
 11
67.514374
 21
4.982194999999999
 31
0.0
  0
LINE
  5
247
330
1F
100
AcDbEntity
  8
1
370
    18
100
AcDbLine
 10
67.50407
 20
4.879071999999999
 30
0.0
 11
67.514374
 21
4.982194999999999
 31
0.0
  0
LINE
  5
248
330
1F
100
AcDbEntity
  8
1
370
    18
100
AcDbLine
 10
65.71642699999999
 20
6.751071
 30
0.0
 11
65.23966699999999
 21
7.064255999999999
 31
0.0
  0
LINE
  5
249
330
1F
100
AcDbEntity
  8
1
370
    18
100
AcDbLine
 10
70.139358
 20
-0.5090930000000001
 30
0.0
 11
70.154153
 21
-0.662657
 31
0.0
  0
LINE
  5
24A
330
1F
100
AcDbEntity
  8
1
370
    18
100
AcDbLine
 10
70.154153
 20
-0.662657
 30
0.0
 11
70.243802
 21
-1.330802999999999
 31
0.0
  0
LINE
  5
24B
330
1F
100
AcDbEntity
  8
1
370
    18
100
AcDbLine
 10
69.986276
 20
-5.388762999999999
 30
0.0
 11
67.525954
 21
-5.141952999999999
 31
0.0
  0
LINE
  5
24C
330
1F
100
AcDbEntity
  8
1
370
    18
100
AcDbLine
 10
65.23966699999999
 20
5.287539999999999
 30
0.0
 11
65.18950699999999
 21
5.203235
 31
0.0
  0
LINE
  5
24D
330
1F
100
AcDbEntity
  8
1
370
    18
100
AcDbLine
 10
70.12061199999999
 20
-5.380493
 30
0.0
 11
69.986276
 21
-5.388762999999999
 31
0.0
  0
LINE
  5
24E
330
1F
100
AcDbEntity
  8
1
370
    18
100
AcDbLine
 10
62.239231
 20
-5.600544999999999
 30
0.0
 11
57.20524300000001
 21
-4.792501999999999
 31
0.0
  0
LINE
  5
24F
330
1F
100
AcDbEntity
  8
1
370
    18
100
AcDbLine
 10
64.66917399999999
 20
-0.555594
 30
0.0
 11
64.875648
 21
-0.7280330000000001
 31
0.0
  0
LINE
  5
250
330
1F
100
AcDbEntity
  8
1
370
    18
100
AcDbLine
 10
63.52123299999999
 20
-0.218061
 30
0.0
 11
63.556165
 21
-0.298936
 31
0.0
  0
LINE
  5
251
330
1F
100
AcDbEntity
  8
1
370
    18
100
AcDbLine
 10
63.475167
 20
0.137419
 30
0.0
 11
64.241028
 21
0.074721
 31
0.0
  0
LINE
  5
252
330
1F
100
AcDbEntity
  8
1
370
    18
100
AcDbLine
 10
63.965946
 20
-6.108505999999999
 30
0.0
 11
63.31039699999999
 21
-5.929904
 31
0.0
  0
ARC
  5
253
330
1F
100
AcDbEntity
  8
1
370
    18
100
AcDbCircle
 10
64.54493000000001
 20
2.152549
 30
0.0
 40
2.099934848911292
100
AcDbArc
 50
261.678934
 51
293.81694
  0
ARC
  5
254
330
1F
100
AcDbEntity
  8
1
370
    18
100
AcDbCircle
 10
68.138447
 20
10.796765
 30
0.0
 40
3.84973229355444
100
AcDbArc
 50
260.892084
 51
278.293337
  0
ARC
  5
255
330
1F
100
AcDbEntity
  8
1
370
    18
100
AcDbCircle
 10
64.868491
 20
-5.220012
 30
0.0
 40
1.720104140491102
100
AcDbArc
 50
220.276421
 51
261.769113
  0
ARC
  5
256
330
1F
100
AcDbEntity
  8
1
370
    18
100
AcDbCircle
 10
68.095798
 20
-8.685141999999999
 30
0.0
 40
0.7955320026416103
100
AcDbArc
 50
3.380812
 51
82.551824
  0
ARC
  5
257
330
1F
100
AcDbEntity
  8
1
370
    18
100
AcDbCircle
 10
67.53790600000001
 20
-7.706896
 30
0.0
 40
0.8755713377791664
100
AcDbArc
 50
266.479424
 51
338.002601
  0
ARC
  5
258
330
1F
100
AcDbEntity
  8
1
370
    18
100
AcDbCircle
 10
67.45371699999999
 20
-7.921895
 30
0.0
 40
0.6596221720642339
100
AcDbArc
 50
184.714953
 51
272.643472
  0
ARC
  5
259
330
1F
100
AcDbEntity
  8
1
370
    18
100
AcDbCircle
 10
67.746265
 20
2.067879
 30
0.0
 40
0.7661512214034151
100
AcDbArc
 50
17.224654
 51
84.32332999999999
  0
ARC
  5
25A
330
1F
100
AcDbEntity
  8
1
370
    18
100
AcDbCircle
 10
68.01658899999999
 20
2.493627
 30
0.0
 40
0.5024953759343119
100
AcDbArc
 50
261.531604
 51
336.685638
  0
ARC
  5
25B
330
1F
100
AcDbEntity
  8
1
370
    18
100
AcDbCircle
 10
66.085788
 20
2.630440999999999
 30
0.0
 40
0.2773526839053903
100
AcDbArc
 50
117.185794
 51
261.758808
  0
ARC
  5
25C
330
1F
100
AcDbEntity
  8
1
370
    18
100
AcDbCircle
 10
66.74093499999999
 20
0.886053
 30
0.0
 40
2.139111490523226
100
AcDbArc
 50
78.999319
 51
111.438874
  0
ARC
  5
25D
330
1F
100
AcDbEntity
  8
1
370
    18
100
AcDbCircle
 10
68.06314300000001
 20
2.43374
 30
0.0
 40
0.4285829936862069
100
AcDbArc
 50
263.103269
 51
340.632003
  0
ARC
  5
25E
330
1F
100
AcDbEntity
  8
1
370
    18
100
AcDbCircle
 10
67.546205
 20
5.230671
 30
0.0
 40
3.255858668282241
100
AcDbArc
 50
253.98126
 51
278.219467
  0
ARC
  5
25F
330
1F
100
AcDbEntity
  8
1
370
    18
100
AcDbCircle
 10
66.78791099999999
 20
3.247342999999999
 30
0.0
 40
1.154649188567876
100
AcDbArc
 50
213.116448
 51
263.027485
  0
ARC
  5
260
330
1F
100
AcDbEntity
  8
1
370
    18
100
AcDbCircle
 10
66.305925
 20
2.514258
 30
0.0
 40
0.4957631690826342
100
AcDbArc
 50
75.637979
 51
168.097293
  0
ARC
  5
261
330
1F
100
AcDbEntity
  8
1
370
    18
100
AcDbCircle
 10
66.70839100000001
 20
-0.4455020000000001
 30
0.0
 40
3.451364068713271
100
AcDbArc
 50
71.35788000000001
 51
94.644925
  0
ARC
  5
262
330
1F
100
AcDbEntity
  8
1
370
    18
100
AcDbCircle
 10
67.737498
 20
2.063642999999999
 30
0.0
 40
0.7647414569635384
100
AcDbArc
 50
17.343072
 51
84.43640999999999
  0
ARC
  5
263
330
1F
100
AcDbEntity
  8
1
370
    18
100
AcDbCircle
 10
67.175387
 20
7.188355999999999
 30
0.0
 40
1.51430588802749
100
AcDbArc
 50
108.854969
 51
167.390834
  0
ARC
  5
264
330
1F
100
AcDbEntity
  8
1
370
    18
100
AcDbCircle
 10
67.162665
 20
7.239346
 30
0.0
 40
1.461947573167873
100
AcDbArc
 50
49.036812
 51
109.02894
  0
ARC
  5
265
330
1F
100
AcDbEntity
  8
1
370
    18
100
AcDbCircle
 10
67.156086
 20
7.245514999999999
 30
0.0
 40
1.46162990771875
100
AcDbArc
 50
349.117111
 51
48.68354
  0
ARC
  5
266
330
1F
100
AcDbEntity
  8
1
370
    18
100
AcDbCircle
 10
67.266671
 20
7.156127
 30
0.0
 40
1.41763338178558
100
AcDbArc
 50
48.966858
 51
91.101608
  0
ARC
  5
267
330
1F
100
AcDbEntity
  8
1
370
    13
100
AcDbCircle
 10
52.053183
 20
-11.083696
 30
0.0
 40
2.0
100
AcDbArc
 50
100.072932
 51
128.799098
  0
ARC
  5
268
330
1F
100
AcDbEntity
  8
1
370
    13
100
AcDbCircle
 10
52.053183
 20
11.083696
 30
0.0
 40
2.0
100
AcDbArc
 50
231.200902
 51
259.927068
  0
ARC
  5
269
330
1F
100
AcDbEntity
  8
1
370
    13
100
AcDbCircle
 10
55.24065
 20
13.564441
 30
0.0
 40
5.0
100
AcDbArc
 50
259.927068
 51
270.0
  0
ARC
  5
26A
330
1F
100
AcDbEntity
  8
1
370
    13
100
AcDbCircle
 10
55.24065
 20
-13.564441
 30
0.0
 40
5.0
100
AcDbArc
 50
90.0
 51
100.072932
  0
ARC
  5
26B
330
1F
100
AcDbEntity
  8
1
370
    13
100
AcDbCircle
 10
62.25291
 20
-10.164441
 30
0.0
 40
1.6
100
AcDbArc
 50
63.434949
 51
90.0
  0
ARC
  5
26C
330
1F
100
AcDbEntity
  8
1
370
    13
100
AcDbCircle
 10
64.008328
 20
-7.464441
 30
0.0
 40
1.6
100
AcDbArc
 50
243.434949
 51
270.0
  0
ARC
  5
26D
330
1F
100
AcDbEntity
  8
1
370
    13
100
AcDbCircle
 10
69.387739
 20
-8.275551
 30
0.0
 40
1.0
100
AcDbArc
 50
0.265671
 51
8.137336999999998
  0
ARC
  5
26E
330
1F
100
AcDbEntity
  8
NOCUT
370
    18
100
AcDbCircle
 10
55.24065
 20
13.564441
 30
0.0
 40
5.0
100
AcDbArc
 50
259.927068
 51
270.0
  0
ARC
  5
26F
330
1F
100
AcDbEntity
  8
NOCUT
370
    18
100
AcDbCircle
 10
72.134017
 20
-6.287697
 30
0.0
 40
2.0
100
AcDbArc
 50
180.0
 51
188.137337
  0
ARC
  5
270
330
1F
100
AcDbEntity
  8
NOCUT
370
    18
100
AcDbCircle
 10
52.053183
 20
-11.083696
 30
0.0
 40
2.0
100
AcDbArc
 50
100.072932
 51
128.799098
  0
ARC
  5
271
330
1F
100
AcDbEntity
  8
NOCUT
370
    18
100
AcDbCircle
 10
69.387739
 20
-8.275551
 30
0.0
 40
1.0
100
AcDbArc
 50
0.265671
 51
8.137336999999998
  0
ARC
  5
272
330
1F
100
AcDbEntity
  8
NOCUT
370
    18
100
AcDbCircle
 10
62.25291
 20
-10.164441
 30
0.0
 40
1.6
100
AcDbArc
 50
63.434949
 51
90.0
  0
ARC
  5
273
330
1F
100
AcDbEntity
  8
NOCUT
370
    18
100
AcDbCircle
 10
69.98921999999999
 20
-8.593355
 30
0.0
 40
0.4
100
AcDbArc
 50
271.168186
 51
0.265671
  0
ARC
  5
274
330
1F
100
AcDbEntity
  8
NOCUT
370
    18
100
AcDbCircle
 10
68.134017
 20
4.782613999999999
 30
0.0
 40
2.0
100
AcDbArc
 50
340.0
 51
0.0
  0
ARC
  5
275
330
1F
100
AcDbEntity
  8
NOCUT
370
    18
100
AcDbCircle
 10
52.053183
 20
11.083696
 30
0.0
 40
2.0
100
AcDbArc
 50
231.200902
 51
259.927068
  0
ARC
  5
276
330
1F
100
AcDbEntity
  8
NOCUT
370
    18
100
AcDbCircle
 10
64.008328
 20
7.464441
 30
0.0
 40
1.6
100
AcDbArc
 50
90.0
 51
116.565051
  0
ARC
  5
277
330
1F
100
AcDbEntity
  8
NOCUT
370
    18
100
AcDbCircle
 10
71.534017
 20
2.428818999999999
 30
0.0
 40
2.0
100
AcDbArc
 50
160.0
 51
180.0
  0
ARC
  5
278
330
1F
100
AcDbEntity
  8
NOCUT
370
    18
100
AcDbCircle
 10
55.24065
 20
-13.564441
 30
0.0
 40
5.0
100
AcDbArc
 50
90.0
 51
100.072932
  0
ARC
  5
279
330
1F
100
AcDbEntity
  8
NOCUT
370
    18
100
AcDbCircle
 10
72.134017
 20
6.287697
 30
0.0
 40
2.0
100
AcDbArc
 50
171.862663
 51
180.0
  0
ARC
  5
27A
330
1F
100
AcDbEntity
  8
NOCUT
370
    18
100
AcDbCircle
 10
71.534017
 20
-2.428818999999999
 30
0.0
 40
2.0
100
AcDbArc
 50
180.0
 51
200.0
  0
ARC
  5
27B
330
1F
100
AcDbEntity
  8
NOCUT
370
    18
100
AcDbCircle
 10
62.25291
 20
10.164441
 30
0.0
 40
1.6
100
AcDbArc
 50
270.0
 51
296.565051
  0
ARC
  5
27C
330
1F
100
AcDbEntity
  8
NOCUT
370
    18
100
AcDbCircle
 10
69.387739
 20
8.275551
 30
0.0
 40
1.0
100
AcDbArc
 50
351.862663
 51
359.734329
  0
ARC
  5
27D
330
1F
100
AcDbEntity
  8
NOCUT
370
    18
100
AcDbCircle
 10
68.134017
 20
-4.782613999999999
 30
0.0
 40
2.0
100
AcDbArc
 50
0.0
 51
20.0
  0
ARC
  5
27E
330
1F
100
AcDbEntity
  8
NOCUT
370
    18
100
AcDbCircle
 10
64.008328
 20
-7.464441
 30
0.0
 40
1.6
100
AcDbArc
 50
243.434949
 51
270.0
  0
ARC
  5
27F
330
1F
100
AcDbEntity
  8
NOCUT
370
    18
100
AcDbCircle
 10
69.98921999999999
 20
8.593355
 30
0.0
 40
0.4
100
AcDbArc
 50
359.734329
 51
88.83181400000001
  0
ARC
  5
280
330
1F
100
AcDbEntity
  8
1
370
    18
100
AcDbCircle
 10
67.776398
 20
7.990325
 30
0.0
 40
0.3404090674424697
100
AcDbArc
 50
250.535865
 51
268.215221
  0
ARC
  5
281
330
1F
100
AcDbEntity
  8
1
370
    18
100
AcDbCircle
 10
67.784887
 20
8.012988999999999
 30
0.0
 40
0.3646073627136074
100
AcDbArc
 50
228.636569
 51
250.464877
  0
ARC
  5
282
330
1F
100
AcDbEntity
  8
1
370
    18
100
AcDbCircle
 10
67.26526599999999
 20
7.618467999999999
 30
0.0
 40
0.3685384468525369
100
AcDbArc
 50
99.65839
 51
117.477047
  0
ARC
  5
283
330
1F
100
AcDbEntity
  8
1
370
    18
100
AcDbCircle
 10
67.26560400000001
 20
7.616305
 30
0.0
 40
0.3707274767012881
100
AcDbArc
 50
77.137969
 51
99.65386
  0
ARC
  5
284
330
1F
100
AcDbEntity
  8
1
370
    18
100
AcDbCircle
 10
70.263056
 20
1.934868999999999
 30
0.0
 40
0.5268120210382527
100
AcDbArc
 50
37.157
 51
84.056157
  0
ARC
  5
285
330
1F
100
AcDbEntity
  8
1
370
    18
100
AcDbCircle
 10
70.29313000000001
 20
1.719209999999999
 30
0.0
 40
0.7344731788682108
100
AcDbArc
 50
49.674089
 51
80.933351
  0
ARC
  5
286
330
1F
100
AcDbEntity
  8
1
370
    18
100
AcDbCircle
 10
62.239052
 20
-9.973879999999999
 30
0.0
 40
1.479176332612701
100
AcDbArc
 50
81.18177299999999
 51
89.46319499999999
  0
ARC
  5
287
330
1F
100
AcDbEntity
  8
1
370
    18
100
AcDbCircle
 10
62.233129
 20
-10.010648
 30
0.0
 40
1.516418184704113
100
AcDbArc
 50
71.034937
 51
81.17359699999999
  0
ARC
  5
288
330
1F
100
AcDbEntity
  8
1
370
    18
100
AcDbCircle
 10
62.181202
 20
-10.061008
 30
0.0
 40
1.581258711862383
100
AcDbArc
 50
65.516288
 51
69.84845899999999
  0
ARC
  5
289
330
1F
100
AcDbEntity
  8
1
370
    18
100
AcDbCircle
 10
62.154679
 20
-10.119206
 30
0.0
 40
1.645216195141255
100
AcDbArc
 50
60.354659
 51
65.51565100000001
  0
ARC
  5
28A
330
1F
100
AcDbEntity
  8
1
370
    18
100
AcDbCircle
 10
69.991265
 20
-8.592749000000001
 30
0.0
 40
0.3979528602768803
100
AcDbArc
 50
270.879702
 51
0.1933
  0
ARC
  5
28B
330
1F
100
AcDbEntity
  8
1
370
    18
100
AcDbCircle
 10
70.298991
 20
9.074047999999999
 30
0.0
 40
0.4000577797574424
100
AcDbArc
 50
356.713693
 51
87.332473
  0
ARC
  5
28C
330
1F
100
AcDbEntity
  8
1
370
    18
100
AcDbCircle
 10
70.41523000000001
 20
9.121377999999999
 30
0.0
 40
0.3829620770549086
100
AcDbArc
 50
359.417147
 51
90.95155899999999
  0
ARC
  5
28D
330
1F
100
AcDbEntity
  8
1
370
    18
100
AcDbCircle
 10
64.896731
 20
4.724606999999999
 30
0.0
 40
0.4953634795605574
100
AcDbArc
 50
75.552364
 51
117.730779
  0
ARC
  5
28E
330
1F
100
AcDbEntity
  8
1
370
    18
100
AcDbCircle
 10
63.635941
 20
-25.96691
 30
0.0
 40
29.19829608451086
100
AcDbArc
 50
77.301428
 51
78.35261899999999
  0
ARC
  5
28F
330
1F
100
AcDbEntity
  8
1
370
    18
100
AcDbCircle
 10
64.20550899999999
 20
-23.196809
 30
0.0
 40
26.37024663394216
100
AcDbArc
 50
78.34955500000001
 51
79.79325
  0
ARC
  5
290
330
1F
100
AcDbEntity
  8
1
370
    18
100
AcDbCircle
 10
65.22879
 20
-8.338784
 30
0.0
 40
11.59697374893044
100
AcDbArc
 50
76.78921200000001
 51
78.60030400000001
  0
ARC
  5
291
330
1F
100
AcDbEntity
  8
1
370
    18
100
AcDbCircle
 10
65.32959100000001
 20
-7.453924999999999
 30
0.0
 40
10.70991788486926
100
AcDbArc
 50
78.193276
 51
80.917703
  0
ARC
  5
292
330
1F
100
AcDbEntity
  8
1
370
    18
100
AcDbCircle
 10
70.322659
 20
4.328270999999999
 30
0.0
 40
0.1701007810869023
100
AcDbArc
 50
15.070724
 51
73.67726600000001
  0
ARC
  5
293
330
1F
100
AcDbEntity
  8
1
370
    18
100
AcDbCircle
 10
64.15150600000001
 20
3.139162999999999
 30
0.0
 40
0.5598531936752338
100
AcDbArc
 50
72.472818
 51
107.445436
  0
ARC
  5
294
330
1F
100
AcDbEntity
  8
1
370
    18
100
AcDbCircle
 10
61.193983
 20
3.200009
 30
0.0
 40
5.347760672960431
100
AcDbArc
 50
191.027025
 51
219.05101
  0
ARC
  5
295
330
1F
100
AcDbEntity
  8
1
370
    18
100
AcDbCircle
 10
61.414413
 20
3.283530999999999
 30
0.0
 40
5.631239632959191
100
AcDbArc
 50
191.374539
 51
212.466179
  0
ARC
  5
296
330
1F
100
AcDbEntity
  8
1
370
    18
100
AcDbCircle
 10
60.77046800000001
 20
2.916479999999999
 30
0.0
 40
4.891036246164809
100
AcDbArc
 50
212.887758
 51
240.755712
  0
ARC
  5
297
330
1F
100
AcDbEntity
  8
1
370
    18
100
AcDbCircle
 10
61.263025
 20
3.88214
 30
0.0
 40
5.974395926962469
100
AcDbArc
 50
241.158312
 51
266.695556
  0
ARC
  5
298
330
1F
100
AcDbEntity
  8
1
370
    18
100
AcDbCircle
 10
64.18700499999999
 20
-1.522995
 30
0.0
 40
1.475612328963703
100
AcDbArc
 50
232.699267
 51
263.04517
  0
ARC
  5
299
330
1F
100
AcDbEntity
  8
1
370
    18
100
AcDbCircle
 10
64.182299
 20
-1.573995
 30
0.0
 40
1.370151600739536
100
AcDbArc
 50
231.545407
 51
262.963214
  0
ARC
  5
29A
330
1F
100
AcDbEntity
  8
1
370
    18
100
AcDbCircle
 10
64.493477
 20
-2.788102999999999
 30
0.0
 40
3.346898141575193
100
AcDbArc
 50
256.033625
 51
261.665339
  0
ARC
  5
29B
330
1F
100
AcDbEntity
  8
1
370
    18
100
AcDbCircle
 10
64.446724
 20
-2.964512
 30
0.0
 40
3.164422197593823
100
AcDbArc
 50
248.6133509999999
 51
256.084207
  0
ARC
  5
29C
330
1F
100
AcDbEntity
  8
1
370
    18
100
AcDbCircle
 10
68.239777
 20
-3.216
 30
0.0
 40
1.857779658264304
100
AcDbArc
 50
129.64235
 51
153.051412
  0
ARC
  5
29D
330
1F
100
AcDbEntity
  8
1
370
    18
100
AcDbCircle
 10
66.122352
 20
-3.247255
 30
0.0
 40
1.015206941303022
100
AcDbArc
 50
209.603743
 51
278.176264
  0
ARC
  5
29E
330
1F
100
AcDbEntity
  8
1
370
    18
100
AcDbCircle
 10
66.04912500000001
 20
-2.876406
 30
0.0
 40
1.392839845682407
100
AcDbArc
 50
278.98836
 51
328.614097
  0
ARC
  5
29F
330
1F
100
AcDbEntity
  8
1
370
    18
100
AcDbCircle
 10
64.825686
 20
-5.329697
 30
0.0
 40
0.6366640734317279
100
AcDbArc
 50
51.551474
 51
124.428823
  0
ARC
  5
2A0
330
1F
100
AcDbEntity
  8
1
370
    18
100
AcDbCircle
 10
64.70203399999999
 20
-5.170058999999999
 30
0.0
 40
0.4352381719701519
100
AcDbArc
 50
122.883815
 51
216.323736
  0
ARC
  5
2A1
330
1F
100
AcDbEntity
  8
1
370
    18
100
AcDbCircle
 10
130.007065
 20
428.9116759999999
 30
0.0
 40
439.7483778460958
100
AcDbArc
 50
260.844722
 51
261.136857
  0
ARC
  5
2A2
330
1F
100
AcDbEntity
  8
1
370
    18
100
AcDbCircle
 10
132.019183
 20
441.3433509999999
 30
0.0
 40
452.3418316777423
100
AcDbArc
 50
260.481721
 51
260.843649
  0
ARC
  5
2A3
330
1F
100
AcDbEntity
  8
1
370
    18
100
AcDbCircle
 10
56.859614
 20
-6.736153999999999
 30
0.0
 40
1.997688383097229
100
AcDbArc
 50
79.63828199999999
 51
107.474858
  0
ARC
  5
2A4
330
1F
100
AcDbEntity
  8
1
370
    18
100
AcDbCircle
 10
56.40678499999999
 20
-5.528253
 30
0.0
 40
0.7129217573919666
100
AcDbArc
 50
101.903575
 51
171.003562
  0
ARC
  5
2A5
330
1F
100
AcDbEntity
  8
1
370
    18
100
AcDbCircle
 10
59.88791800000001
 20
-5.602839
 30
0.0
 40
4.189418255583766
100
AcDbArc
 50
177.454446
 51
197.562616
  0
ARC
  5
2A6
330
1F
100
AcDbEntity
  8
1
370
    18
100
AcDbCircle
 10
57.57893000000001
 20
-6.324264
 30
0.0
 40
1.770391867398053
100
AcDbArc
 50
197.85177
 51
238.855594
  0
ARC
  5
2A7
330
1F
100
AcDbEntity
  8
1
370
    18
100
AcDbCircle
 10
58.684474
 20
-4.163583999999999
 30
0.0
 40
4.194928194072664
100
AcDbArc
 50
241.195893
 51
265.851812
  0
ARC
  5
2A8
330
1F
100
AcDbEntity
  8
1
370
    18
100
AcDbCircle
 10
60.876285
 20
14.629366
 30
0.0
 40
23.11198241142147
100
AcDbArc
 50
263.802052
 51
270.105028
  0
ARC
  5
2A9
330
1F
100
AcDbEntity
  8
1
370
    18
100
AcDbCircle
 10
72.503694
 20
-214.385839
 30
0.0
 40
222.969143404048
100
AcDbArc
 50
92.63504499999999
 51
93.168891
  0
ARC
  5
2AA
330
1F
100
AcDbEntity
  8
1
370
    18
100
AcDbCircle
 10
72.84829000000001
 20
-220.586071
 30
0.0
 40
229.1789433279742
100
AcDbArc
 50
93.16922199999998
 51
93.830877
  0
ARC
  5
2AB
330
1F
100
AcDbEntity
  8
1
370
    18
100
AcDbCircle
 10
55.091205
 20
3.999076999999999
 30
0.0
 40
4.637150692135469
100
AcDbArc
 50
68.687443
 51
79.904018
  0
ARC
  5
2AC
330
1F
100
AcDbEntity
  8
1
370
    18
100
AcDbCircle
 10
62.107688
 20
23.824463
 30
0.0
 40
16.39624249557069
100
AcDbArc
 50
251.0259
 51
256.921577
  0
ARC
  5
2AD
330
1F
100
AcDbEntity
  8
1
370
    18
100
AcDbCircle
 10
61.34827399999999
 20
20.893804
 30
0.0
 40
13.36997636737243
100
AcDbArc
 50
257.249639
 51
268.158576
  0
ARC
  5
2AE
330
1F
100
AcDbEntity
  8
1
370
    18
100
AcDbCircle
 10
2.93223
 20
-320.627453
 30
0.0
 40
329.9311430208037
100
AcDbArc
 50
79.642055
 51
80.032753
  0
ARC
  5
2AF
330
1F
100
AcDbEntity
  8
1
370
    18
100
AcDbCircle
 10
1.460501
 20
-328.958302
 30
0.0
 40
338.39098792573
100
AcDbArc
 50
80.03147199999999
 51
80.515828
  0
ARC
  5
2B0
330
1F
100
AcDbEntity
  8
1
370
    18
100
AcDbCircle
 10
56.860114
 20
2.838386999999999
 30
0.0
 40
2.001313669210768
100
AcDbArc
 50
79.67179200000001
 51
107.457175
  0
ARC
  5
2B1
330
1F
100
AcDbEntity
  8
1
370
    18
100
AcDbCircle
 10
56.417275
 20
4.046412999999999
 30
0.0
 40
0.7185926668059452
100
AcDbArc
 50
102.664185
 51
173.989304
  0
ARC
  5
2B2
330
1F
100
AcDbEntity
  8
1
370
    18
100
AcDbCircle
 10
64.10897299999999
 20
3.962467999999999
 30
0.0
 40
8.40784732666996
100
AcDbArc
 50
178.915113
 51
192.288929
  0
ARC
  5
2B3
330
1F
100
AcDbEntity
  8
1
370
    18
100
AcDbCircle
 10
61.76857
 20
-8.787489
 30
0.0
 40
3.235922928591691
100
AcDbArc
 50
68.234998
 51
73.97274799999999
  0
ARC
  5
2B4
330
1F
100
AcDbEntity
  8
1
370
    18
100
AcDbCircle
 10
61.690251
 20
-9.057864999999999
 30
0.0
 40
3.517412647230881
100
AcDbArc
 50
73.962554
 51
80.795188
  0
ARC
  5
2B5
330
1F
100
AcDbEntity
  8
1
370
    18
100
AcDbCircle
 10
62.137577
 20
-3.812151999999999
 30
0.0
 40
1.644828288293918
100
AcDbArc
 50
78.489086
 51
85.979196
  0
ARC
  5
2B6
330
1F
100
AcDbEntity
  8
1
370
    18
100
AcDbCircle
 10
62.12453599999999
 20
-3.878466999999999
 30
0.0
 40
1.712412255124682
100
AcDbArc
 50
69.438677
 51
78.504315
  0
ARC
  5
2B7
330
1F
100
AcDbEntity
  8
1
370
    18
100
AcDbCircle
 10
61.90879200000001
 20
-3.705579
 30
0.0
 40
1.6473937704121
100
AcDbArc
 50
55.725708
 51
60.262143
  0
ARC
  5
2B8
330
1F
100
AcDbEntity
  8
1
370
    18
100
AcDbCircle
 10
61.807528
 20
-3.854337
 30
0.0
 40
1.827346924207273
100
AcDbArc
 50
50.557325
 51
55.72866
  0
ARC
  5
2B9
330
1F
100
AcDbEntity
  8
1
370
    18
100
AcDbCircle
 10
70.018919
 20
1.577758999999999
 30
0.0
 40
0.2652563179805023
100
AcDbArc
 50
258.169089
 51
333.173108
  0
ARC
  5
2BA
330
1F
100
AcDbEntity
  8
1
370
    18
100
AcDbCircle
 10
63.80757299999999
 20
2.271065999999999
 30
0.0
 40
0.5509863502550584
100
AcDbArc
 50
233.50048
 51
274.1126910000001
  0
ARC
  5
2BB
330
1F
100
AcDbEntity
  8
1
370
    18
100
AcDbCircle
 10
70.06112299999999
 20
1.67337
 30
0.0
 40
0.3781531627882802
100
AcDbArc
 50
255.194311
 51
320.725299
  0
ARC
  5
2BC
330
1F
100
AcDbEntity
  8
1
370
    18
100
AcDbCircle
 10
63.710589
 20
2.244845
 30
0.0
 40
0.5352486485237229
100
AcDbArc
 50
232.425438
 51
274.452198
  0
ARC
  5
2BD
330
1F
100
AcDbEntity
  8
1
370
    18
100
AcDbCircle
 10
65.03013
 20
-4.622131999999999
 30
0.0
 40
0.4130216469725399
100
AcDbArc
 50
197.767496
 51
268.639292
  0
ARC
  5
2BE
330
1F
100
AcDbEntity
  8
1
370
    18
100
AcDbCircle
 10
70.16649499999999
 20
-5.252943
 30
0.0
 40
0.3265490537989867
100
AcDbArc
 50
255.994993
 51
348.876521
  0
ARC
  5
2BF
330
1F
100
AcDbEntity
  8
1
370
    18
100
AcDbCircle
 10
64.36377199999999
 20
-6.312444
 30
0.0
 40
0.4307490540394502
100
AcDbArc
 50
193.372776
 51
264.182397
  0
ARC
  5
2C0
330
1F
100
AcDbEntity
  8
1
370
    18
100
AcDbCircle
 10
70.50176999999999
 20
-7.287016
 30
0.0
 40
0.3268907688325426
100
AcDbArc
 50
253.489549
 51
324.6622
  0
ARC
  5
2C1
330
1F
100
AcDbEntity
  8
1
370
    18
100
AcDbCircle
 10
61.28927
 20
4.084653
 30
0.0
 40
6.116894374942622
100
AcDbArc
 50
247.166899
 51
266.562371
  0
ARC
  5
2C2
330
1F
100
AcDbEntity
  8
1
370
    18
100
AcDbCircle
 10
60.838464
 20
3.013697999999999
 30
0.0
 40
4.954925771279703
100
AcDbArc
 50
219.96797
 51
247.165721
  0
ARC
  5
2C3
330
1F
100
AcDbEntity
  8
1
370
    18
100
AcDbCircle
 10
64.385407
 20
9.026067999999998
 30
0.0
 40
0.3426128042994676
100
AcDbArc
 50
101.02263
 51
183.773551
  0
ARC
  5
2C4
330
1F
100
AcDbEntity
  8
1
370
    18
100
AcDbCircle
 10
64.346604
 20
8.989228
 30
0.0
 40
0.4037016732261047
100
AcDbArc
 50
93.762748
 51
174.586532
  0
ARC
  5
2C5
330
1F
100
AcDbEntity
  8
CUT
370
    18
100
AcDbCircle
 10
70.415093
 20
9.121238999999999
 30
0.0
 40
0.3830979000598549
100
AcDbArc
 50
359.438008
 51
90.930698
  0
ARC
  5
2C6
330
1F
100
AcDbEntity
  8
CUT
370
    18
100
AcDbCircle
 10
63.749938
 20
5.434458999999999
 30
0.0
 40
0.3961358242600728
100
AcDbArc
 50
180.207464
 51
270.318253
  0
ARC
  5
2C7
330
1F
100
AcDbEntity
  8
CUT
370
    18
100
AcDbCircle
 10
64.34476
 20
8.991125
 30
0.0
 40
0.4016908981735068
100
AcDbArc
 50
93.518106
 51
174.831175
  0
ARC
  5
2C8
330
1F
100
AcDbEntity
  8
CUT
370
    18
100
AcDbCircle
 10
69.95340300000001
 20
5.446117
 30
0.0
 40
0.4036880815174408
100
AcDbArc
 50
271.573543
 51
352.74381
  0
ARC
  5
2C9
330
1F
100
AcDbEntity
  8
1
370
    18
100
AcDbCircle
 10
63.689025
 20
1.499900999999999
 30
0.0
 40
0.3740726973816146
100
AcDbArc
 50
149.089696
 51
209.570767
  0
ARC
  5
2CA
330
1F
100
AcDbEntity
  8
1
370
    18
100
AcDbCircle
 10
66.690313
 20
7.567346999999999
 30
0.0
 40
1.015094711464609
100
AcDbArc
 50
269.732638
 51
325.717484
  0
ARC
  5
2CB
330
1F
100
AcDbEntity
  8
1
370
    18
100
AcDbCircle
 10
60.009829
 20
3.204504999999999
 30
0.0
 40
11.62700911412097
100
AcDbArc
 50
258.408123
 51
268.774584
  0
ARC
  5
2CC
330
1F
100
AcDbEntity
  8
1
370
    18
100
AcDbCircle
 10
58.24343599999999
 20
-5.316493
 30
0.0
 40
2.924926706407577
100
AcDbArc
 50
234.560485
 51
258.76392
  0
ARC
  5
2CD
330
1F
100
AcDbEntity
  8
1
370
    18
100
AcDbCircle
 10
57.607375
 20
-6.314439
 30
0.0
 40
1.744103719052116
100
AcDbArc
 50
197.605047
 51
232.574728
  0
ARC
  5
2CE
330
1F
100
AcDbEntity
  8
1
370
    18
100
AcDbCircle
 10
62.90094
 20
0.9745609999999999
 30
0.0
 40
0.4116498447520997
100
AcDbArc
 50
157.409097
 51
233.853997
  0
ARC
  5
2CF
330
1F
100
AcDbEntity
  8
1
370
    18
100
AcDbCircle
 10
62.965538
 20
0.7365330000000001
 30
0.0
 40
0.5955418219991718
100
AcDbArc
 50
82.004408
 51
138.301202
  0
ARC
  5
2D0
330
1F
100
AcDbEntity
  8
1
370
    18
100
AcDbCircle
 10
63.347839
 20
1.398351
 30
0.0
 40
1.068296906651477
100
AcDbArc
 50
146.863991
 51
180.386489
  0
ARC
  5
2D1
330
1F
100
AcDbEntity
  8
1
370
    18
100
AcDbCircle
 10
312.777399
 20
3.416787999999999
 30
0.0
 40
242.7259105160026
100
AcDbArc
 50
180.497621
 51
180.576697
  0
ARC
  5
2D2
330
1F
100
AcDbEntity
  8
1
370
    18
100
AcDbCircle
 10
110.061073
 20
1.288737999999999
 30
0.0
 40
39.99852970280055
100
AcDbArc
 50
180.451238
 51
180.94666
  0
ARC
  5
2D3
330
1F
100
AcDbEntity
  8
1
370
    18
100
AcDbCircle
 10
67.187122
 20
-8.418299000000001
 30
0.0
 40
0.6145320934243334
100
AcDbArc
 50
56.517842
 51
114.594843
  0
ARC
  5
2D4
330
1F
100
AcDbEntity
  8
1
370
    18
100
AcDbCircle
 10
67.15809799999999
 20
-8.378871999999999
 30
0.0
 40
0.5666906161727335
100
AcDbArc
 50
113.585663
 51
177.162069
  0
ARC
  5
2D5
330
1F
100
AcDbEntity
  8
1
370
    18
100
AcDbCircle
 10
66.500841
 20
-22.135837
 30
0.0
 40
13.1402870321951
100
AcDbArc
 50
93.403752
 51
95.507591
  0
ARC
  5
2D6
330
1F
100
AcDbEntity
  8
1
370
    18
100
AcDbCircle
 10
66.224338
 20
-18.27396
 30
0.0
 40
9.268924614446872
100
AcDbArc
 50
87.866642
 51
93.11489499999998
  0
ARC
  5
2D7
330
1F
100
AcDbEntity
  8
1
370
    18
100
AcDbCircle
 10
69.997875
 20
-8.63968
 30
0.0
 40
0.3274625684302276
100
AcDbArc
 50
270.733206
 51
0.266499
  0
ARC
  5
2D8
330
1F
100
AcDbEntity
  8
1
370
    18
100
AcDbCircle
 10
70.02087900000001
 20
-3.200991
 30
0.0
 40
0.3688740576041422
100
AcDbArc
 50
266.346705
 51
3.093420999999999
  0
ARC
  5
2D9
330
1F
100
AcDbEntity
  8
1
370
    18
100
AcDbCircle
 10
70.021799
 20
-3.227761999999999
 30
0.0
 40
0.2834163304600967
100
AcDbArc
 50
266.007397
 51
329.228817
  0
ARC
  5
2DA
330
1F
100
AcDbEntity
  8
1
370
    18
100
AcDbCircle
 10
70.08226999999999
 20
-5.084027999999999
 30
0.0
 40
0.3108356124613724
100
AcDbArc
 50
254.149893
 51
350.925071
  0
ARC
  5
2DB
330
1F
100
AcDbEntity
  8
1
370
    18
100
AcDbCircle
 10
64.109752
 20
3.960441
 30
0.0
 40
8.357275590858471
100
AcDbArc
 50
178.975039
 51
192.320738
  0
ARC
  5
2DC
330
1F
100
AcDbEntity
  8
1
370
    18
100
AcDbCircle
 10
64.825263
 20
4.766365
 30
0.0
 40
0.6658989468825807
100
AcDbArc
 50
53.476893
 51
122.678546
  0
ARC
  5
2DD
330
1F
100
AcDbEntity
  8
1
370
    18
100
AcDbCircle
 10
64.704098
 20
4.958561
 30
0.0
 40
0.4387089020427105
100
AcDbArc
 50
122.911763
 51
216.484873
  0
ARC
  5
2DE
330
1F
100
AcDbEntity
  8
1
370
    18
100
AcDbCircle
 10
63.660267
 20
3.519823999999999
 30
0.0
 40
4.0393043193841
100
AcDbArc
 50
91.05801600000001
 51
95.219775
  0
ARC
  5
2DF
330
1F
100
AcDbEntity
  8
1
370
    18
100
AcDbCircle
 10
63.68108
 20
2.558276999999999
 30
0.0
 40
5.00107278632438
100
AcDbArc
 50
86.248141
 51
91.093013
  0
ARC
  5
2E0
330
1F
100
AcDbEntity
  8
1
370
    18
100
AcDbCircle
 10
56.401955
 20
4.043868999999999
 30
0.0
 40
0.6514997380872366
100
AcDbArc
 50
99.55732500000001
 51
174.179778
  0
ARC
  5
2E1
330
1F
100
AcDbEntity
  8
1
370
    18
100
AcDbCircle
 10
56.810386
 20
2.777371
 30
0.0
 40
1.977621659190219
100
AcDbArc
 50
78.482771
 51
105.142702
  0
ARC
  5
2E2
330
1F
100
AcDbEntity
  8
1
370
    18
100
AcDbCircle
 10
156.418132
 20
6.977732
 30
0.0
 40
86.57450048228362
100
AcDbArc
 50
185.98871
 51
186.367265
  0
ARC
  5
2E3
330
1F
100
AcDbEntity
  8
1
370
    18
100
AcDbCircle
 10
142.332844
 20
5.503689999999999
 30
0.0
 40
72.41229304126091
100
AcDbArc
 50
185.415812
 51
185.991524
  0
ARC
  5
2E4
330
1F
100
AcDbEntity
  8
1
370
    18
100
AcDbCircle
 10
64.72956700000001
 20
-5.124544
 30
0.0
 40
0.3936040014685717
100
AcDbArc
 50
121.212817
 51
211.045704
  0
ARC
  5
2E5
330
1F
100
AcDbEntity
  8
1
370
    18
100
AcDbCircle
 10
64.81865400000001
 20
-5.257643999999999
 30
0.0
 40
0.5536514210403873
100
AcDbArc
 50
50.062909
 51
121.959656
  0
ARC
  5
2E6
330
1F
100
AcDbEntity
  8
1
370
    18
100
AcDbCircle
 10
69.24965799999999
 20
-3.192622
 30
0.0
 40
4.169222904668121
100
AcDbArc
 50
140.535268
 51
163.479305
  0
ARC
  5
2E7
330
1F
100
AcDbEntity
  8
1
370
    18
100
AcDbCircle
 10
66.769067
 20
-1.557939999999999
 30
0.0
 40
1.255239919580309
100
AcDbArc
 50
78.845021
 51
126.017202
  0
ARC
  5
2E8
330
1F
100
AcDbEntity
  8
1
370
    18
100
AcDbCircle
 10
65.764816
 20
-1.526539999999999
 30
0.0
 40
1.730764523046157
100
AcDbArc
 50
3.866323999999999
 51
43.900455
  0
ARC
  5
2E9
330
1F
100
AcDbEntity
  8
1
370
    18
100
AcDbCircle
 10
64.926171
 20
0.94542
 30
0.0
 40
1.850767716680106
100
AcDbArc
 50
222.248399
 51
261.160717
  0
ARC
  5
2EA
330
1F
100
AcDbEntity
  8
1
370
    18
100
AcDbCircle
 10
67.30043000000001
 20
-2.737449
 30
0.0
 40
0.5105447572771359
100
AcDbArc
 50
102.975384
 51
161.810223
  0
ARC
  5
2EB
330
1F
100
AcDbEntity
  8
1
370
    18
100
AcDbCircle
 10
67.493595
 20
-3.239217
 30
0.0
 40
1.045607201399998
100
AcDbArc
 50
47.24108799999999
 51
107.119934
  0
ARC
  5
2EC
330
1F
100
AcDbEntity
  8
1
370
    18
100
AcDbCircle
 10
67.914417
 20
-2.838691999999999
 30
0.0
 40
0.4673038457018198
100
AcDbArc
 50
303.74375
 51
51.78887299999999
  0
ARC
  5
2ED
330
1F
100
AcDbEntity
  8
1
370
    18
100
AcDbCircle
 10
67.66663199999999
 20
-2.368424999999999
 30
0.0
 40
0.9975127110554192
100
AcDbArc
 50
238.643189
 51
300.572524
  0
ARC
  5
2EE
330
1F
100
AcDbEntity
  8
1
370
    18
100
AcDbCircle
 10
67.473528
 20
-3.284841
 30
0.0
 40
1.315198037460221
100
AcDbArc
 50
67.927373
 51
122.525858
  0
ARC
  5
2EF
330
1F
100
AcDbEntity
  8
1
370
    18
100
AcDbCircle
 10
67.717161
 20
-3.001529
 30
0.0
 40
0.9684757479415983
100
AcDbArc
 50
7.208660999999999
 51
75.004048
  0
ARC
  5
2F0
330
1F
100
AcDbEntity
  8
1
370
    18
100
AcDbCircle
 10
67.65781
 20
-2.733331
 30
0.0
 40
1.33388517255422
100
AcDbArc
 50
48.901362
 51
97.15623
  0
ARC
  5
2F1
330
1F
100
AcDbEntity
  8
1
370
    18
100
AcDbCircle
 10
65.15536400000001
 20
0.424254
 30
0.0
 40
0.305953003227061
100
AcDbArc
 50
320.935496
 51
92.796005
  0
ARC
  5
2F2
330
1F
100
AcDbEntity
  8
1
370
    18
100
AcDbCircle
 10
67.925268
 20
2.737084999999999
 30
0.0
 40
0.8499200784978622
100
AcDbArc
 50
260.509563
 51
323.943628
  0
ARC
  5
2F3
330
1F
100
AcDbEntity
  8
1
370
    18
100
AcDbCircle
 10
67.637998
 20
5.792130999999999
 30
0.0
 40
3.896112587082173
100
AcDbArc
 50
250.258023
 51
272.164234
  0
ARC
  5
2F4
330
1F
100
AcDbEntity
  8
1
370
    18
100
AcDbCircle
 10
66.420793
 20
2.904675999999999
 30
0.0
 40
0.7858974342606128
100
AcDbArc
 50
195.649382
 51
262.774674
  0
ARC
  5
2F5
330
1F
100
AcDbEntity
  8
1
370
    18
100
AcDbCircle
 10
67.16636899999999
 20
7.238805999999999
 30
0.0
 40
1.318087401279329
100
AcDbArc
 50
50.965637
 51
90.74973699999999
  0
ARC
  5
2F6
330
1F
100
AcDbEntity
  8
1
370
    18
100
AcDbCircle
 10
67.15801500000001
 20
7.239749
 30
0.0
 40
1.322634887545449
100
AcDbArc
 50
347.562513
 51
50.658823
  0
ARC
  5
2F7
330
1F
100
AcDbEntity
  8
1
370
    18
100
AcDbCircle
 10
67.149423
 20
7.196099
 30
0.0
 40
1.343654056840237
100
AcDbArc
 50
152.363186
 51
201.297361
  0
ARC
  5
2F8
330
1F
100
AcDbEntity
  8
1
370
    18
100
AcDbCircle
 10
67.17094799999999
 20
7.192584
 30
0.0
 40
1.364370863911541
100
AcDbArc
 50
90.91661
 51
152.651719
  0
ARC
  5
2F9
330
1F
100
AcDbEntity
  8
1
370
    18
100
AcDbCircle
 10
67.165478
 20
7.23916
 30
0.0
 40
1.308411491236255
100
AcDbArc
 50
51.061764
 51
90.748618
  0
ARC
  5
2FA
330
1F
100
AcDbEntity
  8
1
370
    18
100
AcDbCircle
 10
67.157185
 20
7.240152
 30
0.0
 40
1.312871213471352
100
AcDbArc
 50
347.421146
 51
50.753012
  0
ARC
  5
2FB
330
1F
100
AcDbEntity
  8
1
370
    18
100
AcDbCircle
 10
67.148364
 20
7.196865999999999
 30
0.0
 40
1.333396482975827
100
AcDbArc
 50
152.592574
 51
201.542448
  0
ARC
  5
2FC
330
1F
100
AcDbEntity
  8
1
370
    18
100
AcDbCircle
 10
67.17006999999999
 20
7.193316999999999
 30
0.0
 40
1.354316405326031
100
AcDbArc
 50
90.91749899999999
 51
152.881981
  0
ARC
  5
2FD
330
1F
100
AcDbEntity
  8
1
370
    18
100
AcDbCircle
 10
67.285279
 20
7.133930999999999
 30
0.0
 40
1.318730443456533
100
AcDbArc
 50
354.411803
 51
48.746484
  0
ARC
  5
2FE
330
1F
100
AcDbEntity
  8
1
370
    18
100
AcDbCircle
 10
66.381675
 20
2.139618999999999
 30
0.0
 40
0.9182704178084581
100
AcDbArc
 50
80.78351500000001
 51
140.787114
  0
ARC
  5
2FF
330
1F
100
AcDbEntity
  8
1
370
    18
100
AcDbCircle
 10
66.639921
 20
-0.8413819999999999
 30
0.0
 40
3.889006074015076
100
AcDbArc
 50
69.704489
 51
91.63807199999999
  0
ARC
  5
300
330
1F
100
AcDbEntity
  8
1
370
    18
100
AcDbCircle
 10
67.902142
 20
2.085118
 30
0.0
 40
0.7262584381371472
100
AcDbArc
 50
12.058284
 51
83.14149999999999
  0
ARC
  5
301
330
1F
100
AcDbEntity
  8
1
370
    18
100
AcDbCircle
 10
62.364887
 20
10.667993
 30
0.0
 40
3.183447144615158
100
AcDbArc
 50
267.984226
 51
271.816724
  0
ARC
  5
302
330
1F
100
AcDbEntity
  8
1
370
    18
100
AcDbCircle
 10
62.369728
 20
10.521755
 30
0.0
 40
3.037129151903668
100
AcDbArc
 50
271.8129
 51
276.73571
  0
ARC
  5
303
330
1F
100
AcDbEntity
  8
1
370
    18
100
AcDbCircle
 10
62.63395500000001
 20
12.562577
 30
0.0
 40
5.05782371826938
100
AcDbArc
 50
271.042219
 51
272.295417
  0
ARC
  5
304
330
1F
100
AcDbEntity
  8
1
370
    18
100
AcDbCircle
 10
62.65085500000001
 20
12.139223
 30
0.0
 40
4.634132880990831
100
AcDbArc
 50
272.296282
 51
273.929811
  0
ARC
  5
305
330
1F
100
AcDbEntity
  8
1
370
    18
100
AcDbCircle
 10
64.707215
 20
4.918455
 30
0.0
 40
0.3721037239683182
100
AcDbArc
 50
119.21526
 51
212.200253
  0
ARC
  5
306
330
1F
100
AcDbEntity
  8
1
370
    18
100
AcDbCircle
 10
64.82785799999999
 20
4.723543
 30
0.0
 40
0.6011918823137564
100
AcDbArc
 50
54.839202
 51
120.18374
  0
ARC
  5
307
330
1F
100
AcDbEntity
  8
1
370
    18
100
AcDbCircle
 10
70.25670600000001
 20
6.913097
 30
0.0
 40
0.1355610170404482
100
AcDbArc
 50
12.181485
 51
75.736159
  0
ARC
  5
308
330
1F
100
AcDbEntity
  8
1
370
    18
100
AcDbCircle
 10
56.41777099999999
 20
-5.515331999999999
 30
0.0
 40
0.6732952112361605
100
AcDbArc
 50
100.611598
 51
170.446574
  0
ARC
  5
309
330
1F
100
AcDbEntity
  8
1
370
    18
100
AcDbCircle
 10
56.880312
 20
-6.775838
 30
0.0
 40
2.009776795170616
100
AcDbArc
 50
80.69586200000001
 51
106.968003
  0
ARC
  5
30A
330
1F
100
AcDbEntity
  8
1
370
    18
100
AcDbCircle
 10
66.149961
 20
8.112318999999999
 30
0.0
 40
1.428617408906589
100
AcDbArc
 50
252.334226
 51
286.75597
  0
ARC
  5
30B
330
1F
100
AcDbEntity
  8
1
370
    18
100
AcDbCircle
 10
59.470251
 20
-4.391801999999999
 30
0.0
 40
5.816405017373764
100
AcDbArc
 50
45.855111
 51
52.10995399999999
  0
ARC
  5
30C
330
1F
100
AcDbEntity
  8
1
370
    18
100
AcDbCircle
 10
64.10911899999999
 20
2.077299
 30
0.0
 40
2.040840376563533
100
AcDbArc
 50
224.685621
 51
251.90262
  0
ARC
  5
30D
330
1F
100
AcDbEntity
  8
1
370
    18
100
AcDbCircle
 10
59.75770799999999
 20
-5.603391
 30
0.0
 40
4.008876433957707
100
AcDbArc
 50
177.143174
 51
197.99621
  0
MTEXT
  5
30E
330
1F
100
AcDbEntity
  8
SK6
370
    13
100
AcDbMText
 10
-54.0675
 20
58.897404
 30
0.0
 40
2.5
 41
0.0
 71
     7
 72
     5
  1
\fArial|b0|i0;\W1.0000;075A5R079C075-ISAD07D-C
  7
Arial
 73
     2
 44
1.047437
1001
ACAD
1000
MTEXTBEGIN
1070
    73
1070
     2
1070
    44
1040
1.047437
1070
    74
1070
     0
1000
MTEXTEND
  0
DIMENSION
  5
311
102
{ACAD_XDICTIONARY
360
312
102
}
102
{ACAD_REACTORS
330
313
102
}
330
1F
100
AcDbEntity
  8
SK2
370
    13
100
AcDbDimension
  2
_U0
 10
-67.15719599999999
 20
-9.525
 30
0.0
 11
-67.15719599999999
 21
0.0
 31
0.0
 70
   160
 42
19.05
 52
90.0
  3
Standard
100
AcDbAlignedDimension
 13
50.8
 23
9.525
 33
0.0
 14
-53.7
 24
-9.525
 34
0.0
 50
-90.0
100
AcDbRotatedDimension
1001
ACAD
1000
DSTYLE
1002
{
1070
   371
1070
    13
1070
   372
1070
    13
1070
     3
1000
%%c<>
1070
   170
1070
     0
1070
   144
1040
1.0
1070
   277
1070
     2
1070
   284
1070
     8
1070
   278
1070
    44
1070
   146
1040
1.0
1070
   345
1005
16
1070
   347
1005
16
1070
   346
1005
16
1070
   344
1005
0
1070
   343
1005
0
1070
   172
1070
     1
1070
    76
1070
     0
1070
    75
1070
     0
1070
   282
1070
     0
1070
   281
1070
     0
1070
    71
1070
     0
1070
    74
1070
     0
1070
   279
1070
     0
1070
   173
1070
     1
1070
   340
1005
30F
1070
   271
1070
     1
1070
   272
1070
     2
1070
    77
1070
     1
1070
    73
1070
     0
1070
   171
1070
     3
1070
   274
1070
     4
1070
   177
1070
    95
1070
   176
1070
    95
1070
   178
1070
    95
1070
    78
1070
     8
1070
    48
1040
-0.1
1070
    41
1040
2.5
1070
   147
1040
1.25
1070
    42
1040
1.0
1070
    44
1040
2.0
1070
   140
1040
2.5
1002
}
1001
ACAD_DSTYLE_DIM_LINETYPE
1070
   380
1005
16
1001
ACAD_DSTYLE_DIM_EXT1_LINETYPE
1070
   381
1005
16
1001
ACAD_DSTYLE_DIM_EXT2_LINETYPE
1070
   382
1005
16
  0
DIMENSION
  5
32B
102
{ACAD_XDICTIONARY
360
32C
102
}
102
{ACAD_REACTORS
330
32D
102
}
330
1F
100
AcDbEntity
  8
2
370
    13
100
AcDbDimension
  2
_U1
 10
70.8
 20
15.019884
 30
0.0
 11
81.977524
 21
15.019884
 31
0.0
 70
   160
 42
4.961170591296578
 52
90.0
  3
Standard
100
AcDbAlignedDimension
 13
65.83882940870342
 23
9.366662779293278
 33
0.0
 14
70.8
 24
10.525
 34
0.0
100
AcDbRotatedDimension
1001
ACAD
1000
DSTYLE
1002
{
1070
   371
1070
    13
1070
   372
1070
    13
1070
   170
1070
     0
1070
   144
1040
1.0
1070
   277
1070
     2
1070
   284
1070
     8
1070
   278
1070
    44
1070
   146
1040
1.0
1070
   345
1005
16
1070
   347
1005
16
1070
   346
1005
16
1070
   344
1005
0
1070
   343
1005
0
1070
   172
1070
     1
1070
    76
1070
     0
1070
    75
1070
     0
1070
   282
1070
     0
1070
   281
1070
     0
1070
    71
1070
     0
1070
    74
1070
     0
1070
   279
1070
     0
1070
   173
1070
     1
1070
   340
1005
30F
1070
   271
1070
     1
1070
   272
1070
     2
1070
    77
1070
     1
1070
    73
1070
     1
1070
   171
1070
     3
1070
   274
1070
     4
1070
   177
1070
   254
1070
   176
1070
   254
1070
   178
1070
   254
1070
    78
1070
     8
1070
    48
1040
-0.1
1070
    41
1040
2.5
1070
   147
1040
1.25
1070
    42
1040
1.0
1070
    44
1040
2.0
1070
   140
1040
2.5
1002
}
1001
ACAD_DSTYLE_DIM_LINETYPE
1070
   380
1005
16
1001
ACAD_DSTYLE_DIM_EXT1_LINETYPE
1070
   381
1005
16
1001
ACAD_DSTYLE_DIM_EXT2_LINETYPE
1070
   382
1005
16
  0
DIMENSION
  5
345
102
{ACAD_XDICTIONARY
360
346
102
}
102
{ACAD_REACTORS
330
347
102
}
330
1F
100
AcDbEntity
  8
2
370
    13
100
AcDbDimension
  2
_U2
 10
81.842804
 20
-9.525
 30
0.0
 11
81.842804
 21
0.0
 31
0.0
 70
   160
 42
19.05
 52
90.0
  3
Standard
100
AcDbAlignedDimension
 13
69.8
 23
9.525
 33
0.0
 14
70.8
 24
-9.525
 34
0.0
 50
-90.0
100
AcDbRotatedDimension
1001
ACAD
1000
DSTYLE
1002
{
1070
   371
1070
    13
1070
   372
1070
    13
1070
     3
1000
%%c<>
1070
   170
1070
     0
1070
   144
1040
1.0
1070
   277
1070
     2
1070
   284
1070
     8
1070
   278
1070
    44
1070
   146
1040
1.0
1070
   345
1005
16
1070
   347
1005
16
1070
   346
1005
16
1070
   344
1005
0
1070
   343
1005
0
1070
   172
1070
     1
1070
    76
1070
     1
1070
   281
1070
     0
1070
    71
1070
     0
1070
    74
1070
     0
1070
   279
1070
     0
1070
   173
1070
     1
1070
   340
1005
30F
1070
   271
1070
     2
1070
   272
1070
     2
1070
    77
1070
     1
1070
    73
1070
     0
1070
   171
1070
     3
1070
   274
1070
     4
1070
   282
1070
     1
1070
   177
1070
   254
1070
   176
1070
   254
1070
   178
1070
   254
1070
    78
1070
     8
1070
    48
1040
-0.1
1070
    41
1040
2.5
1070
   147
1040
1.25
1070
    42
1040
1.0
1070
    44
1040
2.0
1070
   140
1040
2.5
1002
}
1001
ACAD_DSTYLE_DIM_LINETYPE
1070
   380
1005
16
1001
ACAD_DSTYLE_DIM_EXT1_LINETYPE
1070
   381
1005
16
1001
ACAD_DSTYLE_DIM_EXT2_LINETYPE
1070
   382
1005
16
  0
DIMENSION
  5
35B
102
{ACAD_XDICTIONARY
360
35C
102
}
102
{ACAD_REACTORS
330
35D
102
}
330
1F
100
AcDbEntity
  8
2
370
    13
100
AcDbDimension
  2
_U3
 10
70.8
 20
31.019884
 30
0.0
 11
60.8
 21
31.019884
 31
0.0
 70
   160
 42
20.0
 52
90.0
  3
Standard
100
AcDbAlignedDimension
 13
50.8
 23
9.525
 33
0.0
 14
70.8
 24
10.525
 34
0.0
100
AcDbRotatedDimension
1001
ACAD
1000
DSTYLE
1002
{
1070
   371
1070
    13
1070
   372
1070
    13
1070
   170
1070
     0
1070
   144
1040
1.0
1070
   277
1070
     2
1070
   284
1070
     8
1070
   278
1070
    44
1070
   146
1040
1.0
1070
   345
1005
16
1070
   347
1005
16
1070
   346
1005
16
1070
   344
1005
0
1070
   343
1005
0
1070
   172
1070
     1
1070
    76
1070
     0
1070
    75
1070
     0
1070
   282
1070
     0
1070
   281
1070
     0
1070
    71
1070
     0
1070
    74
1070
     0
1070
   279
1070
     0
1070
   173
1070
     1
1070
   340
1005
30F
1070
   271
1070
     1
1070
   272
1070
     2
1070
    77
1070
     1
1070
    73
1070
     1
1070
   171
1070
     3
1070
   274
1070
     4
1070
   177
1070
   254
1070
   176
1070
   254
1070
   178
1070
   254
1070
    78
1070
     8
1070
    48
1040
-0.1
1070
    41
1040
2.5
1070
   147
1040
1.25
1070
    42
1040
1.0
1070
    44
1040
2.0
1070
   140
1040
2.5
1002
}
1001
ACAD_DSTYLE_DIM_LINETYPE
1070
   380
1005
16
1001
ACAD_DSTYLE_DIM_EXT1_LINETYPE
1070
   381
1005
16
1001
ACAD_DSTYLE_DIM_EXT2_LINETYPE
1070
   382
1005
16
  0
DIMENSION
  5
373
102
{ACAD_XDICTIONARY
360
374
102
}
102
{ACAD_REACTORS
330
375
102
}
330
1F
100
AcDbEntity
  8
SK2
370
    13
100
AcDbDimension
  2
_U4
 10
70.8
 20
39.019884
 30
0.0
 11
35.4
 21
39.019884
 31
0.0
 70
   160
 42
70.8
 52
90.0
  3
Standard
100
AcDbAlignedDimension
 13
0.0
 23
1.0
 33
0.0
 14
70.8
 24
10.525
 34
0.0
100
AcDbRotatedDimension
1001
ACAD
1000
DSTYLE
1002
{
1070
   371
1070
    13
1070
   372
1070
    13
1070
   170
1070
     0
1070
   144
1040
1.0
1070
   277
1070
     2
1070
   284
1070
     8
1070
   278
1070
    44
1070
   146
1040
1.0
1070
   345
1005
16
1070
   347
1005
16
1070
   346
1005
16
1070
   344
1005
0
1070
   343
1005
0
1070
   172
1070
     1
1070
    76
1070
     0
1070
    75
1070
     0
1070
   282
1070
     0
1070
   281
1070
     0
1070
    71
1070
     0
1070
    74
1070
     0
1070
   279
1070
     0
1070
   173
1070
     1
1070
   340
1005
30F
1070
   271
1070
     1
1070
   272
1070
     2
1070
    77
1070
     1
1070
    73
1070
     1
1070
   171
1070
     3
1070
   274
1070
     4
1070
   177
1070
    95
1070
   176
1070
    95
1070
   178
1070
    95
1070
    78
1070
     8
1070
    48
1040
-0.1
1070
    41
1040
2.5
1070
   147
1040
1.25
1070
    42
1040
1.0
1070
    44
1040
2.0
1070
   140
1040
2.5
1002
}
1001
ACAD_DSTYLE_DIM_LINETYPE
1070
   380
1005
16
1001
ACAD_DSTYLE_DIM_EXT1_LINETYPE
1070
   381
1005
16
1001
ACAD_DSTYLE_DIM_EXT2_LINETYPE
1070
   382
1005
16
  0
DIMENSION
  5
38B
102
{ACAD_XDICTIONARY
360
38C
102
}
102
{ACAD_REACTORS
330
38D
102
}
330
1F
100
AcDbEntity
  8
SK2
370
    13
100
AcDbDimension
  2
_U5
 10
70.8
 20
47.019884
 30
0.0
 11
8.3
 21
47.019884
 31
0.0
 70
   160
 42
125.0
 52
90.0
  3
Standard
100
AcDbAlignedDimension
 13
-54.2
 23
9.025
 33
0.0
 14
70.8
 24
10.525
 34
0.0
100
AcDbRotatedDimension
1001
ACAD
1000
DSTYLE
1002
{
1070
   371
1070
    13
1070
   372
1070
    13
1070
   170
1070
     0
1070
   144
1040
1.0
1070
   277
1070
     2
1070
   284
1070
     8
1070
   278
1070
    44
1070
   146
1040
1.0
1070
   345
1005
16
1070
   347
1005
16
1070
   346
1005
16
1070
   344
1005
0
1070
   343
1005
0
1070
   172
1070
     1
1070
    76
1070
     0
1070
    75
1070
     0
1070
   282
1070
     0
1070
   281
1070
     0
1070
    71
1070
     0
1070
    74
1070
     0
1070
   279
1070
     0
1070
   173
1070
     1
1070
   340
1005
30F
1070
   271
1070
     1
1070
   272
1070
     2
1070
    77
1070
     1
1070
    73
1070
     1
1070
   171
1070
     3
1070
   274
1070
     4
1070
   177
1070
    95
1070
   176
1070
    95
1070
   178
1070
    95
1070
    78
1070
     8
1070
    48
1040
-0.1
1070
    41
1040
2.5
1070
   147
1040
1.25
1070
    42
1040
1.0
1070
    44
1040
2.0
1070
   140
1040
2.5
1002
}
1001
ACAD_DSTYLE_DIM_LINETYPE
1070
   380
1005
16
1001
ACAD_DSTYLE_DIM_EXT1_LINETYPE
1070
   381
1005
16
1001
ACAD_DSTYLE_DIM_EXT2_LINETYPE
1070
   382
1005
16
  0
ENDSEC
  0
SECTION
  2
OBJECTS
  0
DICTIONARY
  5
C
330
0
100
AcDbDictionary
281
     1
  3
ACAD_CIP_PREVIOUS_PRODUCT_INFO
350
62E
  3
ACAD_COLOR
350
627
  3
ACAD_DETAILVIEWSTYLE
350
402
  3
ACAD_GROUP
350
D
  3
ACAD_LAYOUT
350
1A
  3
ACAD_MATERIAL
350
43
  3
ACAD_MLEADERSTYLE
350
6B
  3
ACAD_MLINESTYLE
350
17
  3
ACAD_PLOTSETTINGS
350
19
  3
ACAD_PLOTSTYLENAME
350
E
  3
ACAD_SCALELIST
350
47
  3
ACAD_SECTIONVIEWSTYLE
350
403
  3
ACAD_TABLESTYLE
350
69
  3
ACAD_VISUALSTYLE
350
2A
  3
ACDB_RECOMPOSE_DATA
350
643
  3
AcDbVariableDictionary
350
3BF
  3
DWGPROPS
350
644
  0
DICTIONARY
  5
312
330
311
100
AcDbDictionary
280
     1
281
     1
  3
ACAD_DIMASSOC
360
313
  0
DICTIONARY
  5
32C
330
32B
100
AcDbDictionary
280
     1
281
     1
  3
ACAD_DIMASSOC
360
32D
  0
DICTIONARY
  5
346
330
345
100
AcDbDictionary
280
     1
281
     1
  3
ACAD_DIMASSOC
360
347
  0
DICTIONARY
  5
35C
330
35B
100
AcDbDictionary
280
     1
281
     1
  3
ACAD_DIMASSOC
360
35D
  0
DICTIONARY
  5
374
330
373
100
AcDbDictionary
280
     1
281
     1
  3
ACAD_DIMASSOC
360
375
  0
DICTIONARY
  5
38C
330
38B
100
AcDbDictionary
280
     1
281
     1
  3
ACAD_DIMASSOC
360
38D
  0
XRECORD
  5
62E
102
{ACAD_REACTORS
330
C
102
}
330
C
100
AcDbXrecord
280
     1
300
ACD
300
2019
300

  0
DICTIONARY
  5
627
102
{ACAD_REACTORS
330
C
102
}
330
C
100
AcDbDictionary
281
     1
  0
DICTIONARY
  5
402
102
{ACAD_REACTORS
330
C
102
}
330
C
100
AcDbDictionary
281
     1
  3
Metric50
350
629
  0
DICTIONARY
  5
D
102
{ACAD_REACTORS
330
C
102
}
330
C
100
AcDbDictionary
281
     1
  0
DICTIONARY
  5
1A
102
{ACAD_REACTORS
330
C
102
}
330
C
100
AcDbDictionary
281
     1
  3
Layout1
350
1E
  3
Layout2
350
26
  3
Model
350
22
  0
DICTIONARY
  5
43
102
{ACAD_REACTORS
330
C
102
}
330
C
100
AcDbDictionary
281
     1
  3
ByBlock
350
45
  3
ByLayer
350
44
  3
Global
350
46
  0
DICTIONARY
  5
6B
102
{ACAD_REACTORS
330
C
102
}
330
C
100
AcDbDictionary
281
     1
  3
Standard
350
6C
  0
DICTIONARY
  5
17
102
{ACAD_REACTORS
330
C
102
}
330
C
100
AcDbDictionary
281
     1
  3
Standard
350
18
  0
DICTIONARY
  5
19
102
{ACAD_REACTORS
330
C
102
}
330
C
100
AcDbDictionary
281
     1
  0
ACDBDICTIONARYWDFLT
  5
E
102
{ACAD_REACTORS
330
C
102
}
330
C
100
AcDbDictionary
281
     1
  3
Normal
350
F
100
AcDbDictionaryWithDefault
340
F
  0
DICTIONARY
  5
47
102
{ACAD_REACTORS
330
C
102
}
330
C
100
AcDbDictionary
281
     1
  3
A0
350
48
  3
A1
350
49
  3
A2
350
4A
  3
A3
350
4B
  3
A4
350
4C
  3
A5
350
4D
  3
A6
350
4E
  3
A7
350
4F
  3
A8
350
50
  3
A9
350
51
  3
B0
350
52
  3
B1
350
53
  3
B2
350
54
  3
B3
350
55
  3
B4
350
56
  3
B5
350
57
  3
B6
350
58
  3
B7
350
59
  3
B8
350
5A
  3
B9
350
5B
  3
C0
350
5C
  3
C1
350
5D
  3
C2
350
5E
  3
C3
350
5F
  3
C4
350
60
  3
C5
350
61
  3
C6
350
62
  3
C7
350
63
  3
C8
350
64
  3
C9
350
65
  3
D0
350
66
  3
D1
350
67
  3
D2
350
68
  0
DICTIONARY
  5
403
102
{ACAD_REACTORS
330
C
102
}
330
C
100
AcDbDictionary
281
     1
  3
Metric50
350
628
  0
DICTIONARY
  5
69
102
{ACAD_REACTORS
330
C
102
}
330
C
100
AcDbDictionary
281
     1
  3
Standard
350
6A
  0
DICTIONARY
  5
2A
102
{ACAD_REACTORS
330
C
102
}
330
C
100
AcDbDictionary
281
     1
  3
2dWireframe
350
2F
  3
Basic
350
32
  3
Brighten
350
36
  3
ColorChange
350
3A
  3
Conceptual
350
34
  3
Dim
350
35
  3
EdgeColorOff
350
3D
  3
Facepattern
350
39
  3
Flat
350
2B
  3
FlatWithEdges
350
2C
  3
Gouraud
350
2D
  3
GouraudWithEdges
350
2E
  3
Hidden
350
31
  3
JitterOff
350
3B
  3
Linepattern
350
38
  3
OverhangOff
350
3C
  3
Realistic
350
33
  3
Shaded
350
42
  3
Shaded with edges
350
41
  3
Shades of Gray
350
3E
  3
Sketchy
350
3F
  3
Thicken
350
37
  3
Wireframe
350
30
  3
X-Ray
350
40
  0
XRECORD
  5
643
102
{ACAD_REACTORS
330
C
102
}
330
C
100
AcDbXrecord
280
     1
 90
        1
330
6A
  0
DICTIONARY
  5
3BF
102
{ACAD_REACTORS
330
C
102
}
330
C
100
AcDbDictionary
281
     1
  3
CANNOSCALE
350
3C0
  3
CMLEADERSTYLE
350
401
  3
CTABLESTYLE
350
400
  3
CVIEWDETAILSTYLE
350
63A
  3
CVIEWSECTIONSTYLE
350
63B
  3
DIMASSOC
350
63F
  3
HIDETEXT
350
63E
  3
INDEXCTL
350
63D
  3
MSLTSCALE
350
3C1
  3
SORTENTS
350
63C
  3
XCLIPFRAME
350
640
  0
XRECORD
  5
644
102
{ACAD_REACTORS
330
C
102
}
330
C
100
AcDbXrecord
280
     1
  1
DWGPROPS COOKIE
  2

  3

  4

  6

  7

  8
fo3459
  9

300
=
301
=
302
=
303
=
304
=
305
=
306
=
307
=
308
=
309
=
 40
0.0005555671296296
 41
2459025.429432871
 42
2459025.431203704
  1

 90
        0
  0
DIMASSOC
  5
313
102
{ACAD_REACTORS
330
312
102
}
330
312
100
AcDbDimAssoc
330
311
 90
        3
 70
     0
 71
     1
  1
AcDbOsnapPointRef
 72
    13
331
FC
 73
     2
 91
        1
 40
0.0
 10
50.8
 20
9.525
 30
0.0
 75
     0
  1
AcDbOsnapPointRef
 72
    13
331
FB
 73
     2
 91
        2
 40
0.0
 10
-53.7
 20
-9.525
 30
0.0
 75
     0
  0
DIMASSOC
  5
32D
102
{ACAD_REACTORS
330
32C
102
}
330
32C
100
AcDbDimAssoc
330
32B
 90
        2
 70
     0
 71
     1
  1
AcDbOsnapPointRef
 72
     1
331
A9
 73
     2
 91
        2
 40
1.0
 10
70.8
 20
10.525
 30
0.0
 75
     0
  0
DIMASSOC
  5
347
102
{ACAD_REACTORS
330
346
102
}
330
346
100
AcDbDimAssoc
330
345
 90
        3
 70
     0
 71
     1
  1
AcDbOsnapPointRef
 72
    13
331
A8
 73
     2
 91
        1
 40
0.0
 10
69.8
 20
9.525
 30
0.0
 75
     0
  1
AcDbOsnapPointRef
 72
     4
331
73
 73
     3
 91
        2
 40
0.0
 10
70.8
 20
-9.525
 30
0.0
 75
     0
  0
DIMASSOC
  5
35D
102
{ACAD_REACTORS
330
35C
102
}
330
35C
100
AcDbDimAssoc
330
35B
 90
        3
 70
     0
 71
     1
  1
AcDbOsnapPointRef
 72
    13
331
135
 73
     2
 91
        1
 40
0.0
 10
50.8
 20
9.525
 30
0.0
 75
     0
  1
AcDbOsnapPointRef
 72
     1
331
A9
 73
     2
 91
        2
 40
1.0
 10
70.8
 20
10.525
 30
0.0
 75
     0
  0
DIMASSOC
  5
375
102
{ACAD_REACTORS
330
374
102
}
330
374
100
AcDbDimAssoc
330
373
 90
        3
 70
     0
 71
     1
  1
AcDbOsnapPointRef
 72
     1
331
A5
 73
     2
 91
        1
 40
1.0
 10
0.0
 20
1.0
 30
0.0
 75
     0
  1
AcDbOsnapPointRef
 72
     1
331
A9
 73
     2
 91
        2
 40
1.0
 10
70.8
 20
10.525
 30
0.0
 75
     0
  0
DIMASSOC
  5
38D
102
{ACAD_REACTORS
330
38C
102
}
330
38C
100
AcDbDimAssoc
330
38B
 90
        3
 70
     0
 71
     1
  1
AcDbOsnapPointRef
 72
     1
331
133
 73
     2
 91
        1
 40
1.0
 10
-54.2
 20
9.025
 30
0.0
 75
     0
  1
AcDbOsnapPointRef
 72
     1
331
A9
 73
     2
 91
        2
 40
1.0
 10
70.8
 20
10.525
 30
0.0
 75
     0
  0
ACDBDETAILVIEWSTYLE
  5
629
102
{ACAD_XDICTIONARY
360
67E
102
}
102
{ACAD_REACTORS
330
402
102
}
330
402
100
AcDbModelDocViewStyle
 70
     0
  3
Metric50
290
     0
100
AcDbDetailViewStyle
 70
     0
 71
     0
 90
        3
 71
     1
340
11
 40
5.0
340
0
 40
5.0
300

 40
0.0
280
     1
 71
     2
340
16
 90
       25
 71
     3
340
11
 40
5.0
 90
        0
 40
15.0
 90
        1
300
%<\AcVar ViewDetailId>% (%<\AcVar ViewScale \f "%sn">%)
 71
     4
340
16
 90
       25
340
16
 90
       25
280
     0
  0
LAYOUT
  5
1E
102
{ACAD_XDICTIONARY
360
645
102
}
102
{ACAD_REACTORS
330
1A
102
}
330
1A
100
AcDbPlotSettings
  1

  2
none_device
  4

  6

 40
0.0
 41
0.0
 42
0.0
 43
0.0
 44
0.0
 45
0.0
 46
0.0
 47
0.0
 48
0.0
 49
0.0
140
0.0
141
0.0
142
1.0
143
1.0
 70
   688
 72
     0
 73
     0
 74
     5
  7

 75
    16
147
1.0
148
0.0
149
0.0
100
AcDbLayout
  1
Layout1
 70
     1
 71
     1
 10
-0.5
 20
-0.5
 11
5.0
 21
5.0
 12
0.0
 22
0.0
 32
0.0
 14
-0.5
 24
-0.5
 34
-0.5
 15
5.0
 25
5.0
 35
5.0
146
0.0
 13
0.0
 23
0.0
 33
0.0
 16
1.0
 26
0.0
 36
0.0
 17
0.0
 27
1.0
 37
0.0
 76
     0
330
1B
  0
LAYOUT
  5
26
102
{ACAD_XDICTIONARY
360
649
102
}
102
{ACAD_REACTORS
330
1A
102
}
330
1A
100
AcDbPlotSettings
  1

  2
none_device
  4

  6

 40
0.0
 41
0.0
 42
0.0
 43
0.0
 44
0.0
 45
0.0
 46
0.0
 47
0.0
 48
0.0
 49
0.0
140
0.0
141
0.0
142
1.0
143
1.0
 70
   688
 72
     0
 73
     0
 74
     5
  7

 75
    16
147
1.0
148
0.0
149
0.0
100
AcDbLayout
  1
Layout2
 70
     1
 71
     2
 10
0.0
 20
0.0
 11
0.0
 21
0.0
 12
0.0
 22
0.0
 32
0.0
 14
0.0
 24
0.0
 34
0.0
 15
0.0
 25
0.0
 35
0.0
146
0.0
 13
0.0
 23
0.0
 33
0.0
 16
1.0
 26
0.0
 36
0.0
 17
0.0
 27
1.0
 37
0.0
 76
     0
330
23
  0
LAYOUT
  5
22
102
{ACAD_XDICTIONARY
360
647
102
}
102
{ACAD_REACTORS
330
1A
102
}
330
1A
100
AcDbPlotSettings
  1

  2
none_device
  4
Letter_(8.50_x_11.00_Inches)
  6

 40
6.349999999999999
 41
6.349999999999999
 42
6.350005
 43
6.350005
 44
215.9
 45
279.4
 46
0.0
 47
0.0
 48
0.0
 49
0.0
140
0.0
141
0.0
142
1.0
143
1.0
 70
  1712
 72
     0
 73
     0
 74
     0
  7

 75
     0
147
1.0
148
0.0
149
0.0
100
AcDbLayout
  1
Model
 70
     1
 71
     0
 10
-0.5
 20
-0.5
 11
5.0
 21
5.0
 12
0.0
 22
0.0
 32
0.0
 14
-0.5
 24
-0.5
 34
-0.5
 15
5.0
 25
5.0
 35
5.0
146
0.0
 13
0.0
 23
0.0
 33
0.0
 16
1.0
 26
0.0
 36
0.0
 17
0.0
 27
1.0
 37
0.0
 76
     0
330
1F
331
29
  0
MATERIAL
  5
45
102
{ACAD_XDICTIONARY
360
3F5
102
}
102
{ACAD_REACTORS
330
43
102
}
330
43
100
AcDbMaterial
  1
ByBlock
  0
MATERIAL
  5
44
102
{ACAD_XDICTIONARY
360
3F3
102
}
102
{ACAD_REACTORS
330
43
102
}
330
43
100
AcDbMaterial
  1
ByLayer
  0
MATERIAL
  5
46
102
{ACAD_XDICTIONARY
360
3F7
102
}
102
{ACAD_REACTORS
330
43
102
}
330
43
100
AcDbMaterial
  1
Global
  0
MLEADERSTYLE
  5
6C
102
{ACAD_REACTORS
330
6B
102
}
330
6B
100
AcDbMLeaderStyle
170
     2
171
     1
172
     0
 90
        2
 40
0.0
 41
0.0
173
     1
 91
-1056964608
340
14
 92
       -2
290
     1
 42
0.09
291
     1
 43
0.36
  3
Standard
 44
0.18
300

342
11
174
     1
178
     6
175
     1
176
     0
 93
-1056964608
 45
0.18
292
     0
297
     0
 46
0.18
 94
-1056964608
 47
1.0
 49
1.0
140
1.0
293
     1
141
0.0
294
     1
177
     0
142
1.0
295
     0
296
     0
143
0.125
1001
ACAD_MLEADERVER
1070
     2
  0
MLINESTYLE
  5
18
102
{ACAD_REACTORS
330
17
102
}
330
17
100
AcDbMlineStyle
  2
STANDARD
 70
     0
  3

 62
   256
 51
90.0
 52
90.0
 71
     2
 49
0.5
 62
   256
  6
BYLAYER
 49
-0.5
 62
   256
  6
BYLAYER
  0
ACDBPLACEHOLDER
  5
F
102
{ACAD_REACTORS
330
E
102
}
330
E
  0
SCALE
  5
48
102
{ACAD_REACTORS
330
47
102
}
330
47
100
AcDbScale
 70
     0
300
1:1
140
1.0
141
1.0
290
     1
  0
SCALE
  5
49
102
{ACAD_REACTORS
330
47
102
}
330
47
100
AcDbScale
 70
     0
300
1:2
140
1.0
141
2.0
290
     0
  0
SCALE
  5
4A
102
{ACAD_REACTORS
330
47
102
}
330
47
100
AcDbScale
 70
     0
300
1:4
140
1.0
141
4.0
290
     0
  0
SCALE
  5
4B
102
{ACAD_REACTORS
330
47
102
}
330
47
100
AcDbScale
 70
     0
300
1:5
140
1.0
141
5.0
290
     0
  0
SCALE
  5
4C
102
{ACAD_REACTORS
330
47
102
}
330
47
100
AcDbScale
 70
     0
300
1:8
140
1.0
141
8.0
290
     0
  0
SCALE
  5
4D
102
{ACAD_REACTORS
330
47
102
}
330
47
100
AcDbScale
 70
     0
300
1:10
140
1.0
141
10.0
290
     0
  0
SCALE
  5
4E
102
{ACAD_REACTORS
330
47
102
}
330
47
100
AcDbScale
 70
     0
300
1:16
140
1.0
141
16.0
290
     0
  0
SCALE
  5
4F
102
{ACAD_REACTORS
330
47
102
}
330
47
100
AcDbScale
 70
     0
300
1:20
140
1.0
141
20.0
290
     0
  0
SCALE
  5
50
102
{ACAD_REACTORS
330
47
102
}
330
47
100
AcDbScale
 70
     0
300
1:30
140
1.0
141
30.0
290
     0
  0
SCALE
  5
51
102
{ACAD_REACTORS
330
47
102
}
330
47
100
AcDbScale
 70
     0
300
1:40
140
1.0
141
40.0
290
     0
  0
SCALE
  5
52
102
{ACAD_REACTORS
330
47
102
}
330
47
100
AcDbScale
 70
     0
300
1:50
140
1.0
141
50.0
290
     0
  0
SCALE
  5
53
102
{ACAD_REACTORS
330
47
102
}
330
47
100
AcDbScale
 70
     0
300
1:100
140
1.0
141
100.0
290
     0
  0
SCALE
  5
54
102
{ACAD_REACTORS
330
47
102
}
330
47
100
AcDbScale
 70
     0
300
2:1
140
2.0
141
1.0
290
     0
  0
SCALE
  5
55
102
{ACAD_REACTORS
330
47
102
}
330
47
100
AcDbScale
 70
     0
300
4:1
140
4.0
141
1.0
290
     0
  0
SCALE
  5
56
102
{ACAD_REACTORS
330
47
102
}
330
47
100
AcDbScale
 70
     0
300
8:1
140
8.0
141
1.0
290
     0
  0
SCALE
  5
57
102
{ACAD_REACTORS
330
47
102
}
330
47
100
AcDbScale
 70
     0
300
10:1
140
10.0
141
1.0
290
     0
  0
SCALE
  5
58
102
{ACAD_REACTORS
330
47
102
}
330
47
100
AcDbScale
 70
     0
300
100:1
140
100.0
141
1.0
290
     0
  0
SCALE
  5
59
102
{ACAD_REACTORS
330
47
102
}
330
47
100
AcDbScale
 70
     0
300
1/128" = 1'-0"
140
0.007812
141
12.0
290
     0
  0
SCALE
  5
5A
102
{ACAD_REACTORS
330
47
102
}
330
47
100
AcDbScale
 70
     0
300
1/64" = 1'-0"
140
0.015625
141
12.0
290
     0
  0
SCALE
  5
5B
102
{ACAD_REACTORS
330
47
102
}
330
47
100
AcDbScale
 70
     0
300
1/32" = 1'-0"
140
0.03125
141
12.0
290
     0
  0
SCALE
  5
5C
102
{ACAD_REACTORS
330
47
102
}
330
47
100
AcDbScale
 70
     0
300
1/16" = 1'-0"
140
0.0625
141
12.0
290
     0
  0
SCALE
  5
5D
102
{ACAD_REACTORS
330
47
102
}
330
47
100
AcDbScale
 70
     0
300
3/32" = 1'-0"
140
0.09375
141
12.0
290
     0
  0
SCALE
  5
5E
102
{ACAD_REACTORS
330
47
102
}
330
47
100
AcDbScale
 70
     0
300
1/8" = 1'-0"
140
0.125
141
12.0
290
     0
  0
SCALE
  5
5F
102
{ACAD_REACTORS
330
47
102
}
330
47
100
AcDbScale
 70
     0
300
3/16" = 1'-0"
140
0.1875
141
12.0
290
     0
  0
SCALE
  5
60
102
{ACAD_REACTORS
330
47
102
}
330
47
100
AcDbScale
 70
     0
300
1/4" = 1'-0"
140
0.25
141
12.0
290
     0
  0
SCALE
  5
61
102
{ACAD_REACTORS
330
47
102
}
330
47
100
AcDbScale
 70
     0
300
3/8" = 1'-0"
140
0.375
141
12.0
290
     0
  0
SCALE
  5
62
102
{ACAD_REACTORS
330
47
102
}
330
47
100
AcDbScale
 70
     0
300
1/2" = 1'-0"
140
0.5
141
12.0
290
     0
  0
SCALE
  5
63
102
{ACAD_REACTORS
330
47
102
}
330
47
100
AcDbScale
 70
     0
300
3/4" = 1'-0"
140
0.75
141
12.0
290
     0
  0
SCALE
  5
64
102
{ACAD_REACTORS
330
47
102
}
330
47
100
AcDbScale
 70
     0
300
1" = 1'-0"
140
1.0
141
12.0
290
     0
  0
SCALE
  5
65
102
{ACAD_REACTORS
330
47
102
}
330
47
100
AcDbScale
 70
     0
300
1-1/2" = 1'-0"
140
1.5
141
12.0
290
     0
  0
SCALE
  5
66
102
{ACAD_REACTORS
330
47
102
}
330
47
100
AcDbScale
 70
     0
300
3" = 1'-0"
140
3.0
141
12.0
290
     0
  0
SCALE
  5
67
102
{ACAD_REACTORS
330
47
102
}
330
47
100
AcDbScale
 70
     0
300
6" = 1'-0"
140
6.0
141
12.0
290
     0
  0
SCALE
  5
68
102
{ACAD_REACTORS
330
47
102
}
330
47
100
AcDbScale
 70
     0
300
1'-0" = 1'-0"
140
12.0
141
12.0
290
     0
  0
ACDBSECTIONVIEWSTYLE
  5
628
102
{ACAD_XDICTIONARY
360
67C
102
}
102
{ACAD_REACTORS
330
403
102
}
330
403
100
AcDbModelDocViewStyle
 70
     0
  3
Metric50
290
     0
100
AcDbSectionViewStyle
 70
     0
 71
     0
 90
      102
 71
     1
340
11
 40
5.0
340
0
340
0
 40
5.0
300
I, O, Q, S, X, Z
 40
10.0
 90
        0
 40
2.5
 90
        0
 71
     2
340
16
 90
       25
340
16
 90
       50
 40
5.0
 40
2.5
 40
5.0
 71
     3
340
11
 40
5.0
 90
        0
 40
15.0
 90
        1
300
%<\AcVar ViewSectionStartId>%-%<\AcVar ViewSectionEndId>% (%<\AcVar ViewScale \f "%sn">%)
 71
     4
300
ANSI31
 40
1.0
 90
        0
290
     0
290
     0
 90
        6
 40
0.0
 40
1.570796326794896
 40
0.2617993877991494
 40
1.308996938995747
 40
-0.2617993877991494
 40
1.832595714594046
  0
TABLESTYLE
  5
6A
102
{ACAD_XDICTIONARY
360
3F9
102
}
102
{ACAD_REACTORS
330
69
102
}
330
69
100
AcDbTableStyle
  3
Standard
 70
     0
 71
     0
 40
0.06
 41
0.06
280
     0
281
     0
  7
Standard
140
0.18
170
     2
 62
     0
 63
     7
283
     0
274
    -2
284
     1
 64
     0
275
    -2
285
     1
 65
     0
276
    -2
286
     1
 66
     0
277
    -2
287
     1
 67
     0
278
    -2
288
     1
 68
     0
279
    -2
289
     1
 69
     0
  7
Standard
140
0.25
170
     5
 62
     0
 63
     7
283
     0
274
    -2
284
     1
 64
     0
275
    -2
285
     1
 65
     0
276
    -2
286
     1
 66
     0
277
    -2
287
     1
 67
     0
278
    -2
288
     1
 68
     0
279
    -2
289
     1
 69
     0
  7
Standard
140
0.18
170
     5
 62
     0
 63
     7
283
     0
274
    -2
284
     1
 64
     0
275
    -2
285
     1
 65
     0
276
    -2
286
     1
 66
     0
277
    -2
287
     1
 67
     0
278
    -2
288
     1
 68
     0
279
    -2
289
     1
 69
     0
  0
VISUALSTYLE
  5
2F
102
{ACAD_XDICTIONARY
360
653
102
}
102
{ACAD_REACTORS
330
2A
102
}
330
2A
100
AcDbVisualStyle
  2

 70
     4
 71
     0
 72
     2
 73
     0
 90
        0
 40
-0.6
 41
-30.0
 62
     5
 63
     7
 74
     1
 91
        4
 64
     7
 65
   257
 75
     1
175
     1
 42
1.0
 92
        0
 66
   257
 43
1.0
 76
     1
 77
     6
 78
     2
 67
     7
 79
     5
170
     0
171
     0
290
     0
174
     0
 93
        1
 44
0.0
173
     0
291
     0
 45
0.0
1001
ACAD
1000
AcDbSavedByObjectVersion
1070
     0
  0
VISUALSTYLE
  5
32
102
{ACAD_XDICTIONARY
360
659
102
}
102
{ACAD_REACTORS
330
2A
102
}
330
2A
100
AcDbVisualStyle
  2

 70
     7
 71
     1
 72
     0
 73
     1
 90
        0
 40
-0.6
 41
-30.0
 62
     5
 63
     7
 74
     0
 91
        4
 64
     7
 65
   257
 75
     1
175
     1
 42
1.0
 92
        8
 66
     7
 43
1.0
 76
     1
 77
     6
 78
     2
 67
     7
 79
     5
170
     0
171
     0
290
     0
174
     0
 93
        1
 44
0.0
173
     0
291
     1
 45
0.0
1001
ACAD
1000
AcDbSavedByObjectVersion
1070
     0
  0
VISUALSTYLE
  5
36
102
{ACAD_XDICTIONARY
360
661
102
}
102
{ACAD_REACTORS
330
2A
102
}
330
2A
100
AcDbVisualStyle
  2

 70
    12
 71
     2
 72
     2
 73
     0
 90
        0
 40
-0.6
 41
-30.0
 62
     5
 63
     7
 74
     1
 91
        4
 64
     7
 65
   257
 75
     1
175
     1
 42
1.0
 92
        8
 66
     7
 43
1.0
 76
     1
 77
     6
 78
     2
 67
     7
 79
     5
170
     0
171
     0
290
     0
174
     0
 93
        1
 44
50.0
173
     0
291
     1
 45
0.0
1001
ACAD
1000
AcDbSavedByObjectVersion
1070
     0
  0
VISUALSTYLE
  5
3A
102
{ACAD_XDICTIONARY
360
669
102
}
102
{ACAD_REACTORS
330
2A
102
}
330
2A
100
AcDbVisualStyle
  2

 70
    16
 71
     2
 72
     2
 73
     3
 90
        0
 40
-0.6
 41
-30.0
 62
     5
 63
     8
 74
     1
 91
        4
 64
     7
 65
   257
 75
     1
175
     1
 42
1.0
 92
        8
 66
     8
 43
1.0
 76
     1
 77
     6
 78
     2
 67
     7
 79
     5
170
     0
171
     0
290
     0
174
     0
 93
        1
 44
0.0
173
     0
291
     1
 45
0.0
1001
ACAD
1000
AcDbSavedByObjectVersion
1070
     0
  0
VISUALSTYLE
  5
34
102
{ACAD_XDICTIONARY
360
65D
102
}
102
{ACAD_REACTORS
330
2A
102
}
330
2A
100
AcDbVisualStyle
  2

 70
     9
 71
     3
 72
     2
 73
     0
 90
        0
 40
-0.6
 41
-30.0
 62
     5
 63
     7
 74
     2
 91
        2
 64
     7
 65
   257
 75
     1
175
     1
 42
179.0
 92
        8
 66
     7
 43
1.0
 76
     1
 77
     6
 78
     2
 67
     7
 79
     3
170
     0
171
     0
290
     0
174
     0
 93
        1
 44
0.0
173
     0
291
     0
 45
0.0
1001
ACAD
1000
AcDbSavedByObjectVersion
1070
     0
  0
VISUALSTYLE
  5
35
102
{ACAD_XDICTIONARY
360
65F
102
}
102
{ACAD_REACTORS
330
2A
102
}
330
2A
100
AcDbVisualStyle
  2

 70
    11
 71
     2
 72
     2
 73
     0
 90
        0
 40
-0.6
 41
-30.0
 62
     5
 63
     7
 74
     1
 91
        4
 64
     7
 65
   257
 75
     1
175
     1
 42
1.0
 92
        8
 66
     7
 43
1.0
 76
     1
 77
     6
 78
     2
 67
     7
 79
     5
170
     0
171
     0
290
     0
174
     0
 93
        1
 44
-50.0
173
     0
291
     1
 45
0.0
1001
ACAD
1000
AcDbSavedByObjectVersion
1070
     0
  0
VISUALSTYLE
  5
3D
102
{ACAD_XDICTIONARY
360
66F
102
}
102
{ACAD_REACTORS
330
2A
102
}
330
2A
100
AcDbVisualStyle
  2

 70
    22
 71
     2
 72
     2
 73
     0
 90
        0
 40
-0.6
 41
-30.0
 62
     5
 63
     7
 74
     1
 91
        4
 64
     7
 65
   257
 75
     1
175
     1
 42
1.0
 92
        8
 66
     7
 43
1.0
 76
     1
 77
     6
 78
     2
 67
     7
 79
     5
170
     0
171
     0
290
     0
174
     0
 93
        1
 44
0.0
173
     0
291
     1
 45
0.0
1001
ACAD
1000
AcDbSavedByObjectVersion
1070
     0
  0
VISUALSTYLE
  5
39
102
{ACAD_XDICTIONARY
360
667
102
}
102
{ACAD_REACTORS
330
2A
102
}
330
2A
100
AcDbVisualStyle
  2

 70
    15
 71
     2
 72
     2
 73
     0
 90
        0
 40
-0.6
 41
-30.0
 62
     5
 63
     7
 74
     1
 91
        4
 64
     7
 65
   257
 75
     1
175
     1
 42
1.0
 92
        8
 66
     7
 43
1.0
 76
     1
 77
     6
 78
     2
 67
     7
 79
     5
170
     0
171
     0
290
     0
174
     0
 93
        1
 44
0.0
173
     0
291
     1
 45
0.0
1001
ACAD
1000
AcDbSavedByObjectVersion
1070
     0
  0
VISUALSTYLE
  5
2B
102
{ACAD_XDICTIONARY
360
64B
102
}
102
{ACAD_REACTORS
330
2A
102
}
330
2A
100
AcDbVisualStyle
  2

 70
     0
 71
     2
 72
     1
 73
     1
 90
        2
 40
-0.6
 41
30.0
 62
     5
 63
     7
 74
     0
 91
        0
 64
     7
 65
   257
 75
     1
175
     1
 42
1.0
 92
        8
 66
     7
 43
1.0
 76
     1
 77
     6
 78
     2
 67
     7
 79
     5
170
     0
171
     0
290
     0
174
     0
 93
       13
 44
0.0
173
     0
291
     1
 45
0.0
1001
ACAD
1000
AcDbSavedByObjectVersion
1070
     0
  0
VISUALSTYLE
  5
2C
102
{ACAD_XDICTIONARY
360
64D
102
}
102
{ACAD_REACTORS
330
2A
102
}
330
2A
100
AcDbVisualStyle
  2

 70
     1
 71
     2
 72
     1
 73
     1
 90
        2
 40
-0.6
 41
30.0
 62
     5
 63
     7
 74
     1
 91
        0
 64
     7
 65
   257
 75
     1
175
     1
 42
1.0
 92
        0
 66
   257
 43
1.0
 76
     1
 77
     6
 78
     2
 67
     7
 79
     5
170
     0
171
     0
290
     0
174
     0
 93
       13
 44
0.0
173
     0
291
     1
 45
0.0
1001
ACAD
1000
AcDbSavedByObjectVersion
1070
     0
  0
VISUALSTYLE
  5
2D
102
{ACAD_XDICTIONARY
360
64F
102
}
102
{ACAD_REACTORS
330
2A
102
}
330
2A
100
AcDbVisualStyle
  2

 70
     2
 71
     2
 72
     2
 73
     1
 90
        2
 40
-0.6
 41
30.0
 62
     5
 63
     7
 74
     0
 91
        0
 64
     7
 65
   257
 75
     1
175
     1
 42
1.0
 92
        0
 66
     7
 43
1.0
 76
     1
 77
     6
 78
     2
 67
     7
 79
     5
170
     0
171
     0
290
     0
174
     0
 93
       13
 44
0.0
173
     0
291
     1
 45
0.0
1001
ACAD
1000
AcDbSavedByObjectVersion
1070
     0
  0
VISUALSTYLE
  5
2E
102
{ACAD_XDICTIONARY
360
651
102
}
102
{ACAD_REACTORS
330
2A
102
}
330
2A
100
AcDbVisualStyle
  2

 70
     3
 71
     2
 72
     2
 73
     1
 90
        2
 40
-0.6
 41
30.0
 62
     5
 63
     7
 74
     1
 91
        0
 64
     7
 65
   257
 75
     1
175
     1
 42
1.0
 92
        0
 66
   257
 43
1.0
 76
     1
 77
     6
 78
     2
 67
     7
 79
     5
170
     0
171
     0
290
     0
174
     0
 93
       13
 44
0.0
173
     0
291
     1
 45
0.0
1001
ACAD
1000
AcDbSavedByObjectVersion
1070
     0
  0
VISUALSTYLE
  5
31
102
{ACAD_XDICTIONARY
360
657
102
}
102
{ACAD_REACTORS
330
2A
102
}
330
2A
100
AcDbVisualStyle
  2

 70
     6
 71
     1
 72
     2
 73
     2
 90
        0
 40
-0.6
 41
-30.0
 62
     5
 63
     7
 74
     2
 91
        2
 64
     7
 65
   257
 75
     2
175
     1
 42
40.0
 92
        0
 66
   257
 43
1.0
 76
     1
 77
     6
 78
     2
 67
     7
 79
     3
170
     0
171
     0
290
     0
174
     0
 93
        1
 44
0.0
173
     0
291
     0
 45
0.0
1001
ACAD
1000
AcDbSavedByObjectVersion
1070
     0
  0
VISUALSTYLE
  5
3B
102
{ACAD_XDICTIONARY
360
66B
102
}
102
{ACAD_REACTORS
330
2A
102
}
330
2A
100
AcDbVisualStyle
  2

 70
    20
 71
     2
 72
     2
 73
     0
 90
        0
 40
-0.6
 41
-30.0
 62
     5
 63
     7
 74
     1
 91
        4
 64
     7
 65
   257
 75
     1
175
     1
 42
1.0
 92
       10
 66
     7
 43
1.0
 76
     1
 77
     6
 78
     2
 67
     7
 79
     5
170
     0
171
     0
290
     0
174
     0
 93
        1
 44
0.0
173
     0
291
     1
 45
0.0
1001
ACAD
1000
AcDbSavedByObjectVersion
1070
     0
  0
VISUALSTYLE
  5
38
102
{ACAD_XDICTIONARY
360
665
102
}
102
{ACAD_REACTORS
330
2A
102
}
330
2A
100
AcDbVisualStyle
  2

 70
    14
 71
     2
 72
     2
 73
     0
 90
        0
 40
-0.6
 41
-30.0
 62
     5
 63
     7
 74
     1
 91
        4
 64
     7
 65
   257
 75
     7
175
     7
 42
1.0
 92
        8
 66
     7
 43
1.0
 76
     1
 77
     6
 78
     2
 67
     7
 79
     5
170
     0
171
     0
290
     0
174
     0
 93
        1
 44
0.0
173
     0
291
     1
 45
0.0
1001
ACAD
1000
AcDbSavedByObjectVersion
1070
     0
  0
VISUALSTYLE
  5
3C
102
{ACAD_XDICTIONARY
360
66D
102
}
102
{ACAD_REACTORS
330
2A
102
}
330
2A
100
AcDbVisualStyle
  2

 70
    21
 71
     2
 72
     2
 73
     0
 90
        0
 40
-0.6
 41
-30.0
 62
     5
 63
     7
 74
     1
 91
        4
 64
     7
 65
   257
 75
     1
175
     1
 42
1.0
 92
        9
 66
     7
 43
1.0
 76
     1
 77
     6
 78
     2
 67
     7
 79
     5
170
     0
171
     0
290
     0
174
     0
 93
        1
 44
0.0
173
     0
291
     1
 45
0.0
1001
ACAD
1000
AcDbSavedByObjectVersion
1070
     0
  0
VISUALSTYLE
  5
33
102
{ACAD_XDICTIONARY
360
65B
102
}
102
{ACAD_REACTORS
330
2A
102
}
330
2A
100
AcDbVisualStyle
  2

 70
     8
 71
     2
 72
     3
 73
     0
 90
        2
 40
-0.6
 41
30.0
 62
     5
 63
     7
 74
     0
 91
        0
 64
     7
 65
   257
 75
     1
175
     1
 42
1.0
 92
        8
 66
   257
 43
1.0
 76
     1
 77
     6
 78
     2
 67
     7
 79
     3
170
     0
171
     0
290
     0
174
     0
 93
       13
 44
0.0
173
     0
291
     0
 45
0.0
1001
ACAD
1000
AcDbSavedByObjectVersion
1070
     0
  0
VISUALSTYLE
  5
42
102
{ACAD_XDICTIONARY
360
679
102
}
102
{ACAD_REACTORS
330
2A
102
}
330
2A
100
AcDbVisualStyle
  2

 70
    27
 71
     2
 72
     2
 73
     1
 90
        2
 40
-0.6
 41
30.0
 62
     5
 63
     7
 74
     0
 91
        4
 64
     7
 65
   257
 75
     1
175
     1
 42
1.0
 92
        8
 66
   257
 43
1.0
 76
     1
 77
     6
 78
     2
 67
     8
 79
     3
170
     0
171
     0
290
     0
174
     0
 93
        5
 44
0.0
173
     0
291
     0
 45
0.0
1001
ACAD
1000
AcDbSavedByObjectVersion
1070
     0
  0
VISUALSTYLE
  5
41
102
{ACAD_XDICTIONARY
360
677
102
}
102
{ACAD_REACTORS
330
2A
102
}
330
2A
100
AcDbVisualStyle
  2

 70
    26
 71
     2
 72
     2
 73
     1
 90
        2
 40
-0.6
 41
30.0
 62
     5
 63
     7
 74
     1
 91
       10
 64
     7
 65
   257
 75
     2
175
     1
 42
1.0
 92
        8
 66
   257
 43
1.0
 76
     1
 77
     6
 78
     2
 67
     7
 79
     3
170
     0
171
     0
290
     0
174
     0
 93
        5
 44
0.0
173
     0
291
     0
 45
0.0
1001
ACAD
1000
AcDbSavedByObjectVersion
1070
     0
  0
VISUALSTYLE
  5
3E
102
{ACAD_XDICTIONARY
360
671
102
}
102
{ACAD_REACTORS
330
2A
102
}
330
2A
100
AcDbVisualStyle
  2

 70
    23
 71
     2
 72
     2
 73
     3
 90
        0
 40
-0.6
 41
-30.0
 62
     5
 63
     7
 74
     2
 91
        2
 64
     7
 65
     7
 75
     1
175
     1
 42
40.0
 92
        8
 66
     7
 43
1.0
 76
     1
 77
     6
 78
     2
 67
     7
 79
     3
170
     0
171
     0
290
     0
174
     0
 93
        1
 44
0.0
173
     0
291
     0
 45
0.0
1001
ACAD
1000
AcDbSavedByObjectVersion
1070
     0
  0
VISUALSTYLE
  5
3F
102
{ACAD_XDICTIONARY
360
673
102
}
102
{ACAD_REACTORS
330
2A
102
}
330
2A
100
AcDbVisualStyle
  2

 70
    24
 71
     1
 72
     2
 73
     2
 90
        0
 40
-0.6
 41
-30.0
 62
     5
 63
     7
 74
     2
 91
        2
 64
     7
 65
     7
 75
     1
175
     1
 42
40.0
 92
       11
 66
     7
 43
1.0
 76
     1
 77
     6
 78
     2
 67
     7
 79
     6
170
     0
171
     0
290
     0
174
     0
 93
        1
 44
0.0
173
     0
291
     0
 45
0.0
1001
ACAD
1000
AcDbSavedByObjectVersion
1070
     0
  0
VISUALSTYLE
  5
37
102
{ACAD_XDICTIONARY
360
663
102
}
102
{ACAD_REACTORS
330
2A
102
}
330
2A
100
AcDbVisualStyle
  2

 70
    13
 71
     2
 72
     2
 73
     0
 90
        0
 40
-0.6
 41
-30.0
 62
     5
 63
     7
 74
     1
 91
        4
 64
     7
 65
   257
 75
     1
175
     1
 42
1.0
 92
       12
 66
     7
 43
1.0
 76
     1
 77
     6
 78
     2
 67
     7
 79
     5
170
     0
171
     0
290
     0
174
     0
 93
        1
 44
0.0
173
     0
291
     1
 45
0.0
1001
ACAD
1000
AcDbSavedByObjectVersion
1070
     0
  0
VISUALSTYLE
  5
30
102
{ACAD_XDICTIONARY
360
655
102
}
102
{ACAD_REACTORS
330
2A
102
}
330
2A
100
AcDbVisualStyle
  2

 70
     5
 71
     0
 72
     2
 73
     0
 90
        0
 40
-0.6
 41
-30.0
 62
     5
 63
     7
 74
     1
 91
        4
 64
     7
 65
   257
 75
     1
175
     1
 42
1.0
 92
        0
 66
   257
 43
1.0
 76
     1
 77
     6
 78
     2
 67
     7
 79
     3
170
     0
171
     0
290
     0
174
     0
 93
        1
 44
0.0
173
     0
291
     0
 45
0.0
1001
ACAD
1000
AcDbSavedByObjectVersion
1070
     0
  0
VISUALSTYLE
  5
40
102
{ACAD_XDICTIONARY
360
675
102
}
102
{ACAD_REACTORS
330
2A
102
}
330
2A
100
AcDbVisualStyle
  2

 70
    25
 71
     2
 72
     2
 73
     1
 90
        1
 40
0.5
 41
-30.0
 62
     5
 63
     7
 74
     1
 91
        0
 64
     7
 65
   257
 75
     1
175
     1
 42
1.0
 92
        8
 66
     7
 43
1.0
 76
     1
 77
     6
 78
     2
 67
     7
 79
     3
170
     0
171
     0
290
     0
174
     0
 93
       13
 44
0.0
173
     0
291
     0
 45
0.0
1001
ACAD
1000
AcDbSavedByObjectVersion
1070
     0
  0
DICTIONARYVAR
  5
3C0
102
{ACAD_REACTORS
330
3BF
102
}
330
3BF
100
DictionaryVariables
280
     0
  1
1:1
  0
DICTIONARYVAR
  5
401
102
{ACAD_REACTORS
330
3BF
102
}
330
3BF
100
DictionaryVariables
280
     0
  1
STANDARD
  0
DICTIONARYVAR
  5
400
102
{ACAD_REACTORS
330
3BF
102
}
330
3BF
100
DictionaryVariables
280
     0
  1
STANDARD
  0
DICTIONARYVAR
  5
63A
102
{ACAD_REACTORS
330
3BF
102
}
330
3BF
100
DictionaryVariables
280
     0
  1
Metric50
  0
DICTIONARYVAR
  5
63B
102
{ACAD_REACTORS
330
3BF
102
}
330
3BF
100
DictionaryVariables
280
     0
  1
Metric50
  0
DICTIONARYVAR
  5
63F
102
{ACAD_REACTORS
330
3BF
102
}
330
3BF
100
DictionaryVariables
280
     0
  1
2
  0
DICTIONARYVAR
  5
63E
102
{ACAD_REACTORS
330
3BF
102
}
330
3BF
100
DictionaryVariables
280
     0
  1
1
  0
DICTIONARYVAR
  5
63D
102
{ACAD_REACTORS
330
3BF
102
}
330
3BF
100
DictionaryVariables
280
     0
  1
0
  0
DICTIONARYVAR
  5
3C1
102
{ACAD_REACTORS
330
3BF
102
}
330
3BF
100
DictionaryVariables
280
     0
  1
1
  0
DICTIONARYVAR
  5
63C
102
{ACAD_REACTORS
330
3BF
102
}
330
3BF
100
DictionaryVariables
280
     0
  1
127
  0
DICTIONARYVAR
  5
640
102
{ACAD_REACTORS
330
3BF
102
}
330
3BF
100
DictionaryVariables
280
     0
  1
2
  0
DICTIONARY
  5
67E
330
629
100
AcDbDictionary
280
     1
281
     1
  3
ACAD_XREC_ROUNDTRIP
360
67F
  0
DICTIONARY
  5
645
330
1E
100
AcDbDictionary
280
     1
281
     1
  3
ACAD_XREC_ROUNDTRIP
360
646
  0
DICTIONARY
  5
649
330
26
100
AcDbDictionary
280
     1
281
     1
  3
ACAD_XREC_ROUNDTRIP
360
64A
  0
DICTIONARY
  5
647
330
22
100
AcDbDictionary
280
     1
281
     1
  3
ACAD_XREC_ROUNDTRIP
360
648
  0
DICTIONARY
  5
3F5
330
45
100
AcDbDictionary
280
     1
281
     1
  3
ACAD_XREC_ROUNDTRIP
360
3F6
  0
DICTIONARY
  5
3F3
330
44
100
AcDbDictionary
280
     1
281
     1
  3
ACAD_XREC_ROUNDTRIP
360
3F4
  0
DICTIONARY
  5
3F7
330
46
100
AcDbDictionary
280
     1
281
     1
  3
ACAD_XREC_ROUNDTRIP
360
3F8
  0
DICTIONARY
  5
67C
330
628
100
AcDbDictionary
280
     1
281
     1
  3
ACAD_XREC_ROUNDTRIP
360
67D
  0
DICTIONARY
  5
3F9
330
6A
100
AcDbDictionary
280
     1
281
     1
  3
ACAD_ROUNDTRIP_2008_TABLESTYLE_CELLSTYLEMAP
360
642
  3
ACAD_XREC_ROUNDTRIP
360
67B
  0
DICTIONARY
  5
653
330
2F
100
AcDbDictionary
280
     1
281
     1
  3
ACAD_XREC_ROUNDTRIP
360
654
  0
DICTIONARY
  5
659
330
32
100
AcDbDictionary
280
     1
281
     1
  3
ACAD_XREC_ROUNDTRIP
360
65A
  0
DICTIONARY
  5
661
330
36
100
AcDbDictionary
280
     1
281
     1
  3
ACAD_XREC_ROUNDTRIP
360
662
  0
DICTIONARY
  5
669
330
3A
100
AcDbDictionary
280
     1
281
     1
  3
ACAD_XREC_ROUNDTRIP
360
66A
  0
DICTIONARY
  5
65D
330
34
100
AcDbDictionary
280
     1
281
     1
  3
ACAD_XREC_ROUNDTRIP
360
65E
  0
DICTIONARY
  5
65F
330
35
100
AcDbDictionary
280
     1
281
     1
  3
ACAD_XREC_ROUNDTRIP
360
660
  0
DICTIONARY
  5
66F
330
3D
100
AcDbDictionary
280
     1
281
     1
  3
ACAD_XREC_ROUNDTRIP
360
670
  0
DICTIONARY
  5
667
330
39
100
AcDbDictionary
280
     1
281
     1
  3
ACAD_XREC_ROUNDTRIP
360
668
  0
DICTIONARY
  5
64B
330
2B
100
AcDbDictionary
280
     1
281
     1
  3
ACAD_XREC_ROUNDTRIP
360
64C
  0
DICTIONARY
  5
64D
330
2C
100
AcDbDictionary
280
     1
281
     1
  3
ACAD_XREC_ROUNDTRIP
360
64E
  0
DICTIONARY
  5
64F
330
2D
100
AcDbDictionary
280
     1
281
     1
  3
ACAD_XREC_ROUNDTRIP
360
650
  0
DICTIONARY
  5
651
330
2E
100
AcDbDictionary
280
     1
281
     1
  3
ACAD_XREC_ROUNDTRIP
360
652
  0
DICTIONARY
  5
657
330
31
100
AcDbDictionary
280
     1
281
     1
  3
ACAD_XREC_ROUNDTRIP
360
658
  0
DICTIONARY
  5
66B
330
3B
100
AcDbDictionary
280
     1
281
     1
  3
ACAD_XREC_ROUNDTRIP
360
66C
  0
DICTIONARY
  5
665
330
38
100
AcDbDictionary
280
     1
281
     1
  3
ACAD_XREC_ROUNDTRIP
360
666
  0
DICTIONARY
  5
66D
330
3C
100
AcDbDictionary
280
     1
281
     1
  3
ACAD_XREC_ROUNDTRIP
360
66E
  0
DICTIONARY
  5
65B
330
33
100
AcDbDictionary
280
     1
281
     1
  3
ACAD_XREC_ROUNDTRIP
360
65C
  0
DICTIONARY
  5
679
330
42
100
AcDbDictionary
280
     1
281
     1
  3
ACAD_XREC_ROUNDTRIP
360
67A
  0
DICTIONARY
  5
677
330
41
100
AcDbDictionary
280
     1
281
     1
  3
ACAD_XREC_ROUNDTRIP
360
678
  0
DICTIONARY
  5
671
330
3E
100
AcDbDictionary
280
     1
281
     1
  3
ACAD_XREC_ROUNDTRIP
360
672
  0
DICTIONARY
  5
673
330
3F
100
AcDbDictionary
280
     1
281
     1
  3
ACAD_XREC_ROUNDTRIP
360
674
  0
DICTIONARY
  5
663
330
37
100
AcDbDictionary
280
     1
281
     1
  3
ACAD_XREC_ROUNDTRIP
360
664
  0
DICTIONARY
  5
655
330
30
100
AcDbDictionary
280
     1
281
     1
  3
ACAD_XREC_ROUNDTRIP
360
656
  0
DICTIONARY
  5
675
330
40
100
AcDbDictionary
280
     1
281
     1
  3
ACAD_XREC_ROUNDTRIP
360
676
  0
XRECORD
  5
67F
102
{ACAD_REACTORS
330
67E
102
}
330
67E
100
AcDbXrecord
280
     1
102
DISPLAYNAME
  1
Metric50
102
FLAGS
 90
        0
  0
XRECORD
  5
646
102
{ACAD_REACTORS
330
645
102
}
330
645
100
AcDbXrecord
280
     1
102
SHADEPLOT
 70
     0
102
SHADEPLOTRESLEVEL
 70
     2
102
SHADEPLOTCUSTOMDPI
 70
   300
  0
XRECORD
  5
64A
102
{ACAD_REACTORS
330
649
102
}
330
649
100
AcDbXrecord
280
     1
102
SHADEPLOT
 70
     0
102
SHADEPLOTRESLEVEL
 70
     2
102
SHADEPLOTCUSTOMDPI
 70
   300
  0
XRECORD
  5
648
102
{ACAD_REACTORS
330
647
102
}
330
647
100
AcDbXrecord
280
     1
102
SHADEPLOT
 70
     0
102
SHADEPLOTRESLEVEL
 70
     2
102
SHADEPLOTCUSTOMDPI
 70
   300
  0
XRECORD
  5
3F6
102
{ACAD_REACTORS
330
3F5
102
}
330
3F5
100
AcDbXrecord
280
     1
102
MATERIAL
148
0.0
149
0.0
149
0.0
 93
        0
 94
      127
282
     0
 72
     1
 77
     1
171
     1
175
     1
179
     1
273
     0
  0
XRECORD
  5
3F4
102
{ACAD_REACTORS
330
3F3
102
}
330
3F3
100
AcDbXrecord
280
     1
102
MATERIAL
148
0.0
149
0.0
149
0.0
 93
        0
 94
      127
282
     0
 72
     1
 77
     1
171
     1
175
     1
179
     1
273
     0
  0
XRECORD
  5
3F8
102
{ACAD_REACTORS
330
3F7
102
}
330
3F7
100
AcDbXrecord
280
     1
102
MATERIAL
148
0.0
149
0.0
149
0.0
 93
        0
 94
      127
282
     0
 72
     1
 77
     1
171
     1
175
     1
179
     1
273
     0
  0
XRECORD
  5
67D
102
{ACAD_REACTORS
330
67C
102
}
330
67C
100
AcDbXrecord
280
     1
102
DISPLAYNAME
  1
Metric50
102
FLAGS
 90
        0
  0
CELLSTYLEMAP
  5
642
102
{ACAD_REACTORS
330
3F9
102
}
330
3F9
100
AcDbCellStyleMap
 90
        3
300
CELLSTYLE
  1
TABLEFORMAT_BEGIN
 90
        5
170
     1
 91
        0
 92
    32768
 62
   257
 93
        1
300
CONTENTFORMAT
  1
CONTENTFORMAT_BEGIN
 90
        0
 91
        0
 92
        4
 93
        0
300

 40
0.0
140
1.0
 94
        5
 62
     0
340
11
144
0.25
309
CONTENTFORMAT_END
171
     1
301
MARGIN
  1
CELLMARGIN_BEGIN
 40
0.06
 40
0.06
 40
0.06
 40
0.06
 40
0.18
 40
0.18
309
CELLMARGIN_END
 94
        6
 95
        1
302
GRIDFORMAT
  1
GRIDFORMAT_BEGIN
 90
        0
 91
        1
 62
     0
 92
       -2
340
14
 93
        0
 40
0.045
309
GRIDFORMAT_END
 95
        2
302
GRIDFORMAT
  1
GRIDFORMAT_BEGIN
 90
        0
 91
        1
 62
     0
 92
       -2
340
14
 93
        0
 40
0.045
309
GRIDFORMAT_END
 95
        4
302
GRIDFORMAT
  1
GRIDFORMAT_BEGIN
 90
        0
 91
        1
 62
     0
 92
       -2
340
14
 93
        0
 40
0.045
309
GRIDFORMAT_END
 95
        8
302
GRIDFORMAT
  1
GRIDFORMAT_BEGIN
 90
        0
 91
        1
 62
     0
 92
       -2
340
14
 93
        0
 40
0.045
309
GRIDFORMAT_END
 95
       16
302
GRIDFORMAT
  1
GRIDFORMAT_BEGIN
 90
        0
 91
        1
 62
     0
 92
       -2
340
14
 93
        0
 40
0.045
309
GRIDFORMAT_END
 95
       32
302
GRIDFORMAT
  1
GRIDFORMAT_BEGIN
 90
        0
 91
        1
 62
     0
 92
       -2
340
14
 93
        0
 40
0.045
309
GRIDFORMAT_END
309
TABLEFORMAT_END
  1
CELLSTYLE_BEGIN
 90
        1
 91
        1
300
_TITLE
309
CELLSTYLE_END
300
CELLSTYLE
  1
TABLEFORMAT_BEGIN
 90
        5
170
     1
 91
        0
 92
        0
 62
   257
 93
        1
300
CONTENTFORMAT
  1
CONTENTFORMAT_BEGIN
 90
        0
 91
        0
 92
        4
 93
        0
300

 40
0.0
140
1.0
 94
        5
 62
     0
340
11
144
0.18
309
CONTENTFORMAT_END
171
     1
301
MARGIN
  1
CELLMARGIN_BEGIN
 40
0.06
 40
0.06
 40
0.06
 40
0.06
 40
0.18
 40
0.18
309
CELLMARGIN_END
 94
        6
 95
        1
302
GRIDFORMAT
  1
GRIDFORMAT_BEGIN
 90
        0
 91
        1
 62
     0
 92
       -2
340
14
 93
        0
 40
0.045
309
GRIDFORMAT_END
 95
        2
302
GRIDFORMAT
  1
GRIDFORMAT_BEGIN
 90
        0
 91
        1
 62
     0
 92
       -2
340
14
 93
        0
 40
0.045
309
GRIDFORMAT_END
 95
        4
302
GRIDFORMAT
  1
GRIDFORMAT_BEGIN
 90
        0
 91
        1
 62
     0
 92
       -2
340
14
 93
        0
 40
0.045
309
GRIDFORMAT_END
 95
        8
302
GRIDFORMAT
  1
GRIDFORMAT_BEGIN
 90
        0
 91
        1
 62
     0
 92
       -2
340
14
 93
        0
 40
0.045
309
GRIDFORMAT_END
 95
       16
302
GRIDFORMAT
  1
GRIDFORMAT_BEGIN
 90
        0
 91
        1
 62
     0
 92
       -2
340
14
 93
        0
 40
0.045
309
GRIDFORMAT_END
 95
       32
302
GRIDFORMAT
  1
GRIDFORMAT_BEGIN
 90
        0
 91
        1
 62
     0
 92
       -2
340
14
 93
        0
 40
0.045
309
GRIDFORMAT_END
309
TABLEFORMAT_END
  1
CELLSTYLE_BEGIN
 90
        2
 91
        1
300
_HEADER
309
CELLSTYLE_END
300
CELLSTYLE
  1
TABLEFORMAT_BEGIN
 90
        5
170
     1
 91
        0
 92
        0
 62
   257
 93
        1
300
CONTENTFORMAT
  1
CONTENTFORMAT_BEGIN
 90
        0
 91
        0
 92
        4
 93
        0
300

 40
0.0
140
1.0
 94
        2
 62
     0
340
11
144
0.18
309
CONTENTFORMAT_END
171
     1
301
MARGIN
  1
CELLMARGIN_BEGIN
 40
0.06
 40
0.06
 40
0.06
 40
0.06
 40
0.18
 40
0.18
309
CELLMARGIN_END
 94
        6
 95
        1
302
GRIDFORMAT
  1
GRIDFORMAT_BEGIN
 90
        0
 91
        1
 62
     0
 92
       -2
340
14
 93
        0
 40
0.045
309
GRIDFORMAT_END
 95
        2
302
GRIDFORMAT
  1
GRIDFORMAT_BEGIN
 90
        0
 91
        1
 62
     0
 92
       -2
340
14
 93
        0
 40
0.045
309
GRIDFORMAT_END
 95
        4
302
GRIDFORMAT
  1
GRIDFORMAT_BEGIN
 90
        0
 91
        1
 62
     0
 92
       -2
340
14
 93
        0
 40
0.045
309
GRIDFORMAT_END
 95
        8
302
GRIDFORMAT
  1
GRIDFORMAT_BEGIN
 90
        0
 91
        1
 62
     0
 92
       -2
340
14
 93
        0
 40
0.045
309
GRIDFORMAT_END
 95
       16
302
GRIDFORMAT
  1
GRIDFORMAT_BEGIN
 90
        0
 91
        1
 62
     0
 92
       -2
340
14
 93
        0
 40
0.045
309
GRIDFORMAT_END
 95
       32
302
GRIDFORMAT
  1
GRIDFORMAT_BEGIN
 90
        0
 91
        1
 62
     0
 92
       -2
340
14
 93
        0
 40
0.045
309
GRIDFORMAT_END
309
TABLEFORMAT_END
  1
CELLSTYLE_BEGIN
 90
        3
 91
        2
300
_DATA
309
CELLSTYLE_END
  0
XRECORD
  5
67B
102
{ACAD_REACTORS
330
3F9
102
}
330
3F9
100
AcDbXrecord
280
     1
102
ACAD_ROUNDTRIP_PRE2007_TABLESTYLE
 90
        4
 91
        0
  1

 92
        4
 93
        0
  2

 94
        4
 95
        0
  3

  0
XRECORD
  5
654
102
{ACAD_REACTORS
330
653
102
}
330
653
100
AcDbXrecord
280
     1
102
RTVSPost2010Prop28
280
     1
102
RTVSPost2010PropOp28
 70
     1
102
RTVSPost2010Prop29
280
     1
102
RTVSPost2010PropOp29
 70
     1
102
RTVSPost2010Prop30
280
     0
102
RTVSPost2010PropOp30
 70
     1
102
RTVSPost2010Prop31
280
     0
102
RTVSPost2010PropOp31
 70
     1
102
RTVSPost2010Prop32
280
     0
102
RTVSPost2010PropOp32
 70
     1
102
RTVSPost2010Prop33
280
     0
102
RTVSPost2010PropOp33
 70
     1
102
RTVSPost2010Prop34
280
     0
102
RTVSPost2010PropOp34
 70
     1
102
RTVSPost2010Prop35
280
     0
102
RTVSPost2010PropOp35
 70
     1
102
RTVSPost2010Prop36
280
     0
102
RTVSPost2010PropOp36
 70
     1
102
RTVSPost2010Prop37
 90
       50
102
RTVSPost2010PropOp37
 70
     1
102
RTVSPost2010Prop38
140
0.0
102
RTVSPost2010PropOp38
 70
     1
102
RTVSPost2010Prop39
140
1.0
102
RTVSPost2010PropOp39
 70
     1
102
RTVSPost2010Prop40
 90
        0
102
RTVSPost2010PropOp40
 70
     1
102
RTVSPost2010Prop41ColorIndex
 90
       18
102
RTVSPost2010Prop41ColorRGB
 90
        0
102
RTVSPost2010PropOp41
 70
     1
102
RTVSPost2010Prop42
 90
       50
102
RTVSPost2010PropOp42
 70
     1
102
RTVSPost2010Prop43
 90
        3
102
RTVSPost2010PropOp43
 70
     1
102
RTVSPost2010Prop44ColorIndex
 90
        5
102
RTVSPost2010Prop44ColorRGB
 90
      255
102
RTVSPost2010PropOp44
 70
     1
102
RTVSPost2010Prop45
280
     0
102
RTVSPost2010PropOp45
 70
     1
102
RTVSPost2010Prop46
 90
       50
102
RTVSPost2010PropOp46
 70
     1
102
RTVSPost2010Prop47
 90
       50
102
RTVSPost2010PropOp47
 70
     1
102
RTVSPost2010Prop48
 90
       50
102
RTVSPost2010PropOp48
 70
     1
102
RTVSPost2010Prop49
280
     0
102
RTVSPost2010PropOp49
 70
     1
102
RTVSPost2010Prop50
 90
       50
102
RTVSPost2010PropOp50
 70
     1
102
RTVSPost2010Prop51ColorIndex
 90
      256
102
RTVSPost2010Prop51ColorRGB
 90
-16777216
102
RTVSPost2010PropOp51
 70
     0
102
RTVSPost2010Prop52
140
1.0
102
RTVSPost2010PropOp52
 70
     0
102
RTVSPost2010Prop53
 90
        2
102
RTVSPost2010PropOp53
 70
     1
102
RTVSPost2010Prop54
  1
strokes_ogs.tif
102
RTVSPost2010PropOp54
 70
     1
102
RTVSPost2010Prop55
280
     0
102
RTVSPost2010PropOp55
 70
     1
102
RTVSPost2010Prop56
140
1.0
102
RTVSPost2010PropOp56
 70
     1
102
RTVSPost2010Prop57
140
1.0
102
RTVSPost2010PropOp57
 70
     1
102
RTVSPropertyOp0
 70
     1
102
RTVSPropertyOp1
 70
     1
102
RTVSPropertyOp2
 70
     1
102
RTVSPropertyOp3
 70
     1
102
RTVSPropertyOp4
 70
     1
102
RTVSPropertyOp5
 70
     1
102
RTVSPropertyOp6
 70
     1
102
RTVSPropertyOp7
 70
     1
102
RTVSPropertyOp8
 70
     1
102
RTVSPropertyOp9
 70
     1
102
RTVSPropertyOp10
 70
     1
102
RTVSPropertyOp11
 70
     1
102
RTVSPropertyOp12
 70
     1
102
RTVSPropertyOp13
 70
     1
102
RTVSPropertyOp14
 70
     1
102
RTVSPropertyOp15
 70
     1
102
RTVSPropertyOp16
 70
     1
102
RTVSPropertyOp17
 70
     1
102
RTVSPropertyOp18
 70
     1
102
RTVSPropertyOp19
 70
     1
102
RTVSPropertyOp20
 70
     1
102
RTVSPropertyOp21
 70
     1
102
RTVSPropertyOp22
 70
     1
102
RTVSPropertyOp23
 70
     1
102
RTVSPropertyOp24
 70
     1
102
RTVSPropertyOp25
 70
     1
102
RTVSPropertyOp26
 70
     1
102
RTVSPropertyOp27
 70
     1
102
RTVSPropertyOp28
 70
     1
102
RTVSPropertyOp29
 70
     1
102
RTVSPropertyOp30
 70
     1
102
RTVSPropertyOp31
 70
     1
102
RTVSPropertyOp32
 70
     1
102
RTVSPropertyOp33
 70
     1
102
RTVSPropertyOp34
 70
     1
102
RTVSPropertyOp35
 70
     1
102
RTVSPropertyOp36
 70
     1
102
RTVSPropertyOp37
 70
     1
102
RTVSPropertyOp38
 70
     1
102
RTVSPropertyOp39
 70
     1
102
RTVSPropertyOp40
 70
     1
102
RTVSPropertyOp41
 70
     1
102
RTVSPropertyOp42
 70
     1
102
RTVSPropertyOp43
 70
     1
102
RTVSPropertyOp44
 70
     1
102
RTVSPropertyOp45
 70
     1
102
RTVSPropertyOp46
 70
     1
102
RTVSPropertyOp47
 70
     1
102
RTVSPropertyOp48
 70
     1
102
RTVSPropertyOp49
 70
     1
102
RTVSPropertyOp50
 70
     1
102
RTVSPropertyOp51
 70
     0
102
RTVSPropertyOp52
 70
     0
102
RTVSPropertyOp53
 70
     1
102
RTVSPropertyOp54
 70
     1
102
RTVSPropertyOp55
 70
     1
102
RTVSPropertyOp56
 70
     1
102
RTVSPropertyOp57
 70
     1
102
RTVSPropertyOp58
 70
     1
102
RTVSPropertyOp59
 70
     1
102
RTVSPropertyOp60
 70
     1
102
RTVSPropertyOp61
 70
     1
102
RTVSPropertyOp62
 70
     1
  0
XRECORD
  5
65A
102
{ACAD_REACTORS
330
659
102
}
330
659
100
AcDbXrecord
280
     1
102
RTVSPost2010Prop28
280
     0
102
RTVSPost2010PropOp28
 70
     1
102
RTVSPost2010Prop29
280
     1
102
RTVSPost2010PropOp29
 70
     1
102
RTVSPost2010Prop30
280
     1
102
RTVSPost2010PropOp30
 70
     1
102
RTVSPost2010Prop31
280
     0
102
RTVSPost2010PropOp31
 70
     1
102
RTVSPost2010Prop32
280
     0
102
RTVSPost2010PropOp32
 70
     1
102
RTVSPost2010Prop33
280
     0
102
RTVSPost2010PropOp33
 70
     1
102
RTVSPost2010Prop34
280
     0
102
RTVSPost2010PropOp34
 70
     1
102
RTVSPost2010Prop35
280
     0
102
RTVSPost2010PropOp35
 70
     1
102
RTVSPost2010Prop36
280
     0
102
RTVSPost2010PropOp36
 70
     1
102
RTVSPost2010Prop37
 90
       50
102
RTVSPost2010PropOp37
 70
     1
102
RTVSPost2010Prop38
140
0.0
102
RTVSPost2010PropOp38
 70
     1
102
RTVSPost2010Prop39
140
1.0
102
RTVSPost2010PropOp39
 70
     1
102
RTVSPost2010Prop40
 90
        0
102
RTVSPost2010PropOp40
 70
     1
102
RTVSPost2010Prop41ColorIndex
 90
       18
102
RTVSPost2010Prop41ColorRGB
 90
        0
102
RTVSPost2010PropOp41
 70
     1
102
RTVSPost2010Prop42
 90
       50
102
RTVSPost2010PropOp42
 70
     1
102
RTVSPost2010Prop43
 90
        3
102
RTVSPost2010PropOp43
 70
     1
102
RTVSPost2010Prop44ColorIndex
 90
        5
102
RTVSPost2010Prop44ColorRGB
 90
      255
102
RTVSPost2010PropOp44
 70
     1
102
RTVSPost2010Prop45
280
     0
102
RTVSPost2010PropOp45
 70
     1
102
RTVSPost2010Prop46
 90
       50
102
RTVSPost2010PropOp46
 70
     1
102
RTVSPost2010Prop47
 90
       50
102
RTVSPost2010PropOp47
 70
     1
102
RTVSPost2010Prop48
 90
       50
102
RTVSPost2010PropOp48
 70
     1
102
RTVSPost2010Prop49
280
     0
102
RTVSPost2010PropOp49
 70
     1
102
RTVSPost2010Prop50
 90
       50
102
RTVSPost2010PropOp50
 70
     1
102
RTVSPost2010Prop51ColorIndex
 90
      256
102
RTVSPost2010Prop51ColorRGB
 90
-16777216
102
RTVSPost2010PropOp51
 70
     0
102
RTVSPost2010Prop52
140
1.0
102
RTVSPost2010PropOp52
 70
     0
102
RTVSPost2010Prop53
 90
        2
102
RTVSPost2010PropOp53
 70
     1
102
RTVSPost2010Prop54
  1
strokes_ogs.tif
102
RTVSPost2010PropOp54
 70
     1
102
RTVSPost2010Prop55
280
     0
102
RTVSPost2010PropOp55
 70
     1
102
RTVSPost2010Prop56
140
1.0
102
RTVSPost2010PropOp56
 70
     1
102
RTVSPost2010Prop57
140
1.0
102
RTVSPost2010PropOp57
 70
     1
102
RTVSPropertyOp0
 70
     1
102
RTVSPropertyOp1
 70
     1
102
RTVSPropertyOp2
 70
     1
102
RTVSPropertyOp3
 70
     1
102
RTVSPropertyOp4
 70
     1
102
RTVSPropertyOp5
 70
     1
102
RTVSPropertyOp6
 70
     1
102
RTVSPropertyOp7
 70
     1
102
RTVSPropertyOp8
 70
     1
102
RTVSPropertyOp9
 70
     1
102
RTVSPropertyOp10
 70
     1
102
RTVSPropertyOp11
 70
     1
102
RTVSPropertyOp12
 70
     1
102
RTVSPropertyOp13
 70
     1
102
RTVSPropertyOp14
 70
     1
102
RTVSPropertyOp15
 70
     1
102
RTVSPropertyOp16
 70
     1
102
RTVSPropertyOp17
 70
     1
102
RTVSPropertyOp18
 70
     1
102
RTVSPropertyOp19
 70
     1
102
RTVSPropertyOp20
 70
     1
102
RTVSPropertyOp21
 70
     1
102
RTVSPropertyOp22
 70
     1
102
RTVSPropertyOp23
 70
     1
102
RTVSPropertyOp24
 70
     1
102
RTVSPropertyOp25
 70
     1
102
RTVSPropertyOp26
 70
     1
102
RTVSPropertyOp27
 70
     1
102
RTVSPropertyOp28
 70
     1
102
RTVSPropertyOp29
 70
     1
102
RTVSPropertyOp30
 70
     1
102
RTVSPropertyOp31
 70
     1
102
RTVSPropertyOp32
 70
     1
102
RTVSPropertyOp33
 70
     1
102
RTVSPropertyOp34
 70
     1
102
RTVSPropertyOp35
 70
     1
102
RTVSPropertyOp36
 70
     1
102
RTVSPropertyOp37
 70
     1
102
RTVSPropertyOp38
 70
     1
102
RTVSPropertyOp39
 70
     1
102
RTVSPropertyOp40
 70
     1
102
RTVSPropertyOp41
 70
     1
102
RTVSPropertyOp42
 70
     1
102
RTVSPropertyOp43
 70
     1
102
RTVSPropertyOp44
 70
     1
102
RTVSPropertyOp45
 70
     1
102
RTVSPropertyOp46
 70
     1
102
RTVSPropertyOp47
 70
     1
102
RTVSPropertyOp48
 70
     1
102
RTVSPropertyOp49
 70
     1
102
RTVSPropertyOp50
 70
     1
102
RTVSPropertyOp51
 70
     0
102
RTVSPropertyOp52
 70
     0
102
RTVSPropertyOp53
 70
     1
102
RTVSPropertyOp54
 70
     1
102
RTVSPropertyOp55
 70
     1
102
RTVSPropertyOp56
 70
     1
102
RTVSPropertyOp57
 70
     1
102
RTVSPropertyOp58
 70
     1
102
RTVSPropertyOp59
 70
     1
102
RTVSPropertyOp60
 70
     1
102
RTVSPropertyOp61
 70
     1
102
RTVSPropertyOp62
 70
     1
  0
XRECORD
  5
662
102
{ACAD_REACTORS
330
661
102
}
330
661
100
AcDbXrecord
280
     1
102
RTVSPost2010Prop28
280
     0
102
RTVSPost2010PropOp28
 70
     1
102
RTVSPost2010Prop29
280
     1
102
RTVSPost2010PropOp29
 70
     1
102
RTVSPost2010Prop30
280
     1
102
RTVSPost2010PropOp30
 70
     1
102
RTVSPost2010Prop31
280
     0
102
RTVSPost2010PropOp31
 70
     1
102
RTVSPost2010Prop32
280
     0
102
RTVSPost2010PropOp32
 70
     1
102
RTVSPost2010Prop33
280
     0
102
RTVSPost2010PropOp33
 70
     1
102
RTVSPost2010Prop34
280
     0
102
RTVSPost2010PropOp34
 70
     1
102
RTVSPost2010Prop35
280
     0
102
RTVSPost2010PropOp35
 70
     1
102
RTVSPost2010Prop36
280
     0
102
RTVSPost2010PropOp36
 70
     1
102
RTVSPost2010Prop37
 90
       50
102
RTVSPost2010PropOp37
 70
     1
102
RTVSPost2010Prop38
140
0.0
102
RTVSPost2010PropOp38
 70
     1
102
RTVSPost2010Prop39
140
1.0
102
RTVSPost2010PropOp39
 70
     1
102
RTVSPost2010Prop40
 90
        0
102
RTVSPost2010PropOp40
 70
     1
102
RTVSPost2010Prop41ColorIndex
 90
       18
102
RTVSPost2010Prop41ColorRGB
 90
        0
102
RTVSPost2010PropOp41
 70
     1
102
RTVSPost2010Prop42
 90
       50
102
RTVSPost2010PropOp42
 70
     1
102
RTVSPost2010Prop43
 90
        3
102
RTVSPost2010PropOp43
 70
     1
102
RTVSPost2010Prop44ColorIndex
 90
        5
102
RTVSPost2010Prop44ColorRGB
 90
      255
102
RTVSPost2010PropOp44
 70
     1
102
RTVSPost2010Prop45
280
     0
102
RTVSPost2010PropOp45
 70
     1
102
RTVSPost2010Prop46
 90
       50
102
RTVSPost2010PropOp46
 70
     1
102
RTVSPost2010Prop47
 90
       50
102
RTVSPost2010PropOp47
 70
     1
102
RTVSPost2010Prop48
 90
       50
102
RTVSPost2010PropOp48
 70
     1
102
RTVSPost2010Prop49
280
     0
102
RTVSPost2010PropOp49
 70
     1
102
RTVSPost2010Prop50
 90
       50
102
RTVSPost2010PropOp50
 70
     1
102
RTVSPost2010Prop51ColorIndex
 90
      256
102
RTVSPost2010Prop51ColorRGB
 90
-16777216
102
RTVSPost2010PropOp51
 70
     0
102
RTVSPost2010Prop52
140
1.0
102
RTVSPost2010PropOp52
 70
     0
102
RTVSPost2010Prop53
 90
        2
102
RTVSPost2010PropOp53
 70
     1
102
RTVSPost2010Prop54
  1
strokes_ogs.tif
102
RTVSPost2010PropOp54
 70
     1
102
RTVSPost2010Prop55
280
     0
102
RTVSPost2010PropOp55
 70
     1
102
RTVSPost2010Prop56
140
1.0
102
RTVSPost2010PropOp56
 70
     1
102
RTVSPost2010Prop57
140
1.0
102
RTVSPost2010PropOp57
 70
     1
102
RTVSPropertyOp0
 70
     1
102
RTVSPropertyOp1
 70
     1
102
RTVSPropertyOp2
 70
     1
102
RTVSPropertyOp3
 70
     1
102
RTVSPropertyOp4
 70
     1
102
RTVSPropertyOp5
 70
     1
102
RTVSPropertyOp6
 70
     1
102
RTVSPropertyOp7
 70
     1
102
RTVSPropertyOp8
 70
     1
102
RTVSPropertyOp9
 70
     1
102
RTVSPropertyOp10
 70
     1
102
RTVSPropertyOp11
 70
     1
102
RTVSPropertyOp12
 70
     1
102
RTVSPropertyOp13
 70
     1
102
RTVSPropertyOp14
 70
     1
102
RTVSPropertyOp15
 70
     1
102
RTVSPropertyOp16
 70
     1
102
RTVSPropertyOp17
 70
     1
102
RTVSPropertyOp18
 70
     1
102
RTVSPropertyOp19
 70
     1
102
RTVSPropertyOp20
 70
     1
102
RTVSPropertyOp21
 70
     1
102
RTVSPropertyOp22
 70
     1
102
RTVSPropertyOp23
 70
     1
102
RTVSPropertyOp24
 70
     1
102
RTVSPropertyOp25
 70
     1
102
RTVSPropertyOp26
 70
     1
102
RTVSPropertyOp27
 70
     1
102
RTVSPropertyOp28
 70
     1
102
RTVSPropertyOp29
 70
     1
102
RTVSPropertyOp30
 70
     1
102
RTVSPropertyOp31
 70
     1
102
RTVSPropertyOp32
 70
     1
102
RTVSPropertyOp33
 70
     1
102
RTVSPropertyOp34
 70
     1
102
RTVSPropertyOp35
 70
     1
102
RTVSPropertyOp36
 70
     1
102
RTVSPropertyOp37
 70
     1
102
RTVSPropertyOp38
 70
     1
102
RTVSPropertyOp39
 70
     1
102
RTVSPropertyOp40
 70
     1
102
RTVSPropertyOp41
 70
     1
102
RTVSPropertyOp42
 70
     1
102
RTVSPropertyOp43
 70
     1
102
RTVSPropertyOp44
 70
     1
102
RTVSPropertyOp45
 70
     1
102
RTVSPropertyOp46
 70
     1
102
RTVSPropertyOp47
 70
     1
102
RTVSPropertyOp48
 70
     1
102
RTVSPropertyOp49
 70
     1
102
RTVSPropertyOp50
 70
     1
102
RTVSPropertyOp51
 70
     0
102
RTVSPropertyOp52
 70
     0
102
RTVSPropertyOp53
 70
     1
102
RTVSPropertyOp54
 70
     1
102
RTVSPropertyOp55
 70
     1
102
RTVSPropertyOp56
 70
     1
102
RTVSPropertyOp57
 70
     1
102
RTVSPropertyOp58
 70
     1
102
RTVSPropertyOp59
 70
     1
102
RTVSPropertyOp60
 70
     1
102
RTVSPropertyOp61
 70
     1
102
RTVSPropertyOp62
 70
     1
  0
XRECORD
  5
66A
102
{ACAD_REACTORS
330
669
102
}
330
669
100
AcDbXrecord
280
     1
102
RTVSPost2010Prop28
280
     0
102
RTVSPost2010PropOp28
 70
     1
102
RTVSPost2010Prop29
280
     1
102
RTVSPost2010PropOp29
 70
     1
102
RTVSPost2010Prop30
280
     1
102
RTVSPost2010PropOp30
 70
     1
102
RTVSPost2010Prop31
280
     0
102
RTVSPost2010PropOp31
 70
     1
102
RTVSPost2010Prop32
280
     0
102
RTVSPost2010PropOp32
 70
     1
102
RTVSPost2010Prop33
280
     0
102
RTVSPost2010PropOp33
 70
     1
102
RTVSPost2010Prop34
280
     0
102
RTVSPost2010PropOp34
 70
     1
102
RTVSPost2010Prop35
280
     0
102
RTVSPost2010PropOp35
 70
     1
102
RTVSPost2010Prop36
280
     0
102
RTVSPost2010PropOp36
 70
     1
102
RTVSPost2010Prop37
 90
       50
102
RTVSPost2010PropOp37
 70
     1
102
RTVSPost2010Prop38
140
0.0
102
RTVSPost2010PropOp38
 70
     1
102
RTVSPost2010Prop39
140
1.0
102
RTVSPost2010PropOp39
 70
     1
102
RTVSPost2010Prop40
 90
        0
102
RTVSPost2010PropOp40
 70
     1
102
RTVSPost2010Prop41ColorIndex
 90
       18
102
RTVSPost2010Prop41ColorRGB
 90
        0
102
RTVSPost2010PropOp41
 70
     1
102
RTVSPost2010Prop42
 90
       50
102
RTVSPost2010PropOp42
 70
     1
102
RTVSPost2010Prop43
 90
        3
102
RTVSPost2010PropOp43
 70
     1
102
RTVSPost2010Prop44ColorIndex
 90
        5
102
RTVSPost2010Prop44ColorRGB
 90
      255
102
RTVSPost2010PropOp44
 70
     1
102
RTVSPost2010Prop45
280
     0
102
RTVSPost2010PropOp45
 70
     1
102
RTVSPost2010Prop46
 90
       50
102
RTVSPost2010PropOp46
 70
     1
102
RTVSPost2010Prop47
 90
       50
102
RTVSPost2010PropOp47
 70
     1
102
RTVSPost2010Prop48
 90
       50
102
RTVSPost2010PropOp48
 70
     1
102
RTVSPost2010Prop49
280
     0
102
RTVSPost2010PropOp49
 70
     1
102
RTVSPost2010Prop50
 90
       50
102
RTVSPost2010PropOp50
 70
     1
102
RTVSPost2010Prop51ColorIndex
 90
      256
102
RTVSPost2010Prop51ColorRGB
 90
-16777216
102
RTVSPost2010PropOp51
 70
     0
102
RTVSPost2010Prop52
140
1.0
102
RTVSPost2010PropOp52
 70
     0
102
RTVSPost2010Prop53
 90
        2
102
RTVSPost2010PropOp53
 70
     1
102
RTVSPost2010Prop54
  1
strokes_ogs.tif
102
RTVSPost2010PropOp54
 70
     1
102
RTVSPost2010Prop55
280
     0
102
RTVSPost2010PropOp55
 70
     1
102
RTVSPost2010Prop56
140
1.0
102
RTVSPost2010PropOp56
 70
     1
102
RTVSPost2010Prop57
140
1.0
102
RTVSPost2010PropOp57
 70
     1
102
RTVSPropertyOp0
 70
     1
102
RTVSPropertyOp1
 70
     1
102
RTVSPropertyOp2
 70
     1
102
RTVSPropertyOp3
 70
     1
102
RTVSPropertyOp4
 70
     1
102
RTVSPropertyOp5
 70
     1
102
RTVSPropertyOp6
 70
     1
102
RTVSPropertyOp7
 70
     1
102
RTVSPropertyOp8
 70
     1
102
RTVSPropertyOp9
 70
     1
102
RTVSPropertyOp10
 70
     1
102
RTVSPropertyOp11
 70
     1
102
RTVSPropertyOp12
 70
     1
102
RTVSPropertyOp13
 70
     1
102
RTVSPropertyOp14
 70
     1
102
RTVSPropertyOp15
 70
     1
102
RTVSPropertyOp16
 70
     1
102
RTVSPropertyOp17
 70
     1
102
RTVSPropertyOp18
 70
     1
102
RTVSPropertyOp19
 70
     1
102
RTVSPropertyOp20
 70
     1
102
RTVSPropertyOp21
 70
     1
102
RTVSPropertyOp22
 70
     1
102
RTVSPropertyOp23
 70
     1
102
RTVSPropertyOp24
 70
     1
102
RTVSPropertyOp25
 70
     1
102
RTVSPropertyOp26
 70
     1
102
RTVSPropertyOp27
 70
     1
102
RTVSPropertyOp28
 70
     1
102
RTVSPropertyOp29
 70
     1
102
RTVSPropertyOp30
 70
     1
102
RTVSPropertyOp31
 70
     1
102
RTVSPropertyOp32
 70
     1
102
RTVSPropertyOp33
 70
     1
102
RTVSPropertyOp34
 70
     1
102
RTVSPropertyOp35
 70
     1
102
RTVSPropertyOp36
 70
     1
102
RTVSPropertyOp37
 70
     1
102
RTVSPropertyOp38
 70
     1
102
RTVSPropertyOp39
 70
     1
102
RTVSPropertyOp40
 70
     1
102
RTVSPropertyOp41
 70
     1
102
RTVSPropertyOp42
 70
     1
102
RTVSPropertyOp43
 70
     1
102
RTVSPropertyOp44
 70
     1
102
RTVSPropertyOp45
 70
     1
102
RTVSPropertyOp46
 70
     1
102
RTVSPropertyOp47
 70
     1
102
RTVSPropertyOp48
 70
     1
102
RTVSPropertyOp49
 70
     1
102
RTVSPropertyOp50
 70
     1
102
RTVSPropertyOp51
 70
     0
102
RTVSPropertyOp52
 70
     0
102
RTVSPropertyOp53
 70
     1
102
RTVSPropertyOp54
 70
     1
102
RTVSPropertyOp55
 70
     1
102
RTVSPropertyOp56
 70
     1
102
RTVSPropertyOp57
 70
     1
102
RTVSPropertyOp58
 70
     1
102
RTVSPropertyOp59
 70
     1
102
RTVSPropertyOp60
 70
     1
102
RTVSPropertyOp61
 70
     1
102
RTVSPropertyOp62
 70
     1
  0
XRECORD
  5
65E
102
{ACAD_REACTORS
330
65D
102
}
330
65D
100
AcDbXrecord
280
     1
102
RTVSPost2010Prop28
280
     0
102
RTVSPost2010PropOp28
 70
     1
102
RTVSPost2010Prop29
280
     1
102
RTVSPost2010PropOp29
 70
     1
102
RTVSPost2010Prop30
280
     1
102
RTVSPost2010PropOp30
 70
     1
102
RTVSPost2010Prop31
280
     0
102
RTVSPost2010PropOp31
 70
     1
102
RTVSPost2010Prop32
280
     0
102
RTVSPost2010PropOp32
 70
     1
102
RTVSPost2010Prop33
280
     0
102
RTVSPost2010PropOp33
 70
     1
102
RTVSPost2010Prop34
280
     0
102
RTVSPost2010PropOp34
 70
     1
102
RTVSPost2010Prop35
280
     0
102
RTVSPost2010PropOp35
 70
     1
102
RTVSPost2010Prop36
280
     0
102
RTVSPost2010PropOp36
 70
     1
102
RTVSPost2010Prop37
 90
       50
102
RTVSPost2010PropOp37
 70
     1
102
RTVSPost2010Prop38
140
0.0
102
RTVSPost2010PropOp38
 70
     1
102
RTVSPost2010Prop39
140
1.0
102
RTVSPost2010PropOp39
 70
     1
102
RTVSPost2010Prop40
 90
        0
102
RTVSPost2010PropOp40
 70
     1
102
RTVSPost2010Prop41ColorIndex
 90
       18
102
RTVSPost2010Prop41ColorRGB
 90
        0
102
RTVSPost2010PropOp41
 70
     1
102
RTVSPost2010Prop42
 90
       50
102
RTVSPost2010PropOp42
 70
     1
102
RTVSPost2010Prop43
 90
        3
102
RTVSPost2010PropOp43
 70
     1
102
RTVSPost2010Prop44ColorIndex
 90
        5
102
RTVSPost2010Prop44ColorRGB
 90
      255
102
RTVSPost2010PropOp44
 70
     1
102
RTVSPost2010Prop45
280
     0
102
RTVSPost2010PropOp45
 70
     1
102
RTVSPost2010Prop46
 90
       50
102
RTVSPost2010PropOp46
 70
     1
102
RTVSPost2010Prop47
 90
       50
102
RTVSPost2010PropOp47
 70
     1
102
RTVSPost2010Prop48
 90
       50
102
RTVSPost2010PropOp48
 70
     1
102
RTVSPost2010Prop49
280
     0
102
RTVSPost2010PropOp49
 70
     1
102
RTVSPost2010Prop50
 90
       50
102
RTVSPost2010PropOp50
 70
     1
102
RTVSPost2010Prop51ColorIndex
 90
      256
102
RTVSPost2010Prop51ColorRGB
 90
-16777216
102
RTVSPost2010PropOp51
 70
     0
102
RTVSPost2010Prop52
140
1.0
102
RTVSPost2010PropOp52
 70
     0
102
RTVSPost2010Prop53
 90
        2
102
RTVSPost2010PropOp53
 70
     1
102
RTVSPost2010Prop54
  1
strokes_ogs.tif
102
RTVSPost2010PropOp54
 70
     1
102
RTVSPost2010Prop55
280
     0
102
RTVSPost2010PropOp55
 70
     1
102
RTVSPost2010Prop56
140
1.0
102
RTVSPost2010PropOp56
 70
     1
102
RTVSPost2010Prop57
140
1.0
102
RTVSPost2010PropOp57
 70
     1
102
RTVSPropertyOp0
 70
     1
102
RTVSPropertyOp1
 70
     1
102
RTVSPropertyOp2
 70
     1
102
RTVSPropertyOp3
 70
     1
102
RTVSPropertyOp4
 70
     1
102
RTVSPropertyOp5
 70
     1
102
RTVSPropertyOp6
 70
     1
102
RTVSPropertyOp7
 70
     1
102
RTVSPropertyOp8
 70
     1
102
RTVSPropertyOp9
 70
     1
102
RTVSPropertyOp10
 70
     1
102
RTVSPropertyOp11
 70
     1
102
RTVSPropertyOp12
 70
     1
102
RTVSPropertyOp13
 70
     1
102
RTVSPropertyOp14
 70
     1
102
RTVSPropertyOp15
 70
     1
102
RTVSPropertyOp16
 70
     1
102
RTVSPropertyOp17
 70
     1
102
RTVSPropertyOp18
 70
     1
102
RTVSPropertyOp19
 70
     1
102
RTVSPropertyOp20
 70
     1
102
RTVSPropertyOp21
 70
     1
102
RTVSPropertyOp22
 70
     1
102
RTVSPropertyOp23
 70
     1
102
RTVSPropertyOp24
 70
     1
102
RTVSPropertyOp25
 70
     1
102
RTVSPropertyOp26
 70
     1
102
RTVSPropertyOp27
 70
     1
102
RTVSPropertyOp28
 70
     1
102
RTVSPropertyOp29
 70
     1
102
RTVSPropertyOp30
 70
     1
102
RTVSPropertyOp31
 70
     1
102
RTVSPropertyOp32
 70
     1
102
RTVSPropertyOp33
 70
     1
102
RTVSPropertyOp34
 70
     1
102
RTVSPropertyOp35
 70
     1
102
RTVSPropertyOp36
 70
     1
102
RTVSPropertyOp37
 70
     1
102
RTVSPropertyOp38
 70
     1
102
RTVSPropertyOp39
 70
     1
102
RTVSPropertyOp40
 70
     1
102
RTVSPropertyOp41
 70
     1
102
RTVSPropertyOp42
 70
     1
102
RTVSPropertyOp43
 70
     1
102
RTVSPropertyOp44
 70
     1
102
RTVSPropertyOp45
 70
     1
102
RTVSPropertyOp46
 70
     1
102
RTVSPropertyOp47
 70
     1
102
RTVSPropertyOp48
 70
     1
102
RTVSPropertyOp49
 70
     1
102
RTVSPropertyOp50
 70
     1
102
RTVSPropertyOp51
 70
     0
102
RTVSPropertyOp52
 70
     0
102
RTVSPropertyOp53
 70
     1
102
RTVSPropertyOp54
 70
     1
102
RTVSPropertyOp55
 70
     1
102
RTVSPropertyOp56
 70
     1
102
RTVSPropertyOp57
 70
     1
102
RTVSPropertyOp58
 70
     1
102
RTVSPropertyOp59
 70
     1
102
RTVSPropertyOp60
 70
     1
102
RTVSPropertyOp61
 70
     1
102
RTVSPropertyOp62
 70
     1
  0
XRECORD
  5
660
102
{ACAD_REACTORS
330
65F
102
}
330
65F
100
AcDbXrecord
280
     1
102
RTVSPost2010Prop28
280
     0
102
RTVSPost2010PropOp28
 70
     1
102
RTVSPost2010Prop29
280
     1
102
RTVSPost2010PropOp29
 70
     1
102
RTVSPost2010Prop30
280
     1
102
RTVSPost2010PropOp30
 70
     1
102
RTVSPost2010Prop31
280
     0
102
RTVSPost2010PropOp31
 70
     1
102
RTVSPost2010Prop32
280
     0
102
RTVSPost2010PropOp32
 70
     1
102
RTVSPost2010Prop33
280
     0
102
RTVSPost2010PropOp33
 70
     1
102
RTVSPost2010Prop34
280
     0
102
RTVSPost2010PropOp34
 70
     1
102
RTVSPost2010Prop35
280
     0
102
RTVSPost2010PropOp35
 70
     1
102
RTVSPost2010Prop36
280
     0
102
RTVSPost2010PropOp36
 70
     1
102
RTVSPost2010Prop37
 90
       50
102
RTVSPost2010PropOp37
 70
     1
102
RTVSPost2010Prop38
140
0.0
102
RTVSPost2010PropOp38
 70
     1
102
RTVSPost2010Prop39
140
1.0
102
RTVSPost2010PropOp39
 70
     1
102
RTVSPost2010Prop40
 90
        0
102
RTVSPost2010PropOp40
 70
     1
102
RTVSPost2010Prop41ColorIndex
 90
       18
102
RTVSPost2010Prop41ColorRGB
 90
        0
102
RTVSPost2010PropOp41
 70
     1
102
RTVSPost2010Prop42
 90
       50
102
RTVSPost2010PropOp42
 70
     1
102
RTVSPost2010Prop43
 90
        3
102
RTVSPost2010PropOp43
 70
     1
102
RTVSPost2010Prop44ColorIndex
 90
        5
102
RTVSPost2010Prop44ColorRGB
 90
      255
102
RTVSPost2010PropOp44
 70
     1
102
RTVSPost2010Prop45
280
     0
102
RTVSPost2010PropOp45
 70
     1
102
RTVSPost2010Prop46
 90
       50
102
RTVSPost2010PropOp46
 70
     1
102
RTVSPost2010Prop47
 90
       50
102
RTVSPost2010PropOp47
 70
     1
102
RTVSPost2010Prop48
 90
       50
102
RTVSPost2010PropOp48
 70
     1
102
RTVSPost2010Prop49
280
     0
102
RTVSPost2010PropOp49
 70
     1
102
RTVSPost2010Prop50
 90
       50
102
RTVSPost2010PropOp50
 70
     1
102
RTVSPost2010Prop51ColorIndex
 90
      256
102
RTVSPost2010Prop51ColorRGB
 90
-16777216
102
RTVSPost2010PropOp51
 70
     0
102
RTVSPost2010Prop52
140
1.0
102
RTVSPost2010PropOp52
 70
     0
102
RTVSPost2010Prop53
 90
        2
102
RTVSPost2010PropOp53
 70
     1
102
RTVSPost2010Prop54
  1
strokes_ogs.tif
102
RTVSPost2010PropOp54
 70
     1
102
RTVSPost2010Prop55
280
     0
102
RTVSPost2010PropOp55
 70
     1
102
RTVSPost2010Prop56
140
1.0
102
RTVSPost2010PropOp56
 70
     1
102
RTVSPost2010Prop57
140
1.0
102
RTVSPost2010PropOp57
 70
     1
102
RTVSPropertyOp0
 70
     1
102
RTVSPropertyOp1
 70
     1
102
RTVSPropertyOp2
 70
     1
102
RTVSPropertyOp3
 70
     1
102
RTVSPropertyOp4
 70
     1
102
RTVSPropertyOp5
 70
     1
102
RTVSPropertyOp6
 70
     1
102
RTVSPropertyOp7
 70
     1
102
RTVSPropertyOp8
 70
     1
102
RTVSPropertyOp9
 70
     1
102
RTVSPropertyOp10
 70
     1
102
RTVSPropertyOp11
 70
     1
102
RTVSPropertyOp12
 70
     1
102
RTVSPropertyOp13
 70
     1
102
RTVSPropertyOp14
 70
     1
102
RTVSPropertyOp15
 70
     1
102
RTVSPropertyOp16
 70
     1
102
RTVSPropertyOp17
 70
     1
102
RTVSPropertyOp18
 70
     1
102
RTVSPropertyOp19
 70
     1
102
RTVSPropertyOp20
 70
     1
102
RTVSPropertyOp21
 70
     1
102
RTVSPropertyOp22
 70
     1
102
RTVSPropertyOp23
 70
     1
102
RTVSPropertyOp24
 70
     1
102
RTVSPropertyOp25
 70
     1
102
RTVSPropertyOp26
 70
     1
102
RTVSPropertyOp27
 70
     1
102
RTVSPropertyOp28
 70
     1
102
RTVSPropertyOp29
 70
     1
102
RTVSPropertyOp30
 70
     1
102
RTVSPropertyOp31
 70
     1
102
RTVSPropertyOp32
 70
     1
102
RTVSPropertyOp33
 70
     1
102
RTVSPropertyOp34
 70
     1
102
RTVSPropertyOp35
 70
     1
102
RTVSPropertyOp36
 70
     1
102
RTVSPropertyOp37
 70
     1
102
RTVSPropertyOp38
 70
     1
102
RTVSPropertyOp39
 70
     1
102
RTVSPropertyOp40
 70
     1
102
RTVSPropertyOp41
 70
     1
102
RTVSPropertyOp42
 70
     1
102
RTVSPropertyOp43
 70
     1
102
RTVSPropertyOp44
 70
     1
102
RTVSPropertyOp45
 70
     1
102
RTVSPropertyOp46
 70
     1
102
RTVSPropertyOp47
 70
     1
102
RTVSPropertyOp48
 70
     1
102
RTVSPropertyOp49
 70
     1
102
RTVSPropertyOp50
 70
     1
102
RTVSPropertyOp51
 70
     0
102
RTVSPropertyOp52
 70
     0
102
RTVSPropertyOp53
 70
     1
102
RTVSPropertyOp54
 70
     1
102
RTVSPropertyOp55
 70
     1
102
RTVSPropertyOp56
 70
     1
102
RTVSPropertyOp57
 70
     1
102
RTVSPropertyOp58
 70
     1
102
RTVSPropertyOp59
 70
     1
102
RTVSPropertyOp60
 70
     1
102
RTVSPropertyOp61
 70
     1
102
RTVSPropertyOp62
 70
     1
  0
XRECORD
  5
670
102
{ACAD_REACTORS
330
66F
102
}
330
66F
100
AcDbXrecord
280
     1
102
RTVSPost2010Prop28
280
     0
102
RTVSPost2010PropOp28
 70
     0
102
RTVSPost2010Prop29
280
     1
102
RTVSPost2010PropOp29
 70
     0
102
RTVSPost2010Prop30
280
     1
102
RTVSPost2010PropOp30
 70
     0
102
RTVSPost2010Prop31
280
     0
102
RTVSPost2010PropOp31
 70
     0
102
RTVSPost2010Prop32
280
     0
102
RTVSPost2010PropOp32
 70
     0
102
RTVSPost2010Prop33
280
     0
102
RTVSPost2010PropOp33
 70
     0
102
RTVSPost2010Prop34
280
     0
102
RTVSPost2010PropOp34
 70
     0
102
RTVSPost2010Prop35
280
     0
102
RTVSPost2010PropOp35
 70
     0
102
RTVSPost2010Prop36
280
     0
102
RTVSPost2010PropOp36
 70
     0
102
RTVSPost2010Prop37
 90
       50
102
RTVSPost2010PropOp37
 70
     0
102
RTVSPost2010Prop38
140
0.0
102
RTVSPost2010PropOp38
 70
     0
102
RTVSPost2010Prop39
140
1.0
102
RTVSPost2010PropOp39
 70
     0
102
RTVSPost2010Prop40
 90
        0
102
RTVSPost2010PropOp40
 70
     0
102
RTVSPost2010Prop41ColorIndex
 90
       18
102
RTVSPost2010Prop41ColorRGB
 90
        0
102
RTVSPost2010PropOp41
 70
     0
102
RTVSPost2010Prop42
 90
       50
102
RTVSPost2010PropOp42
 70
     0
102
RTVSPost2010Prop43
 90
        3
102
RTVSPost2010PropOp43
 70
     0
102
RTVSPost2010Prop44ColorIndex
 90
        5
102
RTVSPost2010Prop44ColorRGB
 90
      255
102
RTVSPost2010PropOp44
 70
     0
102
RTVSPost2010Prop45
280
     0
102
RTVSPost2010PropOp45
 70
     0
102
RTVSPost2010Prop46
 90
       50
102
RTVSPost2010PropOp46
 70
     0
102
RTVSPost2010Prop47
 90
       50
102
RTVSPost2010PropOp47
 70
     0
102
RTVSPost2010Prop48
 90
       50
102
RTVSPost2010PropOp48
 70
     0
102
RTVSPost2010Prop49
280
     0
102
RTVSPost2010PropOp49
 70
     0
102
RTVSPost2010Prop50
 90
       50
102
RTVSPost2010PropOp50
 70
     0
102
RTVSPost2010Prop51ColorIndex
 90
      256
102
RTVSPost2010Prop51ColorRGB
 90
-16777216
102
RTVSPost2010PropOp51
 70
     0
102
RTVSPost2010Prop52
140
1.0
102
RTVSPost2010PropOp52
 70
     0
102
RTVSPost2010Prop53
 90
        2
102
RTVSPost2010PropOp53
 70
     0
102
RTVSPost2010Prop54
  1
strokes_ogs.tif
102
RTVSPost2010PropOp54
 70
     0
102
RTVSPost2010Prop55
280
     0
102
RTVSPost2010PropOp55
 70
     0
102
RTVSPost2010Prop56
140
1.0
102
RTVSPost2010PropOp56
 70
     0
102
RTVSPost2010Prop57
140
1.0
102
RTVSPost2010PropOp57
 70
     0
102
RTVSPropertyOp0
 70
     0
102
RTVSPropertyOp1
 70
     0
102
RTVSPropertyOp2
 70
     0
102
RTVSPropertyOp3
 70
     0
102
RTVSPropertyOp4
 70
     0
102
RTVSPropertyOp5
 70
     0
102
RTVSPropertyOp6
 70
     0
102
RTVSPropertyOp7
 70
     0
102
RTVSPropertyOp8
 70
     0
102
RTVSPropertyOp9
 70
     0
102
RTVSPropertyOp10
 70
     0
102
RTVSPropertyOp11
 70
     0
102
RTVSPropertyOp12
 70
     0
102
RTVSPropertyOp13
 70
     0
102
RTVSPropertyOp14
 70
     2
102
RTVSPropertyOp15
 70
     0
102
RTVSPropertyOp16
 70
     0
102
RTVSPropertyOp17
 70
     0
102
RTVSPropertyOp18
 70
     0
102
RTVSPropertyOp19
 70
     0
102
RTVSPropertyOp20
 70
     0
102
RTVSPropertyOp21
 70
     0
102
RTVSPropertyOp22
 70
     0
102
RTVSPropertyOp23
 70
     0
102
RTVSPropertyOp24
 70
     0
102
RTVSPropertyOp25
 70
     0
102
RTVSPropertyOp26
 70
     0
102
RTVSPropertyOp27
 70
     0
102
RTVSPropertyOp28
 70
     0
102
RTVSPropertyOp29
 70
     0
102
RTVSPropertyOp30
 70
     0
102
RTVSPropertyOp31
 70
     0
102
RTVSPropertyOp32
 70
     0
102
RTVSPropertyOp33
 70
     0
102
RTVSPropertyOp34
 70
     0
102
RTVSPropertyOp35
 70
     0
102
RTVSPropertyOp36
 70
     0
102
RTVSPropertyOp37
 70
     0
102
RTVSPropertyOp38
 70
     0
102
RTVSPropertyOp39
 70
     0
102
RTVSPropertyOp40
 70
     0
102
RTVSPropertyOp41
 70
     0
102
RTVSPropertyOp42
 70
     0
102
RTVSPropertyOp43
 70
     0
102
RTVSPropertyOp44
 70
     0
102
RTVSPropertyOp45
 70
     0
102
RTVSPropertyOp46
 70
     0
102
RTVSPropertyOp47
 70
     0
102
RTVSPropertyOp48
 70
     0
102
RTVSPropertyOp49
 70
     0
102
RTVSPropertyOp50
 70
     0
102
RTVSPropertyOp51
 70
     0
102
RTVSPropertyOp52
 70
     0
102
RTVSPropertyOp53
 70
     0
102
RTVSPropertyOp54
 70
     0
102
RTVSPropertyOp55
 70
     0
102
RTVSPropertyOp56
 70
     0
102
RTVSPropertyOp57
 70
     0
102
RTVSPropertyOp58
 70
     1
102
RTVSPropertyOp59
 70
     1
102
RTVSPropertyOp60
 70
     1
102
RTVSPropertyOp61
 70
     1
102
RTVSPropertyOp62
 70
     1
  0
XRECORD
  5
668
102
{ACAD_REACTORS
330
667
102
}
330
667
100
AcDbXrecord
280
     1
102
RTVSPost2010Prop28
280
     0
102
RTVSPost2010PropOp28
 70
     1
102
RTVSPost2010Prop29
280
     1
102
RTVSPost2010PropOp29
 70
     1
102
RTVSPost2010Prop30
280
     1
102
RTVSPost2010PropOp30
 70
     1
102
RTVSPost2010Prop31
280
     0
102
RTVSPost2010PropOp31
 70
     1
102
RTVSPost2010Prop32
280
     0
102
RTVSPost2010PropOp32
 70
     1
102
RTVSPost2010Prop33
280
     0
102
RTVSPost2010PropOp33
 70
     1
102
RTVSPost2010Prop34
280
     0
102
RTVSPost2010PropOp34
 70
     1
102
RTVSPost2010Prop35
280
     0
102
RTVSPost2010PropOp35
 70
     1
102
RTVSPost2010Prop36
280
     0
102
RTVSPost2010PropOp36
 70
     1
102
RTVSPost2010Prop37
 90
       50
102
RTVSPost2010PropOp37
 70
     1
102
RTVSPost2010Prop38
140
0.0
102
RTVSPost2010PropOp38
 70
     1
102
RTVSPost2010Prop39
140
1.0
102
RTVSPost2010PropOp39
 70
     1
102
RTVSPost2010Prop40
 90
        0
102
RTVSPost2010PropOp40
 70
     1
102
RTVSPost2010Prop41ColorIndex
 90
       18
102
RTVSPost2010Prop41ColorRGB
 90
        0
102
RTVSPost2010PropOp41
 70
     1
102
RTVSPost2010Prop42
 90
       50
102
RTVSPost2010PropOp42
 70
     1
102
RTVSPost2010Prop43
 90
        3
102
RTVSPost2010PropOp43
 70
     1
102
RTVSPost2010Prop44ColorIndex
 90
        5
102
RTVSPost2010Prop44ColorRGB
 90
      255
102
RTVSPost2010PropOp44
 70
     1
102
RTVSPost2010Prop45
280
     0
102
RTVSPost2010PropOp45
 70
     1
102
RTVSPost2010Prop46
 90
       50
102
RTVSPost2010PropOp46
 70
     1
102
RTVSPost2010Prop47
 90
       50
102
RTVSPost2010PropOp47
 70
     1
102
RTVSPost2010Prop48
 90
       50
102
RTVSPost2010PropOp48
 70
     1
102
RTVSPost2010Prop49
280
     0
102
RTVSPost2010PropOp49
 70
     1
102
RTVSPost2010Prop50
 90
       50
102
RTVSPost2010PropOp50
 70
     1
102
RTVSPost2010Prop51ColorIndex
 90
      256
102
RTVSPost2010Prop51ColorRGB
 90
-16777216
102
RTVSPost2010PropOp51
 70
     0
102
RTVSPost2010Prop52
140
1.0
102
RTVSPost2010PropOp52
 70
     0
102
RTVSPost2010Prop53
 90
        2
102
RTVSPost2010PropOp53
 70
     1
102
RTVSPost2010Prop54
  1
strokes_ogs.tif
102
RTVSPost2010PropOp54
 70
     1
102
RTVSPost2010Prop55
280
     0
102
RTVSPost2010PropOp55
 70
     1
102
RTVSPost2010Prop56
140
1.0
102
RTVSPost2010PropOp56
 70
     1
102
RTVSPost2010Prop57
140
1.0
102
RTVSPost2010PropOp57
 70
     1
102
RTVSPropertyOp0
 70
     1
102
RTVSPropertyOp1
 70
     1
102
RTVSPropertyOp2
 70
     1
102
RTVSPropertyOp3
 70
     1
102
RTVSPropertyOp4
 70
     1
102
RTVSPropertyOp5
 70
     1
102
RTVSPropertyOp6
 70
     1
102
RTVSPropertyOp7
 70
     1
102
RTVSPropertyOp8
 70
     1
102
RTVSPropertyOp9
 70
     1
102
RTVSPropertyOp10
 70
     1
102
RTVSPropertyOp11
 70
     1
102
RTVSPropertyOp12
 70
     1
102
RTVSPropertyOp13
 70
     1
102
RTVSPropertyOp14
 70
     1
102
RTVSPropertyOp15
 70
     1
102
RTVSPropertyOp16
 70
     1
102
RTVSPropertyOp17
 70
     1
102
RTVSPropertyOp18
 70
     1
102
RTVSPropertyOp19
 70
     1
102
RTVSPropertyOp20
 70
     1
102
RTVSPropertyOp21
 70
     1
102
RTVSPropertyOp22
 70
     1
102
RTVSPropertyOp23
 70
     1
102
RTVSPropertyOp24
 70
     1
102
RTVSPropertyOp25
 70
     1
102
RTVSPropertyOp26
 70
     1
102
RTVSPropertyOp27
 70
     1
102
RTVSPropertyOp28
 70
     1
102
RTVSPropertyOp29
 70
     1
102
RTVSPropertyOp30
 70
     1
102
RTVSPropertyOp31
 70
     1
102
RTVSPropertyOp32
 70
     1
102
RTVSPropertyOp33
 70
     1
102
RTVSPropertyOp34
 70
     1
102
RTVSPropertyOp35
 70
     1
102
RTVSPropertyOp36
 70
     1
102
RTVSPropertyOp37
 70
     1
102
RTVSPropertyOp38
 70
     1
102
RTVSPropertyOp39
 70
     1
102
RTVSPropertyOp40
 70
     1
102
RTVSPropertyOp41
 70
     1
102
RTVSPropertyOp42
 70
     1
102
RTVSPropertyOp43
 70
     1
102
RTVSPropertyOp44
 70
     1
102
RTVSPropertyOp45
 70
     1
102
RTVSPropertyOp46
 70
     1
102
RTVSPropertyOp47
 70
     1
102
RTVSPropertyOp48
 70
     1
102
RTVSPropertyOp49
 70
     1
102
RTVSPropertyOp50
 70
     1
102
RTVSPropertyOp51
 70
     0
102
RTVSPropertyOp52
 70
     0
102
RTVSPropertyOp53
 70
     1
102
RTVSPropertyOp54
 70
     1
102
RTVSPropertyOp55
 70
     1
102
RTVSPropertyOp56
 70
     1
102
RTVSPropertyOp57
 70
     1
102
RTVSPropertyOp58
 70
     1
102
RTVSPropertyOp59
 70
     1
102
RTVSPropertyOp60
 70
     1
102
RTVSPropertyOp61
 70
     1
102
RTVSPropertyOp62
 70
     1
  0
XRECORD
  5
64C
102
{ACAD_REACTORS
330
64B
102
}
330
64B
100
AcDbXrecord
280
     1
102
RTVSPost2010Prop28
280
     0
102
RTVSPost2010PropOp28
 70
     1
102
RTVSPost2010Prop29
280
     1
102
RTVSPost2010PropOp29
 70
     1
102
RTVSPost2010Prop30
280
     1
102
RTVSPost2010PropOp30
 70
     1
102
RTVSPost2010Prop31
280
     0
102
RTVSPost2010PropOp31
 70
     1
102
RTVSPost2010Prop32
280
     0
102
RTVSPost2010PropOp32
 70
     1
102
RTVSPost2010Prop33
280
     0
102
RTVSPost2010PropOp33
 70
     1
102
RTVSPost2010Prop34
280
     0
102
RTVSPost2010PropOp34
 70
     1
102
RTVSPost2010Prop35
280
     0
102
RTVSPost2010PropOp35
 70
     1
102
RTVSPost2010Prop36
280
     0
102
RTVSPost2010PropOp36
 70
     1
102
RTVSPost2010Prop37
 90
       50
102
RTVSPost2010PropOp37
 70
     1
102
RTVSPost2010Prop38
140
0.0
102
RTVSPost2010PropOp38
 70
     1
102
RTVSPost2010Prop39
140
1.0
102
RTVSPost2010PropOp39
 70
     1
102
RTVSPost2010Prop40
 90
        0
102
RTVSPost2010PropOp40
 70
     1
102
RTVSPost2010Prop41ColorIndex
 90
       18
102
RTVSPost2010Prop41ColorRGB
 90
        0
102
RTVSPost2010PropOp41
 70
     1
102
RTVSPost2010Prop42
 90
       50
102
RTVSPost2010PropOp42
 70
     1
102
RTVSPost2010Prop43
 90
        3
102
RTVSPost2010PropOp43
 70
     1
102
RTVSPost2010Prop44ColorIndex
 90
        5
102
RTVSPost2010Prop44ColorRGB
 90
      255
102
RTVSPost2010PropOp44
 70
     1
102
RTVSPost2010Prop45
280
     0
102
RTVSPost2010PropOp45
 70
     1
102
RTVSPost2010Prop46
 90
       50
102
RTVSPost2010PropOp46
 70
     1
102
RTVSPost2010Prop47
 90
       50
102
RTVSPost2010PropOp47
 70
     1
102
RTVSPost2010Prop48
 90
       50
102
RTVSPost2010PropOp48
 70
     1
102
RTVSPost2010Prop49
280
     0
102
RTVSPost2010PropOp49
 70
     1
102
RTVSPost2010Prop50
 90
       50
102
RTVSPost2010PropOp50
 70
     1
102
RTVSPost2010Prop51ColorIndex
 90
      256
102
RTVSPost2010Prop51ColorRGB
 90
-16777216
102
RTVSPost2010PropOp51
 70
     0
102
RTVSPost2010Prop52
140
1.0
102
RTVSPost2010PropOp52
 70
     0
102
RTVSPost2010Prop53
 90
        2
102
RTVSPost2010PropOp53
 70
     1
102
RTVSPost2010Prop54
  1
strokes_ogs.tif
102
RTVSPost2010PropOp54
 70
     1
102
RTVSPost2010Prop55
280
     0
102
RTVSPost2010PropOp55
 70
     1
102
RTVSPost2010Prop56
140
1.0
102
RTVSPost2010PropOp56
 70
     1
102
RTVSPost2010Prop57
140
1.0
102
RTVSPost2010PropOp57
 70
     1
102
RTVSPropertyOp0
 70
     1
102
RTVSPropertyOp1
 70
     1
102
RTVSPropertyOp2
 70
     1
102
RTVSPropertyOp3
 70
     1
102
RTVSPropertyOp4
 70
     1
102
RTVSPropertyOp5
 70
     1
102
RTVSPropertyOp6
 70
     1
102
RTVSPropertyOp7
 70
     1
102
RTVSPropertyOp8
 70
     1
102
RTVSPropertyOp9
 70
     1
102
RTVSPropertyOp10
 70
     1
102
RTVSPropertyOp11
 70
     1
102
RTVSPropertyOp12
 70
     1
102
RTVSPropertyOp13
 70
     1
102
RTVSPropertyOp14
 70
     1
102
RTVSPropertyOp15
 70
     1
102
RTVSPropertyOp16
 70
     1
102
RTVSPropertyOp17
 70
     1
102
RTVSPropertyOp18
 70
     1
102
RTVSPropertyOp19
 70
     1
102
RTVSPropertyOp20
 70
     1
102
RTVSPropertyOp21
 70
     1
102
RTVSPropertyOp22
 70
     1
102
RTVSPropertyOp23
 70
     1
102
RTVSPropertyOp24
 70
     1
102
RTVSPropertyOp25
 70
     1
102
RTVSPropertyOp26
 70
     1
102
RTVSPropertyOp27
 70
     1
102
RTVSPropertyOp28
 70
     1
102
RTVSPropertyOp29
 70
     1
102
RTVSPropertyOp30
 70
     1
102
RTVSPropertyOp31
 70
     1
102
RTVSPropertyOp32
 70
     1
102
RTVSPropertyOp33
 70
     1
102
RTVSPropertyOp34
 70
     1
102
RTVSPropertyOp35
 70
     1
102
RTVSPropertyOp36
 70
     1
102
RTVSPropertyOp37
 70
     1
102
RTVSPropertyOp38
 70
     1
102
RTVSPropertyOp39
 70
     1
102
RTVSPropertyOp40
 70
     1
102
RTVSPropertyOp41
 70
     1
102
RTVSPropertyOp42
 70
     1
102
RTVSPropertyOp43
 70
     1
102
RTVSPropertyOp44
 70
     1
102
RTVSPropertyOp45
 70
     1
102
RTVSPropertyOp46
 70
     1
102
RTVSPropertyOp47
 70
     1
102
RTVSPropertyOp48
 70
     1
102
RTVSPropertyOp49
 70
     1
102
RTVSPropertyOp50
 70
     1
102
RTVSPropertyOp51
 70
     0
102
RTVSPropertyOp52
 70
     0
102
RTVSPropertyOp53
 70
     1
102
RTVSPropertyOp54
 70
     1
102
RTVSPropertyOp55
 70
     1
102
RTVSPropertyOp56
 70
     1
102
RTVSPropertyOp57
 70
     1
102
RTVSPropertyOp58
 70
     1
102
RTVSPropertyOp59
 70
     1
102
RTVSPropertyOp60
 70
     1
102
RTVSPropertyOp61
 70
     1
102
RTVSPropertyOp62
 70
     1
  0
XRECORD
  5
64E
102
{ACAD_REACTORS
330
64D
102
}
330
64D
100
AcDbXrecord
280
     1
102
RTVSPost2010Prop28
280
     0
102
RTVSPost2010PropOp28
 70
     1
102
RTVSPost2010Prop29
280
     1
102
RTVSPost2010PropOp29
 70
     1
102
RTVSPost2010Prop30
280
     1
102
RTVSPost2010PropOp30
 70
     1
102
RTVSPost2010Prop31
280
     0
102
RTVSPost2010PropOp31
 70
     1
102
RTVSPost2010Prop32
280
     0
102
RTVSPost2010PropOp32
 70
     1
102
RTVSPost2010Prop33
280
     0
102
RTVSPost2010PropOp33
 70
     1
102
RTVSPost2010Prop34
280
     0
102
RTVSPost2010PropOp34
 70
     1
102
RTVSPost2010Prop35
280
     0
102
RTVSPost2010PropOp35
 70
     1
102
RTVSPost2010Prop36
280
     0
102
RTVSPost2010PropOp36
 70
     1
102
RTVSPost2010Prop37
 90
       50
102
RTVSPost2010PropOp37
 70
     1
102
RTVSPost2010Prop38
140
0.0
102
RTVSPost2010PropOp38
 70
     1
102
RTVSPost2010Prop39
140
1.0
102
RTVSPost2010PropOp39
 70
     1
102
RTVSPost2010Prop40
 90
        0
102
RTVSPost2010PropOp40
 70
     1
102
RTVSPost2010Prop41ColorIndex
 90
       18
102
RTVSPost2010Prop41ColorRGB
 90
        0
102
RTVSPost2010PropOp41
 70
     1
102
RTVSPost2010Prop42
 90
       50
102
RTVSPost2010PropOp42
 70
     1
102
RTVSPost2010Prop43
 90
        3
102
RTVSPost2010PropOp43
 70
     1
102
RTVSPost2010Prop44ColorIndex
 90
        5
102
RTVSPost2010Prop44ColorRGB
 90
      255
102
RTVSPost2010PropOp44
 70
     1
102
RTVSPost2010Prop45
280
     0
102
RTVSPost2010PropOp45
 70
     1
102
RTVSPost2010Prop46
 90
       50
102
RTVSPost2010PropOp46
 70
     1
102
RTVSPost2010Prop47
 90
       50
102
RTVSPost2010PropOp47
 70
     1
102
RTVSPost2010Prop48
 90
       50
102
RTVSPost2010PropOp48
 70
     1
102
RTVSPost2010Prop49
280
     0
102
RTVSPost2010PropOp49
 70
     1
102
RTVSPost2010Prop50
 90
       50
102
RTVSPost2010PropOp50
 70
     1
102
RTVSPost2010Prop51ColorIndex
 90
      256
102
RTVSPost2010Prop51ColorRGB
 90
-16777216
102
RTVSPost2010PropOp51
 70
     0
102
RTVSPost2010Prop52
140
1.0
102
RTVSPost2010PropOp52
 70
     0
102
RTVSPost2010Prop53
 90
        2
102
RTVSPost2010PropOp53
 70
     1
102
RTVSPost2010Prop54
  1
strokes_ogs.tif
102
RTVSPost2010PropOp54
 70
     1
102
RTVSPost2010Prop55
280
     0
102
RTVSPost2010PropOp55
 70
     1
102
RTVSPost2010Prop56
140
1.0
102
RTVSPost2010PropOp56
 70
     1
102
RTVSPost2010Prop57
140
1.0
102
RTVSPost2010PropOp57
 70
     1
102
RTVSPropertyOp0
 70
     1
102
RTVSPropertyOp1
 70
     1
102
RTVSPropertyOp2
 70
     1
102
RTVSPropertyOp3
 70
     1
102
RTVSPropertyOp4
 70
     1
102
RTVSPropertyOp5
 70
     1
102
RTVSPropertyOp6
 70
     1
102
RTVSPropertyOp7
 70
     1
102
RTVSPropertyOp8
 70
     1
102
RTVSPropertyOp9
 70
     1
102
RTVSPropertyOp10
 70
     1
102
RTVSPropertyOp11
 70
     1
102
RTVSPropertyOp12
 70
     1
102
RTVSPropertyOp13
 70
     1
102
RTVSPropertyOp14
 70
     1
102
RTVSPropertyOp15
 70
     1
102
RTVSPropertyOp16
 70
     1
102
RTVSPropertyOp17
 70
     1
102
RTVSPropertyOp18
 70
     1
102
RTVSPropertyOp19
 70
     1
102
RTVSPropertyOp20
 70
     1
102
RTVSPropertyOp21
 70
     1
102
RTVSPropertyOp22
 70
     1
102
RTVSPropertyOp23
 70
     1
102
RTVSPropertyOp24
 70
     1
102
RTVSPropertyOp25
 70
     1
102
RTVSPropertyOp26
 70
     1
102
RTVSPropertyOp27
 70
     1
102
RTVSPropertyOp28
 70
     1
102
RTVSPropertyOp29
 70
     1
102
RTVSPropertyOp30
 70
     1
102
RTVSPropertyOp31
 70
     1
102
RTVSPropertyOp32
 70
     1
102
RTVSPropertyOp33
 70
     1
102
RTVSPropertyOp34
 70
     1
102
RTVSPropertyOp35
 70
     1
102
RTVSPropertyOp36
 70
     1
102
RTVSPropertyOp37
 70
     1
102
RTVSPropertyOp38
 70
     1
102
RTVSPropertyOp39
 70
     1
102
RTVSPropertyOp40
 70
     1
102
RTVSPropertyOp41
 70
     1
102
RTVSPropertyOp42
 70
     1
102
RTVSPropertyOp43
 70
     1
102
RTVSPropertyOp44
 70
     1
102
RTVSPropertyOp45
 70
     1
102
RTVSPropertyOp46
 70
     1
102
RTVSPropertyOp47
 70
     1
102
RTVSPropertyOp48
 70
     1
102
RTVSPropertyOp49
 70
     1
102
RTVSPropertyOp50
 70
     1
102
RTVSPropertyOp51
 70
     0
102
RTVSPropertyOp52
 70
     0
102
RTVSPropertyOp53
 70
     1
102
RTVSPropertyOp54
 70
     1
102
RTVSPropertyOp55
 70
     1
102
RTVSPropertyOp56
 70
     1
102
RTVSPropertyOp57
 70
     1
102
RTVSPropertyOp58
 70
     1
102
RTVSPropertyOp59
 70
     1
102
RTVSPropertyOp60
 70
     1
102
RTVSPropertyOp61
 70
     1
102
RTVSPropertyOp62
 70
     1
  0
XRECORD
  5
650
102
{ACAD_REACTORS
330
64F
102
}
330
64F
100
AcDbXrecord
280
     1
102
RTVSPost2010Prop28
280
     0
102
RTVSPost2010PropOp28
 70
     1
102
RTVSPost2010Prop29
280
     1
102
RTVSPost2010PropOp29
 70
     1
102
RTVSPost2010Prop30
280
     1
102
RTVSPost2010PropOp30
 70
     1
102
RTVSPost2010Prop31
280
     0
102
RTVSPost2010PropOp31
 70
     1
102
RTVSPost2010Prop32
280
     0
102
RTVSPost2010PropOp32
 70
     1
102
RTVSPost2010Prop33
280
     0
102
RTVSPost2010PropOp33
 70
     1
102
RTVSPost2010Prop34
280
     0
102
RTVSPost2010PropOp34
 70
     1
102
RTVSPost2010Prop35
280
     0
102
RTVSPost2010PropOp35
 70
     1
102
RTVSPost2010Prop36
280
     0
102
RTVSPost2010PropOp36
 70
     1
102
RTVSPost2010Prop37
 90
       50
102
RTVSPost2010PropOp37
 70
     1
102
RTVSPost2010Prop38
140
0.0
102
RTVSPost2010PropOp38
 70
     1
102
RTVSPost2010Prop39
140
1.0
102
RTVSPost2010PropOp39
 70
     1
102
RTVSPost2010Prop40
 90
        0
102
RTVSPost2010PropOp40
 70
     1
102
RTVSPost2010Prop41ColorIndex
 90
       18
102
RTVSPost2010Prop41ColorRGB
 90
        0
102
RTVSPost2010PropOp41
 70
     1
102
RTVSPost2010Prop42
 90
       50
102
RTVSPost2010PropOp42
 70
     1
102
RTVSPost2010Prop43
 90
        3
102
RTVSPost2010PropOp43
 70
     1
102
RTVSPost2010Prop44ColorIndex
 90
        5
102
RTVSPost2010Prop44ColorRGB
 90
      255
102
RTVSPost2010PropOp44
 70
     1
102
RTVSPost2010Prop45
280
     0
102
RTVSPost2010PropOp45
 70
     1
102
RTVSPost2010Prop46
 90
       50
102
RTVSPost2010PropOp46
 70
     1
102
RTVSPost2010Prop47
 90
       50
102
RTVSPost2010PropOp47
 70
     1
102
RTVSPost2010Prop48
 90
       50
102
RTVSPost2010PropOp48
 70
     1
102
RTVSPost2010Prop49
280
     0
102
RTVSPost2010PropOp49
 70
     1
102
RTVSPost2010Prop50
 90
       50
102
RTVSPost2010PropOp50
 70
     1
102
RTVSPost2010Prop51ColorIndex
 90
      256
102
RTVSPost2010Prop51ColorRGB
 90
-16777216
102
RTVSPost2010PropOp51
 70
     0
102
RTVSPost2010Prop52
140
1.0
102
RTVSPost2010PropOp52
 70
     0
102
RTVSPost2010Prop53
 90
        2
102
RTVSPost2010PropOp53
 70
     1
102
RTVSPost2010Prop54
  1
strokes_ogs.tif
102
RTVSPost2010PropOp54
 70
     1
102
RTVSPost2010Prop55
280
     0
102
RTVSPost2010PropOp55
 70
     1
102
RTVSPost2010Prop56
140
1.0
102
RTVSPost2010PropOp56
 70
     1
102
RTVSPost2010Prop57
140
1.0
102
RTVSPost2010PropOp57
 70
     1
102
RTVSPropertyOp0
 70
     1
102
RTVSPropertyOp1
 70
     1
102
RTVSPropertyOp2
 70
     1
102
RTVSPropertyOp3
 70
     1
102
RTVSPropertyOp4
 70
     1
102
RTVSPropertyOp5
 70
     1
102
RTVSPropertyOp6
 70
     1
102
RTVSPropertyOp7
 70
     1
102
RTVSPropertyOp8
 70
     1
102
RTVSPropertyOp9
 70
     1
102
RTVSPropertyOp10
 70
     1
102
RTVSPropertyOp11
 70
     1
102
RTVSPropertyOp12
 70
     1
102
RTVSPropertyOp13
 70
     1
102
RTVSPropertyOp14
 70
     1
102
RTVSPropertyOp15
 70
     1
102
RTVSPropertyOp16
 70
     1
102
RTVSPropertyOp17
 70
     1
102
RTVSPropertyOp18
 70
     1
102
RTVSPropertyOp19
 70
     1
102
RTVSPropertyOp20
 70
     1
102
RTVSPropertyOp21
 70
     1
102
RTVSPropertyOp22
 70
     1
102
RTVSPropertyOp23
 70
     1
102
RTVSPropertyOp24
 70
     1
102
RTVSPropertyOp25
 70
     1
102
RTVSPropertyOp26
 70
     1
102
RTVSPropertyOp27
 70
     1
102
RTVSPropertyOp28
 70
     1
102
RTVSPropertyOp29
 70
     1
102
RTVSPropertyOp30
 70
     1
102
RTVSPropertyOp31
 70
     1
102
RTVSPropertyOp32
 70
     1
102
RTVSPropertyOp33
 70
     1
102
RTVSPropertyOp34
 70
     1
102
RTVSPropertyOp35
 70
     1
102
RTVSPropertyOp36
 70
     1
102
RTVSPropertyOp37
 70
     1
102
RTVSPropertyOp38
 70
     1
102
RTVSPropertyOp39
 70
     1
102
RTVSPropertyOp40
 70
     1
102
RTVSPropertyOp41
 70
     1
102
RTVSPropertyOp42
 70
     1
102
RTVSPropertyOp43
 70
     1
102
RTVSPropertyOp44
 70
     1
102
RTVSPropertyOp45
 70
     1
102
RTVSPropertyOp46
 70
     1
102
RTVSPropertyOp47
 70
     1
102
RTVSPropertyOp48
 70
     1
102
RTVSPropertyOp49
 70
     1
102
RTVSPropertyOp50
 70
     1
102
RTVSPropertyOp51
 70
     0
102
RTVSPropertyOp52
 70
     0
102
RTVSPropertyOp53
 70
     1
102
RTVSPropertyOp54
 70
     1
102
RTVSPropertyOp55
 70
     1
102
RTVSPropertyOp56
 70
     1
102
RTVSPropertyOp57
 70
     1
102
RTVSPropertyOp58
 70
     1
102
RTVSPropertyOp59
 70
     1
102
RTVSPropertyOp60
 70
     1
102
RTVSPropertyOp61
 70
     1
102
RTVSPropertyOp62
 70
     1
  0
XRECORD
  5
652
102
{ACAD_REACTORS
330
651
102
}
330
651
100
AcDbXrecord
280
     1
102
RTVSPost2010Prop28
280
     0
102
RTVSPost2010PropOp28
 70
     1
102
RTVSPost2010Prop29
280
     1
102
RTVSPost2010PropOp29
 70
     1
102
RTVSPost2010Prop30
280
     1
102
RTVSPost2010PropOp30
 70
     1
102
RTVSPost2010Prop31
280
     0
102
RTVSPost2010PropOp31
 70
     1
102
RTVSPost2010Prop32
280
     0
102
RTVSPost2010PropOp32
 70
     1
102
RTVSPost2010Prop33
280
     0
102
RTVSPost2010PropOp33
 70
     1
102
RTVSPost2010Prop34
280
     0
102
RTVSPost2010PropOp34
 70
     1
102
RTVSPost2010Prop35
280
     0
102
RTVSPost2010PropOp35
 70
     1
102
RTVSPost2010Prop36
280
     0
102
RTVSPost2010PropOp36
 70
     1
102
RTVSPost2010Prop37
 90
       50
102
RTVSPost2010PropOp37
 70
     1
102
RTVSPost2010Prop38
140
0.0
102
RTVSPost2010PropOp38
 70
     1
102
RTVSPost2010Prop39
140
1.0
102
RTVSPost2010PropOp39
 70
     1
102
RTVSPost2010Prop40
 90
        0
102
RTVSPost2010PropOp40
 70
     1
102
RTVSPost2010Prop41ColorIndex
 90
       18
102
RTVSPost2010Prop41ColorRGB
 90
        0
102
RTVSPost2010PropOp41
 70
     1
102
RTVSPost2010Prop42
 90
       50
102
RTVSPost2010PropOp42
 70
     1
102
RTVSPost2010Prop43
 90
        3
102
RTVSPost2010PropOp43
 70
     1
102
RTVSPost2010Prop44ColorIndex
 90
        5
102
RTVSPost2010Prop44ColorRGB
 90
      255
102
RTVSPost2010PropOp44
 70
     1
102
RTVSPost2010Prop45
280
     0
102
RTVSPost2010PropOp45
 70
     1
102
RTVSPost2010Prop46
 90
       50
102
RTVSPost2010PropOp46
 70
     1
102
RTVSPost2010Prop47
 90
       50
102
RTVSPost2010PropOp47
 70
     1
102
RTVSPost2010Prop48
 90
       50
102
RTVSPost2010PropOp48
 70
     1
102
RTVSPost2010Prop49
280
     0
102
RTVSPost2010PropOp49
 70
     1
102
RTVSPost2010Prop50
 90
       50
102
RTVSPost2010PropOp50
 70
     1
102
RTVSPost2010Prop51ColorIndex
 90
      256
102
RTVSPost2010Prop51ColorRGB
 90
-16777216
102
RTVSPost2010PropOp51
 70
     0
102
RTVSPost2010Prop52
140
1.0
102
RTVSPost2010PropOp52
 70
     0
102
RTVSPost2010Prop53
 90
        2
102
RTVSPost2010PropOp53
 70
     1
102
RTVSPost2010Prop54
  1
strokes_ogs.tif
102
RTVSPost2010PropOp54
 70
     1
102
RTVSPost2010Prop55
280
     0
102
RTVSPost2010PropOp55
 70
     1
102
RTVSPost2010Prop56
140
1.0
102
RTVSPost2010PropOp56
 70
     1
102
RTVSPost2010Prop57
140
1.0
102
RTVSPost2010PropOp57
 70
     1
102
RTVSPropertyOp0
 70
     1
102
RTVSPropertyOp1
 70
     1
102
RTVSPropertyOp2
 70
     1
102
RTVSPropertyOp3
 70
     1
102
RTVSPropertyOp4
 70
     1
102
RTVSPropertyOp5
 70
     1
102
RTVSPropertyOp6
 70
     1
102
RTVSPropertyOp7
 70
     1
102
RTVSPropertyOp8
 70
     1
102
RTVSPropertyOp9
 70
     1
102
RTVSPropertyOp10
 70
     1
102
RTVSPropertyOp11
 70
     1
102
RTVSPropertyOp12
 70
     1
102
RTVSPropertyOp13
 70
     1
102
RTVSPropertyOp14
 70
     1
102
RTVSPropertyOp15
 70
     1
102
RTVSPropertyOp16
 70
     1
102
RTVSPropertyOp17
 70
     1
102
RTVSPropertyOp18
 70
     1
102
RTVSPropertyOp19
 70
     1
102
RTVSPropertyOp20
 70
     1
102
RTVSPropertyOp21
 70
     1
102
RTVSPropertyOp22
 70
     1
102
RTVSPropertyOp23
 70
     1
102
RTVSPropertyOp24
 70
     1
102
RTVSPropertyOp25
 70
     1
102
RTVSPropertyOp26
 70
     1
102
RTVSPropertyOp27
 70
     1
102
RTVSPropertyOp28
 70
     1
102
RTVSPropertyOp29
 70
     1
102
RTVSPropertyOp30
 70
     1
102
RTVSPropertyOp31
 70
     1
102
RTVSPropertyOp32
 70
     1
102
RTVSPropertyOp33
 70
     1
102
RTVSPropertyOp34
 70
     1
102
RTVSPropertyOp35
 70
     1
102
RTVSPropertyOp36
 70
     1
102
RTVSPropertyOp37
 70
     1
102
RTVSPropertyOp38
 70
     1
102
RTVSPropertyOp39
 70
     1
102
RTVSPropertyOp40
 70
     1
102
RTVSPropertyOp41
 70
     1
102
RTVSPropertyOp42
 70
     1
102
RTVSPropertyOp43
 70
     1
102
RTVSPropertyOp44
 70
     1
102
RTVSPropertyOp45
 70
     1
102
RTVSPropertyOp46
 70
     1
102
RTVSPropertyOp47
 70
     1
102
RTVSPropertyOp48
 70
     1
102
RTVSPropertyOp49
 70
     1
102
RTVSPropertyOp50
 70
     1
102
RTVSPropertyOp51
 70
     0
102
RTVSPropertyOp52
 70
     0
102
RTVSPropertyOp53
 70
     1
102
RTVSPropertyOp54
 70
     1
102
RTVSPropertyOp55
 70
     1
102
RTVSPropertyOp56
 70
     1
102
RTVSPropertyOp57
 70
     1
102
RTVSPropertyOp58
 70
     1
102
RTVSPropertyOp59
 70
     1
102
RTVSPropertyOp60
 70
     1
102
RTVSPropertyOp61
 70
     1
102
RTVSPropertyOp62
 70
     1
  0
XRECORD
  5
658
102
{ACAD_REACTORS
330
657
102
}
330
657
100
AcDbXrecord
280
     1
102
RTVSPost2010Prop28
280
     0
102
RTVSPost2010PropOp28
 70
     1
102
RTVSPost2010Prop29
280
     1
102
RTVSPost2010PropOp29
 70
     1
102
RTVSPost2010Prop30
280
     1
102
RTVSPost2010PropOp30
 70
     1
102
RTVSPost2010Prop31
280
     0
102
RTVSPost2010PropOp31
 70
     1
102
RTVSPost2010Prop32
280
     0
102
RTVSPost2010PropOp32
 70
     1
102
RTVSPost2010Prop33
280
     0
102
RTVSPost2010PropOp33
 70
     1
102
RTVSPost2010Prop34
280
     0
102
RTVSPost2010PropOp34
 70
     1
102
RTVSPost2010Prop35
280
     0
102
RTVSPost2010PropOp35
 70
     1
102
RTVSPost2010Prop36
280
     0
102
RTVSPost2010PropOp36
 70
     1
102
RTVSPost2010Prop37
 90
       50
102
RTVSPost2010PropOp37
 70
     1
102
RTVSPost2010Prop38
140
0.0
102
RTVSPost2010PropOp38
 70
     1
102
RTVSPost2010Prop39
140
1.0
102
RTVSPost2010PropOp39
 70
     1
102
RTVSPost2010Prop40
 90
        0
102
RTVSPost2010PropOp40
 70
     1
102
RTVSPost2010Prop41ColorIndex
 90
       18
102
RTVSPost2010Prop41ColorRGB
 90
        0
102
RTVSPost2010PropOp41
 70
     1
102
RTVSPost2010Prop42
 90
       50
102
RTVSPost2010PropOp42
 70
     1
102
RTVSPost2010Prop43
 90
        3
102
RTVSPost2010PropOp43
 70
     1
102
RTVSPost2010Prop44ColorIndex
 90
        5
102
RTVSPost2010Prop44ColorRGB
 90
      255
102
RTVSPost2010PropOp44
 70
     1
102
RTVSPost2010Prop45
280
     0
102
RTVSPost2010PropOp45
 70
     1
102
RTVSPost2010Prop46
 90
       50
102
RTVSPost2010PropOp46
 70
     1
102
RTVSPost2010Prop47
 90
       50
102
RTVSPost2010PropOp47
 70
     1
102
RTVSPost2010Prop48
 90
       50
102
RTVSPost2010PropOp48
 70
     1
102
RTVSPost2010Prop49
280
     0
102
RTVSPost2010PropOp49
 70
     1
102
RTVSPost2010Prop50
 90
       50
102
RTVSPost2010PropOp50
 70
     1
102
RTVSPost2010Prop51ColorIndex
 90
      256
102
RTVSPost2010Prop51ColorRGB
 90
-16777216
102
RTVSPost2010PropOp51
 70
     0
102
RTVSPost2010Prop52
140
1.0
102
RTVSPost2010PropOp52
 70
     0
102
RTVSPost2010Prop53
 90
        2
102
RTVSPost2010PropOp53
 70
     1
102
RTVSPost2010Prop54
  1
strokes_ogs.tif
102
RTVSPost2010PropOp54
 70
     1
102
RTVSPost2010Prop55
280
     0
102
RTVSPost2010PropOp55
 70
     1
102
RTVSPost2010Prop56
140
1.0
102
RTVSPost2010PropOp56
 70
     1
102
RTVSPost2010Prop57
140
1.0
102
RTVSPost2010PropOp57
 70
     1
102
RTVSPropertyOp0
 70
     1
102
RTVSPropertyOp1
 70
     1
102
RTVSPropertyOp2
 70
     1
102
RTVSPropertyOp3
 70
     1
102
RTVSPropertyOp4
 70
     1
102
RTVSPropertyOp5
 70
     1
102
RTVSPropertyOp6
 70
     1
102
RTVSPropertyOp7
 70
     1
102
RTVSPropertyOp8
 70
     1
102
RTVSPropertyOp9
 70
     1
102
RTVSPropertyOp10
 70
     1
102
RTVSPropertyOp11
 70
     1
102
RTVSPropertyOp12
 70
     1
102
RTVSPropertyOp13
 70
     1
102
RTVSPropertyOp14
 70
     1
102
RTVSPropertyOp15
 70
     1
102
RTVSPropertyOp16
 70
     1
102
RTVSPropertyOp17
 70
     1
102
RTVSPropertyOp18
 70
     1
102
RTVSPropertyOp19
 70
     1
102
RTVSPropertyOp20
 70
     1
102
RTVSPropertyOp21
 70
     1
102
RTVSPropertyOp22
 70
     1
102
RTVSPropertyOp23
 70
     1
102
RTVSPropertyOp24
 70
     1
102
RTVSPropertyOp25
 70
     1
102
RTVSPropertyOp26
 70
     1
102
RTVSPropertyOp27
 70
     1
102
RTVSPropertyOp28
 70
     1
102
RTVSPropertyOp29
 70
     1
102
RTVSPropertyOp30
 70
     1
102
RTVSPropertyOp31
 70
     1
102
RTVSPropertyOp32
 70
     1
102
RTVSPropertyOp33
 70
     1
102
RTVSPropertyOp34
 70
     1
102
RTVSPropertyOp35
 70
     1
102
RTVSPropertyOp36
 70
     1
102
RTVSPropertyOp37
 70
     1
102
RTVSPropertyOp38
 70
     1
102
RTVSPropertyOp39
 70
     1
102
RTVSPropertyOp40
 70
     1
102
RTVSPropertyOp41
 70
     1
102
RTVSPropertyOp42
 70
     1
102
RTVSPropertyOp43
 70
     1
102
RTVSPropertyOp44
 70
     1
102
RTVSPropertyOp45
 70
     1
102
RTVSPropertyOp46
 70
     1
102
RTVSPropertyOp47
 70
     1
102
RTVSPropertyOp48
 70
     1
102
RTVSPropertyOp49
 70
     1
102
RTVSPropertyOp50
 70
     1
102
RTVSPropertyOp51
 70
     0
102
RTVSPropertyOp52
 70
     0
102
RTVSPropertyOp53
 70
     1
102
RTVSPropertyOp54
 70
     1
102
RTVSPropertyOp55
 70
     1
102
RTVSPropertyOp56
 70
     1
102
RTVSPropertyOp57
 70
     1
102
RTVSPropertyOp58
 70
     1
102
RTVSPropertyOp59
 70
     1
102
RTVSPropertyOp60
 70
     1
102
RTVSPropertyOp61
 70
     1
102
RTVSPropertyOp62
 70
     1
  0
XRECORD
  5
66C
102
{ACAD_REACTORS
330
66B
102
}
330
66B
100
AcDbXrecord
280
     1
102
RTVSPost2010Prop28
280
     0
102
RTVSPost2010PropOp28
 70
     0
102
RTVSPost2010Prop29
280
     1
102
RTVSPost2010PropOp29
 70
     0
102
RTVSPost2010Prop30
280
     1
102
RTVSPost2010PropOp30
 70
     0
102
RTVSPost2010Prop31
280
     0
102
RTVSPost2010PropOp31
 70
     0
102
RTVSPost2010Prop32
280
     0
102
RTVSPost2010PropOp32
 70
     0
102
RTVSPost2010Prop33
280
     0
102
RTVSPost2010PropOp33
 70
     0
102
RTVSPost2010Prop34
280
     0
102
RTVSPost2010PropOp34
 70
     0
102
RTVSPost2010Prop35
280
     0
102
RTVSPost2010PropOp35
 70
     0
102
RTVSPost2010Prop36
280
     0
102
RTVSPost2010PropOp36
 70
     0
102
RTVSPost2010Prop37
 90
       50
102
RTVSPost2010PropOp37
 70
     0
102
RTVSPost2010Prop38
140
0.0
102
RTVSPost2010PropOp38
 70
     0
102
RTVSPost2010Prop39
140
1.0
102
RTVSPost2010PropOp39
 70
     0
102
RTVSPost2010Prop40
 90
        0
102
RTVSPost2010PropOp40
 70
     0
102
RTVSPost2010Prop41ColorIndex
 90
       18
102
RTVSPost2010Prop41ColorRGB
 90
        0
102
RTVSPost2010PropOp41
 70
     0
102
RTVSPost2010Prop42
 90
       50
102
RTVSPost2010PropOp42
 70
     0
102
RTVSPost2010Prop43
 90
        3
102
RTVSPost2010PropOp43
 70
     0
102
RTVSPost2010Prop44ColorIndex
 90
        5
102
RTVSPost2010Prop44ColorRGB
 90
      255
102
RTVSPost2010PropOp44
 70
     0
102
RTVSPost2010Prop45
280
     0
102
RTVSPost2010PropOp45
 70
     0
102
RTVSPost2010Prop46
 90
       50
102
RTVSPost2010PropOp46
 70
     0
102
RTVSPost2010Prop47
 90
       50
102
RTVSPost2010PropOp47
 70
     0
102
RTVSPost2010Prop48
 90
       50
102
RTVSPost2010PropOp48
 70
     0
102
RTVSPost2010Prop49
280
     0
102
RTVSPost2010PropOp49
 70
     0
102
RTVSPost2010Prop50
 90
       50
102
RTVSPost2010PropOp50
 70
     0
102
RTVSPost2010Prop51ColorIndex
 90
      256
102
RTVSPost2010Prop51ColorRGB
 90
-16777216
102
RTVSPost2010PropOp51
 70
     0
102
RTVSPost2010Prop52
140
1.0
102
RTVSPost2010PropOp52
 70
     0
102
RTVSPost2010Prop53
 90
        2
102
RTVSPost2010PropOp53
 70
     0
102
RTVSPost2010Prop54
  1
strokes_ogs.tif
102
RTVSPost2010PropOp54
 70
     0
102
RTVSPost2010Prop55
280
     0
102
RTVSPost2010PropOp55
 70
     0
102
RTVSPost2010Prop56
140
1.0
102
RTVSPost2010PropOp56
 70
     0
102
RTVSPost2010Prop57
140
1.0
102
RTVSPost2010PropOp57
 70
     0
102
RTVSPropertyOp0
 70
     0
102
RTVSPropertyOp1
 70
     0
102
RTVSPropertyOp2
 70
     0
102
RTVSPropertyOp3
 70
     0
102
RTVSPropertyOp4
 70
     0
102
RTVSPropertyOp5
 70
     0
102
RTVSPropertyOp6
 70
     0
102
RTVSPropertyOp7
 70
     0
102
RTVSPropertyOp8
 70
     0
102
RTVSPropertyOp9
 70
     0
102
RTVSPropertyOp10
 70
     0
102
RTVSPropertyOp11
 70
     0
102
RTVSPropertyOp12
 70
     0
102
RTVSPropertyOp13
 70
     0
102
RTVSPropertyOp14
 70
     2
102
RTVSPropertyOp15
 70
     0
102
RTVSPropertyOp16
 70
     0
102
RTVSPropertyOp17
 70
     0
102
RTVSPropertyOp18
 70
     0
102
RTVSPropertyOp19
 70
     0
102
RTVSPropertyOp20
 70
     0
102
RTVSPropertyOp21
 70
     0
102
RTVSPropertyOp22
 70
     0
102
RTVSPropertyOp23
 70
     0
102
RTVSPropertyOp24
 70
     0
102
RTVSPropertyOp25
 70
     0
102
RTVSPropertyOp26
 70
     0
102
RTVSPropertyOp27
 70
     0
102
RTVSPropertyOp28
 70
     0
102
RTVSPropertyOp29
 70
     0
102
RTVSPropertyOp30
 70
     0
102
RTVSPropertyOp31
 70
     0
102
RTVSPropertyOp32
 70
     0
102
RTVSPropertyOp33
 70
     0
102
RTVSPropertyOp34
 70
     0
102
RTVSPropertyOp35
 70
     0
102
RTVSPropertyOp36
 70
     0
102
RTVSPropertyOp37
 70
     0
102
RTVSPropertyOp38
 70
     0
102
RTVSPropertyOp39
 70
     0
102
RTVSPropertyOp40
 70
     0
102
RTVSPropertyOp41
 70
     0
102
RTVSPropertyOp42
 70
     0
102
RTVSPropertyOp43
 70
     0
102
RTVSPropertyOp44
 70
     0
102
RTVSPropertyOp45
 70
     0
102
RTVSPropertyOp46
 70
     0
102
RTVSPropertyOp47
 70
     0
102
RTVSPropertyOp48
 70
     0
102
RTVSPropertyOp49
 70
     0
102
RTVSPropertyOp50
 70
     0
102
RTVSPropertyOp51
 70
     0
102
RTVSPropertyOp52
 70
     0
102
RTVSPropertyOp53
 70
     0
102
RTVSPropertyOp54
 70
     0
102
RTVSPropertyOp55
 70
     0
102
RTVSPropertyOp56
 70
     0
102
RTVSPropertyOp57
 70
     0
102
RTVSPropertyOp58
 70
     1
102
RTVSPropertyOp59
 70
     1
102
RTVSPropertyOp60
 70
     1
102
RTVSPropertyOp61
 70
     1
102
RTVSPropertyOp62
 70
     1
  0
XRECORD
  5
666
102
{ACAD_REACTORS
330
665
102
}
330
665
100
AcDbXrecord
280
     1
102
RTVSPost2010Prop28
280
     0
102
RTVSPost2010PropOp28
 70
     1
102
RTVSPost2010Prop29
280
     1
102
RTVSPost2010PropOp29
 70
     1
102
RTVSPost2010Prop30
280
     1
102
RTVSPost2010PropOp30
 70
     1
102
RTVSPost2010Prop31
280
     0
102
RTVSPost2010PropOp31
 70
     1
102
RTVSPost2010Prop32
280
     0
102
RTVSPost2010PropOp32
 70
     1
102
RTVSPost2010Prop33
280
     0
102
RTVSPost2010PropOp33
 70
     1
102
RTVSPost2010Prop34
280
     0
102
RTVSPost2010PropOp34
 70
     1
102
RTVSPost2010Prop35
280
     0
102
RTVSPost2010PropOp35
 70
     1
102
RTVSPost2010Prop36
280
     0
102
RTVSPost2010PropOp36
 70
     1
102
RTVSPost2010Prop37
 90
       50
102
RTVSPost2010PropOp37
 70
     1
102
RTVSPost2010Prop38
140
0.0
102
RTVSPost2010PropOp38
 70
     1
102
RTVSPost2010Prop39
140
1.0
102
RTVSPost2010PropOp39
 70
     1
102
RTVSPost2010Prop40
 90
        0
102
RTVSPost2010PropOp40
 70
     1
102
RTVSPost2010Prop41ColorIndex
 90
       18
102
RTVSPost2010Prop41ColorRGB
 90
        0
102
RTVSPost2010PropOp41
 70
     1
102
RTVSPost2010Prop42
 90
       50
102
RTVSPost2010PropOp42
 70
     1
102
RTVSPost2010Prop43
 90
        3
102
RTVSPost2010PropOp43
 70
     1
102
RTVSPost2010Prop44ColorIndex
 90
        5
102
RTVSPost2010Prop44ColorRGB
 90
      255
102
RTVSPost2010PropOp44
 70
     1
102
RTVSPost2010Prop45
280
     0
102
RTVSPost2010PropOp45
 70
     1
102
RTVSPost2010Prop46
 90
       50
102
RTVSPost2010PropOp46
 70
     1
102
RTVSPost2010Prop47
 90
       50
102
RTVSPost2010PropOp47
 70
     1
102
RTVSPost2010Prop48
 90
       50
102
RTVSPost2010PropOp48
 70
     1
102
RTVSPost2010Prop49
280
     0
102
RTVSPost2010PropOp49
 70
     1
102
RTVSPost2010Prop50
 90
       50
102
RTVSPost2010PropOp50
 70
     1
102
RTVSPost2010Prop51ColorIndex
 90
      256
102
RTVSPost2010Prop51ColorRGB
 90
-16777216
102
RTVSPost2010PropOp51
 70
     0
102
RTVSPost2010Prop52
140
1.0
102
RTVSPost2010PropOp52
 70
     0
102
RTVSPost2010Prop53
 90
        2
102
RTVSPost2010PropOp53
 70
     1
102
RTVSPost2010Prop54
  1
strokes_ogs.tif
102
RTVSPost2010PropOp54
 70
     1
102
RTVSPost2010Prop55
280
     0
102
RTVSPost2010PropOp55
 70
     1
102
RTVSPost2010Prop56
140
1.0
102
RTVSPost2010PropOp56
 70
     1
102
RTVSPost2010Prop57
140
1.0
102
RTVSPost2010PropOp57
 70
     1
102
RTVSPropertyOp0
 70
     1
102
RTVSPropertyOp1
 70
     1
102
RTVSPropertyOp2
 70
     1
102
RTVSPropertyOp3
 70
     1
102
RTVSPropertyOp4
 70
     1
102
RTVSPropertyOp5
 70
     1
102
RTVSPropertyOp6
 70
     1
102
RTVSPropertyOp7
 70
     1
102
RTVSPropertyOp8
 70
     1
102
RTVSPropertyOp9
 70
     1
102
RTVSPropertyOp10
 70
     1
102
RTVSPropertyOp11
 70
     1
102
RTVSPropertyOp12
 70
     1
102
RTVSPropertyOp13
 70
     1
102
RTVSPropertyOp14
 70
     1
102
RTVSPropertyOp15
 70
     1
102
RTVSPropertyOp16
 70
     1
102
RTVSPropertyOp17
 70
     1
102
RTVSPropertyOp18
 70
     1
102
RTVSPropertyOp19
 70
     1
102
RTVSPropertyOp20
 70
     1
102
RTVSPropertyOp21
 70
     1
102
RTVSPropertyOp22
 70
     1
102
RTVSPropertyOp23
 70
     1
102
RTVSPropertyOp24
 70
     1
102
RTVSPropertyOp25
 70
     1
102
RTVSPropertyOp26
 70
     1
102
RTVSPropertyOp27
 70
     1
102
RTVSPropertyOp28
 70
     1
102
RTVSPropertyOp29
 70
     1
102
RTVSPropertyOp30
 70
     1
102
RTVSPropertyOp31
 70
     1
102
RTVSPropertyOp32
 70
     1
102
RTVSPropertyOp33
 70
     1
102
RTVSPropertyOp34
 70
     1
102
RTVSPropertyOp35
 70
     1
102
RTVSPropertyOp36
 70
     1
102
RTVSPropertyOp37
 70
     1
102
RTVSPropertyOp38
 70
     1
102
RTVSPropertyOp39
 70
     1
102
RTVSPropertyOp40
 70
     1
102
RTVSPropertyOp41
 70
     1
102
RTVSPropertyOp42
 70
     1
102
RTVSPropertyOp43
 70
     1
102
RTVSPropertyOp44
 70
     1
102
RTVSPropertyOp45
 70
     1
102
RTVSPropertyOp46
 70
     1
102
RTVSPropertyOp47
 70
     1
102
RTVSPropertyOp48
 70
     1
102
RTVSPropertyOp49
 70
     1
102
RTVSPropertyOp50
 70
     1
102
RTVSPropertyOp51
 70
     0
102
RTVSPropertyOp52
 70
     0
102
RTVSPropertyOp53
 70
     1
102
RTVSPropertyOp54
 70
     1
102
RTVSPropertyOp55
 70
     1
102
RTVSPropertyOp56
 70
     1
102
RTVSPropertyOp57
 70
     1
102
RTVSPropertyOp58
 70
     1
102
RTVSPropertyOp59
 70
     1
102
RTVSPropertyOp60
 70
     1
102
RTVSPropertyOp61
 70
     1
102
RTVSPropertyOp62
 70
     1
  0
XRECORD
  5
66E
102
{ACAD_REACTORS
330
66D
102
}
330
66D
100
AcDbXrecord
280
     1
102
RTVSPost2010Prop28
280
     0
102
RTVSPost2010PropOp28
 70
     0
102
RTVSPost2010Prop29
280
     1
102
RTVSPost2010PropOp29
 70
     0
102
RTVSPost2010Prop30
280
     1
102
RTVSPost2010PropOp30
 70
     0
102
RTVSPost2010Prop31
280
     0
102
RTVSPost2010PropOp31
 70
     0
102
RTVSPost2010Prop32
280
     0
102
RTVSPost2010PropOp32
 70
     0
102
RTVSPost2010Prop33
280
     0
102
RTVSPost2010PropOp33
 70
     0
102
RTVSPost2010Prop34
280
     0
102
RTVSPost2010PropOp34
 70
     0
102
RTVSPost2010Prop35
280
     0
102
RTVSPost2010PropOp35
 70
     0
102
RTVSPost2010Prop36
280
     0
102
RTVSPost2010PropOp36
 70
     0
102
RTVSPost2010Prop37
 90
       50
102
RTVSPost2010PropOp37
 70
     0
102
RTVSPost2010Prop38
140
0.0
102
RTVSPost2010PropOp38
 70
     0
102
RTVSPost2010Prop39
140
1.0
102
RTVSPost2010PropOp39
 70
     0
102
RTVSPost2010Prop40
 90
        0
102
RTVSPost2010PropOp40
 70
     0
102
RTVSPost2010Prop41ColorIndex
 90
       18
102
RTVSPost2010Prop41ColorRGB
 90
        0
102
RTVSPost2010PropOp41
 70
     0
102
RTVSPost2010Prop42
 90
       50
102
RTVSPost2010PropOp42
 70
     0
102
RTVSPost2010Prop43
 90
        3
102
RTVSPost2010PropOp43
 70
     0
102
RTVSPost2010Prop44ColorIndex
 90
        5
102
RTVSPost2010Prop44ColorRGB
 90
      255
102
RTVSPost2010PropOp44
 70
     0
102
RTVSPost2010Prop45
280
     0
102
RTVSPost2010PropOp45
 70
     0
102
RTVSPost2010Prop46
 90
       50
102
RTVSPost2010PropOp46
 70
     0
102
RTVSPost2010Prop47
 90
       50
102
RTVSPost2010PropOp47
 70
     0
102
RTVSPost2010Prop48
 90
       50
102
RTVSPost2010PropOp48
 70
     0
102
RTVSPost2010Prop49
280
     0
102
RTVSPost2010PropOp49
 70
     0
102
RTVSPost2010Prop50
 90
       50
102
RTVSPost2010PropOp50
 70
     0
102
RTVSPost2010Prop51ColorIndex
 90
      256
102
RTVSPost2010Prop51ColorRGB
 90
-16777216
102
RTVSPost2010PropOp51
 70
     0
102
RTVSPost2010Prop52
140
1.0
102
RTVSPost2010PropOp52
 70
     0
102
RTVSPost2010Prop53
 90
        2
102
RTVSPost2010PropOp53
 70
     0
102
RTVSPost2010Prop54
  1
strokes_ogs.tif
102
RTVSPost2010PropOp54
 70
     0
102
RTVSPost2010Prop55
280
     0
102
RTVSPost2010PropOp55
 70
     0
102
RTVSPost2010Prop56
140
1.0
102
RTVSPost2010PropOp56
 70
     0
102
RTVSPost2010Prop57
140
1.0
102
RTVSPost2010PropOp57
 70
     0
102
RTVSPropertyOp0
 70
     0
102
RTVSPropertyOp1
 70
     0
102
RTVSPropertyOp2
 70
     0
102
RTVSPropertyOp3
 70
     0
102
RTVSPropertyOp4
 70
     0
102
RTVSPropertyOp5
 70
     0
102
RTVSPropertyOp6
 70
     0
102
RTVSPropertyOp7
 70
     0
102
RTVSPropertyOp8
 70
     0
102
RTVSPropertyOp9
 70
     0
102
RTVSPropertyOp10
 70
     0
102
RTVSPropertyOp11
 70
     0
102
RTVSPropertyOp12
 70
     0
102
RTVSPropertyOp13
 70
     0
102
RTVSPropertyOp14
 70
     2
102
RTVSPropertyOp15
 70
     0
102
RTVSPropertyOp16
 70
     0
102
RTVSPropertyOp17
 70
     0
102
RTVSPropertyOp18
 70
     0
102
RTVSPropertyOp19
 70
     0
102
RTVSPropertyOp20
 70
     0
102
RTVSPropertyOp21
 70
     0
102
RTVSPropertyOp22
 70
     0
102
RTVSPropertyOp23
 70
     0
102
RTVSPropertyOp24
 70
     0
102
RTVSPropertyOp25
 70
     0
102
RTVSPropertyOp26
 70
     0
102
RTVSPropertyOp27
 70
     0
102
RTVSPropertyOp28
 70
     0
102
RTVSPropertyOp29
 70
     0
102
RTVSPropertyOp30
 70
     0
102
RTVSPropertyOp31
 70
     0
102
RTVSPropertyOp32
 70
     0
102
RTVSPropertyOp33
 70
     0
102
RTVSPropertyOp34
 70
     0
102
RTVSPropertyOp35
 70
     0
102
RTVSPropertyOp36
 70
     0
102
RTVSPropertyOp37
 70
     0
102
RTVSPropertyOp38
 70
     0
102
RTVSPropertyOp39
 70
     0
102
RTVSPropertyOp40
 70
     0
102
RTVSPropertyOp41
 70
     0
102
RTVSPropertyOp42
 70
     0
102
RTVSPropertyOp43
 70
     0
102
RTVSPropertyOp44
 70
     0
102
RTVSPropertyOp45
 70
     0
102
RTVSPropertyOp46
 70
     0
102
RTVSPropertyOp47
 70
     0
102
RTVSPropertyOp48
 70
     0
102
RTVSPropertyOp49
 70
     0
102
RTVSPropertyOp50
 70
     0
102
RTVSPropertyOp51
 70
     0
102
RTVSPropertyOp52
 70
     0
102
RTVSPropertyOp53
 70
     0
102
RTVSPropertyOp54
 70
     0
102
RTVSPropertyOp55
 70
     0
102
RTVSPropertyOp56
 70
     0
102
RTVSPropertyOp57
 70
     0
102
RTVSPropertyOp58
 70
     1
102
RTVSPropertyOp59
 70
     1
102
RTVSPropertyOp60
 70
     1
102
RTVSPropertyOp61
 70
     1
102
RTVSPropertyOp62
 70
     1
  0
XRECORD
  5
65C
102
{ACAD_REACTORS
330
65B
102
}
330
65B
100
AcDbXrecord
280
     1
102
RTVSPost2010Prop28
280
     0
102
RTVSPost2010PropOp28
 70
     1
102
RTVSPost2010Prop29
280
     1
102
RTVSPost2010PropOp29
 70
     1
102
RTVSPost2010Prop30
280
     1
102
RTVSPost2010PropOp30
 70
     1
102
RTVSPost2010Prop31
280
     0
102
RTVSPost2010PropOp31
 70
     1
102
RTVSPost2010Prop32
280
     0
102
RTVSPost2010PropOp32
 70
     1
102
RTVSPost2010Prop33
280
     0
102
RTVSPost2010PropOp33
 70
     1
102
RTVSPost2010Prop34
280
     0
102
RTVSPost2010PropOp34
 70
     1
102
RTVSPost2010Prop35
280
     0
102
RTVSPost2010PropOp35
 70
     1
102
RTVSPost2010Prop36
280
     0
102
RTVSPost2010PropOp36
 70
     1
102
RTVSPost2010Prop37
 90
       50
102
RTVSPost2010PropOp37
 70
     1
102
RTVSPost2010Prop38
140
0.0
102
RTVSPost2010PropOp38
 70
     1
102
RTVSPost2010Prop39
140
1.0
102
RTVSPost2010PropOp39
 70
     1
102
RTVSPost2010Prop40
 90
        0
102
RTVSPost2010PropOp40
 70
     1
102
RTVSPost2010Prop41ColorIndex
 90
       18
102
RTVSPost2010Prop41ColorRGB
 90
        0
102
RTVSPost2010PropOp41
 70
     1
102
RTVSPost2010Prop42
 90
       50
102
RTVSPost2010PropOp42
 70
     1
102
RTVSPost2010Prop43
 90
        3
102
RTVSPost2010PropOp43
 70
     1
102
RTVSPost2010Prop44ColorIndex
 90
        5
102
RTVSPost2010Prop44ColorRGB
 90
      255
102
RTVSPost2010PropOp44
 70
     1
102
RTVSPost2010Prop45
280
     0
102
RTVSPost2010PropOp45
 70
     1
102
RTVSPost2010Prop46
 90
       50
102
RTVSPost2010PropOp46
 70
     1
102
RTVSPost2010Prop47
 90
       50
102
RTVSPost2010PropOp47
 70
     1
102
RTVSPost2010Prop48
 90
       50
102
RTVSPost2010PropOp48
 70
     1
102
RTVSPost2010Prop49
280
     0
102
RTVSPost2010PropOp49
 70
     1
102
RTVSPost2010Prop50
 90
       50
102
RTVSPost2010PropOp50
 70
     1
102
RTVSPost2010Prop51ColorIndex
 90
      256
102
RTVSPost2010Prop51ColorRGB
 90
-16777216
102
RTVSPost2010PropOp51
 70
     0
102
RTVSPost2010Prop52
140
1.0
102
RTVSPost2010PropOp52
 70
     0
102
RTVSPost2010Prop53
 90
        2
102
RTVSPost2010PropOp53
 70
     1
102
RTVSPost2010Prop54
  1
strokes_ogs.tif
102
RTVSPost2010PropOp54
 70
     1
102
RTVSPost2010Prop55
280
     0
102
RTVSPost2010PropOp55
 70
     1
102
RTVSPost2010Prop56
140
1.0
102
RTVSPost2010PropOp56
 70
     1
102
RTVSPost2010Prop57
140
1.0
102
RTVSPost2010PropOp57
 70
     1
102
RTVSPropertyOp0
 70
     1
102
RTVSPropertyOp1
 70
     1
102
RTVSPropertyOp2
 70
     1
102
RTVSPropertyOp3
 70
     1
102
RTVSPropertyOp4
 70
     1
102
RTVSPropertyOp5
 70
     1
102
RTVSPropertyOp6
 70
     1
102
RTVSPropertyOp7
 70
     1
102
RTVSPropertyOp8
 70
     1
102
RTVSPropertyOp9
 70
     1
102
RTVSPropertyOp10
 70
     1
102
RTVSPropertyOp11
 70
     1
102
RTVSPropertyOp12
 70
     1
102
RTVSPropertyOp13
 70
     1
102
RTVSPropertyOp14
 70
     1
102
RTVSPropertyOp15
 70
     1
102
RTVSPropertyOp16
 70
     1
102
RTVSPropertyOp17
 70
     1
102
RTVSPropertyOp18
 70
     1
102
RTVSPropertyOp19
 70
     1
102
RTVSPropertyOp20
 70
     1
102
RTVSPropertyOp21
 70
     1
102
RTVSPropertyOp22
 70
     1
102
RTVSPropertyOp23
 70
     1
102
RTVSPropertyOp24
 70
     1
102
RTVSPropertyOp25
 70
     1
102
RTVSPropertyOp26
 70
     1
102
RTVSPropertyOp27
 70
     1
102
RTVSPropertyOp28
 70
     1
102
RTVSPropertyOp29
 70
     1
102
RTVSPropertyOp30
 70
     1
102
RTVSPropertyOp31
 70
     1
102
RTVSPropertyOp32
 70
     1
102
RTVSPropertyOp33
 70
     1
102
RTVSPropertyOp34
 70
     1
102
RTVSPropertyOp35
 70
     1
102
RTVSPropertyOp36
 70
     1
102
RTVSPropertyOp37
 70
     1
102
RTVSPropertyOp38
 70
     1
102
RTVSPropertyOp39
 70
     1
102
RTVSPropertyOp40
 70
     1
102
RTVSPropertyOp41
 70
     1
102
RTVSPropertyOp42
 70
     1
102
RTVSPropertyOp43
 70
     1
102
RTVSPropertyOp44
 70
     1
102
RTVSPropertyOp45
 70
     1
102
RTVSPropertyOp46
 70
     1
102
RTVSPropertyOp47
 70
     1
102
RTVSPropertyOp48
 70
     1
102
RTVSPropertyOp49
 70
     1
102
RTVSPropertyOp50
 70
     1
102
RTVSPropertyOp51
 70
     0
102
RTVSPropertyOp52
 70
     0
102
RTVSPropertyOp53
 70
     1
102
RTVSPropertyOp54
 70
     1
102
RTVSPropertyOp55
 70
     1
102
RTVSPropertyOp56
 70
     1
102
RTVSPropertyOp57
 70
     1
102
RTVSPropertyOp58
 70
     1
102
RTVSPropertyOp59
 70
     1
102
RTVSPropertyOp60
 70
     1
102
RTVSPropertyOp61
 70
     1
102
RTVSPropertyOp62
 70
     1
  0
XRECORD
  5
67A
102
{ACAD_REACTORS
330
679
102
}
330
679
100
AcDbXrecord
280
     1
102
RTVSPost2010Prop28
280
     0
102
RTVSPost2010PropOp28
 70
     1
102
RTVSPost2010Prop29
280
     1
102
RTVSPost2010PropOp29
 70
     1
102
RTVSPost2010Prop30
280
     1
102
RTVSPost2010PropOp30
 70
     1
102
RTVSPost2010Prop31
280
     0
102
RTVSPost2010PropOp31
 70
     1
102
RTVSPost2010Prop32
280
     0
102
RTVSPost2010PropOp32
 70
     1
102
RTVSPost2010Prop33
280
     0
102
RTVSPost2010PropOp33
 70
     1
102
RTVSPost2010Prop34
280
     0
102
RTVSPost2010PropOp34
 70
     1
102
RTVSPost2010Prop35
280
     0
102
RTVSPost2010PropOp35
 70
     1
102
RTVSPost2010Prop36
280
     0
102
RTVSPost2010PropOp36
 70
     1
102
RTVSPost2010Prop37
 90
       50
102
RTVSPost2010PropOp37
 70
     1
102
RTVSPost2010Prop38
140
0.0
102
RTVSPost2010PropOp38
 70
     1
102
RTVSPost2010Prop39
140
1.0
102
RTVSPost2010PropOp39
 70
     1
102
RTVSPost2010Prop40
 90
        0
102
RTVSPost2010PropOp40
 70
     1
102
RTVSPost2010Prop41ColorIndex
 90
       18
102
RTVSPost2010Prop41ColorRGB
 90
        0
102
RTVSPost2010PropOp41
 70
     1
102
RTVSPost2010Prop42
 90
       50
102
RTVSPost2010PropOp42
 70
     1
102
RTVSPost2010Prop43
 90
        3
102
RTVSPost2010PropOp43
 70
     1
102
RTVSPost2010Prop44ColorIndex
 90
        5
102
RTVSPost2010Prop44ColorRGB
 90
      255
102
RTVSPost2010PropOp44
 70
     1
102
RTVSPost2010Prop45
280
     0
102
RTVSPost2010PropOp45
 70
     1
102
RTVSPost2010Prop46
 90
       50
102
RTVSPost2010PropOp46
 70
     1
102
RTVSPost2010Prop47
 90
       50
102
RTVSPost2010PropOp47
 70
     1
102
RTVSPost2010Prop48
 90
       50
102
RTVSPost2010PropOp48
 70
     1
102
RTVSPost2010Prop49
280
     0
102
RTVSPost2010PropOp49
 70
     1
102
RTVSPost2010Prop50
 90
       50
102
RTVSPost2010PropOp50
 70
     1
102
RTVSPost2010Prop51ColorIndex
 90
      256
102
RTVSPost2010Prop51ColorRGB
 90
-16777216
102
RTVSPost2010PropOp51
 70
     0
102
RTVSPost2010Prop52
140
1.0
102
RTVSPost2010PropOp52
 70
     0
102
RTVSPost2010Prop53
 90
        2
102
RTVSPost2010PropOp53
 70
     1
102
RTVSPost2010Prop54
  1
strokes_ogs.tif
102
RTVSPost2010PropOp54
 70
     1
102
RTVSPost2010Prop55
280
     0
102
RTVSPost2010PropOp55
 70
     1
102
RTVSPost2010Prop56
140
1.0
102
RTVSPost2010PropOp56
 70
     1
102
RTVSPost2010Prop57
140
1.0
102
RTVSPost2010PropOp57
 70
     1
102
RTVSPropertyOp0
 70
     1
102
RTVSPropertyOp1
 70
     1
102
RTVSPropertyOp2
 70
     1
102
RTVSPropertyOp3
 70
     1
102
RTVSPropertyOp4
 70
     1
102
RTVSPropertyOp5
 70
     1
102
RTVSPropertyOp6
 70
     1
102
RTVSPropertyOp7
 70
     1
102
RTVSPropertyOp8
 70
     1
102
RTVSPropertyOp9
 70
     1
102
RTVSPropertyOp10
 70
     1
102
RTVSPropertyOp11
 70
     1
102
RTVSPropertyOp12
 70
     1
102
RTVSPropertyOp13
 70
     1
102
RTVSPropertyOp14
 70
     1
102
RTVSPropertyOp15
 70
     1
102
RTVSPropertyOp16
 70
     1
102
RTVSPropertyOp17
 70
     1
102
RTVSPropertyOp18
 70
     1
102
RTVSPropertyOp19
 70
     1
102
RTVSPropertyOp20
 70
     1
102
RTVSPropertyOp21
 70
     1
102
RTVSPropertyOp22
 70
     1
102
RTVSPropertyOp23
 70
     1
102
RTVSPropertyOp24
 70
     1
102
RTVSPropertyOp25
 70
     1
102
RTVSPropertyOp26
 70
     1
102
RTVSPropertyOp27
 70
     1
102
RTVSPropertyOp28
 70
     1
102
RTVSPropertyOp29
 70
     1
102
RTVSPropertyOp30
 70
     1
102
RTVSPropertyOp31
 70
     1
102
RTVSPropertyOp32
 70
     1
102
RTVSPropertyOp33
 70
     1
102
RTVSPropertyOp34
 70
     1
102
RTVSPropertyOp35
 70
     1
102
RTVSPropertyOp36
 70
     1
102
RTVSPropertyOp37
 70
     1
102
RTVSPropertyOp38
 70
     1
102
RTVSPropertyOp39
 70
     1
102
RTVSPropertyOp40
 70
     1
102
RTVSPropertyOp41
 70
     1
102
RTVSPropertyOp42
 70
     1
102
RTVSPropertyOp43
 70
     1
102
RTVSPropertyOp44
 70
     1
102
RTVSPropertyOp45
 70
     1
102
RTVSPropertyOp46
 70
     1
102
RTVSPropertyOp47
 70
     1
102
RTVSPropertyOp48
 70
     1
102
RTVSPropertyOp49
 70
     1
102
RTVSPropertyOp50
 70
     1
102
RTVSPropertyOp51
 70
     0
102
RTVSPropertyOp52
 70
     0
102
RTVSPropertyOp53
 70
     1
102
RTVSPropertyOp54
 70
     1
102
RTVSPropertyOp55
 70
     1
102
RTVSPropertyOp56
 70
     1
102
RTVSPropertyOp57
 70
     1
102
RTVSPropertyOp58
 70
     1
102
RTVSPropertyOp59
 70
     1
102
RTVSPropertyOp60
 70
     1
102
RTVSPropertyOp61
 70
     1
102
RTVSPropertyOp62
 70
     1
  0
XRECORD
  5
678
102
{ACAD_REACTORS
330
677
102
}
330
677
100
AcDbXrecord
280
     1
102
RTVSPost2010Prop28
280
     0
102
RTVSPost2010PropOp28
 70
     1
102
RTVSPost2010Prop29
280
     1
102
RTVSPost2010PropOp29
 70
     1
102
RTVSPost2010Prop30
280
     1
102
RTVSPost2010PropOp30
 70
     1
102
RTVSPost2010Prop31
280
     0
102
RTVSPost2010PropOp31
 70
     1
102
RTVSPost2010Prop32
280
     0
102
RTVSPost2010PropOp32
 70
     1
102
RTVSPost2010Prop33
280
     0
102
RTVSPost2010PropOp33
 70
     1
102
RTVSPost2010Prop34
280
     0
102
RTVSPost2010PropOp34
 70
     1
102
RTVSPost2010Prop35
280
     0
102
RTVSPost2010PropOp35
 70
     1
102
RTVSPost2010Prop36
280
     0
102
RTVSPost2010PropOp36
 70
     1
102
RTVSPost2010Prop37
 90
       50
102
RTVSPost2010PropOp37
 70
     1
102
RTVSPost2010Prop38
140
0.0
102
RTVSPost2010PropOp38
 70
     1
102
RTVSPost2010Prop39
140
1.0
102
RTVSPost2010PropOp39
 70
     1
102
RTVSPost2010Prop40
 90
        0
102
RTVSPost2010PropOp40
 70
     1
102
RTVSPost2010Prop41ColorIndex
 90
       18
102
RTVSPost2010Prop41ColorRGB
 90
        0
102
RTVSPost2010PropOp41
 70
     1
102
RTVSPost2010Prop42
 90
       50
102
RTVSPost2010PropOp42
 70
     1
102
RTVSPost2010Prop43
 90
        3
102
RTVSPost2010PropOp43
 70
     1
102
RTVSPost2010Prop44ColorIndex
 90
        5
102
RTVSPost2010Prop44ColorRGB
 90
      255
102
RTVSPost2010PropOp44
 70
     1
102
RTVSPost2010Prop45
280
     0
102
RTVSPost2010PropOp45
 70
     1
102
RTVSPost2010Prop46
 90
       50
102
RTVSPost2010PropOp46
 70
     1
102
RTVSPost2010Prop47
 90
       50
102
RTVSPost2010PropOp47
 70
     1
102
RTVSPost2010Prop48
 90
       50
102
RTVSPost2010PropOp48
 70
     1
102
RTVSPost2010Prop49
280
     0
102
RTVSPost2010PropOp49
 70
     1
102
RTVSPost2010Prop50
 90
       50
102
RTVSPost2010PropOp50
 70
     1
102
RTVSPost2010Prop51ColorIndex
 90
      256
102
RTVSPost2010Prop51ColorRGB
 90
-16777216
102
RTVSPost2010PropOp51
 70
     0
102
RTVSPost2010Prop52
140
1.0
102
RTVSPost2010PropOp52
 70
     0
102
RTVSPost2010Prop53
 90
        2
102
RTVSPost2010PropOp53
 70
     1
102
RTVSPost2010Prop54
  1
strokes_ogs.tif
102
RTVSPost2010PropOp54
 70
     1
102
RTVSPost2010Prop55
280
     0
102
RTVSPost2010PropOp55
 70
     1
102
RTVSPost2010Prop56
140
1.0
102
RTVSPost2010PropOp56
 70
     1
102
RTVSPost2010Prop57
140
1.0
102
RTVSPost2010PropOp57
 70
     1
102
RTVSPropertyOp0
 70
     1
102
RTVSPropertyOp1
 70
     1
102
RTVSPropertyOp2
 70
     1
102
RTVSPropertyOp3
 70
     1
102
RTVSPropertyOp4
 70
     1
102
RTVSPropertyOp5
 70
     1
102
RTVSPropertyOp6
 70
     1
102
RTVSPropertyOp7
 70
     1
102
RTVSPropertyOp8
 70
     1
102
RTVSPropertyOp9
 70
     1
102
RTVSPropertyOp10
 70
     1
102
RTVSPropertyOp11
 70
     1
102
RTVSPropertyOp12
 70
     1
102
RTVSPropertyOp13
 70
     1
102
RTVSPropertyOp14
 70
     1
102
RTVSPropertyOp15
 70
     1
102
RTVSPropertyOp16
 70
     1
102
RTVSPropertyOp17
 70
     1
102
RTVSPropertyOp18
 70
     1
102
RTVSPropertyOp19
 70
     1
102
RTVSPropertyOp20
 70
     1
102
RTVSPropertyOp21
 70
     1
102
RTVSPropertyOp22
 70
     1
102
RTVSPropertyOp23
 70
     1
102
RTVSPropertyOp24
 70
     1
102
RTVSPropertyOp25
 70
     1
102
RTVSPropertyOp26
 70
     1
102
RTVSPropertyOp27
 70
     1
102
RTVSPropertyOp28
 70
     1
102
RTVSPropertyOp29
 70
     1
102
RTVSPropertyOp30
 70
     1
102
RTVSPropertyOp31
 70
     1
102
RTVSPropertyOp32
 70
     1
102
RTVSPropertyOp33
 70
     1
102
RTVSPropertyOp34
 70
     1
102
RTVSPropertyOp35
 70
     1
102
RTVSPropertyOp36
 70
     1
102
RTVSPropertyOp37
 70
     1
102
RTVSPropertyOp38
 70
     1
102
RTVSPropertyOp39
 70
     1
102
RTVSPropertyOp40
 70
     1
102
RTVSPropertyOp41
 70
     1
102
RTVSPropertyOp42
 70
     1
102
RTVSPropertyOp43
 70
     1
102
RTVSPropertyOp44
 70
     1
102
RTVSPropertyOp45
 70
     1
102
RTVSPropertyOp46
 70
     1
102
RTVSPropertyOp47
 70
     1
102
RTVSPropertyOp48
 70
     1
102
RTVSPropertyOp49
 70
     1
102
RTVSPropertyOp50
 70
     1
102
RTVSPropertyOp51
 70
     0
102
RTVSPropertyOp52
 70
     0
102
RTVSPropertyOp53
 70
     1
102
RTVSPropertyOp54
 70
     1
102
RTVSPropertyOp55
 70
     1
102
RTVSPropertyOp56
 70
     1
102
RTVSPropertyOp57
 70
     1
102
RTVSPropertyOp58
 70
     1
102
RTVSPropertyOp59
 70
     1
102
RTVSPropertyOp60
 70
     1
102
RTVSPropertyOp61
 70
     1
102
RTVSPropertyOp62
 70
     1
  0
XRECORD
  5
672
102
{ACAD_REACTORS
330
671
102
}
330
671
100
AcDbXrecord
280
     1
102
RTVSPost2010Prop28
280
     0
102
RTVSPost2010PropOp28
 70
     1
102
RTVSPost2010Prop29
280
     1
102
RTVSPost2010PropOp29
 70
     1
102
RTVSPost2010Prop30
280
     1
102
RTVSPost2010PropOp30
 70
     1
102
RTVSPost2010Prop31
280
     0
102
RTVSPost2010PropOp31
 70
     1
102
RTVSPost2010Prop32
280
     0
102
RTVSPost2010PropOp32
 70
     1
102
RTVSPost2010Prop33
280
     0
102
RTVSPost2010PropOp33
 70
     1
102
RTVSPost2010Prop34
280
     0
102
RTVSPost2010PropOp34
 70
     1
102
RTVSPost2010Prop35
280
     0
102
RTVSPost2010PropOp35
 70
     1
102
RTVSPost2010Prop36
280
     0
102
RTVSPost2010PropOp36
 70
     1
102
RTVSPost2010Prop37
 90
       50
102
RTVSPost2010PropOp37
 70
     1
102
RTVSPost2010Prop38
140
0.0
102
RTVSPost2010PropOp38
 70
     1
102
RTVSPost2010Prop39
140
1.0
102
RTVSPost2010PropOp39
 70
     1
102
RTVSPost2010Prop40
 90
        0
102
RTVSPost2010PropOp40
 70
     1
102
RTVSPost2010Prop41ColorIndex
 90
       18
102
RTVSPost2010Prop41ColorRGB
 90
        0
102
RTVSPost2010PropOp41
 70
     1
102
RTVSPost2010Prop42
 90
       50
102
RTVSPost2010PropOp42
 70
     1
102
RTVSPost2010Prop43
 90
        3
102
RTVSPost2010PropOp43
 70
     1
102
RTVSPost2010Prop44ColorIndex
 90
        5
102
RTVSPost2010Prop44ColorRGB
 90
      255
102
RTVSPost2010PropOp44
 70
     1
102
RTVSPost2010Prop45
280
     0
102
RTVSPost2010PropOp45
 70
     1
102
RTVSPost2010Prop46
 90
       50
102
RTVSPost2010PropOp46
 70
     1
102
RTVSPost2010Prop47
 90
       50
102
RTVSPost2010PropOp47
 70
     1
102
RTVSPost2010Prop48
 90
       50
102
RTVSPost2010PropOp48
 70
     1
102
RTVSPost2010Prop49
280
     0
102
RTVSPost2010PropOp49
 70
     1
102
RTVSPost2010Prop50
 90
       50
102
RTVSPost2010PropOp50
 70
     1
102
RTVSPost2010Prop51ColorIndex
 90
      256
102
RTVSPost2010Prop51ColorRGB
 90
-16777216
102
RTVSPost2010PropOp51
 70
     0
102
RTVSPost2010Prop52
140
1.0
102
RTVSPost2010PropOp52
 70
     0
102
RTVSPost2010Prop53
 90
        2
102
RTVSPost2010PropOp53
 70
     1
102
RTVSPost2010Prop54
  1
strokes_ogs.tif
102
RTVSPost2010PropOp54
 70
     1
102
RTVSPost2010Prop55
280
     0
102
RTVSPost2010PropOp55
 70
     1
102
RTVSPost2010Prop56
140
1.0
102
RTVSPost2010PropOp56
 70
     1
102
RTVSPost2010Prop57
140
1.0
102
RTVSPost2010PropOp57
 70
     1
102
RTVSPropertyOp0
 70
     1
102
RTVSPropertyOp1
 70
     1
102
RTVSPropertyOp2
 70
     1
102
RTVSPropertyOp3
 70
     1
102
RTVSPropertyOp4
 70
     1
102
RTVSPropertyOp5
 70
     1
102
RTVSPropertyOp6
 70
     1
102
RTVSPropertyOp7
 70
     1
102
RTVSPropertyOp8
 70
     1
102
RTVSPropertyOp9
 70
     1
102
RTVSPropertyOp10
 70
     1
102
RTVSPropertyOp11
 70
     1
102
RTVSPropertyOp12
 70
     1
102
RTVSPropertyOp13
 70
     1
102
RTVSPropertyOp14
 70
     1
102
RTVSPropertyOp15
 70
     1
102
RTVSPropertyOp16
 70
     1
102
RTVSPropertyOp17
 70
     1
102
RTVSPropertyOp18
 70
     1
102
RTVSPropertyOp19
 70
     1
102
RTVSPropertyOp20
 70
     1
102
RTVSPropertyOp21
 70
     1
102
RTVSPropertyOp22
 70
     1
102
RTVSPropertyOp23
 70
     1
102
RTVSPropertyOp24
 70
     1
102
RTVSPropertyOp25
 70
     1
102
RTVSPropertyOp26
 70
     1
102
RTVSPropertyOp27
 70
     1
102
RTVSPropertyOp28
 70
     1
102
RTVSPropertyOp29
 70
     1
102
RTVSPropertyOp30
 70
     1
102
RTVSPropertyOp31
 70
     1
102
RTVSPropertyOp32
 70
     1
102
RTVSPropertyOp33
 70
     1
102
RTVSPropertyOp34
 70
     1
102
RTVSPropertyOp35
 70
     1
102
RTVSPropertyOp36
 70
     1
102
RTVSPropertyOp37
 70
     1
102
RTVSPropertyOp38
 70
     1
102
RTVSPropertyOp39
 70
     1
102
RTVSPropertyOp40
 70
     1
102
RTVSPropertyOp41
 70
     1
102
RTVSPropertyOp42
 70
     1
102
RTVSPropertyOp43
 70
     1
102
RTVSPropertyOp44
 70
     1
102
RTVSPropertyOp45
 70
     1
102
RTVSPropertyOp46
 70
     1
102
RTVSPropertyOp47
 70
     1
102
RTVSPropertyOp48
 70
     1
102
RTVSPropertyOp49
 70
     1
102
RTVSPropertyOp50
 70
     1
102
RTVSPropertyOp51
 70
     0
102
RTVSPropertyOp52
 70
     0
102
RTVSPropertyOp53
 70
     1
102
RTVSPropertyOp54
 70
     1
102
RTVSPropertyOp55
 70
     1
102
RTVSPropertyOp56
 70
     1
102
RTVSPropertyOp57
 70
     1
102
RTVSPropertyOp58
 70
     1
102
RTVSPropertyOp59
 70
     1
102
RTVSPropertyOp60
 70
     1
102
RTVSPropertyOp61
 70
     1
102
RTVSPropertyOp62
 70
     1
  0
XRECORD
  5
674
102
{ACAD_REACTORS
330
673
102
}
330
673
100
AcDbXrecord
280
     1
102
RTVSPost2010Prop28
280
     0
102
RTVSPost2010PropOp28
 70
     1
102
RTVSPost2010Prop29
280
     1
102
RTVSPost2010PropOp29
 70
     1
102
RTVSPost2010Prop30
280
     1
102
RTVSPost2010PropOp30
 70
     1
102
RTVSPost2010Prop31
280
     0
102
RTVSPost2010PropOp31
 70
     1
102
RTVSPost2010Prop32
280
     0
102
RTVSPost2010PropOp32
 70
     1
102
RTVSPost2010Prop33
280
     0
102
RTVSPost2010PropOp33
 70
     1
102
RTVSPost2010Prop34
280
     0
102
RTVSPost2010PropOp34
 70
     1
102
RTVSPost2010Prop35
280
     0
102
RTVSPost2010PropOp35
 70
     1
102
RTVSPost2010Prop36
280
     0
102
RTVSPost2010PropOp36
 70
     1
102
RTVSPost2010Prop37
 90
       50
102
RTVSPost2010PropOp37
 70
     1
102
RTVSPost2010Prop38
140
0.0
102
RTVSPost2010PropOp38
 70
     1
102
RTVSPost2010Prop39
140
1.0
102
RTVSPost2010PropOp39
 70
     1
102
RTVSPost2010Prop40
 90
        0
102
RTVSPost2010PropOp40
 70
     1
102
RTVSPost2010Prop41ColorIndex
 90
       18
102
RTVSPost2010Prop41ColorRGB
 90
        0
102
RTVSPost2010PropOp41
 70
     1
102
RTVSPost2010Prop42
 90
       50
102
RTVSPost2010PropOp42
 70
     1
102
RTVSPost2010Prop43
 90
        3
102
RTVSPost2010PropOp43
 70
     1
102
RTVSPost2010Prop44ColorIndex
 90
        5
102
RTVSPost2010Prop44ColorRGB
 90
      255
102
RTVSPost2010PropOp44
 70
     1
102
RTVSPost2010Prop45
280
     0
102
RTVSPost2010PropOp45
 70
     1
102
RTVSPost2010Prop46
 90
       50
102
RTVSPost2010PropOp46
 70
     1
102
RTVSPost2010Prop47
 90
       50
102
RTVSPost2010PropOp47
 70
     1
102
RTVSPost2010Prop48
 90
       50
102
RTVSPost2010PropOp48
 70
     1
102
RTVSPost2010Prop49
280
     0
102
RTVSPost2010PropOp49
 70
     1
102
RTVSPost2010Prop50
 90
       50
102
RTVSPost2010PropOp50
 70
     1
102
RTVSPost2010Prop51ColorIndex
 90
      256
102
RTVSPost2010Prop51ColorRGB
 90
-16777216
102
RTVSPost2010PropOp51
 70
     0
102
RTVSPost2010Prop52
140
1.0
102
RTVSPost2010PropOp52
 70
     0
102
RTVSPost2010Prop53
 90
        2
102
RTVSPost2010PropOp53
 70
     1
102
RTVSPost2010Prop54
  1
strokes_ogs.tif
102
RTVSPost2010PropOp54
 70
     1
102
RTVSPost2010Prop55
280
     0
102
RTVSPost2010PropOp55
 70
     1
102
RTVSPost2010Prop56
140
1.0
102
RTVSPost2010PropOp56
 70
     1
102
RTVSPost2010Prop57
140
1.0
102
RTVSPost2010PropOp57
 70
     1
102
RTVSPropertyOp0
 70
     1
102
RTVSPropertyOp1
 70
     1
102
RTVSPropertyOp2
 70
     1
102
RTVSPropertyOp3
 70
     1
102
RTVSPropertyOp4
 70
     1
102
RTVSPropertyOp5
 70
     1
102
RTVSPropertyOp6
 70
     1
102
RTVSPropertyOp7
 70
     1
102
RTVSPropertyOp8
 70
     1
102
RTVSPropertyOp9
 70
     1
102
RTVSPropertyOp10
 70
     1
102
RTVSPropertyOp11
 70
     1
102
RTVSPropertyOp12
 70
     1
102
RTVSPropertyOp13
 70
     1
102
RTVSPropertyOp14
 70
     1
102
RTVSPropertyOp15
 70
     1
102
RTVSPropertyOp16
 70
     1
102
RTVSPropertyOp17
 70
     1
102
RTVSPropertyOp18
 70
     1
102
RTVSPropertyOp19
 70
     1
102
RTVSPropertyOp20
 70
     1
102
RTVSPropertyOp21
 70
     1
102
RTVSPropertyOp22
 70
     1
102
RTVSPropertyOp23
 70
     1
102
RTVSPropertyOp24
 70
     1
102
RTVSPropertyOp25
 70
     1
102
RTVSPropertyOp26
 70
     1
102
RTVSPropertyOp27
 70
     1
102
RTVSPropertyOp28
 70
     1
102
RTVSPropertyOp29
 70
     1
102
RTVSPropertyOp30
 70
     1
102
RTVSPropertyOp31
 70
     1
102
RTVSPropertyOp32
 70
     1
102
RTVSPropertyOp33
 70
     1
102
RTVSPropertyOp34
 70
     1
102
RTVSPropertyOp35
 70
     1
102
RTVSPropertyOp36
 70
     1
102
RTVSPropertyOp37
 70
     1
102
RTVSPropertyOp38
 70
     1
102
RTVSPropertyOp39
 70
     1
102
RTVSPropertyOp40
 70
     1
102
RTVSPropertyOp41
 70
     1
102
RTVSPropertyOp42
 70
     1
102
RTVSPropertyOp43
 70
     1
102
RTVSPropertyOp44
 70
     1
102
RTVSPropertyOp45
 70
     1
102
RTVSPropertyOp46
 70
     1
102
RTVSPropertyOp47
 70
     1
102
RTVSPropertyOp48
 70
     1
102
RTVSPropertyOp49
 70
     1
102
RTVSPropertyOp50
 70
     1
102
RTVSPropertyOp51
 70
     0
102
RTVSPropertyOp52
 70
     0
102
RTVSPropertyOp53
 70
     1
102
RTVSPropertyOp54
 70
     1
102
RTVSPropertyOp55
 70
     1
102
RTVSPropertyOp56
 70
     1
102
RTVSPropertyOp57
 70
     1
102
RTVSPropertyOp58
 70
     1
102
RTVSPropertyOp59
 70
     1
102
RTVSPropertyOp60
 70
     1
102
RTVSPropertyOp61
 70
     1
102
RTVSPropertyOp62
 70
     1
  0
XRECORD
  5
664
102
{ACAD_REACTORS
330
663
102
}
330
663
100
AcDbXrecord
280
     1
102
RTVSPost2010Prop28
280
     0
102
RTVSPost2010PropOp28
 70
     1
102
RTVSPost2010Prop29
280
     1
102
RTVSPost2010PropOp29
 70
     1
102
RTVSPost2010Prop30
280
     1
102
RTVSPost2010PropOp30
 70
     1
102
RTVSPost2010Prop31
280
     0
102
RTVSPost2010PropOp31
 70
     1
102
RTVSPost2010Prop32
280
     0
102
RTVSPost2010PropOp32
 70
     1
102
RTVSPost2010Prop33
280
     0
102
RTVSPost2010PropOp33
 70
     1
102
RTVSPost2010Prop34
280
     0
102
RTVSPost2010PropOp34
 70
     1
102
RTVSPost2010Prop35
280
     0
102
RTVSPost2010PropOp35
 70
     1
102
RTVSPost2010Prop36
280
     0
102
RTVSPost2010PropOp36
 70
     1
102
RTVSPost2010Prop37
 90
       50
102
RTVSPost2010PropOp37
 70
     1
102
RTVSPost2010Prop38
140
0.0
102
RTVSPost2010PropOp38
 70
     1
102
RTVSPost2010Prop39
140
1.0
102
RTVSPost2010PropOp39
 70
     1
102
RTVSPost2010Prop40
 90
        0
102
RTVSPost2010PropOp40
 70
     1
102
RTVSPost2010Prop41ColorIndex
 90
       18
102
RTVSPost2010Prop41ColorRGB
 90
        0
102
RTVSPost2010PropOp41
 70
     1
102
RTVSPost2010Prop42
 90
       50
102
RTVSPost2010PropOp42
 70
     1
102
RTVSPost2010Prop43
 90
        3
102
RTVSPost2010PropOp43
 70
     1
102
RTVSPost2010Prop44ColorIndex
 90
        5
102
RTVSPost2010Prop44ColorRGB
 90
      255
102
RTVSPost2010PropOp44
 70
     1
102
RTVSPost2010Prop45
280
     0
102
RTVSPost2010PropOp45
 70
     1
102
RTVSPost2010Prop46
 90
       50
102
RTVSPost2010PropOp46
 70
     1
102
RTVSPost2010Prop47
 90
       50
102
RTVSPost2010PropOp47
 70
     1
102
RTVSPost2010Prop48
 90
       50
102
RTVSPost2010PropOp48
 70
     1
102
RTVSPost2010Prop49
280
     0
102
RTVSPost2010PropOp49
 70
     1
102
RTVSPost2010Prop50
 90
       50
102
RTVSPost2010PropOp50
 70
     1
102
RTVSPost2010Prop51ColorIndex
 90
      256
102
RTVSPost2010Prop51ColorRGB
 90
-16777216
102
RTVSPost2010PropOp51
 70
     0
102
RTVSPost2010Prop52
140
1.0
102
RTVSPost2010PropOp52
 70
     0
102
RTVSPost2010Prop53
 90
        2
102
RTVSPost2010PropOp53
 70
     1
102
RTVSPost2010Prop54
  1
strokes_ogs.tif
102
RTVSPost2010PropOp54
 70
     1
102
RTVSPost2010Prop55
280
     0
102
RTVSPost2010PropOp55
 70
     1
102
RTVSPost2010Prop56
140
1.0
102
RTVSPost2010PropOp56
 70
     1
102
RTVSPost2010Prop57
140
1.0
102
RTVSPost2010PropOp57
 70
     1
102
RTVSPropertyOp0
 70
     1
102
RTVSPropertyOp1
 70
     1
102
RTVSPropertyOp2
 70
     1
102
RTVSPropertyOp3
 70
     1
102
RTVSPropertyOp4
 70
     1
102
RTVSPropertyOp5
 70
     1
102
RTVSPropertyOp6
 70
     1
102
RTVSPropertyOp7
 70
     1
102
RTVSPropertyOp8
 70
     1
102
RTVSPropertyOp9
 70
     1
102
RTVSPropertyOp10
 70
     1
102
RTVSPropertyOp11
 70
     1
102
RTVSPropertyOp12
 70
     1
102
RTVSPropertyOp13
 70
     1
102
RTVSPropertyOp14
 70
     1
102
RTVSPropertyOp15
 70
     1
102
RTVSPropertyOp16
 70
     1
102
RTVSPropertyOp17
 70
     1
102
RTVSPropertyOp18
 70
     1
102
RTVSPropertyOp19
 70
     1
102
RTVSPropertyOp20
 70
     1
102
RTVSPropertyOp21
 70
     1
102
RTVSPropertyOp22
 70
     1
102
RTVSPropertyOp23
 70
     1
102
RTVSPropertyOp24
 70
     1
102
RTVSPropertyOp25
 70
     1
102
RTVSPropertyOp26
 70
     1
102
RTVSPropertyOp27
 70
     1
102
RTVSPropertyOp28
 70
     1
102
RTVSPropertyOp29
 70
     1
102
RTVSPropertyOp30
 70
     1
102
RTVSPropertyOp31
 70
     1
102
RTVSPropertyOp32
 70
     1
102
RTVSPropertyOp33
 70
     1
102
RTVSPropertyOp34
 70
     1
102
RTVSPropertyOp35
 70
     1
102
RTVSPropertyOp36
 70
     1
102
RTVSPropertyOp37
 70
     1
102
RTVSPropertyOp38
 70
     1
102
RTVSPropertyOp39
 70
     1
102
RTVSPropertyOp40
 70
     1
102
RTVSPropertyOp41
 70
     1
102
RTVSPropertyOp42
 70
     1
102
RTVSPropertyOp43
 70
     1
102
RTVSPropertyOp44
 70
     1
102
RTVSPropertyOp45
 70
     1
102
RTVSPropertyOp46
 70
     1
102
RTVSPropertyOp47
 70
     1
102
RTVSPropertyOp48
 70
     1
102
RTVSPropertyOp49
 70
     1
102
RTVSPropertyOp50
 70
     1
102
RTVSPropertyOp51
 70
     0
102
RTVSPropertyOp52
 70
     0
102
RTVSPropertyOp53
 70
     1
102
RTVSPropertyOp54
 70
     1
102
RTVSPropertyOp55
 70
     1
102
RTVSPropertyOp56
 70
     1
102
RTVSPropertyOp57
 70
     1
102
RTVSPropertyOp58
 70
     1
102
RTVSPropertyOp59
 70
     1
102
RTVSPropertyOp60
 70
     1
102
RTVSPropertyOp61
 70
     1
102
RTVSPropertyOp62
 70
     1
  0
XRECORD
  5
656
102
{ACAD_REACTORS
330
655
102
}
330
655
100
AcDbXrecord
280
     1
102
RTVSPost2010Prop28
280
     0
102
RTVSPost2010PropOp28
 70
     1
102
RTVSPost2010Prop29
280
     1
102
RTVSPost2010PropOp29
 70
     1
102
RTVSPost2010Prop30
280
     1
102
RTVSPost2010PropOp30
 70
     1
102
RTVSPost2010Prop31
280
     0
102
RTVSPost2010PropOp31
 70
     1
102
RTVSPost2010Prop32
280
     0
102
RTVSPost2010PropOp32
 70
     1
102
RTVSPost2010Prop33
280
     0
102
RTVSPost2010PropOp33
 70
     1
102
RTVSPost2010Prop34
280
     0
102
RTVSPost2010PropOp34
 70
     1
102
RTVSPost2010Prop35
280
     0
102
RTVSPost2010PropOp35
 70
     1
102
RTVSPost2010Prop36
280
     0
102
RTVSPost2010PropOp36
 70
     1
102
RTVSPost2010Prop37
 90
       50
102
RTVSPost2010PropOp37
 70
     1
102
RTVSPost2010Prop38
140
0.0
102
RTVSPost2010PropOp38
 70
     1
102
RTVSPost2010Prop39
140
1.0
102
RTVSPost2010PropOp39
 70
     1
102
RTVSPost2010Prop40
 90
        0
102
RTVSPost2010PropOp40
 70
     1
102
RTVSPost2010Prop41ColorIndex
 90
       18
102
RTVSPost2010Prop41ColorRGB
 90
        0
102
RTVSPost2010PropOp41
 70
     1
102
RTVSPost2010Prop42
 90
       50
102
RTVSPost2010PropOp42
 70
     1
102
RTVSPost2010Prop43
 90
        3
102
RTVSPost2010PropOp43
 70
     1
102
RTVSPost2010Prop44ColorIndex
 90
        5
102
RTVSPost2010Prop44ColorRGB
 90
      255
102
RTVSPost2010PropOp44
 70
     1
102
RTVSPost2010Prop45
280
     0
102
RTVSPost2010PropOp45
 70
     1
102
RTVSPost2010Prop46
 90
       50
102
RTVSPost2010PropOp46
 70
     1
102
RTVSPost2010Prop47
 90
       50
102
RTVSPost2010PropOp47
 70
     1
102
RTVSPost2010Prop48
 90
       50
102
RTVSPost2010PropOp48
 70
     1
102
RTVSPost2010Prop49
280
     0
102
RTVSPost2010PropOp49
 70
     1
102
RTVSPost2010Prop50
 90
       50
102
RTVSPost2010PropOp50
 70
     1
102
RTVSPost2010Prop51ColorIndex
 90
      256
102
RTVSPost2010Prop51ColorRGB
 90
-16777216
102
RTVSPost2010PropOp51
 70
     0
102
RTVSPost2010Prop52
140
1.0
102
RTVSPost2010PropOp52
 70
     0
102
RTVSPost2010Prop53
 90
        2
102
RTVSPost2010PropOp53
 70
     1
102
RTVSPost2010Prop54
  1
strokes_ogs.tif
102
RTVSPost2010PropOp54
 70
     1
102
RTVSPost2010Prop55
280
     0
102
RTVSPost2010PropOp55
 70
     1
102
RTVSPost2010Prop56
140
1.0
102
RTVSPost2010PropOp56
 70
     1
102
RTVSPost2010Prop57
140
1.0
102
RTVSPost2010PropOp57
 70
     1
102
RTVSPropertyOp0
 70
     1
102
RTVSPropertyOp1
 70
     1
102
RTVSPropertyOp2
 70
     1
102
RTVSPropertyOp3
 70
     1
102
RTVSPropertyOp4
 70
     1
102
RTVSPropertyOp5
 70
     1
102
RTVSPropertyOp6
 70
     1
102
RTVSPropertyOp7
 70
     1
102
RTVSPropertyOp8
 70
     1
102
RTVSPropertyOp9
 70
     1
102
RTVSPropertyOp10
 70
     1
102
RTVSPropertyOp11
 70
     1
102
RTVSPropertyOp12
 70
     1
102
RTVSPropertyOp13
 70
     1
102
RTVSPropertyOp14
 70
     1
102
RTVSPropertyOp15
 70
     1
102
RTVSPropertyOp16
 70
     1
102
RTVSPropertyOp17
 70
     1
102
RTVSPropertyOp18
 70
     1
102
RTVSPropertyOp19
 70
     1
102
RTVSPropertyOp20
 70
     1
102
RTVSPropertyOp21
 70
     1
102
RTVSPropertyOp22
 70
     1
102
RTVSPropertyOp23
 70
     1
102
RTVSPropertyOp24
 70
     1
102
RTVSPropertyOp25
 70
     1
102
RTVSPropertyOp26
 70
     1
102
RTVSPropertyOp27
 70
     1
102
RTVSPropertyOp28
 70
     1
102
RTVSPropertyOp29
 70
     1
102
RTVSPropertyOp30
 70
     1
102
RTVSPropertyOp31
 70
     1
102
RTVSPropertyOp32
 70
     1
102
RTVSPropertyOp33
 70
     1
102
RTVSPropertyOp34
 70
     1
102
RTVSPropertyOp35
 70
     1
102
RTVSPropertyOp36
 70
     1
102
RTVSPropertyOp37
 70
     1
102
RTVSPropertyOp38
 70
     1
102
RTVSPropertyOp39
 70
     1
102
RTVSPropertyOp40
 70
     1
102
RTVSPropertyOp41
 70
     1
102
RTVSPropertyOp42
 70
     1
102
RTVSPropertyOp43
 70
     1
102
RTVSPropertyOp44
 70
     1
102
RTVSPropertyOp45
 70
     1
102
RTVSPropertyOp46
 70
     1
102
RTVSPropertyOp47
 70
     1
102
RTVSPropertyOp48
 70
     1
102
RTVSPropertyOp49
 70
     1
102
RTVSPropertyOp50
 70
     1
102
RTVSPropertyOp51
 70
     0
102
RTVSPropertyOp52
 70
     0
102
RTVSPropertyOp53
 70
     1
102
RTVSPropertyOp54
 70
     1
102
RTVSPropertyOp55
 70
     1
102
RTVSPropertyOp56
 70
     1
102
RTVSPropertyOp57
 70
     1
102
RTVSPropertyOp58
 70
     1
102
RTVSPropertyOp59
 70
     1
102
RTVSPropertyOp60
 70
     1
102
RTVSPropertyOp61
 70
     1
102
RTVSPropertyOp62
 70
     1
  0
XRECORD
  5
676
102
{ACAD_REACTORS
330
675
102
}
330
675
100
AcDbXrecord
280
     1
102
RTVSPost2010Prop28
280
     0
102
RTVSPost2010PropOp28
 70
     1
102
RTVSPost2010Prop29
280
     1
102
RTVSPost2010PropOp29
 70
     1
102
RTVSPost2010Prop30
280
     1
102
RTVSPost2010PropOp30
 70
     1
102
RTVSPost2010Prop31
280
     0
102
RTVSPost2010PropOp31
 70
     1
102
RTVSPost2010Prop32
280
     0
102
RTVSPost2010PropOp32
 70
     1
102
RTVSPost2010Prop33
280
     0
102
RTVSPost2010PropOp33
 70
     1
102
RTVSPost2010Prop34
280
     0
102
RTVSPost2010PropOp34
 70
     1
102
RTVSPost2010Prop35
280
     0
102
RTVSPost2010PropOp35
 70
     1
102
RTVSPost2010Prop36
280
     0
102
RTVSPost2010PropOp36
 70
     1
102
RTVSPost2010Prop37
 90
       50
102
RTVSPost2010PropOp37
 70
     1
102
RTVSPost2010Prop38
140
0.0
102
RTVSPost2010PropOp38
 70
     1
102
RTVSPost2010Prop39
140
1.0
102
RTVSPost2010PropOp39
 70
     1
102
RTVSPost2010Prop40
 90
        0
102
RTVSPost2010PropOp40
 70
     1
102
RTVSPost2010Prop41ColorIndex
 90
       18
102
RTVSPost2010Prop41ColorRGB
 90
        0
102
RTVSPost2010PropOp41
 70
     1
102
RTVSPost2010Prop42
 90
       50
102
RTVSPost2010PropOp42
 70
     1
102
RTVSPost2010Prop43
 90
        3
102
RTVSPost2010PropOp43
 70
     1
102
RTVSPost2010Prop44ColorIndex
 90
        5
102
RTVSPost2010Prop44ColorRGB
 90
      255
102
RTVSPost2010PropOp44
 70
     1
102
RTVSPost2010Prop45
280
     0
102
RTVSPost2010PropOp45
 70
     1
102
RTVSPost2010Prop46
 90
       50
102
RTVSPost2010PropOp46
 70
     1
102
RTVSPost2010Prop47
 90
       50
102
RTVSPost2010PropOp47
 70
     1
102
RTVSPost2010Prop48
 90
       50
102
RTVSPost2010PropOp48
 70
     1
102
RTVSPost2010Prop49
280
     0
102
RTVSPost2010PropOp49
 70
     1
102
RTVSPost2010Prop50
 90
       50
102
RTVSPost2010PropOp50
 70
     1
102
RTVSPost2010Prop51ColorIndex
 90
      256
102
RTVSPost2010Prop51ColorRGB
 90
-16777216
102
RTVSPost2010PropOp51
 70
     0
102
RTVSPost2010Prop52
140
1.0
102
RTVSPost2010PropOp52
 70
     0
102
RTVSPost2010Prop53
 90
        2
102
RTVSPost2010PropOp53
 70
     1
102
RTVSPost2010Prop54
  1
strokes_ogs.tif
102
RTVSPost2010PropOp54
 70
     1
102
RTVSPost2010Prop55
280
     0
102
RTVSPost2010PropOp55
 70
     1
102
RTVSPost2010Prop56
140
1.0
102
RTVSPost2010PropOp56
 70
     1
102
RTVSPost2010Prop57
140
1.0
102
RTVSPost2010PropOp57
 70
     1
102
RTVSPropertyOp0
 70
     1
102
RTVSPropertyOp1
 70
     1
102
RTVSPropertyOp2
 70
     1
102
RTVSPropertyOp3
 70
     1
102
RTVSPropertyOp4
 70
     1
102
RTVSPropertyOp5
 70
     1
102
RTVSPropertyOp6
 70
     1
102
RTVSPropertyOp7
 70
     1
102
RTVSPropertyOp8
 70
     1
102
RTVSPropertyOp9
 70
     1
102
RTVSPropertyOp10
 70
     1
102
RTVSPropertyOp11
 70
     1
102
RTVSPropertyOp12
 70
     1
102
RTVSPropertyOp13
 70
     1
102
RTVSPropertyOp14
 70
     1
102
RTVSPropertyOp15
 70
     1
102
RTVSPropertyOp16
 70
     1
102
RTVSPropertyOp17
 70
     1
102
RTVSPropertyOp18
 70
     1
102
RTVSPropertyOp19
 70
     1
102
RTVSPropertyOp20
 70
     1
102
RTVSPropertyOp21
 70
     1
102
RTVSPropertyOp22
 70
     1
102
RTVSPropertyOp23
 70
     1
102
RTVSPropertyOp24
 70
     1
102
RTVSPropertyOp25
 70
     1
102
RTVSPropertyOp26
 70
     1
102
RTVSPropertyOp27
 70
     1
102
RTVSPropertyOp28
 70
     1
102
RTVSPropertyOp29
 70
     1
102
RTVSPropertyOp30
 70
     1
102
RTVSPropertyOp31
 70
     1
102
RTVSPropertyOp32
 70
     1
102
RTVSPropertyOp33
 70
     1
102
RTVSPropertyOp34
 70
     1
102
RTVSPropertyOp35
 70
     1
102
RTVSPropertyOp36
 70
     1
102
RTVSPropertyOp37
 70
     1
102
RTVSPropertyOp38
 70
     1
102
RTVSPropertyOp39
 70
     1
102
RTVSPropertyOp40
 70
     1
102
RTVSPropertyOp41
 70
     1
102
RTVSPropertyOp42
 70
     1
102
RTVSPropertyOp43
 70
     1
102
RTVSPropertyOp44
 70
     1
102
RTVSPropertyOp45
 70
     1
102
RTVSPropertyOp46
 70
     1
102
RTVSPropertyOp47
 70
     1
102
RTVSPropertyOp48
 70
     1
102
RTVSPropertyOp49
 70
     1
102
RTVSPropertyOp50
 70
     1
102
RTVSPropertyOp51
 70
     0
102
RTVSPropertyOp52
 70
     0
102
RTVSPropertyOp53
 70
     1
102
RTVSPropertyOp54
 70
     1
102
RTVSPropertyOp55
 70
     1
102
RTVSPropertyOp56
 70
     1
102
RTVSPropertyOp57
 70
     1
102
RTVSPropertyOp58
 70
     1
102
RTVSPropertyOp59
 70
     1
102
RTVSPropertyOp60
 70
     1
102
RTVSPropertyOp61
 70
     1
102
RTVSPropertyOp62
 70
     1
  0
ENDSEC
  0
EOF
