  0
SECTION
  2
HEADER
  9
$ACADVER
  1
AC1015
  9
$ACADMAINTVER
 70
    20
  9
$DWGCODEPAGE
  3
ANSI_1250
  9
$INSBASE
 10
0.0
 20
0.0
 30
0.0
  9
$EXTMIN
 10
-61.20087572623921
 20
-30.42157060982265
 30
0.0
  9
$EXTMAX
 10
80.48004799999999
 20
61.30490172623921
 30
0.0
  9
$LIMMIN
 10
-0.5
 20
-0.5
  9
$LIMMAX
 10
5.0
 20
5.0
  9
$ORTHOMODE
 70
     0
  9
$REGENMODE
 70
     1
  9
$FILLMODE
 70
     1
  9
$QTEXTMODE
 70
     0
  9
$MIRRTEXT
 70
     1
  9
$LTSCALE
 40
1.0
  9
$ATTMODE
 70
     1
  9
$TEXTSIZE
 40
0.2
  9
$TRACEWID
 40
0.05
  9
$TEXTSTYLE
  7
Standard
  9
$CLAYER
  8
0
  9
$CELTYPE
  6
ByLayer
  9
$CECOLOR
 62
   256
  9
$CELTSCALE
 40
1.0
  9
$DISPSILH
 70
     0
  9
$DIMSCALE
 40
1.0
  9
$DIMASZ
 40
0.18
  9
$DIMEXO
 40
0.0625
  9
$DIMDLI
 40
0.38
  9
$DIMRND
 40
0.0
  9
$DIMDLE
 40
0.0
  9
$DIMEXE
 40
0.18
  9
$DIMTP
 40
0.0
  9
$DIMTM
 40
0.0
  9
$DIMTXT
 40
0.18
  9
$DIMCEN
 40
0.09
  9
$DIMTSZ
 40
0.0
  9
$DIMTOL
 70
     0
  9
$DIMLIM
 70
     0
  9
$DIMTIH
 70
     1
  9
$DIMTOH
 70
     1
  9
$DIMSE1
 70
     0
  9
$DIMSE2
 70
     0
  9
$DIMTAD
 70
     0
  9
$DIMZIN
 70
     0
  9
$DIMBLK
  1

  9
$DIMASO
 70
     1
  9
$DIMSHO
 70
     1
  9
$DIMPOST
  1

  9
$DIMAPOST
  1

  9
$DIMALT
 70
     0
  9
$DIMALTD
 70
     2
  9
$DIMALTF
 40
25.4
  9
$DIMLFAC
 40
1.0
  9
$DIMTOFL
 70
     0
  9
$DIMTVP
 40
0.0
  9
$DIMTIX
 70
     0
  9
$DIMSOXD
 70
     0
  9
$DIMSAH
 70
     0
  9
$DIMBLK1
  1

  9
$DIMBLK2
  1

  9
$DIMSTYLE
  2
Standard
  9
$DIMCLRD
 70
     0
  9
$DIMCLRE
 70
     0
  9
$DIMCLRT
 70
     0
  9
$DIMTFAC
 40
1.0
  9
$DIMGAP
 40
0.09
  9
$DIMJUST
 70
     0
  9
$DIMSD1
 70
     0
  9
$DIMSD2
 70
     0
  9
$DIMTOLJ
 70
     1
  9
$DIMTZIN
 70
     0
  9
$DIMALTZ
 70
     0
  9
$DIMALTTZ
 70
     0
  9
$DIMUPT
 70
     0
  9
$DIMDEC
 70
     4
  9
$DIMTDEC
 70
     4
  9
$DIMALTU
 70
     2
  9
$DIMALTTD
 70
     2
  9
$DIMTXSTY
  7
Standard
  9
$DIMAUNIT
 70
     0
  9
$DIMADEC
 70
     0
  9
$DIMALTRND
 40
0.0
  9
$DIMAZIN
 70
     0
  9
$DIMDSEP
 70
    46
  9
$DIMATFIT
 70
     3
  9
$DIMFRAC
 70
     0
  9
$DIMLDRBLK
  1

  9
$DIMLUNIT
 70
     2
  9
$DIMLWD
 70
    -2
  9
$DIMLWE
 70
    -2
  9
$DIMTMOVE
 70
     0
  9
$LUNITS
 70
     2
  9
$LUPREC
 70
     4
  9
$SKETCHINC
 40
0.1
  9
$FILLETRAD
 40
0.5
  9
$AUNITS
 70
     0
  9
$AUPREC
 70
     0
  9
$MENU
  1
.
  9
$ELEVATION
 40
0.0
  9
$PELEVATION
 40
0.0
  9
$THICKNESS
 40
0.0
  9
$LIMCHECK
 70
     0
  9
$CHAMFERA
 40
0.0
  9
$CHAMFERB
 40
0.0
  9
$CHAMFERC
 40
0.0
  9
$CHAMFERD
 40
0.0
  9
$SKPOLY
 70
     0
  9
$TDCREATE
 40
2459023.654907408
  9
$TDUCREATE
 40
2459023.571583403
  9
$TDUPDATE
 40
2459023.656423611
  9
$TDUUPDATE
 40
2459023.573090278
  9
$TDINDWG
 40
0.0005555671
  9
$TDUSRTIMER
 40
0.0005555671
  9
$USRTIMER
 70
     1
  9
$ANGBASE
 50
0.0
  9
$ANGDIR
 70
     0
  9
$PDMODE
 70
     0
  9
$PDSIZE
 40
0.0
  9
$PLINEWID
 40
0.0
  9
$SPLFRAME
 70
     0
  9
$SPLINETYPE
 70
     6
  9
$SPLINESEGS
 70
     8
  9
$HANDSEED
  5
680
  9
$SURFTAB1
 70
     6
  9
$SURFTAB2
 70
     6
  9
$SURFTYPE
 70
     6
  9
$SURFU
 70
     6
  9
$SURFV
 70
     6
  9
$UCSBASE
  2

  9
$UCSNAME
  2

  9
$UCSORG
 10
0.0
 20
0.0
 30
0.0
  9
$UCSXDIR
 10
1.0
 20
0.0
 30
0.0
  9
$UCSYDIR
 10
0.0
 20
1.0
 30
0.0
  9
$UCSORTHOREF
  2

  9
$UCSORTHOVIEW
 70
     0
  9
$UCSORGTOP
 10
0.0
 20
0.0
 30
0.0
  9
$UCSORGBOTTOM
 10
0.0
 20
0.0
 30
0.0
  9
$UCSORGLEFT
 10
0.0
 20
0.0
 30
0.0
  9
$UCSORGRIGHT
 10
0.0
 20
0.0
 30
0.0
  9
$UCSORGFRONT
 10
0.0
 20
0.0
 30
0.0
  9
$UCSORGBACK
 10
0.0
 20
0.0
 30
0.0
  9
$PUCSBASE
  2

  9
$PUCSNAME
  2

  9
$PUCSORG
 10
0.0
 20
0.0
 30
0.0
  9
$PUCSXDIR
 10
1.0
 20
0.0
 30
0.0
  9
$PUCSYDIR
 10
0.0
 20
1.0
 30
0.0
  9
$PUCSORTHOREF
  2

  9
$PUCSORTHOVIEW
 70
     0
  9
$PUCSORGTOP
 10
0.0
 20
0.0
 30
0.0
  9
$PUCSORGBOTTOM
 10
0.0
 20
0.0
 30
0.0
  9
$PUCSORGLEFT
 10
0.0
 20
0.0
 30
0.0
  9
$PUCSORGRIGHT
 10
0.0
 20
0.0
 30
0.0
  9
$PUCSORGFRONT
 10
0.0
 20
0.0
 30
0.0
  9
$PUCSORGBACK
 10
0.0
 20
0.0
 30
0.0
  9
$USERI1
 70
     0
  9
$USERI2
 70
     0
  9
$USERI3
 70
     0
  9
$USERI4
 70
     0
  9
$USERI5
 70
     0
  9
$USERR1
 40
0.0
  9
$USERR2
 40
0.0
  9
$USERR3
 40
0.0
  9
$USERR4
 40
0.0
  9
$USERR5
 40
0.0
  9
$WORLDVIEW
 70
     1
  9
$SHADEDGE
 70
     3
  9
$SHADEDIF
 70
    70
  9
$TILEMODE
 70
     1
  9
$MAXACTVP
 70
    64
  9
$PINSBASE
 10
0.0
 20
0.0
 30
0.0
  9
$PLIMCHECK
 70
     0
  9
$PEXTMIN
 10
-0.5
 20
-0.5
 30
-0.5
  9
$PEXTMAX
 10
5.0
 20
5.0
 30
5.0
  9
$PLIMMIN
 10
-0.5
 20
-0.5
  9
$PLIMMAX
 10
5.0
 20
5.0
  9
$UNITMODE
 70
     0
  9
$VISRETAIN
 70
     1
  9
$PLINEGEN
 70
     0
  9
$PSLTSCALE
 70
     1
  9
$TREEDEPTH
 70
  3020
  9
$CMLSTYLE
  2
Standard
  9
$CMLJUST
 70
     0
  9
$CMLSCALE
 40
1.0
  9
$PROXYGRAPHICS
 70
     1
  9
$MEASUREMENT
 70
     1
  9
$CELWEIGHT
370
    18
  9
$ENDCAPS
280
     0
  9
$JOINSTYLE
280
     0
  9
$LWDISPLAY
290
     1
  9
$INSUNITS
 70
     4
  9
$HYPERLINKBASE
  1

  9
$STYLESHEET
  1

  9
$XEDIT
290
     1
  9
$CEPSNTYPE
380
     0
  9
$PSTYLEMODE
290
     1
  9
$FINGERPRINTGUID
  2
{98C5337C-8CE3-4BFF-BD53-58D04F39EEB1}
  9
$VERSIONGUID
  2
{95F6C84A-E08E-064C-AA6C-C0994D6FE535}
  9
$EXTNAMES
290
     1
  9
$PSVPSCALE
 40
0.0
  9
$OLESTARTUP
290
     0
  0
ENDSEC
  0
SECTION
  2
CLASSES
  0
CLASS
  1
ACDBDICTIONARYWDFLT
  2
AcDbDictionaryWithDefault
  3
ObjectDBX Classes
 90
        0
280
     0
281
     0
  0
CLASS
  1
VISUALSTYLE
  2
AcDbVisualStyle
  3
ObjectDBX Classes
 90
     4095
280
     0
281
     0
  0
CLASS
  1
MATERIAL
  2
AcDbMaterial
  3
ObjectDBX Classes
 90
     1153
280
     0
281
     0
  0
CLASS
  1
SCALE
  2
AcDbScale
  3
ObjectDBX Classes
 90
     1153
280
     0
281
     0
  0
CLASS
  1
TABLESTYLE
  2
AcDbTableStyle
  3
ObjectDBX Classes
 90
     4095
280
     0
281
     0
  0
CLASS
  1
MLEADERSTYLE
  2
AcDbMLeaderStyle
  3
ACDB_MLEADERSTYLE_CLASS
 90
     4095
280
     0
281
     0
  0
CLASS
  1
SUN
  2
AcDbSun
  3
SCENEOE
 90
    33921
280
     0
281
     0
  0
CLASS
  1
DIMASSOC
  2
AcDbDimAssoc
  3
"AcDbDimAssoc|Product Desc:     AcDim ARX App For Dimension|Company:          Autodesk, Inc.|WEB Address:      www.autodesk.com"
 90
        0
280
     0
281
     0
  0
CLASS
  1
DICTIONARYVAR
  2
AcDbDictionaryVar
  3
ObjectDBX Classes
 90
        0
280
     0
281
     0
  0
CLASS
  1
CELLSTYLEMAP
  2
AcDbCellStyleMap
  3
ObjectDBX Classes
 90
     1152
280
     0
281
     0
  0
CLASS
  1
ACDBSECTIONVIEWSTYLE
  2
AcDbSectionViewStyle
  3
ObjectDBX Classes
 90
     1025
280
     0
281
     0
  0
CLASS
  1
ACDBDETAILVIEWSTYLE
  2
AcDbDetailViewStyle
  3
ObjectDBX Classes
 90
     1025
280
     0
281
     0
  0
CLASS
  1
ACDBPLACEHOLDER
  2
AcDbPlaceHolder
  3
ObjectDBX Classes
 90
        0
280
     0
281
     0
  0
CLASS
  1
LAYOUT
  2
AcDbLayout
  3
ObjectDBX Classes
 90
        0
280
     0
281
     0
  0
ENDSEC
  0
SECTION
  2
TABLES
  0
TABLE
  2
VPORT
  5
8
330
0
100
AcDbSymbolTable
 70
    16
  0
VPORT
  5
29
330
8
100
AcDbSymbolTableRecord
100
AcDbViewportTableRecord
  2
*Active
 70
     0
 10
0.0
 20
0.0
 11
1.0
 21
1.0
 12
32.05719251527739
 22
10.84013818195933
 13
0.0
 23
0.0
 14
0.5
 24
0.5
 15
0.5
 25
0.5
 16
0.0
 26
0.0
 36
1.0
 17
0.0
 27
0.0
 37
0.0
 40
150.1238274963717
 41
2.188141391106043
 42
50.0
 43
256.049398
 44
-256.049398
 50
0.0
 51
0.0
 71
     0
 72
   100
 73
     1
 74
     3
 75
     0
 76
     0
 77
     0
 78
     0
281
     0
 65
     1
110
0.0
120
0.0
130
0.0
111
1.0
121
0.0
131
0.0
112
0.0
122
1.0
132
0.0
 79
     0
146
0.0
1001
ACAD_NAV_VCDISPLAY
1070
     3
  0
VPORT
  5
33C
330
8
100
AcDbSymbolTableRecord
100
AcDbViewportTableRecord
  2
L1
 70
     0
 10
0.0
 20
0.0
 11
1.0
 21
1.0
 12
9.656121999999999
 22
15.043802
 13
0.0
 23
0.0
 14
0.5
 24
0.5
 15
0.5
 25
0.5
 16
0.0
 26
0.0
 36
1.0
 17
0.0
 27
0.0
 37
0.0
 40
207.433333
 41
0.085602
 42
50.0
 43
256.049398
 44
-256.049398
 50
0.0
 51
0.0
 71
     0
 72
   100
 73
     1
 74
     3
 75
     0
 76
     0
 77
     0
 78
     0
281
     0
 65
     1
110
0.0
120
0.0
130
0.0
111
1.0
121
0.0
131
0.0
112
0.0
122
1.0
132
0.0
 79
     0
146
0.0
  0
VPORT
  5
33D
330
8
100
AcDbSymbolTableRecord
100
AcDbViewportTableRecord
  2
L2
 70
     0
 10
0.0
 20
0.0
 11
0.5
 21
1.0
 12
0.0
 22
0.0
 13
0.0
 23
0.0
 14
0.5
 24
0.5
 15
0.5
 25
0.5
 16
0.0
 26
-1.0
 36
0.0
 17
0.0
 27
0.0
 37
0.0
 40
1352.580743
 41
0.013128
 42
50.0
 43
697.6196049999999
 44
-697.6196049999999
 50
0.0
 51
0.0
 71
     0
 72
   100
 73
     1
 74
     3
 75
     0
 76
     0
 77
     0
 78
     0
281
     0
 65
     1
110
0.0
120
0.0
130
0.0
111
1.0
121
0.0
131
0.0
112
0.0
122
1.0
132
0.0
 79
     0
146
0.0
  0
VPORT
  5
33E
330
8
100
AcDbSymbolTableRecord
100
AcDbViewportTableRecord
  2
L2
 70
     0
 10
0.5
 20
0.0
 11
1.0
 21
1.0
 12
0.0
 22
0.0
 13
0.0
 23
0.0
 14
0.5
 24
0.5
 15
0.5
 25
0.5
 16
1.0
 26
0.0
 36
0.0
 17
0.0
 27
0.0
 37
0.0
 40
1352.580743
 41
0.013128
 42
50.0
 43
684.197204
 44
-684.197204
 50
0.0
 51
0.0
 71
     0
 72
   100
 73
     1
 74
     3
 75
     0
 76
     0
 77
     0
 78
     0
281
     0
 65
     1
110
0.0
120
0.0
130
0.0
111
1.0
121
0.0
131
0.0
112
0.0
122
1.0
132
0.0
 79
     0
146
0.0
  0
VPORT
  5
33F
330
8
100
AcDbSymbolTableRecord
100
AcDbViewportTableRecord
  2
L3
 70
     0
 10
0.0
 20
0.5
 11
1.0
 21
1.0
 12
9.656121999999999
 22
15.043802
 13
0.0
 23
0.0
 14
0.5
 24
0.5
 15
0.5
 25
0.5
 16
0.0
 26
0.0
 36
1.0
 17
0.0
 27
0.0
 37
0.0
 40
207.433333
 41
0.085602
 42
50.0
 43
256.049398
 44
-256.049398
 50
0.0
 51
0.0
 71
     0
 72
   100
 73
     1
 74
     3
 75
     0
 76
     0
 77
     0
 78
     0
281
     0
 65
     1
110
0.0
120
0.0
130
0.0
111
1.0
121
0.0
131
0.0
112
0.0
122
1.0
132
0.0
 79
     0
146
0.0
  0
VPORT
  5
340
330
8
100
AcDbSymbolTableRecord
100
AcDbViewportTableRecord
  2
L3
 70
     0
 10
0.0
 20
0.0
 11
1.0
 21
0.5
 12
0.0
 22
0.0
 13
0.0
 23
0.0
 14
0.5
 24
0.5
 15
0.5
 25
0.5
 16
0.0
 26
-1.0
 36
0.0
 17
0.0
 27
0.0
 37
0.0
 40
1352.580743
 41
0.013128
 42
50.0
 43
697.6196049999999
 44
-697.6196049999999
 50
0.0
 51
0.0
 71
     0
 72
   100
 73
     1
 74
     3
 75
     0
 76
     0
 77
     0
 78
     0
281
     0
 65
     1
110
0.0
120
0.0
130
0.0
111
1.0
121
0.0
131
0.0
112
0.0
122
1.0
132
0.0
 79
     0
146
0.0
  0
VPORT
  5
341
330
8
100
AcDbSymbolTableRecord
100
AcDbViewportTableRecord
  2
L4
 70
     0
 10
0.0
 20
0.5
 11
0.5
 21
1.0
 12
9.656121999999999
 22
15.043802
 13
0.0
 23
0.0
 14
0.5
 24
0.5
 15
0.5
 25
0.5
 16
0.0
 26
0.0
 36
1.0
 17
0.0
 27
0.0
 37
0.0
 40
207.433333
 41
0.085602
 42
50.0
 43
256.049398
 44
-256.049398
 50
0.0
 51
0.0
 71
     0
 72
   100
 73
     1
 74
     3
 75
     0
 76
     0
 77
     0
 78
     0
281
     0
 65
     1
110
0.0
120
0.0
130
0.0
111
1.0
121
0.0
131
0.0
112
0.0
122
1.0
132
0.0
 79
     0
146
0.0
  0
VPORT
  5
342
330
8
100
AcDbSymbolTableRecord
100
AcDbViewportTableRecord
  2
L4
 70
     0
 10
0.0
 20
0.0
 11
0.5
 21
0.5
 12
0.0
 22
0.0
 13
0.0
 23
0.0
 14
0.5
 24
0.5
 15
0.5
 25
0.5
 16
0.0
 26
-1.0
 36
0.0
 17
0.0
 27
0.0
 37
0.0
 40
1352.580743
 41
0.013128
 42
50.0
 43
697.6196049999999
 44
-697.6196049999999
 50
0.0
 51
0.0
 71
     0
 72
   100
 73
     1
 74
     3
 75
     0
 76
     0
 77
     0
 78
     0
281
     0
 65
     1
110
0.0
120
0.0
130
0.0
111
1.0
121
0.0
131
0.0
112
0.0
122
1.0
132
0.0
 79
     0
146
0.0
  0
VPORT
  5
343
330
8
100
AcDbSymbolTableRecord
100
AcDbViewportTableRecord
  2
L4
 70
     0
 10
0.5
 20
0.0
 11
1.0
 21
0.5
 12
0.0
 22
0.0
 13
0.0
 23
0.0
 14
0.5
 24
0.5
 15
0.5
 25
0.5
 16
1.0
 26
0.0
 36
0.0
 17
0.0
 27
0.0
 37
0.0
 40
1352.580743
 41
0.013128
 42
50.0
 43
684.197204
 44
-684.197204
 50
0.0
 51
0.0
 71
     0
 72
   100
 73
     1
 74
     3
 75
     0
 76
     0
 77
     0
 78
     0
281
     0
 65
     1
110
0.0
120
0.0
130
0.0
111
1.0
121
0.0
131
0.0
112
0.0
122
1.0
132
0.0
 79
     0
146
0.0
  0
VPORT
  5
344
330
8
100
AcDbSymbolTableRecord
100
AcDbViewportTableRecord
  2
L4
 70
     0
 10
0.5
 20
0.5
 11
1.0
 21
1.0
 12
0.0
 22
0.0
 13
0.0
 23
0.0
 14
0.5
 24
0.5
 15
0.5
 25
0.5
 16
0.5773502691896259
 26
-0.5773502691896259
 36
0.5773502691896259
 17
0.0
 27
0.0
 37
0.0
 40
1328.834164
 41
0.013363
 42
50.0
 43
692.2684709999999
 44
-692.2684709999999
 50
0.0
 51
0.0
 71
     0
 72
   100
 73
     1
 74
     3
 75
     0
 76
     0
 77
     0
 78
     0
281
     0
 65
     1
110
0.0
120
0.0
130
0.0
111
1.0
121
0.0
131
0.0
112
0.0
122
1.0
132
0.0
 79
     0
146
0.0
  0
VPORT
  5
345
330
8
100
AcDbSymbolTableRecord
100
AcDbViewportTableRecord
  2
L6
 70
     0
 10
0.0
 20
0.5
 11
0.333333
 21
1.0
 12
0.0
 22
0.0
 13
0.0
 23
0.0
 14
0.5
 24
0.5
 15
0.5
 25
0.5
 16
0.7188730927569434
 26
-0.5850486126764433
 36
0.3754192287502549
 17
0.0
 27
0.0
 37
0.0
 40
1402.492696
 41
0.012661
 42
50.0
 43
726.139223
 44
-726.139223
 50
0.0
 51
0.0
 71
     0
 72
   100
 73
     1
 74
     3
 75
     0
 76
     0
 77
     0
 78
     0
281
     0
 65
     1
110
0.0
120
0.0
130
0.0
111
1.0
121
0.0
131
0.0
112
0.0
122
1.0
132
0.0
 79
     0
146
0.0
  0
VPORT
  5
346
330
8
100
AcDbSymbolTableRecord
100
AcDbViewportTableRecord
  2
L6
 70
     0
 10
0.0
 20
0.0
 11
0.333333
 21
0.5
 12
0.0
 22
0.0
 13
0.0
 23
0.0
 14
0.5
 24
0.5
 15
0.5
 25
0.5
 16
-1.0
 26
0.0
 36
0.0
 17
0.0
 27
0.0
 37
0.0
 40
1352.580743
 41
0.013128
 42
50.0
 43
684.197204
 44
-684.197204
 50
0.0
 51
0.0
 71
     0
 72
   100
 73
     1
 74
     3
 75
     0
 76
     0
 77
     0
 78
     0
281
     0
 65
     1
110
0.0
120
0.0
130
0.0
111
1.0
121
0.0
131
0.0
112
0.0
122
1.0
132
0.0
 79
     0
146
0.0
  0
VPORT
  5
347
330
8
100
AcDbSymbolTableRecord
100
AcDbViewportTableRecord
  2
L6
 70
     0
 10
0.333333
 20
0.5
 11
0.666667
 21
1.0
 12
9.656121999999999
 22
15.043802
 13
0.0
 23
0.0
 14
0.5
 24
0.5
 15
0.5
 25
0.5
 16
0.0
 26
0.0
 36
1.0
 17
0.0
 27
0.0
 37
0.0
 40
207.433333
 41
0.085602
 42
50.0
 43
256.049398
 44
-256.049398
 50
0.0
 51
0.0
 71
     0
 72
   100
 73
     1
 74
     3
 75
     0
 76
     0
 77
     0
 78
     0
281
     0
 65
     1
110
0.0
120
0.0
130
0.0
111
1.0
121
0.0
131
0.0
112
0.0
122
1.0
132
0.0
 79
     0
146
0.0
  0
VPORT
  5
348
330
8
100
AcDbSymbolTableRecord
100
AcDbViewportTableRecord
  2
L6
 70
     0
 10
0.333333
 20
0.0
 11
0.666667
 21
0.5
 12
0.0
 22
0.0
 13
0.0
 23
0.0
 14
0.5
 24
0.5
 15
0.5
 25
0.5
 16
0.0
 26
-1.0
 36
0.0
 17
0.0
 27
0.0
 37
0.0
 40
1352.580743
 41
0.013128
 42
50.0
 43
697.6196049999999
 44
-697.6196049999999
 50
0.0
 51
0.0
 71
     0
 72
   100
 73
     1
 74
     3
 75
     0
 76
     0
 77
     0
 78
     0
281
     0
 65
     1
110
0.0
120
0.0
130
0.0
111
1.0
121
0.0
131
0.0
112
0.0
122
1.0
132
0.0
 79
     0
146
0.0
  0
VPORT
  5
349
330
8
100
AcDbSymbolTableRecord
100
AcDbViewportTableRecord
  2
L6
 70
     0
 10
0.666667
 20
0.5
 11
1.0
 21
1.0
 12
0.0
 22
0.0
 13
0.0
 23
0.0
 14
0.5
 24
0.5
 15
0.5
 25
0.5
 16
0.5773502691896259
 26
-0.5773502691896259
 36
0.5773502691896259
 17
0.0
 27
0.0
 37
0.0
 40
1328.834164
 41
0.013363
 42
50.0
 43
692.2684709999999
 44
-692.2684709999999
 50
0.0
 51
0.0
 71
     0
 72
   100
 73
     1
 74
     3
 75
     0
 76
     0
 77
     0
 78
     0
281
     0
 65
     1
110
0.0
120
0.0
130
0.0
111
1.0
121
0.0
131
0.0
112
0.0
122
1.0
132
0.0
 79
     0
146
0.0
  0
VPORT
  5
34A
330
8
100
AcDbSymbolTableRecord
100
AcDbViewportTableRecord
  2
L6
 70
     0
 10
0.666667
 20
0.0
 11
1.0
 21
0.5
 12
0.0
 22
0.0
 13
0.0
 23
0.0
 14
0.5
 24
0.5
 15
0.5
 25
0.5
 16
1.0
 26
0.0
 36
0.0
 17
0.0
 27
0.0
 37
0.0
 40
1352.580743
 41
0.013128
 42
50.0
 43
684.197204
 44
-684.197204
 50
0.0
 51
0.0
 71
     0
 72
   100
 73
     1
 74
     3
 75
     0
 76
     0
 77
     0
 78
     0
281
     0
 65
     1
110
0.0
120
0.0
130
0.0
111
1.0
121
0.0
131
0.0
112
0.0
122
1.0
132
0.0
 79
     0
146
0.0
  0
ENDTAB
  0
TABLE
  2
LTYPE
  5
5
330
0
100
AcDbSymbolTable
 70
     6
  0
LTYPE
  5
14
330
5
100
AcDbSymbolTableRecord
100
AcDbLinetypeTableRecord
  2
ByBlock
 70
     0
  3

 72
    65
 73
     0
 40
0.0
  0
LTYPE
  5
15
330
5
100
AcDbSymbolTableRecord
100
AcDbLinetypeTableRecord
  2
ByLayer
 70
     0
  3

 72
    65
 73
     0
 40
0.0
  0
LTYPE
  5
16
330
5
100
AcDbSymbolTableRecord
100
AcDbLinetypeTableRecord
  2
Continuous
 70
     0
  3
Solid line
 72
    65
 73
     0
 40
0.0
  0
LTYPE
  5
6E
330
5
100
AcDbSymbolTableRecord
100
AcDbLinetypeTableRecord
  2
CENTER
 70
     0
  3
____ _ ____ _ ____ _ ____
 72
    65
 73
     4
 40
47.4
 49
22.0
 74
     4
 75
     0
340
0
 46
0.0
 50
0.0
 44
0.0
 45
0.0
 49
-8.5
 74
     4
 75
     0
340
0
 46
0.0
 50
0.0
 44
0.0
 45
0.0
 49
8.5
 74
     4
 75
     0
340
0
 46
0.0
 50
0.0
 44
0.0
 45
0.0
 49
-8.5
 74
     4
 75
     0
340
0
 46
0.0
 50
0.0
 44
0.0
 45
0.0
  0
LTYPE
  5
6F
330
5
100
AcDbSymbolTableRecord
100
AcDbLinetypeTableRecord
  2
DASHDOT
 70
     0
  3
_._._._._._._._._._._._._._._._.
 72
    65
 73
     4
 40
70.0
 49
31.0
 74
     4
 75
     0
340
0
 46
0.0
 50
0.0
 44
0.0
 45
0.0
 49
-13.0
 74
     4
 75
     0
340
0
 46
0.0
 50
0.0
 44
0.0
 45
0.0
 49
13.0
 74
     4
 75
     0
340
0
 46
0.0
 50
0.0
 44
0.0
 45
0.0
 49
-13.0
 74
     4
 75
     0
340
0
 46
0.0
 50
0.0
 44
0.0
 45
0.0
  0
LTYPE
  5
70
330
5
100
AcDbSymbolTableRecord
100
AcDbLinetypeTableRecord
  2
DASHED
 70
     0
  3
__ __ __ __ __ __ __ __ __
 72
    65
 73
     2
 40
25.72
 49
12.86
 74
     4
 75
     0
340
0
 46
0.0
 50
0.0
 44
0.0
 45
0.0
 49
-12.86
 74
     4
 75
     0
340
0
 46
0.0
 50
0.0
 44
0.0
 45
0.0
  0
LTYPE
  5
71
330
5
100
AcDbSymbolTableRecord
100
AcDbLinetypeTableRecord
  2
DOT
 70
     0
  3
.........................
 72
    65
 73
     2
 40
10.0
 49
0.0
 74
     4
 75
     0
340
0
 46
0.0
 50
0.0
 44
0.0
 45
0.0
 49
-10.0
 74
     4
 75
     0
340
0
 46
0.0
 50
0.0
 44
0.0
 45
0.0
  0
LTYPE
  5
72
330
5
100
AcDbSymbolTableRecord
100
AcDbLinetypeTableRecord
  2
PHANTOM
 70
     0
  3
____ _ _ ____ _ _ _____ _ _ ____
 72
    65
 73
     6
 40
50.5
 49
18.0
 74
     4
 75
     0
340
0
 46
0.0
 50
0.0
 44
0.0
 45
0.0
 49
-6.5
 74
     4
 75
     0
340
0
 46
0.0
 50
0.0
 44
0.0
 45
0.0
 49
6.5
 74
     4
 75
     0
340
0
 46
0.0
 50
0.0
 44
0.0
 45
0.0
 49
-6.5
 74
     4
 75
     0
340
0
 46
0.0
 50
0.0
 44
0.0
 45
0.0
 49
6.5
 74
     4
 75
     0
340
0
 46
0.0
 50
0.0
 44
0.0
 45
0.0
 49
-6.5
 74
     4
 75
     0
340
0
 46
0.0
 50
0.0
 44
0.0
 45
0.0
  0
ENDTAB
  0
TABLE
  2
LAYER
  5
2
330
0
100
AcDbSymbolTable
 70
    14
  0
LAYER
  5
10
102
{ACAD_XDICTIONARY
360
60E
102
}
330
2
100
AcDbSymbolTableRecord
100
AcDbLayerTableRecord
  2
0
 70
     0
 62
     7
  6
Continuous
370
    -3
390
F
  0
LAYER
  5
601
102
{ACAD_XDICTIONARY
360
610
102
}
330
2
100
AcDbSymbolTableRecord
100
AcDbLayerTableRecord
  2
1
 70
     0
 62
     4
  6
Continuous
370
    -3
390
F
  0
LAYER
  5
602
102
{ACAD_XDICTIONARY
360
612
102
}
330
2
100
AcDbSymbolTableRecord
100
AcDbLayerTableRecord
  2
2
 70
     0
 62
     7
  6
Continuous
370
    -3
390
F
  0
LAYER
  5
603
102
{ACAD_XDICTIONARY
360
614
102
}
330
2
100
AcDbSymbolTableRecord
100
AcDbLayerTableRecord
  2
4
 70
     0
 62
     2
  6
CENTER
370
    -3
390
F
  0
LAYER
  5
605
102
{ACAD_XDICTIONARY
360
616
102
}
330
2
100
AcDbSymbolTableRecord
100
AcDbLayerTableRecord
  2
SK2
 70
     0
 62
     7
  6
Continuous
370
    -3
390
F
  0
LAYER
  5
606
102
{ACAD_XDICTIONARY
360
618
102
}
330
2
100
AcDbSymbolTableRecord
100
AcDbLayerTableRecord
  2
SK3
 70
     0
 62
     1
  6
DASHED
370
    -3
390
F
  0
LAYER
  5
607
102
{ACAD_XDICTIONARY
360
61A
102
}
330
2
100
AcDbSymbolTableRecord
100
AcDbLayerTableRecord
  2
SK4
 70
     0
 62
     2
  6
CENTER
370
    -3
390
F
  0
LAYER
  5
608
102
{ACAD_XDICTIONARY
360
61C
102
}
330
2
100
AcDbSymbolTableRecord
100
AcDbLayerTableRecord
  2
SK6
 70
     0
 62
     5
  6
Continuous
370
    -3
390
F
  0
LAYER
  5
609
102
{ACAD_XDICTIONARY
360
61E
102
}
330
2
100
AcDbSymbolTableRecord
100
AcDbLayerTableRecord
  2
CUT
 70
     0
 62
     1
  6
Continuous
370
    -3
390
F
  0
LAYER
  5
60A
102
{ACAD_XDICTIONARY
360
620
102
}
330
2
100
AcDbSymbolTableRecord
100
AcDbLayerTableRecord
  2
NOCUT
 70
     0
 62
     7
  6
Continuous
370
    -3
390
F
  0
LAYER
  5
60B
102
{ACAD_XDICTIONARY
360
622
102
}
330
2
100
AcDbSymbolTableRecord
100
AcDbLayerTableRecord
  2
80
 70
     0
 62
     6
  6
Continuous
370
    -3
390
F
  0
LAYER
  5
60C
102
{ACAD_XDICTIONARY
360
624
102
}
330
2
100
AcDbSymbolTableRecord
100
AcDbLayerTableRecord
  2
81
 70
     0
 62
     3
  6
Continuous
370
    -3
390
F
  0
LAYER
  5
60D
102
{ACAD_XDICTIONARY
360
626
102
}
330
2
100
AcDbSymbolTableRecord
100
AcDbLayerTableRecord
  2
SK1
 70
     0
 62
     4
  6
Continuous
370
    -3
390
F
  0
LAYER
  5
397
330
2
100
AcDbSymbolTableRecord
100
AcDbLayerTableRecord
  2
Defpoints
 70
     0
 62
     7
  6
Continuous
290
     0
370
    -3
390
F
  0
ENDTAB
  0
TABLE
  2
STYLE
  5
3
330
0
100
AcDbSymbolTable
 70
     2
  0
STYLE
  5
11
330
3
100
AcDbSymbolTableRecord
100
AcDbTextStyleTableRecord
  2
Standard
 70
     0
 40
0.0
 41
1.0
 50
0.0
 71
     0
 42
0.2
  3
txt
  4

  0
STYLE
  5
29F
330
3
100
AcDbSymbolTableRecord
100
AcDbTextStyleTableRecord
  2
Arial
 70
     0
 40
0.0
 41
1.0
 50
0.0
 71
     0
 42
0.2
  3
Arial
  4

1001
ACAD
1000
Arial
1071
        0
  0
ENDTAB
  0
TABLE
  2
VIEW
  5
6
330
0
100
AcDbSymbolTable
 70
     8
  0
VIEW
  5
334
330
6
100
AcDbSymbolTableRecord
100
AcDbViewTableRecord
  2
Top
 70
     0
 40
207.433333
 10
9.656121999999999
 20
15.043802
 41
342.370833
 11
0.0
 21
0.0
 31
1.0
 12
0.0
 22
0.0
 32
0.0
 42
50.0
 43
256.049398
 44
-256.049398
 50
0.0
 71
     0
281
     0
 72
     0
  0
VIEW
  5
335
330
6
100
AcDbSymbolTableRecord
100
AcDbViewTableRecord
  2
Front
 70
     0
 40
1352.580743
 10
0.0
 20
0.0
 41
342.370833
 11
0.0
 21
-1.0
 31
0.0
 12
0.0
 22
0.0
 32
0.0
 42
50.0
 43
697.6196049999999
 44
-697.6196049999999
 50
0.0
 71
     0
281
     0
 72
     0
  0
VIEW
  5
336
330
6
100
AcDbSymbolTableRecord
100
AcDbViewTableRecord
  2
Right
 70
     0
 40
1352.580743
 10
0.0
 20
0.0
 41
207.433333
 11
1.0
 21
0.0
 31
0.0
 12
0.0
 22
0.0
 32
0.0
 42
50.0
 43
684.197204
 44
-684.197204
 50
0.0
 71
     0
281
     0
 72
     0
  0
VIEW
  5
337
330
6
100
AcDbSymbolTableRecord
100
AcDbViewTableRecord
  2
Back
 70
     0
 40
1352.580743
 10
0.0
 20
0.0
 41
342.370833
 11
0.0
 21
1.0
 31
0.0
 12
0.0
 22
0.0
 32
0.0
 42
50.0
 43
697.6196049999999
 44
-697.6196049999999
 50
0.0
 71
     0
281
     0
 72
     0
  0
VIEW
  5
338
330
6
100
AcDbSymbolTableRecord
100
AcDbViewTableRecord
  2
Bottom
 70
     0
 40
207.433333
 10
0.0
 20
0.0
 41
342.370833
 11
0.0
 21
0.0
 31
-1.0
 12
0.0
 22
0.0
 32
0.0
 42
50.0
 43
676.2903719999999
 44
-676.2903719999999
 50
180.0
 71
     0
281
     0
 72
     0
  0
VIEW
  5
339
330
6
100
AcDbSymbolTableRecord
100
AcDbViewTableRecord
  2
Left
 70
     0
 40
1352.580743
 10
0.0
 20
0.0
 41
207.433333
 11
-1.0
 21
0.0
 31
0.0
 12
0.0
 22
0.0
 32
0.0
 42
50.0
 43
684.197204
 44
-684.197204
 50
0.0
 71
     0
281
     0
 72
     0
  0
VIEW
  5
33A
330
6
100
AcDbSymbolTableRecord
100
AcDbViewTableRecord
  2
Isometric
 70
     0
 40
1328.834164
 10
0.0
 20
0.0
 41
388.770255
 11
0.5773502691896259
 21
-0.5773502691896259
 31
0.5773502691896259
 12
0.0
 22
0.0
 32
0.0
 42
50.0
 43
692.2684709999999
 44
-692.2684709999999
 50
0.0
 71
     0
281
     0
 72
     0
  0
VIEW
  5
33B
330
6
100
AcDbSymbolTableRecord
100
AcDbViewTableRecord
  2
Trimetric
 70
     0
 40
1402.492696
 10
0.0
 20
0.0
 41
376.997243
 11
0.7188730927569434
 21
-0.5850486126764433
 31
0.3754192287502549
 12
0.0
 22
0.0
 32
0.0
 42
50.0
 43
726.139223
 44
-726.139223
 50
0.0
 71
     0
281
     0
 72
     0
  0
ENDTAB
  0
TABLE
  2
UCS
  5
7
330
0
100
AcDbSymbolTable
 70
     0
  0
ENDTAB
  0
TABLE
  2
APPID
  5
9
330
0
100
AcDbSymbolTable
 70
     7
  0
APPID
  5
12
330
9
100
AcDbSymbolTableRecord
100
AcDbRegAppTableRecord
  2
ACAD
 70
     0
  0
APPID
  5
2A0
330
9
100
AcDbSymbolTableRecord
100
AcDbRegAppTableRecord
  2
ACAD_DSTYLE_DIMBREAK
 70
     0
  0
APPID
  5
34B
330
9
100
AcDbSymbolTableRecord
100
AcDbRegAppTableRecord
  2
ACAD_DSTYLE_DIM_LINETYPE
 70
     0
  0
APPID
  5
34C
330
9
100
AcDbSymbolTableRecord
100
AcDbRegAppTableRecord
  2
ACAD_DSTYLE_DIM_EXT1_LINETYPE
 70
     0
  0
APPID
  5
34D
330
9
100
AcDbSymbolTableRecord
100
AcDbRegAppTableRecord
  2
ACAD_DSTYLE_DIM_EXT2_LINETYPE
 70
     0
  0
APPID
  5
38D
330
9
100
AcDbSymbolTableRecord
100
AcDbRegAppTableRecord
  2
ACAD_MLEADERVER
 70
     0
  0
APPID
  5
641
330
9
100
AcDbSymbolTableRecord
100
AcDbRegAppTableRecord
  2
ACAD_NAV_VCDISPLAY
 70
     0
  0
ENDTAB
  0
TABLE
  2
DIMSTYLE
  5
A
330
0
100
AcDbSymbolTable
 70
     1
100
AcDbDimStyleTable
 71
     0
  0
DIMSTYLE
105
27
102
{ACAD_REACTORS
330
2A1
330
2BB
330
2D5
330
2EC
330
304
330
31C
102
}
330
A
100
AcDbSymbolTableRecord
100
AcDbDimStyleTableRecord
  2
Standard
 70
     0
340
11
1001
ACAD_DSTYLE_DIMBREAK
1070
   391
1040
6.349999999999999
  0
ENDTAB
  0
TABLE
  2
BLOCK_RECORD
  5
1
330
0
100
AcDbSymbolTable
 70
    13
  0
BLOCK_RECORD
  5
1F
330
1
100
AcDbSymbolTableRecord
100
AcDbBlockTableRecord
  2
*Model_Space
340
22
  0
BLOCK_RECORD
  5
1B
330
1
100
AcDbSymbolTableRecord
100
AcDbBlockTableRecord
  2
*Paper_Space
340
1E
  0
BLOCK_RECORD
  5
23
330
1
100
AcDbSymbolTableRecord
100
AcDbBlockTableRecord
  2
*Paper_Space0
340
26
  0
BLOCK_RECORD
  5
2A5
330
1
100
AcDbSymbolTableRecord
100
AcDbBlockTableRecord
  2
*D1
340
0
  0
BLOCK_RECORD
  5
2B1
330
1
100
AcDbSymbolTableRecord
100
AcDbBlockTableRecord
  2
_U0
340
0
  0
BLOCK_RECORD
  5
2BE
330
1
100
AcDbSymbolTableRecord
100
AcDbBlockTableRecord
  2
*D3
340
0
  0
BLOCK_RECORD
  5
2CC
330
1
100
AcDbSymbolTableRecord
100
AcDbBlockTableRecord
  2
_U1
340
0
  0
BLOCK_RECORD
  5
2D8
330
1
100
AcDbSymbolTableRecord
100
AcDbBlockTableRecord
  2
*D5
340
0
  0
BLOCK_RECORD
  5
2E4
330
1
100
AcDbSymbolTableRecord
100
AcDbBlockTableRecord
  2
_U2
340
0
  0
BLOCK_RECORD
  5
2EF
330
1
100
AcDbSymbolTableRecord
100
AcDbBlockTableRecord
  2
*D7
340
0
  0
BLOCK_RECORD
  5
2FB
330
1
100
AcDbSymbolTableRecord
100
AcDbBlockTableRecord
  2
_U3
340
0
  0
BLOCK_RECORD
  5
307
330
1
100
AcDbSymbolTableRecord
100
AcDbBlockTableRecord
  2
*D9
340
0
  0
BLOCK_RECORD
  5
313
330
1
100
AcDbSymbolTableRecord
100
AcDbBlockTableRecord
  2
_U4
340
0
  0
BLOCK_RECORD
  5
31F
330
1
100
AcDbSymbolTableRecord
100
AcDbBlockTableRecord
  2
*D11
340
0
  0
BLOCK_RECORD
  5
32B
330
1
100
AcDbSymbolTableRecord
100
AcDbBlockTableRecord
  2
_U5
340
0
  0
ENDTAB
  0
ENDSEC
  0
SECTION
  2
BLOCKS
  0
BLOCK
  5
20
330
1F
100
AcDbEntity
  8
0
100
AcDbBlockBegin
  2
*Model_Space
 70
     0
 10
0.0
 20
0.0
 30
0.0
  3
*Model_Space
  1

  0
ENDBLK
  5
21
330
1F
100
AcDbEntity
  8
0
100
AcDbBlockEnd
  0
BLOCK
  5
1C
330
1B
100
AcDbEntity
 67
     1
  8
0
100
AcDbBlockBegin
  2
*Paper_Space
 70
     0
 10
0.0
 20
0.0
 30
0.0
  3
*Paper_Space
  1

  0
ENDBLK
  5
1D
330
1B
100
AcDbEntity
 67
     1
  8
0
100
AcDbBlockEnd
  0
BLOCK
  5
24
330
23
100
AcDbEntity
 67
     1
  8
0
100
AcDbBlockBegin
  2
*Paper_Space0
 70
     0
 10
0.0
 20
0.0
 30
0.0
  3
*Paper_Space0
  1

  0
ENDBLK
  5
25
330
23
100
AcDbEntity
 67
     1
  8
0
100
AcDbBlockEnd
  0
BLOCK
  5
2A6
330
2A5
100
AcDbEntity
  8
0
100
AcDbBlockBegin
  2
*D1
 70
     1
 10
0.0
 20
0.0
 30
0.0
  3
*D1
  1

  0
LINE
  5
2A8
330
2A5
100
AcDbEntity
  8
SK2
370
    -2
100
AcDbLine
 10
46.625
 20
7.9375
 30
0.0
 11
-58.33219599999999
 21
7.9375
 31
0.0
  0
LINE
  5
2A9
330
2A5
100
AcDbEntity
  8
SK2
370
    -2
100
AcDbLine
 10
-43.875
 20
-7.9375
 30
0.0
 11
-58.33219599999999
 21
-7.9375
 31
0.0
  0
LINE
  5
2AA
330
2A5
100
AcDbEntity
  8
SK2
370
    -2
100
AcDbLine
 10
-56.332196
 20
5.4375
 30
0.0
 11
-56.332196
 21
-5.4375
 31
0.0
  0
SOLID
  5
2AB
330
2A5
100
AcDbEntity
  8
SK2
100
AcDbTrace
 10
-55.915529
 20
5.4375
 30
0.0
 11
-56.748863
 21
5.4375
 31
0.0
 12
-56.332196
 22
7.9375
 32
0.0
 13
-56.332196
 23
7.9375
 33
0.0
  0
SOLID
  5
2AC
330
2A5
100
AcDbEntity
  8
SK2
100
AcDbTrace
 10
-56.748863
 20
-5.4375
 30
0.0
 11
-55.915529
 21
-5.4375
 31
0.0
 12
-56.332196
 22
-7.9375
 32
0.0
 13
-56.332196
 23
-7.9375
 33
0.0
  0
MTEXT
  5
2AD
330
2A5
100
AcDbEntity
  8
SK2
370
    18
100
AcDbMText
 10
-60.10844599999999
 20
0.0
 30
0.0
 40
2.5
 41
0.0
 71
     5
 72
     1
  1
\A1;15.9
  7
Arial
 11
0.0
 21
1.0
 31
0.0
 73
     1
 44
1.0
1001
ACAD
1000
MTEXTBEGIN
1070
    73
1070
     1
1070
    44
1040
1.0
1070
    74
1070
     0
1000
MTEXTEND
  0
POINT
  5
2AE
330
2A5
100
AcDbEntity
  8
Defpoints
 62
     0
100
AcDbPoint
 10
47.625
 20
7.9375
 30
0.0
  0
POINT
  5
2AF
330
2A5
100
AcDbEntity
  8
Defpoints
 62
     0
100
AcDbPoint
 10
-42.875
 20
-7.9375
 30
0.0
  0
POINT
  5
2B0
330
2A5
100
AcDbEntity
  8
Defpoints
 62
     0
100
AcDbPoint
 10
-56.332196
 20
-7.9375
 30
0.0
  0
ENDBLK
  5
2A7
330
2A5
100
AcDbEntity
  8
0
100
AcDbBlockEnd
  0
BLOCK
  5
2B9
330
2B1
100
AcDbEntity
  8
0
100
AcDbBlockBegin
  2
_U0
 70
     0
 10
0.0
 20
0.0
 30
0.0
  3
_U0
  1

  0
MTEXT
  5
2B2
330
2B1
100
AcDbEntity
  8
SK2
370
    13
100
AcDbMText
 10
-57.205878
 20
-1.553574
 30
0.0
 40
2.5
 41
0.0
 71
     7
 72
     5
  1
\fArial|b0|i0;\W1.0000;15,9
  7
Arial
 11
0.0000000000000001
 21
1.0
 31
0.0
 73
     2
 44
1.047437
1001
ACAD
1000
MTEXTBEGIN
1070
    73
1070
     2
1070
    44
1040
1.047437
1070
    74
1070
     0
1000
MTEXTEND
  0
MTEXT
  5
2B3
330
2B1
100
AcDbEntity
  8
SK2
370
    13
100
AcDbMText
 10
-57.205878
 20
-5.768834
 30
0.0
 40
2.5
 41
0.0
 71
     7
 72
     5
  1
\fArial|b0|i0;%%c
  7
Arial
 11
0.0000000000000001
 21
1.0
 31
0.0
 73
     2
 44
1.047437
1001
ACAD
1000
MTEXTBEGIN
1070
    73
1070
     2
1070
    44
1040
1.047437
1070
    74
1070
     0
1000
MTEXTEND
  0
LINE
  5
2B4
330
2B1
100
AcDbEntity
  8
SK2
370
    13
100
AcDbLine
 10
-43.875
 20
7.9375
 30
0.0
 11
-58.33219599999999
 21
7.9375
 31
0.0
  0
LINE
  5
2B5
330
2B1
100
AcDbEntity
  8
SK2
370
    13
100
AcDbLine
 10
-43.875
 20
-7.9375
 30
0.0
 11
-58.33219599999999
 21
-7.9375
 31
0.0
  0
LINE
  5
2B6
330
2B1
100
AcDbEntity
  8
SK2
370
    13
100
AcDbLine
 10
-56.332196
 20
14.1875
 30
0.0
 11
-56.332196
 21
-14.1875
 31
0.0
  0
SOLID
  5
2B7
330
2B1
100
AcDbEntity
  8
SK2
370
    18
100
AcDbTrace
 10
-56.332196
 20
7.9375
 30
0.0
 11
-56.77301299999999
 21
10.437498
 31
0.0
 12
-55.891379
 22
10.437502
 32
0.0
 13
-55.891379
 23
10.437502
 33
0.0
  0
SOLID
  5
2B8
330
2B1
100
AcDbEntity
  8
SK2
370
    18
100
AcDbTrace
 10
-56.332196
 20
-7.9375
 30
0.0
 11
-55.891379
 21
-10.437498
 31
0.0
 12
-56.77301299999999
 22
-10.437502
 32
0.0
 13
-56.77301299999999
 23
-10.437502
 33
0.0
  0
ENDBLK
  5
2BA
330
2B1
100
AcDbEntity
  8
0
100
AcDbBlockEnd
  0
BLOCK
  5
2BF
330
2BE
100
AcDbEntity
  8
0
100
AcDbBlockBegin
  2
*D3
 70
     1
 10
0.0
 20
0.0
 30
0.0
  3
*D3
  1

  0
LINE
  5
2C1
330
2BE
100
AcDbEntity
  8
2
370
    -2
100
AcDbLine
 10
64.125
 20
8.870779999999999
 30
0.0
 11
64.125
 21
15.432384
 31
0.0
  0
LINE
  5
2C2
330
2BE
100
AcDbEntity
  8
2
370
    -2
100
AcDbLine
 10
66.625
 20
9.9375
 30
0.0
 11
66.625
 21
15.432384
 31
0.0
  0
LINE
  5
2C3
330
2BE
100
AcDbEntity
  8
2
370
    -2
100
AcDbLine
 10
66.625
 20
13.432384
 30
0.0
 11
82.606274
 21
13.432384
 31
0.0
  0
LINE
  5
2C4
330
2BE
100
AcDbEntity
  8
2
370
    -2
100
AcDbLine
 10
61.625
 20
13.432384
 30
0.0
 11
59.125
 21
13.432384
 31
0.0
  0
LINE
  5
2C5
330
2BE
100
AcDbEntity
  8
2
370
    -2
100
AcDbLine
 10
69.125
 20
13.432384
 30
0.0
 11
71.625
 21
13.432384
 31
0.0
  0
SOLID
  5
2C6
330
2BE
100
AcDbEntity
  8
2
100
AcDbTrace
 10
61.625
 20
13.015717
 30
0.0
 11
61.625
 21
13.849051
 31
0.0
 12
64.125
 22
13.432384
 32
0.0
 13
64.125
 23
13.432384
 33
0.0
  0
SOLID
  5
2C7
330
2BE
100
AcDbEntity
  8
2
100
AcDbTrace
 10
69.125
 20
13.849051
 30
0.0
 11
69.125
 21
13.015717
 31
0.0
 12
66.625
 22
13.432384
 32
0.0
 13
66.625
 23
13.432384
 33
0.0
  0
MTEXT
  5
2C8
330
2BE
100
AcDbEntity
  8
2
370
    18
100
AcDbMText
 10
77.80252400000001
 20
17.208634
 30
0.0
 40
2.5
 41
0.0
 71
     5
 72
     1
  1
\A1;2.5
  7
Arial
 73
     1
 44
1.0
1001
ACAD
1000
MTEXTBEGIN
1070
    73
1070
     1
1070
    44
1040
1.0
1070
    74
1070
     0
1000
MTEXTEND
  0
POINT
  5
2C9
330
2BE
100
AcDbEntity
  8
Defpoints
 62
     0
100
AcDbPoint
 10
64.125
 20
7.870779999999999
 30
0.0
  0
POINT
  5
2CA
330
2BE
100
AcDbEntity
  8
Defpoints
 62
     0
100
AcDbPoint
 10
66.625
 20
8.9375
 30
0.0
  0
POINT
  5
2CB
330
2BE
100
AcDbEntity
  8
Defpoints
 62
     0
100
AcDbPoint
 10
66.625
 20
13.432384
 30
0.0
  0
ENDBLK
  5
2C0
330
2BE
100
AcDbEntity
  8
0
100
AcDbBlockEnd
  0
BLOCK
  5
2D3
330
2CC
100
AcDbEntity
  8
0
100
AcDbBlockBegin
  2
_U1
 70
     0
 10
0.0
 20
0.0
 30
0.0
  3
_U1
  1

  0
LINE
  5
62F
330
2CC
100
AcDbEntity
  8
2
  6
Continuous
 62
   254
370
    13
100
AcDbLine
 10
61.61090463593365
 20
8.798642130297224
 30
0.0
 11
61.61090463593365
 21
15.432384
 31
0.0
  0
LINE
  5
630
330
2CC
100
AcDbEntity
  8
2
  6
Continuous
 62
   254
370
    13
100
AcDbLine
 10
66.625
 20
9.9375
 30
0.0
 11
66.625
 21
15.432384
 31
0.0
  0
LINE
  5
631
330
2CC
100
AcDbEntity
  8
2
  6
Continuous
 62
   254
370
    13
100
AcDbLine
 10
59.11090463593365
 20
13.432384
 30
0.0
 11
56.61090463593365
 21
13.432384
 31
0.0
  0
LINE
  5
632
330
2CC
100
AcDbEntity
  8
2
  6
Continuous
 62
   254
370
    13
100
AcDbLine
 10
69.125
 20
13.432384
 30
0.0
 11
79.88130981173262
 21
13.432384
 31
0.0
  0
LINE
  5
633
330
2CC
100
AcDbEntity
  8
2
  6
Continuous
 62
   254
370
    13
100
AcDbLine
 10
61.61090463593365
 20
13.432384
 30
0.0
 11
66.625
 21
13.432384
 31
0.0
  0
SOLID
  5
634
330
2CC
100
AcDbEntity
  8
2
 62
   254
370
    18
100
AcDbTrace
 10
59.11090463593365
 20
13.84905066666666
 30
0.0
 11
59.11090463593365
 21
13.01571733333333
 31
0.0
 12
61.61090463593365
 22
13.432384
 32
0.0
 13
61.61090463593365
 23
13.432384
 33
0.0
  0
SOLID
  5
635
330
2CC
100
AcDbEntity
  8
2
 62
   254
370
    18
100
AcDbTrace
 10
69.125
 20
13.84905066666666
 30
0.0
 11
69.125
 21
13.01571733333333
 31
0.0
 12
66.625
 22
13.432384
 32
0.0
 13
66.625
 23
13.432384
 33
0.0
  0
MTEXT
  5
636
330
2CC
100
AcDbEntity
  8
2
 62
   254
370
    13
100
AcDbMText
 10
76.9737381882674
 20
17.22501701500682
 30
0.0
 40
2.5
 41
0.0
 71
     1
 72
     1
  1
\A1;5
  7
Arial
 73
     1
 44
1.0
1001
ACAD
1000
MTEXTBEGIN
1070
    73
1070
     1
1070
    44
1040
1.0
1070
    74
1070
     0
1000
MTEXTEND
  0
POINT
  5
637
330
2CC
100
AcDbEntity
  8
Defpoints
 62
     0
370
    18
100
AcDbPoint
 10
61.61090463593365
 20
7.798642130297224
 30
0.0
  0
POINT
  5
638
330
2CC
100
AcDbEntity
  8
Defpoints
 62
     0
370
    18
100
AcDbPoint
 10
66.625
 20
8.9375
 30
0.0
  0
POINT
  5
639
330
2CC
100
AcDbEntity
  8
Defpoints
 62
     0
370
    18
100
AcDbPoint
 10
66.625
 20
13.432384
 30
0.0
  0
ENDBLK
  5
2D4
330
2CC
100
AcDbEntity
  8
0
100
AcDbBlockEnd
  0
BLOCK
  5
2D9
330
2D8
100
AcDbEntity
  8
0
100
AcDbBlockBegin
  2
*D5
 70
     1
 10
0.0
 20
0.0
 30
0.0
  3
*D5
  1

  0
LINE
  5
2DB
330
2D8
100
AcDbEntity
  8
2
370
    -2
100
AcDbLine
 10
66.625
 20
7.9375
 30
0.0
 11
79.66780400000001
 21
7.9375
 31
0.0
  0
LINE
  5
2DC
330
2D8
100
AcDbEntity
  8
2
370
    -2
100
AcDbLine
 10
67.625
 20
-7.9375
 30
0.0
 11
79.66780400000001
 21
-7.9375
 31
0.0
  0
LINE
  5
2DD
330
2D8
100
AcDbEntity
  8
2
370
    -2
100
AcDbLine
 10
77.667804
 20
-7.9375
 30
0.0
 11
77.667804
 21
-30.013764
 31
0.0
  0
LINE
  5
2DE
330
2D8
100
AcDbEntity
  8
2
370
    -2
100
AcDbLine
 10
77.667804
 20
7.9375
 30
0.0
 11
77.667804
 21
-7.9375
 31
0.0
  0
SOLID
  5
2DF
330
2D8
100
AcDbEntity
  8
2
100
AcDbTrace
 10
78.08447099999999
 20
5.4375
 30
0.0
 11
77.251137
 21
5.4375
 31
0.0
 12
77.667804
 22
7.9375
 32
0.0
 13
77.667804
 23
7.9375
 33
0.0
  0
MTEXT
  5
2E0
330
2D8
100
AcDbEntity
  8
2
370
    18
100
AcDbMText
 10
73.89155399999999
 20
-23.415014
 30
0.0
 40
2.5
 41
0.0
 71
     5
 72
     1
  1
\A1;15.88
  7
Arial
 11
0.0
 21
1.0
 31
0.0
 73
     1
 44
1.0
1001
ACAD
1000
MTEXTBEGIN
1070
    73
1070
     1
1070
    44
1040
1.0
1070
    74
1070
     0
1000
MTEXTEND
  0
POINT
  5
2E1
330
2D8
100
AcDbEntity
  8
Defpoints
 62
     0
100
AcDbPoint
 10
65.625
 20
7.9375
 30
0.0
  0
POINT
  5
2E2
330
2D8
100
AcDbEntity
  8
Defpoints
 62
     0
100
AcDbPoint
 10
66.625
 20
-7.9375
 30
0.0
  0
POINT
  5
2E3
330
2D8
100
AcDbEntity
  8
Defpoints
 62
     0
100
AcDbPoint
 10
77.667804
 20
-7.9375
 30
0.0
  0
ENDBLK
  5
2DA
330
2D8
100
AcDbEntity
  8
0
100
AcDbBlockEnd
  0
BLOCK
  5
2EA
330
2E4
100
AcDbEntity
  8
0
100
AcDbBlockBegin
  2
_U2
 70
     0
 10
0.0
 20
0.0
 30
0.0
  3
_U2
  1

  0
MTEXT
  5
2E5
330
2E4
100
AcDbEntity
  8
2
370
    13
100
AcDbMText
 10
76.794122
 20
-26.064768
 30
0.0
 40
2.5
 41
0.0
 71
     7
 72
     5
  1
\fArial|b0|i0;\W1.0000;15,88
  7
Arial
 11
0.0000000000000001
 21
1.0
 31
0.0
 73
     2
 44
1.047437
1001
ACAD
1000
MTEXTBEGIN
1070
    73
1070
     2
1070
    44
1040
1.047437
1070
    74
1070
     0
1000
MTEXTEND
  0
MTEXT
  5
2E6
330
2E4
100
AcDbEntity
  8
2
370
    13
100
AcDbMText
 10
76.794122
 20
-30.280029
 30
0.0
 40
2.5
 41
0.0
 71
     7
 72
     5
  1
\fArial|b0|i0;%%c
  7
Arial
 11
0.0000000000000001
 21
1.0
 31
0.0
 73
     2
 44
1.047437
1001
ACAD
1000
MTEXTBEGIN
1070
    73
1070
     2
1070
    44
1040
1.047437
1070
    74
1070
     0
1000
MTEXTEND
  0
LINE
  5
2E7
330
2E4
100
AcDbEntity
  8
2
370
    13
100
AcDbLine
 10
68.625
 20
7.9375
 30
0.0
 11
79.66780400000001
 21
7.9375
 31
0.0
  0
LINE
  5
2E8
330
2E4
100
AcDbEntity
  8
2
370
    13
100
AcDbLine
 10
77.667804
 20
7.9375
 30
0.0
 11
77.667804
 21
-30.392529
 31
0.0
  0
SOLID
  5
2E9
330
2E4
100
AcDbEntity
  8
2
370
    18
100
AcDbTrace
 10
77.667804
 20
7.9375
 30
0.0
 11
78.108621
 21
5.437501999999999
 31
0.0
 12
77.22698699999999
 22
5.437498
 32
0.0
 13
77.22698699999999
 23
5.437498
 33
0.0
  0
ENDBLK
  5
2EB
330
2E4
100
AcDbEntity
  8
0
100
AcDbBlockEnd
  0
BLOCK
  5
2F0
330
2EF
100
AcDbEntity
  8
0
100
AcDbBlockBegin
  2
*D7
 70
     1
 10
0.0
 20
0.0
 30
0.0
  3
*D7
  1

  0
LINE
  5
2F2
330
2EF
100
AcDbEntity
  8
2
370
    -2
100
AcDbLine
 10
47.625
 20
8.9375
 30
0.0
 11
47.625
 21
31.432384
 31
0.0
  0
LINE
  5
2F3
330
2EF
100
AcDbEntity
  8
2
370
    -2
100
AcDbLine
 10
66.625
 20
9.9375
 30
0.0
 11
66.625
 21
31.432384
 31
0.0
  0
LINE
  5
2F4
330
2EF
100
AcDbEntity
  8
2
370
    -2
100
AcDbLine
 10
50.125
 20
29.432384
 30
0.0
 11
64.125
 21
29.432384
 31
0.0
  0
SOLID
  5
2F5
330
2EF
100
AcDbEntity
  8
2
100
AcDbTrace
 10
50.125
 20
29.849051
 30
0.0
 11
50.125
 21
29.015717
 31
0.0
 12
47.625
 22
29.432384
 32
0.0
 13
47.625
 23
29.432384
 33
0.0
  0
SOLID
  5
2F6
330
2EF
100
AcDbEntity
  8
2
100
AcDbTrace
 10
64.125
 20
29.015717
 30
0.0
 11
64.125
 21
29.849051
 31
0.0
 12
66.625
 22
29.432384
 32
0.0
 13
66.625
 23
29.432384
 33
0.0
  0
MTEXT
  5
2F7
330
2EF
100
AcDbEntity
  8
2
370
    18
100
AcDbMText
 10
57.125
 20
33.208634
 30
0.0
 40
2.5
 41
0.0
 71
     5
 72
     1
  1
\A1;19
  7
Arial
 73
     1
 44
1.0
1001
ACAD
1000
MTEXTBEGIN
1070
    73
1070
     1
1070
    44
1040
1.0
1070
    74
1070
     0
1000
MTEXTEND
  0
POINT
  5
2F8
330
2EF
100
AcDbEntity
  8
Defpoints
 62
     0
100
AcDbPoint
 10
47.625
 20
7.9375
 30
0.0
  0
POINT
  5
2F9
330
2EF
100
AcDbEntity
  8
Defpoints
 62
     0
100
AcDbPoint
 10
66.625
 20
8.9375
 30
0.0
  0
POINT
  5
2FA
330
2EF
100
AcDbEntity
  8
Defpoints
 62
     0
100
AcDbPoint
 10
66.625
 20
29.432384
 30
0.0
  0
ENDBLK
  5
2F1
330
2EF
100
AcDbEntity
  8
0
100
AcDbBlockEnd
  0
BLOCK
  5
302
330
2FB
100
AcDbEntity
  8
0
100
AcDbBlockBegin
  2
_U3
 70
     0
 10
0.0
 20
0.0
 30
0.0
  3
_U3
  1

  0
MTEXT
  5
2FC
330
2FB
100
AcDbEntity
  8
2
370
    13
100
AcDbMText
 10
55.19014
 20
30.05478800000001
 30
0.0
 40
2.5
 41
0.0
 71
     7
 72
     5
  1
\fArial|b0|i0;\W1.0000;19
  7
Arial
 73
     2
 44
1.047437
1001
ACAD
1000
MTEXTBEGIN
1070
    73
1070
     2
1070
    44
1040
1.047437
1070
    74
1070
     0
1000
MTEXTEND
  0
LINE
  5
2FD
330
2FB
100
AcDbEntity
  8
2
370
    13
100
AcDbLine
 10
47.625
 20
8.9375
 30
0.0
 11
47.625
 21
31.432384
 31
0.0
  0
LINE
  5
2FE
330
2FB
100
AcDbEntity
  8
2
370
    13
100
AcDbLine
 10
66.625
 20
9.9375
 30
0.0
 11
66.625
 21
31.432384
 31
0.0
  0
LINE
  5
2FF
330
2FB
100
AcDbEntity
  8
2
370
    13
100
AcDbLine
 10
47.625
 20
29.432384
 30
0.0
 11
66.625
 21
29.432384
 31
0.0
  0
SOLID
  5
300
330
2FB
100
AcDbEntity
  8
2
370
    18
100
AcDbTrace
 10
47.625
 20
29.432384
 30
0.0
 11
50.124998
 21
29.873201
 31
0.0
 12
50.125002
 22
28.991567
 32
0.0
 13
50.125002
 23
28.991567
 33
0.0
  0
SOLID
  5
301
330
2FB
100
AcDbEntity
  8
2
370
    18
100
AcDbTrace
 10
66.625
 20
29.432384
 30
0.0
 11
64.125002
 21
28.991567
 31
0.0
 12
64.124998
 22
29.873201
 32
0.0
 13
64.124998
 23
29.873201
 33
0.0
  0
ENDBLK
  5
303
330
2FB
100
AcDbEntity
  8
0
100
AcDbBlockEnd
  0
BLOCK
  5
308
330
307
100
AcDbEntity
  8
0
100
AcDbBlockBegin
  2
*D9
 70
     1
 10
0.0
 20
0.0
 30
0.0
  3
*D9
  1

  0
LINE
  5
30A
330
307
100
AcDbEntity
  8
SK2
370
    -2
100
AcDbLine
 10
0.0
 20
2.0
 30
0.0
 11
0.0
 21
39.43238400000001
 31
0.0
  0
LINE
  5
30B
330
307
100
AcDbEntity
  8
SK2
370
    -2
100
AcDbLine
 10
66.625
 20
9.9375
 30
0.0
 11
66.625
 21
39.43238400000001
 31
0.0
  0
LINE
  5
30C
330
307
100
AcDbEntity
  8
SK2
370
    -2
100
AcDbLine
 10
2.5
 20
37.43238400000001
 30
0.0
 11
64.125
 21
37.43238400000001
 31
0.0
  0
SOLID
  5
30D
330
307
100
AcDbEntity
  8
SK2
100
AcDbTrace
 10
2.5
 20
37.849051
 30
0.0
 11
2.5
 21
37.015717
 31
0.0
 12
0.0
 22
37.43238400000001
 32
0.0
 13
0.0
 23
37.43238400000001
 33
0.0
  0
SOLID
  5
30E
330
307
100
AcDbEntity
  8
SK2
100
AcDbTrace
 10
64.125
 20
37.015717
 30
0.0
 11
64.125
 21
37.849051
 31
0.0
 12
66.625
 22
37.43238400000001
 32
0.0
 13
66.625
 23
37.43238400000001
 33
0.0
  0
MTEXT
  5
30F
330
307
100
AcDbEntity
  8
SK2
370
    18
100
AcDbMText
 10
33.3125
 20
41.208634
 30
0.0
 40
2.5
 41
0.0
 71
     5
 72
     1
  1
\A1;66.6
  7
Arial
 73
     1
 44
1.0
1001
ACAD
1000
MTEXTBEGIN
1070
    73
1070
     1
1070
    44
1040
1.0
1070
    74
1070
     0
1000
MTEXTEND
  0
POINT
  5
310
330
307
100
AcDbEntity
  8
Defpoints
 62
     0
100
AcDbPoint
 10
0.0
 20
1.0
 30
0.0
  0
POINT
  5
311
330
307
100
AcDbEntity
  8
Defpoints
 62
     0
100
AcDbPoint
 10
66.625
 20
8.9375
 30
0.0
  0
POINT
  5
312
330
307
100
AcDbEntity
  8
Defpoints
 62
     0
100
AcDbPoint
 10
66.625
 20
37.43238400000001
 30
0.0
  0
ENDBLK
  5
309
330
307
100
AcDbEntity
  8
0
100
AcDbBlockEnd
  0
BLOCK
  5
31A
330
313
100
AcDbEntity
  8
0
100
AcDbBlockBegin
  2
_U4
 70
     0
 10
0.0
 20
0.0
 30
0.0
  3
_U4
  1

  0
MTEXT
  5
314
330
313
100
AcDbEntity
  8
SK2
370
    13
100
AcDbMText
 10
29.671296
 20
38.054788
 30
0.0
 40
2.5
 41
0.0
 71
     7
 72
     5
  1
\fArial|b0|i0;\W1.0000;66,6
  7
Arial
 73
     2
 44
1.047437
1001
ACAD
1000
MTEXTBEGIN
1070
    73
1070
     2
1070
    44
1040
1.047437
1070
    74
1070
     0
1000
MTEXTEND
  0
LINE
  5
315
330
313
100
AcDbEntity
  8
SK2
370
    13
100
AcDbLine
 10
0.0
 20
2.0
 30
0.0
 11
0.0
 21
39.43238400000001
 31
0.0
  0
LINE
  5
316
330
313
100
AcDbEntity
  8
SK2
370
    13
100
AcDbLine
 10
66.625
 20
9.9375
 30
0.0
 11
66.625
 21
39.43238400000001
 31
0.0
  0
LINE
  5
317
330
313
100
AcDbEntity
  8
SK2
370
    13
100
AcDbLine
 10
0.0
 20
37.43238400000001
 30
0.0
 11
66.625
 21
37.43238400000001
 31
0.0
  0
SOLID
  5
318
330
313
100
AcDbEntity
  8
SK2
370
    18
100
AcDbTrace
 10
0.0
 20
37.43238400000001
 30
0.0
 11
2.499998
 21
37.873201
 31
0.0
 12
2.500001999999999
 22
36.991567
 32
0.0
 13
2.500001999999999
 23
36.991567
 33
0.0
  0
SOLID
  5
319
330
313
100
AcDbEntity
  8
SK2
370
    18
100
AcDbTrace
 10
66.625
 20
37.43238400000001
 30
0.0
 11
64.125002
 21
36.991567
 31
0.0
 12
64.124998
 22
37.873201
 32
0.0
 13
64.124998
 23
37.873201
 33
0.0
  0
ENDBLK
  5
31B
330
313
100
AcDbEntity
  8
0
100
AcDbBlockEnd
  0
BLOCK
  5
320
330
31F
100
AcDbEntity
  8
0
100
AcDbBlockBegin
  2
*D11
 70
     1
 10
0.0
 20
0.0
 30
0.0
  3
*D11
  1

  0
LINE
  5
322
330
31F
100
AcDbEntity
  8
SK2
370
    -2
100
AcDbLine
 10
-43.375
 20
8.4375
 30
0.0
 11
-43.375
 21
47.432384
 31
0.0
  0
LINE
  5
323
330
31F
100
AcDbEntity
  8
SK2
370
    -2
100
AcDbLine
 10
66.625
 20
9.9375
 30
0.0
 11
66.625
 21
47.432384
 31
0.0
  0
LINE
  5
324
330
31F
100
AcDbEntity
  8
SK2
370
    -2
100
AcDbLine
 10
-40.875
 20
45.432384
 30
0.0
 11
64.125
 21
45.432384
 31
0.0
  0
SOLID
  5
325
330
31F
100
AcDbEntity
  8
SK2
100
AcDbTrace
 10
-40.875
 20
45.849051
 30
0.0
 11
-40.875
 21
45.01571699999999
 31
0.0
 12
-43.375
 22
45.432384
 32
0.0
 13
-43.375
 23
45.432384
 33
0.0
  0
SOLID
  5
326
330
31F
100
AcDbEntity
  8
SK2
100
AcDbTrace
 10
64.125
 20
45.01571699999999
 30
0.0
 11
64.125
 21
45.849051
 31
0.0
 12
66.625
 22
45.432384
 32
0.0
 13
66.625
 23
45.432384
 33
0.0
  0
MTEXT
  5
327
330
31F
100
AcDbEntity
  8
SK2
370
    18
100
AcDbMText
 10
11.625
 20
49.208634
 30
0.0
 40
2.5
 41
0.0
 71
     5
 72
     1
  1
\A1;110
  7
Arial
 73
     1
 44
1.0
1001
ACAD
1000
MTEXTBEGIN
1070
    73
1070
     1
1070
    44
1040
1.0
1070
    74
1070
     0
1000
MTEXTEND
  0
POINT
  5
328
330
31F
100
AcDbEntity
  8
Defpoints
 62
     0
100
AcDbPoint
 10
-43.375
 20
7.4375
 30
0.0
  0
POINT
  5
329
330
31F
100
AcDbEntity
  8
Defpoints
 62
     0
100
AcDbPoint
 10
66.625
 20
8.9375
 30
0.0
  0
POINT
  5
32A
330
31F
100
AcDbEntity
  8
Defpoints
 62
     0
100
AcDbPoint
 10
66.625
 20
45.432384
 30
0.0
  0
ENDBLK
  5
321
330
31F
100
AcDbEntity
  8
0
100
AcDbBlockEnd
  0
BLOCK
  5
332
330
32B
100
AcDbEntity
  8
0
100
AcDbBlockBegin
  2
_U5
 70
     0
 10
0.0
 20
0.0
 30
0.0
  3
_U5
  1

  0
MTEXT
  5
32C
330
32B
100
AcDbEntity
  8
SK2
370
    13
100
AcDbMText
 10
8.723563999999999
 20
46.054788
 30
0.0
 40
2.5
 41
0.0
 71
     7
 72
     5
  1
\fArial|b0|i0;\W1.0000;110
  7
Arial
 73
     2
 44
1.047437
1001
ACAD
1000
MTEXTBEGIN
1070
    73
1070
     2
1070
    44
1040
1.047437
1070
    74
1070
     0
1000
MTEXTEND
  0
LINE
  5
32D
330
32B
100
AcDbEntity
  8
SK2
370
    13
100
AcDbLine
 10
-43.375
 20
8.4375
 30
0.0
 11
-43.375
 21
47.432384
 31
0.0
  0
LINE
  5
32E
330
32B
100
AcDbEntity
  8
SK2
370
    13
100
AcDbLine
 10
66.625
 20
9.9375
 30
0.0
 11
66.625
 21
47.432384
 31
0.0
  0
LINE
  5
32F
330
32B
100
AcDbEntity
  8
SK2
370
    13
100
AcDbLine
 10
-43.375
 20
45.432384
 30
0.0
 11
66.625
 21
45.432384
 31
0.0
  0
SOLID
  5
330
330
32B
100
AcDbEntity
  8
SK2
370
    18
100
AcDbTrace
 10
-43.375
 20
45.432384
 30
0.0
 11
-40.875002
 21
45.873201
 31
0.0
 12
-40.87499799999999
 22
44.99156699999999
 32
0.0
 13
-40.87499799999999
 23
44.99156699999999
 33
0.0
  0
SOLID
  5
331
330
32B
100
AcDbEntity
  8
SK2
370
    18
100
AcDbTrace
 10
66.625
 20
45.432384
 30
0.0
 11
64.125002
 21
44.99156699999999
 31
0.0
 12
64.124998
 22
45.873201
 32
0.0
 13
64.124998
 23
45.873201
 33
0.0
  0
ENDBLK
  5
333
330
32B
100
AcDbEntity
  8
0
100
AcDbBlockEnd
  0
ENDSEC
  0
SECTION
  2
ENTITIES
  0
LINE
  5
76
330
1F
100
AcDbEntity
  8
4
370
    18
100
AcDbLine
 10
45.625
 20
0.0
 30
0.0
 11
69.625
 21
0.0
 31
0.0
  0
LINE
  5
77
330
1F
100
AcDbEntity
  8
SK4
370
    18
100
AcDbLine
 10
-45.375
 20
0.0
 30
0.0
 11
49.625
 21
0.0
 31
0.0
  0
LINE
  5
78
330
1F
100
AcDbEntity
  8
1
370
    18
100
AcDbLine
 10
56.53615
 20
-3.606562999999999
 30
0.0
 11
56.953212
 21
-3.557023999999999
 31
0.0
  0
LINE
  5
7A
330
1F
100
AcDbEntity
  8
1
370
    18
100
AcDbLine
 10
60.17241999999999
 20
2.002258
 30
0.0
 11
60.144324
 21
1.928245
 31
0.0
  0
LINE
  5
7B
330
1F
100
AcDbEntity
  8
1
370
    18
100
AcDbLine
 10
60.213448
 20
2.053271
 30
0.0
 11
60.22862599999999
 21
1.987365
 31
0.0
  0
LINE
  5
7C
330
1F
100
AcDbEntity
  8
1
370
    18
100
AcDbLine
 10
58.944485
 20
0.341634
 30
0.0
 11
58.658654
 21
0.314373
 31
0.0
  0
LINE
  5
7D
330
1F
100
AcDbEntity
  8
1
370
    18
100
AcDbLine
 10
64.532951
 20
3.948894
 30
0.0
 11
63.35159100000001
 21
4.110134999999999
 31
0.0
  0
LINE
  5
7E
330
1F
100
AcDbEntity
  8
1
370
    18
100
AcDbLine
 10
64.67298199999999
 20
4.943534999999999
 30
0.0
 11
64.532951
 21
3.948894
 31
0.0
  0
LINE
  5
7F
330
1F
100
AcDbEntity
  8
1
370
    18
100
AcDbLine
 10
62.484818
 20
5.17886
 30
0.0
 11
62.35331
 21
4.245595999999999
 31
0.0
  0
LINE
  5
80
330
1F
100
AcDbEntity
  8
1
370
    18
100
AcDbLine
 10
63.331537
 20
4.112864
 30
0.0
 11
62.35331
 21
4.245595999999999
 31
0.0
  0
LINE
  5
81
330
1F
100
AcDbEntity
  8
1
370
    18
100
AcDbLine
 10
61.12873399999999
 20
-2.888565
 30
0.0
 11
61.34918100000001
 21
-2.840158
 31
0.0
  0
LINE
  5
82
330
1F
100
AcDbEntity
  8
1
370
    18
100
AcDbLine
 10
61.78041700000001
 20
-2.735406
 30
0.0
 11
61.293134
 21
-5.711319
 31
0.0
  0
LINE
  5
83
330
1F
100
AcDbEntity
  8
1
370
    18
100
AcDbLine
 10
58.641241
 20
-1.560521999999999
 30
0.0
 11
58.804283
 21
-1.781990999999999
 31
0.0
  0
LINE
  5
84
330
1F
100
AcDbEntity
  8
1
370
    18
100
AcDbLine
 10
59.367488
 20
-2.460811
 30
0.0
 11
59.916922
 21
-2.975713999999999
 31
0.0
  0
LINE
  5
85
330
1F
100
AcDbEntity
  8
1
370
    18
100
AcDbLine
 10
61.882065
 20
-2.640212
 30
0.0
 11
61.78041700000001
 21
-2.735406
 31
0.0
  0
LINE
  5
86
330
1F
100
AcDbEntity
  8
1
370
    18
100
AcDbLine
 10
62.76325899999999
 20
-4.319954
 30
0.0
 11
62.96964499999999
 21
-2.446531
 31
0.0
  0
LINE
  5
87
330
1F
100
AcDbEntity
  8
1
370
    18
100
AcDbLine
 10
62.37455699999999
 20
-5.154977999999999
 30
0.0
 11
62.377593
 21
-5.908869
 31
0.0
  0
LINE
  5
88
330
1F
100
AcDbEntity
  8
1
370
    18
100
AcDbLine
 10
62.35331
 20
-6.037662999999999
 30
0.0
 11
62.377593
 21
-5.908869
 31
0.0
  0
LINE
  5
89
330
1F
100
AcDbEntity
  8
1
370
    18
100
AcDbLine
 10
62.35331
 20
-6.037662999999999
 30
0.0
 11
63.331537
 21
-6.111475
 31
0.0
  0
LINE
  5
8A
330
1F
100
AcDbEntity
  8
1
370
    18
100
AcDbLine
 10
60.49277700000001
 20
-2.669852
 30
0.0
 11
59.985392
 21
-1.668888
 31
0.0
  0
LINE
  5
8B
330
1F
100
AcDbEntity
  8
1
370
    18
100
AcDbLine
 10
59.899178
 20
-1.086886
 30
0.0
 11
59.562783
 21
-0.8643920000000001
 31
0.0
  0
LINE
  5
8C
330
1F
100
AcDbEntity
  8
1
370
    18
100
AcDbLine
 10
64.532951
 20
-6.183951
 30
0.0
 11
64.569686
 21
-6.002308999999999
 31
0.0
  0
LINE
  5
8D
330
1F
100
AcDbEntity
  8
1
370
    18
100
AcDbLine
 10
63.35159100000001
 20
-6.112835999999999
 30
0.0
 11
64.532951
 21
-6.183951
 31
0.0
  0
LINE
  5
8E
330
1F
100
AcDbEntity
  8
1
370
    18
100
AcDbLine
 10
59.363512
 20
-0.5702810000000001
 30
0.0
 11
59.46191800000001
 21
-0.71527
 31
0.0
  0
LINE
  5
8F
330
1F
100
AcDbEntity
  8
1
370
    18
100
AcDbLine
 10
64.151791
 20
-0.9450379999999999
 30
0.0
 11
63.99276999999999
 21
-0.793628
 31
0.0
  0
LINE
  5
90
330
1F
100
AcDbEntity
  8
1
370
    18
100
AcDbLine
 10
60.22862599999999
 20
-6.978985999999999
 30
0.0
 11
60.213448
 21
-7.098328999999999
 31
0.0
  0
LINE
  5
91
330
1F
100
AcDbEntity
  8
1
370
    18
100
AcDbLine
 10
66.590614
 20
6.36805
 30
0.0
 11
66.60508799999999
 21
6.452912
 31
0.0
  0
LINE
  5
93
330
1F
100
AcDbEntity
  8
1
370
    18
100
AcDbLine
 10
66.617558
 20
6.589236999999999
 30
0.0
 11
66.61856999999999
 21
6.681389
 31
0.0
  0
LINE
  5
94
330
1F
100
AcDbEntity
  8
1
370
    18
100
AcDbLine
 10
66.30859699999999
 20
4.760777
 30
0.0
 11
66.25954899999999
 21
4.441176
 31
0.0
  0
LINE
  5
95
330
1F
100
AcDbEntity
  8
1
370
    18
100
AcDbLine
 10
64.2706
 20
6.336022999999999
 30
0.0
 11
64.01787500000001
 21
6.677636999999999
 31
0.0
  0
LINE
  5
96
330
1F
100
AcDbEntity
  8
1
370
    18
100
AcDbLine
 10
63.06346
 20
6.960503999999999
 30
0.0
 11
62.978152
 21
6.956271
 31
0.0
  0
LINE
  5
97
330
1F
100
AcDbEntity
  8
1
370
    18
100
AcDbLine
 10
61.62933299999999
 20
5.60739
 30
0.0
 11
61.660077
 21
5.177501
 31
0.0
  0
LINE
  5
98
330
1F
100
AcDbEntity
  8
1
370
    18
100
AcDbLine
 10
64.28619399999999
 20
6.305857999999999
 30
0.0
 11
64.092012
 21
6.548980999999999
 31
0.0
  0
LINE
  5
99
330
1F
100
AcDbEntity
  8
1
370
    18
100
AcDbLine
 10
59.642439
 20
6.459405999999999
 30
0.0
 11
59.701442
 21
6.769050999999999
 31
0.0
  0
LINE
  5
9A
330
1F
100
AcDbEntity
  8
1
370
    18
100
AcDbLine
 10
59.701442
 20
0.815277
 30
0.0
 11
59.642439
 21
0.770496
 31
0.0
  0
LINE
  5
9B
330
1F
100
AcDbEntity
  8
1
370
    18
100
AcDbLine
 10
63.242221
 20
0.042827
 30
0.0
 11
63.342795
 21
0.02992
 31
0.0
  0
LINE
  5
9C
330
1F
100
AcDbEntity
  8
1
370
    18
100
AcDbLine
 10
62.049652
 20
0.220457
 30
0.0
 11
63.267614
 21
0.038472
 31
0.0
  0
LINE
  5
9D
330
1F
100
AcDbEntity
  8
1
370
    18
100
AcDbLine
 10
62.963807
 20
0.090385
 30
0.0
 11
63.249368
 21
0.052178
 31
0.0
  0
LINE
  5
9E
330
1F
100
AcDbEntity
  8
1
370
    18
100
AcDbLine
 10
62.20380200000001
 20
0.207103
 30
0.0
 11
62.963806
 21
0.090385
 31
0.0
  0
LINE
  5
9F
330
1F
100
AcDbEntity
  8
1
370
    18
100
AcDbLine
 10
61.63160699999999
 20
0.3875
 30
0.0
 11
61.485278
 21
0.374519
 31
0.0
  0
LINE
  5
A0
330
1F
100
AcDbEntity
  8
1
370
    18
100
AcDbLine
 10
63.695398
 20
2.185209999999999
 30
0.0
 11
63.168562
 21
2.258129999999999
 31
0.0
  0
LINE
  5
A1
330
1F
100
AcDbEntity
  8
1
370
    18
100
AcDbLine
 10
62.46904
 20
6.144506999999999
 30
0.0
 11
62.758549
 21
6.31523
 31
0.0
  0
LINE
  5
A3
330
1F
100
AcDbEntity
  8
1
370
    18
100
AcDbLine
 10
62.417572
 20
6.163048
 30
0.0
 11
62.46904
 21
6.144506999999999
 31
0.0
  0
LINE
  5
A4
330
1F
100
AcDbEntity
  8
1
370
    18
100
AcDbLine
 10
62.417572
 20
6.163048
 30
0.0
 11
62.33356999999999
 21
6.169939
 31
0.0
  0
LINE
  5
A5
330
1F
100
AcDbEntity
  8
1
370
    18
100
AcDbLine
 10
62.33356999999999
 20
6.169939
 30
0.0
 11
62.16542099999999
 21
5.87896
 31
0.0
  0
LINE
  5
A6
330
1F
100
AcDbEntity
  8
1
370
    18
100
AcDbLine
 10
62.16542099999999
 20
5.87896
 30
0.0
 11
62.21408499999999
 21
5.810916999999999
 31
0.0
  0
LINE
  5
A7
330
1F
100
AcDbEntity
  8
1
370
    18
100
AcDbLine
 10
62.25637800000001
 20
5.776498999999999
 30
0.0
 11
62.21408499999999
 21
5.810916999999999
 31
0.0
  0
LINE
  5
A8
330
1F
100
AcDbEntity
  8
1
370
    18
100
AcDbLine
 10
62.254645
 20
5.443233
 30
0.0
 11
62.25637800000001
 21
5.776498999999999
 31
0.0
  0
LINE
  5
A9
330
1F
100
AcDbEntity
  8
1
370
    18
100
AcDbLine
 10
62.211987
 20
5.407611
 30
0.0
 11
62.254645
 21
5.443233
 31
0.0
  0
LINE
  5
AA
330
1F
100
AcDbEntity
  8
1
370
    18
100
AcDbLine
 10
62.211987
 20
5.407611
 30
0.0
 11
62.162608
 21
5.338179
 31
0.0
  0
LINE
  5
AB
330
1F
100
AcDbEntity
  8
1
370
    18
100
AcDbLine
 10
62.162608
 20
5.338179
 30
0.0
 11
62.270617
 21
5.098637999999999
 31
0.0
  0
LINE
  5
AC
330
1F
100
AcDbEntity
  8
1
370
    18
100
AcDbLine
 10
63.46232099999999
 20
5.095349999999999
 30
0.0
 11
63.21358599999999
 21
4.975437999999999
 31
0.0
  0
LINE
  5
AD
330
1F
100
AcDbEntity
  8
1
370
    18
100
AcDbLine
 10
63.513789
 20
5.076808999999999
 30
0.0
 11
63.46232099999999
 21
5.095349999999999
 31
0.0
  0
LINE
  5
AE
330
1F
100
AcDbEntity
  8
1
370
    18
100
AcDbLine
 10
63.513789
 20
5.076808999999999
 30
0.0
 11
63.59779200000001
 21
5.069918
 31
0.0
  0
LINE
  5
AF
330
1F
100
AcDbEntity
  8
1
370
    18
100
AcDbLine
 10
63.59779200000001
 20
5.069918
 30
0.0
 11
63.76594100000001
 21
5.360897
 31
0.0
  0
LINE
  5
B0
330
1F
100
AcDbEntity
  8
1
370
    18
100
AcDbLine
 10
63.76594100000001
 20
5.360897
 30
0.0
 11
63.717277
 21
5.428939999999999
 31
0.0
  0
LINE
  5
B1
330
1F
100
AcDbEntity
  8
1
370
    18
100
AcDbLine
 10
63.674983
 20
5.463358
 30
0.0
 11
63.717277
 21
5.428939999999999
 31
0.0
  0
LINE
  5
B2
330
1F
100
AcDbEntity
  8
1
370
    18
100
AcDbLine
 10
63.676717
 20
5.796623999999999
 30
0.0
 11
63.674983
 21
5.463358
 31
0.0
  0
LINE
  5
B3
330
1F
100
AcDbEntity
  8
1
370
    18
100
AcDbLine
 10
63.719374
 20
5.832245999999999
 30
0.0
 11
63.676717
 21
5.796623999999999
 31
0.0
  0
LINE
  5
B4
330
1F
100
AcDbEntity
  8
1
370
    18
100
AcDbLine
 10
63.719374
 20
5.832245999999999
 30
0.0
 11
63.768754
 21
5.901677999999999
 31
0.0
  0
LINE
  5
B5
330
1F
100
AcDbEntity
  8
1
370
    18
100
AcDbLine
 10
63.768754
 20
5.901677999999999
 30
0.0
 11
63.603607
 21
6.187933999999999
 31
0.0
  0
LINE
  5
B6
330
1F
100
AcDbEntity
  8
1
370
    18
100
AcDbLine
 10
63.603607
 20
6.187933999999999
 30
0.0
 11
63.519521
 21
6.178662
 31
0.0
  0
LINE
  5
B7
330
1F
100
AcDbEntity
  8
1
370
    18
100
AcDbLine
 10
63.467852
 20
6.158658999999999
 30
0.0
 11
63.519521
 21
6.178662
 31
0.0
  0
LINE
  5
B8
330
1F
100
AcDbEntity
  8
1
370
    18
100
AcDbLine
 10
63.180076
 20
6.321202999999999
 30
0.0
 11
63.467852
 21
6.158658999999999
 31
0.0
  0
LINE
  5
B9
330
1F
100
AcDbEntity
  8
1
370
    18
100
AcDbLine
 10
63.171266
 20
6.375365
 30
0.0
 11
63.180076
 21
6.321202999999999
 31
0.0
  0
LINE
  5
BA
330
1F
100
AcDbEntity
  8
1
370
    18
100
AcDbLine
 10
63.171266
 20
6.375365
 30
0.0
 11
63.13664300000001
 21
6.451687999999999
 31
0.0
  0
LINE
  5
BB
330
1F
100
AcDbEntity
  8
1
370
    18
100
AcDbLine
 10
63.13664300000001
 20
6.451687999999999
 30
0.0
 11
62.803347
 21
6.446966
 31
0.0
  0
LINE
  5
BC
330
1F
100
AcDbEntity
  8
1
370
    18
100
AcDbLine
 10
62.803347
 20
6.446966
 30
0.0
 11
62.76792499999999
 21
6.36965
 31
0.0
  0
LINE
  5
BD
330
1F
100
AcDbEntity
  8
1
370
    18
100
AcDbLine
 10
62.758549
 20
6.31523
 30
0.0
 11
62.76792499999999
 21
6.36965
 31
0.0
  0
LINE
  5
BE
330
1F
100
AcDbEntity
  8
1
370
    18
100
AcDbLine
 10
66.25954899999999
 20
-4.443821999999999
 30
0.0
 11
66.30859699999999
 21
-4.763112999999999
 31
0.0
  0
LINE
  5
BF
330
1F
100
AcDbEntity
  8
1
370
    18
100
AcDbLine
 10
66.60508799999999
 20
-6.436992
 30
0.0
 11
66.590614
 21
-6.352867999999999
 31
0.0
  0
LINE
  5
C0
330
1F
100
AcDbEntity
  8
1
370
    18
100
AcDbLine
 10
66.61856999999999
 20
-6.665402999999999
 30
0.0
 11
66.617558
 21
-6.572947999999999
 31
0.0
  0
LINE
  5
C1
330
1F
100
AcDbEntity
  8
1
370
    18
100
AcDbLine
 10
62.476282
 20
0.1912
 30
0.0
 11
62.804512
 21
0.141159
 31
0.0
  0
LINE
  5
C2
330
1F
100
AcDbEntity
  8
1
370
    18
100
AcDbLine
 10
63.829515
 20
4.24195
 30
0.0
 11
63.534616
 21
4.285394999999999
 31
0.0
  0
LINE
  5
C3
330
1F
100
AcDbEntity
  8
1
370
    18
100
AcDbLine
 10
63.77289799999999
 20
4.260233999999999
 30
0.0
 11
63.53594399999999
 21
4.294769
 31
0.0
  0
LINE
  5
C4
330
1F
100
AcDbEntity
  8
CUT
370
    18
100
AcDbLine
 10
59.221757
 20
4.990798
 30
0.0
 11
59.201005
 21
4.912213999999999
 31
0.0
  0
LINE
  5
C6
330
1F
100
AcDbEntity
  8
CUT
370
    18
100
AcDbLine
 10
66.30859699999999
 20
4.760777
 30
0.0
 11
66.25954899999999
 21
4.441176
 31
0.0
  0
LINE
  5
C7
330
1F
100
AcDbEntity
  8
CUT
370
    18
100
AcDbLine
 10
59.18263299999999
 20
4.781791
 30
0.0
 11
59.18046
 21
4.690799
 31
0.0
  0
LINE
  5
C8
330
1F
100
AcDbEntity
  8
CUT
370
    18
100
AcDbLine
 10
66.590614
 20
6.36805
 30
0.0
 11
66.60508799999999
 21
6.452912
 31
0.0
  0
LINE
  5
C9
330
1F
100
AcDbEntity
  8
CUT
370
    18
100
AcDbLine
 10
66.617558
 20
6.589236999999999
 30
0.0
 11
66.61856999999999
 21
6.681389
 31
0.0
  0
LINE
  5
CA
330
1F
100
AcDbEntity
  8
CUT
370
    18
100
AcDbLine
 10
59.642439
 20
6.459405999999999
 30
0.0
 11
59.701442
 21
6.769050999999999
 31
0.0
  0
LINE
  5
CB
330
1F
100
AcDbEntity
  8
1
370
    18
100
AcDbLine
 10
65.95815999999999
 20
-1.662054999999999
 30
0.0
 11
66.008719
 21
-1.662686999999999
 31
0.0
  0
LINE
  5
CC
330
1F
100
AcDbEntity
  8
1
370
    18
100
AcDbLine
 10
66.52422299999999
 20
-0.081098
 30
0.0
 11
66.622989
 21
0.7102050000000001
 31
0.0
  0
LINE
  5
CD
330
1F
100
AcDbEntity
  8
1
370
    18
100
AcDbLine
 10
66.31062800000001
 20
-1.759002999999999
 30
0.0
 11
66.44370699999999
 21
-0.7145060000000001
 31
0.0
  0
LINE
  5
CE
330
1F
100
AcDbEntity
  8
1
370
    18
100
AcDbLine
 10
51.450189
 20
0.139654
 30
0.0
 11
51.467121
 21
1.625579
 31
0.0
  0
LINE
  5
CF
330
1F
100
AcDbEntity
  8
1
370
    18
100
AcDbLine
 10
54.008529
 20
-3.788833
 30
0.0
 11
56.53615
 21
-3.606562999999999
 31
0.0
  0
LINE
  5
D0
330
1F
100
AcDbEntity
  8
1
370
    18
100
AcDbLine
 10
53.968377
 20
-3.837992999999999
 30
0.0
 11
54.03840899999999
 21
-3.826849999999999
 31
0.0
  0
LINE
  5
D1
330
1F
100
AcDbEntity
  8
1
370
    18
100
AcDbLine
 10
59.79815699999999
 20
1.06757
 30
0.0
 11
59.855534
 21
1.078218
 31
0.0
  0
LINE
  5
D2
330
1F
100
AcDbEntity
  8
1
370
    18
100
AcDbLine
 10
59.85900799999999
 20
1.135008999999999
 30
0.0
 11
59.797916
 21
1.068214999999999
 31
0.0
  0
LINE
  5
D3
330
1F
100
AcDbEntity
  8
1
370
    18
100
AcDbLine
 10
59.79791500000001
 20
1.068213999999999
 30
0.0
 11
59.59345899999999
 21
1.086675999999999
 31
0.0
  0
LINE
  5
D4
330
1F
100
AcDbEntity
  8
1
370
    18
100
AcDbLine
 10
59.86606
 20
1.139613999999999
 30
0.0
 11
60.144324
 21
1.928245
 31
0.0
  0
LINE
  5
D5
330
1F
100
AcDbEntity
  8
1
370
    18
100
AcDbLine
 10
60.21343
 20
2.053215
 30
0.0
 11
60.17241999999999
 21
2.002258
 31
0.0
  0
LINE
  5
D6
330
1F
100
AcDbEntity
  8
1
370
    18
100
AcDbLine
 10
59.683701
 20
0.9758359999999999
 30
0.0
 11
59.79815699999999
 21
1.06757
 31
0.0
  0
LINE
  5
D7
330
1F
100
AcDbEntity
  8
1
370
    18
100
AcDbLine
 10
59.855534
 20
1.078218
 30
0.0
 11
59.75195600000001
 21
0.9964549999999999
 31
0.0
  0
LINE
  5
D8
330
1F
100
AcDbEntity
  8
1
370
    18
100
AcDbLine
 10
59.683701
 20
0.9758359999999999
 30
0.0
 11
59.75195600000001
 21
0.9964549999999999
 31
0.0
  0
LINE
  5
D9
330
1F
100
AcDbEntity
  8
1
370
    18
100
AcDbLine
 10
58.75040699999999
 20
1.18022
 30
0.0
 11
52.928311
 21
2.307506
 31
0.0
  0
LINE
  5
DA
330
1F
100
AcDbEntity
  8
1
370
    18
100
AcDbLine
 10
59.336783
 20
1.102376999999999
 30
0.0
 11
58.75040699999999
 21
1.18022
 31
0.0
  0
LINE
  5
DB
330
1F
100
AcDbEntity
  8
1
370
    18
100
AcDbLine
 10
59.59345899999999
 20
1.086677
 30
0.0
 11
59.336783
 21
1.102376999999999
 31
0.0
  0
LINE
  5
DC
330
1F
100
AcDbEntity
  8
1
370
    18
100
AcDbLine
 10
59.325851
 20
1.176825
 30
0.0
 11
59.582526
 21
1.160849
 31
0.0
  0
LINE
  5
DD
330
1F
100
AcDbEntity
  8
1
370
    18
100
AcDbLine
 10
59.582526
 20
5.509330999999999
 30
0.0
 11
59.325851
 21
5.521131999999999
 31
0.0
  0
LINE
  5
DE
330
1F
100
AcDbEntity
  8
1
370
    18
100
AcDbLine
 10
51.933623
 20
2.188995999999999
 30
0.0
 11
51.90125
 21
2.250588999999999
 31
0.0
  0
LINE
  5
DF
330
1F
100
AcDbEntity
  8
1
370
    18
100
AcDbLine
 10
52.928311
 20
2.307506
 30
0.0
 11
52.94195699999999
 21
2.394592999999999
 31
0.0
  0
LINE
  5
E0
330
1F
100
AcDbEntity
  8
1
370
    18
100
AcDbLine
 10
60.17241999999999
 20
2.002258
 30
0.0
 11
60.144324
 21
2.056402999999999
 31
0.0
  0
LINE
  5
E1
330
1F
100
AcDbEntity
  8
1
370
    18
100
AcDbLine
 10
61.037036
 20
2.695411
 30
0.0
 11
60.990349
 21
2.618924999999999
 31
0.0
  0
LINE
  5
E2
330
1F
100
AcDbEntity
  8
1
370
    18
100
AcDbLine
 10
51.467121
 20
-7.009499
 30
0.0
 11
51.90125
 21
-6.792007
 31
0.0
  0
LINE
  5
E3
330
1F
100
AcDbEntity
  8
1
370
    18
100
AcDbLine
 10
51.424104
 20
-7.172261999999999
 30
0.0
 11
51.467121
 21
-7.009499
 31
0.0
  0
LINE
  5
E4
330
1F
100
AcDbEntity
  8
1
370
    18
100
AcDbLine
 10
51.450419
 20
-7.252229999999999
 30
0.0
 11
51.424104
 21
-7.172261999999999
 31
0.0
  0
LINE
  5
E5
330
1F
100
AcDbEntity
  8
1
370
    18
100
AcDbLine
 10
58.75040699999999
 20
1.18022
 30
0.0
 11
58.764053
 21
1.256307
 31
0.0
  0
LINE
  5
E6
330
1F
100
AcDbEntity
  8
1
370
    18
100
AcDbLine
 10
65.82372499999999
 20
4.806058
 30
0.0
 11
64.672989
 21
4.943533999999999
 31
0.0
  0
LINE
  5
E7
330
1F
100
AcDbEntity
  8
1
370
    18
100
AcDbLine
 10
63.35159100000001
 20
2.323310999999999
 30
0.0
 11
65.82372499999999
 21
1.977447999999999
 31
0.0
  0
LINE
  5
E8
330
1F
100
AcDbEntity
  8
1
370
    18
100
AcDbLine
 10
65.81217399999999
 20
1.889606999999999
 30
0.0
 11
65.82372499999999
 21
1.977447999999999
 31
0.0
  0
LINE
  5
E9
330
1F
100
AcDbEntity
  8
1
370
    18
100
AcDbLine
 10
65.81217399999999
 20
1.889606999999999
 30
0.0
 11
63.340039
 21
2.232412
 31
0.0
  0
LINE
  5
EA
330
1F
100
AcDbEntity
  8
1
370
    18
100
AcDbLine
 10
63.340039
 20
2.232412
 30
0.0
 11
63.35159100000001
 21
2.323310999999999
 31
0.0
  0
LINE
  5
EB
330
1F
100
AcDbEntity
  8
1
370
    18
100
AcDbLine
 10
60.38497299999999
 20
2.673902
 30
0.0
 11
60.57789
 21
2.626581999999999
 31
0.0
  0
LINE
  5
EC
330
1F
100
AcDbEntity
  8
1
370
    18
100
AcDbLine
 10
65.82372499999999
 20
1.977447999999999
 30
0.0
 11
66.20591999999999
 21
1.904635999999999
 31
0.0
  0
LINE
  5
ED
330
1F
100
AcDbEntity
  8
1
370
    18
100
AcDbLine
 10
66.1332
 20
1.827729999999999
 30
0.0
 11
66.212849
 21
1.896867999999999
 31
0.0
  0
LINE
  5
EE
330
1F
100
AcDbEntity
  8
1
370
    18
100
AcDbLine
 10
65.96545299999999
 20
1.866258
 30
0.0
 11
65.81217399999999
 21
1.889606999999999
 31
0.0
  0
LINE
  5
EF
330
1F
100
AcDbEntity
  8
1
370
    18
100
AcDbLine
 10
66.10884699999999
 20
4.747131999999999
 30
0.0
 11
65.82372499999999
 21
4.806058
 31
0.0
  0
LINE
  5
F0
330
1F
100
AcDbEntity
  8
1
370
    18
100
AcDbLine
 10
66.212849
 20
4.670050999999999
 30
0.0
 11
66.10884699999999
 21
4.747131999999999
 31
0.0
  0
LINE
  5
F1
330
1F
100
AcDbEntity
  8
1
370
    18
100
AcDbLine
 10
61.047812
 20
2.562399
 30
0.0
 11
61.097602
 21
2.636608
 31
0.0
  0
LINE
  5
F2
330
1F
100
AcDbEntity
  8
1
370
    18
100
AcDbLine
 10
61.097602
 20
2.636608
 30
0.0
 11
63.331537
 21
2.326014999999999
 31
0.0
  0
LINE
  5
F3
330
1F
100
AcDbEntity
  8
1
370
    18
100
AcDbLine
 10
63.320687
 20
2.235085999999999
 30
0.0
 11
63.331537
 21
2.326014999999999
 31
0.0
  0
LINE
  5
F4
330
1F
100
AcDbEntity
  8
1
370
    18
100
AcDbLine
 10
63.320687
 20
2.235085999999999
 30
0.0
 11
63.16924100000001
 21
2.255977
 31
0.0
  0
LINE
  5
F5
330
1F
100
AcDbEntity
  8
1
370
    18
100
AcDbLine
 10
61.327593
 20
5.335271999999999
 30
0.0
 11
61.071339
 21
5.364929
 31
0.0
  0
LINE
  5
F6
330
1F
100
AcDbEntity
  8
1
370
    18
100
AcDbLine
 10
61.037036
 20
5.368718
 30
0.0
 11
60.144324
 21
5.469165
 31
0.0
  0
LINE
  5
F7
330
1F
100
AcDbEntity
  8
1
370
    18
100
AcDbLine
 10
61.071339
 20
2.66464
 30
0.0
 11
61.019648
 21
2.592245
 31
0.0
  0
LINE
  5
F8
330
1F
100
AcDbEntity
  8
1
370
    18
100
AcDbLine
 10
51.90125
 20
-6.792007
 30
0.0
 11
52.94195699999999
 21
-6.737644999999999
 31
0.0
  0
LINE
  5
F9
330
1F
100
AcDbEntity
  8
1
370
    18
100
AcDbLine
 10
55.002648
 20
-4.415239999999999
 30
0.0
 11
53.968381
 21
-3.837962999999999
 31
0.0
  0
LINE
  5
FA
330
1F
100
AcDbEntity
  8
1
370
    18
100
AcDbLine
 10
55.352178
 20
-4.490718
 30
0.0
 11
56.517575
 21
-4.757728
 31
0.0
  0
LINE
  5
FB
330
1F
100
AcDbEntity
  8
1
370
    18
100
AcDbLine
 10
64.676249
 20
4.966088
 30
0.0
 11
65.830584
 21
4.82964
 31
0.0
  0
LINE
  5
FC
330
1F
100
AcDbEntity
  8
1
370
    18
100
AcDbLine
 10
60.734203
 20
-2.941316999999999
 30
0.0
 11
61.12873399999999
 21
-2.888565
 31
0.0
  0
LINE
  5
FD
330
1F
100
AcDbEntity
  8
1
370
    18
100
AcDbLine
 10
61.07889899999999
 20
-5.694109
 30
0.0
 11
61.293114
 21
-5.711441
 31
0.0
  0
LINE
  5
FE
330
1F
100
AcDbEntity
  8
1
370
    18
100
AcDbLine
 10
60.15308499999999
 20
-5.597370999999999
 30
0.0
 11
61.045796
 21
-5.691059
 31
0.0
  0
LINE
  5
FF
330
1F
100
AcDbEntity
  8
1
370
    18
100
AcDbLine
 10
59.615866
 20
-5.413021999999999
 30
0.0
 11
60.15308499999999
 21
-5.597370999999999
 31
0.0
  0
LINE
  5
100
330
1F
100
AcDbEntity
  8
1
370
    18
100
AcDbLine
 10
59.35919000000001
 20
-5.257676
 30
0.0
 11
59.615866
 21
-5.413021999999999
 31
0.0
  0
LINE
  5
101
330
1F
100
AcDbEntity
  8
1
370
    18
100
AcDbLine
 10
58.77281400000001
 20
-5.046191999999999
 30
0.0
 11
59.35919000000001
 21
-5.257676
 31
0.0
  0
LINE
  5
102
330
1F
100
AcDbEntity
  8
1
370
    18
100
AcDbLine
 10
56.517575
 20
-4.757728
 30
0.0
 11
58.77281400000001
 21
-5.046191999999999
 31
0.0
  0
LINE
  5
103
330
1F
100
AcDbEntity
  8
1
370
    18
100
AcDbLine
 10
62.677309
 20
5.099744999999999
 30
0.0
 11
62.49028199999999
 21
5.119013999999999
 31
0.0
  0
LINE
  5
104
330
1F
100
AcDbEntity
  8
1
370
    18
100
AcDbLine
 10
61.07889899999999
 20
5.383954
 30
0.0
 11
61.293114
 21
5.359369999999999
 31
0.0
  0
LINE
  5
105
330
1F
100
AcDbEntity
  8
1
370
    18
100
AcDbLine
 10
58.804283
 20
-1.781990999999999
 30
0.0
 11
59.367488
 21
-2.460811
 31
0.0
  0
LINE
  5
106
330
1F
100
AcDbEntity
  8
1
370
    18
100
AcDbLine
 10
66.140169
 20
-5.101678999999999
 30
0.0
 11
65.91834099999999
 21
-2.997283
 31
0.0
  0
LINE
  5
107
330
1F
100
AcDbEntity
  8
1
370
    18
100
AcDbLine
 10
65.97884300000001
 20
-2.994742
 30
0.0
 11
65.91834099999999
 21
-2.997283
 31
0.0
  0
LINE
  5
108
330
1F
100
AcDbEntity
  8
1
370
    18
100
AcDbLine
 10
66.20067099999999
 20
-5.097280999999999
 30
0.0
 11
66.140169
 21
-5.101678999999999
 31
0.0
  0
LINE
  5
109
330
1F
100
AcDbEntity
  8
1
370
    18
100
AcDbLine
 10
60.15308499999999
 20
5.487217
 30
0.0
 11
61.045796
 21
5.387701999999999
 31
0.0
  0
LINE
  5
10A
330
1F
100
AcDbEntity
  8
1
370
    18
100
AcDbLine
 10
59.35919000000001
 20
-5.257676
 30
0.0
 11
59.325851
 21
-5.308488999999999
 31
0.0
  0
LINE
  5
10B
330
1F
100
AcDbEntity
  8
1
370
    18
100
AcDbLine
 10
59.325851
 20
-5.308488999999999
 30
0.0
 11
58.764053
 21
-5.098912999999999
 31
0.0
  0
LINE
  5
10C
330
1F
100
AcDbEntity
  8
1
370
    18
100
AcDbLine
 10
59.615866
 20
5.529611
 30
0.0
 11
60.15308499999999
 21
5.487217
 31
0.0
  0
LINE
  5
10D
330
1F
100
AcDbEntity
  8
1
370
    18
100
AcDbLine
 10
59.201779
 20
-0.277534
 30
0.0
 11
59.363512
 21
-0.5702810000000001
 31
0.0
  0
LINE
  5
10E
330
1F
100
AcDbEntity
  8
1
370
    18
100
AcDbLine
 10
58.658654
 20
0.314373
 30
0.0
 11
58.28026600000001
 21
0.078275
 31
0.0
  0
LINE
  5
10F
330
1F
100
AcDbEntity
  8
1
370
    18
100
AcDbLine
 10
59.615866
 20
-5.413021999999999
 30
0.0
 11
59.582526
 21
-5.464598
 31
0.0
  0
LINE
  5
110
330
1F
100
AcDbEntity
  8
1
370
    18
100
AcDbLine
 10
59.582526
 20
-5.464598
 30
0.0
 11
59.325851
 21
-5.308488999999999
 31
0.0
  0
LINE
  5
111
330
1F
100
AcDbEntity
  8
1
370
    18
100
AcDbLine
 10
59.325851
 20
-7.199350999999999
 30
0.0
 11
59.582526
 21
-7.299938
 31
0.0
  0
LINE
  5
112
330
1F
100
AcDbEntity
  8
1
370
    18
100
AcDbLine
 10
59.86606
 20
-7.382436
 30
0.0
 11
60.144324
 21
-7.212233999999999
 31
0.0
  0
LINE
  5
113
330
1F
100
AcDbEntity
  8
1
370
    18
100
AcDbLine
 10
60.144324
 20
-5.653275999999999
 30
0.0
 11
59.582526
 21
-5.464598
 31
0.0
  0
LINE
  5
114
330
1F
100
AcDbEntity
  8
1
370
    18
100
AcDbLine
 10
61.037036
 20
-5.747841
 30
0.0
 11
60.144324
 21
-5.653275999999999
 31
0.0
  0
LINE
  5
115
330
1F
100
AcDbEntity
  8
1
370
    18
100
AcDbLine
 10
59.35919000000001
 20
5.540669999999999
 30
0.0
 11
59.615866
 21
5.529611
 31
0.0
  0
LINE
  5
116
330
1F
100
AcDbEntity
  8
1
370
    18
100
AcDbLine
 10
60.60765899999999
 20
-6.871116999999999
 30
0.0
 11
61.037036
 21
-6.934918999999999
 31
0.0
  0
LINE
  5
117
330
1F
100
AcDbEntity
  8
1
370
    18
100
AcDbLine
 10
61.293114
 20
-5.711441
 30
0.0
 11
61.327593
 21
-5.771854
 31
0.0
  0
LINE
  5
118
330
1F
100
AcDbEntity
  8
1
370
    18
100
AcDbLine
 10
61.097602
 20
-6.958655
 30
0.0
 11
63.331537
 21
-7.038717
 31
0.0
  0
LINE
  5
119
330
1F
100
AcDbEntity
  8
1
370
    18
100
AcDbLine
 10
61.327593
 20
-5.771854
 30
0.0
 11
61.071339
 21
-5.750914999999999
 31
0.0
  0
LINE
  5
11A
330
1F
100
AcDbEntity
  8
1
370
    18
100
AcDbLine
 10
60.49277700000001
 20
-2.669852
 30
0.0
 11
60.734203
 21
-2.941316999999999
 31
0.0
  0
LINE
  5
11B
330
1F
100
AcDbEntity
  8
1
370
    18
100
AcDbLine
 10
59.358681
 20
-2.310983999999999
 30
0.0
 11
59.367488
 21
-2.460811
 31
0.0
  0
LINE
  5
11C
330
1F
100
AcDbEntity
  8
1
370
    18
100
AcDbLine
 10
58.77281400000001
 20
5.585538999999999
 30
0.0
 11
59.35919000000001
 21
5.540669999999999
 31
0.0
  0
LINE
  5
11D
330
1F
100
AcDbEntity
  8
1
370
    18
100
AcDbLine
 10
58.28026600000001
 20
0.078275
 30
0.0
 11
58.099665
 21
-0.4403290000000001
 31
0.0
  0
LINE
  5
11E
330
1F
100
AcDbEntity
  8
1
370
    18
100
AcDbLine
 10
57.76680899999999
 20
-0.6840320000000001
 30
0.0
 11
57.75433299999999
 21
-0.8168739999999999
 31
0.0
  0
LINE
  5
11F
330
1F
100
AcDbEntity
  8
1
370
    18
100
AcDbLine
 10
56.517575
 20
5.829863999999999
 30
0.0
 11
58.77281400000001
 21
5.585538999999999
 31
0.0
  0
LINE
  5
120
330
1F
100
AcDbEntity
  8
1
370
    18
100
AcDbLine
 10
65.91834099999999
 20
-2.997283
 30
0.0
 11
65.89654799999999
 21
-2.493730999999999
 31
0.0
  0
LINE
  5
121
330
1F
100
AcDbEntity
  8
1
370
    18
100
AcDbLine
 10
66.149947
 20
-5.262682999999999
 30
0.0
 11
66.140169
 21
-5.101678999999999
 31
0.0
  0
LINE
  5
122
330
1F
100
AcDbEntity
  8
1
370
    18
100
AcDbLine
 10
66.15160999999999
 20
-5.645817
 30
0.0
 11
66.149947
 21
-5.262682999999999
 31
0.0
  0
LINE
  5
123
330
1F
100
AcDbEntity
  8
1
370
    18
100
AcDbLine
 10
64.57403000000001
 20
-5.942499999999999
 30
0.0
 11
65.830584
 21
-6.012694999999999
 31
0.0
  0
LINE
  5
124
330
1F
100
AcDbEntity
  8
1
370
    18
100
AcDbLine
 10
59.536036
 20
-0.849276
 30
0.0
 11
59.45094799999999
 21
-0.840966
 31
0.0
  0
LINE
  5
125
330
1F
100
AcDbEntity
  8
1
370
    18
100
AcDbLine
 10
65.82372499999999
 20
-6.073285
 30
0.0
 11
65.830584
 21
-6.012694999999999
 31
0.0
  0
LINE
  5
126
330
1F
100
AcDbEntity
  8
1
370
    18
100
AcDbLine
 10
65.82372499999999
 20
-6.073285
 30
0.0
 11
64.569686
 21
-6.002308999999999
 31
0.0
  0
LINE
  5
127
330
1F
100
AcDbEntity
  8
1
370
    18
100
AcDbLine
 10
64.569686
 20
-6.002308999999999
 30
0.0
 11
64.57403000000001
 21
-5.942499999999999
 31
0.0
  0
LINE
  5
128
330
1F
100
AcDbEntity
  8
1
370
    18
100
AcDbLine
 10
63.35159100000001
 20
-7.039235999999999
 30
0.0
 11
65.82372499999999
 21
-7.086563
 31
0.0
  0
LINE
  5
129
330
1F
100
AcDbEntity
  8
1
370
    18
100
AcDbLine
 10
66.212849
 20
-5.648969999999999
 30
0.0
 11
66.15160999999999
 21
-5.645817
 31
0.0
  0
LINE
  5
12A
330
1F
100
AcDbEntity
  8
1
370
    18
100
AcDbLine
 10
59.509672
 20
-0.7961800000000001
 30
0.0
 11
59.46191800000001
 21
-0.71527
 31
0.0
  0
LINE
  5
12B
330
1F
100
AcDbEntity
  8
1
370
    18
100
AcDbLine
 10
66.211185
 20
-5.265843
 30
0.0
 11
66.149947
 21
-5.262682999999999
 31
0.0
  0
LINE
  5
12C
330
1F
100
AcDbEntity
  8
1
370
    18
100
AcDbLine
 10
66.211185
 20
-5.265843
 30
0.0
 11
66.212849
 21
-5.648969999999999
 31
0.0
  0
LINE
  5
12D
330
1F
100
AcDbEntity
  8
1
370
    18
100
AcDbLine
 10
54.03840899999999
 20
6.439617
 30
0.0
 11
53.968394
 21
6.455028999999999
 31
0.0
  0
LINE
  5
12E
330
1F
100
AcDbEntity
  8
1
370
    18
100
AcDbLine
 10
65.89654799999999
 20
-2.493730999999999
 30
0.0
 11
65.957787
 21
-2.497181
 31
0.0
  0
LINE
  5
12F
330
1F
100
AcDbEntity
  8
1
370
    18
100
AcDbLine
 10
66.20067099999999
 20
-5.097280999999999
 30
0.0
 11
66.211185
 21
-5.265843
 31
0.0
  0
LINE
  5
130
330
1F
100
AcDbEntity
  8
1
370
    18
100
AcDbLine
 10
65.89179699999999
 20
-1.056197999999999
 30
0.0
 11
65.957787
 21
-1.094102
 31
0.0
  0
LINE
  5
131
330
1F
100
AcDbEntity
  8
1
370
    18
100
AcDbLine
 10
63.99276999999999
 20
-0.793628
 30
0.0
 11
62.906703
 21
-0.383331
 31
0.0
  0
LINE
  5
132
330
1F
100
AcDbEntity
  8
1
370
    18
100
AcDbLine
 10
62.873102
 20
-0.371555
 30
0.0
 11
61.834541
 21
-0.029428
 31
0.0
  0
LINE
  5
133
330
1F
100
AcDbEntity
  8
1
370
    18
100
AcDbLine
 10
65.957787
 20
-0.512457
 30
0.0
 11
65.957787
 21
-1.094102
 31
0.0
  0
LINE
  5
134
330
1F
100
AcDbEntity
  8
1
370
    18
100
AcDbLine
 10
59.536036
 20
-0.849276
 30
0.0
 11
59.509672
 21
-0.7961800000000001
 31
0.0
  0
LINE
  5
135
330
1F
100
AcDbEntity
  8
1
370
    18
100
AcDbLine
 10
53.105556
 20
6.722491999999999
 30
0.0
 11
54.008529
 21
6.449176
 31
0.0
  0
LINE
  5
136
330
1F
100
AcDbEntity
  8
1
370
    18
100
AcDbLine
 10
60.19082499999999
 20
-6.944436
 30
0.0
 11
60.21345
 21
-7.098330999999999
 31
0.0
  0
LINE
  5
137
330
1F
100
AcDbEntity
  8
1
370
    18
100
AcDbLine
 10
60.21343
 20
-7.098335999999999
 30
0.0
 11
60.17241999999999
 21
-7.189372999999999
 31
0.0
  0
LINE
  5
138
330
1F
100
AcDbEntity
  8
1
370
    18
100
AcDbLine
 10
51.579805
 20
-6.915025999999999
 30
0.0
 11
51.531025
 21
-6.959699999999999
 31
0.0
  0
LINE
  5
139
330
1F
100
AcDbEntity
  8
1
370
    18
100
AcDbLine
 10
51.682467
 20
-6.857638999999999
 30
0.0
 11
51.579805
 21
-6.915025999999999
 31
0.0
  0
LINE
  5
13A
330
1F
100
AcDbEntity
  8
1
370
    18
100
AcDbLine
 10
51.477465
 20
-7.200964999999999
 30
0.0
 11
51.575732
 21
-7.231484
 31
0.0
  0
LINE
  5
13B
330
1F
100
AcDbEntity
  8
1
370
    18
100
AcDbLine
 10
51.517853
 20
-6.982738999999999
 30
0.0
 11
51.477465
 21
-7.200964999999999
 31
0.0
  0
LINE
  5
13C
330
1F
100
AcDbEntity
  8
1
370
    18
100
AcDbLine
 10
58.75040699999999
 20
6.960582
 30
0.0
 11
53.475934
 21
6.612964999999999
 31
0.0
  0
LINE
  5
13D
330
1F
100
AcDbEntity
  8
1
370
    18
100
AcDbLine
 10
59.336783
 20
7.087914999999999
 30
0.0
 11
58.75040699999999
 21
6.960582
 31
0.0
  0
LINE
  5
13E
330
1F
100
AcDbEntity
  8
1
370
    18
100
AcDbLine
 10
59.59345899999999
 20
7.188896
 30
0.0
 11
59.336783
 21
7.087914999999999
 31
0.0
  0
LINE
  5
13F
330
1F
100
AcDbEntity
  8
1
370
    18
100
AcDbLine
 10
59.749812
 20
7.241699999999999
 30
0.0
 11
59.59345899999999
 21
7.188894
 31
0.0
  0
LINE
  5
140
330
1F
100
AcDbEntity
  8
1
370
    18
100
AcDbLine
 10
59.683701
 20
6.965074999999999
 30
0.0
 11
59.73400600000001
 21
7.095488999999999
 31
0.0
  0
LINE
  5
141
330
1F
100
AcDbEntity
  8
1
370
    18
100
AcDbLine
 10
59.683701
 20
6.965074999999999
 30
0.0
 11
59.75195600000001
 21
6.93205
 31
0.0
  0
LINE
  5
142
330
1F
100
AcDbEntity
  8
1
370
    18
100
AcDbLine
 10
59.325851
 20
7.120983999999999
 30
0.0
 11
59.582526
 21
7.222032
 31
0.0
  0
LINE
  5
143
330
1F
100
AcDbEntity
  8
1
370
    18
100
AcDbLine
 10
59.582526
 20
7.222032
 30
0.0
 11
59.752639
 21
7.278966
 31
0.0
  0
LINE
  5
144
330
1F
100
AcDbEntity
  8
1
370
    18
100
AcDbLine
 10
66.20067099999999
 20
-1.871738
 30
0.0
 11
65.97884300000001
 21
-1.818932
 31
0.0
  0
LINE
  5
145
330
1F
100
AcDbEntity
  8
1
370
    18
100
AcDbLine
 10
66.20067099999999
 20
-1.871738
 30
0.0
 11
66.121759
 21
-1.805383
 31
0.0
  0
LINE
  5
146
330
1F
100
AcDbEntity
  8
1
370
    18
100
AcDbLine
 10
65.95779
 20
-1.766909999999999
 30
0.0
 11
66.121759
 21
-1.805383
 31
0.0
  0
LINE
  5
147
330
1F
100
AcDbEntity
  8
1
370
    18
100
AcDbLine
 10
66.51853
 20
6.673744999999999
 30
0.0
 11
66.49168900000001
 21
6.377718999999999
 31
0.0
  0
LINE
  5
148
330
1F
100
AcDbEntity
  8
1
370
    18
100
AcDbLine
 10
66.61454499999999
 20
6.528958999999999
 30
0.0
 11
66.617558
 21
6.589236999999999
 31
0.0
  0
LINE
  5
149
330
1F
100
AcDbEntity
  8
1
370
    18
100
AcDbLine
 10
66.60508799999999
 20
6.452912
 30
0.0
 11
66.61454499999999
 21
6.528958999999999
 31
0.0
  0
LINE
  5
14A
330
1F
100
AcDbEntity
  8
1
370
    18
100
AcDbLine
 10
66.23385999999999
 20
7.915491999999999
 30
0.0
 11
66.14484
 21
7.914558
 31
0.0
  0
LINE
  5
14B
330
1F
100
AcDbEntity
  8
1
370
    18
100
AcDbLine
 10
66.622946
 20
7.530869
 30
0.0
 11
66.62268
 21
7.471391
 31
0.0
  0
LINE
  5
14C
330
1F
100
AcDbEntity
  8
1
370
    18
100
AcDbLine
 10
65.96609100000001
 20
7.883141
 30
0.0
 11
66.14256400000001
 21
7.884543999999999
 31
0.0
  0
LINE
  5
14D
330
1F
100
AcDbEntity
  8
1
370
    18
100
AcDbLine
 10
62.951967
 20
7.834902999999999
 30
0.0
 11
65.96609100000001
 21
7.883141
 31
0.0
  0
LINE
  5
14E
330
1F
100
AcDbEntity
  8
1
370
    18
100
AcDbLine
 10
60.144482
 20
7.754891999999999
 30
0.0
 11
62.951967
 21
7.834999999999999
 31
0.0
  0
LINE
  5
14F
330
1F
100
AcDbEntity
  8
1
370
    18
100
AcDbLine
 10
60.144823
 20
7.784513
 30
0.0
 11
66.14483100000001
 21
7.914558
 31
0.0
  0
LINE
  5
150
330
1F
100
AcDbEntity
  8
1
370
    18
100
AcDbLine
 10
59.744634
 20
6.463631999999999
 30
0.0
 11
59.800912
 21
6.755965999999999
 31
0.0
  0
LINE
  5
151
330
1F
100
AcDbEntity
  8
1
370
    18
100
AcDbLine
 10
59.860949
 20
7.328686
 30
0.0
 11
59.855488
 21
7.276250999999999
 31
0.0
  0
LINE
  5
152
330
1F
100
AcDbEntity
  8
1
370
    18
100
AcDbLine
 10
59.8679
 20
7.395421
 30
0.0
 11
59.860949
 21
7.328686
 31
0.0
  0
LINE
  5
153
330
1F
100
AcDbEntity
  8
1
370
    18
100
AcDbLine
 10
65.91140199999999
 20
1.835529
 30
0.0
 11
63.689146
 21
2.143920999999999
 31
0.0
  0
LINE
  5
154
330
1F
100
AcDbEntity
  8
1
370
    18
100
AcDbLine
 10
66.23385999999999
 20
-0.6018600000000001
 30
0.0
 11
66.14484
 21
-0.5799270000000001
 31
0.0
  0
LINE
  5
155
330
1F
100
AcDbEntity
  8
1
370
    18
100
AcDbLine
 10
60.144823
 20
0.6980140000000001
 30
0.0
 11
66.14483100000001
 21
-0.5799250000000001
 31
0.0
  0
LINE
  5
156
330
1F
100
AcDbEntity
  8
1
370
    18
100
AcDbLine
 10
62.951967
 20
0.12238
 30
0.0
 11
63.223065
 21
0.064931
 31
0.0
  0
LINE
  5
157
330
1F
100
AcDbEntity
  8
1
370
    18
100
AcDbLine
 10
60.144482
 20
0.6959010000000001
 30
0.0
 11
62.951967
 21
0.122381
 31
0.0
  0
LINE
  5
158
330
1F
100
AcDbEntity
  8
1
370
    18
100
AcDbLine
 10
66.14256400000001
 20
-0.577151
 30
0.0
 11
66.51684300000001
 21
-0.696903
 31
0.0
  0
LINE
  5
159
330
1F
100
AcDbEntity
  8
1
370
    18
100
AcDbLine
 10
66.23384899999999
 20
-0.601858
 30
0.0
 11
66.615543
 21
-0.703698
 31
0.0
  0
LINE
  5
15A
330
1F
100
AcDbEntity
  8
1
370
    18
100
AcDbLine
 10
66.52422299999999
 20
0.081098
 30
0.0
 11
66.622989
 21
-0.7102050000000001
 31
0.0
  0
LINE
  5
15B
330
1F
100
AcDbEntity
  8
1
370
    18
100
AcDbLine
 10
59.984918
 20
0.732458
 30
0.0
 11
60.144482
 21
0.6959010000000001
 31
0.0
  0
LINE
  5
15C
330
1F
100
AcDbEntity
  8
1
370
    18
100
AcDbLine
 10
59.867941
 20
0.7593600000000001
 30
0.0
 11
59.769063
 21
0.782634
 31
0.0
  0
LINE
  5
15D
330
1F
100
AcDbEntity
  8
1
370
    18
100
AcDbLine
 10
66.28077399999999
 20
1.771231999999999
 30
0.0
 11
65.91140199999999
 21
1.835529
 31
0.0
  0
LINE
  5
15E
330
1F
100
AcDbEntity
  8
1
370
    18
100
AcDbLine
 10
66.31062800000001
 20
1.759002999999999
 30
0.0
 11
66.506085
 21
0.224917
 31
0.0
  0
LINE
  5
15F
330
1F
100
AcDbEntity
  8
1
370
    18
100
AcDbLine
 10
66.506085
 20
0.224914
 30
0.0
 11
66.524222
 21
0.081101
 31
0.0
  0
LINE
  5
160
330
1F
100
AcDbEntity
  8
1
370
    18
100
AcDbLine
 10
63.688506
 20
2.144009999999999
 30
0.0
 11
63.159063
 21
2.217290999999999
 31
0.0
  0
LINE
  5
161
330
1F
100
AcDbEntity
  8
1
370
    18
100
AcDbLine
 10
63.695398
 20
2.185209999999999
 30
0.0
 11
65.91947799999999
 21
1.876565
 31
0.0
  0
LINE
  5
162
330
1F
100
AcDbEntity
  8
1
370
    18
100
AcDbLine
 10
59.18263299999999
 20
0.19047
 30
0.0
 11
59.39411999999999
 21
0.689473
 31
0.0
  0
LINE
  5
163
330
1F
100
AcDbEntity
  8
1
370
    18
100
AcDbLine
 10
63.206813
 20
0.042934
 30
0.0
 11
63.266973
 21
0.038059
 31
0.0
  0
LINE
  5
164
330
1F
100
AcDbEntity
  8
1
370
    18
100
AcDbLine
 10
64.578758
 20
-0.225107
 30
0.0
 11
62.929186
 21
-0.105901
 31
0.0
  0
LINE
  5
165
330
1F
100
AcDbEntity
  8
1
370
    18
100
AcDbLine
 10
62.92918499999999
 20
-0.10591
 30
0.0
 11
59.84990500000001
 21
0.08606
 31
0.0
  0
LINE
  5
166
330
1F
100
AcDbEntity
  8
1
370
    18
100
AcDbLine
 10
59.84990500000001
 20
0.086061
 30
0.0
 11
59.669252
 21
0.096097
 31
0.0
  0
LINE
  5
167
330
1F
100
AcDbEntity
  8
1
370
    18
100
AcDbLine
 10
59.669252
 20
0.096098
 30
0.0
 11
59.276498
 21
0.121545
 31
0.0
  0
LINE
  5
168
330
1F
100
AcDbEntity
  8
1
370
    18
100
AcDbLine
 10
59.574275
 20
0.094392
 30
0.0
 11
59.665879
 21
0.090999
 31
0.0
  0
LINE
  5
169
330
1F
100
AcDbEntity
  8
1
370
    18
100
AcDbLine
 10
59.574286
 20
0.094392
 30
0.0
 11
59.183863
 21
0.133598
 31
0.0
  0
LINE
  5
16A
330
1F
100
AcDbEntity
  8
1
370
    18
100
AcDbLine
 10
64.61647499999999
 20
-0.229722
 30
0.0
 11
59.66588699999999
 21
0.090998
 31
0.0
  0
LINE
  5
16B
330
1F
100
AcDbEntity
  8
1
370
    18
100
AcDbLine
 10
63.719126
 20
6.072415
 30
0.0
 11
63.638426
 21
6.059756
 31
0.0
  0
LINE
  5
16C
330
1F
100
AcDbEntity
  8
1
370
    18
100
AcDbLine
 10
63.589277
 20
6.037233999999999
 30
0.0
 11
63.638426
 21
6.059756
 31
0.0
  0
LINE
  5
16D
330
1F
100
AcDbEntity
  8
1
370
    18
100
AcDbLine
 10
63.348118
 20
6.143664
 30
0.0
 11
63.589277
 21
6.037233999999999
 31
0.0
  0
LINE
  5
16E
330
1F
100
AcDbEntity
  8
1
370
    18
100
AcDbLine
 10
62.27812700000001
 20
5.222659999999999
 30
0.0
 11
62.293813
 21
5.134959999999999
 31
0.0
  0
LINE
  5
16F
330
1F
100
AcDbEntity
  8
1
370
    18
100
AcDbLine
 10
62.330893
 20
5.288705999999999
 30
0.0
 11
62.27812700000001
 21
5.222659999999999
 31
0.0
  0
LINE
  5
170
330
1F
100
AcDbEntity
  8
1
370
    18
100
AcDbLine
 10
62.37607
 20
5.321807999999999
 30
0.0
 11
62.377803
 21
5.655075
 31
0.0
  0
LINE
  5
171
330
1F
100
AcDbEntity
  8
1
370
    18
100
AcDbLine
 10
62.330893
 20
5.288705999999999
 30
0.0
 11
62.37607
 21
5.321807999999999
 31
0.0
  0
LINE
  5
172
330
1F
100
AcDbEntity
  8
1
370
    18
100
AcDbLine
 10
62.590465
 20
6.023081999999999
 30
0.0
 11
62.879974
 21
6.193805
 31
0.0
  0
LINE
  5
173
330
1F
100
AcDbEntity
  8
1
370
    18
100
AcDbLine
 10
62.449089
 20
6.054419999999999
 30
0.0
 11
62.28094
 21
5.763441
 31
0.0
  0
LINE
  5
174
330
1F
100
AcDbEntity
  8
1
370
    18
100
AcDbLine
 10
62.879974
 20
6.193805
 30
0.0
 11
62.88683
 21
6.250744999999999
 31
0.0
  0
LINE
  5
175
330
1F
100
AcDbEntity
  8
1
370
    18
100
AcDbLine
 10
62.918866
 20
6.331446999999999
 30
0.0
 11
62.88683
 21
6.250744999999999
 31
0.0
  0
LINE
  5
176
330
1F
100
AcDbEntity
  8
1
370
    18
100
AcDbLine
 10
62.536478
 20
6.044143
 30
0.0
 11
62.590465
 21
6.023081999999999
 31
0.0
  0
LINE
  5
177
330
1F
100
AcDbEntity
  8
1
370
    18
100
AcDbLine
 10
62.536478
 20
6.044143
 30
0.0
 11
62.449089
 21
6.054419999999999
 31
0.0
  0
LINE
  5
178
330
1F
100
AcDbEntity
  8
1
370
    18
100
AcDbLine
 10
65.91140199999999
 20
-7.222669999999999
 30
0.0
 11
63.689146
 21
-7.185572
 31
0.0
  0
LINE
  5
179
330
1F
100
AcDbEntity
  8
1
370
    18
100
AcDbLine
 10
63.688506
 20
-7.185564
 30
0.0
 11
63.159063
 21
-7.173061999999999
 31
0.0
  0
LINE
  5
17A
330
1F
100
AcDbEntity
  8
1
370
    18
100
AcDbLine
 10
66.622946
 20
-7.519619
 30
0.0
 11
66.62268
 21
-7.459794
 31
0.0
  0
LINE
  5
17B
330
1F
100
AcDbEntity
  8
1
370
    18
100
AcDbLine
 10
66.308377
 20
-6.392108
 30
0.0
 11
66.298636
 21
-6.257748
 31
0.0
  0
LINE
  5
17C
330
1F
100
AcDbEntity
  8
1
370
    18
100
AcDbLine
 10
66.61454499999999
 20
-6.512706999999999
 30
0.0
 11
66.617558
 21
-6.572947999999999
 31
0.0
  0
LINE
  5
17D
330
1F
100
AcDbEntity
  8
1
370
    18
100
AcDbLine
 10
66.60508799999999
 20
-6.436992
 30
0.0
 11
66.61454499999999
 21
-6.512706999999999
 31
0.0
  0
LINE
  5
17E
330
1F
100
AcDbEntity
  8
1
370
    18
100
AcDbLine
 10
66.23385999999999
 20
-7.910614999999999
 30
0.0
 11
66.14484
 21
-7.910735
 31
0.0
  0
LINE
  5
17F
330
1F
100
AcDbEntity
  8
1
370
    18
100
AcDbLine
 10
60.144823
 20
-7.841841
 30
0.0
 11
66.14483100000001
 21
-7.910735
 31
0.0
  0
LINE
  5
180
330
1F
100
AcDbEntity
  8
1
370
    18
100
AcDbLine
 10
66.034603
 20
-3.544044
 30
0.0
 11
66.176314
 21
-3.803712
 31
0.0
  0
LINE
  5
181
330
1F
100
AcDbEntity
  8
1
370
    18
100
AcDbLine
 10
66.515163
 20
0.744224
 30
0.0
 11
66.44369000000001
 21
0.7144930000000001
 31
0.0
  0
LINE
  5
182
330
1F
100
AcDbEntity
  8
1
370
    18
100
AcDbLine
 10
66.22524900000001
 20
-1.803759999999999
 30
0.0
 11
66.272684
 21
-1.772479999999999
 31
0.0
  0
LINE
  5
183
330
1F
100
AcDbEntity
  8
1
370
    18
100
AcDbLine
 10
66.189227
 20
-1.824695
 30
0.0
 11
66.23352099999999
 21
-1.792872999999999
 31
0.0
  0
LINE
  5
184
330
1F
100
AcDbEntity
  8
1
370
    18
100
AcDbLine
 10
66.19730899999999
 20
4.69953
 30
0.0
 11
66.14650199999999
 21
4.749404
 31
0.0
  0
LINE
  5
185
330
1F
100
AcDbEntity
  8
1
370
    18
100
AcDbLine
 10
52.222029
 20
7.04531
 30
0.0
 11
52.141774
 21
7.075702999999999
 31
0.0
  0
LINE
  5
186
330
1F
100
AcDbEntity
  8
1
370
    18
100
AcDbLine
 10
51.748587
 20
-7.174549999999999
 30
0.0
 11
51.823814
 21
-7.141408
 31
0.0
  0
LINE
  5
187
330
1F
100
AcDbEntity
  8
1
370
    18
100
AcDbLine
 10
66.208363
 20
-1.875626999999999
 30
0.0
 11
66.12999399999999
 21
-1.808600999999999
 31
0.0
  0
LINE
  5
188
330
1F
100
AcDbEntity
  8
1
370
    18
100
AcDbLine
 10
59.932692
 20
0.745112
 30
0.0
 11
59.9876
 21
0.7317470000000001
 31
0.0
  0
LINE
  5
189
330
1F
100
AcDbEntity
  8
1
370
    18
100
AcDbLine
 10
66.269407
 20
1.773695
 30
0.0
 11
66.220276
 21
1.809562999999999
 31
0.0
  0
LINE
  5
18A
330
1F
100
AcDbEntity
  8
1
370
    18
100
AcDbLine
 10
65.91143800000001
 20
1.835504
 30
0.0
 11
66.26684
 21
1.774148
 31
0.0
  0
LINE
  5
18B
330
1F
100
AcDbEntity
  8
1
370
    18
100
AcDbLine
 10
66.08277499999999
 20
1.850895
 30
0.0
 11
65.917049
 21
1.877063999999999
 31
0.0
  0
LINE
  5
18C
330
1F
100
AcDbEntity
  8
1
370
    18
100
AcDbLine
 10
60.854034
 20
2.577341
 30
0.0
 11
60.57578499999999
 21
2.596877
 31
0.0
  0
LINE
  5
18D
330
1F
100
AcDbEntity
  8
1
370
    18
100
AcDbLine
 10
66.091464
 20
-0.567978
 30
0.0
 11
66.515163
 21
-0.744224
 31
0.0
  0
LINE
  5
18E
330
1F
100
AcDbEntity
  8
CUT
370
    18
100
AcDbLine
 10
59.18263299999999
 20
4.781791
 30
0.0
 11
59.201005
 21
4.912213999999999
 31
0.0
  0
LINE
  5
18F
330
1F
100
AcDbEntity
  8
CUT
370
    18
100
AcDbLine
 10
66.622946
 20
7.530869
 30
0.0
 11
66.62268
 21
7.471391
 31
0.0
  0
LINE
  5
190
330
1F
100
AcDbEntity
  8
CUT
370
    18
100
AcDbLine
 10
65.786622
 20
3.455261
 30
0.0
 11
59.66588699999999
 21
3.445943
 31
0.0
  0
LINE
  5
191
330
1F
100
AcDbEntity
  8
CUT
370
    18
100
AcDbLine
 10
66.14484
 20
7.914558
 30
0.0
 11
66.23385999999999
 21
7.915491999999999
 31
0.0
  0
LINE
  5
192
330
1F
100
AcDbEntity
  8
CUT
370
    18
100
AcDbLine
 10
59.176177
 20
3.841226
 30
0.0
 11
59.176351
 21
3.900797
 31
0.0
  0
LINE
  5
193
330
1F
100
AcDbEntity
  8
CUT
370
    18
100
AcDbLine
 10
60.144823
 20
7.784513
 30
0.0
 11
66.14483100000001
 21
7.914558
 31
0.0
  0
LINE
  5
194
330
1F
100
AcDbEntity
  8
CUT
370
    18
100
AcDbLine
 10
66.617558
 20
6.589236999999999
 30
0.0
 11
66.60508799999999
 21
6.452912
 31
0.0
  0
LINE
  5
195
330
1F
100
AcDbEntity
  8
CUT
370
    18
100
AcDbLine
 10
59.665879
 20
3.445943
 30
0.0
 11
59.574275
 21
3.447592999999999
 31
0.0
  0
LINE
  5
196
330
1F
100
AcDbEntity
  8
1
370
    13
100
AcDbLine
 10
59.755761
 20
-7.351375999999999
 30
0.0
 11
59.769064
 21
-7.479319
 31
0.0
  0
LINE
  5
197
330
1F
100
AcDbEntity
  8
1
370
    13
100
AcDbLine
 10
60.843996
 20
-7.093501999999999
 30
0.0
 11
63.15837
 21
-7.173038
 31
0.0
  0
LINE
  5
198
330
1F
100
AcDbEntity
  8
1
370
    13
100
AcDbLine
 10
66.297791
 20
-6.251727999999999
 30
0.0
 11
66.21283699999999
 21
-5.646574
 31
0.0
  0
LINE
  5
199
330
1F
100
AcDbEntity
  8
1
370
    13
100
AcDbLine
 10
66.25954899999999
 20
-4.443821999999999
 30
0.0
 11
66.17631300000001
 21
-3.803704
 31
0.0
  0
LINE
  5
19A
330
1F
100
AcDbEntity
  8
1
370
    13
100
AcDbLine
 10
66.590614
 20
-6.352867999999999
 30
0.0
 11
66.30859699999999
 21
-4.763112999999999
 31
0.0
  0
LINE
  5
19B
330
1F
100
AcDbEntity
  8
1
370
    13
100
AcDbLine
 10
66.308408
 20
-6.398176999999999
 30
0.0
 11
66.310629
 21
-6.827382
 31
0.0
  0
LINE
  5
19C
330
1F
100
AcDbEntity
  8
1
370
    13
100
AcDbLine
 10
66.62268
 20
-7.459794
 30
0.0
 11
66.61856999999999
 21
-6.665402999999999
 31
0.0
  0
LINE
  5
19D
330
1F
100
AcDbEntity
  8
SK1
370
    13
100
AcDbLine
 10
-42.875
 20
7.9375
 30
0.0
 11
-43.375
 21
7.4375
 31
0.0
  0
LINE
  5
19E
330
1F
100
AcDbEntity
  8
SK1
370
    13
100
AcDbLine
 10
-43.375
 20
-7.4375
 30
0.0
 11
-42.875
 21
-7.9375
 31
0.0
  0
LINE
  5
19F
102
{ACAD_REACTORS
330
2A3
102
}
330
1F
100
AcDbEntity
  8
SK1
370
    13
100
AcDbLine
 10
-42.875
 20
-7.9375
 30
0.0
 11
47.625
 21
-7.9375
 31
0.0
  0
LINE
  5
1A0
102
{ACAD_REACTORS
330
2A3
102
}
330
1F
100
AcDbEntity
  8
SK1
370
    13
100
AcDbLine
 10
47.625
 20
7.9375
 30
0.0
 11
-42.875
 21
7.9375
 31
0.0
  0
LINE
  5
1A1
330
1F
100
AcDbEntity
  8
1
370
    13
100
AcDbLine
 10
48.55724099999999
 20
-7.584171999999999
 30
0.0
 11
51.350431
 21
-7.274578999999999
 31
0.0
  0
LINE
  5
1A2
330
1F
100
AcDbEntity
  8
1
370
    13
100
AcDbLine
 10
51.350431
 20
7.274578999999999
 30
0.0
 11
48.55724099999999
 21
7.584171999999999
 31
0.0
  0
LINE
  5
1A3
330
1F
100
AcDbEntity
  8
1
370
    13
100
AcDbLine
 10
63.168407
 20
2.258315
 30
0.0
 11
60.854034
 21
2.577341
 31
0.0
  0
LINE
  5
1A4
330
1F
100
AcDbEntity
  8
1
370
    13
100
AcDbLine
 10
60.57578499999999
 20
2.596877
 30
0.0
 11
60.466372
 21
2.571194999999999
 31
0.0
  0
LINE
  5
1A5
330
1F
100
AcDbEntity
  8
1
370
    13
100
AcDbLine
 10
64.044335
 20
6.450463
 30
0.0
 11
63.920966
 21
6.573831
 31
0.0
  0
LINE
  5
1A6
330
1F
100
AcDbEntity
  8
1
370
    13
100
AcDbLine
 10
63.68740899999999
 20
5.445899999999999
 30
0.0
 11
63.766115
 21
5.367193
 31
0.0
  0
LINE
  5
1A7
330
1F
100
AcDbEntity
  8
1
370
    13
100
AcDbLine
 10
63.224911
 20
6.266873999999999
 30
0.0
 11
63.349261
 21
6.142523999999999
 31
0.0
  0
LINE
  5
1A8
330
1F
100
AcDbEntity
  8
1
370
    13
100
AcDbLine
 10
62.36454399999999
 20
5.673366
 30
0.0
 11
62.24395300000001
 21
5.793956999999999
 31
0.0
  0
LINE
  5
1A9
330
1F
100
AcDbEntity
  8
1
370
    13
100
AcDbLine
 10
64.50005
 20
3.953366
 30
0.0
 11
64.51989300000001
 21
4.095744999999999
 31
0.0
  0
LINE
  5
1AA
330
1F
100
AcDbEntity
  8
1
370
    13
100
AcDbLine
 10
62.539037
 20
4.371805
 30
0.0
 11
62.51832499999999
 21
4.223192
 31
0.0
  0
LINE
  5
1AB
330
1F
100
AcDbEntity
  8
CUT
370
    18
100
AcDbLine
 10
66.62268
 20
7.471391
 30
0.0
 11
66.61856999999999
 21
6.681389
 31
0.0
  0
LINE
  5
1AC
330
1F
100
AcDbEntity
  8
CUT
370
    18
100
AcDbLine
 10
59.221757
 20
4.990798
 30
0.0
 11
59.642439
 21
6.459405999999999
 31
0.0
  0
LINE
  5
1AD
330
1F
100
AcDbEntity
  8
CUT
370
    18
100
AcDbLine
 10
66.25954899999999
 20
4.441176
 30
0.0
 11
66.17631300000001
 21
3.806812999999999
 31
0.0
  0
LINE
  5
1AE
330
1F
100
AcDbEntity
  8
CUT
370
    18
100
AcDbLine
 10
59.176351
 20
3.900797
 30
0.0
 11
59.18046
 21
4.690799
 31
0.0
  0
LINE
  5
1AF
330
1F
100
AcDbEntity
  8
CUT
370
    18
100
AcDbLine
 10
66.590614
 20
6.36805
 30
0.0
 11
66.30859699999999
 21
4.760777
 31
0.0
  0
LINE
  5
1B0
102
{ACAD_REACTORS
330
306
102
}
330
1F
100
AcDbEntity
  8
80
370
    18
100
AcDbLine
 10
0.0
 20
-1.0
 30
0.0
 11
0.0
 21
1.0
 31
0.0
  0
LINE
  5
1B2
102
{ACAD_REACTORS
330
2D7
102
}
330
1F
100
AcDbEntity
  8
81
370
    18
100
AcDbLine
 10
65.625
 20
7.9375
 30
0.0
 11
67.625
 21
7.9375
 31
0.0
  0
LINE
  5
1B3
330
1F
100
AcDbEntity
  8
CUT
370
    18
100
AcDbLine
 10
59.701442
 20
6.769050999999999
 30
0.0
 11
59.769064
 21
7.419028999999999
 31
0.0
  0
LINE
  5
1B4
330
1F
100
AcDbEntity
  8
80
370
    18
100
AcDbLine
 10
-1.0
 20
0.0
 30
0.0
 11
1.0
 21
0.0
 31
0.0
  0
LINE
  5
1B5
102
{ACAD_REACTORS
330
2BD
330
2EE
330
306
330
31E
102
}
330
1F
100
AcDbEntity
  8
81
370
    18
100
AcDbLine
 10
66.625
 20
6.9375
 30
0.0
 11
66.625
 21
8.9375
 31
0.0
  0
LINE
  5
1B6
330
1F
100
AcDbEntity
  8
NOCUT
370
    18
100
AcDbLine
 10
59.582526
 20
-7.442272999999999
 30
0.0
 11
59.325851
 21
-7.346019
 31
0.0
  0
LINE
  5
1B7
330
1F
100
AcDbEntity
  8
NOCUT
370
    18
100
AcDbLine
 10
65.82372499999999
 20
-7.437422999999999
 30
0.0
 11
63.35159100000001
 21
-7.504635999999999
 31
0.0
  0
LINE
  5
1B8
330
1F
100
AcDbEntity
  8
NOCUT
370
    18
100
AcDbLine
 10
65.478402
 20
-1.602845
 30
0.0
 11
65.83717199999999
 21
-2.588559
 31
0.0
  0
LINE
  5
1B9
330
1F
100
AcDbEntity
  8
NOCUT
370
    18
100
AcDbLine
 10
-42.875
 20
7.9375
 30
0.0
 11
47.625
 21
7.9375
 31
0.0
  0
LINE
  5
1BA
330
1F
100
AcDbEntity
  8
NOCUT
370
    18
100
AcDbLine
 10
52.779701
 20
0.0
 30
0.0
 11
51.625
 21
-2.0
 31
0.0
  0
LINE
  5
1BB
330
1F
100
AcDbEntity
  8
NOCUT
370
    18
100
AcDbLine
 10
63.331537
 20
-7.50508
 30
0.0
 11
61.071339
 21
-7.543852
 31
0.0
  0
LINE
  5
1BC
330
1F
100
AcDbEntity
  8
NOCUT
370
    18
100
AcDbLine
 10
65.957787
 20
-3.272599
 30
0.0
 11
65.957787
 21
-4.774455
 31
0.0
  0
LINE
  5
1BD
330
1F
100
AcDbEntity
  8
NOCUT
370
    18
100
AcDbLine
 10
58.764053
 20
-7.244146
 30
0.0
 11
51.90125
 21
-7.244146
 31
0.0
  0
LINE
  5
1BE
330
1F
100
AcDbEntity
  8
NOCUT
370
    18
100
AcDbLine
 10
-41.875
 20
2.0
 30
0.0
 11
51.625
 21
2.0
 31
0.0
  0
LINE
  5
1BF
330
1F
100
AcDbEntity
  8
NOCUT
370
    18
100
AcDbLine
 10
60.144324
 20
7.544146
 30
0.0
 11
61.037036
 21
7.544146
 31
0.0
  0
LINE
  5
1C0
330
1F
100
AcDbEntity
  8
NOCUT
370
    18
100
AcDbLine
 10
65.97884300000001
 20
-5.063903999999999
 30
0.0
 11
66.20067099999999
 21
-6.580530999999999
 31
0.0
  0
LINE
  5
1C1
330
1F
100
AcDbEntity
  8
NOCUT
370
    18
100
AcDbLine
 10
48.55724099999999
 20
7.584171999999999
 30
0.0
 11
51.350431
 21
7.274578999999999
 31
0.0
  0
LINE
  5
1C2
330
1F
100
AcDbEntity
  8
NOCUT
370
    18
100
AcDbLine
 10
-43.375
 20
-7.4375
 30
0.0
 11
-43.375
 21
-2.866025
 31
0.0
  0
LINE
  5
1C3
330
1F
100
AcDbEntity
  8
NOCUT
370
    18
100
AcDbLine
 10
-43.375
 20
-7.4375
 30
0.0
 11
-42.875
 21
-7.9375
 31
0.0
  0
LINE
  5
1C4
330
1F
100
AcDbEntity
  8
NOCUT
370
    18
100
AcDbLine
 10
59.325851
 20
7.346019
 30
0.0
 11
59.582526
 21
7.442272999999999
 31
0.0
  0
LINE
  5
1C5
330
1F
100
AcDbEntity
  8
NOCUT
370
    18
100
AcDbLine
 10
66.211185
 20
-6.719983999999999
 30
0.0
 11
66.212849
 21
-7.035461999999999
 31
0.0
  0
LINE
  5
1C6
330
1F
100
AcDbEntity
  8
NOCUT
370
    18
100
AcDbLine
 10
65.83717199999999
 20
2.588559
 30
0.0
 11
65.478402
 21
1.602845
 31
0.0
  0
LINE
  5
1C7
330
1F
100
AcDbEntity
  8
NOCUT
370
    18
100
AcDbLine
 10
47.625
 20
-7.9375
 30
0.0
 11
-42.875
 21
-7.9375
 31
0.0
  0
LINE
  5
1C8
330
1F
100
AcDbEntity
  8
NOCUT
370
    18
100
AcDbLine
 10
-43.375
 20
2.866025
 30
0.0
 11
-41.875
 21
2.0
 31
0.0
  0
LINE
  5
1C9
330
1F
100
AcDbEntity
  8
NOCUT
370
    18
100
AcDbLine
 10
63.35159100000001
 20
7.504635999999999
 30
0.0
 11
65.82372499999999
 21
7.437422999999999
 31
0.0
  0
LINE
  5
1CA
330
1F
100
AcDbEntity
  8
NOCUT
370
    18
100
AcDbLine
 10
65.957787
 20
4.774455
 30
0.0
 11
65.957787
 21
3.272599
 31
0.0
  0
LINE
  5
1CB
330
1F
100
AcDbEntity
  8
NOCUT
370
    18
100
AcDbLine
 10
51.90125
 20
7.244146
 30
0.0
 11
58.764053
 21
7.244146
 31
0.0
  0
LINE
  5
1CC
330
1F
100
AcDbEntity
  8
NOCUT
370
    18
100
AcDbLine
 10
51.625
 20
2.0
 30
0.0
 11
52.779701
 21
0.0
 31
0.0
  0
LINE
  5
1CD
330
1F
100
AcDbEntity
  8
1
370
    13
100
AcDbLine
 10
66.62268
 20
7.471391
 30
0.0
 11
66.61856999999999
 21
6.681389
 31
0.0
  0
LINE
  5
1CE
330
1F
100
AcDbEntity
  8
1
370
    13
100
AcDbLine
 10
66.20716899999999
 20
4.759339999999999
 30
0.0
 11
66.48783299999999
 21
6.358903999999999
 31
0.0
  0
LINE
  5
1CF
330
1F
100
AcDbEntity
  8
1
370
    13
100
AcDbLine
 10
66.590614
 20
6.36805
 30
0.0
 11
66.30859699999999
 21
4.760777
 31
0.0
  0
LINE
  5
1D0
330
1F
100
AcDbEntity
  8
1
370
    13
100
AcDbLine
 10
66.25954899999999
 20
4.441176
 30
0.0
 11
66.212849
 21
4.085258999999999
 31
0.0
  0
LINE
  5
1D1
330
1F
100
AcDbEntity
  8
1
370
    13
100
AcDbLine
 10
59.743867
 20
6.460842999999999
 30
0.0
 11
59.478813
 21
5.535534999999999
 31
0.0
  0
LINE
  5
1D2
330
1F
100
AcDbEntity
  8
1
370
    13
100
AcDbLine
 10
59.37902600000001
 20
5.539827999999999
 30
0.0
 11
59.642439
 21
6.459405999999999
 31
0.0
  0
LINE
  5
1D3
330
1F
100
AcDbEntity
  8
1
370
    13
100
AcDbLine
 10
59.855488
 20
7.276250999999999
 30
0.0
 11
59.80287
 21
6.770488999999999
 31
0.0
  0
LINE
  5
1D4
330
1F
100
AcDbEntity
  8
1
370
    13
100
AcDbLine
 10
59.701442
 20
6.769050999999999
 30
0.0
 11
59.769064
 21
7.419028999999999
 31
0.0
  0
LINE
  5
1D5
330
1F
100
AcDbEntity
  8
1
370
    13
100
AcDbLine
 10
60.17119499999999
 20
2.503894999999999
 30
0.0
 11
60.46026099999999
 21
2.571746
 31
0.0
  0
LINE
  5
1D6
330
1F
100
AcDbEntity
  8
1
370
    13
100
AcDbLine
 10
59.701442
 20
0.815277
 30
0.0
 11
59.769064
 21
0.782634
 31
0.0
  0
LINE
  5
1D7
330
1F
100
AcDbEntity
  8
1
370
    13
100
AcDbLine
 10
59.221757
 20
0.240913
 30
0.0
 11
59.642439
 21
0.770496
 31
0.0
  0
LINE
  5
1D8
330
1F
100
AcDbEntity
  8
1
370
    13
100
AcDbLine
 10
60.843996
 20
2.536411999999999
 30
0.0
 11
63.15837
 21
2.217385999999999
 31
0.0
  0
LINE
  5
1D9
330
1F
100
AcDbEntity
  8
1
370
    13
100
AcDbLine
 10
59.743867
 20
0.756372
 30
0.0
 11
59.325203
 21
0.229328
 31
0.0
  0
LINE
  5
1DA
330
1F
100
AcDbEntity
  8
1
370
    13
100
AcDbLine
 10
66.297791
 20
-1.73054
 30
0.0
 11
66.008724
 21
-1.662688999999999
 31
0.0
  0
LINE
  5
1DB
330
1F
100
AcDbEntity
  8
1
370
    13
100
AcDbLine
 10
66.590614
 20
0.7179830000000001
 30
0.0
 11
66.468862
 21
0.5170590000000001
 31
0.0
  0
LINE
  5
1DC
330
1F
100
AcDbEntity
  8
1
370
    13
100
AcDbLine
 10
66.452728
 20
0.643694
 30
0.0
 11
66.48783299999999
 21
0.701626
 31
0.0
  0
LINE
  5
1DD
102
{ACAD_REACTORS
330
31E
102
}
330
1F
100
AcDbEntity
  8
SK1
370
    13
100
AcDbLine
 10
-43.375
 20
-7.4375
 30
0.0
 11
-43.375
 21
7.4375
 31
0.0
  0
LINE
  5
1DE
330
1F
100
AcDbEntity
  8
NOCUT
370
    18
100
AcDbLine
 10
61.071339
 20
7.543852
 30
0.0
 11
63.331537
 21
7.50508
 31
0.0
  0
LINE
  5
1DF
330
1F
100
AcDbEntity
  8
NOCUT
370
    18
100
AcDbLine
 10
66.20067099999999
 20
6.580530999999999
 30
0.0
 11
65.97884300000001
 21
5.063903999999999
 31
0.0
  0
LINE
  5
1E0
330
1F
100
AcDbEntity
  8
NOCUT
370
    18
100
AcDbLine
 10
51.350431
 20
-7.274578999999999
 30
0.0
 11
48.55724099999999
 21
-7.584171999999999
 31
0.0
  0
LINE
  5
1E1
330
1F
100
AcDbEntity
  8
NOCUT
370
    18
100
AcDbLine
 10
51.625
 20
-2.0
 30
0.0
 11
-41.875
 21
-2.0
 31
0.0
  0
LINE
  5
1E2
330
1F
100
AcDbEntity
  8
NOCUT
370
    18
100
AcDbLine
 10
-42.875
 20
7.9375
 30
0.0
 11
-43.375
 21
7.4375
 31
0.0
  0
LINE
  5
1E3
330
1F
100
AcDbEntity
  8
NOCUT
370
    18
100
AcDbLine
 10
61.037036
 20
-7.544146
 30
0.0
 11
60.144324
 21
-7.544146
 31
0.0
  0
LINE
  5
1E4
330
1F
100
AcDbEntity
  8
NOCUT
370
    18
100
AcDbLine
 10
66.212849
 20
7.035461999999999
 30
0.0
 11
66.211185
 21
6.719983999999999
 31
0.0
  0
LINE
  5
1E5
330
1F
100
AcDbEntity
  8
NOCUT
370
    18
100
AcDbLine
 10
65.357787
 20
0.9188049999999998
 30
0.0
 11
65.357787
 21
-0.9188049999999998
 31
0.0
  0
LINE
  5
1E6
330
1F
100
AcDbEntity
  8
NOCUT
370
    18
100
AcDbLine
 10
-43.375
 20
2.866025
 30
0.0
 11
-43.375
 21
7.4375
 31
0.0
  0
LINE
  5
1E7
330
1F
100
AcDbEntity
  8
NOCUT
370
    18
100
AcDbLine
 10
-41.875
 20
-2.0
 30
0.0
 11
-43.375
 21
-2.866025
 31
0.0
  0
LINE
  5
1E8
330
1F
100
AcDbEntity
  8
1
370
    13
100
AcDbLine
 10
66.51650699999999
 20
-0.7446770000000001
 30
0.0
 11
66.61812799999999
 21
-0.7558060000000001
 31
0.0
  0
LINE
  5
1E9
330
1F
100
AcDbEntity
  8
1
370
    13
100
AcDbLine
 10
66.61812799999999
 20
0.7558060000000001
 30
0.0
 11
66.51650699999999
 21
0.7446770000000001
 31
0.0
  0
LINE
  5
1EA
330
1F
100
AcDbEntity
  8
SK1
370
    13
100
AcDbLine
 10
-42.875
 20
-7.9375
 30
0.0
 11
-42.875
 21
7.9375
 31
0.0
  0
LINE
  5
1EB
102
{ACAD_REACTORS
330
2EE
102
}
330
1F
100
AcDbEntity
  8
SK1
370
    13
100
AcDbLine
 10
47.625
 20
7.9375
 30
0.0
 11
47.625
 21
-7.9375
 31
0.0
  0
LINE
  5
1EC
330
1F
100
AcDbEntity
  8
1
370
    13
100
AcDbLine
 10
58.944485
 20
0.341634
 30
0.0
 11
59.683701
 21
0.9758359999999999
 31
0.0
  0
LINE
  5
1ED
330
1F
100
AcDbEntity
  8
1
370
    13
100
AcDbLine
 10
66.212849
 20
4.670053
 30
0.0
 11
66.212849
 21
1.897128
 31
0.0
  0
LINE
  5
1EE
330
1F
100
AcDbEntity
  8
1
370
    13
100
AcDbLine
 10
59.75195600000001
 20
0.9964549999999999
 30
0.0
 11
59.039531
 21
0.385239
 31
0.0
  0
LINE
  5
1EF
330
1F
100
AcDbEntity
  8
1
370
    13
100
AcDbLine
 10
59.039531
 20
0.385239
 30
0.0
 11
58.979777
 21
0.357863
 31
0.0
  0
LINE
  5
1F0
330
1F
100
AcDbEntity
  8
1
370
    13
100
AcDbLine
 10
62.355053
 20
4.245362
 30
0.0
 11
62.480722
 21
5.147096
 31
0.0
  0
LINE
  5
1F1
330
1F
100
AcDbEntity
  8
1
370
    13
100
AcDbLine
 10
56.953212
 20
-3.557023999999999
 30
0.0
 11
59.916922
 21
-2.975713999999999
 31
0.0
  0
LINE
  5
1F2
330
1F
100
AcDbEntity
  8
1
370
    13
100
AcDbLine
 10
61.78041700000001
 20
-2.735406
 30
0.0
 11
61.34918100000001
 21
-2.840158
 31
0.0
  0
LINE
  5
1F3
330
1F
100
AcDbEntity
  8
1
370
    13
100
AcDbLine
 10
64.151791
 20
-0.9450379999999999
 30
0.0
 11
63.991101
 21
-2.198409999999999
 31
0.0
  0
LINE
  5
1F4
330
1F
100
AcDbEntity
  8
1
370
    13
100
AcDbLine
 10
63.991101
 20
-2.198409999999999
 30
0.0
 11
62.96964499999999
 21
-2.446531
 31
0.0
  0
LINE
  5
1F5
330
1F
100
AcDbEntity
  8
1
370
    13
100
AcDbLine
 10
63.991101
 20
-2.198409999999999
 30
0.0
 11
65.89179699999999
 21
-2.01339
 31
0.0
  0
LINE
  5
1F6
330
1F
100
AcDbEntity
  8
1
370
    13
100
AcDbLine
 10
65.89654799999999
 20
-2.493730999999999
 30
0.0
 11
65.89654799999999
 21
-2.022434
 31
0.0
  0
LINE
  5
1F7
330
1F
100
AcDbEntity
  8
1
370
    13
100
AcDbLine
 10
64.574484
 20
-5.157553
 30
0.0
 11
64.57403000000001
 21
-5.942499999999999
 31
0.0
  0
LINE
  5
1F8
330
1F
100
AcDbEntity
  8
1
370
    13
100
AcDbLine
 10
64.5278
 20
-5.188245999999999
 30
0.0
 11
64.532951
 21
-6.183951
 31
0.0
  0
LINE
  5
1F9
330
1F
100
AcDbEntity
  8
1
370
    13
100
AcDbLine
 10
66.212849
 20
-5.648967999999999
 30
0.0
 11
66.212849
 21
-6.695149
 31
0.0
  0
LINE
  5
1FA
330
1F
100
AcDbEntity
  8
1
370
    13
100
AcDbLine
 10
65.89179699999999
 20
-2.01339
 30
0.0
 11
65.89179699999999
 21
-1.056197999999999
 31
0.0
  0
LINE
  5
1FB
330
1F
100
AcDbEntity
  8
1
370
    13
100
AcDbLine
 10
65.957787
 20
-2.035287999999999
 30
0.0
 11
65.89654799999999
 21
-2.022434
 31
0.0
  0
LINE
  5
1FC
330
1F
100
AcDbEntity
  8
1
370
    13
100
AcDbLine
 10
65.957787
 20
-2.035287999999999
 30
0.0
 11
65.957787
 21
-2.497181
 31
0.0
  0
LINE
  5
1FD
330
1F
100
AcDbEntity
  8
1
370
    13
100
AcDbLine
 10
65.957787
 20
-1.094102
 30
0.0
 11
65.957787
 21
-2.035287999999999
 31
0.0
  0
LINE
  5
1FE
330
1F
100
AcDbEntity
  8
1
370
    13
100
AcDbLine
 10
59.15217
 20
5.55309
 30
0.0
 11
59.683701
 21
6.965074999999999
 31
0.0
  0
LINE
  5
1FF
330
1F
100
AcDbEntity
  8
1
370
    13
100
AcDbLine
 10
59.70558199999999
 20
6.808857999999999
 30
0.0
 11
59.23107299999999
 21
5.548351999999999
 31
0.0
  0
LINE
  5
200
330
1F
100
AcDbEntity
  8
1
370
    13
100
AcDbLine
 10
66.211185
 20
-1.880150999999999
 30
0.0
 11
66.211185
 21
-4.071855999999999
 31
0.0
  0
LINE
  5
201
330
1F
100
AcDbEntity
  8
1
370
    13
100
AcDbLine
 10
66.212849
 20
-4.084672
 30
0.0
 11
66.212849
 21
-1.897128
 31
0.0
  0
LINE
  5
202
330
1F
100
AcDbEntity
  8
1
370
    13
100
AcDbLine
 10
66.51909999999999
 20
6.691111
 30
0.0
 11
66.523123
 21
7.464527
 31
0.0
  0
ARC
  5
203
330
1F
100
AcDbEntity
  8
1
370
    18
100
AcDbCircle
 10
60.302809
 20
-2.417898
 30
0.0
 40
0.6782830275473267
100
AcDbArc
 50
235.32528
 51
309.494811
  0
ARC
  5
204
330
1F
100
AcDbEntity
  8
1
370
    18
100
AcDbCircle
 10
64.19471999999998
 20
6.767496
 30
0.0
 40
1.908429705610215
100
AcDbArc
 50
259.147782
 51
284.228258
  0
ARC
  5
205
330
1F
100
AcDbEntity
  8
1
370
    18
100
AcDbCircle
 10
64.314493
 20
10.929333
 30
0.0
 40
6.05511923696036
100
AcDbArc
 50
254.31311
 51
265.461978
  0
ARC
  5
206
330
1F
100
AcDbEntity
  8
1
370
    18
100
AcDbCircle
 10
59.009995
 20
-0.217282
 30
0.0
 40
1.39147298610963
100
AcDbArc
 50
205.524956
 51
254.159952
  0
ARC
  5
207
330
1F
100
AcDbEntity
  8
1
370
    18
100
AcDbCircle
 10
62.551446
 20
-3.248609999999999
 30
0.0
 40
0.9045550344841013
100
AcDbArc
 50
62.462755
 51
137.732424
  0
ARC
  5
208
330
1F
100
AcDbEntity
  8
1
370
    18
100
AcDbCircle
 10
59.814639
 20
-1.396795999999999
 30
0.0
 40
0.3212330699281546
100
AcDbArc
 50
302.110591
 51
74.74186800000001
  0
ARC
  5
209
330
1F
100
AcDbEntity
  8
1
370
    18
100
AcDbCircle
 10
63.425561
 20
-5.163457
 30
0.0
 40
1.079151157783982
100
AcDbArc
 50
68.735074
 51
121.690487
  0
ARC
  5
20A
330
1F
100
AcDbEntity
  8
1
370
    18
100
AcDbCircle
 10
63.415259
 20
-5.195298999999999
 30
0.0
 40
1.112563572342208
100
AcDbArc
 50
0.363243
 51
68.83542299999999
  0
ARC
  5
20B
330
1F
100
AcDbEntity
  8
1
370
    18
100
AcDbCircle
 10
63.47729000000001
 20
-5.133079
 30
0.0
 40
1.082133719294144
100
AcDbArc
 50
68.799048
 51
131.287426
  0
ARC
  5
20C
330
1F
100
AcDbEntity
  8
1
370
    18
100
AcDbCircle
 10
63.467326
 20
-5.156055999999999
 30
0.0
 40
1.10715926370665
100
AcDbArc
 50
359.922522
 51
68.748274
  0
ARC
  5
20D
330
1F
100
AcDbEntity
  8
1
370
    18
100
AcDbCircle
 10
62.956493
 20
5.595231
 30
0.0
 40
1.471504051233201
100
AcDbArc
 50
163.379397
 51
195.285238
  0
ARC
  5
20E
330
1F
100
AcDbEntity
  8
1
370
    18
100
AcDbCircle
 10
63.00105999999999
 20
5.58448
 30
0.0
 40
1.517285804139415
100
AcDbArc
 50
105.062013
 51
163.471764
  0
ARC
  5
20F
330
1F
100
AcDbEntity
  8
1
370
    18
100
AcDbCircle
 10
62.99052299999999
 20
5.642968999999999
 30
0.0
 40
1.45807695136419
100
AcDbArc
 50
45.203276
 51
105.259443
  0
ARC
  5
210
330
1F
100
AcDbEntity
  8
1
370
    18
100
AcDbCircle
 10
62.96061899999999
 20
5.647586
 30
0.0
 40
1.479863372594335
100
AcDbArc
 50
328.286245
 51
27.723348
  0
ARC
  5
211
330
1F
100
AcDbEntity
  8
1
370
    18
100
AcDbCircle
 10
63.094228
 20
5.546272
 30
0.0
 40
1.414566545990701
100
AcDbArc
 50
45.141054
 51
91.246317
  0
ARC
  5
212
330
1F
100
AcDbEntity
  8
1
370
    18
100
AcDbCircle
 10
62.43742499999999
 20
2.835373
 30
0.0
 40
2.638632921542036
100
AcDbArc
 50
248.847689
 51
264.920417
  0
ARC
  5
213
330
1F
100
AcDbEntity
  8
1
370
    18
100
AcDbCircle
 10
62.99675999999999
 20
5.649801
 30
0.0
 40
1.306625291208415
100
AcDbArc
 50
28.013474
 51
91.02760399999999
  0
ARC
  5
214
330
1F
100
AcDbEntity
  8
1
370
    18
100
AcDbCircle
 10
62.962249
 20
5.641524999999999
 30
0.0
 40
1.341008911356184
100
AcDbArc
 50
325.194396
 51
27.633083
  0
ARC
  5
215
330
1F
100
AcDbEntity
  8
1
370
    18
100
AcDbCircle
 10
62.96814300000001
 20
5.595485
 30
0.0
 40
1.339011114514317
100
AcDbArc
 50
152.280224
 51
198.779828
  0
ARC
  5
216
330
1F
100
AcDbEntity
  8
1
370
    18
100
AcDbCircle
 10
62.997623
 20
5.587673999999999
 30
0.0
 40
1.368757801707901
100
AcDbArc
 50
91.01707199999999
 51
152.564745
  0
ARC
  5
217
330
1F
100
AcDbEntity
  8
1
370
    18
100
AcDbCircle
 10
62.995838
 20
5.650258999999999
 30
0.0
 40
1.296953344623139
100
AcDbArc
 50
27.960492
 51
91.027388
  0
ARC
  5
218
330
1F
100
AcDbEntity
  8
1
370
    18
100
AcDbCircle
 10
62.961375
 20
5.642038999999999
 30
0.0
 40
1.331277253115018
100
AcDbArc
 50
324.911543
 51
27.577522
  0
ARC
  5
219
330
1F
100
AcDbEntity
  8
1
370
    18
100
AcDbCircle
 10
62.967052
 20
5.596371999999999
 30
0.0
 40
1.328719059858172
100
AcDbArc
 50
152.509267
 51
199.081943
  0
ARC
  5
21A
330
1F
100
AcDbEntity
  8
1
370
    18
100
AcDbCircle
 10
62.99671800000001
 20
5.588559
 30
0.0
 40
1.358659081862415
100
AcDbArc
 50
91.017816
 51
152.794473
  0
ARC
  5
21B
330
1F
100
AcDbEntity
  8
1
370
    18
100
AcDbCircle
 10
63.115962
 20
5.524563999999999
 30
0.0
 40
1.311169598249332
100
AcDbArc
 50
355.710785
 51
44.921698
  0
ARC
  5
21C
330
1F
100
AcDbEntity
  8
1
370
    18
100
AcDbCircle
 10
63.54115799999999
 20
-5.284688
 30
0.0
 40
0.9758614010628733
100
AcDbArc
 50
235.36782
 51
303.144742
  0
ARC
  5
21D
330
1F
100
AcDbEntity
  8
1
370
    18
100
AcDbCircle
 10
63.549663
 20
-5.262482
 30
0.0
 40
0.9989817961967347
100
AcDbArc
 50
163.370119
 51
235.690243
  0
ARC
  5
21E
330
1F
100
AcDbEntity
  8
1
370
    18
100
AcDbCircle
 10
63.517443
 20
-5.254401999999999
 30
0.0
 40
0.9657982765943732
100
AcDbArc
 50
89.19076999999999
 51
163.282437
  0
ARC
  5
21F
330
1F
100
AcDbEntity
  8
1
370
    18
100
AcDbCircle
 10
63.51384300000001
 20
-5.285553
 30
0.0
 40
0.9970021408076796
100
AcDbArc
 50
16.586263
 51
89.00914699999999
  0
ARC
  5
220
330
1F
100
AcDbEntity
  8
1
370
    18
100
AcDbCircle
 10
63.533849
 20
-5.286718
 30
0.0
 40
0.9781847446978888
100
AcDbArc
 50
303.568218
 51
16.986197
  0
ARC
  5
221
330
1F
100
AcDbEntity
  8
1
370
    18
100
AcDbCircle
 10
63.53978699999999
 20
-5.285001
 30
0.0
 40
0.9863540374860468
100
AcDbArc
 50
233.898565
 51
303.127359
  0
ARC
  5
222
330
1F
100
AcDbEntity
  8
1
370
    18
100
AcDbCircle
 10
63.548106
 20
-5.263434999999999
 30
0.0
 40
1.008697971893107
100
AcDbArc
 50
162.264313
 51
234.238572
  0
ARC
  5
223
330
1F
100
AcDbEntity
  8
1
370
    18
100
AcDbCircle
 10
63.515921
 20
-5.255015
 30
0.0
 40
0.9754798025591382
100
AcDbArc
 50
88.43914699999999
 51
162.159538
  0
ARC
  5
224
330
1F
100
AcDbEntity
  8
1
370
    18
100
AcDbCircle
 10
63.512108
 20
-5.286751
 30
0.0
 40
1.007312390193604
100
AcDbArc
 50
16.226441
 51
88.271499
  0
ARC
  5
225
330
1F
100
AcDbEntity
  8
1
370
    18
100
AcDbCircle
 10
63.53260999999999
 20
-5.287816
 30
0.0
 40
0.9879480280134945
100
AcDbArc
 50
303.565163
 51
16.618
  0
ARC
  5
226
330
1F
100
AcDbEntity
  8
1
370
    18
100
AcDbCircle
 10
63.016137
 20
4.846108999999999
 30
0.0
 40
4.686109167606963
100
AcDbArc
 50
252.98287
 51
263.384663
  0
ARC
  5
227
330
1F
100
AcDbEntity
  8
1
370
    18
100
AcDbCircle
 10
63.566283
 20
1.295892999999999
 30
0.0
 40
2.95779346755541
100
AcDbArc
 50
71.19151600000001
 51
84.89413799999999
  0
ARC
  5
228
330
1F
100
AcDbEntity
  8
1
370
    18
100
AcDbCircle
 10
62.207767
 20
-4.147863
 30
0.0
 40
8.536999278316473
100
AcDbArc
 50
81.058651
 51
87.46773500000001
  0
ARC
  5
229
330
1F
100
AcDbEntity
  8
1
370
    18
100
AcDbCircle
 10
63.391104
 20
0.5044900000000001
 30
0.0
 40
3.775099446849151
100
AcDbArc
 50
72.75260300000001
 51
84.195492
  0
ARC
  5
22A
330
1F
100
AcDbEntity
  8
1
370
    18
100
AcDbCircle
 10
62.231776
 20
-3.972756
 30
0.0
 40
8.369756673012695
100
AcDbArc
 50
81.03570000000001
 51
87.520372
  0
ARC
  5
22B
330
1F
100
AcDbEntity
  8
1
370
    18
100
AcDbCircle
 10
57.03382900000001
 20
0.551015
 30
0.0
 40
5.547296807827795
100
AcDbArc
 50
188.383685
 51
203.570017
  0
ARC
  5
22C
330
1F
100
AcDbEntity
  8
1
370
    18
100
AcDbCircle
 10
58.84855699999999
 20
0.787286
 30
0.0
 40
7.377145558707979
100
AcDbArc
 50
173.567551
 51
188.144133
  0
ARC
  5
22D
330
1F
100
AcDbEntity
  8
1
370
    18
100
AcDbCircle
 10
57.271894
 20
0.600904
 30
0.0
 40
5.839947904252985
100
AcDbArc
 50
184.530042
 51
203.126653
  0
ARC
  5
22E
330
1F
100
AcDbEntity
  8
1
370
    18
100
AcDbCircle
 10
56.004624
 20
0.301838
 30
0.0
 40
4.551701819784072
100
AcDbArc
 50
227.31567
 51
243.989354
  0
ARC
  5
22F
330
1F
100
AcDbEntity
  8
1
370
    18
100
AcDbCircle
 10
55.735358
 20
-0.031369
 30
0.0
 40
4.124304714382592
100
AcDbArc
 50
203.3675
 51
226.927192
  0
ARC
  5
230
330
1F
100
AcDbEntity
  8
1
370
    18
100
AcDbCircle
 10
55.79354699999999
 20
-0.005237
 30
0.0
 40
4.242398700529836
100
AcDbArc
 50
203.440135
 51
221.610859
  0
ARC
  5
231
330
1F
100
AcDbEntity
  8
1
370
    18
100
AcDbCircle
 10
55.934588
 20
0.170415
 30
0.0
 40
4.464654374294183
100
AcDbArc
 50
222.094288
 51
243.870888
  0
ARC
  5
232
330
1F
100
AcDbEntity
  8
1
370
    18
100
AcDbCircle
 10
59.33316899999999
 20
-2.964777999999999
 30
0.0
 40
4.1333718832195
100
AcDbArc
 50
82.69114499999998
 51
84.408664
  0
ARC
  5
233
330
1F
100
AcDbEntity
  8
1
370
    18
100
AcDbCircle
 10
59.36299
 20
-2.656236999999999
 30
0.0
 40
3.823393347698438
100
AcDbArc
 50
84.40293199999999
 51
86.70831300000001
  0
ARC
  5
234
330
1F
100
AcDbEntity
  8
1
370
    18
100
AcDbCircle
 10
59.355826
 20
-1.418979
 30
0.0
 40
6.932017985087282
100
AcDbArc
 50
86.16208399999999
 51
88.12590300000001
  0
ARC
  5
235
330
1F
100
AcDbEntity
  8
1
370
    18
100
AcDbCircle
 10
59.28483599999999
 20
-2.503641
 30
0.0
 40
8.018999155004758
100
AcDbArc
 50
83.84713899999999
 51
86.17473199999999
  0
ARC
  5
236
330
1F
100
AcDbEntity
  8
1
370
    18
100
AcDbCircle
 10
60.666107
 20
2.295333
 30
0.0
 40
0.5738703071471442
100
AcDbArc
 50
155.408642
 51
204.603583
  0
ARC
  5
237
330
1F
100
AcDbEntity
  8
1
370
    18
100
AcDbCircle
 10
52.59253199999999
 20
0.8921889999999999
 30
0.0
 40
1.454603024620956
100
AcDbArc
 50
76.653518
 51
116.935169
  0
ARC
  5
238
330
1F
100
AcDbEntity
  8
1
370
    18
100
AcDbCircle
 10
52.619415
 20
0.893017
 30
0.0
 40
1.535826836882619
100
AcDbArc
 50
77.876936
 51
117.879133
  0
ARC
  5
239
330
1F
100
AcDbEntity
  8
1
370
    18
100
AcDbCircle
 10
52.257612
 20
1.516948999999999
 30
0.0
 40
0.7460664188207719
100
AcDbArc
 50
115.73839
 51
172.544162
  0
ARC
  5
23A
330
1F
100
AcDbEntity
  8
1
370
    18
100
AcDbCircle
 10
60.63944499999999
 20
2.235364
 30
0.0
 40
0.6080923197358627
100
AcDbArc
 50
49.168745
 51
92.99622900000001
  0
ARC
  5
23B
330
1F
100
AcDbEntity
  8
1
370
    18
100
AcDbCircle
 10
60.63229399999999
 20
2.303431
 30
0.0
 40
0.5397566605055908
100
AcDbArc
 50
92.615893
 51
154.696442
  0
ARC
  5
23C
330
1F
100
AcDbEntity
  8
1
370
    18
100
AcDbCircle
 10
60.63683199999999
 20
2.272791999999999
 30
0.0
 40
0.4769103455018766
100
AcDbArc
 50
127.305288
 51
207.406773
  0
ARC
  5
23D
330
1F
100
AcDbEntity
  8
1
370
    18
100
AcDbCircle
 10
60.64788499999999
 20
2.225588999999999
 30
0.0
 40
0.5215317410093454
100
AcDbArc
 50
48.954987
 51
125.127679
  0
ARC
  5
23E
330
1F
100
AcDbEntity
  8
1
370
    18
100
AcDbCircle
 10
51.501191
 20
-6.825558999999999
 30
0.0
 40
0.429681082828728
100
AcDbArc
 50
263.213999
 51
306.529889
  0
ARC
  5
23F
330
1F
100
AcDbEntity
  8
1
370
    18
100
AcDbCircle
 10
51.50364
 20
6.584916
 30
0.0
 40
0.6733249593052154
100
AcDbArc
 50
74.201926
 51
84.86581200000001
  0
ARC
  5
240
330
1F
100
AcDbEntity
  8
1
370
    18
100
AcDbCircle
 10
50.959286
 20
4.586608999999999
 30
0.0
 40
2.744424748823859
100
AcDbArc
 50
69.926323
 51
74.62454100000001
  0
ARC
  5
241
330
1F
100
AcDbEntity
  8
1
370
    18
100
AcDbCircle
 10
52.302779
 20
1.508412
 30
0.0
 40
0.8438314732253191
100
AcDbArc
 50
118.414032
 51
172.018672
  0
ARC
  5
242
330
1F
100
AcDbEntity
  8
1
370
    18
100
AcDbCircle
 10
59.58702800000001
 20
4.956152999999999
 30
0.0
 40
3.788342528168474
100
AcDbArc
 50
262.343825
 51
266.046754
  0
ARC
  5
243
330
1F
100
AcDbEntity
  8
1
370
    18
100
AcDbCircle
 10
59.658607
 20
5.505899999999999
 30
0.0
 40
4.342725370495474
100
AcDbArc
 50
258.112595
 51
262.374182
  0
ARC
  5
244
330
1F
100
AcDbEntity
  8
1
370
    18
100
AcDbCircle
 10
59.963058
 20
15.875724
 30
0.0
 40
10.37467328924188
100
AcDbArc
 50
263.363473
 51
264.795095
  0
ARC
  5
245
330
1F
100
AcDbEntity
  8
1
370
    18
100
AcDbCircle
 10
59.892065
 20
15.150543
 30
0.0
 40
9.64604347149816
100
AcDbArc
 50
264.824279
 51
266.63485
  0
ARC
  5
246
330
1F
100
AcDbEntity
  8
1
370
    18
100
AcDbCircle
 10
-41.45712699999999
 20
-496.133045
 30
0.0
 40
507.3859012881033
100
AcDbArc
 50
78.60776
 51
78.902642
  0
ARC
  5
247
330
1F
100
AcDbEntity
  8
1
370
    18
100
AcDbCircle
 10
-43.93496599999999
 20
-508.5482849999999
 30
0.0
 40
520.0459233692838
100
AcDbArc
 50
78.89802900000001
 51
79.263921
  0
ARC
  5
248
330
1F
100
AcDbEntity
  8
1
370
    18
100
AcDbCircle
 10
62.068577
 20
6.458385999999999
 30
0.0
 40
1.345526698203916
100
AcDbArc
 50
236.5848
 51
288.020146
  0
ARC
  5
249
330
1F
100
AcDbEntity
  8
1
370
    18
100
AcDbCircle
 10
36.548419
 20
-34.581973
 30
0.0
 40
44.47990426181104
100
AcDbArc
 50
68.816333
 51
69.808239
  0
ARC
  5
24A
330
1F
100
AcDbEntity
  8
1
370
    18
100
AcDbCircle
 10
57.742904
 20
20.373369
 30
0.0
 40
14.42106695180132
100
AcDbArc
 50
249.198901
 51
254.826836
  0
ARC
  5
24B
330
1F
100
AcDbEntity
  8
1
370
    18
100
AcDbCircle
 10
57.56935
 20
15.420415
 30
0.0
 40
9.66152172154997
100
AcDbArc
 50
248.117007
 51
263.697999
  0
ARC
  5
24C
330
1F
100
AcDbEntity
  8
1
370
    18
100
AcDbCircle
 10
-71.37401700000001
 20
-1173.399304
 30
0.0
 40
1186.130584561243
100
AcDbArc
 50
83.76242299999999
 51
83.81061700000001
  0
ARC
  5
24D
330
1F
100
AcDbEntity
  8
1
370
    18
100
AcDbCircle
 10
-81.500111
 20
-1266.029209
 30
0.0
 40
1279.312326394241
100
AcDbArc
 50
83.70541999999998
 51
83.762343
  0
ARC
  5
24E
330
1F
100
AcDbEntity
  8
1
370
    18
100
AcDbCircle
 10
78.56331800000001
 20
157.265302
 30
0.0
 40
163.5666148176892
100
AcDbArc
 50
262.250921
 51
262.601416
  0
ARC
  5
24F
330
1F
100
AcDbEntity
  8
1
370
    18
100
AcDbCircle
 10
80.163088
 20
169.595307
 30
0.0
 40
175.9999690650556
100
AcDbArc
 50
262.601838
 51
263.016388
  0
ARC
  5
250
330
1F
100
AcDbEntity
  8
1
370
    18
100
AcDbCircle
 10
66.972955
 20
182.012892
 30
0.0
 40
189.2705462389241
100
AcDbArc
 50
266.737923
 51
267.51423
  0
ARC
  5
251
330
1F
100
AcDbEntity
  8
1
370
    18
100
AcDbCircle
 10
67.301438
 20
187.724533
 30
0.0
 40
194.9916241138685
100
AcDbArc
 50
265.776829
 51
266.737059
  0
ARC
  5
252
330
1F
100
AcDbEntity
  8
1
370
    18
100
AcDbCircle
 10
57.30805799999999
 20
1.347016999999999
 30
0.0
 40
6.206328345521619
100
AcDbArc
 50
248.194242
 51
262.600964
  0
ARC
  5
253
330
1F
100
AcDbEntity
  8
1
370
    18
100
AcDbCircle
 10
56.85001299999999
 20
0.105343
 30
0.0
 40
4.83397158906864
100
AcDbArc
 50
234.434364
 51
251.949445
  0
ARC
  5
254
330
1F
100
AcDbEntity
  8
1
370
    18
100
AcDbCircle
 10
65.768215
 20
3.853652999999999
 30
0.0
 40
0.977977447732649
100
AcDbArc
 50
68.90012299999999
 51
86.343601
  0
ARC
  5
255
330
1F
100
AcDbEntity
  8
1
370
    18
100
AcDbCircle
 10
172.227012
 20
7.287061
 30
0.0
 40
106.7471633681858
100
AcDbArc
 50
186.162863
 51
186.66221
  0
ARC
  5
256
330
1F
100
AcDbEntity
  8
1
370
    18
100
AcDbCircle
 10
139.377887
 20
3.75773
 30
0.0
 40
73.70899213281835
100
AcDbArc
 50
185.256229
 51
186.176531
  0
ARC
  5
257
330
1F
100
AcDbEntity
  8
1
370
    18
100
AcDbCircle
 10
58.68407799999999
 20
-8.831260999999999
 30
0.0
 40
1.753568122299365
100
AcDbArc
 50
68.532043
 51
76.87358
  0
ARC
  5
258
330
1F
100
AcDbEntity
  8
1
370
    18
100
AcDbCircle
 10
58.684741
 20
-8.827947999999999
 30
0.0
 40
1.750190806462818
100
AcDbArc
 50
76.870062
 51
87.40266700000001
  0
ARC
  5
259
330
1F
100
AcDbEntity
  8
1
370
    18
100
AcDbCircle
 10
59.599524
 20
-0.054587
 30
0.0
 40
0.4559682104020444
100
AcDbArc
 50
155.499418
 51
209.271854
  0
ARC
  5
25A
330
1F
100
AcDbEntity
  8
1
370
    18
100
AcDbCircle
 10
60.189692
 20
-7.086464999999999
 30
0.0
 40
0.0969347584969323
100
AcDbArc
 50
117.930444
 51
242.103648
  0
ARC
  5
25B
330
1F
100
AcDbEntity
  8
1
370
    18
100
AcDbCircle
 10
60.2092
 20
-5.69672
 30
0.0
 40
1.721324509578995
100
AcDbArc
 50
254.039965
 51
258.261593
  0
ARC
  5
25C
330
1F
100
AcDbEntity
  8
1
370
    18
100
AcDbCircle
 10
60.210347
 20
-5.692626
 30
0.0
 40
1.725575173972796
100
AcDbArc
 50
248.664246
 51
254.040739
  0
ARC
  5
25D
330
1F
100
AcDbEntity
  8
1
370
    18
100
AcDbCircle
 10
60.58223
 20
-7.672677999999999
 30
0.0
 40
0.8019633367607875
100
AcDbArc
 50
88.182922
 51
123.095975
  0
ARC
  5
25E
330
1F
100
AcDbEntity
  8
1
370
    18
100
AcDbCircle
 10
63.474602
 20
-5.159065
 30
0.0
 40
1.10005228231317
100
AcDbArc
 50
130.289118
 51
179.787142
  0
ARC
  5
25F
330
1F
100
AcDbEntity
  8
1
370
    18
100
AcDbCircle
 10
62.029198
 20
-4.486966999999999
 30
0.0
 40
1.463961500525975
100
AcDbArc
 50
241.36352
 51
283.76741
  0
ARC
  5
260
330
1F
100
AcDbEntity
  8
1
370
    18
100
AcDbCircle
 10
57.850741
 20
-3.336336
 30
0.0
 40
1.823521402143921
100
AcDbArc
 50
34.214468
 51
58.47217999999999
  0
ARC
  5
261
330
1F
100
AcDbEntity
  8
1
370
    18
100
AcDbCircle
 10
61.58858000000001
 20
-10.824355
 30
0.0
 40
9.294772509091147
100
AcDbArc
 50
99.932203
 51
104.143425
  0
ARC
  5
262
330
1F
100
AcDbEntity
  8
1
370
    18
100
AcDbCircle
 10
59.179227
 20
-1.147004
 30
0.0
 40
0.6785470081019449
100
AcDbArc
 50
217.547281
 51
281.749523
  0
ARC
  5
263
330
1F
100
AcDbEntity
  8
1
370
    18
100
AcDbCircle
 10
58.22311899999999
 20
-0.9581089999999999
 30
0.0
 40
0.5322942596986722
100
AcDbArc
 50
103.410596
 51
149.009376
  0
ARC
  5
264
330
1F
100
AcDbEntity
  8
1
370
    18
100
AcDbCircle
 10
65.816249
 20
-5.67626
 30
0.0
 40
0.3367404602253354
100
AcDbArc
 50
272.439799
 51
5.186914999999999
  0
ARC
  5
265
330
1F
100
AcDbEntity
  8
1
370
    18
100
AcDbCircle
 10
58.32689699999999
 20
-0.4188500000000001
 30
0.0
 40
0.2282445278251966
100
AcDbArc
 50
109.62033
 51
185.399666
  0
ARC
  5
266
330
1F
100
AcDbEntity
  8
1
370
    18
100
AcDbCircle
 10
58.28736800000001
 20
-0.8020459999999999
 30
0.0
 40
0.5993386165469968
100
AcDbArc
 50
43.966604
 51
93.550169
  0
ARC
  5
267
330
1F
100
AcDbEntity
  8
1
370
    18
100
AcDbCircle
 10
60.11145500000001
 20
1.038597999999999
 30
0.0
 40
1.992242315744524
100
AcDbArc
 50
225.647592
 51
250.637763
  0
ARC
  5
268
330
1F
100
AcDbEntity
  8
1
370
    18
100
AcDbCircle
 10
65.82293299999999
 20
-5.681976
 30
0.0
 40
0.3913096556676325
100
AcDbArc
 50
270.115975
 51
4.838435999999999
  0
ARC
  5
269
330
1F
100
AcDbEntity
  8
1
370
    18
100
AcDbCircle
 10
65.827827
 20
-6.701511999999999
 30
0.0
 40
0.3850728071556965
100
AcDbArc
 50
269.389707
 51
0.9345329999999998
  0
ARC
  5
26A
330
1F
100
AcDbEntity
  8
1
370
    18
100
AcDbCircle
 10
57.556769
 20
15.400049
 30
0.0
 40
9.626441165256231
100
AcDbArc
 50
248.562286
 51
263.802723
  0
ARC
  5
26B
330
1F
100
AcDbEntity
  8
1
370
    18
100
AcDbCircle
 10
71.141704
 20
-2.536700999999999
 30
0.0
 40
5.183139596671337
100
AcDbArc
 50
182.646659
 51
185.0699159999999
  0
ARC
  5
26C
330
1F
100
AcDbEntity
  8
1
370
    18
100
AcDbCircle
 10
71.90744000000001
 20
-2.502132
 30
0.0
 40
5.949655344477302
100
AcDbArc
 50
179.952322
 51
182.638698
  0
ARC
  5
26D
330
1F
100
AcDbEntity
  8
1
370
    18
100
AcDbCircle
 10
-131.916595
 20
-2.377419999999999
 30
0.0
 40
197.811811080397
100
AcDbArc
 50
0.4661930000000001
 51
0.5373680000000001
  0
ARC
  5
26E
330
1F
100
AcDbEntity
  8
1
370
    18
100
AcDbCircle
 10
127.849554
 20
-0.239573
 30
0.0
 40
61.96313834930132
100
AcDbArc
 50
180.488557
 51
180.755135
  0
ARC
  5
26F
330
1F
100
AcDbEntity
  8
1
370
    18
100
AcDbCircle
 10
62.042704
 20
32.55186
 30
0.0
 40
27.33182838746275
100
AcDbArc
 50
248.925016
 51
250.91401
  0
ARC
  5
270
330
1F
100
AcDbEntity
  8
1
370
    18
100
AcDbCircle
 10
51.132805
 20
-5.546136999999999
 30
0.0
 40
1.742578905936438
100
AcDbArc
 50
284.724958
 51
297.941751
  0
ARC
  5
271
330
1F
100
AcDbEntity
  8
1
370
    18
100
AcDbCircle
 10
58.76672199999999
 20
-21.159278
 30
0.0
 40
15.63339009825001
100
AcDbArc
 50
112.680623
 51
114.262921
  0
ARC
  5
272
330
1F
100
AcDbEntity
  8
1
370
    18
100
AcDbCircle
 10
116.489
 20
-148.526849
 30
0.0
 40
155.470263988067
100
AcDbArc
 50
114.368021
 51
114.52722
  0
ARC
  5
273
330
1F
100
AcDbEntity
  8
1
370
    18
100
AcDbCircle
 10
58.664052
 20
8.795080999999999
 30
0.0
 40
1.800160950458893
100
AcDbArc
 50
283.435306
 51
291.569721
  0
ARC
  5
274
330
1F
100
AcDbEntity
  8
1
370
    18
100
AcDbCircle
 10
58.66478299999999
 20
8.791418999999999
 30
0.0
 40
1.796429275656111
100
AcDbArc
 50
273.16777
 51
283.439771
  0
ARC
  5
275
330
1F
100
AcDbEntity
  8
1
370
    18
100
AcDbCircle
 10
69.00468899999999
 20
-186.396766
 30
0.0
 40
193.665442625886
100
AcDbArc
 50
93.03109799999999
 51
93.73397500000001
  0
ARC
  5
276
330
1F
100
AcDbEntity
  8
1
370
    18
100
AcDbCircle
 10
69.35309100000001
 20
-191.68624
 30
0.0
 40
198.9663772675214
100
AcDbArc
 50
93.73489300000001
 51
94.606729
  0
ARC
  5
277
330
1F
100
AcDbEntity
  8
1
370
    18
100
AcDbCircle
 10
66.126502
 20
7.487578
 30
0.0
 40
0.3972903953040454
100
AcDbArc
 50
356.673763
 51
87.68302
  0
ARC
  5
278
330
1F
100
AcDbEntity
  8
1
370
    18
100
AcDbCircle
 10
66.24231299999999
 20
7.534930999999999
 30
0.0
 40
0.3806549547047995
100
AcDbArc
 50
359.386934
 51
91.27414499999998
  0
ARC
  5
279
330
1F
100
AcDbEntity
  8
1
370
    18
100
AcDbCircle
 10
60.211187
 20
7.417413999999999
 30
0.0
 40
0.3440046369891862
100
AcDbArc
 50
101.18099
 51
183.665354
  0
ARC
  5
27A
330
1F
100
AcDbEntity
  8
1
370
    18
100
AcDbCircle
 10
60.17256800000001
 20
7.380088999999999
 30
0.0
 40
0.4053788582881279
100
AcDbArc
 50
93.94068299999998
 51
174.489103
  0
ARC
  5
27B
330
1F
100
AcDbEntity
  8
1
370
    18
100
AcDbCircle
 10
133.525831
 20
332.537938
 30
0.0
 40
339.85660122741
100
AcDbArc
 50
257.482825
 51
257.530616
  0
ARC
  5
27C
330
1F
100
AcDbEntity
  8
1
370
    18
100
AcDbCircle
 10
60.337372
 20
-0.6242989999999999
 30
0.0
 40
3.201056232143828
100
AcDbArc
 50
80.893636
 51
87.27155600000001
  0
ARC
  5
27D
330
1F
100
AcDbEntity
  8
1
370
    18
100
AcDbCircle
 10
63.08975699999999
 20
6.004319999999999
 30
0.0
 40
0.3690735832500757
100
AcDbArc
 50
98.944352
 51
117.582508
  0
ARC
  5
27E
330
1F
100
AcDbEntity
  8
1
370
    18
100
AcDbCircle
 10
63.089928
 20
6.002824999999999
 30
0.0
 40
0.3705770205851685
100
AcDbArc
 50
75.36211899999999
 51
98.934501
  0
ARC
  5
27F
330
1F
100
AcDbEntity
  8
1
370
    18
100
AcDbCircle
 10
60.85926800000001
 20
-6.691432
 30
0.0
 40
0.4023600202086636
100
AcDbArc
 50
208.029568
 51
267.824825
  0
ARC
  5
280
330
1F
100
AcDbEntity
  8
1
370
    18
100
AcDbCircle
 10
65.919555
 20
-6.831658
 30
0.0
 40
0.3910973385259278
100
AcDbArc
 50
268.805616
 51
0.627837
  0
ARC
  5
281
330
1F
100
AcDbEntity
  8
1
370
    18
100
AcDbCircle
 10
60.16793299999999
 20
-7.441891
 30
0.0
 40
0.400621677248444
100
AcDbArc
 50
185.359397
 51
266.676667
  0
ARC
  5
282
330
1F
100
AcDbEntity
  8
1
370
    18
100
AcDbCircle
 10
66.23599300000001
 20
-7.523647
 30
0.0
 40
0.3869745805968993
100
AcDbArc
 50
269.68256
 51
0.5979160000000001
  0
ARC
  5
283
330
1F
100
AcDbEntity
  8
1
370
    18
100
AcDbCircle
 10
66.05482399999999
 20
1.536945999999999
 30
0.0
 40
0.3151902797753442
100
AcDbArc
 50
57.535311
 51
84.91220600000001
  0
ARC
  5
284
330
1F
100
AcDbEntity
  8
CUT
370
    18
100
AcDbCircle
 10
65.775903
 20
3.8589
 30
0.0
 40
0.4037834333124888
100
AcDbArc
 50
271.53759
 51
352.589569
  0
ARC
  5
285
330
1F
100
AcDbEntity
  8
CUT
370
    18
100
AcDbCircle
 10
66.24217800000001
 20
7.534794
 30
0.0
 40
0.3807887182337195
100
AcDbArc
 50
359.407731
 51
91.253348
  0
ARC
  5
286
330
1F
100
AcDbEntity
  8
CUT
370
    18
100
AcDbCircle
 10
59.57141299999999
 20
3.842820999999999
 30
0.0
 40
0.3952386998441247
100
AcDbArc
 50
180.229536
 51
270.416496
  0
ARC
  5
287
330
1F
100
AcDbEntity
  8
CUT
370
    18
100
AcDbCircle
 10
60.170785
 20
7.381922
 30
0.0
 40
0.4034313853495357
100
AcDbArc
 50
93.70593000000001
 51
174.723856
  0
ARC
  5
288
330
1F
100
AcDbEntity
  8
1
370
    13
100
AcDbCircle
 10
48.777568
 20
-9.571998999999999
 30
0.0
 40
2.0
100
AcDbArc
 50
96.324763
 51
125.189616
  0
ARC
  5
289
330
1F
100
AcDbEntity
  8
1
370
    13
100
AcDbCircle
 10
48.777568
 20
9.571998999999999
 30
0.0
 40
2.0
100
AcDbArc
 50
234.810384
 51
263.675237
  0
ARC
  5
28A
330
1F
100
AcDbEntity
  8
1
370
    13
100
AcDbCircle
 10
51.90125
 20
12.244146
 30
0.0
 40
5.0
100
AcDbArc
 50
263.675237
 51
266.125446
  0
ARC
  5
28B
330
1F
100
AcDbEntity
  8
1
370
    13
100
AcDbCircle
 10
51.90125
 20
-12.244146
 30
0.0
 40
5.0
100
AcDbArc
 50
94.478287
 51
96.324763
  0
ARC
  5
28C
330
1F
100
AcDbEntity
  8
NOCUT
370
    18
100
AcDbCircle
 10
48.777568
 20
-9.571998999999999
 30
0.0
 40
2.0
100
AcDbArc
 50
96.324763
 51
125.189616
  0
ARC
  5
28D
330
1F
100
AcDbEntity
  8
NOCUT
370
    18
100
AcDbCircle
 10
58.764053
 20
-8.844146
 30
0.0
 40
1.6
100
AcDbArc
 50
69.443955
 51
90.0
  0
ARC
  5
28E
330
1F
100
AcDbEntity
  8
NOCUT
370
    18
100
AcDbCircle
 10
65.812854
 20
-7.037571
 30
0.0
 40
0.4
100
AcDbArc
 50
271.557389
 51
0.302048
  0
ARC
  5
28F
330
1F
100
AcDbEntity
  8
NOCUT
370
    18
100
AcDbCircle
 10
63.957787
 20
3.272599
 30
0.0
 40
2.0
100
AcDbArc
 50
340.0
 51
0.0
  0
ARC
  5
290
330
1F
100
AcDbEntity
  8
NOCUT
370
    18
100
AcDbCircle
 10
60.144324
 20
5.944145999999999
 30
0.0
 40
1.6
100
AcDbArc
 50
90.0
 51
110.556045
  0
ARC
  5
291
330
1F
100
AcDbEntity
  8
NOCUT
370
    18
100
AcDbCircle
 10
67.357787
 20
0.9188049999999998
 30
0.0
 40
2.0
100
AcDbArc
 50
160.0
 51
180.0
  0
ARC
  5
292
330
1F
100
AcDbEntity
  8
NOCUT
370
    18
100
AcDbCircle
 10
51.90125
 20
-12.244146
 30
0.0
 40
5.0
100
AcDbArc
 50
90.0
 51
96.324763
  0
ARC
  5
293
330
1F
100
AcDbEntity
  8
NOCUT
370
    18
100
AcDbCircle
 10
67.95778699999999
 20
4.774455
 30
0.0
 40
2.0
100
AcDbArc
 50
171.678685
 51
180.0
  0
ARC
  5
294
330
1F
100
AcDbEntity
  8
NOCUT
370
    18
100
AcDbCircle
 10
48.777568
 20
9.571998999999999
 30
0.0
 40
2.0
100
AcDbArc
 50
234.810384
 51
263.675237
  0
ARC
  5
295
330
1F
100
AcDbEntity
  8
NOCUT
370
    18
100
AcDbCircle
 10
58.764053
 20
8.844146
 30
0.0
 40
1.6
100
AcDbArc
 50
270.0
 51
290.556045
  0
ARC
  5
296
330
1F
100
AcDbEntity
  8
NOCUT
370
    18
100
AcDbCircle
 10
65.21119899999999
 20
6.725255999999999
 30
0.0
 40
1.0
100
AcDbArc
 50
351.678685
 51
359.697952
  0
ARC
  5
297
330
1F
100
AcDbEntity
  8
NOCUT
370
    18
100
AcDbCircle
 10
63.957787
 20
-3.272599
 30
0.0
 40
2.0
100
AcDbArc
 50
0.0
 51
20.0
  0
ARC
  5
298
330
1F
100
AcDbEntity
  8
NOCUT
370
    18
100
AcDbCircle
 10
60.144324
 20
-5.944145999999999
 30
0.0
 40
1.6
100
AcDbArc
 50
249.443955
 51
270.0
  0
ARC
  5
299
330
1F
100
AcDbEntity
  8
NOCUT
370
    18
100
AcDbCircle
 10
65.812854
 20
7.037571
 30
0.0
 40
0.4
100
AcDbArc
 50
359.697952
 51
88.442611
  0
ARC
  5
29A
330
1F
100
AcDbEntity
  8
NOCUT
370
    18
100
AcDbCircle
 10
67.357787
 20
-0.9188049999999998
 30
0.0
 40
2.0
100
AcDbArc
 50
180.0
 51
200.0
  0
ARC
  5
29B
330
1F
100
AcDbEntity
  8
NOCUT
370
    18
100
AcDbCircle
 10
65.21119899999999
 20
-6.725255999999999
 30
0.0
 40
1.0
100
AcDbArc
 50
0.302048
 51
8.321315
  0
ARC
  5
29C
330
1F
100
AcDbEntity
  8
NOCUT
370
    18
100
AcDbCircle
 10
51.90125
 20
12.244146
 30
0.0
 40
5.0
100
AcDbArc
 50
263.675237
 51
270.0
  0
ARC
  5
29D
330
1F
100
AcDbEntity
  8
NOCUT
370
    18
100
AcDbCircle
 10
67.95778699999999
 20
-4.774455
 30
0.0
 40
2.0
100
AcDbArc
 50
180.0
 51
188.321315
  0
MTEXT
  5
29E
330
1F
100
AcDbEntity
  8
SK6
370
    13
100
AcDbMText
 10
-43.2425
 20
57.309904
 30
0.0
 40
2.5
 41
0.0
 71
     7
 72
     5
  1
\fArial|b0|i0;\W1.0000;062A4R075C062-ISAD07D-C
  7
Arial
 73
     2
 44
1.047437
1001
ACAD
1000
MTEXTBEGIN
1070
    73
1070
     2
1070
    44
1040
1.047437
1070
    74
1070
     0
1000
MTEXTEND
  0
DIMENSION
  5
2A1
102
{ACAD_XDICTIONARY
360
2A2
102
}
102
{ACAD_REACTORS
330
2A3
102
}
330
1F
100
AcDbEntity
  8
SK2
370
    13
100
AcDbDimension
  2
_U0
 10
-56.332196
 20
-7.9375
 30
0.0
 11
-56.332196
 21
0.0
 31
0.0
 70
   160
 42
15.875
 52
90.0
  3
Standard
100
AcDbAlignedDimension
 13
47.625
 23
7.9375
 33
0.0
 14
-42.875
 24
-7.9375
 34
0.0
 50
-90.0
100
AcDbRotatedDimension
1001
ACAD
1000
DSTYLE
1002
{
1070
   371
1070
    13
1070
   372
1070
    13
1070
     3
1000
%%c<>
1070
   170
1070
     0
1070
   144
1040
1.0
1070
   277
1070
     2
1070
   284
1070
     8
1070
   278
1070
    44
1070
   146
1040
1.0
1070
   345
1005
16
1070
   347
1005
16
1070
   346
1005
16
1070
   344
1005
0
1070
   343
1005
0
1070
   172
1070
     1
1070
    76
1070
     0
1070
    75
1070
     0
1070
   282
1070
     0
1070
   281
1070
     0
1070
    71
1070
     0
1070
    74
1070
     0
1070
   279
1070
     0
1070
   173
1070
     1
1070
   340
1005
29F
1070
   271
1070
     1
1070
   272
1070
     2
1070
    77
1070
     1
1070
    73
1070
     0
1070
   171
1070
     3
1070
   274
1070
     4
1070
   177
1070
    95
1070
   176
1070
    95
1070
   178
1070
    95
1070
    78
1070
     8
1070
    48
1040
-0.1
1070
    41
1040
2.5
1070
   147
1040
1.25
1070
    42
1040
1.0
1070
    44
1040
2.0
1070
   140
1040
2.5
1002
}
1001
ACAD_DSTYLE_DIM_LINETYPE
1070
   380
1005
16
1001
ACAD_DSTYLE_DIM_EXT1_LINETYPE
1070
   381
1005
16
1001
ACAD_DSTYLE_DIM_EXT2_LINETYPE
1070
   382
1005
16
  0
DIMENSION
  5
2BB
102
{ACAD_XDICTIONARY
360
2BC
102
}
102
{ACAD_REACTORS
330
2BD
102
}
330
1F
100
AcDbEntity
  8
2
370
    13
100
AcDbDimension
  2
_U1
 10
66.625
 20
13.432384
 30
0.0
 11
77.80252400000001
 21
13.432384
 31
0.0
 70
   160
 42
5.014095364066349
 52
90.0
  3
Standard
100
AcDbAlignedDimension
 13
61.61090463593365
 23
7.798642130297224
 33
0.0
 14
66.625
 24
8.9375
 34
0.0
100
AcDbRotatedDimension
1001
ACAD
1000
DSTYLE
1002
{
1070
   371
1070
    13
1070
   372
1070
    13
1070
   170
1070
     0
1070
   144
1040
1.0
1070
   277
1070
     2
1070
   284
1070
     8
1070
   278
1070
    44
1070
   146
1040
1.0
1070
   345
1005
16
1070
   347
1005
16
1070
   346
1005
16
1070
   344
1005
0
1070
   343
1005
0
1070
   172
1070
     1
1070
    76
1070
     0
1070
    75
1070
     0
1070
   282
1070
     0
1070
   281
1070
     0
1070
    71
1070
     0
1070
    74
1070
     0
1070
   279
1070
     0
1070
   173
1070
     1
1070
   340
1005
29F
1070
   271
1070
     1
1070
   272
1070
     2
1070
    77
1070
     1
1070
    73
1070
     1
1070
   171
1070
     3
1070
   274
1070
     4
1070
   177
1070
   254
1070
   176
1070
   254
1070
   178
1070
   254
1070
    78
1070
     8
1070
    48
1040
-0.1
1070
    41
1040
2.5
1070
   147
1040
1.25
1070
    42
1040
1.0
1070
    44
1040
2.0
1070
   140
1040
2.5
1002
}
1001
ACAD_DSTYLE_DIM_LINETYPE
1070
   380
1005
16
1001
ACAD_DSTYLE_DIM_EXT1_LINETYPE
1070
   381
1005
16
1001
ACAD_DSTYLE_DIM_EXT2_LINETYPE
1070
   382
1005
16
  0
DIMENSION
  5
2D5
102
{ACAD_XDICTIONARY
360
2D6
102
}
102
{ACAD_REACTORS
330
2D7
102
}
330
1F
100
AcDbEntity
  8
2
370
    13
100
AcDbDimension
  2
_U2
 10
77.667804
 20
-7.9375
 30
0.0
 11
77.667804
 21
-23.415014
 31
0.0
 70
   160
 42
15.875
 52
90.0
  3
Standard
100
AcDbAlignedDimension
 13
65.625
 23
7.9375
 33
0.0
 14
66.625
 24
-7.9375
 34
0.0
 50
-90.0
100
AcDbRotatedDimension
1001
ACAD
1000
DSTYLE
1002
{
1070
   371
1070
    13
1070
   372
1070
    13
1070
     3
1000
%%c<>
1070
   170
1070
     0
1070
   144
1040
1.0
1070
   277
1070
     2
1070
   284
1070
     8
1070
   278
1070
    44
1070
   146
1040
1.0
1070
   345
1005
16
1070
   347
1005
16
1070
   346
1005
16
1070
   344
1005
0
1070
   343
1005
0
1070
   172
1070
     1
1070
    76
1070
     1
1070
   281
1070
     0
1070
    71
1070
     0
1070
    74
1070
     0
1070
   279
1070
     0
1070
   173
1070
     1
1070
   340
1005
29F
1070
   271
1070
     2
1070
   272
1070
     2
1070
    77
1070
     1
1070
    73
1070
     0
1070
   171
1070
     3
1070
   274
1070
     4
1070
   282
1070
     1
1070
   177
1070
   254
1070
   176
1070
   254
1070
   178
1070
   254
1070
    78
1070
     8
1070
    48
1040
-0.1
1070
    41
1040
2.5
1070
   147
1040
1.25
1070
    42
1040
1.0
1070
    44
1040
2.0
1070
   140
1040
2.5
1002
}
1001
ACAD_DSTYLE_DIM_LINETYPE
1070
   380
1005
16
1001
ACAD_DSTYLE_DIM_EXT1_LINETYPE
1070
   381
1005
16
1001
ACAD_DSTYLE_DIM_EXT2_LINETYPE
1070
   382
1005
16
  0
DIMENSION
  5
2EC
102
{ACAD_XDICTIONARY
360
2ED
102
}
102
{ACAD_REACTORS
330
2EE
102
}
330
1F
100
AcDbEntity
  8
2
370
    13
100
AcDbDimension
  2
_U3
 10
66.625
 20
29.432384
 30
0.0
 11
57.125
 21
29.432384
 31
0.0
 70
   160
 42
19.0
 52
90.0
  3
Standard
100
AcDbAlignedDimension
 13
47.625
 23
7.9375
 33
0.0
 14
66.625
 24
8.9375
 34
0.0
100
AcDbRotatedDimension
1001
ACAD
1000
DSTYLE
1002
{
1070
   371
1070
    13
1070
   372
1070
    13
1070
   170
1070
     0
1070
   144
1040
1.0
1070
   277
1070
     2
1070
   284
1070
     8
1070
   278
1070
    44
1070
   146
1040
1.0
1070
   345
1005
16
1070
   347
1005
16
1070
   346
1005
16
1070
   344
1005
0
1070
   343
1005
0
1070
   172
1070
     1
1070
    76
1070
     0
1070
    75
1070
     0
1070
   282
1070
     0
1070
   281
1070
     0
1070
    71
1070
     0
1070
    74
1070
     0
1070
   279
1070
     0
1070
   173
1070
     1
1070
   340
1005
29F
1070
   271
1070
     1
1070
   272
1070
     2
1070
    77
1070
     1
1070
    73
1070
     1
1070
   171
1070
     3
1070
   274
1070
     4
1070
   177
1070
   254
1070
   176
1070
   254
1070
   178
1070
   254
1070
    78
1070
     8
1070
    48
1040
-0.1
1070
    41
1040
2.5
1070
   147
1040
1.25
1070
    42
1040
1.0
1070
    44
1040
2.0
1070
   140
1040
2.5
1002
}
1001
ACAD_DSTYLE_DIM_LINETYPE
1070
   380
1005
16
1001
ACAD_DSTYLE_DIM_EXT1_LINETYPE
1070
   381
1005
16
1001
ACAD_DSTYLE_DIM_EXT2_LINETYPE
1070
   382
1005
16
  0
DIMENSION
  5
304
102
{ACAD_XDICTIONARY
360
305
102
}
102
{ACAD_REACTORS
330
306
102
}
330
1F
100
AcDbEntity
  8
SK2
370
    13
100
AcDbDimension
  2
_U4
 10
66.625
 20
37.43238400000001
 30
0.0
 11
33.3125
 21
37.43238400000001
 31
0.0
 70
   160
 42
66.625
 52
90.0
  3
Standard
100
AcDbAlignedDimension
 13
0.0
 23
1.0
 33
0.0
 14
66.625
 24
8.9375
 34
0.0
100
AcDbRotatedDimension
1001
ACAD
1000
DSTYLE
1002
{
1070
   371
1070
    13
1070
   372
1070
    13
1070
   170
1070
     0
1070
   144
1040
1.0
1070
   277
1070
     2
1070
   284
1070
     8
1070
   278
1070
    44
1070
   146
1040
1.0
1070
   345
1005
16
1070
   347
1005
16
1070
   346
1005
16
1070
   344
1005
0
1070
   343
1005
0
1070
   172
1070
     1
1070
    76
1070
     0
1070
    75
1070
     0
1070
   282
1070
     0
1070
   281
1070
     0
1070
    71
1070
     0
1070
    74
1070
     0
1070
   279
1070
     0
1070
   173
1070
     1
1070
   340
1005
29F
1070
   271
1070
     1
1070
   272
1070
     2
1070
    77
1070
     1
1070
    73
1070
     1
1070
   171
1070
     3
1070
   274
1070
     4
1070
   177
1070
    95
1070
   176
1070
    95
1070
   178
1070
    95
1070
    78
1070
     8
1070
    48
1040
-0.1
1070
    41
1040
2.5
1070
   147
1040
1.25
1070
    42
1040
1.0
1070
    44
1040
2.0
1070
   140
1040
2.5
1002
}
1001
ACAD_DSTYLE_DIM_LINETYPE
1070
   380
1005
16
1001
ACAD_DSTYLE_DIM_EXT1_LINETYPE
1070
   381
1005
16
1001
ACAD_DSTYLE_DIM_EXT2_LINETYPE
1070
   382
1005
16
  0
DIMENSION
  5
31C
102
{ACAD_XDICTIONARY
360
31D
102
}
102
{ACAD_REACTORS
330
31E
102
}
330
1F
100
AcDbEntity
  8
SK2
370
    13
100
AcDbDimension
  2
_U5
 10
66.625
 20
45.432384
 30
0.0
 11
11.625
 21
45.432384
 31
0.0
 70
   160
 42
110.0
 52
90.0
  3
Standard
100
AcDbAlignedDimension
 13
-43.375
 23
7.4375
 33
0.0
 14
66.625
 24
8.9375
 34
0.0
100
AcDbRotatedDimension
1001
ACAD
1000
DSTYLE
1002
{
1070
   371
1070
    13
1070
   372
1070
    13
1070
   170
1070
     0
1070
   144
1040
1.0
1070
   277
1070
     2
1070
   284
1070
     8
1070
   278
1070
    44
1070
   146
1040
1.0
1070
   345
1005
16
1070
   347
1005
16
1070
   346
1005
16
1070
   344
1005
0
1070
   343
1005
0
1070
   172
1070
     1
1070
    76
1070
     0
1070
    75
1070
     0
1070
   282
1070
     0
1070
   281
1070
     0
1070
    71
1070
     0
1070
    74
1070
     0
1070
   279
1070
     0
1070
   173
1070
     1
1070
   340
1005
29F
1070
   271
1070
     1
1070
   272
1070
     2
1070
    77
1070
     1
1070
    73
1070
     1
1070
   171
1070
     3
1070
   274
1070
     4
1070
   177
1070
    95
1070
   176
1070
    95
1070
   178
1070
    95
1070
    78
1070
     8
1070
    48
1040
-0.1
1070
    41
1040
2.5
1070
   147
1040
1.25
1070
    42
1040
1.0
1070
    44
1040
2.0
1070
   140
1040
2.5
1002
}
1001
ACAD_DSTYLE_DIM_LINETYPE
1070
   380
1005
16
1001
ACAD_DSTYLE_DIM_EXT1_LINETYPE
1070
   381
1005
16
1001
ACAD_DSTYLE_DIM_EXT2_LINETYPE
1070
   382
1005
16
  0
ENDSEC
  0
SECTION
  2
OBJECTS
  0
DICTIONARY
  5
C
330
0
100
AcDbDictionary
281
     1
  3
ACAD_CIP_PREVIOUS_PRODUCT_INFO
350
62E
  3
ACAD_COLOR
350
627
  3
ACAD_DETAILVIEWSTYLE
350
393
  3
ACAD_GROUP
350
D
  3
ACAD_LAYOUT
350
1A
  3
ACAD_MATERIAL
350
43
  3
ACAD_MLEADERSTYLE
350
6B
  3
ACAD_MLINESTYLE
350
17
  3
ACAD_PLOTSETTINGS
350
19
  3
ACAD_PLOTSTYLENAME
350
E
  3
ACAD_SCALELIST
350
47
  3
ACAD_SECTIONVIEWSTYLE
350
394
  3
ACAD_TABLESTYLE
350
69
  3
ACAD_VISUALSTYLE
350
2A
  3
ACDB_RECOMPOSE_DATA
350
643
  3
AcDbVariableDictionary
350
350
  3
DWGPROPS
350
644
  0
DICTIONARY
  5
2A2
330
2A1
100
AcDbDictionary
280
     1
281
     1
  3
ACAD_DIMASSOC
360
2A3
  0
DICTIONARY
  5
2BC
330
2BB
100
AcDbDictionary
280
     1
281
     1
  3
ACAD_DIMASSOC
360
2BD
  0
DICTIONARY
  5
2D6
330
2D5
100
AcDbDictionary
280
     1
281
     1
  3
ACAD_DIMASSOC
360
2D7
  0
DICTIONARY
  5
2ED
330
2EC
100
AcDbDictionary
280
     1
281
     1
  3
ACAD_DIMASSOC
360
2EE
  0
DICTIONARY
  5
305
330
304
100
AcDbDictionary
280
     1
281
     1
  3
ACAD_DIMASSOC
360
306
  0
DICTIONARY
  5
31D
330
31C
100
AcDbDictionary
280
     1
281
     1
  3
ACAD_DIMASSOC
360
31E
  0
XRECORD
  5
62E
102
{ACAD_REACTORS
330
C
102
}
330
C
100
AcDbXrecord
280
     1
300
ACD
300
2019
300

  0
DICTIONARY
  5
627
102
{ACAD_REACTORS
330
C
102
}
330
C
100
AcDbDictionary
281
     1
  0
DICTIONARY
  5
393
102
{ACAD_REACTORS
330
C
102
}
330
C
100
AcDbDictionary
281
     1
  3
Metric50
350
629
  0
DICTIONARY
  5
D
102
{ACAD_REACTORS
330
C
102
}
330
C
100
AcDbDictionary
281
     1
  0
DICTIONARY
  5
1A
102
{ACAD_REACTORS
330
C
102
}
330
C
100
AcDbDictionary
281
     1
  3
Layout1
350
1E
  3
Layout2
350
26
  3
Model
350
22
  0
DICTIONARY
  5
43
102
{ACAD_REACTORS
330
C
102
}
330
C
100
AcDbDictionary
281
     1
  3
ByBlock
350
45
  3
ByLayer
350
44
  3
Global
350
46
  0
DICTIONARY
  5
6B
102
{ACAD_REACTORS
330
C
102
}
330
C
100
AcDbDictionary
281
     1
  3
Standard
350
6C
  0
DICTIONARY
  5
17
102
{ACAD_REACTORS
330
C
102
}
330
C
100
AcDbDictionary
281
     1
  3
Standard
350
18
  0
DICTIONARY
  5
19
102
{ACAD_REACTORS
330
C
102
}
330
C
100
AcDbDictionary
281
     1
  0
ACDBDICTIONARYWDFLT
  5
E
102
{ACAD_REACTORS
330
C
102
}
330
C
100
AcDbDictionary
281
     1
  3
Normal
350
F
100
AcDbDictionaryWithDefault
340
F
  0
DICTIONARY
  5
47
102
{ACAD_REACTORS
330
C
102
}
330
C
100
AcDbDictionary
281
     1
  3
A0
350
48
  3
A1
350
49
  3
A2
350
4A
  3
A3
350
4B
  3
A4
350
4C
  3
A5
350
4D
  3
A6
350
4E
  3
A7
350
4F
  3
A8
350
50
  3
A9
350
51
  3
B0
350
52
  3
B1
350
53
  3
B2
350
54
  3
B3
350
55
  3
B4
350
56
  3
B5
350
57
  3
B6
350
58
  3
B7
350
59
  3
B8
350
5A
  3
B9
350
5B
  3
C0
350
5C
  3
C1
350
5D
  3
C2
350
5E
  3
C3
350
5F
  3
C4
350
60
  3
C5
350
61
  3
C6
350
62
  3
C7
350
63
  3
C8
350
64
  3
C9
350
65
  3
D0
350
66
  3
D1
350
67
  3
D2
350
68
  0
DICTIONARY
  5
394
102
{ACAD_REACTORS
330
C
102
}
330
C
100
AcDbDictionary
281
     1
  3
Metric50
350
628
  0
DICTIONARY
  5
69
102
{ACAD_REACTORS
330
C
102
}
330
C
100
AcDbDictionary
281
     1
  3
Standard
350
6A
  0
DICTIONARY
  5
2A
102
{ACAD_REACTORS
330
C
102
}
330
C
100
AcDbDictionary
281
     1
  3
2dWireframe
350
2F
  3
Basic
350
32
  3
Brighten
350
36
  3
ColorChange
350
3A
  3
Conceptual
350
34
  3
Dim
350
35
  3
EdgeColorOff
350
3D
  3
Facepattern
350
39
  3
Flat
350
2B
  3
FlatWithEdges
350
2C
  3
Gouraud
350
2D
  3
GouraudWithEdges
350
2E
  3
Hidden
350
31
  3
JitterOff
350
3B
  3
Linepattern
350
38
  3
OverhangOff
350
3C
  3
Realistic
350
33
  3
Shaded
350
42
  3
Shaded with edges
350
41
  3
Shades of Gray
350
3E
  3
Sketchy
350
3F
  3
Thicken
350
37
  3
Wireframe
350
30
  3
X-Ray
350
40
  0
XRECORD
  5
643
102
{ACAD_REACTORS
330
C
102
}
330
C
100
AcDbXrecord
280
     1
 90
        1
330
6A
  0
DICTIONARY
  5
350
102
{ACAD_REACTORS
330
C
102
}
330
C
100
AcDbDictionary
281
     1
  3
CANNOSCALE
350
351
  3
CMLEADERSTYLE
350
392
  3
CTABLESTYLE
350
391
  3
CVIEWDETAILSTYLE
350
63A
  3
CVIEWSECTIONSTYLE
350
63B
  3
DIMASSOC
350
63F
  3
HIDETEXT
350
63E
  3
INDEXCTL
350
63D
  3
MSLTSCALE
350
352
  3
SORTENTS
350
63C
  3
XCLIPFRAME
350
640
  0
XRECORD
  5
644
102
{ACAD_REACTORS
330
C
102
}
330
C
100
AcDbXrecord
280
     1
  1
DWGPROPS COOKIE
  2

  3

  4

  6

  7

  8
fo3459
  9

300
=
301
=
302
=
303
=
304
=
305
=
306
=
307
=
308
=
309
=
 40
0.0005555671296296
 41
2459023.654907408
 42
2459023.656423611
  1

 90
        0
  0
DIMASSOC
  5
2A3
102
{ACAD_REACTORS
330
2A2
102
}
330
2A2
100
AcDbDimAssoc
330
2A1
 90
        3
 70
     0
 71
     1
  1
AcDbOsnapPointRef
 72
    13
331
1A0
 73
     2
 91
        1
 40
0.0
 10
47.625
 20
7.9375
 30
0.0
 75
     0
  1
AcDbOsnapPointRef
 72
    13
331
19F
 73
     2
 91
        2
 40
0.0
 10
-42.875
 20
-7.9375
 30
0.0
 75
     0
  0
DIMASSOC
  5
2BD
102
{ACAD_REACTORS
330
2BC
102
}
330
2BC
100
AcDbDimAssoc
330
2BB
 90
        2
 70
     0
 71
     1
  1
AcDbOsnapPointRef
 72
     1
331
1B5
 73
     2
 91
        2
 40
1.0
 10
66.625
 20
8.9375
 30
0.0
 75
     0
  0
DIMASSOC
  5
2D7
102
{ACAD_REACTORS
330
2D6
102
}
330
2D6
100
AcDbDimAssoc
330
2D5
 90
        3
 70
     0
 71
     1
  1
AcDbOsnapPointRef
 72
    13
331
1B2
 73
     2
 91
        1
 40
0.0
 10
65.625
 20
7.9375
 30
0.0
 75
     0
  1
AcDbOsnapPointRef
 72
     4
331
73
 73
     3
 91
        2
 40
0.0
 10
66.625
 20
-7.9375
 30
0.0
 75
     0
  0
DIMASSOC
  5
2EE
102
{ACAD_REACTORS
330
2ED
102
}
330
2ED
100
AcDbDimAssoc
330
2EC
 90
        3
 70
     0
 71
     1
  1
AcDbOsnapPointRef
 72
    13
331
1EB
 73
     2
 91
        1
 40
0.0
 10
47.625
 20
7.9375
 30
0.0
 75
     0
  1
AcDbOsnapPointRef
 72
     1
331
1B5
 73
     2
 91
        2
 40
1.0
 10
66.625
 20
8.9375
 30
0.0
 75
     0
  0
DIMASSOC
  5
306
102
{ACAD_REACTORS
330
305
102
}
330
305
100
AcDbDimAssoc
330
304
 90
        3
 70
     0
 71
     1
  1
AcDbOsnapPointRef
 72
     1
331
1B0
 73
     2
 91
        1
 40
1.0
 10
0.0
 20
1.0
 30
0.0
 75
     0
  1
AcDbOsnapPointRef
 72
     1
331
1B5
 73
     2
 91
        2
 40
1.0
 10
66.625
 20
8.9375
 30
0.0
 75
     0
  0
DIMASSOC
  5
31E
102
{ACAD_REACTORS
330
31D
102
}
330
31D
100
AcDbDimAssoc
330
31C
 90
        3
 70
     0
 71
     1
  1
AcDbOsnapPointRef
 72
     1
331
1DD
 73
     2
 91
        1
 40
1.0
 10
-43.375
 20
7.4375
 30
0.0
 75
     0
  1
AcDbOsnapPointRef
 72
     1
331
1B5
 73
     2
 91
        2
 40
1.0
 10
66.625
 20
8.9375
 30
0.0
 75
     0
  0
ACDBDETAILVIEWSTYLE
  5
629
102
{ACAD_XDICTIONARY
360
67E
102
}
102
{ACAD_REACTORS
330
393
102
}
330
393
100
AcDbModelDocViewStyle
 70
     0
  3
Metric50
290
     0
100
AcDbDetailViewStyle
 70
     0
 71
     0
 90
        3
 71
     1
340
11
 40
5.0
340
0
 40
5.0
300

 40
0.0
280
     1
 71
     2
340
16
 90
       25
 71
     3
340
11
 40
5.0
 90
        0
 40
15.0
 90
        1
300
%<\AcVar ViewDetailId>% (%<\AcVar ViewScale \f "%sn">%)
 71
     4
340
16
 90
       25
340
16
 90
       25
280
     0
  0
LAYOUT
  5
1E
102
{ACAD_XDICTIONARY
360
645
102
}
102
{ACAD_REACTORS
330
1A
102
}
330
1A
100
AcDbPlotSettings
  1

  2
none_device
  4

  6

 40
0.0
 41
0.0
 42
0.0
 43
0.0
 44
0.0
 45
0.0
 46
0.0
 47
0.0
 48
0.0
 49
0.0
140
0.0
141
0.0
142
1.0
143
1.0
 70
   688
 72
     0
 73
     0
 74
     5
  7

 75
    16
147
1.0
148
0.0
149
0.0
100
AcDbLayout
  1
Layout1
 70
     1
 71
     1
 10
-0.5
 20
-0.5
 11
5.0
 21
5.0
 12
0.0
 22
0.0
 32
0.0
 14
-0.5
 24
-0.5
 34
-0.5
 15
5.0
 25
5.0
 35
5.0
146
0.0
 13
0.0
 23
0.0
 33
0.0
 16
1.0
 26
0.0
 36
0.0
 17
0.0
 27
1.0
 37
0.0
 76
     0
330
1B
  0
LAYOUT
  5
26
102
{ACAD_XDICTIONARY
360
649
102
}
102
{ACAD_REACTORS
330
1A
102
}
330
1A
100
AcDbPlotSettings
  1

  2
none_device
  4

  6

 40
0.0
 41
0.0
 42
0.0
 43
0.0
 44
0.0
 45
0.0
 46
0.0
 47
0.0
 48
0.0
 49
0.0
140
0.0
141
0.0
142
1.0
143
1.0
 70
   688
 72
     0
 73
     0
 74
     5
  7

 75
    16
147
1.0
148
0.0
149
0.0
100
AcDbLayout
  1
Layout2
 70
     1
 71
     2
 10
0.0
 20
0.0
 11
0.0
 21
0.0
 12
0.0
 22
0.0
 32
0.0
 14
0.0
 24
0.0
 34
0.0
 15
0.0
 25
0.0
 35
0.0
146
0.0
 13
0.0
 23
0.0
 33
0.0
 16
1.0
 26
0.0
 36
0.0
 17
0.0
 27
1.0
 37
0.0
 76
     0
330
23
  0
LAYOUT
  5
22
102
{ACAD_XDICTIONARY
360
647
102
}
102
{ACAD_REACTORS
330
1A
102
}
330
1A
100
AcDbPlotSettings
  1

  2
none_device
  4
Letter_(8.50_x_11.00_Inches)
  6

 40
6.349999999999999
 41
6.349999999999999
 42
6.350005
 43
6.350005
 44
215.9
 45
279.4
 46
0.0
 47
0.0
 48
0.0
 49
0.0
140
0.0
141
0.0
142
1.0
143
1.0
 70
  1712
 72
     0
 73
     0
 74
     0
  7

 75
     0
147
1.0
148
0.0
149
0.0
100
AcDbLayout
  1
Model
 70
     1
 71
     0
 10
-0.5
 20
-0.5
 11
5.0
 21
5.0
 12
0.0
 22
0.0
 32
0.0
 14
-0.5
 24
-0.5
 34
-0.5
 15
5.0
 25
5.0
 35
5.0
146
0.0
 13
0.0
 23
0.0
 33
0.0
 16
1.0
 26
0.0
 36
0.0
 17
0.0
 27
1.0
 37
0.0
 76
     0
330
1F
331
29
  0
MATERIAL
  5
45
102
{ACAD_XDICTIONARY
360
386
102
}
102
{ACAD_REACTORS
330
43
102
}
330
43
100
AcDbMaterial
  1
ByBlock
  0
MATERIAL
  5
44
102
{ACAD_XDICTIONARY
360
384
102
}
102
{ACAD_REACTORS
330
43
102
}
330
43
100
AcDbMaterial
  1
ByLayer
  0
MATERIAL
  5
46
102
{ACAD_XDICTIONARY
360
388
102
}
102
{ACAD_REACTORS
330
43
102
}
330
43
100
AcDbMaterial
  1
Global
  0
MLEADERSTYLE
  5
6C
102
{ACAD_REACTORS
330
6B
102
}
330
6B
100
AcDbMLeaderStyle
170
     2
171
     1
172
     0
 90
        2
 40
0.0
 41
0.0
173
     1
 91
-1056964608
340
14
 92
       -2
290
     1
 42
0.09
291
     1
 43
0.36
  3
Standard
 44
0.18
300

342
11
174
     1
178
     6
175
     1
176
     0
 93
-1056964608
 45
0.18
292
     0
297
     0
 46
0.18
 94
-1056964608
 47
1.0
 49
1.0
140
1.0
293
     1
141
0.0
294
     1
177
     0
142
1.0
295
     0
296
     0
143
0.125
1001
ACAD_MLEADERVER
1070
     2
  0
MLINESTYLE
  5
18
102
{ACAD_REACTORS
330
17
102
}
330
17
100
AcDbMlineStyle
  2
STANDARD
 70
     0
  3

 62
   256
 51
90.0
 52
90.0
 71
     2
 49
0.5
 62
   256
  6
BYLAYER
 49
-0.5
 62
   256
  6
BYLAYER
  0
ACDBPLACEHOLDER
  5
F
102
{ACAD_REACTORS
330
E
102
}
330
E
  0
SCALE
  5
48
102
{ACAD_REACTORS
330
47
102
}
330
47
100
AcDbScale
 70
     0
300
1:1
140
1.0
141
1.0
290
     1
  0
SCALE
  5
49
102
{ACAD_REACTORS
330
47
102
}
330
47
100
AcDbScale
 70
     0
300
1:2
140
1.0
141
2.0
290
     0
  0
SCALE
  5
4A
102
{ACAD_REACTORS
330
47
102
}
330
47
100
AcDbScale
 70
     0
300
1:4
140
1.0
141
4.0
290
     0
  0
SCALE
  5
4B
102
{ACAD_REACTORS
330
47
102
}
330
47
100
AcDbScale
 70
     0
300
1:5
140
1.0
141
5.0
290
     0
  0
SCALE
  5
4C
102
{ACAD_REACTORS
330
47
102
}
330
47
100
AcDbScale
 70
     0
300
1:8
140
1.0
141
8.0
290
     0
  0
SCALE
  5
4D
102
{ACAD_REACTORS
330
47
102
}
330
47
100
AcDbScale
 70
     0
300
1:10
140
1.0
141
10.0
290
     0
  0
SCALE
  5
4E
102
{ACAD_REACTORS
330
47
102
}
330
47
100
AcDbScale
 70
     0
300
1:16
140
1.0
141
16.0
290
     0
  0
SCALE
  5
4F
102
{ACAD_REACTORS
330
47
102
}
330
47
100
AcDbScale
 70
     0
300
1:20
140
1.0
141
20.0
290
     0
  0
SCALE
  5
50
102
{ACAD_REACTORS
330
47
102
}
330
47
100
AcDbScale
 70
     0
300
1:30
140
1.0
141
30.0
290
     0
  0
SCALE
  5
51
102
{ACAD_REACTORS
330
47
102
}
330
47
100
AcDbScale
 70
     0
300
1:40
140
1.0
141
40.0
290
     0
  0
SCALE
  5
52
102
{ACAD_REACTORS
330
47
102
}
330
47
100
AcDbScale
 70
     0
300
1:50
140
1.0
141
50.0
290
     0
  0
SCALE
  5
53
102
{ACAD_REACTORS
330
47
102
}
330
47
100
AcDbScale
 70
     0
300
1:100
140
1.0
141
100.0
290
     0
  0
SCALE
  5
54
102
{ACAD_REACTORS
330
47
102
}
330
47
100
AcDbScale
 70
     0
300
2:1
140
2.0
141
1.0
290
     0
  0
SCALE
  5
55
102
{ACAD_REACTORS
330
47
102
}
330
47
100
AcDbScale
 70
     0
300
4:1
140
4.0
141
1.0
290
     0
  0
SCALE
  5
56
102
{ACAD_REACTORS
330
47
102
}
330
47
100
AcDbScale
 70
     0
300
8:1
140
8.0
141
1.0
290
     0
  0
SCALE
  5
57
102
{ACAD_REACTORS
330
47
102
}
330
47
100
AcDbScale
 70
     0
300
10:1
140
10.0
141
1.0
290
     0
  0
SCALE
  5
58
102
{ACAD_REACTORS
330
47
102
}
330
47
100
AcDbScale
 70
     0
300
100:1
140
100.0
141
1.0
290
     0
  0
SCALE
  5
59
102
{ACAD_REACTORS
330
47
102
}
330
47
100
AcDbScale
 70
     0
300
1/128" = 1'-0"
140
0.007812
141
12.0
290
     0
  0
SCALE
  5
5A
102
{ACAD_REACTORS
330
47
102
}
330
47
100
AcDbScale
 70
     0
300
1/64" = 1'-0"
140
0.015625
141
12.0
290
     0
  0
SCALE
  5
5B
102
{ACAD_REACTORS
330
47
102
}
330
47
100
AcDbScale
 70
     0
300
1/32" = 1'-0"
140
0.03125
141
12.0
290
     0
  0
SCALE
  5
5C
102
{ACAD_REACTORS
330
47
102
}
330
47
100
AcDbScale
 70
     0
300
1/16" = 1'-0"
140
0.0625
141
12.0
290
     0
  0
SCALE
  5
5D
102
{ACAD_REACTORS
330
47
102
}
330
47
100
AcDbScale
 70
     0
300
3/32" = 1'-0"
140
0.09375
141
12.0
290
     0
  0
SCALE
  5
5E
102
{ACAD_REACTORS
330
47
102
}
330
47
100
AcDbScale
 70
     0
300
1/8" = 1'-0"
140
0.125
141
12.0
290
     0
  0
SCALE
  5
5F
102
{ACAD_REACTORS
330
47
102
}
330
47
100
AcDbScale
 70
     0
300
3/16" = 1'-0"
140
0.1875
141
12.0
290
     0
  0
SCALE
  5
60
102
{ACAD_REACTORS
330
47
102
}
330
47
100
AcDbScale
 70
     0
300
1/4" = 1'-0"
140
0.25
141
12.0
290
     0
  0
SCALE
  5
61
102
{ACAD_REACTORS
330
47
102
}
330
47
100
AcDbScale
 70
     0
300
3/8" = 1'-0"
140
0.375
141
12.0
290
     0
  0
SCALE
  5
62
102
{ACAD_REACTORS
330
47
102
}
330
47
100
AcDbScale
 70
     0
300
1/2" = 1'-0"
140
0.5
141
12.0
290
     0
  0
SCALE
  5
63
102
{ACAD_REACTORS
330
47
102
}
330
47
100
AcDbScale
 70
     0
300
3/4" = 1'-0"
140
0.75
141
12.0
290
     0
  0
SCALE
  5
64
102
{ACAD_REACTORS
330
47
102
}
330
47
100
AcDbScale
 70
     0
300
1" = 1'-0"
140
1.0
141
12.0
290
     0
  0
SCALE
  5
65
102
{ACAD_REACTORS
330
47
102
}
330
47
100
AcDbScale
 70
     0
300
1-1/2" = 1'-0"
140
1.5
141
12.0
290
     0
  0
SCALE
  5
66
102
{ACAD_REACTORS
330
47
102
}
330
47
100
AcDbScale
 70
     0
300
3" = 1'-0"
140
3.0
141
12.0
290
     0
  0
SCALE
  5
67
102
{ACAD_REACTORS
330
47
102
}
330
47
100
AcDbScale
 70
     0
300
6" = 1'-0"
140
6.0
141
12.0
290
     0
  0
SCALE
  5
68
102
{ACAD_REACTORS
330
47
102
}
330
47
100
AcDbScale
 70
     0
300
1'-0" = 1'-0"
140
12.0
141
12.0
290
     0
  0
ACDBSECTIONVIEWSTYLE
  5
628
102
{ACAD_XDICTIONARY
360
67C
102
}
102
{ACAD_REACTORS
330
394
102
}
330
394
100
AcDbModelDocViewStyle
 70
     0
  3
Metric50
290
     0
100
AcDbSectionViewStyle
 70
     0
 71
     0
 90
      102
 71
     1
340
11
 40
5.0
340
0
340
0
 40
5.0
300
I, O, Q, S, X, Z
 40
10.0
 90
        0
 40
2.5
 90
        0
 71
     2
340
16
 90
       25
340
16
 90
       50
 40
5.0
 40
2.5
 40
5.0
 71
     3
340
11
 40
5.0
 90
        0
 40
15.0
 90
        1
300
%<\AcVar ViewSectionStartId>%-%<\AcVar ViewSectionEndId>% (%<\AcVar ViewScale \f "%sn">%)
 71
     4
300
ANSI31
 40
1.0
 90
        0
290
     0
290
     0
 90
        6
 40
0.0
 40
1.570796326794896
 40
0.2617993877991494
 40
1.308996938995747
 40
-0.2617993877991494
 40
1.832595714594046
  0
TABLESTYLE
  5
6A
102
{ACAD_XDICTIONARY
360
38A
102
}
102
{ACAD_REACTORS
330
69
102
}
330
69
100
AcDbTableStyle
  3
Standard
 70
     0
 71
     0
 40
0.06
 41
0.06
280
     0
281
     0
  7
Standard
140
0.18
170
     2
 62
     0
 63
     7
283
     0
274
    -2
284
     1
 64
     0
275
    -2
285
     1
 65
     0
276
    -2
286
     1
 66
     0
277
    -2
287
     1
 67
     0
278
    -2
288
     1
 68
     0
279
    -2
289
     1
 69
     0
  7
Standard
140
0.25
170
     5
 62
     0
 63
     7
283
     0
274
    -2
284
     1
 64
     0
275
    -2
285
     1
 65
     0
276
    -2
286
     1
 66
     0
277
    -2
287
     1
 67
     0
278
    -2
288
     1
 68
     0
279
    -2
289
     1
 69
     0
  7
Standard
140
0.18
170
     5
 62
     0
 63
     7
283
     0
274
    -2
284
     1
 64
     0
275
    -2
285
     1
 65
     0
276
    -2
286
     1
 66
     0
277
    -2
287
     1
 67
     0
278
    -2
288
     1
 68
     0
279
    -2
289
     1
 69
     0
  0
VISUALSTYLE
  5
2F
102
{ACAD_XDICTIONARY
360
653
102
}
102
{ACAD_REACTORS
330
2A
102
}
330
2A
100
AcDbVisualStyle
  2

 70
     4
 71
     0
 72
     2
 73
     0
 90
        0
 40
-0.6
 41
-30.0
 62
     5
 63
     7
 74
     1
 91
        4
 64
     7
 65
   257
 75
     1
175
     1
 42
1.0
 92
        0
 66
   257
 43
1.0
 76
     1
 77
     6
 78
     2
 67
     7
 79
     5
170
     0
171
     0
290
     0
174
     0
 93
        1
 44
0.0
173
     0
291
     0
 45
0.0
1001
ACAD
1000
AcDbSavedByObjectVersion
1070
     0
  0
VISUALSTYLE
  5
32
102
{ACAD_XDICTIONARY
360
659
102
}
102
{ACAD_REACTORS
330
2A
102
}
330
2A
100
AcDbVisualStyle
  2

 70
     7
 71
     1
 72
     0
 73
     1
 90
        0
 40
-0.6
 41
-30.0
 62
     5
 63
     7
 74
     0
 91
        4
 64
     7
 65
   257
 75
     1
175
     1
 42
1.0
 92
        8
 66
     7
 43
1.0
 76
     1
 77
     6
 78
     2
 67
     7
 79
     5
170
     0
171
     0
290
     0
174
     0
 93
        1
 44
0.0
173
     0
291
     1
 45
0.0
1001
ACAD
1000
AcDbSavedByObjectVersion
1070
     0
  0
VISUALSTYLE
  5
36
102
{ACAD_XDICTIONARY
360
661
102
}
102
{ACAD_REACTORS
330
2A
102
}
330
2A
100
AcDbVisualStyle
  2

 70
    12
 71
     2
 72
     2
 73
     0
 90
        0
 40
-0.6
 41
-30.0
 62
     5
 63
     7
 74
     1
 91
        4
 64
     7
 65
   257
 75
     1
175
     1
 42
1.0
 92
        8
 66
     7
 43
1.0
 76
     1
 77
     6
 78
     2
 67
     7
 79
     5
170
     0
171
     0
290
     0
174
     0
 93
        1
 44
50.0
173
     0
291
     1
 45
0.0
1001
ACAD
1000
AcDbSavedByObjectVersion
1070
     0
  0
VISUALSTYLE
  5
3A
102
{ACAD_XDICTIONARY
360
669
102
}
102
{ACAD_REACTORS
330
2A
102
}
330
2A
100
AcDbVisualStyle
  2

 70
    16
 71
     2
 72
     2
 73
     3
 90
        0
 40
-0.6
 41
-30.0
 62
     5
 63
     8
 74
     1
 91
        4
 64
     7
 65
   257
 75
     1
175
     1
 42
1.0
 92
        8
 66
     8
 43
1.0
 76
     1
 77
     6
 78
     2
 67
     7
 79
     5
170
     0
171
     0
290
     0
174
     0
 93
        1
 44
0.0
173
     0
291
     1
 45
0.0
1001
ACAD
1000
AcDbSavedByObjectVersion
1070
     0
  0
VISUALSTYLE
  5
34
102
{ACAD_XDICTIONARY
360
65D
102
}
102
{ACAD_REACTORS
330
2A
102
}
330
2A
100
AcDbVisualStyle
  2

 70
     9
 71
     3
 72
     2
 73
     0
 90
        0
 40
-0.6
 41
-30.0
 62
     5
 63
     7
 74
     2
 91
        2
 64
     7
 65
   257
 75
     1
175
     1
 42
179.0
 92
        8
 66
     7
 43
1.0
 76
     1
 77
     6
 78
     2
 67
     7
 79
     3
170
     0
171
     0
290
     0
174
     0
 93
        1
 44
0.0
173
     0
291
     0
 45
0.0
1001
ACAD
1000
AcDbSavedByObjectVersion
1070
     0
  0
VISUALSTYLE
  5
35
102
{ACAD_XDICTIONARY
360
65F
102
}
102
{ACAD_REACTORS
330
2A
102
}
330
2A
100
AcDbVisualStyle
  2

 70
    11
 71
     2
 72
     2
 73
     0
 90
        0
 40
-0.6
 41
-30.0
 62
     5
 63
     7
 74
     1
 91
        4
 64
     7
 65
   257
 75
     1
175
     1
 42
1.0
 92
        8
 66
     7
 43
1.0
 76
     1
 77
     6
 78
     2
 67
     7
 79
     5
170
     0
171
     0
290
     0
174
     0
 93
        1
 44
-50.0
173
     0
291
     1
 45
0.0
1001
ACAD
1000
AcDbSavedByObjectVersion
1070
     0
  0
VISUALSTYLE
  5
3D
102
{ACAD_XDICTIONARY
360
66F
102
}
102
{ACAD_REACTORS
330
2A
102
}
330
2A
100
AcDbVisualStyle
  2

 70
    22
 71
     2
 72
     2
 73
     0
 90
        0
 40
-0.6
 41
-30.0
 62
     5
 63
     7
 74
     1
 91
        4
 64
     7
 65
   257
 75
     1
175
     1
 42
1.0
 92
        8
 66
     7
 43
1.0
 76
     1
 77
     6
 78
     2
 67
     7
 79
     5
170
     0
171
     0
290
     0
174
     0
 93
        1
 44
0.0
173
     0
291
     1
 45
0.0
1001
ACAD
1000
AcDbSavedByObjectVersion
1070
     0
  0
VISUALSTYLE
  5
39
102
{ACAD_XDICTIONARY
360
667
102
}
102
{ACAD_REACTORS
330
2A
102
}
330
2A
100
AcDbVisualStyle
  2

 70
    15
 71
     2
 72
     2
 73
     0
 90
        0
 40
-0.6
 41
-30.0
 62
     5
 63
     7
 74
     1
 91
        4
 64
     7
 65
   257
 75
     1
175
     1
 42
1.0
 92
        8
 66
     7
 43
1.0
 76
     1
 77
     6
 78
     2
 67
     7
 79
     5
170
     0
171
     0
290
     0
174
     0
 93
        1
 44
0.0
173
     0
291
     1
 45
0.0
1001
ACAD
1000
AcDbSavedByObjectVersion
1070
     0
  0
VISUALSTYLE
  5
2B
102
{ACAD_XDICTIONARY
360
64B
102
}
102
{ACAD_REACTORS
330
2A
102
}
330
2A
100
AcDbVisualStyle
  2

 70
     0
 71
     2
 72
     1
 73
     1
 90
        2
 40
-0.6
 41
30.0
 62
     5
 63
     7
 74
     0
 91
        0
 64
     7
 65
   257
 75
     1
175
     1
 42
1.0
 92
        8
 66
     7
 43
1.0
 76
     1
 77
     6
 78
     2
 67
     7
 79
     5
170
     0
171
     0
290
     0
174
     0
 93
       13
 44
0.0
173
     0
291
     1
 45
0.0
1001
ACAD
1000
AcDbSavedByObjectVersion
1070
     0
  0
VISUALSTYLE
  5
2C
102
{ACAD_XDICTIONARY
360
64D
102
}
102
{ACAD_REACTORS
330
2A
102
}
330
2A
100
AcDbVisualStyle
  2

 70
     1
 71
     2
 72
     1
 73
     1
 90
        2
 40
-0.6
 41
30.0
 62
     5
 63
     7
 74
     1
 91
        0
 64
     7
 65
   257
 75
     1
175
     1
 42
1.0
 92
        0
 66
   257
 43
1.0
 76
     1
 77
     6
 78
     2
 67
     7
 79
     5
170
     0
171
     0
290
     0
174
     0
 93
       13
 44
0.0
173
     0
291
     1
 45
0.0
1001
ACAD
1000
AcDbSavedByObjectVersion
1070
     0
  0
VISUALSTYLE
  5
2D
102
{ACAD_XDICTIONARY
360
64F
102
}
102
{ACAD_REACTORS
330
2A
102
}
330
2A
100
AcDbVisualStyle
  2

 70
     2
 71
     2
 72
     2
 73
     1
 90
        2
 40
-0.6
 41
30.0
 62
     5
 63
     7
 74
     0
 91
        0
 64
     7
 65
   257
 75
     1
175
     1
 42
1.0
 92
        0
 66
     7
 43
1.0
 76
     1
 77
     6
 78
     2
 67
     7
 79
     5
170
     0
171
     0
290
     0
174
     0
 93
       13
 44
0.0
173
     0
291
     1
 45
0.0
1001
ACAD
1000
AcDbSavedByObjectVersion
1070
     0
  0
VISUALSTYLE
  5
2E
102
{ACAD_XDICTIONARY
360
651
102
}
102
{ACAD_REACTORS
330
2A
102
}
330
2A
100
AcDbVisualStyle
  2

 70
     3
 71
     2
 72
     2
 73
     1
 90
        2
 40
-0.6
 41
30.0
 62
     5
 63
     7
 74
     1
 91
        0
 64
     7
 65
   257
 75
     1
175
     1
 42
1.0
 92
        0
 66
   257
 43
1.0
 76
     1
 77
     6
 78
     2
 67
     7
 79
     5
170
     0
171
     0
290
     0
174
     0
 93
       13
 44
0.0
173
     0
291
     1
 45
0.0
1001
ACAD
1000
AcDbSavedByObjectVersion
1070
     0
  0
VISUALSTYLE
  5
31
102
{ACAD_XDICTIONARY
360
657
102
}
102
{ACAD_REACTORS
330
2A
102
}
330
2A
100
AcDbVisualStyle
  2

 70
     6
 71
     1
 72
     2
 73
     2
 90
        0
 40
-0.6
 41
-30.0
 62
     5
 63
     7
 74
     2
 91
        2
 64
     7
 65
   257
 75
     2
175
     1
 42
40.0
 92
        0
 66
   257
 43
1.0
 76
     1
 77
     6
 78
     2
 67
     7
 79
     3
170
     0
171
     0
290
     0
174
     0
 93
        1
 44
0.0
173
     0
291
     0
 45
0.0
1001
ACAD
1000
AcDbSavedByObjectVersion
1070
     0
  0
VISUALSTYLE
  5
3B
102
{ACAD_XDICTIONARY
360
66B
102
}
102
{ACAD_REACTORS
330
2A
102
}
330
2A
100
AcDbVisualStyle
  2

 70
    20
 71
     2
 72
     2
 73
     0
 90
        0
 40
-0.6
 41
-30.0
 62
     5
 63
     7
 74
     1
 91
        4
 64
     7
 65
   257
 75
     1
175
     1
 42
1.0
 92
       10
 66
     7
 43
1.0
 76
     1
 77
     6
 78
     2
 67
     7
 79
     5
170
     0
171
     0
290
     0
174
     0
 93
        1
 44
0.0
173
     0
291
     1
 45
0.0
1001
ACAD
1000
AcDbSavedByObjectVersion
1070
     0
  0
VISUALSTYLE
  5
38
102
{ACAD_XDICTIONARY
360
665
102
}
102
{ACAD_REACTORS
330
2A
102
}
330
2A
100
AcDbVisualStyle
  2

 70
    14
 71
     2
 72
     2
 73
     0
 90
        0
 40
-0.6
 41
-30.0
 62
     5
 63
     7
 74
     1
 91
        4
 64
     7
 65
   257
 75
     7
175
     7
 42
1.0
 92
        8
 66
     7
 43
1.0
 76
     1
 77
     6
 78
     2
 67
     7
 79
     5
170
     0
171
     0
290
     0
174
     0
 93
        1
 44
0.0
173
     0
291
     1
 45
0.0
1001
ACAD
1000
AcDbSavedByObjectVersion
1070
     0
  0
VISUALSTYLE
  5
3C
102
{ACAD_XDICTIONARY
360
66D
102
}
102
{ACAD_REACTORS
330
2A
102
}
330
2A
100
AcDbVisualStyle
  2

 70
    21
 71
     2
 72
     2
 73
     0
 90
        0
 40
-0.6
 41
-30.0
 62
     5
 63
     7
 74
     1
 91
        4
 64
     7
 65
   257
 75
     1
175
     1
 42
1.0
 92
        9
 66
     7
 43
1.0
 76
     1
 77
     6
 78
     2
 67
     7
 79
     5
170
     0
171
     0
290
     0
174
     0
 93
        1
 44
0.0
173
     0
291
     1
 45
0.0
1001
ACAD
1000
AcDbSavedByObjectVersion
1070
     0
  0
VISUALSTYLE
  5
33
102
{ACAD_XDICTIONARY
360
65B
102
}
102
{ACAD_REACTORS
330
2A
102
}
330
2A
100
AcDbVisualStyle
  2

 70
     8
 71
     2
 72
     3
 73
     0
 90
        2
 40
-0.6
 41
30.0
 62
     5
 63
     7
 74
     0
 91
        0
 64
     7
 65
   257
 75
     1
175
     1
 42
1.0
 92
        8
 66
   257
 43
1.0
 76
     1
 77
     6
 78
     2
 67
     7
 79
     3
170
     0
171
     0
290
     0
174
     0
 93
       13
 44
0.0
173
     0
291
     0
 45
0.0
1001
ACAD
1000
AcDbSavedByObjectVersion
1070
     0
  0
VISUALSTYLE
  5
42
102
{ACAD_XDICTIONARY
360
679
102
}
102
{ACAD_REACTORS
330
2A
102
}
330
2A
100
AcDbVisualStyle
  2

 70
    27
 71
     2
 72
     2
 73
     1
 90
        2
 40
-0.6
 41
30.0
 62
     5
 63
     7
 74
     0
 91
        4
 64
     7
 65
   257
 75
     1
175
     1
 42
1.0
 92
        8
 66
   257
 43
1.0
 76
     1
 77
     6
 78
     2
 67
     8
 79
     3
170
     0
171
     0
290
     0
174
     0
 93
        5
 44
0.0
173
     0
291
     0
 45
0.0
1001
ACAD
1000
AcDbSavedByObjectVersion
1070
     0
  0
VISUALSTYLE
  5
41
102
{ACAD_XDICTIONARY
360
677
102
}
102
{ACAD_REACTORS
330
2A
102
}
330
2A
100
AcDbVisualStyle
  2

 70
    26
 71
     2
 72
     2
 73
     1
 90
        2
 40
-0.6
 41
30.0
 62
     5
 63
     7
 74
     1
 91
       10
 64
     7
 65
   257
 75
     2
175
     1
 42
1.0
 92
        8
 66
   257
 43
1.0
 76
     1
 77
     6
 78
     2
 67
     7
 79
     3
170
     0
171
     0
290
     0
174
     0
 93
        5
 44
0.0
173
     0
291
     0
 45
0.0
1001
ACAD
1000
AcDbSavedByObjectVersion
1070
     0
  0
VISUALSTYLE
  5
3E
102
{ACAD_XDICTIONARY
360
671
102
}
102
{ACAD_REACTORS
330
2A
102
}
330
2A
100
AcDbVisualStyle
  2

 70
    23
 71
     2
 72
     2
 73
     3
 90
        0
 40
-0.6
 41
-30.0
 62
     5
 63
     7
 74
     2
 91
        2
 64
     7
 65
     7
 75
     1
175
     1
 42
40.0
 92
        8
 66
     7
 43
1.0
 76
     1
 77
     6
 78
     2
 67
     7
 79
     3
170
     0
171
     0
290
     0
174
     0
 93
        1
 44
0.0
173
     0
291
     0
 45
0.0
1001
ACAD
1000
AcDbSavedByObjectVersion
1070
     0
  0
VISUALSTYLE
  5
3F
102
{ACAD_XDICTIONARY
360
673
102
}
102
{ACAD_REACTORS
330
2A
102
}
330
2A
100
AcDbVisualStyle
  2

 70
    24
 71
     1
 72
     2
 73
     2
 90
        0
 40
-0.6
 41
-30.0
 62
     5
 63
     7
 74
     2
 91
        2
 64
     7
 65
     7
 75
     1
175
     1
 42
40.0
 92
       11
 66
     7
 43
1.0
 76
     1
 77
     6
 78
     2
 67
     7
 79
     6
170
     0
171
     0
290
     0
174
     0
 93
        1
 44
0.0
173
     0
291
     0
 45
0.0
1001
ACAD
1000
AcDbSavedByObjectVersion
1070
     0
  0
VISUALSTYLE
  5
37
102
{ACAD_XDICTIONARY
360
663
102
}
102
{ACAD_REACTORS
330
2A
102
}
330
2A
100
AcDbVisualStyle
  2

 70
    13
 71
     2
 72
     2
 73
     0
 90
        0
 40
-0.6
 41
-30.0
 62
     5
 63
     7
 74
     1
 91
        4
 64
     7
 65
   257
 75
     1
175
     1
 42
1.0
 92
       12
 66
     7
 43
1.0
 76
     1
 77
     6
 78
     2
 67
     7
 79
     5
170
     0
171
     0
290
     0
174
     0
 93
        1
 44
0.0
173
     0
291
     1
 45
0.0
1001
ACAD
1000
AcDbSavedByObjectVersion
1070
     0
  0
VISUALSTYLE
  5
30
102
{ACAD_XDICTIONARY
360
655
102
}
102
{ACAD_REACTORS
330
2A
102
}
330
2A
100
AcDbVisualStyle
  2

 70
     5
 71
     0
 72
     2
 73
     0
 90
        0
 40
-0.6
 41
-30.0
 62
     5
 63
     7
 74
     1
 91
        4
 64
     7
 65
   257
 75
     1
175
     1
 42
1.0
 92
        0
 66
   257
 43
1.0
 76
     1
 77
     6
 78
     2
 67
     7
 79
     3
170
     0
171
     0
290
     0
174
     0
 93
        1
 44
0.0
173
     0
291
     0
 45
0.0
1001
ACAD
1000
AcDbSavedByObjectVersion
1070
     0
  0
VISUALSTYLE
  5
40
102
{ACAD_XDICTIONARY
360
675
102
}
102
{ACAD_REACTORS
330
2A
102
}
330
2A
100
AcDbVisualStyle
  2

 70
    25
 71
     2
 72
     2
 73
     1
 90
        1
 40
0.5
 41
-30.0
 62
     5
 63
     7
 74
     1
 91
        0
 64
     7
 65
   257
 75
     1
175
     1
 42
1.0
 92
        8
 66
     7
 43
1.0
 76
     1
 77
     6
 78
     2
 67
     7
 79
     3
170
     0
171
     0
290
     0
174
     0
 93
       13
 44
0.0
173
     0
291
     0
 45
0.0
1001
ACAD
1000
AcDbSavedByObjectVersion
1070
     0
  0
DICTIONARYVAR
  5
351
102
{ACAD_REACTORS
330
350
102
}
330
350
100
DictionaryVariables
280
     0
  1
1:1
  0
DICTIONARYVAR
  5
392
102
{ACAD_REACTORS
330
350
102
}
330
350
100
DictionaryVariables
280
     0
  1
STANDARD
  0
DICTIONARYVAR
  5
391
102
{ACAD_REACTORS
330
350
102
}
330
350
100
DictionaryVariables
280
     0
  1
STANDARD
  0
DICTIONARYVAR
  5
63A
102
{ACAD_REACTORS
330
350
102
}
330
350
100
DictionaryVariables
280
     0
  1
Metric50
  0
DICTIONARYVAR
  5
63B
102
{ACAD_REACTORS
330
350
102
}
330
350
100
DictionaryVariables
280
     0
  1
Metric50
  0
DICTIONARYVAR
  5
63F
102
{ACAD_REACTORS
330
350
102
}
330
350
100
DictionaryVariables
280
     0
  1
2
  0
DICTIONARYVAR
  5
63E
102
{ACAD_REACTORS
330
350
102
}
330
350
100
DictionaryVariables
280
     0
  1
1
  0
DICTIONARYVAR
  5
63D
102
{ACAD_REACTORS
330
350
102
}
330
350
100
DictionaryVariables
280
     0
  1
0
  0
DICTIONARYVAR
  5
352
102
{ACAD_REACTORS
330
350
102
}
330
350
100
DictionaryVariables
280
     0
  1
1
  0
DICTIONARYVAR
  5
63C
102
{ACAD_REACTORS
330
350
102
}
330
350
100
DictionaryVariables
280
     0
  1
127
  0
DICTIONARYVAR
  5
640
102
{ACAD_REACTORS
330
350
102
}
330
350
100
DictionaryVariables
280
     0
  1
2
  0
DICTIONARY
  5
67E
330
629
100
AcDbDictionary
280
     1
281
     1
  3
ACAD_XREC_ROUNDTRIP
360
67F
  0
DICTIONARY
  5
645
330
1E
100
AcDbDictionary
280
     1
281
     1
  3
ACAD_XREC_ROUNDTRIP
360
646
  0
DICTIONARY
  5
649
330
26
100
AcDbDictionary
280
     1
281
     1
  3
ACAD_XREC_ROUNDTRIP
360
64A
  0
DICTIONARY
  5
647
330
22
100
AcDbDictionary
280
     1
281
     1
  3
ACAD_XREC_ROUNDTRIP
360
648
  0
DICTIONARY
  5
386
330
45
100
AcDbDictionary
280
     1
281
     1
  3
ACAD_XREC_ROUNDTRIP
360
387
  0
DICTIONARY
  5
384
330
44
100
AcDbDictionary
280
     1
281
     1
  3
ACAD_XREC_ROUNDTRIP
360
385
  0
DICTIONARY
  5
388
330
46
100
AcDbDictionary
280
     1
281
     1
  3
ACAD_XREC_ROUNDTRIP
360
389
  0
DICTIONARY
  5
67C
330
628
100
AcDbDictionary
280
     1
281
     1
  3
ACAD_XREC_ROUNDTRIP
360
67D
  0
DICTIONARY
  5
38A
330
6A
100
AcDbDictionary
280
     1
281
     1
  3
ACAD_ROUNDTRIP_2008_TABLESTYLE_CELLSTYLEMAP
360
642
  3
ACAD_XREC_ROUNDTRIP
360
67B
  0
DICTIONARY
  5
653
330
2F
100
AcDbDictionary
280
     1
281
     1
  3
ACAD_XREC_ROUNDTRIP
360
654
  0
DICTIONARY
  5
659
330
32
100
AcDbDictionary
280
     1
281
     1
  3
ACAD_XREC_ROUNDTRIP
360
65A
  0
DICTIONARY
  5
661
330
36
100
AcDbDictionary
280
     1
281
     1
  3
ACAD_XREC_ROUNDTRIP
360
662
  0
DICTIONARY
  5
669
330
3A
100
AcDbDictionary
280
     1
281
     1
  3
ACAD_XREC_ROUNDTRIP
360
66A
  0
DICTIONARY
  5
65D
330
34
100
AcDbDictionary
280
     1
281
     1
  3
ACAD_XREC_ROUNDTRIP
360
65E
  0
DICTIONARY
  5
65F
330
35
100
AcDbDictionary
280
     1
281
     1
  3
ACAD_XREC_ROUNDTRIP
360
660
  0
DICTIONARY
  5
66F
330
3D
100
AcDbDictionary
280
     1
281
     1
  3
ACAD_XREC_ROUNDTRIP
360
670
  0
DICTIONARY
  5
667
330
39
100
AcDbDictionary
280
     1
281
     1
  3
ACAD_XREC_ROUNDTRIP
360
668
  0
DICTIONARY
  5
64B
330
2B
100
AcDbDictionary
280
     1
281
     1
  3
ACAD_XREC_ROUNDTRIP
360
64C
  0
DICTIONARY
  5
64D
330
2C
100
AcDbDictionary
280
     1
281
     1
  3
ACAD_XREC_ROUNDTRIP
360
64E
  0
DICTIONARY
  5
64F
330
2D
100
AcDbDictionary
280
     1
281
     1
  3
ACAD_XREC_ROUNDTRIP
360
650
  0
DICTIONARY
  5
651
330
2E
100
AcDbDictionary
280
     1
281
     1
  3
ACAD_XREC_ROUNDTRIP
360
652
  0
DICTIONARY
  5
657
330
31
100
AcDbDictionary
280
     1
281
     1
  3
ACAD_XREC_ROUNDTRIP
360
658
  0
DICTIONARY
  5
66B
330
3B
100
AcDbDictionary
280
     1
281
     1
  3
ACAD_XREC_ROUNDTRIP
360
66C
  0
DICTIONARY
  5
665
330
38
100
AcDbDictionary
280
     1
281
     1
  3
ACAD_XREC_ROUNDTRIP
360
666
  0
DICTIONARY
  5
66D
330
3C
100
AcDbDictionary
280
     1
281
     1
  3
ACAD_XREC_ROUNDTRIP
360
66E
  0
DICTIONARY
  5
65B
330
33
100
AcDbDictionary
280
     1
281
     1
  3
ACAD_XREC_ROUNDTRIP
360
65C
  0
DICTIONARY
  5
679
330
42
100
AcDbDictionary
280
     1
281
     1
  3
ACAD_XREC_ROUNDTRIP
360
67A
  0
DICTIONARY
  5
677
330
41
100
AcDbDictionary
280
     1
281
     1
  3
ACAD_XREC_ROUNDTRIP
360
678
  0
DICTIONARY
  5
671
330
3E
100
AcDbDictionary
280
     1
281
     1
  3
ACAD_XREC_ROUNDTRIP
360
672
  0
DICTIONARY
  5
673
330
3F
100
AcDbDictionary
280
     1
281
     1
  3
ACAD_XREC_ROUNDTRIP
360
674
  0
DICTIONARY
  5
663
330
37
100
AcDbDictionary
280
     1
281
     1
  3
ACAD_XREC_ROUNDTRIP
360
664
  0
DICTIONARY
  5
655
330
30
100
AcDbDictionary
280
     1
281
     1
  3
ACAD_XREC_ROUNDTRIP
360
656
  0
DICTIONARY
  5
675
330
40
100
AcDbDictionary
280
     1
281
     1
  3
ACAD_XREC_ROUNDTRIP
360
676
  0
XRECORD
  5
67F
102
{ACAD_REACTORS
330
67E
102
}
330
67E
100
AcDbXrecord
280
     1
102
DISPLAYNAME
  1
Metric50
102
FLAGS
 90
        0
  0
XRECORD
  5
646
102
{ACAD_REACTORS
330
645
102
}
330
645
100
AcDbXrecord
280
     1
102
SHADEPLOT
 70
     0
102
SHADEPLOTRESLEVEL
 70
     2
102
SHADEPLOTCUSTOMDPI
 70
   300
  0
XRECORD
  5
64A
102
{ACAD_REACTORS
330
649
102
}
330
649
100
AcDbXrecord
280
     1
102
SHADEPLOT
 70
     0
102
SHADEPLOTRESLEVEL
 70
     2
102
SHADEPLOTCUSTOMDPI
 70
   300
  0
XRECORD
  5
648
102
{ACAD_REACTORS
330
647
102
}
330
647
100
AcDbXrecord
280
     1
102
SHADEPLOT
 70
     0
102
SHADEPLOTRESLEVEL
 70
     2
102
SHADEPLOTCUSTOMDPI
 70
   300
  0
XRECORD
  5
387
102
{ACAD_REACTORS
330
386
102
}
330
386
100
AcDbXrecord
280
     1
102
MATERIAL
148
0.0
149
0.0
149
0.0
 93
        0
 94
      127
282
     0
 72
     1
 77
     1
171
     1
175
     1
179
     1
273
     0
  0
XRECORD
  5
385
102
{ACAD_REACTORS
330
384
102
}
330
384
100
AcDbXrecord
280
     1
102
MATERIAL
148
0.0
149
0.0
149
0.0
 93
        0
 94
      127
282
     0
 72
     1
 77
     1
171
     1
175
     1
179
     1
273
     0
  0
XRECORD
  5
389
102
{ACAD_REACTORS
330
388
102
}
330
388
100
AcDbXrecord
280
     1
102
MATERIAL
148
0.0
149
0.0
149
0.0
 93
        0
 94
      127
282
     0
 72
     1
 77
     1
171
     1
175
     1
179
     1
273
     0
  0
XRECORD
  5
67D
102
{ACAD_REACTORS
330
67C
102
}
330
67C
100
AcDbXrecord
280
     1
102
DISPLAYNAME
  1
Metric50
102
FLAGS
 90
        0
  0
CELLSTYLEMAP
  5
642
102
{ACAD_REACTORS
330
38A
102
}
330
38A
100
AcDbCellStyleMap
 90
        3
300
CELLSTYLE
  1
TABLEFORMAT_BEGIN
 90
        5
170
     1
 91
        0
 92
    32768
 62
   257
 93
        1
300
CONTENTFORMAT
  1
CONTENTFORMAT_BEGIN
 90
        0
 91
        0
 92
        4
 93
        0
300

 40
0.0
140
1.0
 94
        5
 62
     0
340
11
144
0.25
309
CONTENTFORMAT_END
171
     1
301
MARGIN
  1
CELLMARGIN_BEGIN
 40
0.06
 40
0.06
 40
0.06
 40
0.06
 40
0.18
 40
0.18
309
CELLMARGIN_END
 94
        6
 95
        1
302
GRIDFORMAT
  1
GRIDFORMAT_BEGIN
 90
        0
 91
        1
 62
     0
 92
       -2
340
14
 93
        0
 40
0.045
309
GRIDFORMAT_END
 95
        2
302
GRIDFORMAT
  1
GRIDFORMAT_BEGIN
 90
        0
 91
        1
 62
     0
 92
       -2
340
14
 93
        0
 40
0.045
309
GRIDFORMAT_END
 95
        4
302
GRIDFORMAT
  1
GRIDFORMAT_BEGIN
 90
        0
 91
        1
 62
     0
 92
       -2
340
14
 93
        0
 40
0.045
309
GRIDFORMAT_END
 95
        8
302
GRIDFORMAT
  1
GRIDFORMAT_BEGIN
 90
        0
 91
        1
 62
     0
 92
       -2
340
14
 93
        0
 40
0.045
309
GRIDFORMAT_END
 95
       16
302
GRIDFORMAT
  1
GRIDFORMAT_BEGIN
 90
        0
 91
        1
 62
     0
 92
       -2
340
14
 93
        0
 40
0.045
309
GRIDFORMAT_END
 95
       32
302
GRIDFORMAT
  1
GRIDFORMAT_BEGIN
 90
        0
 91
        1
 62
     0
 92
       -2
340
14
 93
        0
 40
0.045
309
GRIDFORMAT_END
309
TABLEFORMAT_END
  1
CELLSTYLE_BEGIN
 90
        1
 91
        1
300
_TITLE
309
CELLSTYLE_END
300
CELLSTYLE
  1
TABLEFORMAT_BEGIN
 90
        5
170
     1
 91
        0
 92
        0
 62
   257
 93
        1
300
CONTENTFORMAT
  1
CONTENTFORMAT_BEGIN
 90
        0
 91
        0
 92
        4
 93
        0
300

 40
0.0
140
1.0
 94
        5
 62
     0
340
11
144
0.18
309
CONTENTFORMAT_END
171
     1
301
MARGIN
  1
CELLMARGIN_BEGIN
 40
0.06
 40
0.06
 40
0.06
 40
0.06
 40
0.18
 40
0.18
309
CELLMARGIN_END
 94
        6
 95
        1
302
GRIDFORMAT
  1
GRIDFORMAT_BEGIN
 90
        0
 91
        1
 62
     0
 92
       -2
340
14
 93
        0
 40
0.045
309
GRIDFORMAT_END
 95
        2
302
GRIDFORMAT
  1
GRIDFORMAT_BEGIN
 90
        0
 91
        1
 62
     0
 92
       -2
340
14
 93
        0
 40
0.045
309
GRIDFORMAT_END
 95
        4
302
GRIDFORMAT
  1
GRIDFORMAT_BEGIN
 90
        0
 91
        1
 62
     0
 92
       -2
340
14
 93
        0
 40
0.045
309
GRIDFORMAT_END
 95
        8
302
GRIDFORMAT
  1
GRIDFORMAT_BEGIN
 90
        0
 91
        1
 62
     0
 92
       -2
340
14
 93
        0
 40
0.045
309
GRIDFORMAT_END
 95
       16
302
GRIDFORMAT
  1
GRIDFORMAT_BEGIN
 90
        0
 91
        1
 62
     0
 92
       -2
340
14
 93
        0
 40
0.045
309
GRIDFORMAT_END
 95
       32
302
GRIDFORMAT
  1
GRIDFORMAT_BEGIN
 90
        0
 91
        1
 62
     0
 92
       -2
340
14
 93
        0
 40
0.045
309
GRIDFORMAT_END
309
TABLEFORMAT_END
  1
CELLSTYLE_BEGIN
 90
        2
 91
        1
300
_HEADER
309
CELLSTYLE_END
300
CELLSTYLE
  1
TABLEFORMAT_BEGIN
 90
        5
170
     1
 91
        0
 92
        0
 62
   257
 93
        1
300
CONTENTFORMAT
  1
CONTENTFORMAT_BEGIN
 90
        0
 91
        0
 92
        4
 93
        0
300

 40
0.0
140
1.0
 94
        2
 62
     0
340
11
144
0.18
309
CONTENTFORMAT_END
171
     1
301
MARGIN
  1
CELLMARGIN_BEGIN
 40
0.06
 40
0.06
 40
0.06
 40
0.06
 40
0.18
 40
0.18
309
CELLMARGIN_END
 94
        6
 95
        1
302
GRIDFORMAT
  1
GRIDFORMAT_BEGIN
 90
        0
 91
        1
 62
     0
 92
       -2
340
14
 93
        0
 40
0.045
309
GRIDFORMAT_END
 95
        2
302
GRIDFORMAT
  1
GRIDFORMAT_BEGIN
 90
        0
 91
        1
 62
     0
 92
       -2
340
14
 93
        0
 40
0.045
309
GRIDFORMAT_END
 95
        4
302
GRIDFORMAT
  1
GRIDFORMAT_BEGIN
 90
        0
 91
        1
 62
     0
 92
       -2
340
14
 93
        0
 40
0.045
309
GRIDFORMAT_END
 95
        8
302
GRIDFORMAT
  1
GRIDFORMAT_BEGIN
 90
        0
 91
        1
 62
     0
 92
       -2
340
14
 93
        0
 40
0.045
309
GRIDFORMAT_END
 95
       16
302
GRIDFORMAT
  1
GRIDFORMAT_BEGIN
 90
        0
 91
        1
 62
     0
 92
       -2
340
14
 93
        0
 40
0.045
309
GRIDFORMAT_END
 95
       32
302
GRIDFORMAT
  1
GRIDFORMAT_BEGIN
 90
        0
 91
        1
 62
     0
 92
       -2
340
14
 93
        0
 40
0.045
309
GRIDFORMAT_END
309
TABLEFORMAT_END
  1
CELLSTYLE_BEGIN
 90
        3
 91
        2
300
_DATA
309
CELLSTYLE_END
  0
XRECORD
  5
67B
102
{ACAD_REACTORS
330
38A
102
}
330
38A
100
AcDbXrecord
280
     1
102
ACAD_ROUNDTRIP_PRE2007_TABLESTYLE
 90
        4
 91
        0
  1

 92
        4
 93
        0
  2

 94
        4
 95
        0
  3

  0
XRECORD
  5
654
102
{ACAD_REACTORS
330
653
102
}
330
653
100
AcDbXrecord
280
     1
102
RTVSPost2010Prop28
280
     1
102
RTVSPost2010PropOp28
 70
     1
102
RTVSPost2010Prop29
280
     1
102
RTVSPost2010PropOp29
 70
     1
102
RTVSPost2010Prop30
280
     0
102
RTVSPost2010PropOp30
 70
     1
102
RTVSPost2010Prop31
280
     0
102
RTVSPost2010PropOp31
 70
     1
102
RTVSPost2010Prop32
280
     0
102
RTVSPost2010PropOp32
 70
     1
102
RTVSPost2010Prop33
280
     0
102
RTVSPost2010PropOp33
 70
     1
102
RTVSPost2010Prop34
280
     0
102
RTVSPost2010PropOp34
 70
     1
102
RTVSPost2010Prop35
280
     0
102
RTVSPost2010PropOp35
 70
     1
102
RTVSPost2010Prop36
280
     0
102
RTVSPost2010PropOp36
 70
     1
102
RTVSPost2010Prop37
 90
       50
102
RTVSPost2010PropOp37
 70
     1
102
RTVSPost2010Prop38
140
0.0
102
RTVSPost2010PropOp38
 70
     1
102
RTVSPost2010Prop39
140
1.0
102
RTVSPost2010PropOp39
 70
     1
102
RTVSPost2010Prop40
 90
        0
102
RTVSPost2010PropOp40
 70
     1
102
RTVSPost2010Prop41ColorIndex
 90
       18
102
RTVSPost2010Prop41ColorRGB
 90
        0
102
RTVSPost2010PropOp41
 70
     1
102
RTVSPost2010Prop42
 90
       50
102
RTVSPost2010PropOp42
 70
     1
102
RTVSPost2010Prop43
 90
        3
102
RTVSPost2010PropOp43
 70
     1
102
RTVSPost2010Prop44ColorIndex
 90
        5
102
RTVSPost2010Prop44ColorRGB
 90
      255
102
RTVSPost2010PropOp44
 70
     1
102
RTVSPost2010Prop45
280
     0
102
RTVSPost2010PropOp45
 70
     1
102
RTVSPost2010Prop46
 90
       50
102
RTVSPost2010PropOp46
 70
     1
102
RTVSPost2010Prop47
 90
       50
102
RTVSPost2010PropOp47
 70
     1
102
RTVSPost2010Prop48
 90
       50
102
RTVSPost2010PropOp48
 70
     1
102
RTVSPost2010Prop49
280
     0
102
RTVSPost2010PropOp49
 70
     1
102
RTVSPost2010Prop50
 90
       50
102
RTVSPost2010PropOp50
 70
     1
102
RTVSPost2010Prop51ColorIndex
 90
      256
102
RTVSPost2010Prop51ColorRGB
 90
-16777216
102
RTVSPost2010PropOp51
 70
     0
102
RTVSPost2010Prop52
140
1.0
102
RTVSPost2010PropOp52
 70
     0
102
RTVSPost2010Prop53
 90
        2
102
RTVSPost2010PropOp53
 70
     1
102
RTVSPost2010Prop54
  1
strokes_ogs.tif
102
RTVSPost2010PropOp54
 70
     1
102
RTVSPost2010Prop55
280
     0
102
RTVSPost2010PropOp55
 70
     1
102
RTVSPost2010Prop56
140
1.0
102
RTVSPost2010PropOp56
 70
     1
102
RTVSPost2010Prop57
140
1.0
102
RTVSPost2010PropOp57
 70
     1
102
RTVSPropertyOp0
 70
     1
102
RTVSPropertyOp1
 70
     1
102
RTVSPropertyOp2
 70
     1
102
RTVSPropertyOp3
 70
     1
102
RTVSPropertyOp4
 70
     1
102
RTVSPropertyOp5
 70
     1
102
RTVSPropertyOp6
 70
     1
102
RTVSPropertyOp7
 70
     1
102
RTVSPropertyOp8
 70
     1
102
RTVSPropertyOp9
 70
     1
102
RTVSPropertyOp10
 70
     1
102
RTVSPropertyOp11
 70
     1
102
RTVSPropertyOp12
 70
     1
102
RTVSPropertyOp13
 70
     1
102
RTVSPropertyOp14
 70
     1
102
RTVSPropertyOp15
 70
     1
102
RTVSPropertyOp16
 70
     1
102
RTVSPropertyOp17
 70
     1
102
RTVSPropertyOp18
 70
     1
102
RTVSPropertyOp19
 70
     1
102
RTVSPropertyOp20
 70
     1
102
RTVSPropertyOp21
 70
     1
102
RTVSPropertyOp22
 70
     1
102
RTVSPropertyOp23
 70
     1
102
RTVSPropertyOp24
 70
     1
102
RTVSPropertyOp25
 70
     1
102
RTVSPropertyOp26
 70
     1
102
RTVSPropertyOp27
 70
     1
102
RTVSPropertyOp28
 70
     1
102
RTVSPropertyOp29
 70
     1
102
RTVSPropertyOp30
 70
     1
102
RTVSPropertyOp31
 70
     1
102
RTVSPropertyOp32
 70
     1
102
RTVSPropertyOp33
 70
     1
102
RTVSPropertyOp34
 70
     1
102
RTVSPropertyOp35
 70
     1
102
RTVSPropertyOp36
 70
     1
102
RTVSPropertyOp37
 70
     1
102
RTVSPropertyOp38
 70
     1
102
RTVSPropertyOp39
 70
     1
102
RTVSPropertyOp40
 70
     1
102
RTVSPropertyOp41
 70
     1
102
RTVSPropertyOp42
 70
     1
102
RTVSPropertyOp43
 70
     1
102
RTVSPropertyOp44
 70
     1
102
RTVSPropertyOp45
 70
     1
102
RTVSPropertyOp46
 70
     1
102
RTVSPropertyOp47
 70
     1
102
RTVSPropertyOp48
 70
     1
102
RTVSPropertyOp49
 70
     1
102
RTVSPropertyOp50
 70
     1
102
RTVSPropertyOp51
 70
     0
102
RTVSPropertyOp52
 70
     0
102
RTVSPropertyOp53
 70
     1
102
RTVSPropertyOp54
 70
     1
102
RTVSPropertyOp55
 70
     1
102
RTVSPropertyOp56
 70
     1
102
RTVSPropertyOp57
 70
     1
102
RTVSPropertyOp58
 70
     1
102
RTVSPropertyOp59
 70
     1
102
RTVSPropertyOp60
 70
     1
102
RTVSPropertyOp61
 70
     1
102
RTVSPropertyOp62
 70
     1
  0
XRECORD
  5
65A
102
{ACAD_REACTORS
330
659
102
}
330
659
100
AcDbXrecord
280
     1
102
RTVSPost2010Prop28
280
     0
102
RTVSPost2010PropOp28
 70
     1
102
RTVSPost2010Prop29
280
     1
102
RTVSPost2010PropOp29
 70
     1
102
RTVSPost2010Prop30
280
     1
102
RTVSPost2010PropOp30
 70
     1
102
RTVSPost2010Prop31
280
     0
102
RTVSPost2010PropOp31
 70
     1
102
RTVSPost2010Prop32
280
     0
102
RTVSPost2010PropOp32
 70
     1
102
RTVSPost2010Prop33
280
     0
102
RTVSPost2010PropOp33
 70
     1
102
RTVSPost2010Prop34
280
     0
102
RTVSPost2010PropOp34
 70
     1
102
RTVSPost2010Prop35
280
     0
102
RTVSPost2010PropOp35
 70
     1
102
RTVSPost2010Prop36
280
     0
102
RTVSPost2010PropOp36
 70
     1
102
RTVSPost2010Prop37
 90
       50
102
RTVSPost2010PropOp37
 70
     1
102
RTVSPost2010Prop38
140
0.0
102
RTVSPost2010PropOp38
 70
     1
102
RTVSPost2010Prop39
140
1.0
102
RTVSPost2010PropOp39
 70
     1
102
RTVSPost2010Prop40
 90
        0
102
RTVSPost2010PropOp40
 70
     1
102
RTVSPost2010Prop41ColorIndex
 90
       18
102
RTVSPost2010Prop41ColorRGB
 90
        0
102
RTVSPost2010PropOp41
 70
     1
102
RTVSPost2010Prop42
 90
       50
102
RTVSPost2010PropOp42
 70
     1
102
RTVSPost2010Prop43
 90
        3
102
RTVSPost2010PropOp43
 70
     1
102
RTVSPost2010Prop44ColorIndex
 90
        5
102
RTVSPost2010Prop44ColorRGB
 90
      255
102
RTVSPost2010PropOp44
 70
     1
102
RTVSPost2010Prop45
280
     0
102
RTVSPost2010PropOp45
 70
     1
102
RTVSPost2010Prop46
 90
       50
102
RTVSPost2010PropOp46
 70
     1
102
RTVSPost2010Prop47
 90
       50
102
RTVSPost2010PropOp47
 70
     1
102
RTVSPost2010Prop48
 90
       50
102
RTVSPost2010PropOp48
 70
     1
102
RTVSPost2010Prop49
280
     0
102
RTVSPost2010PropOp49
 70
     1
102
RTVSPost2010Prop50
 90
       50
102
RTVSPost2010PropOp50
 70
     1
102
RTVSPost2010Prop51ColorIndex
 90
      256
102
RTVSPost2010Prop51ColorRGB
 90
-16777216
102
RTVSPost2010PropOp51
 70
     0
102
RTVSPost2010Prop52
140
1.0
102
RTVSPost2010PropOp52
 70
     0
102
RTVSPost2010Prop53
 90
        2
102
RTVSPost2010PropOp53
 70
     1
102
RTVSPost2010Prop54
  1
strokes_ogs.tif
102
RTVSPost2010PropOp54
 70
     1
102
RTVSPost2010Prop55
280
     0
102
RTVSPost2010PropOp55
 70
     1
102
RTVSPost2010Prop56
140
1.0
102
RTVSPost2010PropOp56
 70
     1
102
RTVSPost2010Prop57
140
1.0
102
RTVSPost2010PropOp57
 70
     1
102
RTVSPropertyOp0
 70
     1
102
RTVSPropertyOp1
 70
     1
102
RTVSPropertyOp2
 70
     1
102
RTVSPropertyOp3
 70
     1
102
RTVSPropertyOp4
 70
     1
102
RTVSPropertyOp5
 70
     1
102
RTVSPropertyOp6
 70
     1
102
RTVSPropertyOp7
 70
     1
102
RTVSPropertyOp8
 70
     1
102
RTVSPropertyOp9
 70
     1
102
RTVSPropertyOp10
 70
     1
102
RTVSPropertyOp11
 70
     1
102
RTVSPropertyOp12
 70
     1
102
RTVSPropertyOp13
 70
     1
102
RTVSPropertyOp14
 70
     1
102
RTVSPropertyOp15
 70
     1
102
RTVSPropertyOp16
 70
     1
102
RTVSPropertyOp17
 70
     1
102
RTVSPropertyOp18
 70
     1
102
RTVSPropertyOp19
 70
     1
102
RTVSPropertyOp20
 70
     1
102
RTVSPropertyOp21
 70
     1
102
RTVSPropertyOp22
 70
     1
102
RTVSPropertyOp23
 70
     1
102
RTVSPropertyOp24
 70
     1
102
RTVSPropertyOp25
 70
     1
102
RTVSPropertyOp26
 70
     1
102
RTVSPropertyOp27
 70
     1
102
RTVSPropertyOp28
 70
     1
102
RTVSPropertyOp29
 70
     1
102
RTVSPropertyOp30
 70
     1
102
RTVSPropertyOp31
 70
     1
102
RTVSPropertyOp32
 70
     1
102
RTVSPropertyOp33
 70
     1
102
RTVSPropertyOp34
 70
     1
102
RTVSPropertyOp35
 70
     1
102
RTVSPropertyOp36
 70
     1
102
RTVSPropertyOp37
 70
     1
102
RTVSPropertyOp38
 70
     1
102
RTVSPropertyOp39
 70
     1
102
RTVSPropertyOp40
 70
     1
102
RTVSPropertyOp41
 70
     1
102
RTVSPropertyOp42
 70
     1
102
RTVSPropertyOp43
 70
     1
102
RTVSPropertyOp44
 70
     1
102
RTVSPropertyOp45
 70
     1
102
RTVSPropertyOp46
 70
     1
102
RTVSPropertyOp47
 70
     1
102
RTVSPropertyOp48
 70
     1
102
RTVSPropertyOp49
 70
     1
102
RTVSPropertyOp50
 70
     1
102
RTVSPropertyOp51
 70
     0
102
RTVSPropertyOp52
 70
     0
102
RTVSPropertyOp53
 70
     1
102
RTVSPropertyOp54
 70
     1
102
RTVSPropertyOp55
 70
     1
102
RTVSPropertyOp56
 70
     1
102
RTVSPropertyOp57
 70
     1
102
RTVSPropertyOp58
 70
     1
102
RTVSPropertyOp59
 70
     1
102
RTVSPropertyOp60
 70
     1
102
RTVSPropertyOp61
 70
     1
102
RTVSPropertyOp62
 70
     1
  0
XRECORD
  5
662
102
{ACAD_REACTORS
330
661
102
}
330
661
100
AcDbXrecord
280
     1
102
RTVSPost2010Prop28
280
     0
102
RTVSPost2010PropOp28
 70
     1
102
RTVSPost2010Prop29
280
     1
102
RTVSPost2010PropOp29
 70
     1
102
RTVSPost2010Prop30
280
     1
102
RTVSPost2010PropOp30
 70
     1
102
RTVSPost2010Prop31
280
     0
102
RTVSPost2010PropOp31
 70
     1
102
RTVSPost2010Prop32
280
     0
102
RTVSPost2010PropOp32
 70
     1
102
RTVSPost2010Prop33
280
     0
102
RTVSPost2010PropOp33
 70
     1
102
RTVSPost2010Prop34
280
     0
102
RTVSPost2010PropOp34
 70
     1
102
RTVSPost2010Prop35
280
     0
102
RTVSPost2010PropOp35
 70
     1
102
RTVSPost2010Prop36
280
     0
102
RTVSPost2010PropOp36
 70
     1
102
RTVSPost2010Prop37
 90
       50
102
RTVSPost2010PropOp37
 70
     1
102
RTVSPost2010Prop38
140
0.0
102
RTVSPost2010PropOp38
 70
     1
102
RTVSPost2010Prop39
140
1.0
102
RTVSPost2010PropOp39
 70
     1
102
RTVSPost2010Prop40
 90
        0
102
RTVSPost2010PropOp40
 70
     1
102
RTVSPost2010Prop41ColorIndex
 90
       18
102
RTVSPost2010Prop41ColorRGB
 90
        0
102
RTVSPost2010PropOp41
 70
     1
102
RTVSPost2010Prop42
 90
       50
102
RTVSPost2010PropOp42
 70
     1
102
RTVSPost2010Prop43
 90
        3
102
RTVSPost2010PropOp43
 70
     1
102
RTVSPost2010Prop44ColorIndex
 90
        5
102
RTVSPost2010Prop44ColorRGB
 90
      255
102
RTVSPost2010PropOp44
 70
     1
102
RTVSPost2010Prop45
280
     0
102
RTVSPost2010PropOp45
 70
     1
102
RTVSPost2010Prop46
 90
       50
102
RTVSPost2010PropOp46
 70
     1
102
RTVSPost2010Prop47
 90
       50
102
RTVSPost2010PropOp47
 70
     1
102
RTVSPost2010Prop48
 90
       50
102
RTVSPost2010PropOp48
 70
     1
102
RTVSPost2010Prop49
280
     0
102
RTVSPost2010PropOp49
 70
     1
102
RTVSPost2010Prop50
 90
       50
102
RTVSPost2010PropOp50
 70
     1
102
RTVSPost2010Prop51ColorIndex
 90
      256
102
RTVSPost2010Prop51ColorRGB
 90
-16777216
102
RTVSPost2010PropOp51
 70
     0
102
RTVSPost2010Prop52
140
1.0
102
RTVSPost2010PropOp52
 70
     0
102
RTVSPost2010Prop53
 90
        2
102
RTVSPost2010PropOp53
 70
     1
102
RTVSPost2010Prop54
  1
strokes_ogs.tif
102
RTVSPost2010PropOp54
 70
     1
102
RTVSPost2010Prop55
280
     0
102
RTVSPost2010PropOp55
 70
     1
102
RTVSPost2010Prop56
140
1.0
102
RTVSPost2010PropOp56
 70
     1
102
RTVSPost2010Prop57
140
1.0
102
RTVSPost2010PropOp57
 70
     1
102
RTVSPropertyOp0
 70
     1
102
RTVSPropertyOp1
 70
     1
102
RTVSPropertyOp2
 70
     1
102
RTVSPropertyOp3
 70
     1
102
RTVSPropertyOp4
 70
     1
102
RTVSPropertyOp5
 70
     1
102
RTVSPropertyOp6
 70
     1
102
RTVSPropertyOp7
 70
     1
102
RTVSPropertyOp8
 70
     1
102
RTVSPropertyOp9
 70
     1
102
RTVSPropertyOp10
 70
     1
102
RTVSPropertyOp11
 70
     1
102
RTVSPropertyOp12
 70
     1
102
RTVSPropertyOp13
 70
     1
102
RTVSPropertyOp14
 70
     1
102
RTVSPropertyOp15
 70
     1
102
RTVSPropertyOp16
 70
     1
102
RTVSPropertyOp17
 70
     1
102
RTVSPropertyOp18
 70
     1
102
RTVSPropertyOp19
 70
     1
102
RTVSPropertyOp20
 70
     1
102
RTVSPropertyOp21
 70
     1
102
RTVSPropertyOp22
 70
     1
102
RTVSPropertyOp23
 70
     1
102
RTVSPropertyOp24
 70
     1
102
RTVSPropertyOp25
 70
     1
102
RTVSPropertyOp26
 70
     1
102
RTVSPropertyOp27
 70
     1
102
RTVSPropertyOp28
 70
     1
102
RTVSPropertyOp29
 70
     1
102
RTVSPropertyOp30
 70
     1
102
RTVSPropertyOp31
 70
     1
102
RTVSPropertyOp32
 70
     1
102
RTVSPropertyOp33
 70
     1
102
RTVSPropertyOp34
 70
     1
102
RTVSPropertyOp35
 70
     1
102
RTVSPropertyOp36
 70
     1
102
RTVSPropertyOp37
 70
     1
102
RTVSPropertyOp38
 70
     1
102
RTVSPropertyOp39
 70
     1
102
RTVSPropertyOp40
 70
     1
102
RTVSPropertyOp41
 70
     1
102
RTVSPropertyOp42
 70
     1
102
RTVSPropertyOp43
 70
     1
102
RTVSPropertyOp44
 70
     1
102
RTVSPropertyOp45
 70
     1
102
RTVSPropertyOp46
 70
     1
102
RTVSPropertyOp47
 70
     1
102
RTVSPropertyOp48
 70
     1
102
RTVSPropertyOp49
 70
     1
102
RTVSPropertyOp50
 70
     1
102
RTVSPropertyOp51
 70
     0
102
RTVSPropertyOp52
 70
     0
102
RTVSPropertyOp53
 70
     1
102
RTVSPropertyOp54
 70
     1
102
RTVSPropertyOp55
 70
     1
102
RTVSPropertyOp56
 70
     1
102
RTVSPropertyOp57
 70
     1
102
RTVSPropertyOp58
 70
     1
102
RTVSPropertyOp59
 70
     1
102
RTVSPropertyOp60
 70
     1
102
RTVSPropertyOp61
 70
     1
102
RTVSPropertyOp62
 70
     1
  0
XRECORD
  5
66A
102
{ACAD_REACTORS
330
669
102
}
330
669
100
AcDbXrecord
280
     1
102
RTVSPost2010Prop28
280
     0
102
RTVSPost2010PropOp28
 70
     1
102
RTVSPost2010Prop29
280
     1
102
RTVSPost2010PropOp29
 70
     1
102
RTVSPost2010Prop30
280
     1
102
RTVSPost2010PropOp30
 70
     1
102
RTVSPost2010Prop31
280
     0
102
RTVSPost2010PropOp31
 70
     1
102
RTVSPost2010Prop32
280
     0
102
RTVSPost2010PropOp32
 70
     1
102
RTVSPost2010Prop33
280
     0
102
RTVSPost2010PropOp33
 70
     1
102
RTVSPost2010Prop34
280
     0
102
RTVSPost2010PropOp34
 70
     1
102
RTVSPost2010Prop35
280
     0
102
RTVSPost2010PropOp35
 70
     1
102
RTVSPost2010Prop36
280
     0
102
RTVSPost2010PropOp36
 70
     1
102
RTVSPost2010Prop37
 90
       50
102
RTVSPost2010PropOp37
 70
     1
102
RTVSPost2010Prop38
140
0.0
102
RTVSPost2010PropOp38
 70
     1
102
RTVSPost2010Prop39
140
1.0
102
RTVSPost2010PropOp39
 70
     1
102
RTVSPost2010Prop40
 90
        0
102
RTVSPost2010PropOp40
 70
     1
102
RTVSPost2010Prop41ColorIndex
 90
       18
102
RTVSPost2010Prop41ColorRGB
 90
        0
102
RTVSPost2010PropOp41
 70
     1
102
RTVSPost2010Prop42
 90
       50
102
RTVSPost2010PropOp42
 70
     1
102
RTVSPost2010Prop43
 90
        3
102
RTVSPost2010PropOp43
 70
     1
102
RTVSPost2010Prop44ColorIndex
 90
        5
102
RTVSPost2010Prop44ColorRGB
 90
      255
102
RTVSPost2010PropOp44
 70
     1
102
RTVSPost2010Prop45
280
     0
102
RTVSPost2010PropOp45
 70
     1
102
RTVSPost2010Prop46
 90
       50
102
RTVSPost2010PropOp46
 70
     1
102
RTVSPost2010Prop47
 90
       50
102
RTVSPost2010PropOp47
 70
     1
102
RTVSPost2010Prop48
 90
       50
102
RTVSPost2010PropOp48
 70
     1
102
RTVSPost2010Prop49
280
     0
102
RTVSPost2010PropOp49
 70
     1
102
RTVSPost2010Prop50
 90
       50
102
RTVSPost2010PropOp50
 70
     1
102
RTVSPost2010Prop51ColorIndex
 90
      256
102
RTVSPost2010Prop51ColorRGB
 90
-16777216
102
RTVSPost2010PropOp51
 70
     0
102
RTVSPost2010Prop52
140
1.0
102
RTVSPost2010PropOp52
 70
     0
102
RTVSPost2010Prop53
 90
        2
102
RTVSPost2010PropOp53
 70
     1
102
RTVSPost2010Prop54
  1
strokes_ogs.tif
102
RTVSPost2010PropOp54
 70
     1
102
RTVSPost2010Prop55
280
     0
102
RTVSPost2010PropOp55
 70
     1
102
RTVSPost2010Prop56
140
1.0
102
RTVSPost2010PropOp56
 70
     1
102
RTVSPost2010Prop57
140
1.0
102
RTVSPost2010PropOp57
 70
     1
102
RTVSPropertyOp0
 70
     1
102
RTVSPropertyOp1
 70
     1
102
RTVSPropertyOp2
 70
     1
102
RTVSPropertyOp3
 70
     1
102
RTVSPropertyOp4
 70
     1
102
RTVSPropertyOp5
 70
     1
102
RTVSPropertyOp6
 70
     1
102
RTVSPropertyOp7
 70
     1
102
RTVSPropertyOp8
 70
     1
102
RTVSPropertyOp9
 70
     1
102
RTVSPropertyOp10
 70
     1
102
RTVSPropertyOp11
 70
     1
102
RTVSPropertyOp12
 70
     1
102
RTVSPropertyOp13
 70
     1
102
RTVSPropertyOp14
 70
     1
102
RTVSPropertyOp15
 70
     1
102
RTVSPropertyOp16
 70
     1
102
RTVSPropertyOp17
 70
     1
102
RTVSPropertyOp18
 70
     1
102
RTVSPropertyOp19
 70
     1
102
RTVSPropertyOp20
 70
     1
102
RTVSPropertyOp21
 70
     1
102
RTVSPropertyOp22
 70
     1
102
RTVSPropertyOp23
 70
     1
102
RTVSPropertyOp24
 70
     1
102
RTVSPropertyOp25
 70
     1
102
RTVSPropertyOp26
 70
     1
102
RTVSPropertyOp27
 70
     1
102
RTVSPropertyOp28
 70
     1
102
RTVSPropertyOp29
 70
     1
102
RTVSPropertyOp30
 70
     1
102
RTVSPropertyOp31
 70
     1
102
RTVSPropertyOp32
 70
     1
102
RTVSPropertyOp33
 70
     1
102
RTVSPropertyOp34
 70
     1
102
RTVSPropertyOp35
 70
     1
102
RTVSPropertyOp36
 70
     1
102
RTVSPropertyOp37
 70
     1
102
RTVSPropertyOp38
 70
     1
102
RTVSPropertyOp39
 70
     1
102
RTVSPropertyOp40
 70
     1
102
RTVSPropertyOp41
 70
     1
102
RTVSPropertyOp42
 70
     1
102
RTVSPropertyOp43
 70
     1
102
RTVSPropertyOp44
 70
     1
102
RTVSPropertyOp45
 70
     1
102
RTVSPropertyOp46
 70
     1
102
RTVSPropertyOp47
 70
     1
102
RTVSPropertyOp48
 70
     1
102
RTVSPropertyOp49
 70
     1
102
RTVSPropertyOp50
 70
     1
102
RTVSPropertyOp51
 70
     0
102
RTVSPropertyOp52
 70
     0
102
RTVSPropertyOp53
 70
     1
102
RTVSPropertyOp54
 70
     1
102
RTVSPropertyOp55
 70
     1
102
RTVSPropertyOp56
 70
     1
102
RTVSPropertyOp57
 70
     1
102
RTVSPropertyOp58
 70
     1
102
RTVSPropertyOp59
 70
     1
102
RTVSPropertyOp60
 70
     1
102
RTVSPropertyOp61
 70
     1
102
RTVSPropertyOp62
 70
     1
  0
XRECORD
  5
65E
102
{ACAD_REACTORS
330
65D
102
}
330
65D
100
AcDbXrecord
280
     1
102
RTVSPost2010Prop28
280
     0
102
RTVSPost2010PropOp28
 70
     1
102
RTVSPost2010Prop29
280
     1
102
RTVSPost2010PropOp29
 70
     1
102
RTVSPost2010Prop30
280
     1
102
RTVSPost2010PropOp30
 70
     1
102
RTVSPost2010Prop31
280
     0
102
RTVSPost2010PropOp31
 70
     1
102
RTVSPost2010Prop32
280
     0
102
RTVSPost2010PropOp32
 70
     1
102
RTVSPost2010Prop33
280
     0
102
RTVSPost2010PropOp33
 70
     1
102
RTVSPost2010Prop34
280
     0
102
RTVSPost2010PropOp34
 70
     1
102
RTVSPost2010Prop35
280
     0
102
RTVSPost2010PropOp35
 70
     1
102
RTVSPost2010Prop36
280
     0
102
RTVSPost2010PropOp36
 70
     1
102
RTVSPost2010Prop37
 90
       50
102
RTVSPost2010PropOp37
 70
     1
102
RTVSPost2010Prop38
140
0.0
102
RTVSPost2010PropOp38
 70
     1
102
RTVSPost2010Prop39
140
1.0
102
RTVSPost2010PropOp39
 70
     1
102
RTVSPost2010Prop40
 90
        0
102
RTVSPost2010PropOp40
 70
     1
102
RTVSPost2010Prop41ColorIndex
 90
       18
102
RTVSPost2010Prop41ColorRGB
 90
        0
102
RTVSPost2010PropOp41
 70
     1
102
RTVSPost2010Prop42
 90
       50
102
RTVSPost2010PropOp42
 70
     1
102
RTVSPost2010Prop43
 90
        3
102
RTVSPost2010PropOp43
 70
     1
102
RTVSPost2010Prop44ColorIndex
 90
        5
102
RTVSPost2010Prop44ColorRGB
 90
      255
102
RTVSPost2010PropOp44
 70
     1
102
RTVSPost2010Prop45
280
     0
102
RTVSPost2010PropOp45
 70
     1
102
RTVSPost2010Prop46
 90
       50
102
RTVSPost2010PropOp46
 70
     1
102
RTVSPost2010Prop47
 90
       50
102
RTVSPost2010PropOp47
 70
     1
102
RTVSPost2010Prop48
 90
       50
102
RTVSPost2010PropOp48
 70
     1
102
RTVSPost2010Prop49
280
     0
102
RTVSPost2010PropOp49
 70
     1
102
RTVSPost2010Prop50
 90
       50
102
RTVSPost2010PropOp50
 70
     1
102
RTVSPost2010Prop51ColorIndex
 90
      256
102
RTVSPost2010Prop51ColorRGB
 90
-16777216
102
RTVSPost2010PropOp51
 70
     0
102
RTVSPost2010Prop52
140
1.0
102
RTVSPost2010PropOp52
 70
     0
102
RTVSPost2010Prop53
 90
        2
102
RTVSPost2010PropOp53
 70
     1
102
RTVSPost2010Prop54
  1
strokes_ogs.tif
102
RTVSPost2010PropOp54
 70
     1
102
RTVSPost2010Prop55
280
     0
102
RTVSPost2010PropOp55
 70
     1
102
RTVSPost2010Prop56
140
1.0
102
RTVSPost2010PropOp56
 70
     1
102
RTVSPost2010Prop57
140
1.0
102
RTVSPost2010PropOp57
 70
     1
102
RTVSPropertyOp0
 70
     1
102
RTVSPropertyOp1
 70
     1
102
RTVSPropertyOp2
 70
     1
102
RTVSPropertyOp3
 70
     1
102
RTVSPropertyOp4
 70
     1
102
RTVSPropertyOp5
 70
     1
102
RTVSPropertyOp6
 70
     1
102
RTVSPropertyOp7
 70
     1
102
RTVSPropertyOp8
 70
     1
102
RTVSPropertyOp9
 70
     1
102
RTVSPropertyOp10
 70
     1
102
RTVSPropertyOp11
 70
     1
102
RTVSPropertyOp12
 70
     1
102
RTVSPropertyOp13
 70
     1
102
RTVSPropertyOp14
 70
     1
102
RTVSPropertyOp15
 70
     1
102
RTVSPropertyOp16
 70
     1
102
RTVSPropertyOp17
 70
     1
102
RTVSPropertyOp18
 70
     1
102
RTVSPropertyOp19
 70
     1
102
RTVSPropertyOp20
 70
     1
102
RTVSPropertyOp21
 70
     1
102
RTVSPropertyOp22
 70
     1
102
RTVSPropertyOp23
 70
     1
102
RTVSPropertyOp24
 70
     1
102
RTVSPropertyOp25
 70
     1
102
RTVSPropertyOp26
 70
     1
102
RTVSPropertyOp27
 70
     1
102
RTVSPropertyOp28
 70
     1
102
RTVSPropertyOp29
 70
     1
102
RTVSPropertyOp30
 70
     1
102
RTVSPropertyOp31
 70
     1
102
RTVSPropertyOp32
 70
     1
102
RTVSPropertyOp33
 70
     1
102
RTVSPropertyOp34
 70
     1
102
RTVSPropertyOp35
 70
     1
102
RTVSPropertyOp36
 70
     1
102
RTVSPropertyOp37
 70
     1
102
RTVSPropertyOp38
 70
     1
102
RTVSPropertyOp39
 70
     1
102
RTVSPropertyOp40
 70
     1
102
RTVSPropertyOp41
 70
     1
102
RTVSPropertyOp42
 70
     1
102
RTVSPropertyOp43
 70
     1
102
RTVSPropertyOp44
 70
     1
102
RTVSPropertyOp45
 70
     1
102
RTVSPropertyOp46
 70
     1
102
RTVSPropertyOp47
 70
     1
102
RTVSPropertyOp48
 70
     1
102
RTVSPropertyOp49
 70
     1
102
RTVSPropertyOp50
 70
     1
102
RTVSPropertyOp51
 70
     0
102
RTVSPropertyOp52
 70
     0
102
RTVSPropertyOp53
 70
     1
102
RTVSPropertyOp54
 70
     1
102
RTVSPropertyOp55
 70
     1
102
RTVSPropertyOp56
 70
     1
102
RTVSPropertyOp57
 70
     1
102
RTVSPropertyOp58
 70
     1
102
RTVSPropertyOp59
 70
     1
102
RTVSPropertyOp60
 70
     1
102
RTVSPropertyOp61
 70
     1
102
RTVSPropertyOp62
 70
     1
  0
XRECORD
  5
660
102
{ACAD_REACTORS
330
65F
102
}
330
65F
100
AcDbXrecord
280
     1
102
RTVSPost2010Prop28
280
     0
102
RTVSPost2010PropOp28
 70
     1
102
RTVSPost2010Prop29
280
     1
102
RTVSPost2010PropOp29
 70
     1
102
RTVSPost2010Prop30
280
     1
102
RTVSPost2010PropOp30
 70
     1
102
RTVSPost2010Prop31
280
     0
102
RTVSPost2010PropOp31
 70
     1
102
RTVSPost2010Prop32
280
     0
102
RTVSPost2010PropOp32
 70
     1
102
RTVSPost2010Prop33
280
     0
102
RTVSPost2010PropOp33
 70
     1
102
RTVSPost2010Prop34
280
     0
102
RTVSPost2010PropOp34
 70
     1
102
RTVSPost2010Prop35
280
     0
102
RTVSPost2010PropOp35
 70
     1
102
RTVSPost2010Prop36
280
     0
102
RTVSPost2010PropOp36
 70
     1
102
RTVSPost2010Prop37
 90
       50
102
RTVSPost2010PropOp37
 70
     1
102
RTVSPost2010Prop38
140
0.0
102
RTVSPost2010PropOp38
 70
     1
102
RTVSPost2010Prop39
140
1.0
102
RTVSPost2010PropOp39
 70
     1
102
RTVSPost2010Prop40
 90
        0
102
RTVSPost2010PropOp40
 70
     1
102
RTVSPost2010Prop41ColorIndex
 90
       18
102
RTVSPost2010Prop41ColorRGB
 90
        0
102
RTVSPost2010PropOp41
 70
     1
102
RTVSPost2010Prop42
 90
       50
102
RTVSPost2010PropOp42
 70
     1
102
RTVSPost2010Prop43
 90
        3
102
RTVSPost2010PropOp43
 70
     1
102
RTVSPost2010Prop44ColorIndex
 90
        5
102
RTVSPost2010Prop44ColorRGB
 90
      255
102
RTVSPost2010PropOp44
 70
     1
102
RTVSPost2010Prop45
280
     0
102
RTVSPost2010PropOp45
 70
     1
102
RTVSPost2010Prop46
 90
       50
102
RTVSPost2010PropOp46
 70
     1
102
RTVSPost2010Prop47
 90
       50
102
RTVSPost2010PropOp47
 70
     1
102
RTVSPost2010Prop48
 90
       50
102
RTVSPost2010PropOp48
 70
     1
102
RTVSPost2010Prop49
280
     0
102
RTVSPost2010PropOp49
 70
     1
102
RTVSPost2010Prop50
 90
       50
102
RTVSPost2010PropOp50
 70
     1
102
RTVSPost2010Prop51ColorIndex
 90
      256
102
RTVSPost2010Prop51ColorRGB
 90
-16777216
102
RTVSPost2010PropOp51
 70
     0
102
RTVSPost2010Prop52
140
1.0
102
RTVSPost2010PropOp52
 70
     0
102
RTVSPost2010Prop53
 90
        2
102
RTVSPost2010PropOp53
 70
     1
102
RTVSPost2010Prop54
  1
strokes_ogs.tif
102
RTVSPost2010PropOp54
 70
     1
102
RTVSPost2010Prop55
280
     0
102
RTVSPost2010PropOp55
 70
     1
102
RTVSPost2010Prop56
140
1.0
102
RTVSPost2010PropOp56
 70
     1
102
RTVSPost2010Prop57
140
1.0
102
RTVSPost2010PropOp57
 70
     1
102
RTVSPropertyOp0
 70
     1
102
RTVSPropertyOp1
 70
     1
102
RTVSPropertyOp2
 70
     1
102
RTVSPropertyOp3
 70
     1
102
RTVSPropertyOp4
 70
     1
102
RTVSPropertyOp5
 70
     1
102
RTVSPropertyOp6
 70
     1
102
RTVSPropertyOp7
 70
     1
102
RTVSPropertyOp8
 70
     1
102
RTVSPropertyOp9
 70
     1
102
RTVSPropertyOp10
 70
     1
102
RTVSPropertyOp11
 70
     1
102
RTVSPropertyOp12
 70
     1
102
RTVSPropertyOp13
 70
     1
102
RTVSPropertyOp14
 70
     1
102
RTVSPropertyOp15
 70
     1
102
RTVSPropertyOp16
 70
     1
102
RTVSPropertyOp17
 70
     1
102
RTVSPropertyOp18
 70
     1
102
RTVSPropertyOp19
 70
     1
102
RTVSPropertyOp20
 70
     1
102
RTVSPropertyOp21
 70
     1
102
RTVSPropertyOp22
 70
     1
102
RTVSPropertyOp23
 70
     1
102
RTVSPropertyOp24
 70
     1
102
RTVSPropertyOp25
 70
     1
102
RTVSPropertyOp26
 70
     1
102
RTVSPropertyOp27
 70
     1
102
RTVSPropertyOp28
 70
     1
102
RTVSPropertyOp29
 70
     1
102
RTVSPropertyOp30
 70
     1
102
RTVSPropertyOp31
 70
     1
102
RTVSPropertyOp32
 70
     1
102
RTVSPropertyOp33
 70
     1
102
RTVSPropertyOp34
 70
     1
102
RTVSPropertyOp35
 70
     1
102
RTVSPropertyOp36
 70
     1
102
RTVSPropertyOp37
 70
     1
102
RTVSPropertyOp38
 70
     1
102
RTVSPropertyOp39
 70
     1
102
RTVSPropertyOp40
 70
     1
102
RTVSPropertyOp41
 70
     1
102
RTVSPropertyOp42
 70
     1
102
RTVSPropertyOp43
 70
     1
102
RTVSPropertyOp44
 70
     1
102
RTVSPropertyOp45
 70
     1
102
RTVSPropertyOp46
 70
     1
102
RTVSPropertyOp47
 70
     1
102
RTVSPropertyOp48
 70
     1
102
RTVSPropertyOp49
 70
     1
102
RTVSPropertyOp50
 70
     1
102
RTVSPropertyOp51
 70
     0
102
RTVSPropertyOp52
 70
     0
102
RTVSPropertyOp53
 70
     1
102
RTVSPropertyOp54
 70
     1
102
RTVSPropertyOp55
 70
     1
102
RTVSPropertyOp56
 70
     1
102
RTVSPropertyOp57
 70
     1
102
RTVSPropertyOp58
 70
     1
102
RTVSPropertyOp59
 70
     1
102
RTVSPropertyOp60
 70
     1
102
RTVSPropertyOp61
 70
     1
102
RTVSPropertyOp62
 70
     1
  0
XRECORD
  5
670
102
{ACAD_REACTORS
330
66F
102
}
330
66F
100
AcDbXrecord
280
     1
102
RTVSPost2010Prop28
280
     0
102
RTVSPost2010PropOp28
 70
     0
102
RTVSPost2010Prop29
280
     1
102
RTVSPost2010PropOp29
 70
     0
102
RTVSPost2010Prop30
280
     1
102
RTVSPost2010PropOp30
 70
     0
102
RTVSPost2010Prop31
280
     0
102
RTVSPost2010PropOp31
 70
     0
102
RTVSPost2010Prop32
280
     0
102
RTVSPost2010PropOp32
 70
     0
102
RTVSPost2010Prop33
280
     0
102
RTVSPost2010PropOp33
 70
     0
102
RTVSPost2010Prop34
280
     0
102
RTVSPost2010PropOp34
 70
     0
102
RTVSPost2010Prop35
280
     0
102
RTVSPost2010PropOp35
 70
     0
102
RTVSPost2010Prop36
280
     0
102
RTVSPost2010PropOp36
 70
     0
102
RTVSPost2010Prop37
 90
       50
102
RTVSPost2010PropOp37
 70
     0
102
RTVSPost2010Prop38
140
0.0
102
RTVSPost2010PropOp38
 70
     0
102
RTVSPost2010Prop39
140
1.0
102
RTVSPost2010PropOp39
 70
     0
102
RTVSPost2010Prop40
 90
        0
102
RTVSPost2010PropOp40
 70
     0
102
RTVSPost2010Prop41ColorIndex
 90
       18
102
RTVSPost2010Prop41ColorRGB
 90
        0
102
RTVSPost2010PropOp41
 70
     0
102
RTVSPost2010Prop42
 90
       50
102
RTVSPost2010PropOp42
 70
     0
102
RTVSPost2010Prop43
 90
        3
102
RTVSPost2010PropOp43
 70
     0
102
RTVSPost2010Prop44ColorIndex
 90
        5
102
RTVSPost2010Prop44ColorRGB
 90
      255
102
RTVSPost2010PropOp44
 70
     0
102
RTVSPost2010Prop45
280
     0
102
RTVSPost2010PropOp45
 70
     0
102
RTVSPost2010Prop46
 90
       50
102
RTVSPost2010PropOp46
 70
     0
102
RTVSPost2010Prop47
 90
       50
102
RTVSPost2010PropOp47
 70
     0
102
RTVSPost2010Prop48
 90
       50
102
RTVSPost2010PropOp48
 70
     0
102
RTVSPost2010Prop49
280
     0
102
RTVSPost2010PropOp49
 70
     0
102
RTVSPost2010Prop50
 90
       50
102
RTVSPost2010PropOp50
 70
     0
102
RTVSPost2010Prop51ColorIndex
 90
      256
102
RTVSPost2010Prop51ColorRGB
 90
-16777216
102
RTVSPost2010PropOp51
 70
     0
102
RTVSPost2010Prop52
140
1.0
102
RTVSPost2010PropOp52
 70
     0
102
RTVSPost2010Prop53
 90
        2
102
RTVSPost2010PropOp53
 70
     0
102
RTVSPost2010Prop54
  1
strokes_ogs.tif
102
RTVSPost2010PropOp54
 70
     0
102
RTVSPost2010Prop55
280
     0
102
RTVSPost2010PropOp55
 70
     0
102
RTVSPost2010Prop56
140
1.0
102
RTVSPost2010PropOp56
 70
     0
102
RTVSPost2010Prop57
140
1.0
102
RTVSPost2010PropOp57
 70
     0
102
RTVSPropertyOp0
 70
     0
102
RTVSPropertyOp1
 70
     0
102
RTVSPropertyOp2
 70
     0
102
RTVSPropertyOp3
 70
     0
102
RTVSPropertyOp4
 70
     0
102
RTVSPropertyOp5
 70
     0
102
RTVSPropertyOp6
 70
     0
102
RTVSPropertyOp7
 70
     0
102
RTVSPropertyOp8
 70
     0
102
RTVSPropertyOp9
 70
     0
102
RTVSPropertyOp10
 70
     0
102
RTVSPropertyOp11
 70
     0
102
RTVSPropertyOp12
 70
     0
102
RTVSPropertyOp13
 70
     0
102
RTVSPropertyOp14
 70
     2
102
RTVSPropertyOp15
 70
     0
102
RTVSPropertyOp16
 70
     0
102
RTVSPropertyOp17
 70
     0
102
RTVSPropertyOp18
 70
     0
102
RTVSPropertyOp19
 70
     0
102
RTVSPropertyOp20
 70
     0
102
RTVSPropertyOp21
 70
     0
102
RTVSPropertyOp22
 70
     0
102
RTVSPropertyOp23
 70
     0
102
RTVSPropertyOp24
 70
     0
102
RTVSPropertyOp25
 70
     0
102
RTVSPropertyOp26
 70
     0
102
RTVSPropertyOp27
 70
     0
102
RTVSPropertyOp28
 70
     0
102
RTVSPropertyOp29
 70
     0
102
RTVSPropertyOp30
 70
     0
102
RTVSPropertyOp31
 70
     0
102
RTVSPropertyOp32
 70
     0
102
RTVSPropertyOp33
 70
     0
102
RTVSPropertyOp34
 70
     0
102
RTVSPropertyOp35
 70
     0
102
RTVSPropertyOp36
 70
     0
102
RTVSPropertyOp37
 70
     0
102
RTVSPropertyOp38
 70
     0
102
RTVSPropertyOp39
 70
     0
102
RTVSPropertyOp40
 70
     0
102
RTVSPropertyOp41
 70
     0
102
RTVSPropertyOp42
 70
     0
102
RTVSPropertyOp43
 70
     0
102
RTVSPropertyOp44
 70
     0
102
RTVSPropertyOp45
 70
     0
102
RTVSPropertyOp46
 70
     0
102
RTVSPropertyOp47
 70
     0
102
RTVSPropertyOp48
 70
     0
102
RTVSPropertyOp49
 70
     0
102
RTVSPropertyOp50
 70
     0
102
RTVSPropertyOp51
 70
     0
102
RTVSPropertyOp52
 70
     0
102
RTVSPropertyOp53
 70
     0
102
RTVSPropertyOp54
 70
     0
102
RTVSPropertyOp55
 70
     0
102
RTVSPropertyOp56
 70
     0
102
RTVSPropertyOp57
 70
     0
102
RTVSPropertyOp58
 70
     1
102
RTVSPropertyOp59
 70
     1
102
RTVSPropertyOp60
 70
     1
102
RTVSPropertyOp61
 70
     1
102
RTVSPropertyOp62
 70
     1
  0
XRECORD
  5
668
102
{ACAD_REACTORS
330
667
102
}
330
667
100
AcDbXrecord
280
     1
102
RTVSPost2010Prop28
280
     0
102
RTVSPost2010PropOp28
 70
     1
102
RTVSPost2010Prop29
280
     1
102
RTVSPost2010PropOp29
 70
     1
102
RTVSPost2010Prop30
280
     1
102
RTVSPost2010PropOp30
 70
     1
102
RTVSPost2010Prop31
280
     0
102
RTVSPost2010PropOp31
 70
     1
102
RTVSPost2010Prop32
280
     0
102
RTVSPost2010PropOp32
 70
     1
102
RTVSPost2010Prop33
280
     0
102
RTVSPost2010PropOp33
 70
     1
102
RTVSPost2010Prop34
280
     0
102
RTVSPost2010PropOp34
 70
     1
102
RTVSPost2010Prop35
280
     0
102
RTVSPost2010PropOp35
 70
     1
102
RTVSPost2010Prop36
280
     0
102
RTVSPost2010PropOp36
 70
     1
102
RTVSPost2010Prop37
 90
       50
102
RTVSPost2010PropOp37
 70
     1
102
RTVSPost2010Prop38
140
0.0
102
RTVSPost2010PropOp38
 70
     1
102
RTVSPost2010Prop39
140
1.0
102
RTVSPost2010PropOp39
 70
     1
102
RTVSPost2010Prop40
 90
        0
102
RTVSPost2010PropOp40
 70
     1
102
RTVSPost2010Prop41ColorIndex
 90
       18
102
RTVSPost2010Prop41ColorRGB
 90
        0
102
RTVSPost2010PropOp41
 70
     1
102
RTVSPost2010Prop42
 90
       50
102
RTVSPost2010PropOp42
 70
     1
102
RTVSPost2010Prop43
 90
        3
102
RTVSPost2010PropOp43
 70
     1
102
RTVSPost2010Prop44ColorIndex
 90
        5
102
RTVSPost2010Prop44ColorRGB
 90
      255
102
RTVSPost2010PropOp44
 70
     1
102
RTVSPost2010Prop45
280
     0
102
RTVSPost2010PropOp45
 70
     1
102
RTVSPost2010Prop46
 90
       50
102
RTVSPost2010PropOp46
 70
     1
102
RTVSPost2010Prop47
 90
       50
102
RTVSPost2010PropOp47
 70
     1
102
RTVSPost2010Prop48
 90
       50
102
RTVSPost2010PropOp48
 70
     1
102
RTVSPost2010Prop49
280
     0
102
RTVSPost2010PropOp49
 70
     1
102
RTVSPost2010Prop50
 90
       50
102
RTVSPost2010PropOp50
 70
     1
102
RTVSPost2010Prop51ColorIndex
 90
      256
102
RTVSPost2010Prop51ColorRGB
 90
-16777216
102
RTVSPost2010PropOp51
 70
     0
102
RTVSPost2010Prop52
140
1.0
102
RTVSPost2010PropOp52
 70
     0
102
RTVSPost2010Prop53
 90
        2
102
RTVSPost2010PropOp53
 70
     1
102
RTVSPost2010Prop54
  1
strokes_ogs.tif
102
RTVSPost2010PropOp54
 70
     1
102
RTVSPost2010Prop55
280
     0
102
RTVSPost2010PropOp55
 70
     1
102
RTVSPost2010Prop56
140
1.0
102
RTVSPost2010PropOp56
 70
     1
102
RTVSPost2010Prop57
140
1.0
102
RTVSPost2010PropOp57
 70
     1
102
RTVSPropertyOp0
 70
     1
102
RTVSPropertyOp1
 70
     1
102
RTVSPropertyOp2
 70
     1
102
RTVSPropertyOp3
 70
     1
102
RTVSPropertyOp4
 70
     1
102
RTVSPropertyOp5
 70
     1
102
RTVSPropertyOp6
 70
     1
102
RTVSPropertyOp7
 70
     1
102
RTVSPropertyOp8
 70
     1
102
RTVSPropertyOp9
 70
     1
102
RTVSPropertyOp10
 70
     1
102
RTVSPropertyOp11
 70
     1
102
RTVSPropertyOp12
 70
     1
102
RTVSPropertyOp13
 70
     1
102
RTVSPropertyOp14
 70
     1
102
RTVSPropertyOp15
 70
     1
102
RTVSPropertyOp16
 70
     1
102
RTVSPropertyOp17
 70
     1
102
RTVSPropertyOp18
 70
     1
102
RTVSPropertyOp19
 70
     1
102
RTVSPropertyOp20
 70
     1
102
RTVSPropertyOp21
 70
     1
102
RTVSPropertyOp22
 70
     1
102
RTVSPropertyOp23
 70
     1
102
RTVSPropertyOp24
 70
     1
102
RTVSPropertyOp25
 70
     1
102
RTVSPropertyOp26
 70
     1
102
RTVSPropertyOp27
 70
     1
102
RTVSPropertyOp28
 70
     1
102
RTVSPropertyOp29
 70
     1
102
RTVSPropertyOp30
 70
     1
102
RTVSPropertyOp31
 70
     1
102
RTVSPropertyOp32
 70
     1
102
RTVSPropertyOp33
 70
     1
102
RTVSPropertyOp34
 70
     1
102
RTVSPropertyOp35
 70
     1
102
RTVSPropertyOp36
 70
     1
102
RTVSPropertyOp37
 70
     1
102
RTVSPropertyOp38
 70
     1
102
RTVSPropertyOp39
 70
     1
102
RTVSPropertyOp40
 70
     1
102
RTVSPropertyOp41
 70
     1
102
RTVSPropertyOp42
 70
     1
102
RTVSPropertyOp43
 70
     1
102
RTVSPropertyOp44
 70
     1
102
RTVSPropertyOp45
 70
     1
102
RTVSPropertyOp46
 70
     1
102
RTVSPropertyOp47
 70
     1
102
RTVSPropertyOp48
 70
     1
102
RTVSPropertyOp49
 70
     1
102
RTVSPropertyOp50
 70
     1
102
RTVSPropertyOp51
 70
     0
102
RTVSPropertyOp52
 70
     0
102
RTVSPropertyOp53
 70
     1
102
RTVSPropertyOp54
 70
     1
102
RTVSPropertyOp55
 70
     1
102
RTVSPropertyOp56
 70
     1
102
RTVSPropertyOp57
 70
     1
102
RTVSPropertyOp58
 70
     1
102
RTVSPropertyOp59
 70
     1
102
RTVSPropertyOp60
 70
     1
102
RTVSPropertyOp61
 70
     1
102
RTVSPropertyOp62
 70
     1
  0
XRECORD
  5
64C
102
{ACAD_REACTORS
330
64B
102
}
330
64B
100
AcDbXrecord
280
     1
102
RTVSPost2010Prop28
280
     0
102
RTVSPost2010PropOp28
 70
     1
102
RTVSPost2010Prop29
280
     1
102
RTVSPost2010PropOp29
 70
     1
102
RTVSPost2010Prop30
280
     1
102
RTVSPost2010PropOp30
 70
     1
102
RTVSPost2010Prop31
280
     0
102
RTVSPost2010PropOp31
 70
     1
102
RTVSPost2010Prop32
280
     0
102
RTVSPost2010PropOp32
 70
     1
102
RTVSPost2010Prop33
280
     0
102
RTVSPost2010PropOp33
 70
     1
102
RTVSPost2010Prop34
280
     0
102
RTVSPost2010PropOp34
 70
     1
102
RTVSPost2010Prop35
280
     0
102
RTVSPost2010PropOp35
 70
     1
102
RTVSPost2010Prop36
280
     0
102
RTVSPost2010PropOp36
 70
     1
102
RTVSPost2010Prop37
 90
       50
102
RTVSPost2010PropOp37
 70
     1
102
RTVSPost2010Prop38
140
0.0
102
RTVSPost2010PropOp38
 70
     1
102
RTVSPost2010Prop39
140
1.0
102
RTVSPost2010PropOp39
 70
     1
102
RTVSPost2010Prop40
 90
        0
102
RTVSPost2010PropOp40
 70
     1
102
RTVSPost2010Prop41ColorIndex
 90
       18
102
RTVSPost2010Prop41ColorRGB
 90
        0
102
RTVSPost2010PropOp41
 70
     1
102
RTVSPost2010Prop42
 90
       50
102
RTVSPost2010PropOp42
 70
     1
102
RTVSPost2010Prop43
 90
        3
102
RTVSPost2010PropOp43
 70
     1
102
RTVSPost2010Prop44ColorIndex
 90
        5
102
RTVSPost2010Prop44ColorRGB
 90
      255
102
RTVSPost2010PropOp44
 70
     1
102
RTVSPost2010Prop45
280
     0
102
RTVSPost2010PropOp45
 70
     1
102
RTVSPost2010Prop46
 90
       50
102
RTVSPost2010PropOp46
 70
     1
102
RTVSPost2010Prop47
 90
       50
102
RTVSPost2010PropOp47
 70
     1
102
RTVSPost2010Prop48
 90
       50
102
RTVSPost2010PropOp48
 70
     1
102
RTVSPost2010Prop49
280
     0
102
RTVSPost2010PropOp49
 70
     1
102
RTVSPost2010Prop50
 90
       50
102
RTVSPost2010PropOp50
 70
     1
102
RTVSPost2010Prop51ColorIndex
 90
      256
102
RTVSPost2010Prop51ColorRGB
 90
-16777216
102
RTVSPost2010PropOp51
 70
     0
102
RTVSPost2010Prop52
140
1.0
102
RTVSPost2010PropOp52
 70
     0
102
RTVSPost2010Prop53
 90
        2
102
RTVSPost2010PropOp53
 70
     1
102
RTVSPost2010Prop54
  1
strokes_ogs.tif
102
RTVSPost2010PropOp54
 70
     1
102
RTVSPost2010Prop55
280
     0
102
RTVSPost2010PropOp55
 70
     1
102
RTVSPost2010Prop56
140
1.0
102
RTVSPost2010PropOp56
 70
     1
102
RTVSPost2010Prop57
140
1.0
102
RTVSPost2010PropOp57
 70
     1
102
RTVSPropertyOp0
 70
     1
102
RTVSPropertyOp1
 70
     1
102
RTVSPropertyOp2
 70
     1
102
RTVSPropertyOp3
 70
     1
102
RTVSPropertyOp4
 70
     1
102
RTVSPropertyOp5
 70
     1
102
RTVSPropertyOp6
 70
     1
102
RTVSPropertyOp7
 70
     1
102
RTVSPropertyOp8
 70
     1
102
RTVSPropertyOp9
 70
     1
102
RTVSPropertyOp10
 70
     1
102
RTVSPropertyOp11
 70
     1
102
RTVSPropertyOp12
 70
     1
102
RTVSPropertyOp13
 70
     1
102
RTVSPropertyOp14
 70
     1
102
RTVSPropertyOp15
 70
     1
102
RTVSPropertyOp16
 70
     1
102
RTVSPropertyOp17
 70
     1
102
RTVSPropertyOp18
 70
     1
102
RTVSPropertyOp19
 70
     1
102
RTVSPropertyOp20
 70
     1
102
RTVSPropertyOp21
 70
     1
102
RTVSPropertyOp22
 70
     1
102
RTVSPropertyOp23
 70
     1
102
RTVSPropertyOp24
 70
     1
102
RTVSPropertyOp25
 70
     1
102
RTVSPropertyOp26
 70
     1
102
RTVSPropertyOp27
 70
     1
102
RTVSPropertyOp28
 70
     1
102
RTVSPropertyOp29
 70
     1
102
RTVSPropertyOp30
 70
     1
102
RTVSPropertyOp31
 70
     1
102
RTVSPropertyOp32
 70
     1
102
RTVSPropertyOp33
 70
     1
102
RTVSPropertyOp34
 70
     1
102
RTVSPropertyOp35
 70
     1
102
RTVSPropertyOp36
 70
     1
102
RTVSPropertyOp37
 70
     1
102
RTVSPropertyOp38
 70
     1
102
RTVSPropertyOp39
 70
     1
102
RTVSPropertyOp40
 70
     1
102
RTVSPropertyOp41
 70
     1
102
RTVSPropertyOp42
 70
     1
102
RTVSPropertyOp43
 70
     1
102
RTVSPropertyOp44
 70
     1
102
RTVSPropertyOp45
 70
     1
102
RTVSPropertyOp46
 70
     1
102
RTVSPropertyOp47
 70
     1
102
RTVSPropertyOp48
 70
     1
102
RTVSPropertyOp49
 70
     1
102
RTVSPropertyOp50
 70
     1
102
RTVSPropertyOp51
 70
     0
102
RTVSPropertyOp52
 70
     0
102
RTVSPropertyOp53
 70
     1
102
RTVSPropertyOp54
 70
     1
102
RTVSPropertyOp55
 70
     1
102
RTVSPropertyOp56
 70
     1
102
RTVSPropertyOp57
 70
     1
102
RTVSPropertyOp58
 70
     1
102
RTVSPropertyOp59
 70
     1
102
RTVSPropertyOp60
 70
     1
102
RTVSPropertyOp61
 70
     1
102
RTVSPropertyOp62
 70
     1
  0
XRECORD
  5
64E
102
{ACAD_REACTORS
330
64D
102
}
330
64D
100
AcDbXrecord
280
     1
102
RTVSPost2010Prop28
280
     0
102
RTVSPost2010PropOp28
 70
     1
102
RTVSPost2010Prop29
280
     1
102
RTVSPost2010PropOp29
 70
     1
102
RTVSPost2010Prop30
280
     1
102
RTVSPost2010PropOp30
 70
     1
102
RTVSPost2010Prop31
280
     0
102
RTVSPost2010PropOp31
 70
     1
102
RTVSPost2010Prop32
280
     0
102
RTVSPost2010PropOp32
 70
     1
102
RTVSPost2010Prop33
280
     0
102
RTVSPost2010PropOp33
 70
     1
102
RTVSPost2010Prop34
280
     0
102
RTVSPost2010PropOp34
 70
     1
102
RTVSPost2010Prop35
280
     0
102
RTVSPost2010PropOp35
 70
     1
102
RTVSPost2010Prop36
280
     0
102
RTVSPost2010PropOp36
 70
     1
102
RTVSPost2010Prop37
 90
       50
102
RTVSPost2010PropOp37
 70
     1
102
RTVSPost2010Prop38
140
0.0
102
RTVSPost2010PropOp38
 70
     1
102
RTVSPost2010Prop39
140
1.0
102
RTVSPost2010PropOp39
 70
     1
102
RTVSPost2010Prop40
 90
        0
102
RTVSPost2010PropOp40
 70
     1
102
RTVSPost2010Prop41ColorIndex
 90
       18
102
RTVSPost2010Prop41ColorRGB
 90
        0
102
RTVSPost2010PropOp41
 70
     1
102
RTVSPost2010Prop42
 90
       50
102
RTVSPost2010PropOp42
 70
     1
102
RTVSPost2010Prop43
 90
        3
102
RTVSPost2010PropOp43
 70
     1
102
RTVSPost2010Prop44ColorIndex
 90
        5
102
RTVSPost2010Prop44ColorRGB
 90
      255
102
RTVSPost2010PropOp44
 70
     1
102
RTVSPost2010Prop45
280
     0
102
RTVSPost2010PropOp45
 70
     1
102
RTVSPost2010Prop46
 90
       50
102
RTVSPost2010PropOp46
 70
     1
102
RTVSPost2010Prop47
 90
       50
102
RTVSPost2010PropOp47
 70
     1
102
RTVSPost2010Prop48
 90
       50
102
RTVSPost2010PropOp48
 70
     1
102
RTVSPost2010Prop49
280
     0
102
RTVSPost2010PropOp49
 70
     1
102
RTVSPost2010Prop50
 90
       50
102
RTVSPost2010PropOp50
 70
     1
102
RTVSPost2010Prop51ColorIndex
 90
      256
102
RTVSPost2010Prop51ColorRGB
 90
-16777216
102
RTVSPost2010PropOp51
 70
     0
102
RTVSPost2010Prop52
140
1.0
102
RTVSPost2010PropOp52
 70
     0
102
RTVSPost2010Prop53
 90
        2
102
RTVSPost2010PropOp53
 70
     1
102
RTVSPost2010Prop54
  1
strokes_ogs.tif
102
RTVSPost2010PropOp54
 70
     1
102
RTVSPost2010Prop55
280
     0
102
RTVSPost2010PropOp55
 70
     1
102
RTVSPost2010Prop56
140
1.0
102
RTVSPost2010PropOp56
 70
     1
102
RTVSPost2010Prop57
140
1.0
102
RTVSPost2010PropOp57
 70
     1
102
RTVSPropertyOp0
 70
     1
102
RTVSPropertyOp1
 70
     1
102
RTVSPropertyOp2
 70
     1
102
RTVSPropertyOp3
 70
     1
102
RTVSPropertyOp4
 70
     1
102
RTVSPropertyOp5
 70
     1
102
RTVSPropertyOp6
 70
     1
102
RTVSPropertyOp7
 70
     1
102
RTVSPropertyOp8
 70
     1
102
RTVSPropertyOp9
 70
     1
102
RTVSPropertyOp10
 70
     1
102
RTVSPropertyOp11
 70
     1
102
RTVSPropertyOp12
 70
     1
102
RTVSPropertyOp13
 70
     1
102
RTVSPropertyOp14
 70
     1
102
RTVSPropertyOp15
 70
     1
102
RTVSPropertyOp16
 70
     1
102
RTVSPropertyOp17
 70
     1
102
RTVSPropertyOp18
 70
     1
102
RTVSPropertyOp19
 70
     1
102
RTVSPropertyOp20
 70
     1
102
RTVSPropertyOp21
 70
     1
102
RTVSPropertyOp22
 70
     1
102
RTVSPropertyOp23
 70
     1
102
RTVSPropertyOp24
 70
     1
102
RTVSPropertyOp25
 70
     1
102
RTVSPropertyOp26
 70
     1
102
RTVSPropertyOp27
 70
     1
102
RTVSPropertyOp28
 70
     1
102
RTVSPropertyOp29
 70
     1
102
RTVSPropertyOp30
 70
     1
102
RTVSPropertyOp31
 70
     1
102
RTVSPropertyOp32
 70
     1
102
RTVSPropertyOp33
 70
     1
102
RTVSPropertyOp34
 70
     1
102
RTVSPropertyOp35
 70
     1
102
RTVSPropertyOp36
 70
     1
102
RTVSPropertyOp37
 70
     1
102
RTVSPropertyOp38
 70
     1
102
RTVSPropertyOp39
 70
     1
102
RTVSPropertyOp40
 70
     1
102
RTVSPropertyOp41
 70
     1
102
RTVSPropertyOp42
 70
     1
102
RTVSPropertyOp43
 70
     1
102
RTVSPropertyOp44
 70
     1
102
RTVSPropertyOp45
 70
     1
102
RTVSPropertyOp46
 70
     1
102
RTVSPropertyOp47
 70
     1
102
RTVSPropertyOp48
 70
     1
102
RTVSPropertyOp49
 70
     1
102
RTVSPropertyOp50
 70
     1
102
RTVSPropertyOp51
 70
     0
102
RTVSPropertyOp52
 70
     0
102
RTVSPropertyOp53
 70
     1
102
RTVSPropertyOp54
 70
     1
102
RTVSPropertyOp55
 70
     1
102
RTVSPropertyOp56
 70
     1
102
RTVSPropertyOp57
 70
     1
102
RTVSPropertyOp58
 70
     1
102
RTVSPropertyOp59
 70
     1
102
RTVSPropertyOp60
 70
     1
102
RTVSPropertyOp61
 70
     1
102
RTVSPropertyOp62
 70
     1
  0
XRECORD
  5
650
102
{ACAD_REACTORS
330
64F
102
}
330
64F
100
AcDbXrecord
280
     1
102
RTVSPost2010Prop28
280
     0
102
RTVSPost2010PropOp28
 70
     1
102
RTVSPost2010Prop29
280
     1
102
RTVSPost2010PropOp29
 70
     1
102
RTVSPost2010Prop30
280
     1
102
RTVSPost2010PropOp30
 70
     1
102
RTVSPost2010Prop31
280
     0
102
RTVSPost2010PropOp31
 70
     1
102
RTVSPost2010Prop32
280
     0
102
RTVSPost2010PropOp32
 70
     1
102
RTVSPost2010Prop33
280
     0
102
RTVSPost2010PropOp33
 70
     1
102
RTVSPost2010Prop34
280
     0
102
RTVSPost2010PropOp34
 70
     1
102
RTVSPost2010Prop35
280
     0
102
RTVSPost2010PropOp35
 70
     1
102
RTVSPost2010Prop36
280
     0
102
RTVSPost2010PropOp36
 70
     1
102
RTVSPost2010Prop37
 90
       50
102
RTVSPost2010PropOp37
 70
     1
102
RTVSPost2010Prop38
140
0.0
102
RTVSPost2010PropOp38
 70
     1
102
RTVSPost2010Prop39
140
1.0
102
RTVSPost2010PropOp39
 70
     1
102
RTVSPost2010Prop40
 90
        0
102
RTVSPost2010PropOp40
 70
     1
102
RTVSPost2010Prop41ColorIndex
 90
       18
102
RTVSPost2010Prop41ColorRGB
 90
        0
102
RTVSPost2010PropOp41
 70
     1
102
RTVSPost2010Prop42
 90
       50
102
RTVSPost2010PropOp42
 70
     1
102
RTVSPost2010Prop43
 90
        3
102
RTVSPost2010PropOp43
 70
     1
102
RTVSPost2010Prop44ColorIndex
 90
        5
102
RTVSPost2010Prop44ColorRGB
 90
      255
102
RTVSPost2010PropOp44
 70
     1
102
RTVSPost2010Prop45
280
     0
102
RTVSPost2010PropOp45
 70
     1
102
RTVSPost2010Prop46
 90
       50
102
RTVSPost2010PropOp46
 70
     1
102
RTVSPost2010Prop47
 90
       50
102
RTVSPost2010PropOp47
 70
     1
102
RTVSPost2010Prop48
 90
       50
102
RTVSPost2010PropOp48
 70
     1
102
RTVSPost2010Prop49
280
     0
102
RTVSPost2010PropOp49
 70
     1
102
RTVSPost2010Prop50
 90
       50
102
RTVSPost2010PropOp50
 70
     1
102
RTVSPost2010Prop51ColorIndex
 90
      256
102
RTVSPost2010Prop51ColorRGB
 90
-16777216
102
RTVSPost2010PropOp51
 70
     0
102
RTVSPost2010Prop52
140
1.0
102
RTVSPost2010PropOp52
 70
     0
102
RTVSPost2010Prop53
 90
        2
102
RTVSPost2010PropOp53
 70
     1
102
RTVSPost2010Prop54
  1
strokes_ogs.tif
102
RTVSPost2010PropOp54
 70
     1
102
RTVSPost2010Prop55
280
     0
102
RTVSPost2010PropOp55
 70
     1
102
RTVSPost2010Prop56
140
1.0
102
RTVSPost2010PropOp56
 70
     1
102
RTVSPost2010Prop57
140
1.0
102
RTVSPost2010PropOp57
 70
     1
102
RTVSPropertyOp0
 70
     1
102
RTVSPropertyOp1
 70
     1
102
RTVSPropertyOp2
 70
     1
102
RTVSPropertyOp3
 70
     1
102
RTVSPropertyOp4
 70
     1
102
RTVSPropertyOp5
 70
     1
102
RTVSPropertyOp6
 70
     1
102
RTVSPropertyOp7
 70
     1
102
RTVSPropertyOp8
 70
     1
102
RTVSPropertyOp9
 70
     1
102
RTVSPropertyOp10
 70
     1
102
RTVSPropertyOp11
 70
     1
102
RTVSPropertyOp12
 70
     1
102
RTVSPropertyOp13
 70
     1
102
RTVSPropertyOp14
 70
     1
102
RTVSPropertyOp15
 70
     1
102
RTVSPropertyOp16
 70
     1
102
RTVSPropertyOp17
 70
     1
102
RTVSPropertyOp18
 70
     1
102
RTVSPropertyOp19
 70
     1
102
RTVSPropertyOp20
 70
     1
102
RTVSPropertyOp21
 70
     1
102
RTVSPropertyOp22
 70
     1
102
RTVSPropertyOp23
 70
     1
102
RTVSPropertyOp24
 70
     1
102
RTVSPropertyOp25
 70
     1
102
RTVSPropertyOp26
 70
     1
102
RTVSPropertyOp27
 70
     1
102
RTVSPropertyOp28
 70
     1
102
RTVSPropertyOp29
 70
     1
102
RTVSPropertyOp30
 70
     1
102
RTVSPropertyOp31
 70
     1
102
RTVSPropertyOp32
 70
     1
102
RTVSPropertyOp33
 70
     1
102
RTVSPropertyOp34
 70
     1
102
RTVSPropertyOp35
 70
     1
102
RTVSPropertyOp36
 70
     1
102
RTVSPropertyOp37
 70
     1
102
RTVSPropertyOp38
 70
     1
102
RTVSPropertyOp39
 70
     1
102
RTVSPropertyOp40
 70
     1
102
RTVSPropertyOp41
 70
     1
102
RTVSPropertyOp42
 70
     1
102
RTVSPropertyOp43
 70
     1
102
RTVSPropertyOp44
 70
     1
102
RTVSPropertyOp45
 70
     1
102
RTVSPropertyOp46
 70
     1
102
RTVSPropertyOp47
 70
     1
102
RTVSPropertyOp48
 70
     1
102
RTVSPropertyOp49
 70
     1
102
RTVSPropertyOp50
 70
     1
102
RTVSPropertyOp51
 70
     0
102
RTVSPropertyOp52
 70
     0
102
RTVSPropertyOp53
 70
     1
102
RTVSPropertyOp54
 70
     1
102
RTVSPropertyOp55
 70
     1
102
RTVSPropertyOp56
 70
     1
102
RTVSPropertyOp57
 70
     1
102
RTVSPropertyOp58
 70
     1
102
RTVSPropertyOp59
 70
     1
102
RTVSPropertyOp60
 70
     1
102
RTVSPropertyOp61
 70
     1
102
RTVSPropertyOp62
 70
     1
  0
XRECORD
  5
652
102
{ACAD_REACTORS
330
651
102
}
330
651
100
AcDbXrecord
280
     1
102
RTVSPost2010Prop28
280
     0
102
RTVSPost2010PropOp28
 70
     1
102
RTVSPost2010Prop29
280
     1
102
RTVSPost2010PropOp29
 70
     1
102
RTVSPost2010Prop30
280
     1
102
RTVSPost2010PropOp30
 70
     1
102
RTVSPost2010Prop31
280
     0
102
RTVSPost2010PropOp31
 70
     1
102
RTVSPost2010Prop32
280
     0
102
RTVSPost2010PropOp32
 70
     1
102
RTVSPost2010Prop33
280
     0
102
RTVSPost2010PropOp33
 70
     1
102
RTVSPost2010Prop34
280
     0
102
RTVSPost2010PropOp34
 70
     1
102
RTVSPost2010Prop35
280
     0
102
RTVSPost2010PropOp35
 70
     1
102
RTVSPost2010Prop36
280
     0
102
RTVSPost2010PropOp36
 70
     1
102
RTVSPost2010Prop37
 90
       50
102
RTVSPost2010PropOp37
 70
     1
102
RTVSPost2010Prop38
140
0.0
102
RTVSPost2010PropOp38
 70
     1
102
RTVSPost2010Prop39
140
1.0
102
RTVSPost2010PropOp39
 70
     1
102
RTVSPost2010Prop40
 90
        0
102
RTVSPost2010PropOp40
 70
     1
102
RTVSPost2010Prop41ColorIndex
 90
       18
102
RTVSPost2010Prop41ColorRGB
 90
        0
102
RTVSPost2010PropOp41
 70
     1
102
RTVSPost2010Prop42
 90
       50
102
RTVSPost2010PropOp42
 70
     1
102
RTVSPost2010Prop43
 90
        3
102
RTVSPost2010PropOp43
 70
     1
102
RTVSPost2010Prop44ColorIndex
 90
        5
102
RTVSPost2010Prop44ColorRGB
 90
      255
102
RTVSPost2010PropOp44
 70
     1
102
RTVSPost2010Prop45
280
     0
102
RTVSPost2010PropOp45
 70
     1
102
RTVSPost2010Prop46
 90
       50
102
RTVSPost2010PropOp46
 70
     1
102
RTVSPost2010Prop47
 90
       50
102
RTVSPost2010PropOp47
 70
     1
102
RTVSPost2010Prop48
 90
       50
102
RTVSPost2010PropOp48
 70
     1
102
RTVSPost2010Prop49
280
     0
102
RTVSPost2010PropOp49
 70
     1
102
RTVSPost2010Prop50
 90
       50
102
RTVSPost2010PropOp50
 70
     1
102
RTVSPost2010Prop51ColorIndex
 90
      256
102
RTVSPost2010Prop51ColorRGB
 90
-16777216
102
RTVSPost2010PropOp51
 70
     0
102
RTVSPost2010Prop52
140
1.0
102
RTVSPost2010PropOp52
 70
     0
102
RTVSPost2010Prop53
 90
        2
102
RTVSPost2010PropOp53
 70
     1
102
RTVSPost2010Prop54
  1
strokes_ogs.tif
102
RTVSPost2010PropOp54
 70
     1
102
RTVSPost2010Prop55
280
     0
102
RTVSPost2010PropOp55
 70
     1
102
RTVSPost2010Prop56
140
1.0
102
RTVSPost2010PropOp56
 70
     1
102
RTVSPost2010Prop57
140
1.0
102
RTVSPost2010PropOp57
 70
     1
102
RTVSPropertyOp0
 70
     1
102
RTVSPropertyOp1
 70
     1
102
RTVSPropertyOp2
 70
     1
102
RTVSPropertyOp3
 70
     1
102
RTVSPropertyOp4
 70
     1
102
RTVSPropertyOp5
 70
     1
102
RTVSPropertyOp6
 70
     1
102
RTVSPropertyOp7
 70
     1
102
RTVSPropertyOp8
 70
     1
102
RTVSPropertyOp9
 70
     1
102
RTVSPropertyOp10
 70
     1
102
RTVSPropertyOp11
 70
     1
102
RTVSPropertyOp12
 70
     1
102
RTVSPropertyOp13
 70
     1
102
RTVSPropertyOp14
 70
     1
102
RTVSPropertyOp15
 70
     1
102
RTVSPropertyOp16
 70
     1
102
RTVSPropertyOp17
 70
     1
102
RTVSPropertyOp18
 70
     1
102
RTVSPropertyOp19
 70
     1
102
RTVSPropertyOp20
 70
     1
102
RTVSPropertyOp21
 70
     1
102
RTVSPropertyOp22
 70
     1
102
RTVSPropertyOp23
 70
     1
102
RTVSPropertyOp24
 70
     1
102
RTVSPropertyOp25
 70
     1
102
RTVSPropertyOp26
 70
     1
102
RTVSPropertyOp27
 70
     1
102
RTVSPropertyOp28
 70
     1
102
RTVSPropertyOp29
 70
     1
102
RTVSPropertyOp30
 70
     1
102
RTVSPropertyOp31
 70
     1
102
RTVSPropertyOp32
 70
     1
102
RTVSPropertyOp33
 70
     1
102
RTVSPropertyOp34
 70
     1
102
RTVSPropertyOp35
 70
     1
102
RTVSPropertyOp36
 70
     1
102
RTVSPropertyOp37
 70
     1
102
RTVSPropertyOp38
 70
     1
102
RTVSPropertyOp39
 70
     1
102
RTVSPropertyOp40
 70
     1
102
RTVSPropertyOp41
 70
     1
102
RTVSPropertyOp42
 70
     1
102
RTVSPropertyOp43
 70
     1
102
RTVSPropertyOp44
 70
     1
102
RTVSPropertyOp45
 70
     1
102
RTVSPropertyOp46
 70
     1
102
RTVSPropertyOp47
 70
     1
102
RTVSPropertyOp48
 70
     1
102
RTVSPropertyOp49
 70
     1
102
RTVSPropertyOp50
 70
     1
102
RTVSPropertyOp51
 70
     0
102
RTVSPropertyOp52
 70
     0
102
RTVSPropertyOp53
 70
     1
102
RTVSPropertyOp54
 70
     1
102
RTVSPropertyOp55
 70
     1
102
RTVSPropertyOp56
 70
     1
102
RTVSPropertyOp57
 70
     1
102
RTVSPropertyOp58
 70
     1
102
RTVSPropertyOp59
 70
     1
102
RTVSPropertyOp60
 70
     1
102
RTVSPropertyOp61
 70
     1
102
RTVSPropertyOp62
 70
     1
  0
XRECORD
  5
658
102
{ACAD_REACTORS
330
657
102
}
330
657
100
AcDbXrecord
280
     1
102
RTVSPost2010Prop28
280
     0
102
RTVSPost2010PropOp28
 70
     1
102
RTVSPost2010Prop29
280
     1
102
RTVSPost2010PropOp29
 70
     1
102
RTVSPost2010Prop30
280
     1
102
RTVSPost2010PropOp30
 70
     1
102
RTVSPost2010Prop31
280
     0
102
RTVSPost2010PropOp31
 70
     1
102
RTVSPost2010Prop32
280
     0
102
RTVSPost2010PropOp32
 70
     1
102
RTVSPost2010Prop33
280
     0
102
RTVSPost2010PropOp33
 70
     1
102
RTVSPost2010Prop34
280
     0
102
RTVSPost2010PropOp34
 70
     1
102
RTVSPost2010Prop35
280
     0
102
RTVSPost2010PropOp35
 70
     1
102
RTVSPost2010Prop36
280
     0
102
RTVSPost2010PropOp36
 70
     1
102
RTVSPost2010Prop37
 90
       50
102
RTVSPost2010PropOp37
 70
     1
102
RTVSPost2010Prop38
140
0.0
102
RTVSPost2010PropOp38
 70
     1
102
RTVSPost2010Prop39
140
1.0
102
RTVSPost2010PropOp39
 70
     1
102
RTVSPost2010Prop40
 90
        0
102
RTVSPost2010PropOp40
 70
     1
102
RTVSPost2010Prop41ColorIndex
 90
       18
102
RTVSPost2010Prop41ColorRGB
 90
        0
102
RTVSPost2010PropOp41
 70
     1
102
RTVSPost2010Prop42
 90
       50
102
RTVSPost2010PropOp42
 70
     1
102
RTVSPost2010Prop43
 90
        3
102
RTVSPost2010PropOp43
 70
     1
102
RTVSPost2010Prop44ColorIndex
 90
        5
102
RTVSPost2010Prop44ColorRGB
 90
      255
102
RTVSPost2010PropOp44
 70
     1
102
RTVSPost2010Prop45
280
     0
102
RTVSPost2010PropOp45
 70
     1
102
RTVSPost2010Prop46
 90
       50
102
RTVSPost2010PropOp46
 70
     1
102
RTVSPost2010Prop47
 90
       50
102
RTVSPost2010PropOp47
 70
     1
102
RTVSPost2010Prop48
 90
       50
102
RTVSPost2010PropOp48
 70
     1
102
RTVSPost2010Prop49
280
     0
102
RTVSPost2010PropOp49
 70
     1
102
RTVSPost2010Prop50
 90
       50
102
RTVSPost2010PropOp50
 70
     1
102
RTVSPost2010Prop51ColorIndex
 90
      256
102
RTVSPost2010Prop51ColorRGB
 90
-16777216
102
RTVSPost2010PropOp51
 70
     0
102
RTVSPost2010Prop52
140
1.0
102
RTVSPost2010PropOp52
 70
     0
102
RTVSPost2010Prop53
 90
        2
102
RTVSPost2010PropOp53
 70
     1
102
RTVSPost2010Prop54
  1
strokes_ogs.tif
102
RTVSPost2010PropOp54
 70
     1
102
RTVSPost2010Prop55
280
     0
102
RTVSPost2010PropOp55
 70
     1
102
RTVSPost2010Prop56
140
1.0
102
RTVSPost2010PropOp56
 70
     1
102
RTVSPost2010Prop57
140
1.0
102
RTVSPost2010PropOp57
 70
     1
102
RTVSPropertyOp0
 70
     1
102
RTVSPropertyOp1
 70
     1
102
RTVSPropertyOp2
 70
     1
102
RTVSPropertyOp3
 70
     1
102
RTVSPropertyOp4
 70
     1
102
RTVSPropertyOp5
 70
     1
102
RTVSPropertyOp6
 70
     1
102
RTVSPropertyOp7
 70
     1
102
RTVSPropertyOp8
 70
     1
102
RTVSPropertyOp9
 70
     1
102
RTVSPropertyOp10
 70
     1
102
RTVSPropertyOp11
 70
     1
102
RTVSPropertyOp12
 70
     1
102
RTVSPropertyOp13
 70
     1
102
RTVSPropertyOp14
 70
     1
102
RTVSPropertyOp15
 70
     1
102
RTVSPropertyOp16
 70
     1
102
RTVSPropertyOp17
 70
     1
102
RTVSPropertyOp18
 70
     1
102
RTVSPropertyOp19
 70
     1
102
RTVSPropertyOp20
 70
     1
102
RTVSPropertyOp21
 70
     1
102
RTVSPropertyOp22
 70
     1
102
RTVSPropertyOp23
 70
     1
102
RTVSPropertyOp24
 70
     1
102
RTVSPropertyOp25
 70
     1
102
RTVSPropertyOp26
 70
     1
102
RTVSPropertyOp27
 70
     1
102
RTVSPropertyOp28
 70
     1
102
RTVSPropertyOp29
 70
     1
102
RTVSPropertyOp30
 70
     1
102
RTVSPropertyOp31
 70
     1
102
RTVSPropertyOp32
 70
     1
102
RTVSPropertyOp33
 70
     1
102
RTVSPropertyOp34
 70
     1
102
RTVSPropertyOp35
 70
     1
102
RTVSPropertyOp36
 70
     1
102
RTVSPropertyOp37
 70
     1
102
RTVSPropertyOp38
 70
     1
102
RTVSPropertyOp39
 70
     1
102
RTVSPropertyOp40
 70
     1
102
RTVSPropertyOp41
 70
     1
102
RTVSPropertyOp42
 70
     1
102
RTVSPropertyOp43
 70
     1
102
RTVSPropertyOp44
 70
     1
102
RTVSPropertyOp45
 70
     1
102
RTVSPropertyOp46
 70
     1
102
RTVSPropertyOp47
 70
     1
102
RTVSPropertyOp48
 70
     1
102
RTVSPropertyOp49
 70
     1
102
RTVSPropertyOp50
 70
     1
102
RTVSPropertyOp51
 70
     0
102
RTVSPropertyOp52
 70
     0
102
RTVSPropertyOp53
 70
     1
102
RTVSPropertyOp54
 70
     1
102
RTVSPropertyOp55
 70
     1
102
RTVSPropertyOp56
 70
     1
102
RTVSPropertyOp57
 70
     1
102
RTVSPropertyOp58
 70
     1
102
RTVSPropertyOp59
 70
     1
102
RTVSPropertyOp60
 70
     1
102
RTVSPropertyOp61
 70
     1
102
RTVSPropertyOp62
 70
     1
  0
XRECORD
  5
66C
102
{ACAD_REACTORS
330
66B
102
}
330
66B
100
AcDbXrecord
280
     1
102
RTVSPost2010Prop28
280
     0
102
RTVSPost2010PropOp28
 70
     0
102
RTVSPost2010Prop29
280
     1
102
RTVSPost2010PropOp29
 70
     0
102
RTVSPost2010Prop30
280
     1
102
RTVSPost2010PropOp30
 70
     0
102
RTVSPost2010Prop31
280
     0
102
RTVSPost2010PropOp31
 70
     0
102
RTVSPost2010Prop32
280
     0
102
RTVSPost2010PropOp32
 70
     0
102
RTVSPost2010Prop33
280
     0
102
RTVSPost2010PropOp33
 70
     0
102
RTVSPost2010Prop34
280
     0
102
RTVSPost2010PropOp34
 70
     0
102
RTVSPost2010Prop35
280
     0
102
RTVSPost2010PropOp35
 70
     0
102
RTVSPost2010Prop36
280
     0
102
RTVSPost2010PropOp36
 70
     0
102
RTVSPost2010Prop37
 90
       50
102
RTVSPost2010PropOp37
 70
     0
102
RTVSPost2010Prop38
140
0.0
102
RTVSPost2010PropOp38
 70
     0
102
RTVSPost2010Prop39
140
1.0
102
RTVSPost2010PropOp39
 70
     0
102
RTVSPost2010Prop40
 90
        0
102
RTVSPost2010PropOp40
 70
     0
102
RTVSPost2010Prop41ColorIndex
 90
       18
102
RTVSPost2010Prop41ColorRGB
 90
        0
102
RTVSPost2010PropOp41
 70
     0
102
RTVSPost2010Prop42
 90
       50
102
RTVSPost2010PropOp42
 70
     0
102
RTVSPost2010Prop43
 90
        3
102
RTVSPost2010PropOp43
 70
     0
102
RTVSPost2010Prop44ColorIndex
 90
        5
102
RTVSPost2010Prop44ColorRGB
 90
      255
102
RTVSPost2010PropOp44
 70
     0
102
RTVSPost2010Prop45
280
     0
102
RTVSPost2010PropOp45
 70
     0
102
RTVSPost2010Prop46
 90
       50
102
RTVSPost2010PropOp46
 70
     0
102
RTVSPost2010Prop47
 90
       50
102
RTVSPost2010PropOp47
 70
     0
102
RTVSPost2010Prop48
 90
       50
102
RTVSPost2010PropOp48
 70
     0
102
RTVSPost2010Prop49
280
     0
102
RTVSPost2010PropOp49
 70
     0
102
RTVSPost2010Prop50
 90
       50
102
RTVSPost2010PropOp50
 70
     0
102
RTVSPost2010Prop51ColorIndex
 90
      256
102
RTVSPost2010Prop51ColorRGB
 90
-16777216
102
RTVSPost2010PropOp51
 70
     0
102
RTVSPost2010Prop52
140
1.0
102
RTVSPost2010PropOp52
 70
     0
102
RTVSPost2010Prop53
 90
        2
102
RTVSPost2010PropOp53
 70
     0
102
RTVSPost2010Prop54
  1
strokes_ogs.tif
102
RTVSPost2010PropOp54
 70
     0
102
RTVSPost2010Prop55
280
     0
102
RTVSPost2010PropOp55
 70
     0
102
RTVSPost2010Prop56
140
1.0
102
RTVSPost2010PropOp56
 70
     0
102
RTVSPost2010Prop57
140
1.0
102
RTVSPost2010PropOp57
 70
     0
102
RTVSPropertyOp0
 70
     0
102
RTVSPropertyOp1
 70
     0
102
RTVSPropertyOp2
 70
     0
102
RTVSPropertyOp3
 70
     0
102
RTVSPropertyOp4
 70
     0
102
RTVSPropertyOp5
 70
     0
102
RTVSPropertyOp6
 70
     0
102
RTVSPropertyOp7
 70
     0
102
RTVSPropertyOp8
 70
     0
102
RTVSPropertyOp9
 70
     0
102
RTVSPropertyOp10
 70
     0
102
RTVSPropertyOp11
 70
     0
102
RTVSPropertyOp12
 70
     0
102
RTVSPropertyOp13
 70
     0
102
RTVSPropertyOp14
 70
     2
102
RTVSPropertyOp15
 70
     0
102
RTVSPropertyOp16
 70
     0
102
RTVSPropertyOp17
 70
     0
102
RTVSPropertyOp18
 70
     0
102
RTVSPropertyOp19
 70
     0
102
RTVSPropertyOp20
 70
     0
102
RTVSPropertyOp21
 70
     0
102
RTVSPropertyOp22
 70
     0
102
RTVSPropertyOp23
 70
     0
102
RTVSPropertyOp24
 70
     0
102
RTVSPropertyOp25
 70
     0
102
RTVSPropertyOp26
 70
     0
102
RTVSPropertyOp27
 70
     0
102
RTVSPropertyOp28
 70
     0
102
RTVSPropertyOp29
 70
     0
102
RTVSPropertyOp30
 70
     0
102
RTVSPropertyOp31
 70
     0
102
RTVSPropertyOp32
 70
     0
102
RTVSPropertyOp33
 70
     0
102
RTVSPropertyOp34
 70
     0
102
RTVSPropertyOp35
 70
     0
102
RTVSPropertyOp36
 70
     0
102
RTVSPropertyOp37
 70
     0
102
RTVSPropertyOp38
 70
     0
102
RTVSPropertyOp39
 70
     0
102
RTVSPropertyOp40
 70
     0
102
RTVSPropertyOp41
 70
     0
102
RTVSPropertyOp42
 70
     0
102
RTVSPropertyOp43
 70
     0
102
RTVSPropertyOp44
 70
     0
102
RTVSPropertyOp45
 70
     0
102
RTVSPropertyOp46
 70
     0
102
RTVSPropertyOp47
 70
     0
102
RTVSPropertyOp48
 70
     0
102
RTVSPropertyOp49
 70
     0
102
RTVSPropertyOp50
 70
     0
102
RTVSPropertyOp51
 70
     0
102
RTVSPropertyOp52
 70
     0
102
RTVSPropertyOp53
 70
     0
102
RTVSPropertyOp54
 70
     0
102
RTVSPropertyOp55
 70
     0
102
RTVSPropertyOp56
 70
     0
102
RTVSPropertyOp57
 70
     0
102
RTVSPropertyOp58
 70
     1
102
RTVSPropertyOp59
 70
     1
102
RTVSPropertyOp60
 70
     1
102
RTVSPropertyOp61
 70
     1
102
RTVSPropertyOp62
 70
     1
  0
XRECORD
  5
666
102
{ACAD_REACTORS
330
665
102
}
330
665
100
AcDbXrecord
280
     1
102
RTVSPost2010Prop28
280
     0
102
RTVSPost2010PropOp28
 70
     1
102
RTVSPost2010Prop29
280
     1
102
RTVSPost2010PropOp29
 70
     1
102
RTVSPost2010Prop30
280
     1
102
RTVSPost2010PropOp30
 70
     1
102
RTVSPost2010Prop31
280
     0
102
RTVSPost2010PropOp31
 70
     1
102
RTVSPost2010Prop32
280
     0
102
RTVSPost2010PropOp32
 70
     1
102
RTVSPost2010Prop33
280
     0
102
RTVSPost2010PropOp33
 70
     1
102
RTVSPost2010Prop34
280
     0
102
RTVSPost2010PropOp34
 70
     1
102
RTVSPost2010Prop35
280
     0
102
RTVSPost2010PropOp35
 70
     1
102
RTVSPost2010Prop36
280
     0
102
RTVSPost2010PropOp36
 70
     1
102
RTVSPost2010Prop37
 90
       50
102
RTVSPost2010PropOp37
 70
     1
102
RTVSPost2010Prop38
140
0.0
102
RTVSPost2010PropOp38
 70
     1
102
RTVSPost2010Prop39
140
1.0
102
RTVSPost2010PropOp39
 70
     1
102
RTVSPost2010Prop40
 90
        0
102
RTVSPost2010PropOp40
 70
     1
102
RTVSPost2010Prop41ColorIndex
 90
       18
102
RTVSPost2010Prop41ColorRGB
 90
        0
102
RTVSPost2010PropOp41
 70
     1
102
RTVSPost2010Prop42
 90
       50
102
RTVSPost2010PropOp42
 70
     1
102
RTVSPost2010Prop43
 90
        3
102
RTVSPost2010PropOp43
 70
     1
102
RTVSPost2010Prop44ColorIndex
 90
        5
102
RTVSPost2010Prop44ColorRGB
 90
      255
102
RTVSPost2010PropOp44
 70
     1
102
RTVSPost2010Prop45
280
     0
102
RTVSPost2010PropOp45
 70
     1
102
RTVSPost2010Prop46
 90
       50
102
RTVSPost2010PropOp46
 70
     1
102
RTVSPost2010Prop47
 90
       50
102
RTVSPost2010PropOp47
 70
     1
102
RTVSPost2010Prop48
 90
       50
102
RTVSPost2010PropOp48
 70
     1
102
RTVSPost2010Prop49
280
     0
102
RTVSPost2010PropOp49
 70
     1
102
RTVSPost2010Prop50
 90
       50
102
RTVSPost2010PropOp50
 70
     1
102
RTVSPost2010Prop51ColorIndex
 90
      256
102
RTVSPost2010Prop51ColorRGB
 90
-16777216
102
RTVSPost2010PropOp51
 70
     0
102
RTVSPost2010Prop52
140
1.0
102
RTVSPost2010PropOp52
 70
     0
102
RTVSPost2010Prop53
 90
        2
102
RTVSPost2010PropOp53
 70
     1
102
RTVSPost2010Prop54
  1
strokes_ogs.tif
102
RTVSPost2010PropOp54
 70
     1
102
RTVSPost2010Prop55
280
     0
102
RTVSPost2010PropOp55
 70
     1
102
RTVSPost2010Prop56
140
1.0
102
RTVSPost2010PropOp56
 70
     1
102
RTVSPost2010Prop57
140
1.0
102
RTVSPost2010PropOp57
 70
     1
102
RTVSPropertyOp0
 70
     1
102
RTVSPropertyOp1
 70
     1
102
RTVSPropertyOp2
 70
     1
102
RTVSPropertyOp3
 70
     1
102
RTVSPropertyOp4
 70
     1
102
RTVSPropertyOp5
 70
     1
102
RTVSPropertyOp6
 70
     1
102
RTVSPropertyOp7
 70
     1
102
RTVSPropertyOp8
 70
     1
102
RTVSPropertyOp9
 70
     1
102
RTVSPropertyOp10
 70
     1
102
RTVSPropertyOp11
 70
     1
102
RTVSPropertyOp12
 70
     1
102
RTVSPropertyOp13
 70
     1
102
RTVSPropertyOp14
 70
     1
102
RTVSPropertyOp15
 70
     1
102
RTVSPropertyOp16
 70
     1
102
RTVSPropertyOp17
 70
     1
102
RTVSPropertyOp18
 70
     1
102
RTVSPropertyOp19
 70
     1
102
RTVSPropertyOp20
 70
     1
102
RTVSPropertyOp21
 70
     1
102
RTVSPropertyOp22
 70
     1
102
RTVSPropertyOp23
 70
     1
102
RTVSPropertyOp24
 70
     1
102
RTVSPropertyOp25
 70
     1
102
RTVSPropertyOp26
 70
     1
102
RTVSPropertyOp27
 70
     1
102
RTVSPropertyOp28
 70
     1
102
RTVSPropertyOp29
 70
     1
102
RTVSPropertyOp30
 70
     1
102
RTVSPropertyOp31
 70
     1
102
RTVSPropertyOp32
 70
     1
102
RTVSPropertyOp33
 70
     1
102
RTVSPropertyOp34
 70
     1
102
RTVSPropertyOp35
 70
     1
102
RTVSPropertyOp36
 70
     1
102
RTVSPropertyOp37
 70
     1
102
RTVSPropertyOp38
 70
     1
102
RTVSPropertyOp39
 70
     1
102
RTVSPropertyOp40
 70
     1
102
RTVSPropertyOp41
 70
     1
102
RTVSPropertyOp42
 70
     1
102
RTVSPropertyOp43
 70
     1
102
RTVSPropertyOp44
 70
     1
102
RTVSPropertyOp45
 70
     1
102
RTVSPropertyOp46
 70
     1
102
RTVSPropertyOp47
 70
     1
102
RTVSPropertyOp48
 70
     1
102
RTVSPropertyOp49
 70
     1
102
RTVSPropertyOp50
 70
     1
102
RTVSPropertyOp51
 70
     0
102
RTVSPropertyOp52
 70
     0
102
RTVSPropertyOp53
 70
     1
102
RTVSPropertyOp54
 70
     1
102
RTVSPropertyOp55
 70
     1
102
RTVSPropertyOp56
 70
     1
102
RTVSPropertyOp57
 70
     1
102
RTVSPropertyOp58
 70
     1
102
RTVSPropertyOp59
 70
     1
102
RTVSPropertyOp60
 70
     1
102
RTVSPropertyOp61
 70
     1
102
RTVSPropertyOp62
 70
     1
  0
XRECORD
  5
66E
102
{ACAD_REACTORS
330
66D
102
}
330
66D
100
AcDbXrecord
280
     1
102
RTVSPost2010Prop28
280
     0
102
RTVSPost2010PropOp28
 70
     0
102
RTVSPost2010Prop29
280
     1
102
RTVSPost2010PropOp29
 70
     0
102
RTVSPost2010Prop30
280
     1
102
RTVSPost2010PropOp30
 70
     0
102
RTVSPost2010Prop31
280
     0
102
RTVSPost2010PropOp31
 70
     0
102
RTVSPost2010Prop32
280
     0
102
RTVSPost2010PropOp32
 70
     0
102
RTVSPost2010Prop33
280
     0
102
RTVSPost2010PropOp33
 70
     0
102
RTVSPost2010Prop34
280
     0
102
RTVSPost2010PropOp34
 70
     0
102
RTVSPost2010Prop35
280
     0
102
RTVSPost2010PropOp35
 70
     0
102
RTVSPost2010Prop36
280
     0
102
RTVSPost2010PropOp36
 70
     0
102
RTVSPost2010Prop37
 90
       50
102
RTVSPost2010PropOp37
 70
     0
102
RTVSPost2010Prop38
140
0.0
102
RTVSPost2010PropOp38
 70
     0
102
RTVSPost2010Prop39
140
1.0
102
RTVSPost2010PropOp39
 70
     0
102
RTVSPost2010Prop40
 90
        0
102
RTVSPost2010PropOp40
 70
     0
102
RTVSPost2010Prop41ColorIndex
 90
       18
102
RTVSPost2010Prop41ColorRGB
 90
        0
102
RTVSPost2010PropOp41
 70
     0
102
RTVSPost2010Prop42
 90
       50
102
RTVSPost2010PropOp42
 70
     0
102
RTVSPost2010Prop43
 90
        3
102
RTVSPost2010PropOp43
 70
     0
102
RTVSPost2010Prop44ColorIndex
 90
        5
102
RTVSPost2010Prop44ColorRGB
 90
      255
102
RTVSPost2010PropOp44
 70
     0
102
RTVSPost2010Prop45
280
     0
102
RTVSPost2010PropOp45
 70
     0
102
RTVSPost2010Prop46
 90
       50
102
RTVSPost2010PropOp46
 70
     0
102
RTVSPost2010Prop47
 90
       50
102
RTVSPost2010PropOp47
 70
     0
102
RTVSPost2010Prop48
 90
       50
102
RTVSPost2010PropOp48
 70
     0
102
RTVSPost2010Prop49
280
     0
102
RTVSPost2010PropOp49
 70
     0
102
RTVSPost2010Prop50
 90
       50
102
RTVSPost2010PropOp50
 70
     0
102
RTVSPost2010Prop51ColorIndex
 90
      256
102
RTVSPost2010Prop51ColorRGB
 90
-16777216
102
RTVSPost2010PropOp51
 70
     0
102
RTVSPost2010Prop52
140
1.0
102
RTVSPost2010PropOp52
 70
     0
102
RTVSPost2010Prop53
 90
        2
102
RTVSPost2010PropOp53
 70
     0
102
RTVSPost2010Prop54
  1
strokes_ogs.tif
102
RTVSPost2010PropOp54
 70
     0
102
RTVSPost2010Prop55
280
     0
102
RTVSPost2010PropOp55
 70
     0
102
RTVSPost2010Prop56
140
1.0
102
RTVSPost2010PropOp56
 70
     0
102
RTVSPost2010Prop57
140
1.0
102
RTVSPost2010PropOp57
 70
     0
102
RTVSPropertyOp0
 70
     0
102
RTVSPropertyOp1
 70
     0
102
RTVSPropertyOp2
 70
     0
102
RTVSPropertyOp3
 70
     0
102
RTVSPropertyOp4
 70
     0
102
RTVSPropertyOp5
 70
     0
102
RTVSPropertyOp6
 70
     0
102
RTVSPropertyOp7
 70
     0
102
RTVSPropertyOp8
 70
     0
102
RTVSPropertyOp9
 70
     0
102
RTVSPropertyOp10
 70
     0
102
RTVSPropertyOp11
 70
     0
102
RTVSPropertyOp12
 70
     0
102
RTVSPropertyOp13
 70
     0
102
RTVSPropertyOp14
 70
     2
102
RTVSPropertyOp15
 70
     0
102
RTVSPropertyOp16
 70
     0
102
RTVSPropertyOp17
 70
     0
102
RTVSPropertyOp18
 70
     0
102
RTVSPropertyOp19
 70
     0
102
RTVSPropertyOp20
 70
     0
102
RTVSPropertyOp21
 70
     0
102
RTVSPropertyOp22
 70
     0
102
RTVSPropertyOp23
 70
     0
102
RTVSPropertyOp24
 70
     0
102
RTVSPropertyOp25
 70
     0
102
RTVSPropertyOp26
 70
     0
102
RTVSPropertyOp27
 70
     0
102
RTVSPropertyOp28
 70
     0
102
RTVSPropertyOp29
 70
     0
102
RTVSPropertyOp30
 70
     0
102
RTVSPropertyOp31
 70
     0
102
RTVSPropertyOp32
 70
     0
102
RTVSPropertyOp33
 70
     0
102
RTVSPropertyOp34
 70
     0
102
RTVSPropertyOp35
 70
     0
102
RTVSPropertyOp36
 70
     0
102
RTVSPropertyOp37
 70
     0
102
RTVSPropertyOp38
 70
     0
102
RTVSPropertyOp39
 70
     0
102
RTVSPropertyOp40
 70
     0
102
RTVSPropertyOp41
 70
     0
102
RTVSPropertyOp42
 70
     0
102
RTVSPropertyOp43
 70
     0
102
RTVSPropertyOp44
 70
     0
102
RTVSPropertyOp45
 70
     0
102
RTVSPropertyOp46
 70
     0
102
RTVSPropertyOp47
 70
     0
102
RTVSPropertyOp48
 70
     0
102
RTVSPropertyOp49
 70
     0
102
RTVSPropertyOp50
 70
     0
102
RTVSPropertyOp51
 70
     0
102
RTVSPropertyOp52
 70
     0
102
RTVSPropertyOp53
 70
     0
102
RTVSPropertyOp54
 70
     0
102
RTVSPropertyOp55
 70
     0
102
RTVSPropertyOp56
 70
     0
102
RTVSPropertyOp57
 70
     0
102
RTVSPropertyOp58
 70
     1
102
RTVSPropertyOp59
 70
     1
102
RTVSPropertyOp60
 70
     1
102
RTVSPropertyOp61
 70
     1
102
RTVSPropertyOp62
 70
     1
  0
XRECORD
  5
65C
102
{ACAD_REACTORS
330
65B
102
}
330
65B
100
AcDbXrecord
280
     1
102
RTVSPost2010Prop28
280
     0
102
RTVSPost2010PropOp28
 70
     1
102
RTVSPost2010Prop29
280
     1
102
RTVSPost2010PropOp29
 70
     1
102
RTVSPost2010Prop30
280
     1
102
RTVSPost2010PropOp30
 70
     1
102
RTVSPost2010Prop31
280
     0
102
RTVSPost2010PropOp31
 70
     1
102
RTVSPost2010Prop32
280
     0
102
RTVSPost2010PropOp32
 70
     1
102
RTVSPost2010Prop33
280
     0
102
RTVSPost2010PropOp33
 70
     1
102
RTVSPost2010Prop34
280
     0
102
RTVSPost2010PropOp34
 70
     1
102
RTVSPost2010Prop35
280
     0
102
RTVSPost2010PropOp35
 70
     1
102
RTVSPost2010Prop36
280
     0
102
RTVSPost2010PropOp36
 70
     1
102
RTVSPost2010Prop37
 90
       50
102
RTVSPost2010PropOp37
 70
     1
102
RTVSPost2010Prop38
140
0.0
102
RTVSPost2010PropOp38
 70
     1
102
RTVSPost2010Prop39
140
1.0
102
RTVSPost2010PropOp39
 70
     1
102
RTVSPost2010Prop40
 90
        0
102
RTVSPost2010PropOp40
 70
     1
102
RTVSPost2010Prop41ColorIndex
 90
       18
102
RTVSPost2010Prop41ColorRGB
 90
        0
102
RTVSPost2010PropOp41
 70
     1
102
RTVSPost2010Prop42
 90
       50
102
RTVSPost2010PropOp42
 70
     1
102
RTVSPost2010Prop43
 90
        3
102
RTVSPost2010PropOp43
 70
     1
102
RTVSPost2010Prop44ColorIndex
 90
        5
102
RTVSPost2010Prop44ColorRGB
 90
      255
102
RTVSPost2010PropOp44
 70
     1
102
RTVSPost2010Prop45
280
     0
102
RTVSPost2010PropOp45
 70
     1
102
RTVSPost2010Prop46
 90
       50
102
RTVSPost2010PropOp46
 70
     1
102
RTVSPost2010Prop47
 90
       50
102
RTVSPost2010PropOp47
 70
     1
102
RTVSPost2010Prop48
 90
       50
102
RTVSPost2010PropOp48
 70
     1
102
RTVSPost2010Prop49
280
     0
102
RTVSPost2010PropOp49
 70
     1
102
RTVSPost2010Prop50
 90
       50
102
RTVSPost2010PropOp50
 70
     1
102
RTVSPost2010Prop51ColorIndex
 90
      256
102
RTVSPost2010Prop51ColorRGB
 90
-16777216
102
RTVSPost2010PropOp51
 70
     0
102
RTVSPost2010Prop52
140
1.0
102
RTVSPost2010PropOp52
 70
     0
102
RTVSPost2010Prop53
 90
        2
102
RTVSPost2010PropOp53
 70
     1
102
RTVSPost2010Prop54
  1
strokes_ogs.tif
102
RTVSPost2010PropOp54
 70
     1
102
RTVSPost2010Prop55
280
     0
102
RTVSPost2010PropOp55
 70
     1
102
RTVSPost2010Prop56
140
1.0
102
RTVSPost2010PropOp56
 70
     1
102
RTVSPost2010Prop57
140
1.0
102
RTVSPost2010PropOp57
 70
     1
102
RTVSPropertyOp0
 70
     1
102
RTVSPropertyOp1
 70
     1
102
RTVSPropertyOp2
 70
     1
102
RTVSPropertyOp3
 70
     1
102
RTVSPropertyOp4
 70
     1
102
RTVSPropertyOp5
 70
     1
102
RTVSPropertyOp6
 70
     1
102
RTVSPropertyOp7
 70
     1
102
RTVSPropertyOp8
 70
     1
102
RTVSPropertyOp9
 70
     1
102
RTVSPropertyOp10
 70
     1
102
RTVSPropertyOp11
 70
     1
102
RTVSPropertyOp12
 70
     1
102
RTVSPropertyOp13
 70
     1
102
RTVSPropertyOp14
 70
     1
102
RTVSPropertyOp15
 70
     1
102
RTVSPropertyOp16
 70
     1
102
RTVSPropertyOp17
 70
     1
102
RTVSPropertyOp18
 70
     1
102
RTVSPropertyOp19
 70
     1
102
RTVSPropertyOp20
 70
     1
102
RTVSPropertyOp21
 70
     1
102
RTVSPropertyOp22
 70
     1
102
RTVSPropertyOp23
 70
     1
102
RTVSPropertyOp24
 70
     1
102
RTVSPropertyOp25
 70
     1
102
RTVSPropertyOp26
 70
     1
102
RTVSPropertyOp27
 70
     1
102
RTVSPropertyOp28
 70
     1
102
RTVSPropertyOp29
 70
     1
102
RTVSPropertyOp30
 70
     1
102
RTVSPropertyOp31
 70
     1
102
RTVSPropertyOp32
 70
     1
102
RTVSPropertyOp33
 70
     1
102
RTVSPropertyOp34
 70
     1
102
RTVSPropertyOp35
 70
     1
102
RTVSPropertyOp36
 70
     1
102
RTVSPropertyOp37
 70
     1
102
RTVSPropertyOp38
 70
     1
102
RTVSPropertyOp39
 70
     1
102
RTVSPropertyOp40
 70
     1
102
RTVSPropertyOp41
 70
     1
102
RTVSPropertyOp42
 70
     1
102
RTVSPropertyOp43
 70
     1
102
RTVSPropertyOp44
 70
     1
102
RTVSPropertyOp45
 70
     1
102
RTVSPropertyOp46
 70
     1
102
RTVSPropertyOp47
 70
     1
102
RTVSPropertyOp48
 70
     1
102
RTVSPropertyOp49
 70
     1
102
RTVSPropertyOp50
 70
     1
102
RTVSPropertyOp51
 70
     0
102
RTVSPropertyOp52
 70
     0
102
RTVSPropertyOp53
 70
     1
102
RTVSPropertyOp54
 70
     1
102
RTVSPropertyOp55
 70
     1
102
RTVSPropertyOp56
 70
     1
102
RTVSPropertyOp57
 70
     1
102
RTVSPropertyOp58
 70
     1
102
RTVSPropertyOp59
 70
     1
102
RTVSPropertyOp60
 70
     1
102
RTVSPropertyOp61
 70
     1
102
RTVSPropertyOp62
 70
     1
  0
XRECORD
  5
67A
102
{ACAD_REACTORS
330
679
102
}
330
679
100
AcDbXrecord
280
     1
102
RTVSPost2010Prop28
280
     0
102
RTVSPost2010PropOp28
 70
     1
102
RTVSPost2010Prop29
280
     1
102
RTVSPost2010PropOp29
 70
     1
102
RTVSPost2010Prop30
280
     1
102
RTVSPost2010PropOp30
 70
     1
102
RTVSPost2010Prop31
280
     0
102
RTVSPost2010PropOp31
 70
     1
102
RTVSPost2010Prop32
280
     0
102
RTVSPost2010PropOp32
 70
     1
102
RTVSPost2010Prop33
280
     0
102
RTVSPost2010PropOp33
 70
     1
102
RTVSPost2010Prop34
280
     0
102
RTVSPost2010PropOp34
 70
     1
102
RTVSPost2010Prop35
280
     0
102
RTVSPost2010PropOp35
 70
     1
102
RTVSPost2010Prop36
280
     0
102
RTVSPost2010PropOp36
 70
     1
102
RTVSPost2010Prop37
 90
       50
102
RTVSPost2010PropOp37
 70
     1
102
RTVSPost2010Prop38
140
0.0
102
RTVSPost2010PropOp38
 70
     1
102
RTVSPost2010Prop39
140
1.0
102
RTVSPost2010PropOp39
 70
     1
102
RTVSPost2010Prop40
 90
        0
102
RTVSPost2010PropOp40
 70
     1
102
RTVSPost2010Prop41ColorIndex
 90
       18
102
RTVSPost2010Prop41ColorRGB
 90
        0
102
RTVSPost2010PropOp41
 70
     1
102
RTVSPost2010Prop42
 90
       50
102
RTVSPost2010PropOp42
 70
     1
102
RTVSPost2010Prop43
 90
        3
102
RTVSPost2010PropOp43
 70
     1
102
RTVSPost2010Prop44ColorIndex
 90
        5
102
RTVSPost2010Prop44ColorRGB
 90
      255
102
RTVSPost2010PropOp44
 70
     1
102
RTVSPost2010Prop45
280
     0
102
RTVSPost2010PropOp45
 70
     1
102
RTVSPost2010Prop46
 90
       50
102
RTVSPost2010PropOp46
 70
     1
102
RTVSPost2010Prop47
 90
       50
102
RTVSPost2010PropOp47
 70
     1
102
RTVSPost2010Prop48
 90
       50
102
RTVSPost2010PropOp48
 70
     1
102
RTVSPost2010Prop49
280
     0
102
RTVSPost2010PropOp49
 70
     1
102
RTVSPost2010Prop50
 90
       50
102
RTVSPost2010PropOp50
 70
     1
102
RTVSPost2010Prop51ColorIndex
 90
      256
102
RTVSPost2010Prop51ColorRGB
 90
-16777216
102
RTVSPost2010PropOp51
 70
     0
102
RTVSPost2010Prop52
140
1.0
102
RTVSPost2010PropOp52
 70
     0
102
RTVSPost2010Prop53
 90
        2
102
RTVSPost2010PropOp53
 70
     1
102
RTVSPost2010Prop54
  1
strokes_ogs.tif
102
RTVSPost2010PropOp54
 70
     1
102
RTVSPost2010Prop55
280
     0
102
RTVSPost2010PropOp55
 70
     1
102
RTVSPost2010Prop56
140
1.0
102
RTVSPost2010PropOp56
 70
     1
102
RTVSPost2010Prop57
140
1.0
102
RTVSPost2010PropOp57
 70
     1
102
RTVSPropertyOp0
 70
     1
102
RTVSPropertyOp1
 70
     1
102
RTVSPropertyOp2
 70
     1
102
RTVSPropertyOp3
 70
     1
102
RTVSPropertyOp4
 70
     1
102
RTVSPropertyOp5
 70
     1
102
RTVSPropertyOp6
 70
     1
102
RTVSPropertyOp7
 70
     1
102
RTVSPropertyOp8
 70
     1
102
RTVSPropertyOp9
 70
     1
102
RTVSPropertyOp10
 70
     1
102
RTVSPropertyOp11
 70
     1
102
RTVSPropertyOp12
 70
     1
102
RTVSPropertyOp13
 70
     1
102
RTVSPropertyOp14
 70
     1
102
RTVSPropertyOp15
 70
     1
102
RTVSPropertyOp16
 70
     1
102
RTVSPropertyOp17
 70
     1
102
RTVSPropertyOp18
 70
     1
102
RTVSPropertyOp19
 70
     1
102
RTVSPropertyOp20
 70
     1
102
RTVSPropertyOp21
 70
     1
102
RTVSPropertyOp22
 70
     1
102
RTVSPropertyOp23
 70
     1
102
RTVSPropertyOp24
 70
     1
102
RTVSPropertyOp25
 70
     1
102
RTVSPropertyOp26
 70
     1
102
RTVSPropertyOp27
 70
     1
102
RTVSPropertyOp28
 70
     1
102
RTVSPropertyOp29
 70
     1
102
RTVSPropertyOp30
 70
     1
102
RTVSPropertyOp31
 70
     1
102
RTVSPropertyOp32
 70
     1
102
RTVSPropertyOp33
 70
     1
102
RTVSPropertyOp34
 70
     1
102
RTVSPropertyOp35
 70
     1
102
RTVSPropertyOp36
 70
     1
102
RTVSPropertyOp37
 70
     1
102
RTVSPropertyOp38
 70
     1
102
RTVSPropertyOp39
 70
     1
102
RTVSPropertyOp40
 70
     1
102
RTVSPropertyOp41
 70
     1
102
RTVSPropertyOp42
 70
     1
102
RTVSPropertyOp43
 70
     1
102
RTVSPropertyOp44
 70
     1
102
RTVSPropertyOp45
 70
     1
102
RTVSPropertyOp46
 70
     1
102
RTVSPropertyOp47
 70
     1
102
RTVSPropertyOp48
 70
     1
102
RTVSPropertyOp49
 70
     1
102
RTVSPropertyOp50
 70
     1
102
RTVSPropertyOp51
 70
     0
102
RTVSPropertyOp52
 70
     0
102
RTVSPropertyOp53
 70
     1
102
RTVSPropertyOp54
 70
     1
102
RTVSPropertyOp55
 70
     1
102
RTVSPropertyOp56
 70
     1
102
RTVSPropertyOp57
 70
     1
102
RTVSPropertyOp58
 70
     1
102
RTVSPropertyOp59
 70
     1
102
RTVSPropertyOp60
 70
     1
102
RTVSPropertyOp61
 70
     1
102
RTVSPropertyOp62
 70
     1
  0
XRECORD
  5
678
102
{ACAD_REACTORS
330
677
102
}
330
677
100
AcDbXrecord
280
     1
102
RTVSPost2010Prop28
280
     0
102
RTVSPost2010PropOp28
 70
     1
102
RTVSPost2010Prop29
280
     1
102
RTVSPost2010PropOp29
 70
     1
102
RTVSPost2010Prop30
280
     1
102
RTVSPost2010PropOp30
 70
     1
102
RTVSPost2010Prop31
280
     0
102
RTVSPost2010PropOp31
 70
     1
102
RTVSPost2010Prop32
280
     0
102
RTVSPost2010PropOp32
 70
     1
102
RTVSPost2010Prop33
280
     0
102
RTVSPost2010PropOp33
 70
     1
102
RTVSPost2010Prop34
280
     0
102
RTVSPost2010PropOp34
 70
     1
102
RTVSPost2010Prop35
280
     0
102
RTVSPost2010PropOp35
 70
     1
102
RTVSPost2010Prop36
280
     0
102
RTVSPost2010PropOp36
 70
     1
102
RTVSPost2010Prop37
 90
       50
102
RTVSPost2010PropOp37
 70
     1
102
RTVSPost2010Prop38
140
0.0
102
RTVSPost2010PropOp38
 70
     1
102
RTVSPost2010Prop39
140
1.0
102
RTVSPost2010PropOp39
 70
     1
102
RTVSPost2010Prop40
 90
        0
102
RTVSPost2010PropOp40
 70
     1
102
RTVSPost2010Prop41ColorIndex
 90
       18
102
RTVSPost2010Prop41ColorRGB
 90
        0
102
RTVSPost2010PropOp41
 70
     1
102
RTVSPost2010Prop42
 90
       50
102
RTVSPost2010PropOp42
 70
     1
102
RTVSPost2010Prop43
 90
        3
102
RTVSPost2010PropOp43
 70
     1
102
RTVSPost2010Prop44ColorIndex
 90
        5
102
RTVSPost2010Prop44ColorRGB
 90
      255
102
RTVSPost2010PropOp44
 70
     1
102
RTVSPost2010Prop45
280
     0
102
RTVSPost2010PropOp45
 70
     1
102
RTVSPost2010Prop46
 90
       50
102
RTVSPost2010PropOp46
 70
     1
102
RTVSPost2010Prop47
 90
       50
102
RTVSPost2010PropOp47
 70
     1
102
RTVSPost2010Prop48
 90
       50
102
RTVSPost2010PropOp48
 70
     1
102
RTVSPost2010Prop49
280
     0
102
RTVSPost2010PropOp49
 70
     1
102
RTVSPost2010Prop50
 90
       50
102
RTVSPost2010PropOp50
 70
     1
102
RTVSPost2010Prop51ColorIndex
 90
      256
102
RTVSPost2010Prop51ColorRGB
 90
-16777216
102
RTVSPost2010PropOp51
 70
     0
102
RTVSPost2010Prop52
140
1.0
102
RTVSPost2010PropOp52
 70
     0
102
RTVSPost2010Prop53
 90
        2
102
RTVSPost2010PropOp53
 70
     1
102
RTVSPost2010Prop54
  1
strokes_ogs.tif
102
RTVSPost2010PropOp54
 70
     1
102
RTVSPost2010Prop55
280
     0
102
RTVSPost2010PropOp55
 70
     1
102
RTVSPost2010Prop56
140
1.0
102
RTVSPost2010PropOp56
 70
     1
102
RTVSPost2010Prop57
140
1.0
102
RTVSPost2010PropOp57
 70
     1
102
RTVSPropertyOp0
 70
     1
102
RTVSPropertyOp1
 70
     1
102
RTVSPropertyOp2
 70
     1
102
RTVSPropertyOp3
 70
     1
102
RTVSPropertyOp4
 70
     1
102
RTVSPropertyOp5
 70
     1
102
RTVSPropertyOp6
 70
     1
102
RTVSPropertyOp7
 70
     1
102
RTVSPropertyOp8
 70
     1
102
RTVSPropertyOp9
 70
     1
102
RTVSPropertyOp10
 70
     1
102
RTVSPropertyOp11
 70
     1
102
RTVSPropertyOp12
 70
     1
102
RTVSPropertyOp13
 70
     1
102
RTVSPropertyOp14
 70
     1
102
RTVSPropertyOp15
 70
     1
102
RTVSPropertyOp16
 70
     1
102
RTVSPropertyOp17
 70
     1
102
RTVSPropertyOp18
 70
     1
102
RTVSPropertyOp19
 70
     1
102
RTVSPropertyOp20
 70
     1
102
RTVSPropertyOp21
 70
     1
102
RTVSPropertyOp22
 70
     1
102
RTVSPropertyOp23
 70
     1
102
RTVSPropertyOp24
 70
     1
102
RTVSPropertyOp25
 70
     1
102
RTVSPropertyOp26
 70
     1
102
RTVSPropertyOp27
 70
     1
102
RTVSPropertyOp28
 70
     1
102
RTVSPropertyOp29
 70
     1
102
RTVSPropertyOp30
 70
     1
102
RTVSPropertyOp31
 70
     1
102
RTVSPropertyOp32
 70
     1
102
RTVSPropertyOp33
 70
     1
102
RTVSPropertyOp34
 70
     1
102
RTVSPropertyOp35
 70
     1
102
RTVSPropertyOp36
 70
     1
102
RTVSPropertyOp37
 70
     1
102
RTVSPropertyOp38
 70
     1
102
RTVSPropertyOp39
 70
     1
102
RTVSPropertyOp40
 70
     1
102
RTVSPropertyOp41
 70
     1
102
RTVSPropertyOp42
 70
     1
102
RTVSPropertyOp43
 70
     1
102
RTVSPropertyOp44
 70
     1
102
RTVSPropertyOp45
 70
     1
102
RTVSPropertyOp46
 70
     1
102
RTVSPropertyOp47
 70
     1
102
RTVSPropertyOp48
 70
     1
102
RTVSPropertyOp49
 70
     1
102
RTVSPropertyOp50
 70
     1
102
RTVSPropertyOp51
 70
     0
102
RTVSPropertyOp52
 70
     0
102
RTVSPropertyOp53
 70
     1
102
RTVSPropertyOp54
 70
     1
102
RTVSPropertyOp55
 70
     1
102
RTVSPropertyOp56
 70
     1
102
RTVSPropertyOp57
 70
     1
102
RTVSPropertyOp58
 70
     1
102
RTVSPropertyOp59
 70
     1
102
RTVSPropertyOp60
 70
     1
102
RTVSPropertyOp61
 70
     1
102
RTVSPropertyOp62
 70
     1
  0
XRECORD
  5
672
102
{ACAD_REACTORS
330
671
102
}
330
671
100
AcDbXrecord
280
     1
102
RTVSPost2010Prop28
280
     0
102
RTVSPost2010PropOp28
 70
     1
102
RTVSPost2010Prop29
280
     1
102
RTVSPost2010PropOp29
 70
     1
102
RTVSPost2010Prop30
280
     1
102
RTVSPost2010PropOp30
 70
     1
102
RTVSPost2010Prop31
280
     0
102
RTVSPost2010PropOp31
 70
     1
102
RTVSPost2010Prop32
280
     0
102
RTVSPost2010PropOp32
 70
     1
102
RTVSPost2010Prop33
280
     0
102
RTVSPost2010PropOp33
 70
     1
102
RTVSPost2010Prop34
280
     0
102
RTVSPost2010PropOp34
 70
     1
102
RTVSPost2010Prop35
280
     0
102
RTVSPost2010PropOp35
 70
     1
102
RTVSPost2010Prop36
280
     0
102
RTVSPost2010PropOp36
 70
     1
102
RTVSPost2010Prop37
 90
       50
102
RTVSPost2010PropOp37
 70
     1
102
RTVSPost2010Prop38
140
0.0
102
RTVSPost2010PropOp38
 70
     1
102
RTVSPost2010Prop39
140
1.0
102
RTVSPost2010PropOp39
 70
     1
102
RTVSPost2010Prop40
 90
        0
102
RTVSPost2010PropOp40
 70
     1
102
RTVSPost2010Prop41ColorIndex
 90
       18
102
RTVSPost2010Prop41ColorRGB
 90
        0
102
RTVSPost2010PropOp41
 70
     1
102
RTVSPost2010Prop42
 90
       50
102
RTVSPost2010PropOp42
 70
     1
102
RTVSPost2010Prop43
 90
        3
102
RTVSPost2010PropOp43
 70
     1
102
RTVSPost2010Prop44ColorIndex
 90
        5
102
RTVSPost2010Prop44ColorRGB
 90
      255
102
RTVSPost2010PropOp44
 70
     1
102
RTVSPost2010Prop45
280
     0
102
RTVSPost2010PropOp45
 70
     1
102
RTVSPost2010Prop46
 90
       50
102
RTVSPost2010PropOp46
 70
     1
102
RTVSPost2010Prop47
 90
       50
102
RTVSPost2010PropOp47
 70
     1
102
RTVSPost2010Prop48
 90
       50
102
RTVSPost2010PropOp48
 70
     1
102
RTVSPost2010Prop49
280
     0
102
RTVSPost2010PropOp49
 70
     1
102
RTVSPost2010Prop50
 90
       50
102
RTVSPost2010PropOp50
 70
     1
102
RTVSPost2010Prop51ColorIndex
 90
      256
102
RTVSPost2010Prop51ColorRGB
 90
-16777216
102
RTVSPost2010PropOp51
 70
     0
102
RTVSPost2010Prop52
140
1.0
102
RTVSPost2010PropOp52
 70
     0
102
RTVSPost2010Prop53
 90
        2
102
RTVSPost2010PropOp53
 70
     1
102
RTVSPost2010Prop54
  1
strokes_ogs.tif
102
RTVSPost2010PropOp54
 70
     1
102
RTVSPost2010Prop55
280
     0
102
RTVSPost2010PropOp55
 70
     1
102
RTVSPost2010Prop56
140
1.0
102
RTVSPost2010PropOp56
 70
     1
102
RTVSPost2010Prop57
140
1.0
102
RTVSPost2010PropOp57
 70
     1
102
RTVSPropertyOp0
 70
     1
102
RTVSPropertyOp1
 70
     1
102
RTVSPropertyOp2
 70
     1
102
RTVSPropertyOp3
 70
     1
102
RTVSPropertyOp4
 70
     1
102
RTVSPropertyOp5
 70
     1
102
RTVSPropertyOp6
 70
     1
102
RTVSPropertyOp7
 70
     1
102
RTVSPropertyOp8
 70
     1
102
RTVSPropertyOp9
 70
     1
102
RTVSPropertyOp10
 70
     1
102
RTVSPropertyOp11
 70
     1
102
RTVSPropertyOp12
 70
     1
102
RTVSPropertyOp13
 70
     1
102
RTVSPropertyOp14
 70
     1
102
RTVSPropertyOp15
 70
     1
102
RTVSPropertyOp16
 70
     1
102
RTVSPropertyOp17
 70
     1
102
RTVSPropertyOp18
 70
     1
102
RTVSPropertyOp19
 70
     1
102
RTVSPropertyOp20
 70
     1
102
RTVSPropertyOp21
 70
     1
102
RTVSPropertyOp22
 70
     1
102
RTVSPropertyOp23
 70
     1
102
RTVSPropertyOp24
 70
     1
102
RTVSPropertyOp25
 70
     1
102
RTVSPropertyOp26
 70
     1
102
RTVSPropertyOp27
 70
     1
102
RTVSPropertyOp28
 70
     1
102
RTVSPropertyOp29
 70
     1
102
RTVSPropertyOp30
 70
     1
102
RTVSPropertyOp31
 70
     1
102
RTVSPropertyOp32
 70
     1
102
RTVSPropertyOp33
 70
     1
102
RTVSPropertyOp34
 70
     1
102
RTVSPropertyOp35
 70
     1
102
RTVSPropertyOp36
 70
     1
102
RTVSPropertyOp37
 70
     1
102
RTVSPropertyOp38
 70
     1
102
RTVSPropertyOp39
 70
     1
102
RTVSPropertyOp40
 70
     1
102
RTVSPropertyOp41
 70
     1
102
RTVSPropertyOp42
 70
     1
102
RTVSPropertyOp43
 70
     1
102
RTVSPropertyOp44
 70
     1
102
RTVSPropertyOp45
 70
     1
102
RTVSPropertyOp46
 70
     1
102
RTVSPropertyOp47
 70
     1
102
RTVSPropertyOp48
 70
     1
102
RTVSPropertyOp49
 70
     1
102
RTVSPropertyOp50
 70
     1
102
RTVSPropertyOp51
 70
     0
102
RTVSPropertyOp52
 70
     0
102
RTVSPropertyOp53
 70
     1
102
RTVSPropertyOp54
 70
     1
102
RTVSPropertyOp55
 70
     1
102
RTVSPropertyOp56
 70
     1
102
RTVSPropertyOp57
 70
     1
102
RTVSPropertyOp58
 70
     1
102
RTVSPropertyOp59
 70
     1
102
RTVSPropertyOp60
 70
     1
102
RTVSPropertyOp61
 70
     1
102
RTVSPropertyOp62
 70
     1
  0
XRECORD
  5
674
102
{ACAD_REACTORS
330
673
102
}
330
673
100
AcDbXrecord
280
     1
102
RTVSPost2010Prop28
280
     0
102
RTVSPost2010PropOp28
 70
     1
102
RTVSPost2010Prop29
280
     1
102
RTVSPost2010PropOp29
 70
     1
102
RTVSPost2010Prop30
280
     1
102
RTVSPost2010PropOp30
 70
     1
102
RTVSPost2010Prop31
280
     0
102
RTVSPost2010PropOp31
 70
     1
102
RTVSPost2010Prop32
280
     0
102
RTVSPost2010PropOp32
 70
     1
102
RTVSPost2010Prop33
280
     0
102
RTVSPost2010PropOp33
 70
     1
102
RTVSPost2010Prop34
280
     0
102
RTVSPost2010PropOp34
 70
     1
102
RTVSPost2010Prop35
280
     0
102
RTVSPost2010PropOp35
 70
     1
102
RTVSPost2010Prop36
280
     0
102
RTVSPost2010PropOp36
 70
     1
102
RTVSPost2010Prop37
 90
       50
102
RTVSPost2010PropOp37
 70
     1
102
RTVSPost2010Prop38
140
0.0
102
RTVSPost2010PropOp38
 70
     1
102
RTVSPost2010Prop39
140
1.0
102
RTVSPost2010PropOp39
 70
     1
102
RTVSPost2010Prop40
 90
        0
102
RTVSPost2010PropOp40
 70
     1
102
RTVSPost2010Prop41ColorIndex
 90
       18
102
RTVSPost2010Prop41ColorRGB
 90
        0
102
RTVSPost2010PropOp41
 70
     1
102
RTVSPost2010Prop42
 90
       50
102
RTVSPost2010PropOp42
 70
     1
102
RTVSPost2010Prop43
 90
        3
102
RTVSPost2010PropOp43
 70
     1
102
RTVSPost2010Prop44ColorIndex
 90
        5
102
RTVSPost2010Prop44ColorRGB
 90
      255
102
RTVSPost2010PropOp44
 70
     1
102
RTVSPost2010Prop45
280
     0
102
RTVSPost2010PropOp45
 70
     1
102
RTVSPost2010Prop46
 90
       50
102
RTVSPost2010PropOp46
 70
     1
102
RTVSPost2010Prop47
 90
       50
102
RTVSPost2010PropOp47
 70
     1
102
RTVSPost2010Prop48
 90
       50
102
RTVSPost2010PropOp48
 70
     1
102
RTVSPost2010Prop49
280
     0
102
RTVSPost2010PropOp49
 70
     1
102
RTVSPost2010Prop50
 90
       50
102
RTVSPost2010PropOp50
 70
     1
102
RTVSPost2010Prop51ColorIndex
 90
      256
102
RTVSPost2010Prop51ColorRGB
 90
-16777216
102
RTVSPost2010PropOp51
 70
     0
102
RTVSPost2010Prop52
140
1.0
102
RTVSPost2010PropOp52
 70
     0
102
RTVSPost2010Prop53
 90
        2
102
RTVSPost2010PropOp53
 70
     1
102
RTVSPost2010Prop54
  1
strokes_ogs.tif
102
RTVSPost2010PropOp54
 70
     1
102
RTVSPost2010Prop55
280
     0
102
RTVSPost2010PropOp55
 70
     1
102
RTVSPost2010Prop56
140
1.0
102
RTVSPost2010PropOp56
 70
     1
102
RTVSPost2010Prop57
140
1.0
102
RTVSPost2010PropOp57
 70
     1
102
RTVSPropertyOp0
 70
     1
102
RTVSPropertyOp1
 70
     1
102
RTVSPropertyOp2
 70
     1
102
RTVSPropertyOp3
 70
     1
102
RTVSPropertyOp4
 70
     1
102
RTVSPropertyOp5
 70
     1
102
RTVSPropertyOp6
 70
     1
102
RTVSPropertyOp7
 70
     1
102
RTVSPropertyOp8
 70
     1
102
RTVSPropertyOp9
 70
     1
102
RTVSPropertyOp10
 70
     1
102
RTVSPropertyOp11
 70
     1
102
RTVSPropertyOp12
 70
     1
102
RTVSPropertyOp13
 70
     1
102
RTVSPropertyOp14
 70
     1
102
RTVSPropertyOp15
 70
     1
102
RTVSPropertyOp16
 70
     1
102
RTVSPropertyOp17
 70
     1
102
RTVSPropertyOp18
 70
     1
102
RTVSPropertyOp19
 70
     1
102
RTVSPropertyOp20
 70
     1
102
RTVSPropertyOp21
 70
     1
102
RTVSPropertyOp22
 70
     1
102
RTVSPropertyOp23
 70
     1
102
RTVSPropertyOp24
 70
     1
102
RTVSPropertyOp25
 70
     1
102
RTVSPropertyOp26
 70
     1
102
RTVSPropertyOp27
 70
     1
102
RTVSPropertyOp28
 70
     1
102
RTVSPropertyOp29
 70
     1
102
RTVSPropertyOp30
 70
     1
102
RTVSPropertyOp31
 70
     1
102
RTVSPropertyOp32
 70
     1
102
RTVSPropertyOp33
 70
     1
102
RTVSPropertyOp34
 70
     1
102
RTVSPropertyOp35
 70
     1
102
RTVSPropertyOp36
 70
     1
102
RTVSPropertyOp37
 70
     1
102
RTVSPropertyOp38
 70
     1
102
RTVSPropertyOp39
 70
     1
102
RTVSPropertyOp40
 70
     1
102
RTVSPropertyOp41
 70
     1
102
RTVSPropertyOp42
 70
     1
102
RTVSPropertyOp43
 70
     1
102
RTVSPropertyOp44
 70
     1
102
RTVSPropertyOp45
 70
     1
102
RTVSPropertyOp46
 70
     1
102
RTVSPropertyOp47
 70
     1
102
RTVSPropertyOp48
 70
     1
102
RTVSPropertyOp49
 70
     1
102
RTVSPropertyOp50
 70
     1
102
RTVSPropertyOp51
 70
     0
102
RTVSPropertyOp52
 70
     0
102
RTVSPropertyOp53
 70
     1
102
RTVSPropertyOp54
 70
     1
102
RTVSPropertyOp55
 70
     1
102
RTVSPropertyOp56
 70
     1
102
RTVSPropertyOp57
 70
     1
102
RTVSPropertyOp58
 70
     1
102
RTVSPropertyOp59
 70
     1
102
RTVSPropertyOp60
 70
     1
102
RTVSPropertyOp61
 70
     1
102
RTVSPropertyOp62
 70
     1
  0
XRECORD
  5
664
102
{ACAD_REACTORS
330
663
102
}
330
663
100
AcDbXrecord
280
     1
102
RTVSPost2010Prop28
280
     0
102
RTVSPost2010PropOp28
 70
     1
102
RTVSPost2010Prop29
280
     1
102
RTVSPost2010PropOp29
 70
     1
102
RTVSPost2010Prop30
280
     1
102
RTVSPost2010PropOp30
 70
     1
102
RTVSPost2010Prop31
280
     0
102
RTVSPost2010PropOp31
 70
     1
102
RTVSPost2010Prop32
280
     0
102
RTVSPost2010PropOp32
 70
     1
102
RTVSPost2010Prop33
280
     0
102
RTVSPost2010PropOp33
 70
     1
102
RTVSPost2010Prop34
280
     0
102
RTVSPost2010PropOp34
 70
     1
102
RTVSPost2010Prop35
280
     0
102
RTVSPost2010PropOp35
 70
     1
102
RTVSPost2010Prop36
280
     0
102
RTVSPost2010PropOp36
 70
     1
102
RTVSPost2010Prop37
 90
       50
102
RTVSPost2010PropOp37
 70
     1
102
RTVSPost2010Prop38
140
0.0
102
RTVSPost2010PropOp38
 70
     1
102
RTVSPost2010Prop39
140
1.0
102
RTVSPost2010PropOp39
 70
     1
102
RTVSPost2010Prop40
 90
        0
102
RTVSPost2010PropOp40
 70
     1
102
RTVSPost2010Prop41ColorIndex
 90
       18
102
RTVSPost2010Prop41ColorRGB
 90
        0
102
RTVSPost2010PropOp41
 70
     1
102
RTVSPost2010Prop42
 90
       50
102
RTVSPost2010PropOp42
 70
     1
102
RTVSPost2010Prop43
 90
        3
102
RTVSPost2010PropOp43
 70
     1
102
RTVSPost2010Prop44ColorIndex
 90
        5
102
RTVSPost2010Prop44ColorRGB
 90
      255
102
RTVSPost2010PropOp44
 70
     1
102
RTVSPost2010Prop45
280
     0
102
RTVSPost2010PropOp45
 70
     1
102
RTVSPost2010Prop46
 90
       50
102
RTVSPost2010PropOp46
 70
     1
102
RTVSPost2010Prop47
 90
       50
102
RTVSPost2010PropOp47
 70
     1
102
RTVSPost2010Prop48
 90
       50
102
RTVSPost2010PropOp48
 70
     1
102
RTVSPost2010Prop49
280
     0
102
RTVSPost2010PropOp49
 70
     1
102
RTVSPost2010Prop50
 90
       50
102
RTVSPost2010PropOp50
 70
     1
102
RTVSPost2010Prop51ColorIndex
 90
      256
102
RTVSPost2010Prop51ColorRGB
 90
-16777216
102
RTVSPost2010PropOp51
 70
     0
102
RTVSPost2010Prop52
140
1.0
102
RTVSPost2010PropOp52
 70
     0
102
RTVSPost2010Prop53
 90
        2
102
RTVSPost2010PropOp53
 70
     1
102
RTVSPost2010Prop54
  1
strokes_ogs.tif
102
RTVSPost2010PropOp54
 70
     1
102
RTVSPost2010Prop55
280
     0
102
RTVSPost2010PropOp55
 70
     1
102
RTVSPost2010Prop56
140
1.0
102
RTVSPost2010PropOp56
 70
     1
102
RTVSPost2010Prop57
140
1.0
102
RTVSPost2010PropOp57
 70
     1
102
RTVSPropertyOp0
 70
     1
102
RTVSPropertyOp1
 70
     1
102
RTVSPropertyOp2
 70
     1
102
RTVSPropertyOp3
 70
     1
102
RTVSPropertyOp4
 70
     1
102
RTVSPropertyOp5
 70
     1
102
RTVSPropertyOp6
 70
     1
102
RTVSPropertyOp7
 70
     1
102
RTVSPropertyOp8
 70
     1
102
RTVSPropertyOp9
 70
     1
102
RTVSPropertyOp10
 70
     1
102
RTVSPropertyOp11
 70
     1
102
RTVSPropertyOp12
 70
     1
102
RTVSPropertyOp13
 70
     1
102
RTVSPropertyOp14
 70
     1
102
RTVSPropertyOp15
 70
     1
102
RTVSPropertyOp16
 70
     1
102
RTVSPropertyOp17
 70
     1
102
RTVSPropertyOp18
 70
     1
102
RTVSPropertyOp19
 70
     1
102
RTVSPropertyOp20
 70
     1
102
RTVSPropertyOp21
 70
     1
102
RTVSPropertyOp22
 70
     1
102
RTVSPropertyOp23
 70
     1
102
RTVSPropertyOp24
 70
     1
102
RTVSPropertyOp25
 70
     1
102
RTVSPropertyOp26
 70
     1
102
RTVSPropertyOp27
 70
     1
102
RTVSPropertyOp28
 70
     1
102
RTVSPropertyOp29
 70
     1
102
RTVSPropertyOp30
 70
     1
102
RTVSPropertyOp31
 70
     1
102
RTVSPropertyOp32
 70
     1
102
RTVSPropertyOp33
 70
     1
102
RTVSPropertyOp34
 70
     1
102
RTVSPropertyOp35
 70
     1
102
RTVSPropertyOp36
 70
     1
102
RTVSPropertyOp37
 70
     1
102
RTVSPropertyOp38
 70
     1
102
RTVSPropertyOp39
 70
     1
102
RTVSPropertyOp40
 70
     1
102
RTVSPropertyOp41
 70
     1
102
RTVSPropertyOp42
 70
     1
102
RTVSPropertyOp43
 70
     1
102
RTVSPropertyOp44
 70
     1
102
RTVSPropertyOp45
 70
     1
102
RTVSPropertyOp46
 70
     1
102
RTVSPropertyOp47
 70
     1
102
RTVSPropertyOp48
 70
     1
102
RTVSPropertyOp49
 70
     1
102
RTVSPropertyOp50
 70
     1
102
RTVSPropertyOp51
 70
     0
102
RTVSPropertyOp52
 70
     0
102
RTVSPropertyOp53
 70
     1
102
RTVSPropertyOp54
 70
     1
102
RTVSPropertyOp55
 70
     1
102
RTVSPropertyOp56
 70
     1
102
RTVSPropertyOp57
 70
     1
102
RTVSPropertyOp58
 70
     1
102
RTVSPropertyOp59
 70
     1
102
RTVSPropertyOp60
 70
     1
102
RTVSPropertyOp61
 70
     1
102
RTVSPropertyOp62
 70
     1
  0
XRECORD
  5
656
102
{ACAD_REACTORS
330
655
102
}
330
655
100
AcDbXrecord
280
     1
102
RTVSPost2010Prop28
280
     0
102
RTVSPost2010PropOp28
 70
     1
102
RTVSPost2010Prop29
280
     1
102
RTVSPost2010PropOp29
 70
     1
102
RTVSPost2010Prop30
280
     1
102
RTVSPost2010PropOp30
 70
     1
102
RTVSPost2010Prop31
280
     0
102
RTVSPost2010PropOp31
 70
     1
102
RTVSPost2010Prop32
280
     0
102
RTVSPost2010PropOp32
 70
     1
102
RTVSPost2010Prop33
280
     0
102
RTVSPost2010PropOp33
 70
     1
102
RTVSPost2010Prop34
280
     0
102
RTVSPost2010PropOp34
 70
     1
102
RTVSPost2010Prop35
280
     0
102
RTVSPost2010PropOp35
 70
     1
102
RTVSPost2010Prop36
280
     0
102
RTVSPost2010PropOp36
 70
     1
102
RTVSPost2010Prop37
 90
       50
102
RTVSPost2010PropOp37
 70
     1
102
RTVSPost2010Prop38
140
0.0
102
RTVSPost2010PropOp38
 70
     1
102
RTVSPost2010Prop39
140
1.0
102
RTVSPost2010PropOp39
 70
     1
102
RTVSPost2010Prop40
 90
        0
102
RTVSPost2010PropOp40
 70
     1
102
RTVSPost2010Prop41ColorIndex
 90
       18
102
RTVSPost2010Prop41ColorRGB
 90
        0
102
RTVSPost2010PropOp41
 70
     1
102
RTVSPost2010Prop42
 90
       50
102
RTVSPost2010PropOp42
 70
     1
102
RTVSPost2010Prop43
 90
        3
102
RTVSPost2010PropOp43
 70
     1
102
RTVSPost2010Prop44ColorIndex
 90
        5
102
RTVSPost2010Prop44ColorRGB
 90
      255
102
RTVSPost2010PropOp44
 70
     1
102
RTVSPost2010Prop45
280
     0
102
RTVSPost2010PropOp45
 70
     1
102
RTVSPost2010Prop46
 90
       50
102
RTVSPost2010PropOp46
 70
     1
102
RTVSPost2010Prop47
 90
       50
102
RTVSPost2010PropOp47
 70
     1
102
RTVSPost2010Prop48
 90
       50
102
RTVSPost2010PropOp48
 70
     1
102
RTVSPost2010Prop49
280
     0
102
RTVSPost2010PropOp49
 70
     1
102
RTVSPost2010Prop50
 90
       50
102
RTVSPost2010PropOp50
 70
     1
102
RTVSPost2010Prop51ColorIndex
 90
      256
102
RTVSPost2010Prop51ColorRGB
 90
-16777216
102
RTVSPost2010PropOp51
 70
     0
102
RTVSPost2010Prop52
140
1.0
102
RTVSPost2010PropOp52
 70
     0
102
RTVSPost2010Prop53
 90
        2
102
RTVSPost2010PropOp53
 70
     1
102
RTVSPost2010Prop54
  1
strokes_ogs.tif
102
RTVSPost2010PropOp54
 70
     1
102
RTVSPost2010Prop55
280
     0
102
RTVSPost2010PropOp55
 70
     1
102
RTVSPost2010Prop56
140
1.0
102
RTVSPost2010PropOp56
 70
     1
102
RTVSPost2010Prop57
140
1.0
102
RTVSPost2010PropOp57
 70
     1
102
RTVSPropertyOp0
 70
     1
102
RTVSPropertyOp1
 70
     1
102
RTVSPropertyOp2
 70
     1
102
RTVSPropertyOp3
 70
     1
102
RTVSPropertyOp4
 70
     1
102
RTVSPropertyOp5
 70
     1
102
RTVSPropertyOp6
 70
     1
102
RTVSPropertyOp7
 70
     1
102
RTVSPropertyOp8
 70
     1
102
RTVSPropertyOp9
 70
     1
102
RTVSPropertyOp10
 70
     1
102
RTVSPropertyOp11
 70
     1
102
RTVSPropertyOp12
 70
     1
102
RTVSPropertyOp13
 70
     1
102
RTVSPropertyOp14
 70
     1
102
RTVSPropertyOp15
 70
     1
102
RTVSPropertyOp16
 70
     1
102
RTVSPropertyOp17
 70
     1
102
RTVSPropertyOp18
 70
     1
102
RTVSPropertyOp19
 70
     1
102
RTVSPropertyOp20
 70
     1
102
RTVSPropertyOp21
 70
     1
102
RTVSPropertyOp22
 70
     1
102
RTVSPropertyOp23
 70
     1
102
RTVSPropertyOp24
 70
     1
102
RTVSPropertyOp25
 70
     1
102
RTVSPropertyOp26
 70
     1
102
RTVSPropertyOp27
 70
     1
102
RTVSPropertyOp28
 70
     1
102
RTVSPropertyOp29
 70
     1
102
RTVSPropertyOp30
 70
     1
102
RTVSPropertyOp31
 70
     1
102
RTVSPropertyOp32
 70
     1
102
RTVSPropertyOp33
 70
     1
102
RTVSPropertyOp34
 70
     1
102
RTVSPropertyOp35
 70
     1
102
RTVSPropertyOp36
 70
     1
102
RTVSPropertyOp37
 70
     1
102
RTVSPropertyOp38
 70
     1
102
RTVSPropertyOp39
 70
     1
102
RTVSPropertyOp40
 70
     1
102
RTVSPropertyOp41
 70
     1
102
RTVSPropertyOp42
 70
     1
102
RTVSPropertyOp43
 70
     1
102
RTVSPropertyOp44
 70
     1
102
RTVSPropertyOp45
 70
     1
102
RTVSPropertyOp46
 70
     1
102
RTVSPropertyOp47
 70
     1
102
RTVSPropertyOp48
 70
     1
102
RTVSPropertyOp49
 70
     1
102
RTVSPropertyOp50
 70
     1
102
RTVSPropertyOp51
 70
     0
102
RTVSPropertyOp52
 70
     0
102
RTVSPropertyOp53
 70
     1
102
RTVSPropertyOp54
 70
     1
102
RTVSPropertyOp55
 70
     1
102
RTVSPropertyOp56
 70
     1
102
RTVSPropertyOp57
 70
     1
102
RTVSPropertyOp58
 70
     1
102
RTVSPropertyOp59
 70
     1
102
RTVSPropertyOp60
 70
     1
102
RTVSPropertyOp61
 70
     1
102
RTVSPropertyOp62
 70
     1
  0
XRECORD
  5
676
102
{ACAD_REACTORS
330
675
102
}
330
675
100
AcDbXrecord
280
     1
102
RTVSPost2010Prop28
280
     0
102
RTVSPost2010PropOp28
 70
     1
102
RTVSPost2010Prop29
280
     1
102
RTVSPost2010PropOp29
 70
     1
102
RTVSPost2010Prop30
280
     1
102
RTVSPost2010PropOp30
 70
     1
102
RTVSPost2010Prop31
280
     0
102
RTVSPost2010PropOp31
 70
     1
102
RTVSPost2010Prop32
280
     0
102
RTVSPost2010PropOp32
 70
     1
102
RTVSPost2010Prop33
280
     0
102
RTVSPost2010PropOp33
 70
     1
102
RTVSPost2010Prop34
280
     0
102
RTVSPost2010PropOp34
 70
     1
102
RTVSPost2010Prop35
280
     0
102
RTVSPost2010PropOp35
 70
     1
102
RTVSPost2010Prop36
280
     0
102
RTVSPost2010PropOp36
 70
     1
102
RTVSPost2010Prop37
 90
       50
102
RTVSPost2010PropOp37
 70
     1
102
RTVSPost2010Prop38
140
0.0
102
RTVSPost2010PropOp38
 70
     1
102
RTVSPost2010Prop39
140
1.0
102
RTVSPost2010PropOp39
 70
     1
102
RTVSPost2010Prop40
 90
        0
102
RTVSPost2010PropOp40
 70
     1
102
RTVSPost2010Prop41ColorIndex
 90
       18
102
RTVSPost2010Prop41ColorRGB
 90
        0
102
RTVSPost2010PropOp41
 70
     1
102
RTVSPost2010Prop42
 90
       50
102
RTVSPost2010PropOp42
 70
     1
102
RTVSPost2010Prop43
 90
        3
102
RTVSPost2010PropOp43
 70
     1
102
RTVSPost2010Prop44ColorIndex
 90
        5
102
RTVSPost2010Prop44ColorRGB
 90
      255
102
RTVSPost2010PropOp44
 70
     1
102
RTVSPost2010Prop45
280
     0
102
RTVSPost2010PropOp45
 70
     1
102
RTVSPost2010Prop46
 90
       50
102
RTVSPost2010PropOp46
 70
     1
102
RTVSPost2010Prop47
 90
       50
102
RTVSPost2010PropOp47
 70
     1
102
RTVSPost2010Prop48
 90
       50
102
RTVSPost2010PropOp48
 70
     1
102
RTVSPost2010Prop49
280
     0
102
RTVSPost2010PropOp49
 70
     1
102
RTVSPost2010Prop50
 90
       50
102
RTVSPost2010PropOp50
 70
     1
102
RTVSPost2010Prop51ColorIndex
 90
      256
102
RTVSPost2010Prop51ColorRGB
 90
-16777216
102
RTVSPost2010PropOp51
 70
     0
102
RTVSPost2010Prop52
140
1.0
102
RTVSPost2010PropOp52
 70
     0
102
RTVSPost2010Prop53
 90
        2
102
RTVSPost2010PropOp53
 70
     1
102
RTVSPost2010Prop54
  1
strokes_ogs.tif
102
RTVSPost2010PropOp54
 70
     1
102
RTVSPost2010Prop55
280
     0
102
RTVSPost2010PropOp55
 70
     1
102
RTVSPost2010Prop56
140
1.0
102
RTVSPost2010PropOp56
 70
     1
102
RTVSPost2010Prop57
140
1.0
102
RTVSPost2010PropOp57
 70
     1
102
RTVSPropertyOp0
 70
     1
102
RTVSPropertyOp1
 70
     1
102
RTVSPropertyOp2
 70
     1
102
RTVSPropertyOp3
 70
     1
102
RTVSPropertyOp4
 70
     1
102
RTVSPropertyOp5
 70
     1
102
RTVSPropertyOp6
 70
     1
102
RTVSPropertyOp7
 70
     1
102
RTVSPropertyOp8
 70
     1
102
RTVSPropertyOp9
 70
     1
102
RTVSPropertyOp10
 70
     1
102
RTVSPropertyOp11
 70
     1
102
RTVSPropertyOp12
 70
     1
102
RTVSPropertyOp13
 70
     1
102
RTVSPropertyOp14
 70
     1
102
RTVSPropertyOp15
 70
     1
102
RTVSPropertyOp16
 70
     1
102
RTVSPropertyOp17
 70
     1
102
RTVSPropertyOp18
 70
     1
102
RTVSPropertyOp19
 70
     1
102
RTVSPropertyOp20
 70
     1
102
RTVSPropertyOp21
 70
     1
102
RTVSPropertyOp22
 70
     1
102
RTVSPropertyOp23
 70
     1
102
RTVSPropertyOp24
 70
     1
102
RTVSPropertyOp25
 70
     1
102
RTVSPropertyOp26
 70
     1
102
RTVSPropertyOp27
 70
     1
102
RTVSPropertyOp28
 70
     1
102
RTVSPropertyOp29
 70
     1
102
RTVSPropertyOp30
 70
     1
102
RTVSPropertyOp31
 70
     1
102
RTVSPropertyOp32
 70
     1
102
RTVSPropertyOp33
 70
     1
102
RTVSPropertyOp34
 70
     1
102
RTVSPropertyOp35
 70
     1
102
RTVSPropertyOp36
 70
     1
102
RTVSPropertyOp37
 70
     1
102
RTVSPropertyOp38
 70
     1
102
RTVSPropertyOp39
 70
     1
102
RTVSPropertyOp40
 70
     1
102
RTVSPropertyOp41
 70
     1
102
RTVSPropertyOp42
 70
     1
102
RTVSPropertyOp43
 70
     1
102
RTVSPropertyOp44
 70
     1
102
RTVSPropertyOp45
 70
     1
102
RTVSPropertyOp46
 70
     1
102
RTVSPropertyOp47
 70
     1
102
RTVSPropertyOp48
 70
     1
102
RTVSPropertyOp49
 70
     1
102
RTVSPropertyOp50
 70
     1
102
RTVSPropertyOp51
 70
     0
102
RTVSPropertyOp52
 70
     0
102
RTVSPropertyOp53
 70
     1
102
RTVSPropertyOp54
 70
     1
102
RTVSPropertyOp55
 70
     1
102
RTVSPropertyOp56
 70
     1
102
RTVSPropertyOp57
 70
     1
102
RTVSPropertyOp58
 70
     1
102
RTVSPropertyOp59
 70
     1
102
RTVSPropertyOp60
 70
     1
102
RTVSPropertyOp61
 70
     1
102
RTVSPropertyOp62
 70
     1
  0
ENDSEC
  0
EOF
