  0
SECTION
  2
HEADER
  9
$ACADVER
  1
AC1015
  9
$ACADMAINTVER
 70
    20
  9
$DWGCODEPAGE
  3
ANSI_1250
  9
$INSBASE
 10
0.0
 20
0.0
 30
0.0
  9
$EXTMIN
 10
7.09985409668755
 20
8.72964472689398
 30
0.0
  9
$EXTMAX
 10
156.7273420966875
 20
67.90983948918976
 30
0.0
  9
$LIMMIN
 10
-0.5
 20
-0.5
  9
$LIMMAX
 10
5.0
 20
5.0
  9
$ORTHOMODE
 70
     1
  9
$REGENMODE
 70
     1
  9
$FILLMODE
 70
     1
  9
$QTEXTMODE
 70
     0
  9
$MIRRTEXT
 70
     1
  9
$LTSCALE
 40
1.0
  9
$ATTMODE
 70
     1
  9
$TEXTSIZE
 40
0.2
  9
$TRACEWID
 40
0.05
  9
$TEXTSTYLE
  7
Standard
  9
$CLAYER
  8
0
  9
$CELTYPE
  6
ByLayer
  9
$CECOLOR
 62
   256
  9
$CELTSCALE
 40
1.0
  9
$DISPSILH
 70
     0
  9
$DIMSCALE
 40
1.0
  9
$DIMASZ
 40
0.18
  9
$DIMEXO
 40
0.0625
  9
$DIMDLI
 40
0.38
  9
$DIMRND
 40
0.0
  9
$DIMDLE
 40
0.0
  9
$DIMEXE
 40
0.18
  9
$DIMTP
 40
0.0
  9
$DIMTM
 40
0.0
  9
$DIMTXT
 40
0.18
  9
$DIMCEN
 40
0.09
  9
$DIMTSZ
 40
0.0
  9
$DIMTOL
 70
     0
  9
$DIMLIM
 70
     0
  9
$DIMTIH
 70
     1
  9
$DIMTOH
 70
     1
  9
$DIMSE1
 70
     0
  9
$DIMSE2
 70
     0
  9
$DIMTAD
 70
     0
  9
$DIMZIN
 70
     0
  9
$DIMBLK
  1

  9
$DIMASO
 70
     1
  9
$DIMSHO
 70
     1
  9
$DIMPOST
  1

  9
$DIMAPOST
  1

  9
$DIMALT
 70
     0
  9
$DIMALTD
 70
     2
  9
$DIMALTF
 40
25.4
  9
$DIMLFAC
 40
1.0
  9
$DIMTOFL
 70
     0
  9
$DIMTVP
 40
0.0
  9
$DIMTIX
 70
     0
  9
$DIMSOXD
 70
     0
  9
$DIMSAH
 70
     0
  9
$DIMBLK1
  1

  9
$DIMBLK2
  1

  9
$DIMSTYLE
  2
Standard
  9
$DIMCLRD
 70
     0
  9
$DIMCLRE
 70
     0
  9
$DIMCLRT
 70
     0
  9
$DIMTFAC
 40
1.0
  9
$DIMGAP
 40
0.09
  9
$DIMJUST
 70
     0
  9
$DIMSD1
 70
     0
  9
$DIMSD2
 70
     0
  9
$DIMTOLJ
 70
     1
  9
$DIMTZIN
 70
     0
  9
$DIMALTZ
 70
     0
  9
$DIMALTTZ
 70
     0
  9
$DIMUPT
 70
     0
  9
$DIMDEC
 70
     4
  9
$DIMTDEC
 70
     4
  9
$DIMALTU
 70
     2
  9
$DIMALTTD
 70
     2
  9
$DIMTXSTY
  7
Standard
  9
$DIMAUNIT
 70
     0
  9
$DIMADEC
 70
     0
  9
$DIMALTRND
 40
0.0
  9
$DIMAZIN
 70
     0
  9
$DIMDSEP
 70
    46
  9
$DIMATFIT
 70
     3
  9
$DIMFRAC
 70
     0
  9
$DIMLDRBLK
  1

  9
$DIMLUNIT
 70
     2
  9
$DIMLWD
 70
    -2
  9
$DIMLWE
 70
    -2
  9
$DIMTMOVE
 70
     0
  9
$LUNITS
 70
     2
  9
$LUPREC
 70
     4
  9
$SKETCHINC
 40
0.1
  9
$FILLETRAD
 40
0.5
  9
$AUNITS
 70
     0
  9
$AUPREC
 70
     0
  9
$MENU
  1
.
  9
$ELEVATION
 40
0.0
  9
$PELEVATION
 40
0.0
  9
$THICKNESS
 40
0.0
  9
$LIMCHECK
 70
     0
  9
$CHAMFERA
 40
0.0
  9
$CHAMFERB
 40
0.0
  9
$CHAMFERC
 40
0.0
  9
$CHAMFERD
 40
0.0
  9
$SKPOLY
 70
     0
  9
$TDCREATE
 40
2459327.535011574
  9
$TDUCREATE
 40
2459327.451685452
  9
$TDUPDATE
 40
2459327.538182871
  9
$TDUUPDATE
 40
2459327.454849537
  9
$TDINDWG
 40
0.0031250116
  9
$TDUSRTIMER
 40
0.0031250116
  9
$USRTIMER
 70
     1
  9
$ANGBASE
 50
0.0
  9
$ANGDIR
 70
     0
  9
$PDMODE
 70
     0
  9
$PDSIZE
 40
0.0
  9
$PLINEWID
 40
0.0
  9
$SPLFRAME
 70
     0
  9
$SPLINETYPE
 70
     6
  9
$SPLINESEGS
 70
     8
  9
$HANDSEED
  5
9E5
  9
$SURFTAB1
 70
     6
  9
$SURFTAB2
 70
     6
  9
$SURFTYPE
 70
     6
  9
$SURFU
 70
     6
  9
$SURFV
 70
     6
  9
$UCSBASE
  2

  9
$UCSNAME
  2

  9
$UCSORG
 10
0.0
 20
0.0
 30
0.0
  9
$UCSXDIR
 10
1.0
 20
0.0
 30
0.0
  9
$UCSYDIR
 10
0.0
 20
1.0
 30
0.0
  9
$UCSORTHOREF
  2

  9
$UCSORTHOVIEW
 70
     0
  9
$UCSORGTOP
 10
0.0
 20
0.0
 30
0.0
  9
$UCSORGBOTTOM
 10
0.0
 20
0.0
 30
0.0
  9
$UCSORGLEFT
 10
0.0
 20
0.0
 30
0.0
  9
$UCSORGRIGHT
 10
0.0
 20
0.0
 30
0.0
  9
$UCSORGFRONT
 10
0.0
 20
0.0
 30
0.0
  9
$UCSORGBACK
 10
0.0
 20
0.0
 30
0.0
  9
$PUCSBASE
  2

  9
$PUCSNAME
  2

  9
$PUCSORG
 10
0.0
 20
0.0
 30
0.0
  9
$PUCSXDIR
 10
1.0
 20
0.0
 30
0.0
  9
$PUCSYDIR
 10
0.0
 20
1.0
 30
0.0
  9
$PUCSORTHOREF
  2

  9
$PUCSORTHOVIEW
 70
     0
  9
$PUCSORGTOP
 10
0.0
 20
0.0
 30
0.0
  9
$PUCSORGBOTTOM
 10
0.0
 20
0.0
 30
0.0
  9
$PUCSORGLEFT
 10
0.0
 20
0.0
 30
0.0
  9
$PUCSORGRIGHT
 10
0.0
 20
0.0
 30
0.0
  9
$PUCSORGFRONT
 10
0.0
 20
0.0
 30
0.0
  9
$PUCSORGBACK
 10
0.0
 20
0.0
 30
0.0
  9
$USERI1
 70
     0
  9
$USERI2
 70
     0
  9
$USERI3
 70
     0
  9
$USERI4
 70
     0
  9
$USERI5
 70
     0
  9
$USERR1
 40
0.0
  9
$USERR2
 40
0.0
  9
$USERR3
 40
0.0
  9
$USERR4
 40
0.0
  9
$USERR5
 40
0.0
  9
$WORLDVIEW
 70
     1
  9
$SHADEDGE
 70
     3
  9
$SHADEDIF
 70
    70
  9
$TILEMODE
 70
     1
  9
$MAXACTVP
 70
    64
  9
$PINSBASE
 10
0.0
 20
0.0
 30
0.0
  9
$PLIMCHECK
 70
     0
  9
$PEXTMIN
 10
-0.5
 20
-0.5
 30
-0.5
  9
$PEXTMAX
 10
5.0
 20
5.0
 30
5.0
  9
$PLIMMIN
 10
-0.5
 20
-0.5
  9
$PLIMMAX
 10
5.0
 20
5.0
  9
$UNITMODE
 70
     0
  9
$VISRETAIN
 70
     1
  9
$PLINEGEN
 70
     0
  9
$PSLTSCALE
 70
     1
  9
$TREEDEPTH
 70
  3020
  9
$CMLSTYLE
  2
Standard
  9
$CMLJUST
 70
     0
  9
$CMLSCALE
 40
1.0
  9
$PROXYGRAPHICS
 70
     1
  9
$MEASUREMENT
 70
     1
  9
$CELWEIGHT
370
    13
  9
$ENDCAPS
280
     0
  9
$JOINSTYLE
280
     0
  9
$LWDISPLAY
290
     0
  9
$INSUNITS
 70
     4
  9
$HYPERLINKBASE
  1

  9
$STYLESHEET
  1

  9
$XEDIT
290
     1
  9
$CEPSNTYPE
380
     0
  9
$PSTYLEMODE
290
     1
  9
$FINGERPRINTGUID
  2
{2679A26A-DC14-44E4-916F-9BCD47C3B185}
  9
$VERSIONGUID
  2
{02EE473F-DBA4-464B-8399-40C6D381450C}
  9
$EXTNAMES
290
     1
  9
$PSVPSCALE
 40
0.0
  9
$OLESTARTUP
290
     0
  0
ENDSEC
  0
SECTION
  2
CLASSES
  0
CLASS
  1
ACDBDICTIONARYWDFLT
  2
AcDbDictionaryWithDefault
  3
ObjectDBX Classes
 90
        0
280
     0
281
     0
  0
CLASS
  1
VISUALSTYLE
  2
AcDbVisualStyle
  3
ObjectDBX Classes
 90
     4095
280
     0
281
     0
  0
CLASS
  1
MATERIAL
  2
AcDbMaterial
  3
ObjectDBX Classes
 90
     1153
280
     0
281
     0
  0
CLASS
  1
SCALE
  2
AcDbScale
  3
ObjectDBX Classes
 90
     1153
280
     0
281
     0
  0
CLASS
  1
TABLESTYLE
  2
AcDbTableStyle
  3
ObjectDBX Classes
 90
     4095
280
     0
281
     0
  0
CLASS
  1
MLEADERSTYLE
  2
AcDbMLeaderStyle
  3
ACDB_MLEADERSTYLE_CLASS
 90
     4095
280
     0
281
     0
  0
CLASS
  1
SUN
  2
AcDbSun
  3
SCENEOE
 90
    33921
280
     0
281
     0
  0
CLASS
  1
DIMASSOC
  2
AcDbDimAssoc
  3
"AcDbDimAssoc|Product Desc:     AcDim ARX App For Dimension|Company:          Autodesk, Inc.|WEB Address:      www.autodesk.com"
 90
        0
280
     0
281
     0
  0
CLASS
  1
DICTIONARYVAR
  2
AcDbDictionaryVar
  3
ObjectDBX Classes
 90
        0
280
     0
281
     0
  0
CLASS
  1
CELLSTYLEMAP
  2
AcDbCellStyleMap
  3
ObjectDBX Classes
 90
     1152
280
     0
281
     0
  0
CLASS
  1
ACDBSECTIONVIEWSTYLE
  2
AcDbSectionViewStyle
  3
ObjectDBX Classes
 90
     1025
280
     0
281
     0
  0
CLASS
  1
ACDBDETAILVIEWSTYLE
  2
AcDbDetailViewStyle
  3
ObjectDBX Classes
 90
     1025
280
     0
281
     0
  0
CLASS
  1
SORTENTSTABLE
  2
AcDbSortentsTable
  3
ObjectDBX Classes
 90
        0
280
     0
281
     0
  0
CLASS
  1
ACDBPLACEHOLDER
  2
AcDbPlaceHolder
  3
ObjectDBX Classes
 90
        0
280
     0
281
     0
  0
CLASS
  1
LAYOUT
  2
AcDbLayout
  3
ObjectDBX Classes
 90
        0
280
     0
281
     0
  0
ENDSEC
  0
SECTION
  2
TABLES
  0
TABLE
  2
VPORT
  5
8
330
0
100
AcDbSymbolTable
 70
    16
  0
VPORT
  5
29
330
8
100
AcDbSymbolTableRecord
100
AcDbViewportTableRecord
  2
*Active
 70
     0
 10
0.0
 20
0.0
 11
1.0
 21
1.0
 12
61.89916067319265
 22
53.99742732651162
 13
0.0
 23
0.0
 14
0.5
 24
0.5
 15
0.5
 25
0.5
 16
0.0
 26
0.0
 36
1.0
 17
0.0
 27
0.0
 37
0.0
 40
182.6758452502359
 41
2.283154121863799
 42
50.0
 43
788.88564
 44
-788.88564
 50
0.0
 51
0.0
 71
     0
 72
   100
 73
     1
 74
     3
 75
     0
 76
     0
 77
     0
 78
     0
281
     0
 65
     1
110
0.0
120
0.0
130
0.0
111
1.0
121
0.0
131
0.0
112
0.0
122
1.0
132
0.0
 79
     0
146
0.0
1001
ACAD_NAV_VCDISPLAY
1070
     3
  0
VPORT
  5
3D3
330
8
100
AcDbSymbolTableRecord
100
AcDbViewportTableRecord
  2
L1
 70
     0
 10
0.0
 20
0.0
 11
1.0
 21
1.0
 12
210.0
 22
148.401476
 13
0.0
 23
0.0
 14
0.5
 24
0.5
 15
0.5
 25
0.5
 16
0.0
 26
0.0
 36
1.0
 17
0.0
 27
0.0
 37
0.0
 40
219.339583
 41
0.080956
 42
50.0
 43
788.88564
 44
-788.88564
 50
0.0
 51
0.0
 71
     0
 72
   100
 73
     1
 74
     3
 75
     0
 76
     0
 77
     0
 78
     0
281
     0
 65
     1
110
0.0
120
0.0
130
0.0
111
1.0
121
0.0
131
0.0
112
0.0
122
1.0
132
0.0
 79
     0
146
0.0
  0
VPORT
  5
3D4
330
8
100
AcDbSymbolTableRecord
100
AcDbViewportTableRecord
  2
L2
 70
     0
 10
0.0
 20
0.0
 11
0.5
 21
1.0
 12
0.0
 22
0.0
 13
0.0
 23
0.0
 14
0.5
 24
0.5
 15
0.5
 25
0.5
 16
0.0
 26
-1.0
 36
0.0
 17
0.0
 27
0.0
 37
0.0
 40
1561.030612
 41
0.011375
 42
50.0
 43
807.984261
 44
-807.984261
 50
0.0
 51
0.0
 71
     0
 72
   100
 73
     1
 74
     3
 75
     0
 76
     0
 77
     0
 78
     0
281
     0
 65
     1
110
0.0
120
0.0
130
0.0
111
1.0
121
0.0
131
0.0
112
0.0
122
1.0
132
0.0
 79
     0
146
0.0
  0
VPORT
  5
3D5
330
8
100
AcDbSymbolTableRecord
100
AcDbViewportTableRecord
  2
L2
 70
     0
 10
0.5
 20
0.0
 11
1.0
 21
1.0
 12
0.0
 22
0.0
 13
0.0
 23
0.0
 14
0.5
 24
0.5
 15
0.5
 25
0.5
 16
1.0
 26
0.0
 36
0.0
 17
0.0
 27
0.0
 37
0.0
 40
1561.030612
 41
0.011375
 42
50.0
 43
788.18247
 44
-788.18247
 50
0.0
 51
0.0
 71
     0
 72
   100
 73
     1
 74
     3
 75
     0
 76
     0
 77
     0
 78
     0
281
     0
 65
     1
110
0.0
120
0.0
130
0.0
111
1.0
121
0.0
131
0.0
112
0.0
122
1.0
132
0.0
 79
     0
146
0.0
  0
VPORT
  5
3D6
330
8
100
AcDbSymbolTableRecord
100
AcDbViewportTableRecord
  2
L3
 70
     0
 10
0.0
 20
0.5
 11
1.0
 21
1.0
 12
210.0
 22
148.401476
 13
0.0
 23
0.0
 14
0.5
 24
0.5
 15
0.5
 25
0.5
 16
0.0
 26
0.0
 36
1.0
 17
0.0
 27
0.0
 37
0.0
 40
219.339583
 41
0.080956
 42
50.0
 43
788.88564
 44
-788.88564
 50
0.0
 51
0.0
 71
     0
 72
   100
 73
     1
 74
     3
 75
     0
 76
     0
 77
     0
 78
     0
281
     0
 65
     1
110
0.0
120
0.0
130
0.0
111
1.0
121
0.0
131
0.0
112
0.0
122
1.0
132
0.0
 79
     0
146
0.0
  0
VPORT
  5
3D7
330
8
100
AcDbSymbolTableRecord
100
AcDbViewportTableRecord
  2
L3
 70
     0
 10
0.0
 20
0.0
 11
1.0
 21
0.5
 12
0.0
 22
0.0
 13
0.0
 23
0.0
 14
0.5
 24
0.5
 15
0.5
 25
0.5
 16
0.0
 26
-1.0
 36
0.0
 17
0.0
 27
0.0
 37
0.0
 40
1561.030612
 41
0.011375
 42
50.0
 43
807.984261
 44
-807.984261
 50
0.0
 51
0.0
 71
     0
 72
   100
 73
     1
 74
     3
 75
     0
 76
     0
 77
     0
 78
     0
281
     0
 65
     1
110
0.0
120
0.0
130
0.0
111
1.0
121
0.0
131
0.0
112
0.0
122
1.0
132
0.0
 79
     0
146
0.0
  0
VPORT
  5
3D8
330
8
100
AcDbSymbolTableRecord
100
AcDbViewportTableRecord
  2
L4
 70
     0
 10
0.0
 20
0.5
 11
0.5
 21
1.0
 12
210.0
 22
148.401476
 13
0.0
 23
0.0
 14
0.5
 24
0.5
 15
0.5
 25
0.5
 16
0.0
 26
0.0
 36
1.0
 17
0.0
 27
0.0
 37
0.0
 40
219.339583
 41
0.080956
 42
50.0
 43
788.88564
 44
-788.88564
 50
0.0
 51
0.0
 71
     0
 72
   100
 73
     1
 74
     3
 75
     0
 76
     0
 77
     0
 78
     0
281
     0
 65
     1
110
0.0
120
0.0
130
0.0
111
1.0
121
0.0
131
0.0
112
0.0
122
1.0
132
0.0
 79
     0
146
0.0
  0
VPORT
  5
3D9
330
8
100
AcDbSymbolTableRecord
100
AcDbViewportTableRecord
  2
L4
 70
     0
 10
0.0
 20
0.0
 11
0.5
 21
0.5
 12
0.0
 22
0.0
 13
0.0
 23
0.0
 14
0.5
 24
0.5
 15
0.5
 25
0.5
 16
0.0
 26
-1.0
 36
0.0
 17
0.0
 27
0.0
 37
0.0
 40
1561.030612
 41
0.011375
 42
50.0
 43
807.984261
 44
-807.984261
 50
0.0
 51
0.0
 71
     0
 72
   100
 73
     1
 74
     3
 75
     0
 76
     0
 77
     0
 78
     0
281
     0
 65
     1
110
0.0
120
0.0
130
0.0
111
1.0
121
0.0
131
0.0
112
0.0
122
1.0
132
0.0
 79
     0
146
0.0
  0
VPORT
  5
3DA
330
8
100
AcDbSymbolTableRecord
100
AcDbViewportTableRecord
  2
L4
 70
     0
 10
0.5
 20
0.0
 11
1.0
 21
0.5
 12
0.0
 22
0.0
 13
0.0
 23
0.0
 14
0.5
 24
0.5
 15
0.5
 25
0.5
 16
1.0
 26
0.0
 36
0.0
 17
0.0
 27
0.0
 37
0.0
 40
1561.030612
 41
0.011375
 42
50.0
 43
788.18247
 44
-788.18247
 50
0.0
 51
0.0
 71
     0
 72
   100
 73
     1
 74
     3
 75
     0
 76
     0
 77
     0
 78
     0
281
     0
 65
     1
110
0.0
120
0.0
130
0.0
111
1.0
121
0.0
131
0.0
112
0.0
122
1.0
132
0.0
 79
     0
146
0.0
  0
VPORT
  5
3DB
330
8
100
AcDbSymbolTableRecord
100
AcDbViewportTableRecord
  2
L4
 70
     0
 10
0.5
 20
0.5
 11
1.0
 21
1.0
 12
0.0
 22
0.0
 13
0.0
 23
0.0
 14
0.5
 24
0.5
 15
0.5
 25
0.5
 16
0.5773502691896259
 26
-0.5773502691896259
 36
0.5773502691896259
 17
0.0
 27
0.0
 37
0.0
 40
1534.677948
 41
0.01157
 42
50.0
 43
799.7179539999999
 44
-799.7179539999999
 50
0.0
 51
0.0
 71
     0
 72
   100
 73
     1
 74
     3
 75
     0
 76
     0
 77
     0
 78
     0
281
     0
 65
     1
110
0.0
120
0.0
130
0.0
111
1.0
121
0.0
131
0.0
112
0.0
122
1.0
132
0.0
 79
     0
146
0.0
  0
VPORT
  5
3DC
330
8
100
AcDbSymbolTableRecord
100
AcDbViewportTableRecord
  2
L6
 70
     0
 10
0.0
 20
0.5
 11
0.333333
 21
1.0
 12
0.0
 22
0.0
 13
0.0
 23
0.0
 14
0.5
 24
0.5
 15
0.5
 25
0.5
 16
0.7188730927569434
 26
-0.5850486126764433
 36
0.3754192287502549
 17
0.0
 27
0.0
 37
0.0
 40
1620.473525
 41
0.010958
 42
50.0
 43
838.7703209999999
 44
-838.7703209999999
 50
0.0
 51
0.0
 71
     0
 72
   100
 73
     1
 74
     3
 75
     0
 76
     0
 77
     0
 78
     0
281
     0
 65
     1
110
0.0
120
0.0
130
0.0
111
1.0
121
0.0
131
0.0
112
0.0
122
1.0
132
0.0
 79
     0
146
0.0
  0
VPORT
  5
3DD
330
8
100
AcDbSymbolTableRecord
100
AcDbViewportTableRecord
  2
L6
 70
     0
 10
0.0
 20
0.0
 11
0.333333
 21
0.5
 12
0.0
 22
0.0
 13
0.0
 23
0.0
 14
0.5
 24
0.5
 15
0.5
 25
0.5
 16
-1.0
 26
0.0
 36
0.0
 17
0.0
 27
0.0
 37
0.0
 40
1561.030612
 41
0.011375
 42
50.0
 43
788.18247
 44
-788.18247
 50
0.0
 51
0.0
 71
     0
 72
   100
 73
     1
 74
     3
 75
     0
 76
     0
 77
     0
 78
     0
281
     0
 65
     1
110
0.0
120
0.0
130
0.0
111
1.0
121
0.0
131
0.0
112
0.0
122
1.0
132
0.0
 79
     0
146
0.0
  0
VPORT
  5
3DE
330
8
100
AcDbSymbolTableRecord
100
AcDbViewportTableRecord
  2
L6
 70
     0
 10
0.333333
 20
0.5
 11
0.666667
 21
1.0
 12
210.0
 22
148.401476
 13
0.0
 23
0.0
 14
0.5
 24
0.5
 15
0.5
 25
0.5
 16
0.0
 26
0.0
 36
1.0
 17
0.0
 27
0.0
 37
0.0
 40
219.339583
 41
0.080956
 42
50.0
 43
788.88564
 44
-788.88564
 50
0.0
 51
0.0
 71
     0
 72
   100
 73
     1
 74
     3
 75
     0
 76
     0
 77
     0
 78
     0
281
     0
 65
     1
110
0.0
120
0.0
130
0.0
111
1.0
121
0.0
131
0.0
112
0.0
122
1.0
132
0.0
 79
     0
146
0.0
  0
VPORT
  5
3DF
330
8
100
AcDbSymbolTableRecord
100
AcDbViewportTableRecord
  2
L6
 70
     0
 10
0.333333
 20
0.0
 11
0.666667
 21
0.5
 12
0.0
 22
0.0
 13
0.0
 23
0.0
 14
0.5
 24
0.5
 15
0.5
 25
0.5
 16
0.0
 26
-1.0
 36
0.0
 17
0.0
 27
0.0
 37
0.0
 40
1561.030612
 41
0.011375
 42
50.0
 43
807.984261
 44
-807.984261
 50
0.0
 51
0.0
 71
     0
 72
   100
 73
     1
 74
     3
 75
     0
 76
     0
 77
     0
 78
     0
281
     0
 65
     1
110
0.0
120
0.0
130
0.0
111
1.0
121
0.0
131
0.0
112
0.0
122
1.0
132
0.0
 79
     0
146
0.0
  0
VPORT
  5
3E0
330
8
100
AcDbSymbolTableRecord
100
AcDbViewportTableRecord
  2
L6
 70
     0
 10
0.666667
 20
0.5
 11
1.0
 21
1.0
 12
0.0
 22
0.0
 13
0.0
 23
0.0
 14
0.5
 24
0.5
 15
0.5
 25
0.5
 16
0.5773502691896259
 26
-0.5773502691896259
 36
0.5773502691896259
 17
0.0
 27
0.0
 37
0.0
 40
1534.677948
 41
0.01157
 42
50.0
 43
799.7179539999999
 44
-799.7179539999999
 50
0.0
 51
0.0
 71
     0
 72
   100
 73
     1
 74
     3
 75
     0
 76
     0
 77
     0
 78
     0
281
     0
 65
     1
110
0.0
120
0.0
130
0.0
111
1.0
121
0.0
131
0.0
112
0.0
122
1.0
132
0.0
 79
     0
146
0.0
  0
VPORT
  5
3E1
330
8
100
AcDbSymbolTableRecord
100
AcDbViewportTableRecord
  2
L6
 70
     0
 10
0.666667
 20
0.0
 11
1.0
 21
0.5
 12
0.0
 22
0.0
 13
0.0
 23
0.0
 14
0.5
 24
0.5
 15
0.5
 25
0.5
 16
1.0
 26
0.0
 36
0.0
 17
0.0
 27
0.0
 37
0.0
 40
1561.030612
 41
0.011375
 42
50.0
 43
788.18247
 44
-788.18247
 50
0.0
 51
0.0
 71
     0
 72
   100
 73
     1
 74
     3
 75
     0
 76
     0
 77
     0
 78
     0
281
     0
 65
     1
110
0.0
120
0.0
130
0.0
111
1.0
121
0.0
131
0.0
112
0.0
122
1.0
132
0.0
 79
     0
146
0.0
  0
ENDTAB
  0
TABLE
  2
LTYPE
  5
5
330
0
100
AcDbSymbolTable
 70
     7
  0
LTYPE
  5
14
330
5
100
AcDbSymbolTableRecord
100
AcDbLinetypeTableRecord
  2
ByBlock
 70
     0
  3

 72
    65
 73
     0
 40
0.0
  0
LTYPE
  5
15
330
5
100
AcDbSymbolTableRecord
100
AcDbLinetypeTableRecord
  2
ByLayer
 70
     0
  3

 72
    65
 73
     0
 40
0.0
  0
LTYPE
  5
16
330
5
100
AcDbSymbolTableRecord
100
AcDbLinetypeTableRecord
  2
Continuous
 70
     0
  3
Solid line
 72
    65
 73
     0
 40
0.0
  0
LTYPE
  5
6E
330
5
100
AcDbSymbolTableRecord
100
AcDbLinetypeTableRecord
  2
CENTER
 70
     0
  3
____ _ ____ _ ____ _ ____
 72
    65
 73
     4
 40
47.4
 49
22.0
 74
     4
 75
     0
340
0
 46
0.0
 50
0.0
 44
0.0
 45
0.0
 49
-8.5
 74
     4
 75
     0
340
0
 46
0.0
 50
0.0
 44
0.0
 45
0.0
 49
8.5
 74
     4
 75
     0
340
0
 46
0.0
 50
0.0
 44
0.0
 45
0.0
 49
-8.5
 74
     4
 75
     0
340
0
 46
0.0
 50
0.0
 44
0.0
 45
0.0
  0
LTYPE
  5
6F
330
5
100
AcDbSymbolTableRecord
100
AcDbLinetypeTableRecord
  2
DASHDOT
 70
     0
  3
_._._._._._._._._._._._._._._._.
 72
    65
 73
     4
 40
70.0
 49
31.0
 74
     4
 75
     0
340
0
 46
0.0
 50
0.0
 44
0.0
 45
0.0
 49
-13.0
 74
     4
 75
     0
340
0
 46
0.0
 50
0.0
 44
0.0
 45
0.0
 49
13.0
 74
     4
 75
     0
340
0
 46
0.0
 50
0.0
 44
0.0
 45
0.0
 49
-13.0
 74
     4
 75
     0
340
0
 46
0.0
 50
0.0
 44
0.0
 45
0.0
  0
LTYPE
  5
70
330
5
100
AcDbSymbolTableRecord
100
AcDbLinetypeTableRecord
  2
DASHED
 70
     0
  3
__ __ __ __ __ __ __ __ __
 72
    65
 73
     2
 40
25.72
 49
12.86
 74
     4
 75
     0
340
0
 46
0.0
 50
0.0
 44
0.0
 45
0.0
 49
-12.86
 74
     4
 75
     0
340
0
 46
0.0
 50
0.0
 44
0.0
 45
0.0
  0
LTYPE
  5
71
330
5
100
AcDbSymbolTableRecord
100
AcDbLinetypeTableRecord
  2
DOT
 70
     0
  3
.........................
 72
    65
 73
     2
 40
10.0
 49
0.0
 74
     4
 75
     0
340
0
 46
0.0
 50
0.0
 44
0.0
 45
0.0
 49
-10.0
 74
     4
 75
     0
340
0
 46
0.0
 50
0.0
 44
0.0
 45
0.0
  0
LTYPE
  5
72
330
5
100
AcDbSymbolTableRecord
100
AcDbLinetypeTableRecord
  2
PHANTOM
 70
     0
  3
____ _ _ ____ _ _ _____ _ _ ____
 72
    65
 73
     6
 40
50.5
 49
18.0
 74
     4
 75
     0
340
0
 46
0.0
 50
0.0
 44
0.0
 45
0.0
 49
-6.5
 74
     4
 75
     0
340
0
 46
0.0
 50
0.0
 44
0.0
 45
0.0
 49
6.5
 74
     4
 75
     0
340
0
 46
0.0
 50
0.0
 44
0.0
 45
0.0
 49
-6.5
 74
     4
 75
     0
340
0
 46
0.0
 50
0.0
 44
0.0
 45
0.0
 49
6.5
 74
     4
 75
     0
340
0
 46
0.0
 50
0.0
 44
0.0
 45
0.0
 49
-6.5
 74
     4
 75
     0
340
0
 46
0.0
 50
0.0
 44
0.0
 45
0.0
  0
ENDTAB
  0
TABLE
  2
LAYER
  5
2
330
0
100
AcDbSymbolTable
 70
    14
  0
LAYER
  5
10
102
{ACAD_XDICTIONARY
360
985
102
}
330
2
100
AcDbSymbolTableRecord
100
AcDbLayerTableRecord
  2
0
 70
     0
 62
     7
  6
Continuous
370
    -3
390
F
  0
LAYER
  5
74
102
{ACAD_XDICTIONARY
360
987
102
}
330
2
100
AcDbSymbolTableRecord
100
AcDbLayerTableRecord
  2
250
 70
     0
 62
     7
  6
Continuous
370
    -3
390
F
  0
LAYER
  5
76
102
{ACAD_XDICTIONARY
360
989
102
}
330
2
100
AcDbSymbolTableRecord
100
AcDbLayerTableRecord
  2
41
 70
     0
 62
     7
  6
Continuous
370
    -3
390
F
  0
LAYER
  5
89
102
{ACAD_XDICTIONARY
360
98B
102
}
330
2
100
AcDbSymbolTableRecord
100
AcDbLayerTableRecord
  2
10
 70
     0
 62
     7
  6
Continuous
370
    -3
390
F
  0
LAYER
  5
8E
102
{ACAD_XDICTIONARY
360
98D
102
}
330
2
100
AcDbSymbolTableRecord
100
AcDbLayerTableRecord
  2
15
 70
     0
 62
     7
  6
Continuous
370
    -3
390
F
  0
LAYER
  5
B3
102
{ACAD_XDICTIONARY
360
98F
102
}
330
2
100
AcDbSymbolTableRecord
100
AcDbLayerTableRecord
  2
16
 70
     0
 62
     7
  6
Continuous
370
    -3
390
F
  0
LAYER
  5
1D3
330
2
100
AcDbSymbolTableRecord
100
AcDbLayerTableRecord
  2
Defpoints
 70
     0
 62
     7
  6
Continuous
290
     0
370
    -3
390
F
  0
LAYER
  5
859
102
{ACAD_XDICTIONARY
360
991
102
}
330
2
100
AcDbSymbolTableRecord
100
AcDbLayerTableRecord
  2
1
 70
     0
 62
     4
  6
Continuous
370
    -3
390
F
1001
AcAecLayerStandard
1000

1000

1001
AcCmTransparency
1071
        0
  0
LAYER
  5
85C
102
{ACAD_XDICTIONARY
360
993
102
}
330
2
100
AcDbSymbolTableRecord
100
AcDbLayerTableRecord
  2
2
 70
     0
 62
     7
  6
Continuous
370
    -3
390
F
1001
AcAecLayerStandard
1000

1000

1001
AcCmTransparency
1071
        0
  0
LAYER
  5
85D
102
{ACAD_XDICTIONARY
360
995
102
}
330
2
100
AcDbSymbolTableRecord
100
AcDbLayerTableRecord
  2
SK1
 70
     0
 62
     4
  6
Continuous
370
    -3
390
F
1001
AcAecLayerStandard
1000

1000

1001
AcCmTransparency
1071
        0
  0
LAYER
  5
85E
102
{ACAD_XDICTIONARY
360
997
102
}
330
2
100
AcDbSymbolTableRecord
100
AcDbLayerTableRecord
  2
SK2
 70
     0
 62
     7
  6
Continuous
370
    -3
390
F
1001
AcAecLayerStandard
1000

1000

1001
AcCmTransparency
1071
        0
  0
LAYER
  5
85F
102
{ACAD_XDICTIONARY
360
999
102
}
330
2
100
AcDbSymbolTableRecord
100
AcDbLayerTableRecord
  2
SK6
 70
     0
 62
     5
  6
Continuous
370
    -3
390
F
1001
AcAecLayerStandard
1000

1000

1001
AcCmTransparency
1071
        0
  0
LAYER
  5
860
102
{ACAD_XDICTIONARY
360
99B
102
}
330
2
100
AcDbSymbolTableRecord
100
AcDbLayerTableRecord
  2
CUT
 70
     0
 62
     1
  6
Continuous
370
    -3
390
F
1001
AcAecLayerStandard
1000

1000

1001
AcCmTransparency
1071
        0
  0
LAYER
  5
861
102
{ACAD_XDICTIONARY
360
99D
102
}
330
2
100
AcDbSymbolTableRecord
100
AcDbLayerTableRecord
  2
NOCUT
 70
     0
 62
     7
  6
Continuous
370
    -3
390
F
1001
AcAecLayerStandard
1000

1000

1001
AcCmTransparency
1071
        0
  0
ENDTAB
  0
TABLE
  2
STYLE
  5
3
330
0
100
AcDbSymbolTable
 70
     4
  0
STYLE
  5
11
330
3
100
AcDbSymbolTableRecord
100
AcDbTextStyleTableRecord
  2
Standard
 70
     0
 40
0.0
 41
1.0
 50
0.0
 71
     0
 42
0.2
  3
txt
  4

  0
STYLE
  5
1A2
330
3
100
AcDbSymbolTableRecord
100
AcDbTextStyleTableRecord
  2
blockfont
 70
     0
 40
0.0
 41
1.0
 50
0.0
 71
     0
 42
0.2
  3
simplex.shx
  4

  0
STYLE
  5
1A3
330
3
100
AcDbSymbolTableRecord
100
AcDbTextStyleTableRecord
  2
DWGDirectTextStyle
 70
     0
 40
0.0
 41
1.0
 50
0.0
 71
     0
 42
0.2
  3
simplex
  4

  0
STYLE
  5
1AE
330
3
100
AcDbSymbolTableRecord
100
AcDbTextStyleTableRecord
  2
iso_b_vert
 70
     0
 40
0.0
 41
1.0
 50
0.0
 71
     0
 42
0.2
  3
simplex.shx
  4

  0
ENDTAB
  0
TABLE
  2
VIEW
  5
6
330
0
100
AcDbSymbolTable
 70
     0
  0
ENDTAB
  0
TABLE
  2
UCS
  5
7
330
0
100
AcDbSymbolTable
 70
     0
  0
ENDTAB
  0
TABLE
  2
APPID
  5
9
330
0
100
AcDbSymbolTable
 70
    12
  0
APPID
  5
12
330
9
100
AcDbSymbolTableRecord
100
AcDbRegAppTableRecord
  2
ACAD
 70
     0
  0
APPID
  5
1CF
330
9
100
AcDbSymbolTableRecord
100
AcDbRegAppTableRecord
  2
ACAD_DSTYLE_DIMBREAK
 70
     0
  0
APPID
  5
1EA
330
9
100
AcDbSymbolTableRecord
100
AcDbRegAppTableRecord
  2
ACAD_DSTYLE_DIMANGULAR_EXTENSION
 70
     0
  0
APPID
  5
3E2
330
9
100
AcDbSymbolTableRecord
100
AcDbRegAppTableRecord
  2
ACAD_DSTYLE_DIM_LINETYPE
 70
     0
  0
APPID
  5
3E3
330
9
100
AcDbSymbolTableRecord
100
AcDbRegAppTableRecord
  2
ACAD_DSTYLE_DIM_EXT1_LINETYPE
 70
     0
  0
APPID
  5
3E4
330
9
100
AcDbSymbolTableRecord
100
AcDbRegAppTableRecord
  2
ACAD_DSTYLE_DIM_EXT2_LINETYPE
 70
     0
  0
APPID
  5
424
330
9
100
AcDbSymbolTableRecord
100
AcDbRegAppTableRecord
  2
ACAD_MLEADERVER
 70
     0
  0
APPID
  5
488
330
9
100
AcDbSymbolTableRecord
100
AcDbRegAppTableRecord
  2
AcadAnnoMonitorAlertIconDisabled
 70
     0
  0
APPID
  5
489
330
9
100
AcDbSymbolTableRecord
100
AcDbRegAppTableRecord
  2
ACAD_EXEMPT_FROM_CAD_STANDARDS
 70
     0
  0
APPID
  5
85A
330
9
100
AcDbSymbolTableRecord
100
AcDbRegAppTableRecord
  2
AcAecLayerStandard
 70
     0
  0
APPID
  5
85B
330
9
100
AcDbSymbolTableRecord
100
AcDbRegAppTableRecord
  2
AcCmTransparency
 70
     0
  0
APPID
  5
9A6
330
9
100
AcDbSymbolTableRecord
100
AcDbRegAppTableRecord
  2
ACAD_NAV_VCDISPLAY
 70
     0
  0
ENDTAB
  0
TABLE
  2
DIMSTYLE
  5
A
330
0
100
AcDbSymbolTable
 70
     1
100
AcDbDimStyleTable
 71
     0
  0
DIMSTYLE
105
27
102
{ACAD_REACTORS
330
1D0
330
1E9
330
21B
330
265
102
}
330
A
100
AcDbSymbolTableRecord
100
AcDbDimStyleTableRecord
  2
Standard
 70
     0
340
11
1001
ACAD_DSTYLE_DIMBREAK
1070
   391
1040
6.349999999999999
  0
ENDTAB
  0
TABLE
  2
BLOCK_RECORD
  5
1
330
0
100
AcDbSymbolTable
 70
    24
  0
BLOCK_RECORD
  5
1F
102
{ACAD_XDICTIONARY
360
8EA
102
}
330
1
100
AcDbSymbolTableRecord
100
AcDbBlockTableRecord
  2
*Model_Space
340
22
  0
BLOCK_RECORD
  5
1B
330
1
100
AcDbSymbolTableRecord
100
AcDbBlockTableRecord
  2
*Paper_Space
340
1E
  0
BLOCK_RECORD
  5
23
330
1
100
AcDbSymbolTableRecord
100
AcDbBlockTableRecord
  2
*Paper_Space0
340
26
  0
BLOCK_RECORD
  5
1B3
330
1
100
AcDbSymbolTableRecord
100
AcDbBlockTableRecord
  2
LABLE3D_1
340
0
  0
BLOCK_RECORD
  5
1BC
330
1
100
AcDbSymbolTableRecord
100
AcDbBlockTableRecord
  2
LABLE3D_2
340
0
  0
BLOCK_RECORD
  5
1C6
330
1
100
AcDbSymbolTableRecord
100
AcDbBlockTableRecord
  2
LABLE3D_3
340
0
  0
BLOCK_RECORD
  5
1D4
330
1
100
AcDbSymbolTableRecord
100
AcDbBlockTableRecord
  2
*D4
340
0
  0
BLOCK_RECORD
  5
1E0
330
1
100
AcDbSymbolTableRecord
100
AcDbBlockTableRecord
  2
_U0
340
0
  0
BLOCK_RECORD
  5
1ED
330
1
100
AcDbSymbolTableRecord
100
AcDbBlockTableRecord
  2
*D6
340
0
  0
BLOCK_RECORD
  5
1FA
330
1
100
AcDbSymbolTableRecord
100
AcDbBlockTableRecord
  2
_U1
340
0
  0
BLOCK_RECORD
  5
206
330
1
100
AcDbSymbolTableRecord
100
AcDbBlockTableRecord
  2
*D8
340
0
  0
BLOCK_RECORD
  5
212
330
1
100
AcDbSymbolTableRecord
100
AcDbBlockTableRecord
  2
_U2
340
0
  0
BLOCK_RECORD
  5
21E
330
1
100
AcDbSymbolTableRecord
100
AcDbBlockTableRecord
  2
*D10
340
0
  0
BLOCK_RECORD
  5
22A
330
1
100
AcDbSymbolTableRecord
100
AcDbBlockTableRecord
  2
_U3
340
0
  0
BLOCK_RECORD
  5
236
330
1
100
AcDbSymbolTableRecord
100
AcDbBlockTableRecord
  2
*D12
340
0
  0
BLOCK_RECORD
  5
242
330
1
100
AcDbSymbolTableRecord
100
AcDbBlockTableRecord
  2
_U4
340
0
  0
BLOCK_RECORD
  5
24F
330
1
100
AcDbSymbolTableRecord
100
AcDbBlockTableRecord
  2
*D14
340
0
  0
BLOCK_RECORD
  5
25B
330
1
100
AcDbSymbolTableRecord
100
AcDbBlockTableRecord
  2
_U5
340
0
  0
BLOCK_RECORD
  5
268
330
1
100
AcDbSymbolTableRecord
100
AcDbBlockTableRecord
  2
*D16
340
0
  0
BLOCK_RECORD
  5
274
330
1
100
AcDbSymbolTableRecord
100
AcDbBlockTableRecord
  2
_U6
340
0
  0
BLOCK_RECORD
  5
27D
330
1
100
AcDbSymbolTableRecord
100
AcDbBlockTableRecord
  2
TOL_TABLE
340
0
  0
BLOCK_RECORD
  5
2BF
330
1
100
AcDbSymbolTableRecord
100
AcDbBlockTableRecord
  2
MODIFICATION_TABLE
340
0
  0
BLOCK_RECORD
  5
2E3
330
1
100
AcDbSymbolTableRecord
100
AcDbBlockTableRecord
  2
BOM
340
0
  0
BLOCK_RECORD
  5
334
330
1
100
AcDbSymbolTableRecord
100
AcDbBlockTableRecord
  2
TabularNote1
340
0
  0
BLOCK_RECORD
  5
355
330
1
100
AcDbSymbolTableRecord
100
AcDbBlockTableRecord
  2
TabularNote2
340
0
  0
BLOCK_RECORD
  5
397
330
1
100
AcDbSymbolTableRecord
100
AcDbBlockTableRecord
  2
TabularNote3
340
0
  0
ENDTAB
  0
ENDSEC
  0
SECTION
  2
BLOCKS
  0
BLOCK
  5
20
330
1F
100
AcDbEntity
  8
0
100
AcDbBlockBegin
  2
*Model_Space
 70
     0
 10
0.0
 20
0.0
 30
0.0
  3
*Model_Space
  1

  0
ENDBLK
  5
21
330
1F
100
AcDbEntity
  8
0
100
AcDbBlockEnd
  0
BLOCK
  5
1C
330
1B
100
AcDbEntity
 67
     1
  8
0
100
AcDbBlockBegin
  2
*Paper_Space
 70
     0
 10
0.0
 20
0.0
 30
0.0
  3
*Paper_Space
  1

  0
ENDBLK
  5
1D
330
1B
100
AcDbEntity
 67
     1
  8
0
100
AcDbBlockEnd
  0
BLOCK
  5
24
330
23
100
AcDbEntity
 67
     1
  8
0
100
AcDbBlockBegin
  2
*Paper_Space0
 70
     0
 10
0.0
 20
0.0
 30
0.0
  3
*Paper_Space0
  1

  0
ENDBLK
  5
25
330
23
100
AcDbEntity
 67
     1
  8
0
100
AcDbBlockEnd
  0
BLOCK
  5
1BA
330
1B3
100
AcDbEntity
  8
0
100
AcDbBlockBegin
  2
LABLE3D_1
 70
     0
 10
42.67904699999999
 20
72.47579499999999
 30
0.0
  3
LABLE3D_1
  1

  0
MTEXT
  5
1B8
330
1B3
100
AcDbEntity
  8
41
  6
Continuous
 62
     3
370
    18
100
AcDbMText
 10
39.99621900000001
 20
70.36091
 30
0.0
 40
3.0
 41
0.0
 71
     7
 72
     5
  1
\W0.6563;2
  7
iso_b_vert
 73
     2
 44
1.084337
1001
ACAD
1000
MTEXTBEGIN
1070
    73
1070
     2
1070
    44
1040
1.084337
1070
    74
1070
     0
1000
MTEXTEND
  0
ENDBLK
  5
1BB
330
1B3
100
AcDbEntity
  8
0
100
AcDbBlockEnd
  0
BLOCK
  5
1C3
330
1BC
100
AcDbEntity
  8
0
100
AcDbBlockBegin
  2
LABLE3D_2
 70
     0
 10
42.67904699999999
 20
54.302578
 30
0.0
  3
LABLE3D_2
  1

  0
MTEXT
  5
1C1
330
1BC
100
AcDbEntity
  8
41
  6
Continuous
 62
     3
370
    18
100
AcDbMText
 10
39.99621900000001
 20
52.187692
 30
0.0
 40
3.0
 41
0.0
 71
     7
 72
     5
  1
\W0.6563;3
  7
iso_b_vert
 73
     2
 44
1.084337
1001
ACAD
1000
MTEXTBEGIN
1070
    73
1070
     2
1070
    44
1040
1.084337
1070
    74
1070
     0
1000
MTEXTEND
  0
ENDBLK
  5
1C4
330
1BC
100
AcDbEntity
  8
0
100
AcDbBlockEnd
  0
BLOCK
  5
1CD
330
1C6
100
AcDbEntity
  8
0
100
AcDbBlockBegin
  2
LABLE3D_3
 70
     0
 10
108.108638
 20
104.514054
 30
0.0
  3
LABLE3D_3
  1

  0
MTEXT
  5
1CB
330
1C6
100
AcDbEntity
  8
41
  6
Continuous
 62
     3
370
    18
100
AcDbMText
 10
106.175695
 20
102.399168
 30
0.0
 40
3.0
 41
0.0
 71
     7
 72
     5
  1
\W0.7875;1
  7
iso_b_vert
 73
     2
 44
1.084337
1001
ACAD
1000
MTEXTBEGIN
1070
    73
1070
     2
1070
    44
1040
1.084337
1070
    74
1070
     0
1000
MTEXTEND
  0
ENDBLK
  5
1CE
330
1C6
100
AcDbEntity
  8
0
100
AcDbBlockEnd
  0
BLOCK
  5
1D5
330
1D4
100
AcDbEntity
  8
0
100
AcDbBlockBegin
  2
*D4
 70
     1
 10
0.0
 20
0.0
 30
0.0
  3
*D4
  1

  0
LINE
  5
1D7
330
1D4
100
AcDbEntity
  8
0
 62
     4
370
    -2
100
AcDbLine
 10
284.32717
 20
187.150547
 30
0.0
 11
284.32717
 21
165.555106
 31
0.0
  0
LINE
  5
1D8
330
1D4
100
AcDbEntity
  8
0
 62
     4
370
    -2
100
AcDbLine
 10
159.32717
 20
181.476645
 30
0.0
 11
159.32717
 21
165.555106
 31
0.0
  0
LINE
  5
1D9
330
1D4
100
AcDbEntity
  8
0
 62
     4
370
    -2
100
AcDbLine
 10
281.15217
 20
167.555106
 30
0.0
 11
162.50217
 21
167.555106
 31
0.0
  0
SOLID
  5
1DA
330
1D4
100
AcDbEntity
  8
0
 62
     4
100
AcDbTrace
 10
281.15217
 20
167.02594
 30
0.0
 11
281.15217
 21
168.084273
 31
0.0
 12
284.32717
 22
167.555106
 32
0.0
 13
284.32717
 23
167.555106
 33
0.0
  0
SOLID
  5
1DB
330
1D4
100
AcDbEntity
  8
0
 62
     4
100
AcDbTrace
 10
162.50217
 20
168.084273
 30
0.0
 11
162.50217
 21
167.02594
 31
0.0
 12
159.32717
 22
167.555106
 32
0.0
 13
159.32717
 23
167.555106
 33
0.0
  0
MTEXT
  5
1DC
330
1D4
100
AcDbEntity
  8
0
 62
     3
370
    13
100
AcDbMText
 10
221.82717
 20
173.555106
 30
0.0
 40
3.0
 41
0.0
 71
     5
 72
     1
  1
\A1;125
  7
iso_b_vert
 73
     1
 44
1.0
1001
ACAD
1000
MTEXTBEGIN
1070
    73
1070
     1
1070
    44
1040
1.0
1070
    74
1070
     0
1000
MTEXTEND
  0
POINT
  5
1DD
330
1D4
100
AcDbEntity
  8
Defpoints
 62
     0
100
AcDbPoint
 10
284.32717
 20
187.150547
 30
0.0
  0
POINT
  5
1DE
330
1D4
100
AcDbEntity
  8
Defpoints
 62
     0
100
AcDbPoint
 10
159.32717
 20
181.476645
 30
0.0
  0
POINT
  5
1DF
330
1D4
100
AcDbEntity
  8
Defpoints
 62
     0
100
AcDbPoint
 10
159.32717
 20
167.555106
 30
0.0
  0
ENDBLK
  5
1D6
330
1D4
100
AcDbEntity
  8
0
100
AcDbBlockEnd
  0
BLOCK
  5
1E7
330
1E0
100
AcDbEntity
  8
0
100
AcDbBlockBegin
  2
_U0
 70
     0
 10
0.0
 20
0.0
 30
0.0
  3
_U0
  1

  0
LINE
  5
97C
330
1E0
100
AcDbEntity
  8
SK2
  6
Continuous
370
    13
100
AcDbLine
 10
144.4216080966875
 20
27.48365619880448
 30
0.0
 11
144.4216080966875
 21
8.72964472689398
 31
0.0
  0
LINE
  5
97D
330
1E0
100
AcDbEntity
  8
SK2
  6
Continuous
370
    13
100
AcDbLine
 10
19.42160809668756
 20
27.88065606127962
 30
0.0
 11
19.42160809668756
 21
8.72964472689398
 31
0.0
  0
LINE
  5
97E
330
1E0
100
AcDbEntity
  8
SK2
  6
Continuous
370
    13
100
AcDbLine
 10
141.2466080966875
 20
10.72964472689398
 30
0.0
 11
22.59660809668757
 21
10.72964472689398
 31
0.0
  0
SOLID
  5
97F
330
1E0
100
AcDbEntity
  8
SK2
  6
Continuous
370
    13
100
AcDbTrace
 10
141.2466080966875
 20
11.25881139356065
 30
0.0
 11
141.2466080966875
 21
10.20047806022731
 31
0.0
 12
144.4216080966875
 22
10.72964472689398
 32
0.0
 13
144.4216080966875
 23
10.72964472689398
 33
0.0
  0
SOLID
  5
980
330
1E0
100
AcDbEntity
  8
SK2
  6
Continuous
370
    13
100
AcDbTrace
 10
22.59660809668757
 20
11.25881139356065
 30
0.0
 11
22.59660809668757
 21
10.20047806022731
 31
0.0
 12
19.42160809668756
 22
10.72964472689398
 32
0.0
 13
19.42160809668756
 23
10.72964472689398
 33
0.0
  0
MTEXT
  5
981
330
1E0
100
AcDbEntity
  8
SK2
  6
Continuous
370
    18
100
AcDbMText
 10
77.62017672396779
 20
15.22964472689398
 30
0.0
 40
3.0
 41
0.0
 71
     1
 72
     1
  1
\A1;125
  7
iso_b_vert
 73
     1
 44
1.0
1001
ACAD
1000
MTEXTBEGIN
1070
    73
1070
     1
1070
    44
1040
1.0
1070
    74
1070
     0
1000
MTEXTEND
  0
POINT
  5
982
330
1E0
100
AcDbEntity
  8
Defpoints
  6
Continuous
 62
     0
370
    13
100
AcDbPoint
 10
144.4216080966875
 20
27.48365619880448
 30
0.0
  0
POINT
  5
983
330
1E0
100
AcDbEntity
  8
Defpoints
  6
Continuous
 62
     0
370
    13
100
AcDbPoint
 10
19.42160809668756
 20
27.88065606127962
 30
0.0
  0
POINT
  5
984
330
1E0
100
AcDbEntity
  8
Defpoints
  6
Continuous
 62
     0
370
    13
100
AcDbPoint
 10
19.42160809668756
 20
10.72964472689398
 30
0.0
  0
ENDBLK
  5
1E8
330
1E0
100
AcDbEntity
  8
0
100
AcDbBlockEnd
  0
BLOCK
  5
1EE
330
1ED
100
AcDbEntity
  8
0
100
AcDbBlockBegin
  2
*D6
 70
     1
 10
0.0
 20
0.0
 30
0.0
  3
*D6
  1

  0
LINE
  5
1F0
330
1ED
100
AcDbEntity
  8
0
 62
     4
370
    -2
100
AcDbLine
 10
159.32717
 20
180.476645
 30
0.0
 11
159.32717
 21
172.127077
 31
0.0
  0
ARC
  5
1F1
330
1ED
100
AcDbEntity
  8
0
 62
     4
370
    -2
100
AcDbCircle
 10
159.32717
 20
181.058294
 30
0.0
 40
6.931217189887414
100
AcDbArc
 50
296.480677
 51
336.519323
  0
SOLID
  5
1F2
330
1ED
100
AcDbEntity
  8
0
 62
     4
100
AcDbTrace
 10
162.296573
 20
175.369368
 30
0.0
 11
162.53897
 21
174.339167
 31
0.0
 12
159.32717
 22
174.127077
 32
0.0
 13
159.32717
 23
174.127077
 33
0.0
  0
SOLID
  5
1F3
330
1ED
100
AcDbEntity
  8
0
 62
     4
100
AcDbTrace
 10
166.205181
 20
178.202548
 30
0.0
 11
165.163706
 21
178.390696
 31
0.0
 12
166.248888
 22
181.421046
 32
0.0
 13
166.248888
 23
181.421046
 33
0.0
  0
MTEXT
  5
1F4
330
1ED
100
AcDbEntity
  8
0
 62
     3
370
    13
100
AcDbMText
 10
160.002651
 20
180.417287
 30
0.0
 40
3.0
 41
0.0
 71
     5
 72
     1
  1
\A1;93%%d
  7
iso_b_vert
 73
     1
 44
1.0
1001
ACAD
1000
MTEXTBEGIN
1070
    73
1070
     1
1070
    44
1040
1.0
1070
    74
1070
     0
1000
MTEXTEND
  0
POINT
  5
1F5
330
1ED
100
AcDbEntity
  8
Defpoints
 62
     0
100
AcDbPoint
 10
162.89701
 20
175.117082
 30
0.0
  0
POINT
  5
1F6
330
1ED
100
AcDbEntity
  8
Defpoints
 62
     0
100
AcDbPoint
 10
159.32717
 20
181.476645
 30
0.0
  0
POINT
  5
1F7
330
1ED
100
AcDbEntity
  8
Defpoints
 62
     0
100
AcDbPoint
 10
159.744947
 20
181.080189
 30
0.0
  0
POINT
  5
1F8
330
1ED
100
AcDbEntity
  8
Defpoints
 62
     0
100
AcDbPoint
 10
169.418262
 20
181.587146
 30
0.0
  0
POINT
  5
1F9
330
1ED
100
AcDbEntity
  8
Defpoints
 62
     0
100
AcDbPoint
 10
159.32717
 20
180.476645
 30
0.0
  0
ENDBLK
  5
1EF
330
1ED
100
AcDbEntity
  8
0
100
AcDbBlockEnd
  0
BLOCK
  5
201
330
1FA
100
AcDbEntity
  8
0
100
AcDbBlockBegin
  2
_U1
 70
     0
 10
0.0
 20
0.0
 30
0.0
  3
_U1
  1

  0
LINE
  5
8C6
330
1FA
100
AcDbEntity
  8
2
  6
Continuous
370
    13
100
AcDbLine
 10
19.42160809668754
 20
26.88065619880447
 30
0.0
 11
19.42160809668751
 21
13.3781925521295
 31
0.0
  0
LINE
  5
8C7
330
1FA
100
AcDbEntity
  8
2
  6
Continuous
370
    13
100
AcDbLine
 10
29.51270009668755
 20
27.99115719880448
 30
0.0
 11
33.48641918627178
 21
28.1994110092612
 31
0.0
  0
ARC
  5
8C8
330
1FA
100
AcDbEntity
  8
2
  6
Continuous
370
    13
100
AcDbCircle
 10
19.42160809668754
 20
27.4623054321615
 30
0.0
 40
12.084112880032
100
AcDbArc
 50
285.0976296148415
 51
347.9023706364633
  0
SOLID
  5
8C9
330
1FA
100
AcDbEntity
  8
2
  6
Continuous
370
    13
100
AcDbTrace
 10
22.63860837827313
 20
15.27071441765925
 30
0.0
 11
22.49957424450209
 21
16.31987548922595
 31
0.0
 12
19.42160809668752
 22
15.3781925521295
 32
0.0
 13
19.42160809668752
 23
15.3781925521295
 33
0.0
  0
SOLID
  5
8CA
330
1FA
100
AcDbEntity
  8
2
  6
Continuous
370
    13
100
AcDbTrace
 10
30.70985603918999
 20
24.97170730542403
 30
0.0
 11
31.76485575668072
 21
24.88777256566191
 31
0.0
 12
31.48916011722173
 22
28.09473908801514
 32
0.0
 13
31.48916011722173
 23
28.09473908801514
 33
0.0
  0
MTEXT
  5
8CB
330
1FA
100
AcDbEntity
  8
2
  6
Continuous
370
    18
100
AcDbMText
 10
23.64386338868733
 20
20.42178844498966
 30
0.0
 40
3.0
 41
0.0
 71
     1
 72
     1
  1
\A1;93°
  7
iso_b_vert
 11
0.5953756946799143
 21
0.8034474358565153
 31
0.0
 73
     1
 44
1.0
1001
ACAD
1000
MTEXTBEGIN
1070
    73
1070
     1
1070
    44
1040
1.0
1070
    74
1070
     0
1000
MTEXTEND
  0
POINT
  5
8CC
330
1FA
100
AcDbEntity
  8
Defpoints
  6
Continuous
 62
     0
370
    13
100
AcDbPoint
 10
25.64538634655889
 20
17.1041990225042
 30
0.0
  0
POINT
  5
8CD
330
1FA
100
AcDbEntity
  8
Defpoints
  6
Continuous
 62
     0
370
    13
100
AcDbPoint
 10
19.42160809668755
 20
27.88065619880447
 30
0.0
  0
POINT
  5
8CE
330
1FA
100
AcDbEntity
  8
Defpoints
  6
Continuous
 62
     0
370
    13
100
AcDbPoint
 10
19.83938509668755
 20
27.48420019880447
 30
0.0
  0
POINT
  5
8CF
330
1FA
100
AcDbEntity
  8
Defpoints
  6
Continuous
 62
     0
370
    13
100
AcDbPoint
 10
29.51270009668755
 20
27.99115719880448
 30
0.0
  0
POINT
  5
8D0
330
1FA
100
AcDbEntity
  8
Defpoints
  6
Continuous
 62
     0
370
    13
100
AcDbPoint
 10
19.42160809668754
 20
26.88065619880447
 30
0.0
  0
ENDBLK
  5
202
330
1FA
100
AcDbEntity
  8
0
100
AcDbBlockEnd
  0
BLOCK
  5
207
330
206
100
AcDbEntity
  8
0
100
AcDbBlockBegin
  2
*D8
 70
     1
 10
0.0
 20
0.0
 30
0.0
  3
*D8
  1

  0
LINE
  5
209
330
206
100
AcDbEntity
  8
0
  6
Continuous
 62
     4
370
    -2
100
AcDbLine
 10
143.136443
 20
264.352146
 30
0.0
 11
143.136443
 21
276.421908
 31
0.0
  0
LINE
  5
20A
330
206
100
AcDbEntity
  8
0
  6
Continuous
 62
     4
370
    -2
100
AcDbLine
 10
96.82831100000001
 20
264.352146
 30
0.0
 11
96.82831100000001
 21
276.421908
 31
0.0
  0
LINE
  5
20B
330
206
100
AcDbEntity
  8
0
  6
Continuous
 62
     4
370
    -2
100
AcDbLine
 10
139.961443
 20
274.421908
 30
0.0
 11
100.003311
 21
274.421908
 31
0.0
  0
SOLID
  5
20C
330
206
100
AcDbEntity
  8
0
 62
     4
100
AcDbTrace
 10
139.961443
 20
273.892741
 30
0.0
 11
139.961443
 21
274.951075
 31
0.0
 12
143.136443
 22
274.421908
 32
0.0
 13
143.136443
 23
274.421908
 33
0.0
  0
SOLID
  5
20D
330
206
100
AcDbEntity
  8
0
 62
     4
100
AcDbTrace
 10
100.003311
 20
274.951075
 30
0.0
 11
100.003311
 21
273.892741
 31
0.0
 12
96.82831100000001
 22
274.421908
 32
0.0
 13
96.82831100000001
 23
274.421908
 33
0.0
  0
MTEXT
  5
20E
330
206
100
AcDbEntity
  8
0
 62
     3
370
    13
100
AcDbMText
 10
115.410948
 20
279.493337
 30
0.0
 40
3.0
 41
0.0
 71
     1
 72
     1
  1
\A1;23,2
  7
iso_b_vert
 73
     1
 44
1.0
1001
ACAD
1000
MTEXTBEGIN
1070
    73
1070
     1
1070
    44
1040
1.0
1070
    74
1070
     0
1000
MTEXTEND
  0
POINT
  5
20F
330
206
100
AcDbEntity
  8
Defpoints
 62
     0
100
AcDbPoint
 10
143.136443
 20
264.352146
 30
0.0
  0
POINT
  5
210
330
206
100
AcDbEntity
  8
Defpoints
 62
     0
100
AcDbPoint
 10
96.82831100000001
 20
264.352146
 30
0.0
  0
POINT
  5
211
330
206
100
AcDbEntity
  8
Defpoints
 62
     0
100
AcDbPoint
 10
96.82831100000001
 20
274.421908
 30
0.0
  0
ENDBLK
  5
208
330
206
100
AcDbEntity
  8
0
100
AcDbBlockEnd
  0
BLOCK
  5
219
330
212
100
AcDbEntity
  8
0
100
AcDbBlockBegin
  2
_U2
 70
     0
 10
0.0
 20
0.0
 30
0.0
  3
_U2
  1

  0
MTEXT
  5
213
330
212
100
AcDbEntity
  8
41
  6
Continuous
 62
     3
370
    18
100
AcDbMText
 10
113.699892
 20
276.619523
 30
0.0
 40
3.0
 41
0.0
 71
     7
 72
     5
  1
\W1.0635;{\H1.88x;(}23,2{\H1.88x;)}
  7
iso_b_vert
 73
     2
 44
0.9879520000000001
1001
ACAD
1000
MTEXTBEGIN
1070
    73
1070
     2
1070
    44
1040
0.9879520000000001
1070
    74
1070
     0
1000
MTEXTEND
  0
LINE
  5
214
330
212
100
AcDbEntity
  8
41
 62
     4
370
    13
100
AcDbLine
 10
143.136443
 20
264.352146
 30
0.0
 11
143.136443
 21
276.421908
 31
0.0
  0
LINE
  5
215
330
212
100
AcDbEntity
  8
41
 62
     4
370
    13
100
AcDbLine
 10
96.82831100000001
 20
264.352146
 30
0.0
 11
96.82831100000001
 21
276.421908
 31
0.0
  0
LINE
  5
216
330
212
100
AcDbEntity
  8
41
 62
     4
370
    13
100
AcDbLine
 10
143.136443
 20
274.421908
 30
0.0
 11
96.82831100000001
 21
274.421908
 31
0.0
  0
SOLID
  5
217
330
212
100
AcDbEntity
  8
41
 62
     4
370
    13
100
AcDbTrace
 10
143.136443
 20
274.421908
 30
0.0
 11
139.961444
 21
274.003911
 31
0.0
 12
139.961441
 22
274.839905
 32
0.0
 13
139.961441
 23
274.839905
 33
0.0
  0
SOLID
  5
218
330
212
100
AcDbEntity
  8
41
 62
     4
370
    13
100
AcDbTrace
 10
96.82831100000001
 20
274.421908
 30
0.0
 11
100.00331
 21
274.839905
 31
0.0
 12
100.003313
 22
274.003911
 32
0.0
 13
100.003313
 23
274.003911
 33
0.0
  0
ENDBLK
  5
21A
330
212
100
AcDbEntity
  8
0
100
AcDbBlockEnd
  0
BLOCK
  5
21F
330
21E
100
AcDbEntity
  8
0
100
AcDbBlockBegin
  2
*D10
 70
     1
 10
0.0
 20
0.0
 30
0.0
  3
*D10
  1

  0
LINE
  5
221
330
21E
100
AcDbEntity
  8
0
 62
     4
370
    -2
100
AcDbLine
 10
284.32717
 20
197.079645
 30
0.0
 11
296.632904
 21
197.079645
 31
0.0
  0
LINE
  5
222
330
21E
100
AcDbEntity
  8
0
 62
     4
370
    -2
100
AcDbLine
 10
284.32717
 20
181.079645
 30
0.0
 11
296.632904
 21
181.079645
 31
0.0
  0
LINE
  5
223
330
21E
100
AcDbEntity
  8
0
 62
     4
370
    -2
100
AcDbLine
 10
294.632904
 20
193.904645
 30
0.0
 11
294.632904
 21
184.254645
 31
0.0
  0
SOLID
  5
224
330
21E
100
AcDbEntity
  8
0
 62
     4
100
AcDbTrace
 10
295.162071
 20
193.904645
 30
0.0
 11
294.103737
 21
193.904645
 31
0.0
 12
294.632904
 22
197.079645
 32
0.0
 13
294.632904
 23
197.079645
 33
0.0
  0
SOLID
  5
225
330
21E
100
AcDbEntity
  8
0
 62
     4
100
AcDbTrace
 10
294.103737
 20
184.254645
 30
0.0
 11
295.162071
 21
184.254645
 31
0.0
 12
294.632904
 22
181.079645
 32
0.0
 13
294.632904
 23
181.079645
 33
0.0
  0
MTEXT
  5
226
330
21E
100
AcDbEntity
  8
0
 62
     3
370
    13
100
AcDbMText
 10
288.632904
 20
189.079645
 30
0.0
 40
3.0
 41
0.0
 71
     5
 72
     1
  1
\A1;16
  7
iso_b_vert
 11
0.0
 21
1.0
 31
0.0
 73
     1
 44
1.0
1001
ACAD
1000
MTEXTBEGIN
1070
    73
1070
     1
1070
    44
1040
1.0
1070
    74
1070
     0
1000
MTEXTEND
  0
POINT
  5
227
330
21E
100
AcDbEntity
  8
Defpoints
 62
     0
100
AcDbPoint
 10
284.32717
 20
197.079645
 30
0.0
  0
POINT
  5
228
330
21E
100
AcDbEntity
  8
Defpoints
 62
     0
100
AcDbPoint
 10
284.32717
 20
181.079645
 30
0.0
  0
POINT
  5
229
330
21E
100
AcDbEntity
  8
Defpoints
 62
     0
100
AcDbPoint
 10
294.632904
 20
181.079645
 30
0.0
  0
ENDBLK
  5
220
330
21E
100
AcDbEntity
  8
0
100
AcDbBlockEnd
  0
BLOCK
  5
231
330
22A
100
AcDbEntity
  8
0
100
AcDbBlockBegin
  2
_U3
 70
     0
 10
0.0
 20
0.0
 30
0.0
  3
_U3
  1

  0
LINE
  5
973
330
22A
100
AcDbEntity
  8
SK2
  6
Continuous
370
    13
100
AcDbLine
 10
144.4216080966876
 20
43.48365619880449
 30
0.0
 11
156.7273420966875
 21
43.48365619880449
 31
0.0
  0
LINE
  5
974
330
22A
100
AcDbEntity
  8
SK2
  6
Continuous
370
    13
100
AcDbLine
 10
144.4216080966876
 20
27.4836561988045
 30
0.0
 11
156.7273420966875
 21
27.4836561988045
 31
0.0
  0
LINE
  5
975
330
22A
100
AcDbEntity
  8
SK2
  6
Continuous
370
    13
100
AcDbLine
 10
154.7273420966876
 20
40.3086561988045
 30
0.0
 11
154.7273420966876
 21
30.6586561988045
 31
0.0
  0
SOLID
  5
976
330
22A
100
AcDbEntity
  8
SK2
  6
Continuous
370
    13
100
AcDbTrace
 10
154.1981754300209
 20
40.3086561988045
 30
0.0
 11
155.2565087633542
 21
40.3086561988045
 31
0.0
 12
154.7273420966876
 22
43.48365619880449
 32
0.0
 13
154.7273420966876
 23
43.48365619880449
 33
0.0
  0
SOLID
  5
977
330
22A
100
AcDbEntity
  8
SK2
  6
Continuous
370
    13
100
AcDbTrace
 10
154.1981754300209
 20
30.6586561988045
 30
0.0
 11
155.2565087633542
 21
30.6586561988045
 31
0.0
 12
154.7273420966876
 22
27.4836561988045
 32
0.0
 13
154.7273420966876
 23
27.4836561988045
 33
0.0
  0
MTEXT
  5
978
330
22A
100
AcDbEntity
  8
SK2
  6
Continuous
370
    18
100
AcDbMText
 10
150.2273420966875
 20
33.41222762737591
 30
0.0
 40
3.0
 41
0.0
 71
     1
 72
     1
  1
\A1;16
  7
iso_b_vert
 11
0.0000000000000001
 21
1.0
 31
0.0
 73
     1
 44
1.0
1001
ACAD
1000
MTEXTBEGIN
1070
    73
1070
     1
1070
    44
1040
1.0
1070
    74
1070
     0
1000
MTEXTEND
  0
POINT
  5
979
330
22A
100
AcDbEntity
  8
Defpoints
  6
Continuous
 62
     0
370
    13
100
AcDbPoint
 10
144.4216080966876
 20
43.48365619880449
 30
0.0
  0
POINT
  5
97A
330
22A
100
AcDbEntity
  8
Defpoints
  6
Continuous
 62
     0
370
    13
100
AcDbPoint
 10
144.4216080966876
 20
27.4836561988045
 30
0.0
  0
POINT
  5
97B
330
22A
100
AcDbEntity
  8
Defpoints
  6
Continuous
 62
     0
370
    13
100
AcDbPoint
 10
154.7273420966876
 20
27.4836561988045
 30
0.0
  0
ENDBLK
  5
232
330
22A
100
AcDbEntity
  8
0
100
AcDbBlockEnd
  0
BLOCK
  5
237
330
236
100
AcDbEntity
  8
0
100
AcDbBlockBegin
  2
*D12
 70
     1
 10
0.0
 20
0.0
 30
0.0
  3
*D12
  1

  0
LINE
  5
239
330
236
100
AcDbEntity
  8
0
  6
Continuous
 62
     4
370
    -2
100
AcDbLine
 10
193.447274
 20
232.352146
 30
0.0
 11
89.86414100000001
 21
232.352146
 31
0.0
  0
LINE
  5
23A
330
236
100
AcDbEntity
  8
0
  6
Continuous
 62
     4
370
    -2
100
AcDbLine
 10
96.82831100000001
 20
264.352146
 30
0.0
 11
89.86414100000001
 21
264.352146
 31
0.0
  0
LINE
  5
23B
330
236
100
AcDbEntity
  8
0
  6
Continuous
 62
     4
370
    -2
100
AcDbLine
 10
91.864141
 20
235.527146
 30
0.0
 11
91.864141
 21
261.177146
 31
0.0
  0
SOLID
  5
23C
330
236
100
AcDbEntity
  8
0
 62
     4
100
AcDbTrace
 10
91.33497400000001
 20
235.527146
 30
0.0
 11
92.393307
 21
235.527146
 31
0.0
 12
91.864141
 22
232.352146
 32
0.0
 13
91.864141
 23
232.352146
 33
0.0
  0
SOLID
  5
23D
330
236
100
AcDbEntity
  8
0
 62
     4
100
AcDbTrace
 10
92.393307
 20
261.177146
 30
0.0
 11
91.33497400000001
 21
261.177146
 31
0.0
 12
91.864141
 22
264.352146
 32
0.0
 13
91.864141
 23
264.352146
 33
0.0
  0
MTEXT
  5
23E
330
236
100
AcDbEntity
  8
0
 62
     3
370
    13
100
AcDbMText
 10
86.792712
 20
239.352146
 30
0.0
 40
3.0
 41
0.0
 71
     1
 72
     1
  1
\A1;16%%p0,05
  7
iso_b_vert
 11
0.0
 21
1.0
 31
0.0
 73
     1
 44
1.0
1001
ACAD
1000
MTEXTBEGIN
1070
    73
1070
     1
1070
    44
1040
1.0
1070
    74
1070
     0
1000
MTEXTEND
  0
POINT
  5
23F
330
236
100
AcDbEntity
  8
Defpoints
 62
     0
100
AcDbPoint
 10
193.447274
 20
232.352146
 30
0.0
  0
POINT
  5
240
330
236
100
AcDbEntity
  8
Defpoints
 62
     0
100
AcDbPoint
 10
96.82831100000001
 20
264.352146
 30
0.0
  0
POINT
  5
241
330
236
100
AcDbEntity
  8
Defpoints
 62
     0
100
AcDbPoint
 10
91.864141
 20
264.352146
 30
0.0
  0
ENDBLK
  5
238
330
236
100
AcDbEntity
  8
0
100
AcDbBlockEnd
  0
BLOCK
  5
24A
330
242
100
AcDbEntity
  8
0
100
AcDbBlockBegin
  2
_U4
 70
     0
 10
0.0
 20
0.0
 30
0.0
  3
_U4
  1

  0
MTEXT
  5
243
330
242
100
AcDbEntity
  8
41
  6
Continuous
 62
     3
370
    18
100
AcDbMText
 10
91.273026
 20
240.178776
 30
0.0
 40
3.0
 41
0.0
 71
     7
 72
     5
  1
\W0.6789;16
  7
iso_b_vert
 11
0.0000000000000001
 21
1.0
 31
0.0
 73
     2
 44
0.9879520000000001
1001
ACAD
1000
MTEXTBEGIN
1070
    73
1070
     2
1070
    44
1040
0.9879520000000001
1070
    74
1070
     0
1000
MTEXTEND
  0
MTEXT
  5
244
330
242
100
AcDbEntity
  8
41
  6
Continuous
 62
     3
370
    18
100
AcDbMText
 10
91.273026
 20
246.012547
 30
0.0
 40
3.0
 41
0.0
 71
     7
 72
     5
  1
\W0.8385;\W0.4193;%%p\W0.8385;0,05
  7
iso_b_vert
 11
0.0000000000000001
 21
1.0
 31
0.0
 73
     2
 44
0.9879520000000001
1001
ACAD
1000
MTEXTBEGIN
1070
    73
1070
     2
1070
    44
1040
0.9879520000000001
1070
    74
1070
     0
1000
MTEXTEND
  0
LINE
  5
245
330
242
100
AcDbEntity
  8
41
 62
     4
370
    13
100
AcDbLine
 10
96.82831100000001
 20
264.352146
 30
0.0
 11
89.86414100000001
 21
264.352146
 31
0.0
  0
LINE
  5
246
330
242
100
AcDbEntity
  8
41
 62
     4
370
    13
100
AcDbLine
 10
101.91849
 20
232.352146
 30
0.0
 11
89.86414100000001
 21
232.352146
 31
0.0
  0
LINE
  5
247
330
242
100
AcDbEntity
  8
41
 62
     4
370
    13
100
AcDbLine
 10
91.864141
 20
264.352146
 30
0.0
 11
91.864141
 21
232.352146
 31
0.0
  0
SOLID
  5
248
330
242
100
AcDbEntity
  8
41
 62
     4
370
    13
100
AcDbTrace
 10
91.864141
 20
264.352146
 30
0.0
 11
92.28213700000001
 21
261.177148
 31
0.0
 12
91.446144
 22
261.177145
 32
0.0
 13
91.446144
 23
261.177145
 33
0.0
  0
SOLID
  5
249
330
242
100
AcDbEntity
  8
41
 62
     4
370
    13
100
AcDbTrace
 10
91.864141
 20
232.352146
 30
0.0
 11
91.446144
 21
235.527145
 31
0.0
 12
92.28213700000001
 22
235.527148
 32
0.0
 13
92.28213700000001
 23
235.527148
 33
0.0
  0
ENDBLK
  5
24B
330
242
100
AcDbEntity
  8
0
100
AcDbBlockEnd
  0
BLOCK
  5
250
330
24F
100
AcDbEntity
  8
0
100
AcDbBlockBegin
  2
*D14
 70
     1
 10
0.0
 20
0.0
 30
0.0
  3
*D14
  1

  0
LINE
  5
252
330
24F
100
AcDbEntity
  8
0
  6
Continuous
 62
     4
370
    -2
100
AcDbLine
 10
346.828311
 20
232.352146
 30
0.0
 11
292.632904
 21
232.352146
 31
0.0
  0
LINE
  5
253
330
24F
100
AcDbEntity
  8
0
  6
Continuous
 62
     4
370
    -2
100
AcDbLine
 10
346.828311
 20
264.352146
 30
0.0
 11
292.632904
 21
264.352146
 31
0.0
  0
LINE
  5
254
330
24F
100
AcDbEntity
  8
0
  6
Continuous
 62
     4
370
    -2
100
AcDbLine
 10
294.632904
 20
235.527146
 30
0.0
 11
294.632904
 21
261.177146
 31
0.0
  0
SOLID
  5
255
330
24F
100
AcDbEntity
  8
0
 62
     4
100
AcDbTrace
 10
294.103737
 20
235.527146
 30
0.0
 11
295.162071
 21
235.527146
 31
0.0
 12
294.632904
 22
232.352146
 32
0.0
 13
294.632904
 23
232.352146
 33
0.0
  0
SOLID
  5
256
330
24F
100
AcDbEntity
  8
0
 62
     4
100
AcDbTrace
 10
295.162071
 20
261.177146
 30
0.0
 11
294.103737
 21
261.177146
 31
0.0
 12
294.632904
 22
264.352146
 32
0.0
 13
294.632904
 23
264.352146
 33
0.0
  0
MTEXT
  5
257
330
24F
100
AcDbEntity
  8
0
 62
     3
370
    13
100
AcDbMText
 10
290.132904
 20
239.566432
 30
0.0
 40
3.0
 41
0.0
 71
     1
 72
     1
  1
\A1; 16 \C3;\H3.00;\Fsimplex.shx;h10\Fsimplex.shx;\H3.00;\C3;
  7
iso_b_vert
 11
0.0
 21
1.0
 31
0.0
 73
     1
 44
1.0
1001
ACAD
1000
MTEXTBEGIN
1070
    73
1070
     1
1070
    44
1040
1.0
1070
    74
1070
     0
1000
MTEXTEND
  0
POINT
  5
258
330
24F
100
AcDbEntity
  8
Defpoints
 62
     0
100
AcDbPoint
 10
346.828311
 20
232.352146
 30
0.0
  0
POINT
  5
259
330
24F
100
AcDbEntity
  8
Defpoints
 62
     0
100
AcDbPoint
 10
346.828311
 20
264.352146
 30
0.0
  0
POINT
  5
25A
330
24F
100
AcDbEntity
  8
Defpoints
 62
     0
100
AcDbPoint
 10
294.632904
 20
264.352146
 30
0.0
  0
ENDBLK
  5
251
330
24F
100
AcDbEntity
  8
0
100
AcDbBlockEnd
  0
BLOCK
  5
263
330
25B
100
AcDbEntity
  8
0
100
AcDbBlockBegin
  2
_U5
 70
     0
 10
0.0
 20
0.0
 30
0.0
  3
_U5
  1

  0
MTEXT
  5
25C
330
25B
100
AcDbEntity
  8
41
  6
Continuous
 62
     3
370
    18
100
AcDbMText
 10
294.04179
 20
243.032461
 30
0.0
 40
3.0
 41
0.0
 71
     7
 72
     5
  1
\W0.6789;16
  7
iso_b_vert
 11
0.0000000000000001
 21
1.0
 31
0.0
 73
     2
 44
0.9879520000000001
1001
ACAD
1000
MTEXTBEGIN
1070
    73
1070
     2
1070
    44
1040
0.9879520000000001
1070
    74
1070
     0
1000
MTEXTEND
  0
MTEXT
  5
25D
330
25B
100
AcDbEntity
  8
41
  6
Continuous
 62
     3
370
    18
100
AcDbMText
 10
294.04179
 20
248.866232
 30
0.0
 40
3.0
 41
0.0
 71
     7
 72
     5
  1
\W0.7232;h10
  7
iso_b_vert
 11
0.0000000000000001
 21
1.0
 31
0.0
 73
     2
 44
0.9879520000000001
1001
ACAD
1000
MTEXTBEGIN
1070
    73
1070
     2
1070
    44
1040
0.9879520000000001
1070
    74
1070
     0
1000
MTEXTEND
  0
LINE
  5
25E
330
25B
100
AcDbEntity
  8
41
 62
     4
370
    13
100
AcDbLine
 10
346.828311
 20
232.352146
 30
0.0
 11
292.632904
 21
232.352146
 31
0.0
  0
LINE
  5
25F
330
25B
100
AcDbEntity
  8
41
 62
     4
370
    13
100
AcDbLine
 10
346.828311
 20
264.352146
 30
0.0
 11
292.632904
 21
264.352146
 31
0.0
  0
LINE
  5
260
330
25B
100
AcDbEntity
  8
41
 62
     4
370
    13
100
AcDbLine
 10
294.632904
 20
232.352146
 30
0.0
 11
294.632904
 21
264.352146
 31
0.0
  0
SOLID
  5
261
330
25B
100
AcDbEntity
  8
41
 62
     4
370
    13
100
AcDbTrace
 10
294.632904
 20
232.352146
 30
0.0
 11
294.214907
 21
235.527145
 31
0.0
 12
295.050901
 22
235.527148
 32
0.0
 13
295.050901
 23
235.527148
 33
0.0
  0
SOLID
  5
262
330
25B
100
AcDbEntity
  8
41
 62
     4
370
    13
100
AcDbTrace
 10
294.632904
 20
264.352146
 30
0.0
 11
295.050901
 21
261.177148
 31
0.0
 12
294.214907
 22
261.177145
 32
0.0
 13
294.214907
 23
261.177145
 33
0.0
  0
ENDBLK
  5
264
330
25B
100
AcDbEntity
  8
0
100
AcDbBlockEnd
  0
BLOCK
  5
269
330
268
100
AcDbEntity
  8
0
100
AcDbBlockBegin
  2
*D16
 70
     1
 10
0.0
 20
0.0
 30
0.0
  3
*D16
  1

  0
LINE
  5
26B
330
268
100
AcDbEntity
  8
0
 62
     4
370
    -2
100
AcDbLine
 10
213.238914
 20
197.079645
 30
0.0
 11
149.505416
 21
197.079645
 31
0.0
  0
LINE
  5
26C
330
268
100
AcDbEntity
  8
0
 62
     4
370
    -2
100
AcDbLine
 10
159.72417
 20
181.079645
 30
0.0
 11
149.505416
 21
181.079645
 31
0.0
  0
LINE
  5
26D
330
268
100
AcDbEntity
  8
0
 62
     4
370
    -2
100
AcDbLine
 10
151.505416
 20
193.904645
 30
0.0
 11
151.505416
 21
184.254645
 31
0.0
  0
SOLID
  5
26E
330
268
100
AcDbEntity
  8
0
 62
     4
100
AcDbTrace
 10
152.034582
 20
193.904645
 30
0.0
 11
150.976249
 21
193.904645
 31
0.0
 12
151.505416
 22
197.079645
 32
0.0
 13
151.505416
 23
197.079645
 33
0.0
  0
SOLID
  5
26F
330
268
100
AcDbEntity
  8
0
 62
     4
100
AcDbTrace
 10
150.976249
 20
184.254645
 30
0.0
 11
152.034582
 21
184.254645
 31
0.0
 12
151.505416
 22
181.079645
 32
0.0
 13
151.505416
 23
181.079645
 33
0.0
  0
MTEXT
  5
270
330
268
100
AcDbEntity
  8
0
 62
     3
370
    13
100
AcDbMText
 10
145.505416
 20
189.079645
 30
0.0
 40
3.0
 41
0.0
 71
     5
 72
     1
  1
\A1;16
  7
iso_b_vert
 11
0.0
 21
1.0
 31
0.0
 73
     1
 44
1.0
1001
ACAD
1000
MTEXTBEGIN
1070
    73
1070
     1
1070
    44
1040
1.0
1070
    74
1070
     0
1000
MTEXTEND
  0
POINT
  5
271
330
268
100
AcDbEntity
  8
Defpoints
 62
     0
100
AcDbPoint
 10
213.238914
 20
197.079645
 30
0.0
  0
POINT
  5
272
330
268
100
AcDbEntity
  8
Defpoints
 62
     0
100
AcDbPoint
 10
159.72417
 20
181.079645
 30
0.0
  0
POINT
  5
273
330
268
100
AcDbEntity
  8
Defpoints
 62
     0
100
AcDbPoint
 10
151.505416
 20
181.079645
 30
0.0
  0
ENDBLK
  5
26A
330
268
100
AcDbEntity
  8
0
100
AcDbBlockEnd
  0
BLOCK
  5
27B
330
274
100
AcDbEntity
  8
0
100
AcDbBlockBegin
  2
_U6
 70
     0
 10
0.0
 20
0.0
 30
0.0
  3
_U6
  1

  0
LINE
  5
8D1
330
274
100
AcDbEntity
  8
2
  6
Continuous
370
    13
100
AcDbLine
 10
40.08387709668754
 20
43.48365619880449
 30
0.0
 11
9.599854096687543
 21
43.48365619880449
 31
0.0
  0
LINE
  5
8D2
330
274
100
AcDbEntity
  8
2
  6
Continuous
370
    13
100
AcDbLine
 10
19.81860810447482
 20
27.48365619880449
 30
0.0
 11
9.599854096687545
 21
27.48365619880449
 31
0.0
  0
LINE
  5
8D3
330
274
100
AcDbEntity
  8
2
  6
Continuous
370
    13
100
AcDbLine
 10
11.59985409668754
 20
40.30865619880449
 30
0.0
 11
11.59985409668754
 21
30.65865619880449
 31
0.0
  0
SOLID
  5
8D4
330
274
100
AcDbEntity
  8
2
  6
Continuous
370
    13
100
AcDbTrace
 10
11.07068743002087
 20
40.30865619880449
 30
0.0
 11
12.12902076335421
 21
40.30865619880449
 31
0.0
 12
11.59985409668754
 22
43.48365619880449
 32
0.0
 13
11.59985409668754
 23
43.48365619880449
 33
0.0
  0
SOLID
  5
8D5
330
274
100
AcDbEntity
  8
2
  6
Continuous
370
    13
100
AcDbTrace
 10
11.07068743002088
 20
30.65865619880449
 30
0.0
 11
12.12902076335421
 21
30.65865619880449
 31
0.0
 12
11.59985409668754
 22
27.48365619880449
 32
0.0
 13
11.59985409668754
 23
27.48365619880449
 33
0.0
  0
MTEXT
  5
8D6
330
274
100
AcDbEntity
  8
2
  6
Continuous
370
    18
100
AcDbMText
 10
7.09985409668755
 20
33.41222762737591
 30
0.0
 40
3.0
 41
0.0
 71
     1
 72
     1
  1
\A1;16
  7
iso_b_vert
 11
0.0000000000000001
 21
1.0
 31
0.0
 73
     1
 44
1.0
1001
ACAD
1000
MTEXTBEGIN
1070
    73
1070
     1
1070
    44
1040
1.0
1070
    74
1070
     0
1000
MTEXTEND
  0
POINT
  5
8D7
330
274
100
AcDbEntity
  8
Defpoints
  6
Continuous
 62
     0
370
    13
100
AcDbPoint
 10
40.08387709668754
 20
43.48365619880449
 30
0.0
  0
POINT
  5
8D8
330
274
100
AcDbEntity
  8
Defpoints
  6
Continuous
 62
     0
370
    13
100
AcDbPoint
 10
19.81860810447482
 20
27.48365619880449
 30
0.0
  0
POINT
  5
8D9
330
274
100
AcDbEntity
  8
Defpoints
  6
Continuous
 62
     0
370
    13
100
AcDbPoint
 10
11.59985409668754
 20
27.48365619880449
 30
0.0
  0
ENDBLK
  5
27C
330
274
100
AcDbEntity
  8
0
100
AcDbBlockEnd
  0
BLOCK
  5
2BD
330
27D
100
AcDbEntity
  8
0
100
AcDbBlockBegin
  2
TOL_TABLE
 70
     0
 10
0.0
 20
0.0
 30
0.0
  3
TOL_TABLE
  1

  0
LINE
  5
27E
330
27D
100
AcDbEntity
  8
250
  6
Continuous
 62
     5
370
    18
100
AcDbLine
 10
-65.22
 20
44.43999999999999
 30
0.0
 11
-53.22
 21
44.43999999999999
 31
0.0
  0
LINE
  5
27F
330
27D
100
AcDbEntity
  8
250
  6
Continuous
 62
     5
370
    18
100
AcDbLine
 10
-65.22
 20
44.43999999999999
 30
0.0
 11
-65.22
 21
36.97
 31
0.0
  0
LINE
  5
280
330
27D
100
AcDbEntity
  8
250
  6
Continuous
 62
     5
370
    18
100
AcDbLine
 10
-65.22
 20
36.97
 30
0.0
 11
-53.22
 21
36.97
 31
0.0
  0
LINE
  5
281
330
27D
100
AcDbEntity
  8
250
  6
Continuous
 62
     5
370
    18
100
AcDbLine
 10
-53.22
 20
44.43999999999999
 30
0.0
 11
-50.22
 21
44.43999999999999
 31
0.0
  0
LINE
  5
282
330
27D
100
AcDbEntity
  8
250
  6
Continuous
 62
     5
370
    18
100
AcDbLine
 10
-53.22
 20
36.97
 30
0.0
 11
-50.22
 21
36.97
 31
0.0
  0
LINE
  5
283
330
27D
100
AcDbEntity
  8
250
  6
Continuous
 62
     5
370
    18
100
AcDbLine
 10
-50.22
 20
44.43999999999999
 30
0.0
 11
-40.22
 21
44.43999999999999
 31
0.0
  0
LINE
  5
284
330
27D
100
AcDbEntity
  8
250
  6
Continuous
 62
     5
370
    18
100
AcDbLine
 10
-50.22
 20
36.97
 30
0.0
 11
-40.22
 21
36.97
 31
0.0
  0
LINE
  5
285
330
27D
100
AcDbEntity
  8
250
  6
Continuous
 62
     5
370
    18
100
AcDbLine
 10
-40.22
 20
44.43999999999999
 30
0.0
 11
-30.22
 21
44.43999999999999
 31
0.0
  0
LINE
  5
286
330
27D
100
AcDbEntity
  8
250
  6
Continuous
 62
     5
370
    18
100
AcDbLine
 10
-40.22
 20
36.97
 30
0.0
 11
-30.22
 21
36.97
 31
0.0
  0
MTEXT
  5
287
330
27D
100
AcDbEntity
  8
41
  6
Continuous
 62
     2
370
    18
100
AcDbMText
 10
-64.19499999999999
 20
40.705
 30
0.0
 40
2.0
 41
0.0
 71
     4
 72
     5
  1
\W1.3303;Tolerance systems acc. to ISO\PSurface roughness Ra {\fArial Unicode MS;µ}m
  7
blockfont
 73
     1
 44
0.9036139999999999
1001
ACAD
1000
MTEXTBEGIN
1070
    73
1070
     1
1070
    44
1040
0.9036139999999999
1070
    74
1070
     0
1000
MTEXTEND
  0
LINE
  5
288
330
27D
100
AcDbEntity
  8
250
  6
Continuous
 62
     5
370
    18
100
AcDbLine
 10
-30.22
 20
44.43999999999999
 30
0.0
 11
-21.22
 21
44.43999999999999
 31
0.0
  0
LINE
  5
289
330
27D
100
AcDbEntity
  8
250
  6
Continuous
 62
     5
370
    18
100
AcDbLine
 10
-30.22
 20
36.97
 30
0.0
 11
-21.22
 21
36.97
 31
0.0
  0
LINE
  5
28A
330
27D
100
AcDbEntity
  8
250
  6
Continuous
 62
     5
370
    18
100
AcDbLine
 10
-21.22
 20
44.43999999999999
 30
0.0
 11
-18.22
 21
44.43999999999999
 31
0.0
  0
LINE
  5
28B
330
27D
100
AcDbEntity
  8
250
  6
Continuous
 62
     5
370
    18
100
AcDbLine
 10
-21.22
 20
36.97
 30
0.0
 11
-18.22
 21
36.97
 31
0.0
  0
LINE
  5
28C
330
27D
100
AcDbEntity
  8
250
  6
Continuous
 62
     5
370
    18
100
AcDbLine
 10
-18.22
 20
44.43999999999999
 30
0.0
 11
-10.22
 21
44.43999999999999
 31
0.0
  0
LINE
  5
28D
330
27D
100
AcDbEntity
  8
250
  6
Continuous
 62
     5
370
    18
100
AcDbLine
 10
-18.22
 20
36.97
 30
0.0
 11
-10.22
 21
36.97
 31
0.0
  0
LINE
  5
28E
330
27D
100
AcDbEntity
  8
250
  6
Continuous
 62
     5
370
    18
100
AcDbLine
 10
-10.22
 20
44.43999999999999
 30
0.0
 11
0.0
 21
44.43999999999999
 31
0.0
  0
LINE
  5
28F
330
27D
100
AcDbEntity
  8
250
  6
Continuous
 62
     5
370
    18
100
AcDbLine
 10
-10.22
 20
36.97
 30
0.0
 11
0.0
 21
36.97
 31
0.0
  0
LINE
  5
290
330
27D
100
AcDbEntity
  8
250
  6
Continuous
 62
     5
370
    18
100
AcDbLine
 10
0.0
 20
44.43999999999999
 30
0.0
 11
0.0
 21
36.97
 31
0.0
  0
LINE
  5
291
330
27D
100
AcDbEntity
  8
250
  6
Continuous
 62
     5
370
    18
100
AcDbLine
 10
-65.22
 20
36.97
 30
0.0
 11
-65.22
 21
23.55
 31
0.0
  0
LINE
  5
292
330
27D
100
AcDbEntity
  8
250
  6
Continuous
 62
     5
370
    18
100
AcDbLine
 10
-65.22
 20
23.55
 30
0.0
 11
-53.22
 21
23.55
 31
0.0
  0
LINE
  5
293
330
27D
100
AcDbEntity
  8
250
  6
Continuous
 62
     5
370
    18
100
AcDbLine
 10
-53.22
 20
23.55
 30
0.0
 11
-50.22
 21
23.55
 31
0.0
  0
LINE
  5
294
330
27D
100
AcDbEntity
  8
250
  6
Continuous
 62
     5
370
    18
100
AcDbLine
 10
-50.22
 20
23.55
 30
0.0
 11
-40.22
 21
23.55
 31
0.0
  0
LINE
  5
295
330
27D
100
AcDbEntity
  8
250
  6
Continuous
 62
     5
370
    18
100
AcDbLine
 10
-40.22
 20
23.55
 30
0.0
 11
-30.22
 21
23.55
 31
0.0
  0
MTEXT
  5
296
330
27D
100
AcDbEntity
  8
41
  6
Continuous
 62
     2
370
    18
100
AcDbMText
 10
-64.19499999999999
 20
30.26
 30
0.0
 40
2.0
 41
0.0
 71
     4
 72
     5
  1
\W1.3679;Where tolerance not stated:\PThreads: ISO 965/2\PDimensions: ISO 2768-1 Medium\P\Q20.000000;* = Company standard\Q0;
  7
blockfont
 73
     1
 44
0.9036139999999999
1001
ACAD
1000
MTEXTBEGIN
1070
    73
1070
     1
1070
    44
1040
0.9036139999999999
1070
    74
1070
     0
1000
MTEXTEND
  0
LINE
  5
297
330
27D
100
AcDbEntity
  8
250
  6
Continuous
 62
     5
370
    18
100
AcDbLine
 10
-30.22
 20
23.55
 30
0.0
 11
-21.22
 21
23.55
 31
0.0
  0
LINE
  5
298
330
27D
100
AcDbEntity
  8
250
  6
Continuous
 62
     5
370
    18
100
AcDbLine
 10
-21.22
 20
23.55
 30
0.0
 11
-18.22
 21
23.55
 31
0.0
  0
LINE
  5
299
330
27D
100
AcDbEntity
  8
250
  6
Continuous
 62
     5
370
    18
100
AcDbLine
 10
-18.22
 20
23.55
 30
0.0
 11
-10.22
 21
23.55
 31
0.0
  0
LINE
  5
29A
330
27D
100
AcDbEntity
  8
250
  6
Continuous
 62
     5
370
    18
100
AcDbLine
 10
-10.22
 20
23.55
 30
0.0
 11
0.0
 21
23.55
 31
0.0
  0
LINE
  5
29B
330
27D
100
AcDbEntity
  8
250
  6
Continuous
 62
     5
370
    18
100
AcDbLine
 10
0.0
 20
36.97
 30
0.0
 11
0.0
 21
23.55
 31
0.0
  0
LINE
  5
29C
330
27D
100
AcDbEntity
  8
250
  6
Continuous
 62
     5
370
    18
100
AcDbLine
 10
-65.22
 20
23.55
 30
0.0
 11
-65.22
 21
18.55
 31
0.0
  0
MTEXT
  5
29D
330
27D
100
AcDbEntity
  8
41
  6
Continuous
 62
     2
370
    18
100
AcDbMText
 10
-64.19499999999999
 20
21.050001
 30
0.0
 40
2.0
 41
0.0
 71
     4
 72
     5
  1
\W1.3318;Dimensions
  7
blockfont
 73
     2
 44
0.9036139999999999
1001
ACAD
1000
MTEXTBEGIN
1070
    73
1070
     2
1070
    44
1040
0.9036139999999999
1070
    74
1070
     0
1000
MTEXTEND
  0
LINE
  5
29E
330
27D
100
AcDbEntity
  8
250
  6
Continuous
 62
     5
370
    18
100
AcDbLine
 10
-40.22
 20
23.55
 30
0.0
 11
-40.22
 21
18.55
 31
0.0
  0
LINE
  5
29F
330
27D
100
AcDbEntity
  8
250
  6
Continuous
 62
     5
370
    18
100
AcDbLine
 10
-30.22
 20
23.55
 30
0.0
 11
-30.22
 21
18.55
 31
0.0
  0
MTEXT
  5
2A0
330
27D
100
AcDbEntity
  8
41
  6
Continuous
 62
     2
370
    18
100
AcDbMText
 10
-39.247101
 20
21.050001
 30
0.0
 40
2.0
 41
0.0
 71
     4
 72
     5
  1
\W1.8082;Tol.
  7
blockfont
 73
     2
 44
0.9036139999999999
1001
ACAD
1000
MTEXTBEGIN
1070
    73
1070
     2
1070
    44
1040
0.9036139999999999
1070
    74
1070
     0
1000
MTEXTEND
  0
MTEXT
  5
2A1
330
27D
100
AcDbEntity
  8
41
  6
Continuous
 62
     2
370
    18
100
AcDbMText
 10
-29.195
 20
21.050001
 30
0.0
 40
2.0
 41
0.0
 71
     4
 72
     5
  1
\W1.4027;Angle
  7
blockfont
 73
     2
 44
0.9036139999999999
1001
ACAD
1000
MTEXTBEGIN
1070
    73
1070
     2
1070
    44
1040
0.9036139999999999
1070
    74
1070
     0
1000
MTEXTEND
  0
LINE
  5
2A2
330
27D
100
AcDbEntity
  8
250
  6
Continuous
 62
     5
370
    18
100
AcDbLine
 10
-10.22
 20
23.55
 30
0.0
 11
-10.22
 21
18.55
 31
0.0
  0
LINE
  5
2A3
330
27D
100
AcDbEntity
  8
250
  6
Continuous
 62
     5
370
    18
100
AcDbLine
 10
0.0
 20
23.55
 30
0.0
 11
0.0
 21
18.55
 31
0.0
  0
MTEXT
  5
2A4
330
27D
100
AcDbEntity
  8
41
  6
Continuous
 62
     2
370
    18
100
AcDbMText
 10
-9.224914999999999
 20
21.050001
 30
0.0
 40
2.0
 41
0.0
 71
     4
 72
     5
  1
\W1.8431;Tol.
  7
blockfont
 73
     2
 44
0.9036139999999999
1001
ACAD
1000
MTEXTBEGIN
1070
    73
1070
     2
1070
    44
1040
0.9036139999999999
1070
    74
1070
     0
1000
MTEXTEND
  0
LINE
  5
2A5
330
27D
100
AcDbEntity
  8
250
  6
Continuous
 62
     5
370
    18
100
AcDbLine
 10
-65.22
 20
18.55
 30
0.0
 11
-65.22
 21
11.55
 31
0.0
  0
LINE
  5
2A6
330
27D
100
AcDbEntity
  8
250
  6
Continuous
 62
     5
370
    18
100
AcDbLine
 10
-30.22
 20
18.55
 30
0.0
 11
-30.22
 21
11.55
 31
0.0
  0
MTEXT
  5
2A7
330
27D
100
AcDbEntity
  8
41
  6
Continuous
 62
     2
370
    18
100
AcDbMText
 10
-29.482174
 20
15.050001
 30
0.0
 40
2.0
 41
0.0
 71
     4
 72
     5
  1
\W1.0175;(Shortest adjacent\Pside in mm)
  7
blockfont
 73
     1
 44
0.9036139999999999
1001
ACAD
1000
MTEXTBEGIN
1070
    73
1070
     1
1070
    44
1040
0.9036139999999999
1070
    74
1070
     0
1000
MTEXTEND
  0
LINE
  5
2A8
330
27D
100
AcDbEntity
  8
250
  6
Continuous
 62
     5
370
    18
100
AcDbLine
 10
0.0
 20
18.55
 30
0.0
 11
0.0
 21
11.55
 31
0.0
  0
LINE
  5
2A9
330
27D
100
AcDbEntity
  8
250
  6
Continuous
 62
     5
370
    18
100
AcDbLine
 10
-65.22
 20
11.55
 30
0.0
 11
-65.22
 21
0.0
 31
0.0
  0
LINE
  5
2AA
330
27D
100
AcDbEntity
  8
250
  6
Continuous
 62
     5
370
    18
100
AcDbLine
 10
-65.22
 20
0.0
 30
0.0
 11
-53.22
 21
0.0
 31
0.0
  0
MTEXT
  5
2AB
330
27D
100
AcDbEntity
  8
41
  6
Continuous
 62
     2
370
    18
100
AcDbMText
 10
-64.494869
 20
9.274999000000001
 30
0.0
 40
1.5
 41
0.0
 71
     4
 72
     5
  1
\W1.9399;\Q20.000000;* \Q0; \P\Q20.000000;* \Q0;(0.2)\P0.5\P(6)\P(30)\P(120)\P(400)
  7
blockfont
 73
     1
 44
0.9036139999999999
1001
ACAD
1000
MTEXTBEGIN
1070
    73
1070
     1
1070
    44
1040
0.9036139999999999
1070
    74
1070
     0
1000
MTEXTEND
  0
LINE
  5
2AC
330
27D
100
AcDbEntity
  8
250
  6
Continuous
 62
     5
370
    18
100
AcDbLine
 10
-53.22
 20
0.0
 30
0.0
 11
-50.22
 21
0.0
 31
0.0
  0
MTEXT
  5
2AD
330
27D
100
AcDbEntity
  8
41
  6
Continuous
 62
     2
370
    18
100
AcDbMText
 10
-52.445
 20
9.274999000000001
 30
0.0
 40
1.5
 41
0.0
 71
     4
 72
     5
  1
\W1.1484;-\P-\P-\P-\P-\P-
  7
blockfont
 73
     1
 44
0.9036139999999999
1001
ACAD
1000
MTEXTBEGIN
1070
    73
1070
     1
1070
    44
1040
0.9036139999999999
1070
    74
1070
     0
1000
MTEXTEND
  0
LINE
  5
2AE
330
27D
100
AcDbEntity
  8
250
  6
Continuous
 62
     5
370
    18
100
AcDbLine
 10
-50.22
 20
0.0
 30
0.0
 11
-40.22
 21
0.0
 31
0.0
  0
MTEXT
  5
2AF
330
27D
100
AcDbEntity
  8
41
  6
Continuous
 62
     2
370
    18
100
AcDbMText
 10
-49.445
 20
9.274999000000001
 30
0.0
 40
1.5
 41
0.0
 71
     4
 72
     5
  1
\W1.5064;0.2\P0.499\P6\P30\P120\P400\P1000
  7
blockfont
 73
     1
 44
0.9036139999999999
1001
ACAD
1000
MTEXTBEGIN
1070
    73
1070
     1
1070
    44
1040
0.9036139999999999
1070
    74
1070
     0
1000
MTEXTEND
  0
LINE
  5
2B0
330
27D
100
AcDbEntity
  8
250
  6
Continuous
 62
     5
370
    18
100
AcDbLine
 10
-40.22
 20
0.0
 30
0.0
 11
-30.22
 21
0.0
 31
0.0
  0
LINE
  5
2B1
330
27D
100
AcDbEntity
  8
250
  6
Continuous
 62
     5
370
    18
100
AcDbLine
 10
-30.22
 20
11.55
 30
0.0
 11
-30.22
 21
0.0
 31
0.0
  0
MTEXT
  5
2B2
330
27D
100
AcDbEntity
  8
41
  6
Continuous
 62
     2
370
    18
100
AcDbMText
 10
-39.445
 20
9.274999000000001
 30
0.0
 40
1.5
 41
0.0
 71
     4
 72
     5
  1
\W1.2469;\W0.6234;%%p\W1.2469;0.05\P\W0.6234;%%p\W1.2469;0.10\P\W0.6234;%%p\W1.2469;0.10\P\W0.6234;%%p\W1.2469;0.20\P\W0.6234;%%p\W1.2469;0.30\P\W0.6234;%%p\W1.2469;0.50\P\W0.6234;%%p\W1.2469;0.80
  7
blockfont
 73
     1
 44
0.9036139999999999
1001
ACAD
1000
MTEXTBEGIN
1070
    73
1070
     1
1070
    44
1040
0.9036139999999999
1070
    74
1070
     0
1000
MTEXTEND
  0
LINE
  5
2B3
330
27D
100
AcDbEntity
  8
250
  6
Continuous
 62
     5
370
    18
100
AcDbLine
 10
-30.22
 20
0.0
 30
0.0
 11
-21.22
 21
0.0
 31
0.0
  0
MTEXT
  5
2B4
330
27D
100
AcDbEntity
  8
41
  6
Continuous
 62
     2
370
    18
100
AcDbMText
 10
-29.488869
 20
5.774999
 30
0.0
 40
1.5
 41
0.0
 71
     4
 72
     5
  1
\W1.0000;\P(10)\P(50)\P(120)
  7
blockfont
 73
     1
 44
0.9036139999999999
1001
ACAD
1000
MTEXTBEGIN
1070
    73
1070
     1
1070
    44
1040
0.9036139999999999
1070
    74
1070
     0
1000
MTEXTEND
  0
LINE
  5
2B5
330
27D
100
AcDbEntity
  8
250
  6
Continuous
 62
     5
370
    18
100
AcDbLine
 10
-21.22
 20
0.0
 30
0.0
 11
-18.22
 21
0.0
 31
0.0
  0
MTEXT
  5
2B6
330
27D
100
AcDbEntity
  8
41
  6
Continuous
 62
     2
370
    18
100
AcDbMText
 10
-20.445
 20
5.774999
 30
0.0
 40
1.5
 41
0.0
 71
     4
 72
     5
  1
\W1.1484;-\P-\P-\P-
  7
blockfont
 73
     1
 44
0.9036139999999999
1001
ACAD
1000
MTEXTBEGIN
1070
    73
1070
     1
1070
    44
1040
0.9036139999999999
1070
    74
1070
     0
1000
MTEXTEND
  0
LINE
  5
2B7
330
27D
100
AcDbEntity
  8
250
  6
Continuous
 62
     5
370
    18
100
AcDbLine
 10
-18.22
 20
0.0
 30
0.0
 11
-10.22
 21
0.0
 31
0.0
  0
MTEXT
  5
2B8
330
27D
100
AcDbEntity
  8
41
  6
Continuous
 62
     2
370
    18
100
AcDbMText
 10
-17.445
 20
5.774999
 30
0.0
 40
1.5
 41
0.0
 71
     4
 72
     5
  1
\W1.4547;10\P50\P120 \P -
  7
blockfont
 73
     1
 44
0.9036139999999999
1001
ACAD
1000
MTEXTBEGIN
1070
    73
1070
     1
1070
    44
1040
0.9036139999999999
1070
    74
1070
     0
1000
MTEXTEND
  0
LINE
  5
2B9
330
27D
100
AcDbEntity
  8
250
  6
Continuous
 62
     5
370
    18
100
AcDbLine
 10
-10.22
 20
0.0
 30
0.0
 11
0.0
 21
0.0
 31
0.0
  0
LINE
  5
2BA
330
27D
100
AcDbEntity
  8
250
  6
Continuous
 62
     5
370
    18
100
AcDbLine
 10
0.0
 20
11.55
 30
0.0
 11
0.0
 21
0.0
 31
0.0
  0
MTEXT
  5
2BB
330
27D
100
AcDbEntity
  8
41
  6
Continuous
 62
     2
370
    18
100
AcDbMText
 10
-9.445
 20
5.774999
 30
0.0
 40
1.5
 41
0.0
 71
     4
 72
     5
  1
\W1.4480;\W0.7240;%%p\W1.4480;1%%d\P\W0.7240;%%p\W1.4480;30'\P\W0.7240;%%p\W1.4480;20'\P\W0.7240;%%p\W1.4480;10'
  7
blockfont
 73
     1
 44
0.9036139999999999
1001
ACAD
1000
MTEXTBEGIN
1070
    73
1070
     1
1070
    44
1040
0.9036139999999999
1070
    74
1070
     0
1000
MTEXTEND
  0
ENDBLK
  5
2BE
330
27D
100
AcDbEntity
  8
0
100
AcDbBlockEnd
  0
BLOCK
  5
2E1
330
2BF
100
AcDbEntity
  8
0
100
AcDbBlockBegin
  2
MODIFICATION_TABLE
 70
     0
 10
0.0
 20
0.0
 30
0.0
  3
MODIFICATION_TABLE
  1

  0
LINE
  5
2C0
330
2BF
100
AcDbEntity
  8
250
  6
Continuous
 62
     5
370
    18
100
AcDbLine
 10
0.0
 20
14.35
 30
0.0
 11
5.08
 21
14.35
 31
0.0
  0
LINE
  5
2C1
330
2BF
100
AcDbEntity
  8
250
  6
Continuous
 62
     5
370
    18
100
AcDbLine
 10
0.0
 20
14.35
 30
0.0
 11
0.0
 21
6.349999999999999
 31
0.0
  0
LINE
  5
2C2
330
2BF
100
AcDbEntity
  8
250
  6
Continuous
 62
     5
370
    18
100
AcDbLine
 10
5.08
 20
14.35
 30
0.0
 11
5.08
 21
6.349999999999999
 31
0.0
  0
LINE
  5
2C3
330
2BF
100
AcDbEntity
  8
250
  6
Continuous
 62
     5
370
    18
100
AcDbLine
 10
0.0
 20
6.349999999999999
 30
0.0
 11
5.08
 21
6.349999999999999
 31
0.0
  0
LINE
  5
2C4
330
2BF
100
AcDbEntity
  8
250
  6
Continuous
 62
     5
370
    18
100
AcDbLine
 10
5.08
 20
14.35
 30
0.0
 11
15.24
 21
14.35
 31
0.0
  0
LINE
  5
2C5
330
2BF
100
AcDbEntity
  8
250
  6
Continuous
 62
     5
370
    18
100
AcDbLine
 10
15.24
 20
14.35
 30
0.0
 11
15.24
 21
6.349999999999999
 31
0.0
  0
LINE
  5
2C6
330
2BF
100
AcDbEntity
  8
250
  6
Continuous
 62
     5
370
    18
100
AcDbLine
 10
5.08
 20
6.349999999999999
 30
0.0
 11
15.24
 21
6.349999999999999
 31
0.0
  0
LINE
  5
2C7
330
2BF
100
AcDbEntity
  8
250
  6
Continuous
 62
     5
370
    18
100
AcDbLine
 10
15.24
 20
14.35
 30
0.0
 11
97.00000199999999
 21
14.35
 31
0.0
  0
LINE
  5
2C8
330
2BF
100
AcDbEntity
  8
250
  6
Continuous
 62
     5
370
    18
100
AcDbLine
 10
97.00000199999999
 20
14.35
 30
0.0
 11
97.00000199999999
 21
6.349999999999999
 31
0.0
  0
LINE
  5
2C9
330
2BF
100
AcDbEntity
  8
250
  6
Continuous
 62
     5
370
    18
100
AcDbLine
 10
15.24
 20
6.349999999999999
 30
0.0
 11
97.00000199999999
 21
6.349999999999999
 31
0.0
  0
LINE
  5
2CA
330
2BF
100
AcDbEntity
  8
250
  6
Continuous
 62
     5
370
    18
100
AcDbLine
 10
97.00000199999999
 20
14.35
 30
0.0
 11
114.780003
 21
14.35
 31
0.0
  0
LINE
  5
2CB
330
2BF
100
AcDbEntity
  8
250
  6
Continuous
 62
     5
370
    18
100
AcDbLine
 10
114.780003
 20
14.35
 30
0.0
 11
114.780003
 21
6.349999999999999
 31
0.0
  0
LINE
  5
2CC
330
2BF
100
AcDbEntity
  8
250
  6
Continuous
 62
     5
370
    18
100
AcDbLine
 10
97.00000199999999
 20
6.349999999999999
 30
0.0
 11
114.780003
 21
6.349999999999999
 31
0.0
  0
LINE
  5
2CD
330
2BF
100
AcDbEntity
  8
250
  6
Continuous
 62
     5
370
    18
100
AcDbLine
 10
114.780003
 20
14.35
 30
0.0
 11
144.780003
 21
14.35
 31
0.0
  0
LINE
  5
2CE
330
2BF
100
AcDbEntity
  8
250
  6
Continuous
 62
     5
370
    18
100
AcDbLine
 10
144.780003
 20
14.35
 30
0.0
 11
144.780003
 21
6.349999999999999
 31
0.0
  0
LINE
  5
2CF
330
2BF
100
AcDbEntity
  8
250
  6
Continuous
 62
     5
370
    18
100
AcDbLine
 10
114.780003
 20
6.349999999999999
 30
0.0
 11
144.780003
 21
6.349999999999999
 31
0.0
  0
LINE
  5
2D0
330
2BF
100
AcDbEntity
  8
250
  6
Continuous
 62
     5
370
    18
100
AcDbLine
 10
0.0
 20
6.349999999999999
 30
0.0
 11
0.0
 21
0.0
 31
0.0
  0
LINE
  5
2D1
330
2BF
100
AcDbEntity
  8
250
  6
Continuous
 62
     5
370
    18
100
AcDbLine
 10
5.08
 20
6.349999999999999
 30
0.0
 11
5.08
 21
0.0
 31
0.0
  0
LINE
  5
2D2
330
2BF
100
AcDbEntity
  8
250
  6
Continuous
 62
     5
370
    18
100
AcDbLine
 10
0.0
 20
0.0
 30
0.0
 11
5.08
 21
0.0
 31
0.0
  0
MTEXT
  5
2D3
330
2BF
100
AcDbEntity
  8
41
  6
Continuous
 62
     2
370
    18
100
AcDbMText
 10
2.54
 20
3.174999999999999
 30
0.0
 40
1.0
 41
0.0
 71
     5
 72
     5
  1
\W0.9003;VERS.
  7
iso_b_vert
 73
     2
 44
1.084337
1001
ACAD
1000
MTEXTBEGIN
1070
    73
1070
     2
1070
    44
1040
1.084337
1070
    74
1070
     0
1000
MTEXTEND
  0
LINE
  5
2D4
330
2BF
100
AcDbEntity
  8
250
  6
Continuous
 62
     5
370
    18
100
AcDbLine
 10
15.24
 20
6.349999999999999
 30
0.0
 11
15.24
 21
0.0
 31
0.0
  0
LINE
  5
2D5
330
2BF
100
AcDbEntity
  8
250
  6
Continuous
 62
     5
370
    18
100
AcDbLine
 10
5.08
 20
0.0
 30
0.0
 11
15.24
 21
0.0
 31
0.0
  0
MTEXT
  5
2D6
330
2BF
100
AcDbEntity
  8
41
  6
Continuous
 62
     2
370
    18
100
AcDbMText
 10
10.16
 20
3.174999999999999
 30
0.0
 40
1.0
 41
0.0
 71
     5
 72
     5
  1
\W0.8190;CHANGE\PNUMBER
  7
iso_b_vert
 73
     1
 44
1.084337
1001
ACAD
1000
MTEXTBEGIN
1070
    73
1070
     1
1070
    44
1040
1.084337
1070
    74
1070
     0
1000
MTEXTEND
  0
LINE
  5
2D7
330
2BF
100
AcDbEntity
  8
250
  6
Continuous
 62
     5
370
    18
100
AcDbLine
 10
97.00000199999999
 20
6.349999999999999
 30
0.0
 11
97.00000199999999
 21
0.0
 31
0.0
  0
LINE
  5
2D8
330
2BF
100
AcDbEntity
  8
250
  6
Continuous
 62
     5
370
    18
100
AcDbLine
 10
15.24
 20
0.0
 30
0.0
 11
97.00000199999999
 21
0.0
 31
0.0
  0
MTEXT
  5
2D9
330
2BF
100
AcDbEntity
  8
41
  6
Continuous
 62
     2
370
    18
100
AcDbMText
 10
56.120003
 20
3.174999999999999
 30
0.0
 40
1.0
 41
0.0
 71
     5
 72
     5
  1
\W0.8467;DESCRIPTION
  7
iso_b_vert
 73
     2
 44
1.084337
1001
ACAD
1000
MTEXTBEGIN
1070
    73
1070
     2
1070
    44
1040
1.084337
1070
    74
1070
     0
1000
MTEXTEND
  0
LINE
  5
2DA
330
2BF
100
AcDbEntity
  8
250
  6
Continuous
 62
     5
370
    18
100
AcDbLine
 10
114.780003
 20
6.349999999999999
 30
0.0
 11
114.780003
 21
0.0
 31
0.0
  0
LINE
  5
2DB
330
2BF
100
AcDbEntity
  8
250
  6
Continuous
 62
     5
370
    18
100
AcDbLine
 10
97.00000199999999
 20
0.0
 30
0.0
 11
114.780003
 21
0.0
 31
0.0
  0
MTEXT
  5
2DC
330
2BF
100
AcDbEntity
  8
41
  6
Continuous
 62
     2
370
    18
100
AcDbMText
 10
105.889999
 20
3.174999999999999
 30
0.0
 40
1.0
 41
0.0
 71
     5
 72
     5
  1
\W0.8824;DATE
  7
iso_b_vert
 73
     2
 44
1.084337
1001
ACAD
1000
MTEXTBEGIN
1070
    73
1070
     2
1070
    44
1040
1.084337
1070
    74
1070
     0
1000
MTEXTEND
  0
LINE
  5
2DD
330
2BF
100
AcDbEntity
  8
250
  6
Continuous
 62
     5
370
    18
100
AcDbLine
 10
144.780003
 20
6.349999999999999
 30
0.0
 11
144.780003
 21
0.0
 31
0.0
  0
LINE
  5
2DE
330
2BF
100
AcDbEntity
  8
250
  6
Continuous
 62
     5
370
    18
100
AcDbLine
 10
114.780003
 20
0.0
 30
0.0
 11
144.780003
 21
0.0
 31
0.0
  0
MTEXT
  5
2DF
330
2BF
100
AcDbEntity
  8
41
  6
Continuous
 62
     2
370
    18
100
AcDbMText
 10
129.779999
 20
3.174999999999999
 30
0.0
 40
1.0
 41
0.0
 71
     5
 72
     5
  1
\W0.8385;NAME
  7
iso_b_vert
 73
     2
 44
1.084337
1001
ACAD
1000
MTEXTBEGIN
1070
    73
1070
     2
1070
    44
1040
1.084337
1070
    74
1070
     0
1000
MTEXTEND
  0
ENDBLK
  5
2E2
330
2BF
100
AcDbEntity
  8
0
100
AcDbBlockEnd
  0
BLOCK
  5
332
330
2E3
100
AcDbEntity
  8
0
100
AcDbBlockBegin
  2
BOM
 70
     0
 10
0.0
 20
0.0
 30
0.0
  3
BOM
  1

  0
LINE
  5
2E4
330
2E3
100
AcDbEntity
  8
250
  6
Continuous
 62
     5
370
    18
100
AcDbLine
 10
0.0
 20
36.233333
 30
0.0
 11
10.0
 21
36.233333
 31
0.0
  0
LINE
  5
2E5
330
2E3
100
AcDbEntity
  8
250
  6
Continuous
 62
     5
370
    18
100
AcDbLine
 10
0.0
 20
36.233333
 30
0.0
 11
0.0
 21
28.233333
 31
0.0
  0
LINE
  5
2E6
330
2E3
100
AcDbEntity
  8
250
  6
Continuous
 62
     5
370
    18
100
AcDbLine
 10
10.0
 20
36.233333
 30
0.0
 11
10.0
 21
28.233333
 31
0.0
  0
LINE
  5
2E7
330
2E3
100
AcDbEntity
  8
250
  6
Continuous
 62
     5
370
    18
100
AcDbLine
 10
0.0
 20
28.233333
 30
0.0
 11
10.0
 21
28.233333
 31
0.0
  0
MTEXT
  5
2E8
330
2E3
100
AcDbEntity
  8
41
  6
Continuous
 62
     2
370
    18
100
AcDbMText
 10
5.0
 20
32.233333
 30
0.0
 40
2.5
 41
0.0
 71
     5
 72
     5
  1
\W0.7656;4
  7
iso_b_vert
 73
     2
 44
0.8915659999999999
1001
ACAD
1000
MTEXTBEGIN
1070
    73
1070
     2
1070
    44
1040
0.8915659999999999
1070
    74
1070
     0
1000
MTEXTEND
  0
LINE
  5
2E9
330
2E3
100
AcDbEntity
  8
250
  6
Continuous
 62
     5
370
    18
100
AcDbLine
 10
10.0
 20
36.233333
 30
0.0
 11
20.0
 21
36.233333
 31
0.0
  0
LINE
  5
2EA
330
2E3
100
AcDbEntity
  8
250
  6
Continuous
 62
     5
370
    18
100
AcDbLine
 10
20.0
 20
36.233333
 30
0.0
 11
20.0
 21
28.233333
 31
0.0
  0
LINE
  5
2EB
330
2E3
100
AcDbEntity
  8
250
  6
Continuous
 62
     5
370
    18
100
AcDbLine
 10
10.0
 20
28.233333
 30
0.0
 11
20.0
 21
28.233333
 31
0.0
  0
MTEXT
  5
2EC
330
2E3
100
AcDbEntity
  8
41
  6
Continuous
 62
     2
370
    18
100
AcDbMText
 10
15.0
 20
32.233333
 30
0.0
 40
2.5
 41
0.0
 71
     5
 72
     5
  1
\W0.7875;1
  7
iso_b_vert
 73
     2
 44
0.8915659999999999
1001
ACAD
1000
MTEXTBEGIN
1070
    73
1070
     2
1070
    44
1040
0.8915659999999999
1070
    74
1070
     0
1000
MTEXTEND
  0
LINE
  5
2ED
330
2E3
100
AcDbEntity
  8
250
  6
Continuous
 62
     5
370
    18
100
AcDbLine
 10
20.0
 20
36.233333
 30
0.0
 11
70.0
 21
36.233333
 31
0.0
  0
LINE
  5
2EE
330
2E3
100
AcDbEntity
  8
250
  6
Continuous
 62
     5
370
    18
100
AcDbLine
 10
70.0
 20
36.233333
 30
0.0
 11
70.0
 21
28.233333
 31
0.0
  0
LINE
  5
2EF
330
2E3
100
AcDbEntity
  8
250
  6
Continuous
 62
     5
370
    18
100
AcDbLine
 10
20.0
 20
28.233333
 30
0.0
 11
70.0
 21
28.233333
 31
0.0
  0
MTEXT
  5
2F0
330
2E3
100
AcDbEntity
  8
41
  6
Continuous
 62
     2
370
    18
100
AcDbMText
 10
21.325
 20
32.233333
 30
0.0
 40
2.5
 41
0.0
 71
     4
 72
     5
  1
\W0.8755;SCREWDRIVER
  7
iso_b_vert
 73
     2
 44
0.8915659999999999
1001
ACAD
1000
MTEXTBEGIN
1070
    73
1070
     2
1070
    44
1040
0.8915659999999999
1070
    74
1070
     0
1000
MTEXTEND
  0
LINE
  5
2F1
330
2E3
100
AcDbEntity
  8
250
  6
Continuous
 62
     5
370
    18
100
AcDbLine
 10
70.0
 20
36.233333
 30
0.0
 11
127.0
 21
36.233333
 31
0.0
  0
LINE
  5
2F2
330
2E3
100
AcDbEntity
  8
250
  6
Continuous
 62
     5
370
    18
100
AcDbLine
 10
127.0
 20
36.233333
 30
0.0
 11
127.0
 21
28.233333
 31
0.0
  0
LINE
  5
2F3
330
2E3
100
AcDbEntity
  8
250
  6
Continuous
 62
     5
370
    18
100
AcDbLine
 10
70.0
 20
28.233333
 30
0.0
 11
127.0
 21
28.233333
 31
0.0
  0
LINE
  5
2F4
330
2E3
100
AcDbEntity
  8
250
  6
Continuous
 62
     5
370
    18
100
AcDbLine
 10
127.0
 20
36.233333
 30
0.0
 11
180.0
 21
36.233333
 31
0.0
  0
LINE
  5
2F5
330
2E3
100
AcDbEntity
  8
250
  6
Continuous
 62
     5
370
    18
100
AcDbLine
 10
180.0
 20
36.233333
 30
0.0
 11
180.0
 21
28.233333
 31
0.0
  0
LINE
  5
2F6
330
2E3
100
AcDbEntity
  8
250
  6
Continuous
 62
     5
370
    18
100
AcDbLine
 10
127.0
 20
28.233333
 30
0.0
 11
180.0
 21
28.233333
 31
0.0
  0
LINE
  5
2F7
330
2E3
100
AcDbEntity
  8
250
  6
Continuous
 62
     5
370
    18
100
AcDbLine
 10
0.0
 20
28.233333
 30
0.0
 11
0.0
 21
20.233333
 31
0.0
  0
LINE
  5
2F8
330
2E3
100
AcDbEntity
  8
250
  6
Continuous
 62
     5
370
    18
100
AcDbLine
 10
10.0
 20
28.233333
 30
0.0
 11
10.0
 21
20.233333
 31
0.0
  0
LINE
  5
2F9
330
2E3
100
AcDbEntity
  8
250
  6
Continuous
 62
     5
370
    18
100
AcDbLine
 10
0.0
 20
20.233333
 30
0.0
 11
10.0
 21
20.233333
 31
0.0
  0
MTEXT
  5
2FA
330
2E3
100
AcDbEntity
  8
41
  6
Continuous
 62
     2
370
    18
100
AcDbMText
 10
5.0
 20
24.233333
 30
0.0
 40
2.5
 41
0.0
 71
     5
 72
     5
  1
\W0.6563;3
  7
iso_b_vert
 73
     2
 44
0.8915659999999999
1001
ACAD
1000
MTEXTBEGIN
1070
    73
1070
     2
1070
    44
1040
0.8915659999999999
1070
    74
1070
     0
1000
MTEXTEND
  0
LINE
  5
2FB
330
2E3
100
AcDbEntity
  8
250
  6
Continuous
 62
     5
370
    18
100
AcDbLine
 10
20.0
 20
28.233333
 30
0.0
 11
20.0
 21
20.233333
 31
0.0
  0
LINE
  5
2FC
330
2E3
100
AcDbEntity
  8
250
  6
Continuous
 62
     5
370
    18
100
AcDbLine
 10
10.0
 20
20.233333
 30
0.0
 11
20.0
 21
20.233333
 31
0.0
  0
MTEXT
  5
2FD
330
2E3
100
AcDbEntity
  8
41
  6
Continuous
 62
     2
370
    18
100
AcDbMText
 10
15.0
 20
24.233333
 30
0.0
 40
2.5
 41
0.0
 71
     5
 72
     5
  1
\W0.7875;1
  7
iso_b_vert
 73
     2
 44
0.8915659999999999
1001
ACAD
1000
MTEXTBEGIN
1070
    73
1070
     2
1070
    44
1040
0.8915659999999999
1070
    74
1070
     0
1000
MTEXTEND
  0
LINE
  5
2FE
330
2E3
100
AcDbEntity
  8
250
  6
Continuous
 62
     5
370
    18
100
AcDbLine
 10
70.0
 20
28.233333
 30
0.0
 11
70.0
 21
20.233333
 31
0.0
  0
LINE
  5
2FF
330
2E3
100
AcDbEntity
  8
250
  6
Continuous
 62
     5
370
    18
100
AcDbLine
 10
20.0
 20
20.233333
 30
0.0
 11
70.0
 21
20.233333
 31
0.0
  0
MTEXT
  5
300
330
2E3
100
AcDbEntity
  8
41
  6
Continuous
 62
     2
370
    18
100
AcDbMText
 10
21.325
 20
24.233333
 30
0.0
 40
2.5
 41
0.0
 71
     4
 72
     5
  1
\W0.8392;INSERT
  7
iso_b_vert
 73
     2
 44
0.8915659999999999
1001
ACAD
1000
MTEXTBEGIN
1070
    73
1070
     2
1070
    44
1040
0.8915659999999999
1070
    74
1070
     0
1000
MTEXTEND
  0
LINE
  5
301
330
2E3
100
AcDbEntity
  8
250
  6
Continuous
 62
     5
370
    18
100
AcDbLine
 10
127.0
 20
28.233333
 30
0.0
 11
127.0
 21
20.233333
 31
0.0
  0
LINE
  5
302
330
2E3
100
AcDbEntity
  8
250
  6
Continuous
 62
     5
370
    18
100
AcDbLine
 10
70.0
 20
20.233333
 30
0.0
 11
127.0
 21
20.233333
 31
0.0
  0
LINE
  5
303
330
2E3
100
AcDbEntity
  8
250
  6
Continuous
 62
     5
370
    18
100
AcDbLine
 10
180.0
 20
28.233333
 30
0.0
 11
180.0
 21
20.233333
 31
0.0
  0
LINE
  5
304
330
2E3
100
AcDbEntity
  8
250
  6
Continuous
 62
     5
370
    18
100
AcDbLine
 10
127.0
 20
20.233333
 30
0.0
 11
180.0
 21
20.233333
 31
0.0
  0
LINE
  5
305
330
2E3
100
AcDbEntity
  8
250
  6
Continuous
 62
     5
370
    18
100
AcDbLine
 10
0.0
 20
20.233333
 30
0.0
 11
0.0
 21
12.233333
 31
0.0
  0
LINE
  5
306
330
2E3
100
AcDbEntity
  8
250
  6
Continuous
 62
     5
370
    18
100
AcDbLine
 10
10.0
 20
20.233333
 30
0.0
 11
10.0
 21
12.233333
 31
0.0
  0
LINE
  5
307
330
2E3
100
AcDbEntity
  8
250
  6
Continuous
 62
     5
370
    18
100
AcDbLine
 10
0.0
 20
12.233333
 30
0.0
 11
10.0
 21
12.233333
 31
0.0
  0
MTEXT
  5
308
330
2E3
100
AcDbEntity
  8
41
  6
Continuous
 62
     2
370
    18
100
AcDbMText
 10
5.0
 20
16.233333
 30
0.0
 40
2.5
 41
0.0
 71
     5
 72
     5
  1
\W0.6563;2
  7
iso_b_vert
 73
     2
 44
0.8915659999999999
1001
ACAD
1000
MTEXTBEGIN
1070
    73
1070
     2
1070
    44
1040
0.8915659999999999
1070
    74
1070
     0
1000
MTEXTEND
  0
LINE
  5
309
330
2E3
100
AcDbEntity
  8
250
  6
Continuous
 62
     5
370
    18
100
AcDbLine
 10
20.0
 20
20.233333
 30
0.0
 11
20.0
 21
12.233333
 31
0.0
  0
LINE
  5
30A
330
2E3
100
AcDbEntity
  8
250
  6
Continuous
 62
     5
370
    18
100
AcDbLine
 10
10.0
 20
12.233333
 30
0.0
 11
20.0
 21
12.233333
 31
0.0
  0
MTEXT
  5
30B
330
2E3
100
AcDbEntity
  8
41
  6
Continuous
 62
     2
370
    18
100
AcDbMText
 10
15.0
 20
16.233333
 30
0.0
 40
2.5
 41
0.0
 71
     5
 72
     5
  1
\W0.7875;1
  7
iso_b_vert
 73
     2
 44
0.8915659999999999
1001
ACAD
1000
MTEXTBEGIN
1070
    73
1070
     2
1070
    44
1040
0.8915659999999999
1070
    74
1070
     0
1000
MTEXTEND
  0
LINE
  5
30C
330
2E3
100
AcDbEntity
  8
250
  6
Continuous
 62
     5
370
    18
100
AcDbLine
 10
70.0
 20
20.233333
 30
0.0
 11
70.0
 21
12.233333
 31
0.0
  0
LINE
  5
30D
330
2E3
100
AcDbEntity
  8
250
  6
Continuous
 62
     5
370
    18
100
AcDbLine
 10
20.0
 20
12.233333
 30
0.0
 11
70.0
 21
12.233333
 31
0.0
  0
MTEXT
  5
30E
330
2E3
100
AcDbEntity
  8
41
  6
Continuous
 62
     2
370
    18
100
AcDbMText
 10
21.325
 20
16.233333
 30
0.0
 40
2.5
 41
0.0
 71
     4
 72
     5
  1
\W0.8512;SCREW
  7
iso_b_vert
 73
     2
 44
0.8915659999999999
1001
ACAD
1000
MTEXTBEGIN
1070
    73
1070
     2
1070
    44
1040
0.8915659999999999
1070
    74
1070
     0
1000
MTEXTEND
  0
LINE
  5
30F
330
2E3
100
AcDbEntity
  8
250
  6
Continuous
 62
     5
370
    18
100
AcDbLine
 10
127.0
 20
20.233333
 30
0.0
 11
127.0
 21
12.233333
 31
0.0
  0
LINE
  5
310
330
2E3
100
AcDbEntity
  8
250
  6
Continuous
 62
     5
370
    18
100
AcDbLine
 10
70.0
 20
12.233333
 30
0.0
 11
127.0
 21
12.233333
 31
0.0
  0
LINE
  5
311
330
2E3
100
AcDbEntity
  8
250
  6
Continuous
 62
     5
370
    18
100
AcDbLine
 10
180.0
 20
20.233333
 30
0.0
 11
180.0
 21
12.233333
 31
0.0
  0
LINE
  5
312
330
2E3
100
AcDbEntity
  8
250
  6
Continuous
 62
     5
370
    18
100
AcDbLine
 10
127.0
 20
12.233333
 30
0.0
 11
180.0
 21
12.233333
 31
0.0
  0
LINE
  5
313
330
2E3
100
AcDbEntity
  8
250
  6
Continuous
 62
     5
370
    18
100
AcDbLine
 10
0.0
 20
12.233333
 30
0.0
 11
0.0
 21
4.233333
 31
0.0
  0
LINE
  5
314
330
2E3
100
AcDbEntity
  8
250
  6
Continuous
 62
     5
370
    18
100
AcDbLine
 10
10.0
 20
12.233333
 30
0.0
 11
10.0
 21
4.233333
 31
0.0
  0
LINE
  5
315
330
2E3
100
AcDbEntity
  8
250
  6
Continuous
 62
     5
370
    18
100
AcDbLine
 10
0.0
 20
4.233333
 30
0.0
 11
10.0
 21
4.233333
 31
0.0
  0
MTEXT
  5
316
330
2E3
100
AcDbEntity
  8
41
  6
Continuous
 62
     2
370
    18
100
AcDbMText
 10
5.0
 20
8.233333
 30
0.0
 40
2.5
 41
0.0
 71
     5
 72
     5
  1
\W0.7875;1
  7
iso_b_vert
 73
     2
 44
0.8915659999999999
1001
ACAD
1000
MTEXTBEGIN
1070
    73
1070
     2
1070
    44
1040
0.8915659999999999
1070
    74
1070
     0
1000
MTEXTEND
  0
LINE
  5
317
330
2E3
100
AcDbEntity
  8
250
  6
Continuous
 62
     5
370
    18
100
AcDbLine
 10
20.0
 20
12.233333
 30
0.0
 11
20.0
 21
4.233333
 31
0.0
  0
LINE
  5
318
330
2E3
100
AcDbEntity
  8
250
  6
Continuous
 62
     5
370
    18
100
AcDbLine
 10
10.0
 20
4.233333
 30
0.0
 11
20.0
 21
4.233333
 31
0.0
  0
MTEXT
  5
319
330
2E3
100
AcDbEntity
  8
41
  6
Continuous
 62
     2
370
    18
100
AcDbMText
 10
15.0
 20
8.233333
 30
0.0
 40
2.5
 41
0.0
 71
     5
 72
     5
  1
\W0.7875;1
  7
iso_b_vert
 73
     2
 44
0.8915659999999999
1001
ACAD
1000
MTEXTBEGIN
1070
    73
1070
     2
1070
    44
1040
0.8915659999999999
1070
    74
1070
     0
1000
MTEXTEND
  0
LINE
  5
31A
330
2E3
100
AcDbEntity
  8
250
  6
Continuous
 62
     5
370
    18
100
AcDbLine
 10
70.0
 20
12.233333
 30
0.0
 11
70.0
 21
4.233333
 31
0.0
  0
LINE
  5
31B
330
2E3
100
AcDbEntity
  8
250
  6
Continuous
 62
     5
370
    18
100
AcDbLine
 10
20.0
 20
4.233333
 30
0.0
 11
70.0
 21
4.233333
 31
0.0
  0
MTEXT
  5
31C
330
2E3
100
AcDbEntity
  8
41
  6
Continuous
 62
     2
370
    18
100
AcDbMText
 10
21.325
 20
8.233333
 30
0.0
 40
2.5
 41
0.0
 71
     4
 72
     5
  1
\W0.8406;TOOL BODY
  7
iso_b_vert
 73
     2
 44
0.8915659999999999
1001
ACAD
1000
MTEXTBEGIN
1070
    73
1070
     2
1070
    44
1040
0.8915659999999999
1070
    74
1070
     0
1000
MTEXTEND
  0
LINE
  5
31D
330
2E3
100
AcDbEntity
  8
250
  6
Continuous
 62
     5
370
    18
100
AcDbLine
 10
127.0
 20
12.233333
 30
0.0
 11
127.0
 21
4.233333
 31
0.0
  0
LINE
  5
31E
330
2E3
100
AcDbEntity
  8
250
  6
Continuous
 62
     5
370
    18
100
AcDbLine
 10
70.0
 20
4.233333
 30
0.0
 11
127.0
 21
4.233333
 31
0.0
  0
LINE
  5
31F
330
2E3
100
AcDbEntity
  8
250
  6
Continuous
 62
     5
370
    18
100
AcDbLine
 10
180.0
 20
12.233333
 30
0.0
 11
180.0
 21
4.233333
 31
0.0
  0
LINE
  5
320
330
2E3
100
AcDbEntity
  8
250
  6
Continuous
 62
     5
370
    18
100
AcDbLine
 10
127.0
 20
4.233333
 30
0.0
 11
180.0
 21
4.233333
 31
0.0
  0
LINE
  5
321
330
2E3
100
AcDbEntity
  8
250
  6
Continuous
 62
     5
370
    18
100
AcDbLine
 10
0.0
 20
4.233333
 30
0.0
 11
0.0
 21
0.0
 31
0.0
  0
LINE
  5
322
330
2E3
100
AcDbEntity
  8
250
  6
Continuous
 62
     5
370
    18
100
AcDbLine
 10
10.0
 20
4.233333
 30
0.0
 11
10.0
 21
0.0
 31
0.0
  0
LINE
  5
323
330
2E3
100
AcDbEntity
  8
250
  6
Continuous
 62
     5
370
    18
100
AcDbLine
 10
0.0
 20
0.0
 30
0.0
 11
10.0
 21
0.0
 31
0.0
  0
MTEXT
  5
324
330
2E3
100
AcDbEntity
  8
41
  6
Continuous
 62
     2
370
    18
100
AcDbMText
 10
5.0
 20
2.116668
 30
0.0
 40
1.0
 41
0.0
 71
     5
 72
     5
  1
\W0.8876;ITEM
  7
iso_b_vert
 73
     2
 44
1.084337
1001
ACAD
1000
MTEXTBEGIN
1070
    73
1070
     2
1070
    44
1040
1.084337
1070
    74
1070
     0
1000
MTEXTEND
  0
LINE
  5
325
330
2E3
100
AcDbEntity
  8
250
  6
Continuous
 62
     5
370
    18
100
AcDbLine
 10
20.0
 20
4.233333
 30
0.0
 11
20.0
 21
0.0
 31
0.0
  0
LINE
  5
326
330
2E3
100
AcDbEntity
  8
250
  6
Continuous
 62
     5
370
    18
100
AcDbLine
 10
10.0
 20
0.0
 30
0.0
 11
20.0
 21
0.0
 31
0.0
  0
MTEXT
  5
327
330
2E3
100
AcDbEntity
  8
41
  6
Continuous
 62
     2
370
    18
100
AcDbMText
 10
15.0
 20
2.116668
 30
0.0
 40
1.0
 41
0.0
 71
     5
 72
     5
  1
\W0.8957;QUANTITY
  7
iso_b_vert
 73
     2
 44
1.084337
1001
ACAD
1000
MTEXTBEGIN
1070
    73
1070
     2
1070
    44
1040
1.084337
1070
    74
1070
     0
1000
MTEXTEND
  0
LINE
  5
328
330
2E3
100
AcDbEntity
  8
250
  6
Continuous
 62
     5
370
    18
100
AcDbLine
 10
70.0
 20
4.233333
 30
0.0
 11
70.0
 21
0.0
 31
0.0
  0
LINE
  5
329
330
2E3
100
AcDbEntity
  8
250
  6
Continuous
 62
     5
370
    18
100
AcDbLine
 10
20.0
 20
0.0
 30
0.0
 11
70.0
 21
0.0
 31
0.0
  0
MTEXT
  5
32A
330
2E3
100
AcDbEntity
  8
41
  6
Continuous
 62
     2
370
    18
100
AcDbMText
 10
20.575
 20
2.116668
 30
0.0
 40
1.0
 41
0.0
 71
     4
 72
     5
  1
\W0.8467;DESCRIPTION
  7
iso_b_vert
 73
     2
 44
1.084337
1001
ACAD
1000
MTEXTBEGIN
1070
    73
1070
     2
1070
    44
1040
1.084337
1070
    74
1070
     0
1000
MTEXTEND
  0
LINE
  5
32B
330
2E3
100
AcDbEntity
  8
250
  6
Continuous
 62
     5
370
    18
100
AcDbLine
 10
127.0
 20
4.233333
 30
0.0
 11
127.0
 21
0.0
 31
0.0
  0
LINE
  5
32C
330
2E3
100
AcDbEntity
  8
250
  6
Continuous
 62
     5
370
    18
100
AcDbLine
 10
70.0
 20
0.0
 30
0.0
 11
127.0
 21
0.0
 31
0.0
  0
MTEXT
  5
32D
330
2E3
100
AcDbEntity
  8
41
  6
Continuous
 62
     2
370
    18
100
AcDbMText
 10
70.575
 20
2.116668
 30
0.0
 40
1.0
 41
0.0
 71
     4
 72
     5
  1
\W0.8329;MATERIAL, PRODUCT CODE AND REMARK
  7
iso_b_vert
 73
     2
 44
1.084337
1001
ACAD
1000
MTEXTBEGIN
1070
    73
1070
     2
1070
    44
1040
1.084337
1070
    74
1070
     0
1000
MTEXTEND
  0
LINE
  5
32E
330
2E3
100
AcDbEntity
  8
250
  6
Continuous
 62
     5
370
    18
100
AcDbLine
 10
180.0
 20
4.233333
 30
0.0
 11
180.0
 21
0.0
 31
0.0
  0
LINE
  5
32F
330
2E3
100
AcDbEntity
  8
250
  6
Continuous
 62
     5
370
    18
100
AcDbLine
 10
127.0
 20
0.0
 30
0.0
 11
180.0
 21
0.0
 31
0.0
  0
MTEXT
  5
330
330
2E3
100
AcDbEntity
  8
41
  6
Continuous
 62
     2
370
    18
100
AcDbMText
 10
127.575
 20
2.116668
 30
0.0
 40
1.0
 41
0.0
 71
     4
 72
     5
  1
\W0.8808;DRAWING
  7
iso_b_vert
 73
     2
 44
1.084337
1001
ACAD
1000
MTEXTBEGIN
1070
    73
1070
     2
1070
    44
1040
1.084337
1070
    74
1070
     0
1000
MTEXTEND
  0
ENDBLK
  5
333
330
2E3
100
AcDbEntity
  8
0
100
AcDbBlockEnd
  0
BLOCK
  5
353
330
334
100
AcDbEntity
  8
0
100
AcDbBlockBegin
  2
TabularNote1
 70
     0
 10
0.0
 20
0.0
 30
0.0
  3
TabularNote1
  1

  0
LINE
  5
335
330
334
100
AcDbEntity
  8
250
  6
Continuous
 62
     5
370
    18
100
AcDbLine
 10
0.0
 20
0.0
 30
0.0
 11
72.0
 21
0.0
 31
0.0
  0
LINE
  5
336
330
334
100
AcDbEntity
  8
250
  6
Continuous
 62
     5
370
    18
100
AcDbLine
 10
0.0
 20
0.0
 30
0.0
 11
0.0
 21
-1.9
 31
0.0
  0
LINE
  5
337
330
334
100
AcDbEntity
  8
250
  6
Continuous
 62
     5
370
    18
100
AcDbLine
 10
72.0
 20
0.0
 30
0.0
 11
72.0
 21
-1.9
 31
0.0
  0
MTEXT
  5
338
330
334
100
AcDbEntity
  8
41
  6
Continuous
 62
     2
370
    18
100
AcDbMText
 10
0.575
 20
-0.95
 30
0.0
 40
1.0
 41
0.0
 71
     4
 72
     5
  1
\W0.8122;PRODUCT CODE
  7
iso_b_vert
 73
     2
 44
1.084337
1001
ACAD
1000
MTEXTBEGIN
1070
    73
1070
     2
1070
    44
1040
1.084337
1070
    74
1070
     0
1000
MTEXTEND
  0
LINE
  5
339
330
334
100
AcDbEntity
  8
250
  6
Continuous
 62
     5
370
    18
100
AcDbLine
 10
72.0
 20
0.0
 30
0.0
 11
127.0
 21
0.0
 31
0.0
  0
LINE
  5
33A
330
334
100
AcDbEntity
  8
250
  6
Continuous
 62
     5
370
    18
100
AcDbLine
 10
127.0
 20
0.0
 30
0.0
 11
127.0
 21
-1.9
 31
0.0
  0
MTEXT
  5
33B
330
334
100
AcDbEntity
  8
41
  6
Continuous
 62
     2
370
    18
100
AcDbMText
 10
72.575
 20
-0.95
 30
0.0
 40
1.0
 41
0.0
 71
     4
 72
     5
  1
\W0.8810;MATERIAL
  7
iso_b_vert
 73
     2
 44
1.084337
1001
ACAD
1000
MTEXTBEGIN
1070
    73
1070
     2
1070
    44
1040
1.084337
1070
    74
1070
     0
1000
MTEXTEND
  0
LINE
  5
33C
330
334
100
AcDbEntity
  8
250
  6
Continuous
 62
     5
370
    18
100
AcDbLine
 10
127.0
 20
0.0
 30
0.0
 11
180.0
 21
0.0
 31
0.0
  0
LINE
  5
33D
330
334
100
AcDbEntity
  8
250
  6
Continuous
 62
     5
370
    18
100
AcDbLine
 10
180.0
 20
0.0
 30
0.0
 11
180.0
 21
-1.9
 31
0.0
  0
LINE
  5
33E
330
334
100
AcDbEntity
  8
250
  6
Continuous
 62
     5
370
    18
100
AcDbLine
 10
0.0
 20
-1.9
 30
0.0
 11
0.0
 21
-8.9
 31
0.0
  0
LINE
  5
33F
330
334
100
AcDbEntity
  8
250
  6
Continuous
 62
     5
370
    18
100
AcDbLine
 10
0.0
 20
-8.9
 30
0.0
 11
72.0
 21
-8.9
 31
0.0
  0
LINE
  5
340
330
334
100
AcDbEntity
  8
250
  6
Continuous
 62
     5
370
    18
100
AcDbLine
 10
72.0
 20
-1.9
 30
0.0
 11
72.0
 21
-8.9
 31
0.0
  0
MTEXT
  5
341
330
334
100
AcDbEntity
  8
41
  6
Continuous
 62
     2
370
    25
100
AcDbMText
 10
1.825
 20
-5.4
 30
0.0
 40
3.5
 41
0.0
 71
     4
 72
     5
  1
\W0.7810;SVJBR1616K11-S
  7
iso_b_vert
 73
     2
 44
1.084337
1001
ACAD
1000
MTEXTBEGIN
1070
    73
1070
     2
1070
    44
1040
1.084337
1070
    74
1070
     0
1000
MTEXTEND
  0
LINE
  5
342
330
334
100
AcDbEntity
  8
250
  6
Continuous
 62
     5
370
    18
100
AcDbLine
 10
72.0
 20
-8.9
 30
0.0
 11
127.0
 21
-8.9
 31
0.0
  0
LINE
  5
343
330
334
100
AcDbEntity
  8
250
  6
Continuous
 62
     5
370
    18
100
AcDbLine
 10
127.0
 20
-1.9
 30
0.0
 11
127.0
 21
-8.9
 31
0.0
  0
LINE
  5
344
330
334
100
AcDbEntity
  8
250
  6
Continuous
 62
     5
370
    18
100
AcDbLine
 10
180.0
 20
-1.9
 30
0.0
 11
180.0
 21
-8.9
 31
0.0
  0
LINE
  5
345
330
334
100
AcDbEntity
  8
250
  6
Continuous
 62
     5
370
    18
100
AcDbLine
 10
0.0
 20
-8.9
 30
0.0
 11
0.0
 21
-10.8
 31
0.0
  0
MTEXT
  5
346
330
334
100
AcDbEntity
  8
41
  6
Continuous
 62
     2
370
    18
100
AcDbMText
 10
0.575
 20
-9.849999
 30
0.0
 40
1.0
 41
0.0
 71
     4
 72
     5
  1
\W0.9090;TITLE
  7
iso_b_vert
 73
     2
 44
1.084337
1001
ACAD
1000
MTEXTBEGIN
1070
    73
1070
     2
1070
    44
1040
1.084337
1070
    74
1070
     0
1000
MTEXTEND
  0
LINE
  5
347
330
334
100
AcDbEntity
  8
250
  6
Continuous
 62
     5
370
    18
100
AcDbLine
 10
127.0
 20
-8.9
 30
0.0
 11
127.0
 21
-10.8
 31
0.0
  0
LINE
  5
348
330
334
100
AcDbEntity
  8
250
  6
Continuous
 62
     5
370
    18
100
AcDbLine
 10
180.0
 20
-8.9
 30
0.0
 11
180.0
 21
-10.8
 31
0.0
  0
LINE
  5
349
330
334
100
AcDbEntity
  8
250
  6
Continuous
 62
     5
370
    18
100
AcDbLine
 10
0.0
 20
-10.8
 30
0.0
 11
0.0
 21
-18.725
 31
0.0
  0
LINE
  5
34A
330
334
100
AcDbEntity
  8
250
  6
Continuous
 62
     5
370
    18
100
AcDbLine
 10
127.0
 20
-10.8
 30
0.0
 11
127.0
 21
-18.725
 31
0.0
  0
LINE
  5
34B
330
334
100
AcDbEntity
  8
250
  6
Continuous
 62
     5
370
    18
100
AcDbLine
 10
180.0
 20
-10.8
 30
0.0
 11
180.0
 21
-18.725
 31
0.0
  0
LINE
  5
34C
330
334
100
AcDbEntity
  8
250
  6
Continuous
 62
     5
370
    18
100
AcDbLine
 10
0.0
 20
-18.725
 30
0.0
 11
0.0
 21
-26.65
 31
0.0
  0
LINE
  5
34D
330
334
100
AcDbEntity
  8
250
  6
Continuous
 62
     5
370
    18
100
AcDbLine
 10
0.0
 20
-26.65
 30
0.0
 11
72.0
 21
-26.65
 31
0.0
  0
LINE
  5
34E
330
334
100
AcDbEntity
  8
250
  6
Continuous
 62
     5
370
    18
100
AcDbLine
 10
72.0
 20
-26.65
 30
0.0
 11
127.0
 21
-26.65
 31
0.0
  0
LINE
  5
34F
330
334
100
AcDbEntity
  8
250
  6
Continuous
 62
     5
370
    18
100
AcDbLine
 10
127.0
 20
-18.725
 30
0.0
 11
127.0
 21
-26.65
 31
0.0
  0
LINE
  5
350
330
334
100
AcDbEntity
  8
250
  6
Continuous
 62
     5
370
    18
100
AcDbLine
 10
127.0
 20
-26.65
 30
0.0
 11
180.0
 21
-26.65
 31
0.0
  0
LINE
  5
351
330
334
100
AcDbEntity
  8
250
  6
Continuous
 62
     5
370
    18
100
AcDbLine
 10
180.0
 20
-18.725
 30
0.0
 11
180.0
 21
-26.65
 31
0.0
  0
ENDBLK
  5
354
330
334
100
AcDbEntity
  8
0
100
AcDbBlockEnd
  0
BLOCK
  5
395
330
355
100
AcDbEntity
  8
0
100
AcDbBlockBegin
  2
TabularNote2
 70
     0
 10
0.0
 20
0.0
 30
0.0
  3
TabularNote2
  1

  0
LINE
  5
356
330
355
100
AcDbEntity
  8
250
  6
Continuous
 62
     5
370
    18
100
AcDbLine
 10
0.0
 20
0.0
 30
0.0
 11
12.0
 21
0.0
 31
0.0
  0
LINE
  5
357
330
355
100
AcDbEntity
  8
250
  6
Continuous
 62
     5
370
    18
100
AcDbLine
 10
0.0
 20
0.0
 30
0.0
 11
0.0
 21
-1.9
 31
0.0
  0
LINE
  5
358
330
355
100
AcDbEntity
  8
250
  6
Continuous
 62
     5
370
    18
100
AcDbLine
 10
12.0
 20
0.0
 30
0.0
 11
12.0
 21
-1.9
 31
0.0
  0
MTEXT
  5
359
330
355
100
AcDbEntity
  8
41
  6
Continuous
 62
     2
370
    18
100
AcDbMText
 10
0.575
 20
-0.95
 30
0.0
 40
1.0
 41
0.0
 71
     4
 72
     5
  1
\W0.9067;STATUS
  7
iso_b_vert
 73
     2
 44
1.084337
1001
ACAD
1000
MTEXTBEGIN
1070
    73
1070
     2
1070
    44
1040
1.084337
1070
    74
1070
     0
1000
MTEXTEND
  0
LINE
  5
35A
330
355
100
AcDbEntity
  8
250
  6
Continuous
 62
     5
370
    18
100
AcDbLine
 10
12.0
 20
0.0
 30
0.0
 11
26.0
 21
0.0
 31
0.0
  0
LINE
  5
35B
330
355
100
AcDbEntity
  8
250
  6
Continuous
 62
     5
370
    18
100
AcDbLine
 10
12.0
 20
-1.9
 30
0.0
 11
26.0
 21
-1.9
 31
0.0
  0
LINE
  5
35C
330
355
100
AcDbEntity
  8
250
  6
Continuous
 62
     5
370
    18
100
AcDbLine
 10
26.0
 20
0.0
 30
0.0
 11
26.0
 21
-1.9
 31
0.0
  0
LINE
  5
35D
330
355
100
AcDbEntity
  8
250
  6
Continuous
 62
     5
370
    18
100
AcDbLine
 10
26.0
 20
0.0
 30
0.0
 11
50.0
 21
0.0
 31
0.0
  0
LINE
  5
35E
330
355
100
AcDbEntity
  8
250
  6
Continuous
 62
     5
370
    18
100
AcDbLine
 10
26.0
 20
-1.9
 30
0.0
 11
50.0
 21
-1.9
 31
0.0
  0
LINE
  5
35F
330
355
100
AcDbEntity
  8
250
  6
Continuous
 62
     5
370
    18
100
AcDbLine
 10
50.0
 20
0.0
 30
0.0
 11
50.0
 21
-1.9
 31
0.0
  0
MTEXT
  5
360
330
355
100
AcDbEntity
  8
41
  6
Continuous
 62
     2
370
    18
100
AcDbMText
 10
26.575
 20
-0.95
 30
0.0
 40
1.0
 41
0.0
 71
     4
 72
     5
  1
\W0.8824;DATE
  7
iso_b_vert
 73
     2
 44
1.084337
1001
ACAD
1000
MTEXTBEGIN
1070
    73
1070
     2
1070
    44
1040
1.084337
1070
    74
1070
     0
1000
MTEXTEND
  0
LINE
  5
361
330
355
100
AcDbEntity
  8
250
  6
Continuous
 62
     5
370
    18
100
AcDbLine
 10
50.0
 20
0.0
 30
0.0
 11
88.0
 21
0.0
 31
0.0
  0
LINE
  5
362
330
355
100
AcDbEntity
  8
250
  6
Continuous
 62
     5
370
    18
100
AcDbLine
 10
50.0
 20
-1.9
 30
0.0
 11
88.0
 21
-1.9
 31
0.0
  0
LINE
  5
363
330
355
100
AcDbEntity
  8
250
  6
Continuous
 62
     5
370
    18
100
AcDbLine
 10
88.0
 20
0.0
 30
0.0
 11
88.0
 21
-1.9
 31
0.0
  0
MTEXT
  5
364
330
355
100
AcDbEntity
  8
41
  6
Continuous
 62
     2
370
    18
100
AcDbMText
 10
50.575
 20
-0.95
 30
0.0
 40
1.0
 41
0.0
 71
     4
 72
     5
  1
\W0.8385;NAME
  7
iso_b_vert
 73
     2
 44
1.084337
1001
ACAD
1000
MTEXTBEGIN
1070
    73
1070
     2
1070
    44
1040
1.084337
1070
    74
1070
     0
1000
MTEXTEND
  0
LINE
  5
365
330
355
100
AcDbEntity
  8
250
  6
Continuous
 62
     5
370
    18
100
AcDbLine
 10
88.0
 20
0.0
 30
0.0
 11
112.0
 21
0.0
 31
0.0
  0
LINE
  5
366
330
355
100
AcDbEntity
  8
250
  6
Continuous
 62
     5
370
    18
100
AcDbLine
 10
88.0
 20
-1.9
 30
0.0
 11
112.0
 21
-1.9
 31
0.0
  0
LINE
  5
367
330
355
100
AcDbEntity
  8
250
  6
Continuous
 62
     5
370
    18
100
AcDbLine
 10
112.0
 20
0.0
 30
0.0
 11
112.0
 21
-1.9
 31
0.0
  0
MTEXT
  5
368
330
355
100
AcDbEntity
  8
41
  6
Continuous
 62
     2
370
    18
100
AcDbMText
 10
88.57499999999999
 20
-0.95
 30
0.0
 40
1.0
 41
0.0
 71
     4
 72
     5
  1
\W0.8136;USER ID
  7
iso_b_vert
 73
     2
 44
1.084337
1001
ACAD
1000
MTEXTBEGIN
1070
    73
1070
     2
1070
    44
1040
1.084337
1070
    74
1070
     0
1000
MTEXTEND
  0
LINE
  5
369
330
355
100
AcDbEntity
  8
250
  6
Continuous
 62
     5
370
    18
100
AcDbLine
 10
112.0
 20
0.0
 30
0.0
 11
124.0
 21
0.0
 31
0.0
  0
LINE
  5
36A
330
355
100
AcDbEntity
  8
250
  6
Continuous
 62
     5
370
    18
100
AcDbLine
 10
124.0
 20
0.0
 30
0.0
 11
124.0
 21
-1.9
 31
0.0
  0
MTEXT
  5
36B
330
355
100
AcDbEntity
  8
41
  6
Continuous
 62
     2
370
    18
100
AcDbMText
 10
112.575
 20
-0.95
 30
0.0
 40
1.0
 41
0.0
 71
     4
 72
     5
  1
\W0.8468;SCALE
  7
iso_b_vert
 73
     2
 44
1.084337
1001
ACAD
1000
MTEXTBEGIN
1070
    73
1070
     2
1070
    44
1040
1.084337
1070
    74
1070
     0
1000
MTEXTEND
  0
LINE
  5
36C
330
355
100
AcDbEntity
  8
250
  6
Continuous
 62
     5
370
    18
100
AcDbLine
 10
124.0
 20
0.0
 30
0.0
 11
180.0
 21
0.0
 31
0.0
  0
LINE
  5
36D
330
355
100
AcDbEntity
  8
250
  6
Continuous
 62
     5
370
    18
100
AcDbLine
 10
180.0
 20
0.0
 30
0.0
 11
180.0
 21
-1.9
 31
0.0
  0
MTEXT
  5
36E
330
355
100
AcDbEntity
  8
41
  6
Continuous
 62
     2
370
    18
100
AcDbMText
 10
124.575
 20
-0.95
 30
0.0
 40
1.0
 41
0.0
 71
     4
 72
     5
  1
\W0.8471;SUPERSEDES
  7
iso_b_vert
 73
     2
 44
1.084337
1001
ACAD
1000
MTEXTBEGIN
1070
    73
1070
     2
1070
    44
1040
1.084337
1070
    74
1070
     0
1000
MTEXTEND
  0
LINE
  5
36F
330
355
100
AcDbEntity
  8
250
  6
Continuous
 62
     5
370
    18
100
AcDbLine
 10
0.0
 20
-1.9
 30
0.0
 11
0.0
 21
-5.4
 31
0.0
  0
LINE
  5
370
330
355
100
AcDbEntity
  8
250
  6
Continuous
 62
     5
370
    18
100
AcDbLine
 10
12.0
 20
-1.9
 30
0.0
 11
12.0
 21
-5.4
 31
0.0
  0
LINE
  5
371
330
355
100
AcDbEntity
  8
250
  6
Continuous
 62
     5
370
    18
100
AcDbLine
 10
12.0
 20
-5.4
 30
0.0
 11
26.0
 21
-5.4
 31
0.0
  0
LINE
  5
372
330
355
100
AcDbEntity
  8
250
  6
Continuous
 62
     5
370
    18
100
AcDbLine
 10
26.0
 20
-1.9
 30
0.0
 11
26.0
 21
-5.4
 31
0.0
  0
MTEXT
  5
373
330
355
100
AcDbEntity
  8
41
  6
Continuous
 62
     2
370
    18
100
AcDbMText
 10
12.575
 20
-3.649999999999999
 30
0.0
 40
1.0
 41
0.0
 71
     4
 72
     5
  1
\W0.8408;DESIGNED
  7
iso_b_vert
 73
     2
 44
1.084337
1001
ACAD
1000
MTEXTBEGIN
1070
    73
1070
     2
1070
    44
1040
1.084337
1070
    74
1070
     0
1000
MTEXTEND
  0
LINE
  5
374
330
355
100
AcDbEntity
  8
250
  6
Continuous
 62
     5
370
    18
100
AcDbLine
 10
26.0
 20
-5.4
 30
0.0
 11
50.0
 21
-5.4
 31
0.0
  0
LINE
  5
375
330
355
100
AcDbEntity
  8
250
  6
Continuous
 62
     5
370
    18
100
AcDbLine
 10
50.0
 20
-1.9
 30
0.0
 11
50.0
 21
-5.4
 31
0.0
  0
MTEXT
  5
376
330
355
100
AcDbEntity
  8
41
  6
Continuous
 62
     2
370
    18
100
AcDbMText
 10
27.075
 20
-3.649999999999999
 30
0.0
 40
2.0
 41
0.0
 71
     4
 72
     5
  1
\W0.7232;2021-02-09
  7
iso_b_vert
 73
     2
 44
1.084337
1001
ACAD
1000
MTEXTBEGIN
1070
    73
1070
     2
1070
    44
1040
1.084337
1070
    74
1070
     0
1000
MTEXTEND
  0
LINE
  5
377
330
355
100
AcDbEntity
  8
250
  6
Continuous
 62
     5
370
    18
100
AcDbLine
 10
50.0
 20
-5.4
 30
0.0
 11
88.0
 21
-5.4
 31
0.0
  0
LINE
  5
378
330
355
100
AcDbEntity
  8
250
  6
Continuous
 62
     5
370
    18
100
AcDbLine
 10
88.0
 20
-1.9
 30
0.0
 11
88.0
 21
-5.4
 31
0.0
  0
MTEXT
  5
379
330
355
100
AcDbEntity
  8
41
  6
Continuous
 62
     2
370
    18
100
AcDbMText
 10
51.075
 20
-3.649999999999999
 30
0.0
 40
2.0
 41
0.0
 71
     4
 72
     5
  1
\W0.8822;R.Vlcek
  7
iso_b_vert
 73
     2
 44
1.084337
1001
ACAD
1000
MTEXTBEGIN
1070
    73
1070
     2
1070
    44
1040
1.084337
1070
    74
1070
     0
1000
MTEXTEND
  0
LINE
  5
37A
330
355
100
AcDbEntity
  8
250
  6
Continuous
 62
     5
370
    18
100
AcDbLine
 10
88.0
 20
-5.4
 30
0.0
 11
112.0
 21
-5.4
 31
0.0
  0
LINE
  5
37B
330
355
100
AcDbEntity
  8
250
  6
Continuous
 62
     5
370
    18
100
AcDbLine
 10
112.0
 20
-1.9
 30
0.0
 11
112.0
 21
-5.4
 31
0.0
  0
MTEXT
  5
37C
330
355
100
AcDbEntity
  8
41
  6
Continuous
 62
     2
370
    18
100
AcDbMText
 10
89.075
 20
-3.649999999999999
 30
0.0
 40
2.0
 41
0.0
 71
     4
 72
     5
  1
\W0.8327;MP5448
  7
iso_b_vert
 73
     2
 44
1.084337
1001
ACAD
1000
MTEXTBEGIN
1070
    73
1070
     2
1070
    44
1040
1.084337
1070
    74
1070
     0
1000
MTEXTEND
  0
LINE
  5
37D
330
355
100
AcDbEntity
  8
250
  6
Continuous
 62
     5
370
    18
100
AcDbLine
 10
124.0
 20
-1.9
 30
0.0
 11
124.0
 21
-5.4
 31
0.0
  0
LINE
  5
37E
330
355
100
AcDbEntity
  8
250
  6
Continuous
 62
     5
370
    18
100
AcDbLine
 10
180.0
 20
-1.9
 30
0.0
 11
180.0
 21
-5.4
 31
0.0
  0
LINE
  5
37F
330
355
100
AcDbEntity
  8
250
  6
Continuous
 62
     5
370
    18
100
AcDbLine
 10
0.0
 20
-5.4
 30
0.0
 11
0.0
 21
-8.9
 31
0.0
  0
LINE
  5
380
330
355
100
AcDbEntity
  8
250
  6
Continuous
 62
     5
370
    18
100
AcDbLine
 10
0.0
 20
-8.9
 30
0.0
 11
12.0
 21
-8.9
 31
0.0
  0
LINE
  5
381
330
355
100
AcDbEntity
  8
250
  6
Continuous
 62
     5
370
    18
100
AcDbLine
 10
12.0
 20
-5.4
 30
0.0
 11
12.0
 21
-8.9
 31
0.0
  0
MTEXT
  5
382
330
355
100
AcDbEntity
  8
41
  6
Continuous
 62
     2
370
    18
100
AcDbMText
 10
6.0
 20
-5.4
 30
0.0
 40
3.5
 41
0.0
 71
     5
 72
     5
  1
\W0.8511;FR
  7
iso_b_vert
 73
     2
 44
1.084337
1001
ACAD
1000
MTEXTBEGIN
1070
    73
1070
     2
1070
    44
1040
1.084337
1070
    74
1070
     0
1000
MTEXTEND
  0
LINE
  5
383
330
355
100
AcDbEntity
  8
250
  6
Continuous
 62
     5
370
    18
100
AcDbLine
 10
12.0
 20
-8.9
 30
0.0
 11
26.0
 21
-8.9
 31
0.0
  0
LINE
  5
384
330
355
100
AcDbEntity
  8
250
  6
Continuous
 62
     5
370
    18
100
AcDbLine
 10
26.0
 20
-5.4
 30
0.0
 11
26.0
 21
-8.9
 31
0.0
  0
MTEXT
  5
385
330
355
100
AcDbEntity
  8
41
  6
Continuous
 62
     2
370
    18
100
AcDbMText
 10
12.575
 20
-7.15
 30
0.0
 40
1.0
 41
0.0
 71
     4
 72
     5
  1
\W0.8716;APPROVED
  7
iso_b_vert
 73
     2
 44
1.084337
1001
ACAD
1000
MTEXTBEGIN
1070
    73
1070
     2
1070
    44
1040
1.084337
1070
    74
1070
     0
1000
MTEXTEND
  0
LINE
  5
386
330
355
100
AcDbEntity
  8
250
  6
Continuous
 62
     5
370
    18
100
AcDbLine
 10
26.0
 20
-8.9
 30
0.0
 11
50.0
 21
-8.9
 31
0.0
  0
LINE
  5
387
330
355
100
AcDbEntity
  8
250
  6
Continuous
 62
     5
370
    18
100
AcDbLine
 10
50.0
 20
-5.4
 30
0.0
 11
50.0
 21
-8.9
 31
0.0
  0
MTEXT
  5
388
330
355
100
AcDbEntity
  8
41
  6
Continuous
 62
     2
370
    18
100
AcDbMText
 10
27.075
 20
-7.15
 30
0.0
 40
2.0
 41
0.0
 71
     4
 72
     5
  1
\W0.7232;2021-02-09
  7
iso_b_vert
 73
     2
 44
1.084337
1001
ACAD
1000
MTEXTBEGIN
1070
    73
1070
     2
1070
    44
1040
1.084337
1070
    74
1070
     0
1000
MTEXTEND
  0
LINE
  5
389
330
355
100
AcDbEntity
  8
250
  6
Continuous
 62
     5
370
    18
100
AcDbLine
 10
50.0
 20
-8.9
 30
0.0
 11
88.0
 21
-8.9
 31
0.0
  0
LINE
  5
38A
330
355
100
AcDbEntity
  8
250
  6
Continuous
 62
     5
370
    18
100
AcDbLine
 10
88.0
 20
-5.4
 30
0.0
 11
88.0
 21
-8.9
 31
0.0
  0
MTEXT
  5
38B
330
355
100
AcDbEntity
  8
41
  6
Continuous
 62
     2
370
    18
100
AcDbMText
 10
51.075
 20
-7.15
 30
0.0
 40
2.0
 41
0.0
 71
     4
 72
     5
  1
\W0.9012;T.Sebesta
  7
iso_b_vert
 73
     2
 44
1.084337
1001
ACAD
1000
MTEXTBEGIN
1070
    73
1070
     2
1070
    44
1040
1.084337
1070
    74
1070
     0
1000
MTEXTEND
  0
LINE
  5
38C
330
355
100
AcDbEntity
  8
250
  6
Continuous
 62
     5
370
    18
100
AcDbLine
 10
88.0
 20
-8.9
 30
0.0
 11
112.0
 21
-8.9
 31
0.0
  0
LINE
  5
38D
330
355
100
AcDbEntity
  8
250
  6
Continuous
 62
     5
370
    18
100
AcDbLine
 10
112.0
 20
-5.4
 30
0.0
 11
112.0
 21
-8.9
 31
0.0
  0
MTEXT
  5
38E
330
355
100
AcDbEntity
  8
41
  6
Continuous
 62
     2
370
    18
100
AcDbMText
 10
89.075
 20
-7.15
 30
0.0
 40
2.0
 41
0.0
 71
     4
 72
     5
  1
\W0.7837;PI2597
  7
iso_b_vert
 73
     2
 44
1.084337
1001
ACAD
1000
MTEXTBEGIN
1070
    73
1070
     2
1070
    44
1040
1.084337
1070
    74
1070
     0
1000
MTEXTEND
  0
LINE
  5
38F
330
355
100
AcDbEntity
  8
250
  6
Continuous
 62
     5
370
    18
100
AcDbLine
 10
112.0
 20
-8.9
 30
0.0
 11
124.0
 21
-8.9
 31
0.0
  0
LINE
  5
390
330
355
100
AcDbEntity
  8
250
  6
Continuous
 62
     5
370
    18
100
AcDbLine
 10
124.0
 20
-5.4
 30
0.0
 11
124.0
 21
-8.9
 31
0.0
  0
MTEXT
  5
391
330
355
100
AcDbEntity
  8
41
  6
Continuous
 62
     2
370
    18
100
AcDbMText
 10
118.0
 20
-5.4
 30
0.0
 40
3.5
 41
0.0
 71
     5
 72
     5
  1
\W0.6016;1:1
  7
iso_b_vert
 73
     2
 44
1.084337
1001
ACAD
1000
MTEXTBEGIN
1070
    73
1070
     2
1070
    44
1040
1.084337
1070
    74
1070
     0
1000
MTEXTEND
  0
LINE
  5
392
330
355
100
AcDbEntity
  8
250
  6
Continuous
 62
     5
370
    18
100
AcDbLine
 10
124.0
 20
-8.9
 30
0.0
 11
180.0
 21
-8.9
 31
0.0
  0
LINE
  5
393
330
355
100
AcDbEntity
  8
250
  6
Continuous
 62
     5
370
    18
100
AcDbLine
 10
180.0
 20
-5.4
 30
0.0
 11
180.0
 21
-8.9
 31
0.0
  0
ENDBLK
  5
396
330
355
100
AcDbEntity
  8
0
100
AcDbBlockEnd
  0
BLOCK
  5
3C5
330
397
100
AcDbEntity
  8
0
100
AcDbBlockBegin
  2
TabularNote3
 70
     0
 10
0.0
 20
0.0
 30
0.0
  3
TabularNote3
  1

  0
LINE
  5
398
330
397
100
AcDbEntity
  8
250
  6
Continuous
 62
     5
370
    18
100
AcDbLine
 10
0.0
 20
0.0
 30
0.0
 11
10.0
 21
0.0
 31
0.0
  0
LINE
  5
399
330
397
100
AcDbEntity
  8
250
  6
Continuous
 62
     5
370
    18
100
AcDbLine
 10
0.0
 20
0.0
 30
0.0
 11
0.0
 21
-1.9
 31
0.0
  0
LINE
  5
39A
330
397
100
AcDbEntity
  8
250
  6
Continuous
 62
     5
370
    18
100
AcDbLine
 10
10.0
 20
0.0
 30
0.0
 11
10.0
 21
-1.9
 31
0.0
  0
MTEXT
  5
39B
330
397
100
AcDbEntity
  8
41
  6
Continuous
 62
     2
370
    18
100
AcDbMText
 10
0.575
 20
-0.95
 30
0.0
 40
1.0
 41
0.0
 71
     4
 72
     5
  1
\W0.8569;FORMAT
  7
iso_b_vert
 73
     2
 44
1.084337
1001
ACAD
1000
MTEXTBEGIN
1070
    73
1070
     2
1070
    44
1040
1.084337
1070
    74
1070
     0
1000
MTEXTEND
  0
LINE
  5
39C
330
397
100
AcDbEntity
  8
250
  6
Continuous
 62
     5
370
    18
100
AcDbLine
 10
10.0
 20
0.0
 30
0.0
 11
33.0
 21
0.0
 31
0.0
  0
LINE
  5
39D
330
397
100
AcDbEntity
  8
250
  6
Continuous
 62
     5
370
    18
100
AcDbLine
 10
33.0
 20
0.0
 30
0.0
 11
33.0
 21
-1.9
 31
0.0
  0
LINE
  5
39E
330
397
100
AcDbEntity
  8
250
  6
Continuous
 62
     5
370
    18
100
AcDbLine
 10
33.0
 20
0.0
 30
0.0
 11
94.0
 21
0.0
 31
0.0
  0
LINE
  5
39F
330
397
100
AcDbEntity
  8
250
  6
Continuous
 62
     5
370
    18
100
AcDbLine
 10
94.0
 20
0.0
 30
0.0
 11
94.0
 21
-1.9
 31
0.0
  0
MTEXT
  5
3A0
330
397
100
AcDbEntity
  8
41
  6
Continuous
 62
     2
370
    18
100
AcDbMText
 10
33.575
 20
-0.95
 30
0.0
 40
1.0
 41
0.0
 71
     4
 72
     5
  1
\W0.8199;SUB-KIND DESCRIPTION
  7
iso_b_vert
 73
     2
 44
1.084337
1001
ACAD
1000
MTEXTBEGIN
1070
    73
1070
     2
1070
    44
1040
1.084337
1070
    74
1070
     0
1000
MTEXTEND
  0
LINE
  5
3A1
330
397
100
AcDbEntity
  8
250
  6
Continuous
 62
     5
370
    18
100
AcDbLine
 10
94.0
 20
0.0
 30
0.0
 11
116.0
 21
0.0
 31
0.0
  0
LINE
  5
3A2
330
397
100
AcDbEntity
  8
250
  6
Continuous
 62
     5
370
    18
100
AcDbLine
 10
116.0
 20
0.0
 30
0.0
 11
116.0
 21
-1.9
 31
0.0
  0
MTEXT
  5
3A3
330
397
100
AcDbEntity
  8
41
  6
Continuous
 62
     2
370
    18
100
AcDbMText
 10
94.57500000000001
 20
-0.95
 30
0.0
 40
1.0
 41
0.0
 71
     4
 72
     5
  1
\W0.8011;SUB-KIND
  7
iso_b_vert
 73
     2
 44
1.084337
1001
ACAD
1000
MTEXTBEGIN
1070
    73
1070
     2
1070
    44
1040
1.084337
1070
    74
1070
     0
1000
MTEXTEND
  0
LINE
  5
3A4
330
397
100
AcDbEntity
  8
250
  6
Continuous
 62
     5
370
    18
100
AcDbLine
 10
116.0
 20
0.0
 30
0.0
 11
148.0
 21
0.0
 31
0.0
  0
LINE
  5
3A5
330
397
100
AcDbEntity
  8
250
  6
Continuous
 62
     5
370
    18
100
AcDbLine
 10
148.0
 20
0.0
 30
0.0
 11
148.0
 21
-1.9
 31
0.0
  0
MTEXT
  5
3A6
330
397
100
AcDbEntity
  8
41
  6
Continuous
 62
     2
370
    18
100
AcDbMText
 10
116.575
 20
-0.95
 30
0.0
 40
1.0
 41
0.0
 71
     4
 72
     5
  1
\W0.8484;DRAWING NUMBER
  7
iso_b_vert
 73
     2
 44
1.084337
1001
ACAD
1000
MTEXTBEGIN
1070
    73
1070
     2
1070
    44
1040
1.084337
1070
    74
1070
     0
1000
MTEXTEND
  0
LINE
  5
3A7
330
397
100
AcDbEntity
  8
250
  6
Continuous
 62
     5
370
    18
100
AcDbLine
 10
148.0
 20
0.0
 30
0.0
 11
159.0
 21
0.0
 31
0.0
  0
LINE
  5
3A8
330
397
100
AcDbEntity
  8
250
  6
Continuous
 62
     5
370
    18
100
AcDbLine
 10
159.0
 20
0.0
 30
0.0
 11
159.0
 21
-1.9
 31
0.0
  0
LINE
  5
3A9
330
397
100
AcDbEntity
  8
250
  6
Continuous
 62
     5
370
    18
100
AcDbLine
 10
159.0
 20
0.0
 30
0.0
 11
170.0
 21
0.0
 31
0.0
  0
LINE
  5
3AA
330
397
100
AcDbEntity
  8
250
  6
Continuous
 62
     5
370
    18
100
AcDbLine
 10
170.0
 20
0.0
 30
0.0
 11
170.0
 21
-1.9
 31
0.0
  0
LINE
  5
3AB
330
397
100
AcDbEntity
  8
250
  6
Continuous
 62
     5
370
    18
100
AcDbLine
 10
170.0
 20
0.0
 30
0.0
 11
180.0
 21
0.0
 31
0.0
  0
LINE
  5
3AC
330
397
100
AcDbEntity
  8
250
  6
Continuous
 62
     5
370
    18
100
AcDbLine
 10
180.0
 20
0.0
 30
0.0
 11
180.0
 21
-1.9
 31
0.0
  0
MTEXT
  5
3AD
330
397
100
AcDbEntity
  8
41
  6
Continuous
 62
     2
370
    18
100
AcDbMText
 10
170.575
 20
-0.95
 30
0.0
 40
1.0
 41
0.0
 71
     4
 72
     5
  1
\W0.8706;VERSION
  7
iso_b_vert
 73
     2
 44
1.084337
1001
ACAD
1000
MTEXTBEGIN
1070
    73
1070
     2
1070
    44
1040
1.084337
1070
    74
1070
     0
1000
MTEXTEND
  0
LINE
  5
3AE
330
397
100
AcDbEntity
  8
250
  6
Continuous
 62
     5
370
    18
100
AcDbLine
 10
0.0
 20
-1.9
 30
0.0
 11
0.0
 21
-8.9
 31
0.0
  0
LINE
  5
3AF
330
397
100
AcDbEntity
  8
250
  6
Continuous
 62
     5
370
    18
100
AcDbLine
 10
10.0
 20
-1.9
 30
0.0
 11
10.0
 21
-8.9
 31
0.0
  0
LINE
  5
3B0
330
397
100
AcDbEntity
  8
250
  6
Continuous
 62
     5
370
    18
100
AcDbLine
 10
0.0
 20
-8.9
 30
0.0
 11
10.0
 21
-8.9
 31
0.0
  0
MTEXT
  5
3B1
330
397
100
AcDbEntity
  8
41
  6
Continuous
 62
     2
370
    18
100
AcDbMText
 10
1.825
 20
-5.4
 30
0.0
 40
3.5
 41
0.0
 71
     4
 72
     5
  1
\W0.8203;A3
  7
iso_b_vert
 73
     2
 44
1.084337
1001
ACAD
1000
MTEXTBEGIN
1070
    73
1070
     2
1070
    44
1040
1.084337
1070
    74
1070
     0
1000
MTEXTEND
  0
LINE
  5
3B2
330
397
100
AcDbEntity
  8
250
  6
Continuous
 62
     5
370
    18
100
AcDbLine
 10
33.0
 20
-1.9
 30
0.0
 11
33.0
 21
-8.9
 31
0.0
  0
LINE
  5
3B3
330
397
100
AcDbEntity
  8
250
  6
Continuous
 62
     5
370
    18
100
AcDbLine
 10
10.0
 20
-8.9
 30
0.0
 11
33.0
 21
-8.9
 31
0.0
  0
LINE
  5
3B4
330
397
100
AcDbEntity
  8
250
  6
Continuous
 62
     5
370
    18
100
AcDbLine
 10
94.0
 20
-1.9
 30
0.0
 11
94.0
 21
-8.9
 31
0.0
  0
LINE
  5
3B5
330
397
100
AcDbEntity
  8
250
  6
Continuous
 62
     5
370
    18
100
AcDbLine
 10
33.0
 20
-8.9
 30
0.0
 11
94.0
 21
-8.9
 31
0.0
  0
MTEXT
  5
3B6
330
397
100
AcDbEntity
  8
41
  6
Continuous
 62
     2
370
    18
100
AcDbMText
 10
34.825
 20
-5.4
 30
0.0
 40
3.5
 41
0.0
 71
     4
 72
     5
  1
\W0.8564;Assembling Directives
  7
iso_b_vert
 73
     2
 44
1.084337
1001
ACAD
1000
MTEXTBEGIN
1070
    73
1070
     2
1070
    44
1040
1.084337
1070
    74
1070
     0
1000
MTEXTEND
  0
LINE
  5
3B7
330
397
100
AcDbEntity
  8
250
  6
Continuous
 62
     5
370
    18
100
AcDbLine
 10
116.0
 20
-1.9
 30
0.0
 11
116.0
 21
-8.9
 31
0.0
  0
LINE
  5
3B8
330
397
100
AcDbEntity
  8
250
  6
Continuous
 62
     5
370
    18
100
AcDbLine
 10
94.0
 20
-8.9
 30
0.0
 11
116.0
 21
-8.9
 31
0.0
  0
MTEXT
  5
3B9
330
397
100
AcDbEntity
  8
41
  6
Continuous
 62
     2
370
    18
100
AcDbMText
 10
95.82500000000001
 20
-5.4
 30
0.0
 40
3.5
 41
0.0
 71
     4
 72
     5
  1
\W0.7880;TB07_00
  7
iso_b_vert
 73
     2
 44
1.084337
1001
ACAD
1000
MTEXTBEGIN
1070
    73
1070
     2
1070
    44
1040
1.084337
1070
    74
1070
     0
1000
MTEXTEND
  0
LINE
  5
3BA
330
397
100
AcDbEntity
  8
250
  6
Continuous
 62
     5
370
    18
100
AcDbLine
 10
116.0
 20
-8.9
 30
0.0
 11
148.0
 21
-8.9
 31
0.0
  0
MTEXT
  5
3BB
330
397
100
AcDbEntity
  8
41
  6
Continuous
 62
     2
370
    18
100
AcDbMText
 10
146.25
 20
-5.4
 30
0.0
 40
3.5
 41
0.0
 71
     6
 72
     5
  1
\W0.7795;203369026
  7
iso_b_vert
 73
     2
 44
1.084337
1001
ACAD
1000
MTEXTBEGIN
1070
    73
1070
     2
1070
    44
1040
1.084337
1070
    74
1070
     0
1000
MTEXTEND
  0
LINE
  5
3BC
330
397
100
AcDbEntity
  8
250
  6
Continuous
 62
     5
370
    18
100
AcDbLine
 10
148.0
 20
-8.9
 30
0.0
 11
159.0
 21
-8.9
 31
0.0
  0
MTEXT
  5
3BD
330
397
100
AcDbEntity
  8
41
  6
Continuous
 62
     2
370
    18
100
AcDbMText
 10
149.748828
 20
-5.4
 30
0.0
 40
3.5
 41
0.0
 71
     4
 72
     5
  1
\W0.7517;D20
  7
iso_b_vert
 73
     2
 44
1.084337
1001
ACAD
1000
MTEXTBEGIN
1070
    73
1070
     2
1070
    44
1040
1.084337
1070
    74
1070
     0
1000
MTEXTEND
  0
LINE
  5
3BE
330
397
100
AcDbEntity
  8
250
  6
Continuous
 62
     5
370
    18
100
AcDbLine
 10
170.0
 20
-1.9
 30
0.0
 11
170.0
 21
-8.9
 31
0.0
  0
LINE
  5
3BF
330
397
100
AcDbEntity
  8
250
  6
Continuous
 62
     5
370
    18
100
AcDbLine
 10
159.0
 20
-8.9
 30
0.0
 11
170.0
 21
-8.9
 31
0.0
  0
MTEXT
  5
3C0
330
397
100
AcDbEntity
  8
41
  6
Continuous
 62
     2
370
    18
100
AcDbMText
 10
160.825
 20
-5.4
 30
0.0
 40
3.5
 41
0.0
 71
     4
 72
     5
  1
\W0.7535;002
  7
iso_b_vert
 73
     2
 44
1.084337
1001
ACAD
1000
MTEXTBEGIN
1070
    73
1070
     2
1070
    44
1040
1.084337
1070
    74
1070
     0
1000
MTEXTEND
  0
LINE
  5
3C1
330
397
100
AcDbEntity
  8
250
  6
Continuous
 62
     5
370
    18
100
AcDbLine
 10
180.0
 20
-1.9
 30
0.0
 11
180.0
 21
-8.9
 31
0.0
  0
LINE
  5
3C2
330
397
100
AcDbEntity
  8
250
  6
Continuous
 62
     5
370
    18
100
AcDbLine
 10
170.0
 20
-8.9
 30
0.0
 11
180.0
 21
-8.9
 31
0.0
  0
MTEXT
  5
3C3
330
397
100
AcDbEntity
  8
41
  6
Continuous
 62
     2
370
    18
100
AcDbMText
 10
171.825
 20
-5.4
 30
0.0
 40
3.5
 41
0.0
 71
     4
 72
     5
  1
\W0.7335;00
  7
iso_b_vert
 73
     2
 44
1.084337
1001
ACAD
1000
MTEXTBEGIN
1070
    73
1070
     2
1070
    44
1040
1.084337
1070
    74
1070
     0
1000
MTEXTEND
  0
ENDBLK
  5
3C6
330
397
100
AcDbEntity
  8
0
100
AcDbBlockEnd
  0
ENDSEC
  0
SECTION
  2
ENTITIES
  0
POINT
  5
75
330
1F
100
AcDbEntity
  8
41
  6
Continuous
 62
     5
 60
     1
370
    13
100
AcDbPoint
 10
56.28056899999999
 20
45.185889
 30
0.0
  0
POINT
  5
77
330
1F
100
AcDbEntity
  8
41
  6
Continuous
 62
     5
 60
     1
370
    13
100
AcDbPoint
 10
126.440145
 20
87.21478199999999
 30
0.0
  0
LINE
  5
84
330
1F
100
AcDbEntity
  8
41
  6
Continuous
 62
    11
 60
     1
370
    13
100
AcDbLine
 10
0.0
 20
0.0
 30
0.0
 11
0.0
 21
297.0
 31
0.0
  0
LINE
  5
85
330
1F
100
AcDbEntity
  8
41
  6
Continuous
 62
    11
 60
     1
370
    13
100
AcDbLine
 10
420.0
 20
297.0
 30
0.0
 11
0.0
 21
297.0
 31
0.0
  0
LINE
  5
86
330
1F
100
AcDbEntity
  8
41
  6
Continuous
 62
    11
 60
     1
370
    13
100
AcDbLine
 10
420.0
 20
297.0
 30
0.0
 11
420.0
 21
0.0
 31
0.0
  0
LINE
  5
87
330
1F
100
AcDbEntity
  8
41
  6
Continuous
 62
    11
 60
     1
370
    13
100
AcDbLine
 10
0.0
 20
0.0
 30
0.0
 11
420.0
 21
0.0
 31
0.0
  0
LINE
  5
88
330
1F
100
AcDbEntity
  8
1
  6
Continuous
370
    50
100
AcDbLine
 10
27.20732709668755
 20
34.15715719880447
 30
0.0
 11
19.57419009668754
 21
28.1934961988045
 31
0.0
  0
LINE
  5
8A
330
1F
100
AcDbEntity
  8
1
  6
Continuous
370
    50
100
AcDbLine
 10
29.73634009668757
 20
28.07477319880451
 30
0.0
 11
37.36947809668754
 21
34.03843319880448
 31
0.0
  0
LINE
  5
8B
330
1F
100
AcDbEntity
  8
1
  6
Continuous
370
    50
100
AcDbLine
 10
37.10428309668754
 20
34.74773019880448
 30
0.0
 11
27.43096809668756
 21
34.24077319880451
 31
0.0
  0
LINE
  5
8C
102
{ACAD_REACTORS
330
1EC
102
}
330
1F
100
AcDbEntity
  8
1
  6
Continuous
370
    50
100
AcDbLine
 10
19.83938509668755
 20
27.48420019880447
 30
0.0
 11
29.51270009668755
 21
27.99115719880447
 31
0.0
  0
LINE
  5
8D
330
1F
100
AcDbEntity
  8
SK1
  6
Continuous
370
    50
100
AcDbLine
 10
45.00368309668755
 20
27.48365619880448
 30
0.0
 11
144.4216080966875
 21
27.48365619880448
 31
0.0
  0
LINE
  5
8F
102
{ACAD_REACTORS
330
21D
102
}
330
1F
100
AcDbEntity
  8
SK1
  6
Continuous
370
    50
100
AcDbLine
 10
144.4216080966875
 20
43.48365619880448
 30
0.0
 11
144.4216080966875
 21
27.48365619880448
 31
0.0
  0
LINE
  5
90
330
1F
100
AcDbEntity
  8
1
  6
Continuous
370
    50
100
AcDbLine
 10
40.08387709668753
 20
43.48365619880448
 30
0.0
 11
40.42160809668755
 21
43.48365619880448
 31
0.0
  0
LINE
  5
91
330
1F
100
AcDbEntity
  8
1
  6
Continuous
370
    50
100
AcDbLine
 10
28.31280309668753
 20
34.28708519880448
 30
0.0
 11
40.08387709668753
 21
43.48365619880448
 31
0.0
  0
LINE
  5
92
330
1F
100
AcDbEntity
  8
1
  6
Continuous
370
    50
100
AcDbLine
 10
30.43209109668755
 20
28.61834819880448
 30
0.0
 11
40.40590709668754
 21
29.14105319880448
 31
0.0
  0
LINE
  5
97
330
1F
100
AcDbEntity
  8
1
  6
Continuous
370
    50
100
AcDbLine
 10
40.42160809668755
 20
43.48365619880448
 30
0.0
 11
42.57567309668755
 21
43.48365619880448
 31
0.0
  0
LINE
  5
98
330
1F
100
AcDbEntity
  8
SK1
  6
Continuous
370
    50
100
AcDbLine
 10
42.57567309668755
 20
43.48365619880448
 30
0.0
 11
144.4216080966875
 21
43.48365619880448
 31
0.0
  0
ARC
  5
10B
330
1F
100
AcDbEntity
  8
1
  6
Continuous
370
    50
100
AcDbCircle
 10
37.12506009668755
 20
34.35127419880448
 30
0.0
 40
0.3969999999999996
100
AcDbArc
 50
307.9999999999996
 51
93.00000000000071
  0
ARC
  5
10C
330
1F
100
AcDbEntity
  8
1
  6
Continuous
370
    50
100
AcDbCircle
 10
40.73562309668756
 20
22.84968719880447
 30
0.0
 40
6.300000000000008
100
AcDbArc
 50
92.85702100000033
 51
93.00000000000071
  0
ARC
  5
10D
330
1F
100
AcDbEntity
  8
15
  6
Continuous
370
    50
100
AcDbCircle
 10
40.73562309668756
 20
22.84968719880447
 30
0.0
 40
6.300000000000008
100
AcDbArc
 50
47.35376200000081
 51
73.01798799999938
  0
ARC
  5
113
102
{ACAD_REACTORS
330
1D2
330
267
102
}
330
1F
100
AcDbEntity
  8
1
  6
Continuous
370
    50
100
AcDbCircle
 10
19.81860809668754
 20
27.88065619880447
 30
0.0
 40
0.3969999999999998
100
AcDbArc
 50
127.9999999999995
 51
273.0000000000007
  0
SPLINE
  5
177
330
1F
100
AcDbEntity
  8
1
  6
Continuous
370
    50
100
AcDbSpline
210
0.0
220
0.0
230
1.0
 70
    12
 71
     2
 72
     6
 73
     3
 74
     0
 42
0.000000001
 43
0.0000000001
 40
0.0
 40
0.0
 40
0.0
 40
1.0
 40
1.0
 40
1.0
 10
27.20732740536206
 20
34.15715715129338
 30
0.0
 41
1.0
 10
27.30596556334777
 20
34.23422172635267
 30
0.0
 41
0.9537169507482147
 10
27.43096763643797
 20
34.24077280740917
 30
0.0
 41
1.0
  0
SPLINE
  5
178
330
1F
100
AcDbEntity
  8
1
  6
Continuous
370
    50
100
AcDbSpline
210
0.0
220
0.0
230
1.0
 70
    12
 71
     2
 72
     6
 73
     3
 74
     0
 42
0.000000001
 43
0.0000000001
 40
0.0
 40
0.0
 40
0.0
 40
1.0
 40
1.0
 40
1.0
 10
29.73634047955414
 20
28.07477304969618
 30
0.0
 41
1.0
 10
29.63770232156847
 20
27.99770847463697
 30
0.0
 41
0.9537169507482147
 10
29.51270024847815
 20
27.99115739358049
 30
0.0
 41
1.0
  0
SPLINE
  5
179
330
1F
100
AcDbEntity
  8
1
  6
Continuous
370
    50
100
AcDbSpline
210
0.0
220
0.0
230
1.0
 70
     8
 71
     3
 72
    17
 73
    13
 74
     0
 42
0.000000001
 43
0.0000000001
 40
0.0
 40
0.0
 40
0.0
 40
0.0
 40
0.2499999999999224
 40
0.4999999999998447
 40
0.4999999999998447
 40
0.531249999999848
 40
0.531249999999848
 40
0.5624999999998512
 40
0.6249999999998744
 40
0.7499999999999223
 40
0.7499999999999223
 40
1.0
 40
1.0
 40
1.0
 40
1.0
 10
40.42160761286516
 20
29.14185681978509
 30
0.0
 10
40.60732582606127
 20
29.15112523568078
 30
0.0
 10
40.97750064758989
 20
29.15314594307015
 30
0.0
 10
41.34517576541074
 20
29.12284855436949
 30
0.0
 10
41.55127851022834
 20
29.09670600079
 30
0.0
 10
41.57418541169664
 20
29.09367218402091
 30
0.0
 10
41.61981529721862
 20
29.08737422389649
 30
0.0
 10
41.68803367232007
 20
29.07757604538898
 30
0.0
 10
41.84564624630763
 20
29.05229214968338
 30
0.0
 10
41.97813230462315
 20
29.02659072165338
 30
0.0
 10
42.23978010958947
 20
28.97009256998714
 30
0.0
 10
42.40978760011756
 20
28.92564497199629
 30
0.0
 10
42.57567353571897
 20
28.87498549434227
 30
0.0
  0
MTEXT
  5
1C5
330
1F
100
AcDbEntity
  8
SK6
  6
Continuous
370
    18
100
AcDbMText
 10
74.44238509668759
 20
54.17852019880448
 30
0.0
 40
3.0
 41
0.0
 71
     7
 72
     5
  1
\W0.7810;SVJBR1616K11-S
  7
iso_b_vert
 73
     2
 44
1.084337
1001
ACAD
1000
MTEXTBEGIN
1070
    73
1070
     2
1070
    44
1040
1.084337
1070
    74
1070
     0
1000
MTEXTEND
  0
DIMENSION
  5
1D0
102
{ACAD_XDICTIONARY
360
1D1
102
}
102
{ACAD_REACTORS
330
1D2
102
}
330
1F
100
AcDbEntity
  8
SK2
  6
Continuous
370
    18
100
AcDbDimension
  2
_U0
 10
19.42160809668756
 20
10.72964472689398
 30
0.0
 11
81.19160529539636
 21
10.72964472689398
 31
0.0
 70
   160
 42
125.0
 52
90.0
  3
Standard
100
AcDbAlignedDimension
 13
144.4216080966875
 23
27.48365619880448
 33
0.0
 14
19.42160809668756
 24
27.88065606127962
 34
0.0
100
AcDbRotatedDimension
1001
ACAD_DSTYLE_DIM_LINETYPE
1070
   380
1005
16
1001
ACAD_DSTYLE_DIM_EXT1_LINETYPE
1070
   381
1005
16
1001
ACAD_DSTYLE_DIM_EXT2_LINETYPE
1070
   382
1005
16
1001
ACAD
1000
DSTYLE
1002
{
1070
    41
1040
3.174999999999999
1070
    42
1040
0.0
1070
    44
1040
2.0
1070
    48
1040
-0.1
1070
    73
1070
     0
1070
    74
1070
     0
1070
    77
1070
     1
1070
    78
1070
     8
1070
   140
1040
3.0
1070
   147
1040
1.5
1070
   171
1070
     3
1070
   172
1070
     1
1070
   173
1070
     1
1070
   176
1070
   256
1070
   177
1070
   256
1070
   178
1070
   256
1070
   271
1070
     3
1070
   272
1070
     3
1070
   274
1070
     4
1070
   278
1070
    44
1070
   284
1070
     8
1070
   340
1005
1AE
1070
   345
1005
16
1070
   346
1005
16
1070
   347
1005
16
1070
   371
1070
    13
1070
   372
1070
    13
1002
}
  0
DIMENSION
  5
1E9
102
{ACAD_XDICTIONARY
360
1EB
102
}
102
{ACAD_REACTORS
330
1EC
102
}
330
1F
100
AcDbEntity
  8
2
  6
Continuous
370
    18
100
AcDbDimension
  2
_U1
 10
19.42160809668755
 20
26.88065619880447
 30
0.0
 11
29.13055760474995
 21
20.26771833162195
 31
0.0
 70
   162
  1
93°
 42
1.623156208740829
  3
Standard
100
AcDb2LineAngularDimension
 13
19.83938509668755
 23
27.48420019880447
 33
0.0
 14
29.51270009668755
 24
27.99115719880447
 34
0.0
 15
19.42160809668755
 25
27.88065619880447
 35
0.0
 16
25.64538634655889
 26
17.1041990225042
 36
0.0
1001
ACAD_DSTYLE_DIMANGULAR_EXTENSION
1070
   387
1070
     1
1001
ACAD_DSTYLE_DIM_LINETYPE
1070
   380
1005
16
1001
ACAD_DSTYLE_DIM_EXT1_LINETYPE
1070
   381
1005
16
1001
ACAD_DSTYLE_DIM_EXT2_LINETYPE
1070
   382
1005
16
1001
ACAD
1000
DSTYLE
1002
{
1070
    41
1040
3.174999999999999
1070
    42
1040
0.0
1070
    44
1040
2.0
1070
    73
1070
     0
1070
    77
1070
     1
1070
    78
1070
     8
1070
    79
1070
     2
1070
   140
1040
3.0
1070
   147
1040
1.5
1070
   171
1070
     3
1070
   172
1070
     1
1070
   173
1070
     1
1070
   176
1070
   256
1070
   177
1070
   256
1070
   178
1070
   256
1070
   179
1070
     1
1070
   271
1070
     3
1070
   272
1070
     1
1070
   274
1070
     4
1070
   275
1070
     1
1070
   278
1070
    44
1070
   284
1070
     8
1070
   340
1005
1AE
1070
   345
1005
16
1070
   346
1005
16
1070
   347
1005
16
1070
   371
1070
    13
1070
   372
1070
    13
1002
}
  0
DIMENSION
  5
21B
102
{ACAD_XDICTIONARY
360
21C
102
}
102
{ACAD_REACTORS
330
21D
102
}
330
1F
100
AcDbEntity
  8
SK2
  6
Continuous
370
    18
100
AcDbDimension
  2
_U3
 10
154.7273420966876
 20
27.4836561988045
 30
0.0
 11
154.7273420966875
 21
35.48365619880448
 31
0.0
 70
   160
 42
15.99999999999999
 52
90.0
  3
Standard
100
AcDbAlignedDimension
 13
144.4216080966875
 23
43.48365619880448
 33
0.0
 14
144.4216080966875
 24
27.48365619880448
 34
0.0
 50
90.0
100
AcDbRotatedDimension
1001
ACAD_DSTYLE_DIM_LINETYPE
1070
   380
1005
16
1001
ACAD_DSTYLE_DIM_EXT1_LINETYPE
1070
   381
1005
16
1001
ACAD_DSTYLE_DIM_EXT2_LINETYPE
1070
   382
1005
16
1001
ACAD
1000
DSTYLE
1002
{
1070
   371
1070
    13
1070
   372
1070
    13
1070
   170
1070
     0
1070
   144
1040
1.0
1070
   277
1070
     2
1070
   284
1070
     8
1070
   278
1070
    44
1070
   146
1040
1.0
1070
   345
1005
16
1070
   347
1005
16
1070
   346
1005
16
1070
   344
1005
0
1070
   343
1005
0
1070
   172
1070
     1
1070
    76
1070
     0
1070
    75
1070
     0
1070
   282
1070
     0
1070
   281
1070
     0
1070
    71
1070
     0
1070
    74
1070
     0
1070
   279
1070
     0
1070
   173
1070
     1
1070
   340
1005
1AE
1070
   271
1070
     3
1070
   272
1070
     3
1070
    77
1070
     1
1070
    73
1070
     0
1070
   171
1070
     3
1070
   274
1070
     4
1070
   177
1070
   256
1070
   176
1070
   256
1070
   178
1070
   256
1070
    78
1070
     8
1070
    48
1040
-0.1
1070
    41
1040
3.174999999999999
1070
   147
1040
1.5
1070
    42
1040
0.0
1070
    44
1040
2.0
1070
   140
1040
3.0
1002
}
  0
DIMENSION
  5
265
102
{ACAD_XDICTIONARY
360
266
102
}
102
{ACAD_REACTORS
330
267
102
}
330
1F
100
AcDbEntity
  8
2
  6
Continuous
370
    18
100
AcDbDimension
  2
_U6
 10
11.59985409668754
 20
27.48365619880449
 30
0.0
 11
11.59985409668755
 21
35.48365619880448
 31
0.0
 70
   160
 42
16.0
 52
90.0
  3
Standard
100
AcDbAlignedDimension
 13
40.08387709668753
 23
43.48365619880448
 33
0.0
 14
19.81860810447482
 24
27.48365619880448
 34
0.0
 50
90.0
100
AcDbRotatedDimension
1001
ACAD_DSTYLE_DIM_LINETYPE
1070
   380
1005
16
1001
ACAD_DSTYLE_DIM_EXT1_LINETYPE
1070
   381
1005
16
1001
ACAD_DSTYLE_DIM_EXT2_LINETYPE
1070
   382
1005
16
1001
ACAD
1000
DSTYLE
1002
{
1070
   371
1070
    13
1070
   372
1070
    13
1070
   170
1070
     0
1070
   144
1040
1.0
1070
   277
1070
     2
1070
   284
1070
     8
1070
   278
1070
    44
1070
   146
1040
1.0
1070
   345
1005
16
1070
   347
1005
16
1070
   346
1005
16
1070
   344
1005
0
1070
   343
1005
0
1070
   172
1070
     1
1070
    76
1070
     0
1070
    75
1070
     0
1070
   282
1070
     0
1070
   281
1070
     0
1070
    71
1070
     0
1070
    74
1070
     0
1070
   279
1070
     0
1070
   173
1070
     1
1070
   340
1005
1AE
1070
   271
1070
     1
1070
   272
1070
     3
1070
    77
1070
     1
1070
    73
1070
     0
1070
   171
1070
     3
1070
   274
1070
     4
1070
   177
1070
   256
1070
   176
1070
   256
1070
   178
1070
   256
1070
    78
1070
     8
1070
    48
1040
-0.1
1070
    41
1040
3.174999999999999
1070
   147
1040
1.5
1070
    42
1040
0.0
1070
    44
1040
2.0
1070
   140
1040
3.0
1002
}
  0
LINE
  5
8DE
330
1F
100
AcDbEntity
  8
NOCUT
  6
Continuous
370
    50
100
AcDbLine
 10
40.08387709668753
 20
43.48365619880448
 30
0.0
 11
40.42160809668755
 21
43.48365619880448
 31
0.0
  0
LINE
  5
8DF
330
1F
100
AcDbEntity
  8
NOCUT
  6
Continuous
370
    50
100
AcDbLine
 10
21.63269968178218
 20
29.06801637445425
 30
0.0
 11
40.08387709668753
 21
43.48365619880448
 31
0.0
  0
LINE
  5
8E0
330
1F
100
AcDbEntity
  8
NOCUT
  6
Continuous
370
    50
100
AcDbLine
 10
21.96669837179455
 20
28.17469623006302
 30
0.0
 11
40.40590709668754
 21
29.14105319880448
 31
0.0
  0
LINE
  5
8E1
330
1F
100
AcDbEntity
  8
NOCUT
  6
Continuous
370
    50
100
AcDbLine
 10
42.57567309668755
 20
43.48365619880448
 30
0.0
 11
42.57567309668755
 21
28.8749851988045
 31
0.0
  0
LINE
  5
8E2
330
1F
100
AcDbEntity
  8
NOCUT
  6
Continuous
370
    50
100
AcDbLine
 10
40.42160809668755
 20
43.48365619880448
 30
0.0
 11
42.57567309668755
 21
43.48365619880448
 31
0.0
  0
ARC
  5
8E4
330
1F
100
AcDbEntity
  8
NOCUT
  6
Continuous
370
    50
100
AcDbCircle
 10
40.73562309668756
 20
22.84968719880447
 30
0.0
 40
6.300000000000008
100
AcDbArc
 50
92.85702100000033
 51
93.00000000000071
  0
SPLINE
  5
8E8
330
1F
100
AcDbEntity
  8
NOCUT
  6
Continuous
370
    50
100
AcDbSpline
210
0.0
220
0.0
230
1.0
 70
     8
 71
     3
 72
    17
 73
    13
 74
     0
 42
0.000000001
 43
0.0000000001
 40
0.0
 40
0.0
 40
0.0
 40
0.0
 40
0.2499999999999224
 40
0.4999999999998447
 40
0.4999999999998447
 40
0.531249999999848
 40
0.531249999999848
 40
0.5624999999998512
 40
0.6249999999998744
 40
0.7499999999999223
 40
0.7499999999999223
 40
1.0
 40
1.0
 40
1.0
 40
1.0
 10
40.42160761286516
 20
29.14185681978509
 30
0.0
 10
40.60732582606127
 20
29.15112523568078
 30
0.0
 10
40.97750064758989
 20
29.15314594307015
 30
0.0
 10
41.34517576541074
 20
29.12284855436949
 30
0.0
 10
41.55127851022834
 20
29.09670600079
 30
0.0
 10
41.57418541169664
 20
29.09367218402091
 30
0.0
 10
41.61981529721862
 20
29.08737422389649
 30
0.0
 10
41.68803367232007
 20
29.07757604538898
 30
0.0
 10
41.84564624630763
 20
29.05229214968338
 30
0.0
 10
41.97813230462315
 20
29.02659072165338
 30
0.0
 10
42.23978010958947
 20
28.97009256998714
 30
0.0
 10
42.40978760011756
 20
28.92564497199629
 30
0.0
 10
42.57567353571897
 20
28.87498549434227
 30
0.0
  0
ARC
  5
8E9
330
1F
100
AcDbEntity
  8
NOCUT
  6
Continuous
370
    50
100
AcDbCircle
 10
21.94053042100914
 20
28.67401099887292
 30
0.0
 40
0.5
100
AcDbArc
 50
128.0000002274547
 51
272.9999968632197
  0
LINE
  5
8EC
330
1F
100
AcDbEntity
  8
CUT
  6
Continuous
370
    50
100
AcDbLine
 10
27.20732709668755
 20
34.15715823768056
 30
0.0
 11
19.57419009668754
 21
28.19349723768059
 31
0.0
  0
LINE
  5
8ED
330
1F
100
AcDbEntity
  8
CUT
  6
Continuous
370
    50
100
AcDbLine
 10
29.73634009668757
 20
28.0747742376806
 30
0.0
 11
37.36947809668754
 21
34.03843423768058
 31
0.0
  0
LINE
  5
8EE
330
1F
100
AcDbEntity
  8
CUT
  6
Continuous
370
    50
100
AcDbLine
 10
37.10428309668754
 20
34.74773123768057
 30
0.0
 11
27.43096809668756
 21
34.2407742376806
 31
0.0
  0
LINE
  5
8EF
330
1F
100
AcDbEntity
  8
CUT
  6
Continuous
370
    50
100
AcDbLine
 10
19.83938509668755
 20
27.48420123768056
 30
0.0
 11
29.51270009668755
 21
27.99115823768057
 31
0.0
  0
ARC
  5
8F0
330
1F
100
AcDbEntity
  8
CUT
  6
Continuous
370
    50
100
AcDbCircle
 10
37.12506009668755
 20
34.35127523768057
 30
0.0
 40
0.3969999999999996
100
AcDbArc
 50
307.9999999999996
 51
93.00000000000071
  0
ARC
  5
8F1
330
1F
100
AcDbEntity
  8
CUT
  6
Continuous
370
    50
100
AcDbCircle
 10
19.81860809668754
 20
27.88065723768057
 30
0.0
 40
0.3969999999999998
100
AcDbArc
 50
127.9999999999995
 51
273.0000000000007
  0
SPLINE
  5
8F2
330
1F
100
AcDbEntity
  8
CUT
  6
Continuous
370
    50
100
AcDbSpline
210
0.0
220
0.0
230
1.0
 70
    12
 71
     2
 72
     6
 73
     3
 74
     0
 42
0.000000001
 43
0.0000000001
 40
0.0
 40
0.0
 40
0.0
 40
1.0
 40
1.0
 40
1.0
 10
27.20732740536206
 20
34.15715819016947
 30
0.0
 41
1.0
 10
27.30596556334777
 20
34.23422276522877
 30
0.0
 41
0.9537169507482147
 10
27.43096763643797
 20
34.24077384628527
 30
0.0
 41
1.0
  0
SPLINE
  5
8F3
330
1F
100
AcDbEntity
  8
CUT
  6
Continuous
370
    50
100
AcDbSpline
210
0.0
220
0.0
230
1.0
 70
    12
 71
     2
 72
     6
 73
     3
 74
     0
 42
0.000000001
 43
0.0000000001
 40
0.0
 40
0.0
 40
0.0
 40
1.0
 40
1.0
 40
1.0
 10
29.73634047955414
 20
28.07477408857227
 30
0.0
 41
1.0
 10
29.63770232156847
 20
27.99770951351306
 30
0.0
 41
0.9537169507482147
 10
29.51270024847815
 20
27.99115843245659
 30
0.0
 41
1.0
  0
ENDSEC
  0
SECTION
  2
OBJECTS
  0
DICTIONARY
  5
C
330
0
100
AcDbDictionary
281
     1
  3
ACAD_CIP_PREVIOUS_PRODUCT_INFO
350
433
  3
ACAD_COLOR
350
42E
  3
ACAD_DETAILVIEWSTYLE
350
42A
  3
ACAD_GROUP
350
D
  3
ACAD_LAYOUT
350
1A
  3
ACAD_MATERIAL
350
43
  3
ACAD_MLEADERSTYLE
350
6B
  3
ACAD_MLINESTYLE
350
17
  3
ACAD_PLOTSETTINGS
350
19
  3
ACAD_PLOTSTYLENAME
350
E
  3
ACAD_SCALELIST
350
47
  3
ACAD_SECTIONVIEWSTYLE
350
42B
  3
ACAD_TABLESTYLE
350
69
  3
ACAD_VISUALSTYLE
350
2A
  3
ACDB_RECOMPOSE_DATA
350
9A8
  3
AcDbVariableDictionary
350
3E7
  3
DWGPROPS
350
9A9
  0
DICTIONARY
  5
985
330
10
100
AcDbDictionary
280
     1
281
     1
  3
ADSK_XREC_LAYER_RECONCILED
360
986
  0
DICTIONARY
  5
987
330
74
100
AcDbDictionary
280
     1
281
     1
  3
ADSK_XREC_LAYER_RECONCILED
360
988
  0
DICTIONARY
  5
989
330
76
100
AcDbDictionary
280
     1
281
     1
  3
ADSK_XREC_LAYER_RECONCILED
360
98A
  0
DICTIONARY
  5
98B
330
89
100
AcDbDictionary
280
     1
281
     1
  3
ADSK_XREC_LAYER_RECONCILED
360
98C
  0
DICTIONARY
  5
98D
330
8E
100
AcDbDictionary
280
     1
281
     1
  3
ADSK_XREC_LAYER_RECONCILED
360
98E
  0
DICTIONARY
  5
98F
330
B3
100
AcDbDictionary
280
     1
281
     1
  3
ADSK_XREC_LAYER_RECONCILED
360
990
  0
DICTIONARY
  5
991
330
859
100
AcDbDictionary
280
     1
281
     1
  3
ADSK_XREC_LAYER_RECONCILED
360
992
  0
DICTIONARY
  5
993
330
85C
100
AcDbDictionary
280
     1
281
     1
  3
ADSK_XREC_LAYER_RECONCILED
360
994
  0
DICTIONARY
  5
995
330
85D
100
AcDbDictionary
280
     1
281
     1
  3
ADSK_XREC_LAYER_RECONCILED
360
996
  0
DICTIONARY
  5
997
330
85E
100
AcDbDictionary
280
     1
281
     1
  3
ADSK_XREC_LAYER_RECONCILED
360
998
  0
DICTIONARY
  5
999
330
85F
100
AcDbDictionary
280
     1
281
     1
  3
ADSK_XREC_LAYER_RECONCILED
360
99A
  0
DICTIONARY
  5
99B
330
860
100
AcDbDictionary
280
     1
281
     1
  3
ADSK_XREC_LAYER_RECONCILED
360
99C
  0
DICTIONARY
  5
99D
330
861
100
AcDbDictionary
280
     1
281
     1
  3
ADSK_XREC_LAYER_RECONCILED
360
99E
  0
DICTIONARY
  5
8EA
330
1F
100
AcDbDictionary
280
     1
281
     1
  3
ACAD_SORTENTS
360
8EB
  0
DICTIONARY
  5
1D1
330
1D0
100
AcDbDictionary
280
     1
281
     1
  3
ACAD_DIMASSOC
360
1D2
  0
DICTIONARY
  5
1EB
330
1E9
100
AcDbDictionary
280
     1
281
     1
  3
ACAD_DIMASSOC
360
1EC
  0
DICTIONARY
  5
21C
330
21B
100
AcDbDictionary
280
     1
281
     1
  3
ACAD_DIMASSOC
360
21D
  0
DICTIONARY
  5
266
330
265
100
AcDbDictionary
280
     1
281
     1
  3
ACAD_DIMASSOC
360
267
  0
XRECORD
  5
433
102
{ACAD_REACTORS
330
C
102
}
330
C
100
AcDbXrecord
280
     1
300
AMECH_PP
300
2017
300
86627AMECH_PP_2017_0F
  0
DICTIONARY
  5
42E
102
{ACAD_REACTORS
330
C
102
}
330
C
100
AcDbDictionary
281
     1
  0
DICTIONARY
  5
42A
102
{ACAD_REACTORS
330
C
102
}
330
C
100
AcDbDictionary
281
     1
  3
Metric50
350
430
  0
DICTIONARY
  5
D
102
{ACAD_REACTORS
330
C
102
}
330
C
100
AcDbDictionary
281
     1
  3
A3
350
3C7
  3
ASSORTED_PARTS
350
3C8
  3
ASSORTED_PARTS10
350
3D0
  3
ASSORTED_PARTS11
350
3D1
  3
ASSORTED_PARTS3
350
3C9
  3
ASSORTED_PARTS4
350
3CA
  3
ASSORTED_PARTS5
350
3CB
  3
ASSORTED_PARTS6
350
3CC
  3
ASSORTED_PARTS7
350
3CD
  3
ASSORTED_PARTS8
350
3CE
  3
ASSORTED_PARTS9
350
3CF
  3
SANDVIKBORDER_1ST_ANGLE_PROJECTION
350
3D2
  0
DICTIONARY
  5
1A
102
{ACAD_REACTORS
330
C
102
}
330
C
100
AcDbDictionary
281
     1
  3
Layout1
350
1E
  3
Layout2
350
26
  3
Model
350
22
  0
DICTIONARY
  5
43
102
{ACAD_REACTORS
330
C
102
}
330
C
100
AcDbDictionary
281
     1
  3
ByBlock
350
45
  3
ByLayer
350
44
  3
Global
350
46
  0
DICTIONARY
  5
6B
102
{ACAD_REACTORS
330
C
102
}
330
C
100
AcDbDictionary
281
     1
  3
Standard
350
6C
  0
DICTIONARY
  5
17
102
{ACAD_REACTORS
330
C
102
}
330
C
100
AcDbDictionary
281
     1
  3
Standard
350
18
  0
DICTIONARY
  5
19
102
{ACAD_REACTORS
330
C
102
}
330
C
100
AcDbDictionary
281
     1
  0
ACDBDICTIONARYWDFLT
  5
E
102
{ACAD_REACTORS
330
C
102
}
330
C
100
AcDbDictionary
281
     1
  3
Normal
350
F
100
AcDbDictionaryWithDefault
340
F
  0
DICTIONARY
  5
47
102
{ACAD_REACTORS
330
C
102
}
330
C
100
AcDbDictionary
281
     1
  3
A0
350
48
  3
A1
350
49
  3
A2
350
4A
  3
A3
350
4B
  3
A4
350
4C
  3
A5
350
4D
  3
A6
350
4E
  3
A7
350
4F
  3
A8
350
50
  3
A9
350
51
  3
B0
350
52
  3
B1
350
53
  3
B2
350
54
  3
B3
350
55
  3
B4
350
56
  3
B5
350
57
  3
B6
350
58
  3
B7
350
59
  3
B8
350
5A
  3
B9
350
5B
  3
C0
350
5C
  3
C1
350
5D
  3
C2
350
5E
  3
C3
350
5F
  3
C4
350
60
  3
C5
350
61
  3
C6
350
62
  3
C7
350
63
  3
C8
350
64
  3
C9
350
65
  3
D0
350
66
  3
D1
350
67
  3
D2
350
68
  0
DICTIONARY
  5
42B
102
{ACAD_REACTORS
330
C
102
}
330
C
100
AcDbDictionary
281
     1
  3
Metric50
350
42F
  0
DICTIONARY
  5
69
102
{ACAD_REACTORS
330
C
102
}
330
C
100
AcDbDictionary
281
     1
  3
Standard
350
6A
  0
DICTIONARY
  5
2A
102
{ACAD_REACTORS
330
C
102
}
330
C
100
AcDbDictionary
281
     1
  3
2dWireframe
350
2F
  3
Basic
350
32
  3
Brighten
350
36
  3
ColorChange
350
3A
  3
Conceptual
350
34
  3
Dim
350
35
  3
EdgeColorOff
350
3D
  3
Facepattern
350
39
  3
Flat
350
2B
  3
FlatWithEdges
350
2C
  3
Gouraud
350
2D
  3
GouraudWithEdges
350
2E
  3
Hidden
350
31
  3
JitterOff
350
3B
  3
Linepattern
350
38
  3
OverhangOff
350
3C
  3
Realistic
350
33
  3
Shaded
350
42
  3
Shaded with edges
350
41
  3
Shades of Gray
350
3E
  3
Sketchy
350
3F
  3
Thicken
350
37
  3
Wireframe
350
30
  3
X-Ray
350
40
  0
XRECORD
  5
9A8
102
{ACAD_REACTORS
330
C
102
}
330
C
100
AcDbXrecord
280
     1
 90
        1
330
6A
  0
DICTIONARY
  5
3E7
102
{ACAD_REACTORS
330
C
102
}
330
C
100
AcDbDictionary
281
     1
  3
CANNOSCALE
350
3E8
  3
CMLEADERSTYLE
350
429
  3
CTABLESTYLE
350
428
  3
CVIEWDETAILSTYLE
350
99F
  3
CVIEWSECTIONSTYLE
350
9A0
  3
DIMASSOC
350
9A4
  3
HIDETEXT
350
9A3
  3
INDEXCTL
350
9A2
  3
MSLTSCALE
350
3E9
  3
SORTENTS
350
9A1
  3
XCLIPFRAME
350
9A5
  0
XRECORD
  5
9A9
102
{ACAD_REACTORS
330
C
102
}
330
C
100
AcDbXrecord
280
     1
  1
DWGPROPS COOKIE
  2

  3

  4

  6

  7

  8
mp5448
  9

300
=
301
=
302
=
303
=
304
=
305
=
306
=
307
=
308
=
309
=
 40
0.0031250115740741
 41
2459327.535011574
 42
2459327.538182871
  1

 90
        0
  0
XRECORD
  5
986
102
{ACAD_REACTORS
330
985
102
}
330
985
100
AcDbXrecord
280
     1
290
     1
  0
XRECORD
  5
988
102
{ACAD_REACTORS
330
987
102
}
330
987
100
AcDbXrecord
280
     1
290
     1
  0
XRECORD
  5
98A
102
{ACAD_REACTORS
330
989
102
}
330
989
100
AcDbXrecord
280
     1
290
     1
  0
XRECORD
  5
98C
102
{ACAD_REACTORS
330
98B
102
}
330
98B
100
AcDbXrecord
280
     1
290
     1
  0
XRECORD
  5
98E
102
{ACAD_REACTORS
330
98D
102
}
330
98D
100
AcDbXrecord
280
     1
290
     1
  0
XRECORD
  5
990
102
{ACAD_REACTORS
330
98F
102
}
330
98F
100
AcDbXrecord
280
     1
290
     1
  0
XRECORD
  5
992
102
{ACAD_REACTORS
330
991
102
}
330
991
100
AcDbXrecord
280
     1
290
     1
  0
XRECORD
  5
994
102
{ACAD_REACTORS
330
993
102
}
330
993
100
AcDbXrecord
280
     1
290
     1
  0
XRECORD
  5
996
102
{ACAD_REACTORS
330
995
102
}
330
995
100
AcDbXrecord
280
     1
290
     1
  0
XRECORD
  5
998
102
{ACAD_REACTORS
330
997
102
}
330
997
100
AcDbXrecord
280
     1
290
     1
  0
XRECORD
  5
99A
102
{ACAD_REACTORS
330
999
102
}
330
999
100
AcDbXrecord
280
     1
290
     1
  0
XRECORD
  5
99C
102
{ACAD_REACTORS
330
99B
102
}
330
99B
100
AcDbXrecord
280
     1
290
     1
  0
XRECORD
  5
99E
102
{ACAD_REACTORS
330
99D
102
}
330
99D
100
AcDbXrecord
280
     1
290
     1
  0
SORTENTSTABLE
  5
8EB
102
{ACAD_REACTORS
330
8EA
102
}
330
8EA
100
AcDbSortentsTable
330
1F
331
8E8
  5
8E9
331
8E1
  5
8E2
331
179
  5
179
331
8B
  5
8B
331
8E9
  5
8E1
331
92
  5
92
331
88
  5
88
331
1C5
  5
1C5
331
8E4
  5
8E8
331
90
  5
90
331
10C
  5
10C
331
91
  5
91
331
8F
  5
8F
331
10D
  5
10D
331
8C
  5
8C
331
97
  5
97
331
8D
  5
8D
331
1E9
  5
1E9
331
265
  5
265
331
113
  5
113
331
98
  5
98
331
8DE
  5
8DE
331
21B
  5
21B
331
8DF
  5
8DF
331
177
  5
177
331
1D0
  5
1D0
331
77
  5
77
331
86
  5
86
331
8E2
  5
8E4
331
87
  5
87
331
75
  5
75
331
84
  5
84
331
8E0
  5
8E0
331
10B
  5
10B
331
178
  5
178
331
8A
  5
8A
331
85
  5
85
  0
DIMASSOC
  5
1D2
102
{ACAD_REACTORS
330
1D1
102
}
330
1D1
100
AcDbDimAssoc
330
1D0
 90
        2
 70
     0
 71
     1
  1
AcDbOsnapPointRef
 72
     9
331
113
 73
     0
 91
        2
 40
3.141592999999999
 10
159.32717
 20
181.476645
 30
0.0
 75
     0
  0
DIMASSOC
  5
1EC
102
{ACAD_REACTORS
330
1EB
102
}
330
1EB
100
AcDbDimAssoc
330
1E9
 90
        2
 70
     0
 71
     1
  1
AcDbOsnapPointRef
 72
     1
331
8C
 73
     2
 91
        1
 40
1.0
 10
169.418262
 20
181.587146
 30
0.0
 75
     0
  0
DIMASSOC
  5
21D
102
{ACAD_REACTORS
330
21C
102
}
330
21C
100
AcDbDimAssoc
330
21B
 90
        3
 70
     0
 71
     1
  1
AcDbOsnapPointRef
 72
    13
331
8F
 73
     2
 91
        1
 40
0.0
 10
284.32717
 20
197.079645
 30
0.0
 75
     0
  1
AcDbOsnapPointRef
 72
     1
331
8F
 73
     2
 91
        2
 40
1.0
 10
284.32717
 20
181.079645
 30
0.0
 75
     0
  0
DIMASSOC
  5
267
102
{ACAD_REACTORS
330
266
102
}
330
266
100
AcDbDimAssoc
330
265
 90
        2
 70
     0
 71
     1
  1
AcDbOsnapPointRef
 72
     9
331
113
 73
     0
 91
        2
 40
4.712388999999999
 10
159.72417
 20
181.079645
 30
0.0
 75
     0
  0
ACDBDETAILVIEWSTYLE
  5
430
102
{ACAD_XDICTIONARY
360
9E3
102
}
102
{ACAD_REACTORS
330
42A
102
}
330
42A
100
AcDbModelDocViewStyle
 70
     0
  3
Metric50
290
     0
100
AcDbDetailViewStyle
 70
     0
 71
     0
 90
        3
 71
     1
340
11
 40
5.0
340
0
 40
5.0
300

 40
0.0
280
     1
 71
     2
340
16
 90
       25
 71
     3
340
11
 40
5.0
 90
        0
 40
15.0
 90
        1
300
%<\AcVar ViewDetailId>% (%<\AcVar ViewScale \f "%sn">%)
 71
     4
340
16
 90
       25
340
16
 90
       25
280
     0
  0
GROUP
  5
3C7
102
{ACAD_REACTORS
330
D
102
}
330
D
100
AcDbGroup
300

 70
     0
 71
     1
340
105
340
104
340
103
340
102
340
101
340
100
340
FF
340
FE
340
FD
340
FC
340
FB
340
FA
340
F9
340
F8
340
F7
340
F6
340
F5
340
1A1
340
1A4
340
1A5
340
1A6
340
1A7
340
1A8
340
1A9
340
1AA
340
1AB
340
1AC
  0
GROUP
  5
3C8
102
{ACAD_REACTORS
330
D
102
}
330
D
100
AcDbGroup
300

 70
     0
 71
     1
  0
GROUP
  5
3D0
102
{ACAD_REACTORS
330
D
102
}
330
D
100
AcDbGroup
300

 70
     0
 71
     1
  0
GROUP
  5
3D1
102
{ACAD_REACTORS
330
D
102
}
330
D
100
AcDbGroup
300

 70
     0
 71
     1
  0
GROUP
  5
3C9
102
{ACAD_REACTORS
330
D
102
}
330
D
100
AcDbGroup
300

 70
     0
 71
     1
  0
GROUP
  5
3CA
102
{ACAD_REACTORS
330
D
102
}
330
D
100
AcDbGroup
300

 70
     0
 71
     1
  0
GROUP
  5
3CB
102
{ACAD_REACTORS
330
D
102
}
330
D
100
AcDbGroup
300

 70
     0
 71
     1
  0
GROUP
  5
3CC
102
{ACAD_REACTORS
330
D
102
}
330
D
100
AcDbGroup
300

 70
     0
 71
     1
  0
GROUP
  5
3CD
102
{ACAD_REACTORS
330
D
102
}
330
D
100
AcDbGroup
300

 70
     0
 71
     1
  0
GROUP
  5
3CE
102
{ACAD_REACTORS
330
D
102
}
330
D
100
AcDbGroup
300

 70
     0
 71
     1
  0
GROUP
  5
3CF
102
{ACAD_REACTORS
330
D
102
}
330
D
100
AcDbGroup
300

 70
     0
 71
     1
  0
GROUP
  5
3D2
102
{ACAD_REACTORS
330
D
102
}
330
D
100
AcDbGroup
300

 70
     0
 71
     1
  0
LAYOUT
  5
1E
102
{ACAD_XDICTIONARY
360
9AA
102
}
102
{ACAD_REACTORS
330
1A
102
}
330
1A
100
AcDbPlotSettings
  1

  2
none_device
  4

  6

 40
0.0
 41
0.0
 42
0.0
 43
0.0
 44
0.0
 45
0.0
 46
0.0
 47
0.0
 48
0.0
 49
0.0
140
0.0
141
0.0
142
1.0
143
1.0
 70
   688
 72
     0
 73
     0
 74
     5
  7

 75
    16
147
1.0
148
0.0
149
0.0
100
AcDbLayout
  1
Layout1
 70
     1
 71
     1
 10
-0.5
 20
-0.5
 11
5.0
 21
5.0
 12
0.0
 22
0.0
 32
0.0
 14
-0.5
 24
-0.5
 34
-0.5
 15
5.0
 25
5.0
 35
5.0
146
0.0
 13
0.0
 23
0.0
 33
0.0
 16
1.0
 26
0.0
 36
0.0
 17
0.0
 27
1.0
 37
0.0
 76
     0
330
1B
  0
LAYOUT
  5
26
102
{ACAD_XDICTIONARY
360
9AE
102
}
102
{ACAD_REACTORS
330
1A
102
}
330
1A
100
AcDbPlotSettings
  1

  2
none_device
  4

  6

 40
0.0
 41
0.0
 42
0.0
 43
0.0
 44
0.0
 45
0.0
 46
0.0
 47
0.0
 48
0.0
 49
0.0
140
0.0
141
0.0
142
1.0
143
1.0
 70
   688
 72
     0
 73
     0
 74
     5
  7

 75
    16
147
1.0
148
0.0
149
0.0
100
AcDbLayout
  1
Layout2
 70
     1
 71
     2
 10
0.0
 20
0.0
 11
0.0
 21
0.0
 12
0.0
 22
0.0
 32
0.0
 14
0.0
 24
0.0
 34
0.0
 15
0.0
 25
0.0
 35
0.0
146
0.0
 13
0.0
 23
0.0
 33
0.0
 16
1.0
 26
0.0
 36
0.0
 17
0.0
 27
1.0
 37
0.0
 76
     0
330
23
  0
LAYOUT
  5
22
102
{ACAD_XDICTIONARY
360
9AC
102
}
102
{ACAD_REACTORS
330
1A
102
}
330
1A
100
AcDbPlotSettings
  1

  2
none_device
  4
Letter_(8.50_x_11.00_Inches)
  6

 40
6.349999999999999
 41
6.349999999999999
 42
6.350005
 43
6.350005
 44
215.9
 45
279.4
 46
0.0
 47
0.0
 48
0.0
 49
0.0
140
0.0
141
0.0
142
1.0
143
1.0
 70
  1712
 72
     0
 73
     0
 74
     0
  7

 75
     0
147
1.0
148
0.0
149
0.0
100
AcDbLayout
  1
Model
 70
     1
 71
     0
 10
-0.5
 20
-0.5
 11
5.0
 21
5.0
 12
0.0
 22
0.0
 32
0.0
 14
-0.5
 24
-0.5
 34
-0.5
 15
5.0
 25
5.0
 35
5.0
146
0.0
 13
0.0
 23
0.0
 33
0.0
 16
1.0
 26
0.0
 36
0.0
 17
0.0
 27
1.0
 37
0.0
 76
     0
330
1F
331
29
  0
MATERIAL
  5
45
102
{ACAD_XDICTIONARY
360
41D
102
}
102
{ACAD_REACTORS
330
43
102
}
330
43
100
AcDbMaterial
  1
ByBlock
  0
MATERIAL
  5
44
102
{ACAD_XDICTIONARY
360
41B
102
}
102
{ACAD_REACTORS
330
43
102
}
330
43
100
AcDbMaterial
  1
ByLayer
  0
MATERIAL
  5
46
102
{ACAD_XDICTIONARY
360
41F
102
}
102
{ACAD_REACTORS
330
43
102
}
330
43
100
AcDbMaterial
  1
Global
  0
MLEADERSTYLE
  5
6C
102
{ACAD_REACTORS
330
6B
102
}
330
6B
100
AcDbMLeaderStyle
170
     2
171
     1
172
     0
 90
        2
 40
0.0
 41
0.0
173
     1
 91
-1056964608
340
14
 92
       -2
290
     1
 42
0.09
291
     1
 43
0.36
  3
Standard
 44
0.18
300

342
11
174
     1
178
     6
175
     1
176
     0
 93
-1056964608
 45
0.18
292
     0
297
     0
 46
0.18
 94
-1056964608
 47
1.0
 49
1.0
140
1.0
293
     1
141
0.0
294
     1
177
     0
142
1.0
295
     0
296
     0
143
0.125
1001
ACAD_MLEADERVER
1070
     2
  0
MLINESTYLE
  5
18
102
{ACAD_REACTORS
330
17
102
}
330
17
100
AcDbMlineStyle
  2
STANDARD
 70
     0
  3

 62
   256
 51
90.0
 52
90.0
 71
     2
 49
0.5
 62
   256
  6
BYLAYER
 49
-0.5
 62
   256
  6
BYLAYER
  0
ACDBPLACEHOLDER
  5
F
102
{ACAD_REACTORS
330
E
102
}
330
E
  0
SCALE
  5
48
102
{ACAD_REACTORS
330
47
102
}
330
47
100
AcDbScale
 70
     0
300
1:1
140
1.0
141
1.0
290
     1
  0
SCALE
  5
49
102
{ACAD_REACTORS
330
47
102
}
330
47
100
AcDbScale
 70
     0
300
1:2
140
1.0
141
2.0
290
     0
  0
SCALE
  5
4A
102
{ACAD_REACTORS
330
47
102
}
330
47
100
AcDbScale
 70
     0
300
1:4
140
1.0
141
4.0
290
     0
  0
SCALE
  5
4B
102
{ACAD_REACTORS
330
47
102
}
330
47
100
AcDbScale
 70
     0
300
1:5
140
1.0
141
5.0
290
     0
  0
SCALE
  5
4C
102
{ACAD_REACTORS
330
47
102
}
330
47
100
AcDbScale
 70
     0
300
1:8
140
1.0
141
8.0
290
     0
  0
SCALE
  5
4D
102
{ACAD_REACTORS
330
47
102
}
330
47
100
AcDbScale
 70
     0
300
1:10
140
1.0
141
10.0
290
     0
  0
SCALE
  5
4E
102
{ACAD_REACTORS
330
47
102
}
330
47
100
AcDbScale
 70
     0
300
1:16
140
1.0
141
16.0
290
     0
  0
SCALE
  5
4F
102
{ACAD_REACTORS
330
47
102
}
330
47
100
AcDbScale
 70
     0
300
1:20
140
1.0
141
20.0
290
     0
  0
SCALE
  5
50
102
{ACAD_REACTORS
330
47
102
}
330
47
100
AcDbScale
 70
     0
300
1:30
140
1.0
141
30.0
290
     0
  0
SCALE
  5
51
102
{ACAD_REACTORS
330
47
102
}
330
47
100
AcDbScale
 70
     0
300
1:40
140
1.0
141
40.0
290
     0
  0
SCALE
  5
52
102
{ACAD_REACTORS
330
47
102
}
330
47
100
AcDbScale
 70
     0
300
1:50
140
1.0
141
50.0
290
     0
  0
SCALE
  5
53
102
{ACAD_REACTORS
330
47
102
}
330
47
100
AcDbScale
 70
     0
300
1:100
140
1.0
141
100.0
290
     0
  0
SCALE
  5
54
102
{ACAD_REACTORS
330
47
102
}
330
47
100
AcDbScale
 70
     0
300
2:1
140
2.0
141
1.0
290
     0
  0
SCALE
  5
55
102
{ACAD_REACTORS
330
47
102
}
330
47
100
AcDbScale
 70
     0
300
4:1
140
4.0
141
1.0
290
     0
  0
SCALE
  5
56
102
{ACAD_REACTORS
330
47
102
}
330
47
100
AcDbScale
 70
     0
300
8:1
140
8.0
141
1.0
290
     0
  0
SCALE
  5
57
102
{ACAD_REACTORS
330
47
102
}
330
47
100
AcDbScale
 70
     0
300
10:1
140
10.0
141
1.0
290
     0
  0
SCALE
  5
58
102
{ACAD_REACTORS
330
47
102
}
330
47
100
AcDbScale
 70
     0
300
100:1
140
100.0
141
1.0
290
     0
  0
SCALE
  5
59
102
{ACAD_REACTORS
330
47
102
}
330
47
100
AcDbScale
 70
     0
300
1/128" = 1'-0"
140
0.007812
141
12.0
290
     0
  0
SCALE
  5
5A
102
{ACAD_REACTORS
330
47
102
}
330
47
100
AcDbScale
 70
     0
300
1/64" = 1'-0"
140
0.015625
141
12.0
290
     0
  0
SCALE
  5
5B
102
{ACAD_REACTORS
330
47
102
}
330
47
100
AcDbScale
 70
     0
300
1/32" = 1'-0"
140
0.03125
141
12.0
290
     0
  0
SCALE
  5
5C
102
{ACAD_REACTORS
330
47
102
}
330
47
100
AcDbScale
 70
     0
300
1/16" = 1'-0"
140
0.0625
141
12.0
290
     0
  0
SCALE
  5
5D
102
{ACAD_REACTORS
330
47
102
}
330
47
100
AcDbScale
 70
     0
300
3/32" = 1'-0"
140
0.09375
141
12.0
290
     0
  0
SCALE
  5
5E
102
{ACAD_REACTORS
330
47
102
}
330
47
100
AcDbScale
 70
     0
300
1/8" = 1'-0"
140
0.125
141
12.0
290
     0
  0
SCALE
  5
5F
102
{ACAD_REACTORS
330
47
102
}
330
47
100
AcDbScale
 70
     0
300
3/16" = 1'-0"
140
0.1875
141
12.0
290
     0
  0
SCALE
  5
60
102
{ACAD_REACTORS
330
47
102
}
330
47
100
AcDbScale
 70
     0
300
1/4" = 1'-0"
140
0.25
141
12.0
290
     0
  0
SCALE
  5
61
102
{ACAD_REACTORS
330
47
102
}
330
47
100
AcDbScale
 70
     0
300
3/8" = 1'-0"
140
0.375
141
12.0
290
     0
  0
SCALE
  5
62
102
{ACAD_REACTORS
330
47
102
}
330
47
100
AcDbScale
 70
     0
300
1/2" = 1'-0"
140
0.5
141
12.0
290
     0
  0
SCALE
  5
63
102
{ACAD_REACTORS
330
47
102
}
330
47
100
AcDbScale
 70
     0
300
3/4" = 1'-0"
140
0.75
141
12.0
290
     0
  0
SCALE
  5
64
102
{ACAD_REACTORS
330
47
102
}
330
47
100
AcDbScale
 70
     0
300
1" = 1'-0"
140
1.0
141
12.0
290
     0
  0
SCALE
  5
65
102
{ACAD_REACTORS
330
47
102
}
330
47
100
AcDbScale
 70
     0
300
1-1/2" = 1'-0"
140
1.5
141
12.0
290
     0
  0
SCALE
  5
66
102
{ACAD_REACTORS
330
47
102
}
330
47
100
AcDbScale
 70
     0
300
3" = 1'-0"
140
3.0
141
12.0
290
     0
  0
SCALE
  5
67
102
{ACAD_REACTORS
330
47
102
}
330
47
100
AcDbScale
 70
     0
300
6" = 1'-0"
140
6.0
141
12.0
290
     0
  0
SCALE
  5
68
102
{ACAD_REACTORS
330
47
102
}
330
47
100
AcDbScale
 70
     0
300
1'-0" = 1'-0"
140
12.0
141
12.0
290
     0
  0
ACDBSECTIONVIEWSTYLE
  5
42F
102
{ACAD_XDICTIONARY
360
9E1
102
}
102
{ACAD_REACTORS
330
42B
102
}
330
42B
100
AcDbModelDocViewStyle
 70
     0
  3
Metric50
290
     0
100
AcDbSectionViewStyle
 70
     0
 71
     0
 90
      102
 71
     1
340
11
 40
5.0
340
0
340
0
 40
5.0
300
I, O, Q, S, X, Z
 40
10.0
 90
        0
 40
2.5
 90
        0
 71
     2
340
16
 90
       25
340
16
 90
       50
 40
5.0
 40
2.5
 40
5.0
 71
     3
340
11
 40
5.0
 90
        0
 40
15.0
 90
        1
300
%<\AcVar ViewSectionStartId>%-%<\AcVar ViewSectionEndId>% (%<\AcVar ViewScale \f "%sn">%)
 71
     4
300
ANSI31
 40
1.0
 90
        0
290
     0
290
     0
 90
        6
 40
0.0
 40
1.570796326794896
 40
0.2617993877991494
 40
1.308996938995747
 40
-0.2617993877991494
 40
1.832595714594046
  0
TABLESTYLE
  5
6A
102
{ACAD_XDICTIONARY
360
421
102
}
102
{ACAD_REACTORS
330
69
102
}
330
69
100
AcDbTableStyle
  3
Standard
 70
     0
 71
     0
 40
0.06
 41
0.06
280
     0
281
     0
  7
Standard
140
0.18
170
     2
 62
     0
 63
     7
283
     0
274
    -2
284
     1
 64
     0
275
    -2
285
     1
 65
     0
276
    -2
286
     1
 66
     0
277
    -2
287
     1
 67
     0
278
    -2
288
     1
 68
     0
279
    -2
289
     1
 69
     0
  7
Standard
140
0.25
170
     5
 62
     0
 63
     7
283
     0
274
    -2
284
     1
 64
     0
275
    -2
285
     1
 65
     0
276
    -2
286
     1
 66
     0
277
    -2
287
     1
 67
     0
278
    -2
288
     1
 68
     0
279
    -2
289
     1
 69
     0
  7
Standard
140
0.18
170
     5
 62
     0
 63
     7
283
     0
274
    -2
284
     1
 64
     0
275
    -2
285
     1
 65
     0
276
    -2
286
     1
 66
     0
277
    -2
287
     1
 67
     0
278
    -2
288
     1
 68
     0
279
    -2
289
     1
 69
     0
  0
VISUALSTYLE
  5
2F
102
{ACAD_XDICTIONARY
360
9B8
102
}
102
{ACAD_REACTORS
330
2A
102
}
330
2A
100
AcDbVisualStyle
  2

 70
     4
 71
     0
 72
     2
 73
     0
 90
        0
 40
-0.6
 41
-30.0
 62
     5
 63
     7
 74
     1
 91
        4
 64
     7
 65
   257
 75
     1
175
     1
 42
1.0
 92
        0
 66
   257
 43
1.0
 76
     1
 77
     6
 78
     2
 67
     7
 79
     5
170
     0
171
     0
290
     0
174
     0
 93
        1
 44
0.0
173
     0
291
     0
 45
0.0
1001
ACAD
1000
AcDbSavedByObjectVersion
1070
     0
  0
VISUALSTYLE
  5
32
102
{ACAD_XDICTIONARY
360
9BE
102
}
102
{ACAD_REACTORS
330
2A
102
}
330
2A
100
AcDbVisualStyle
  2

 70
     7
 71
     1
 72
     0
 73
     1
 90
        0
 40
-0.6
 41
-30.0
 62
     5
 63
     7
 74
     0
 91
        4
 64
     7
 65
   257
 75
     1
175
     1
 42
1.0
 92
        8
 66
     7
 43
1.0
 76
     1
 77
     6
 78
     2
 67
     7
 79
     5
170
     0
171
     0
290
     0
174
     0
 93
        1
 44
0.0
173
     0
291
     1
 45
0.0
1001
ACAD
1000
AcDbSavedByObjectVersion
1070
     0
  0
VISUALSTYLE
  5
36
102
{ACAD_XDICTIONARY
360
9C6
102
}
102
{ACAD_REACTORS
330
2A
102
}
330
2A
100
AcDbVisualStyle
  2

 70
    12
 71
     2
 72
     2
 73
     0
 90
        0
 40
-0.6
 41
-30.0
 62
     5
 63
     7
 74
     1
 91
        4
 64
     7
 65
   257
 75
     1
175
     1
 42
1.0
 92
        8
 66
     7
 43
1.0
 76
     1
 77
     6
 78
     2
 67
     7
 79
     5
170
     0
171
     0
290
     0
174
     0
 93
        1
 44
50.0
173
     0
291
     1
 45
0.0
1001
ACAD
1000
AcDbSavedByObjectVersion
1070
     0
  0
VISUALSTYLE
  5
3A
102
{ACAD_XDICTIONARY
360
9CE
102
}
102
{ACAD_REACTORS
330
2A
102
}
330
2A
100
AcDbVisualStyle
  2

 70
    16
 71
     2
 72
     2
 73
     3
 90
        0
 40
-0.6
 41
-30.0
 62
     5
 63
     8
 74
     1
 91
        4
 64
     7
 65
   257
 75
     1
175
     1
 42
1.0
 92
        8
 66
     8
 43
1.0
 76
     1
 77
     6
 78
     2
 67
     7
 79
     5
170
     0
171
     0
290
     0
174
     0
 93
        1
 44
0.0
173
     0
291
     1
 45
0.0
1001
ACAD
1000
AcDbSavedByObjectVersion
1070
     0
  0
VISUALSTYLE
  5
34
102
{ACAD_XDICTIONARY
360
9C2
102
}
102
{ACAD_REACTORS
330
2A
102
}
330
2A
100
AcDbVisualStyle
  2

 70
     9
 71
     3
 72
     2
 73
     0
 90
        0
 40
-0.6
 41
-30.0
 62
     5
 63
     7
 74
     2
 91
        2
 64
     7
 65
   257
 75
     1
175
     1
 42
179.0
 92
        8
 66
     7
 43
1.0
 76
     1
 77
     6
 78
     2
 67
     7
 79
     3
170
     0
171
     0
290
     0
174
     0
 93
        1
 44
0.0
173
     0
291
     0
 45
0.0
1001
ACAD
1000
AcDbSavedByObjectVersion
1070
     0
  0
VISUALSTYLE
  5
35
102
{ACAD_XDICTIONARY
360
9C4
102
}
102
{ACAD_REACTORS
330
2A
102
}
330
2A
100
AcDbVisualStyle
  2

 70
    11
 71
     2
 72
     2
 73
     0
 90
        0
 40
-0.6
 41
-30.0
 62
     5
 63
     7
 74
     1
 91
        4
 64
     7
 65
   257
 75
     1
175
     1
 42
1.0
 92
        8
 66
     7
 43
1.0
 76
     1
 77
     6
 78
     2
 67
     7
 79
     5
170
     0
171
     0
290
     0
174
     0
 93
        1
 44
-50.0
173
     0
291
     1
 45
0.0
1001
ACAD
1000
AcDbSavedByObjectVersion
1070
     0
  0
VISUALSTYLE
  5
3D
102
{ACAD_XDICTIONARY
360
9D4
102
}
102
{ACAD_REACTORS
330
2A
102
}
330
2A
100
AcDbVisualStyle
  2

 70
    22
 71
     2
 72
     2
 73
     0
 90
        0
 40
-0.6
 41
-30.0
 62
     5
 63
     7
 74
     1
 91
        4
 64
     7
 65
   257
 75
     1
175
     1
 42
1.0
 92
        8
 66
     7
 43
1.0
 76
     1
 77
     6
 78
     2
 67
     7
 79
     5
170
     0
171
     0
290
     0
174
     0
 93
        1
 44
0.0
173
     0
291
     1
 45
0.0
1001
ACAD
1000
AcDbSavedByObjectVersion
1070
     0
  0
VISUALSTYLE
  5
39
102
{ACAD_XDICTIONARY
360
9CC
102
}
102
{ACAD_REACTORS
330
2A
102
}
330
2A
100
AcDbVisualStyle
  2

 70
    15
 71
     2
 72
     2
 73
     0
 90
        0
 40
-0.6
 41
-30.0
 62
     5
 63
     7
 74
     1
 91
        4
 64
     7
 65
   257
 75
     1
175
     1
 42
1.0
 92
        8
 66
     7
 43
1.0
 76
     1
 77
     6
 78
     2
 67
     7
 79
     5
170
     0
171
     0
290
     0
174
     0
 93
        1
 44
0.0
173
     0
291
     1
 45
0.0
1001
ACAD
1000
AcDbSavedByObjectVersion
1070
     0
  0
VISUALSTYLE
  5
2B
102
{ACAD_XDICTIONARY
360
9B0
102
}
102
{ACAD_REACTORS
330
2A
102
}
330
2A
100
AcDbVisualStyle
  2

 70
     0
 71
     2
 72
     1
 73
     1
 90
        2
 40
-0.6
 41
30.0
 62
     5
 63
     7
 74
     0
 91
        0
 64
     7
 65
   257
 75
     1
175
     1
 42
1.0
 92
        8
 66
     7
 43
1.0
 76
     1
 77
     6
 78
     2
 67
     7
 79
     5
170
     0
171
     0
290
     0
174
     0
 93
       13
 44
0.0
173
     0
291
     1
 45
0.0
1001
ACAD
1000
AcDbSavedByObjectVersion
1070
     0
  0
VISUALSTYLE
  5
2C
102
{ACAD_XDICTIONARY
360
9B2
102
}
102
{ACAD_REACTORS
330
2A
102
}
330
2A
100
AcDbVisualStyle
  2

 70
     1
 71
     2
 72
     1
 73
     1
 90
        2
 40
-0.6
 41
30.0
 62
     5
 63
     7
 74
     1
 91
        0
 64
     7
 65
   257
 75
     1
175
     1
 42
1.0
 92
        0
 66
   257
 43
1.0
 76
     1
 77
     6
 78
     2
 67
     7
 79
     5
170
     0
171
     0
290
     0
174
     0
 93
       13
 44
0.0
173
     0
291
     1
 45
0.0
1001
ACAD
1000
AcDbSavedByObjectVersion
1070
     0
  0
VISUALSTYLE
  5
2D
102
{ACAD_XDICTIONARY
360
9B4
102
}
102
{ACAD_REACTORS
330
2A
102
}
330
2A
100
AcDbVisualStyle
  2

 70
     2
 71
     2
 72
     2
 73
     1
 90
        2
 40
-0.6
 41
30.0
 62
     5
 63
     7
 74
     0
 91
        0
 64
     7
 65
   257
 75
     1
175
     1
 42
1.0
 92
        0
 66
     7
 43
1.0
 76
     1
 77
     6
 78
     2
 67
     7
 79
     5
170
     0
171
     0
290
     0
174
     0
 93
       13
 44
0.0
173
     0
291
     1
 45
0.0
1001
ACAD
1000
AcDbSavedByObjectVersion
1070
     0
  0
VISUALSTYLE
  5
2E
102
{ACAD_XDICTIONARY
360
9B6
102
}
102
{ACAD_REACTORS
330
2A
102
}
330
2A
100
AcDbVisualStyle
  2

 70
     3
 71
     2
 72
     2
 73
     1
 90
        2
 40
-0.6
 41
30.0
 62
     5
 63
     7
 74
     1
 91
        0
 64
     7
 65
   257
 75
     1
175
     1
 42
1.0
 92
        0
 66
   257
 43
1.0
 76
     1
 77
     6
 78
     2
 67
     7
 79
     5
170
     0
171
     0
290
     0
174
     0
 93
       13
 44
0.0
173
     0
291
     1
 45
0.0
1001
ACAD
1000
AcDbSavedByObjectVersion
1070
     0
  0
VISUALSTYLE
  5
31
102
{ACAD_XDICTIONARY
360
9BC
102
}
102
{ACAD_REACTORS
330
2A
102
}
330
2A
100
AcDbVisualStyle
  2

 70
     6
 71
     1
 72
     2
 73
     2
 90
        0
 40
-0.6
 41
-30.0
 62
     5
 63
     7
 74
     2
 91
        2
 64
     7
 65
   257
 75
     2
175
     1
 42
40.0
 92
        0
 66
   257
 43
1.0
 76
     1
 77
     6
 78
     2
 67
     7
 79
     3
170
     0
171
     0
290
     0
174
     0
 93
        1
 44
0.0
173
     0
291
     0
 45
0.0
1001
ACAD
1000
AcDbSavedByObjectVersion
1070
     0
  0
VISUALSTYLE
  5
3B
102
{ACAD_XDICTIONARY
360
9D0
102
}
102
{ACAD_REACTORS
330
2A
102
}
330
2A
100
AcDbVisualStyle
  2

 70
    20
 71
     2
 72
     2
 73
     0
 90
        0
 40
-0.6
 41
-30.0
 62
     5
 63
     7
 74
     1
 91
        4
 64
     7
 65
   257
 75
     1
175
     1
 42
1.0
 92
       10
 66
     7
 43
1.0
 76
     1
 77
     6
 78
     2
 67
     7
 79
     5
170
     0
171
     0
290
     0
174
     0
 93
        1
 44
0.0
173
     0
291
     1
 45
0.0
1001
ACAD
1000
AcDbSavedByObjectVersion
1070
     0
  0
VISUALSTYLE
  5
38
102
{ACAD_XDICTIONARY
360
9CA
102
}
102
{ACAD_REACTORS
330
2A
102
}
330
2A
100
AcDbVisualStyle
  2

 70
    14
 71
     2
 72
     2
 73
     0
 90
        0
 40
-0.6
 41
-30.0
 62
     5
 63
     7
 74
     1
 91
        4
 64
     7
 65
   257
 75
     7
175
     7
 42
1.0
 92
        8
 66
     7
 43
1.0
 76
     1
 77
     6
 78
     2
 67
     7
 79
     5
170
     0
171
     0
290
     0
174
     0
 93
        1
 44
0.0
173
     0
291
     1
 45
0.0
1001
ACAD
1000
AcDbSavedByObjectVersion
1070
     0
  0
VISUALSTYLE
  5
3C
102
{ACAD_XDICTIONARY
360
9D2
102
}
102
{ACAD_REACTORS
330
2A
102
}
330
2A
100
AcDbVisualStyle
  2

 70
    21
 71
     2
 72
     2
 73
     0
 90
        0
 40
-0.6
 41
-30.0
 62
     5
 63
     7
 74
     1
 91
        4
 64
     7
 65
   257
 75
     1
175
     1
 42
1.0
 92
        9
 66
     7
 43
1.0
 76
     1
 77
     6
 78
     2
 67
     7
 79
     5
170
     0
171
     0
290
     0
174
     0
 93
        1
 44
0.0
173
     0
291
     1
 45
0.0
1001
ACAD
1000
AcDbSavedByObjectVersion
1070
     0
  0
VISUALSTYLE
  5
33
102
{ACAD_XDICTIONARY
360
9C0
102
}
102
{ACAD_REACTORS
330
2A
102
}
330
2A
100
AcDbVisualStyle
  2

 70
     8
 71
     2
 72
     3
 73
     0
 90
        2
 40
-0.6
 41
30.0
 62
     5
 63
     7
 74
     0
 91
        0
 64
     7
 65
   257
 75
     1
175
     1
 42
1.0
 92
        8
 66
   257
 43
1.0
 76
     1
 77
     6
 78
     2
 67
     7
 79
     3
170
     0
171
     0
290
     0
174
     0
 93
       13
 44
0.0
173
     0
291
     0
 45
0.0
1001
ACAD
1000
AcDbSavedByObjectVersion
1070
     0
  0
VISUALSTYLE
  5
42
102
{ACAD_XDICTIONARY
360
9DE
102
}
102
{ACAD_REACTORS
330
2A
102
}
330
2A
100
AcDbVisualStyle
  2

 70
    27
 71
     2
 72
     2
 73
     1
 90
        2
 40
-0.6
 41
30.0
 62
     5
 63
     7
 74
     0
 91
        4
 64
     7
 65
   257
 75
     1
175
     1
 42
1.0
 92
        8
 66
   257
 43
1.0
 76
     1
 77
     6
 78
     2
 67
     8
 79
     3
170
     0
171
     0
290
     0
174
     0
 93
        5
 44
0.0
173
     0
291
     0
 45
0.0
1001
ACAD
1000
AcDbSavedByObjectVersion
1070
     0
  0
VISUALSTYLE
  5
41
102
{ACAD_XDICTIONARY
360
9DC
102
}
102
{ACAD_REACTORS
330
2A
102
}
330
2A
100
AcDbVisualStyle
  2

 70
    26
 71
     2
 72
     2
 73
     1
 90
        2
 40
-0.6
 41
30.0
 62
     5
 63
     7
 74
     1
 91
       10
 64
     7
 65
   257
 75
     2
175
     1
 42
1.0
 92
        8
 66
   257
 43
1.0
 76
     1
 77
     6
 78
     2
 67
     7
 79
     3
170
     0
171
     0
290
     0
174
     0
 93
        5
 44
0.0
173
     0
291
     0
 45
0.0
1001
ACAD
1000
AcDbSavedByObjectVersion
1070
     0
  0
VISUALSTYLE
  5
3E
102
{ACAD_XDICTIONARY
360
9D6
102
}
102
{ACAD_REACTORS
330
2A
102
}
330
2A
100
AcDbVisualStyle
  2

 70
    23
 71
     2
 72
     2
 73
     3
 90
        0
 40
-0.6
 41
-30.0
 62
     5
 63
     7
 74
     2
 91
        2
 64
     7
 65
     7
 75
     1
175
     1
 42
40.0
 92
        8
 66
     7
 43
1.0
 76
     1
 77
     6
 78
     2
 67
     7
 79
     3
170
     0
171
     0
290
     0
174
     0
 93
        1
 44
0.0
173
     0
291
     0
 45
0.0
1001
ACAD
1000
AcDbSavedByObjectVersion
1070
     0
  0
VISUALSTYLE
  5
3F
102
{ACAD_XDICTIONARY
360
9D8
102
}
102
{ACAD_REACTORS
330
2A
102
}
330
2A
100
AcDbVisualStyle
  2

 70
    24
 71
     1
 72
     2
 73
     2
 90
        0
 40
-0.6
 41
-30.0
 62
     5
 63
     7
 74
     2
 91
        2
 64
     7
 65
     7
 75
     1
175
     1
 42
40.0
 92
       11
 66
     7
 43
1.0
 76
     1
 77
     6
 78
     2
 67
     7
 79
     6
170
     0
171
     0
290
     0
174
     0
 93
        1
 44
0.0
173
     0
291
     0
 45
0.0
1001
ACAD
1000
AcDbSavedByObjectVersion
1070
     0
  0
VISUALSTYLE
  5
37
102
{ACAD_XDICTIONARY
360
9C8
102
}
102
{ACAD_REACTORS
330
2A
102
}
330
2A
100
AcDbVisualStyle
  2

 70
    13
 71
     2
 72
     2
 73
     0
 90
        0
 40
-0.6
 41
-30.0
 62
     5
 63
     7
 74
     1
 91
        4
 64
     7
 65
   257
 75
     1
175
     1
 42
1.0
 92
       12
 66
     7
 43
1.0
 76
     1
 77
     6
 78
     2
 67
     7
 79
     5
170
     0
171
     0
290
     0
174
     0
 93
        1
 44
0.0
173
     0
291
     1
 45
0.0
1001
ACAD
1000
AcDbSavedByObjectVersion
1070
     0
  0
VISUALSTYLE
  5
30
102
{ACAD_XDICTIONARY
360
9BA
102
}
102
{ACAD_REACTORS
330
2A
102
}
330
2A
100
AcDbVisualStyle
  2

 70
     5
 71
     0
 72
     2
 73
     0
 90
        0
 40
-0.6
 41
-30.0
 62
     5
 63
     7
 74
     1
 91
        4
 64
     7
 65
   257
 75
     1
175
     1
 42
1.0
 92
        0
 66
   257
 43
1.0
 76
     1
 77
     6
 78
     2
 67
     7
 79
     3
170
     0
171
     0
290
     0
174
     0
 93
        1
 44
0.0
173
     0
291
     0
 45
0.0
1001
ACAD
1000
AcDbSavedByObjectVersion
1070
     0
  0
VISUALSTYLE
  5
40
102
{ACAD_XDICTIONARY
360
9DA
102
}
102
{ACAD_REACTORS
330
2A
102
}
330
2A
100
AcDbVisualStyle
  2

 70
    25
 71
     2
 72
     2
 73
     1
 90
        1
 40
0.5
 41
-30.0
 62
     5
 63
     7
 74
     1
 91
        0
 64
     7
 65
   257
 75
     1
175
     1
 42
1.0
 92
        8
 66
     7
 43
1.0
 76
     1
 77
     6
 78
     2
 67
     7
 79
     3
170
     0
171
     0
290
     0
174
     0
 93
       13
 44
0.0
173
     0
291
     0
 45
0.0
1001
ACAD
1000
AcDbSavedByObjectVersion
1070
     0
  0
DICTIONARYVAR
  5
3E8
102
{ACAD_REACTORS
330
3E7
102
}
330
3E7
100
DictionaryVariables
280
     0
  1
1:1
  0
DICTIONARYVAR
  5
429
102
{ACAD_REACTORS
330
3E7
102
}
330
3E7
100
DictionaryVariables
280
     0
  1
STANDARD
  0
DICTIONARYVAR
  5
428
102
{ACAD_REACTORS
330
3E7
102
}
330
3E7
100
DictionaryVariables
280
     0
  1
STANDARD
  0
DICTIONARYVAR
  5
99F
102
{ACAD_REACTORS
330
3E7
102
}
330
3E7
100
DictionaryVariables
280
     0
  1
Metric50
  0
DICTIONARYVAR
  5
9A0
102
{ACAD_REACTORS
330
3E7
102
}
330
3E7
100
DictionaryVariables
280
     0
  1
Metric50
  0
DICTIONARYVAR
  5
9A4
102
{ACAD_REACTORS
330
3E7
102
}
330
3E7
100
DictionaryVariables
280
     0
  1
2
  0
DICTIONARYVAR
  5
9A3
102
{ACAD_REACTORS
330
3E7
102
}
330
3E7
100
DictionaryVariables
280
     0
  1
1
  0
DICTIONARYVAR
  5
9A2
102
{ACAD_REACTORS
330
3E7
102
}
330
3E7
100
DictionaryVariables
280
     0
  1
0
  0
DICTIONARYVAR
  5
3E9
102
{ACAD_REACTORS
330
3E7
102
}
330
3E7
100
DictionaryVariables
280
     0
  1
1
  0
DICTIONARYVAR
  5
9A1
102
{ACAD_REACTORS
330
3E7
102
}
330
3E7
100
DictionaryVariables
280
     0
  1
127
  0
DICTIONARYVAR
  5
9A5
102
{ACAD_REACTORS
330
3E7
102
}
330
3E7
100
DictionaryVariables
280
     0
  1
2
  0
DICTIONARY
  5
9E3
330
430
100
AcDbDictionary
280
     1
281
     1
  3
ACAD_XREC_ROUNDTRIP
360
9E4
  0
DICTIONARY
  5
9AA
330
1E
100
AcDbDictionary
280
     1
281
     1
  3
ACAD_XREC_ROUNDTRIP
360
9AB
  0
DICTIONARY
  5
9AE
330
26
100
AcDbDictionary
280
     1
281
     1
  3
ACAD_XREC_ROUNDTRIP
360
9AF
  0
DICTIONARY
  5
9AC
330
22
100
AcDbDictionary
280
     1
281
     1
  3
ACAD_XREC_ROUNDTRIP
360
9AD
  0
DICTIONARY
  5
41D
330
45
100
AcDbDictionary
280
     1
281
     1
  3
ACAD_XREC_ROUNDTRIP
360
41E
  0
DICTIONARY
  5
41B
330
44
100
AcDbDictionary
280
     1
281
     1
  3
ACAD_XREC_ROUNDTRIP
360
41C
  0
DICTIONARY
  5
41F
330
46
100
AcDbDictionary
280
     1
281
     1
  3
ACAD_XREC_ROUNDTRIP
360
420
  0
DICTIONARY
  5
9E1
330
42F
100
AcDbDictionary
280
     1
281
     1
  3
ACAD_XREC_ROUNDTRIP
360
9E2
  0
DICTIONARY
  5
421
330
6A
100
AcDbDictionary
280
     1
281
     1
  3
ACAD_ROUNDTRIP_2008_TABLESTYLE_CELLSTYLEMAP
360
9A7
  3
ACAD_XREC_ROUNDTRIP
360
9E0
  0
DICTIONARY
  5
9B8
330
2F
100
AcDbDictionary
280
     1
281
     1
  3
ACAD_XREC_ROUNDTRIP
360
9B9
  0
DICTIONARY
  5
9BE
330
32
100
AcDbDictionary
280
     1
281
     1
  3
ACAD_XREC_ROUNDTRIP
360
9BF
  0
DICTIONARY
  5
9C6
330
36
100
AcDbDictionary
280
     1
281
     1
  3
ACAD_XREC_ROUNDTRIP
360
9C7
  0
DICTIONARY
  5
9CE
330
3A
100
AcDbDictionary
280
     1
281
     1
  3
ACAD_XREC_ROUNDTRIP
360
9CF
  0
DICTIONARY
  5
9C2
330
34
100
AcDbDictionary
280
     1
281
     1
  3
ACAD_XREC_ROUNDTRIP
360
9C3
  0
DICTIONARY
  5
9C4
330
35
100
AcDbDictionary
280
     1
281
     1
  3
ACAD_XREC_ROUNDTRIP
360
9C5
  0
DICTIONARY
  5
9D4
330
3D
100
AcDbDictionary
280
     1
281
     1
  3
ACAD_XREC_ROUNDTRIP
360
9D5
  0
DICTIONARY
  5
9CC
330
39
100
AcDbDictionary
280
     1
281
     1
  3
ACAD_XREC_ROUNDTRIP
360
9CD
  0
DICTIONARY
  5
9B0
330
2B
100
AcDbDictionary
280
     1
281
     1
  3
ACAD_XREC_ROUNDTRIP
360
9B1
  0
DICTIONARY
  5
9B2
330
2C
100
AcDbDictionary
280
     1
281
     1
  3
ACAD_XREC_ROUNDTRIP
360
9B3
  0
DICTIONARY
  5
9B4
330
2D
100
AcDbDictionary
280
     1
281
     1
  3
ACAD_XREC_ROUNDTRIP
360
9B5
  0
DICTIONARY
  5
9B6
330
2E
100
AcDbDictionary
280
     1
281
     1
  3
ACAD_XREC_ROUNDTRIP
360
9B7
  0
DICTIONARY
  5
9BC
330
31
100
AcDbDictionary
280
     1
281
     1
  3
ACAD_XREC_ROUNDTRIP
360
9BD
  0
DICTIONARY
  5
9D0
330
3B
100
AcDbDictionary
280
     1
281
     1
  3
ACAD_XREC_ROUNDTRIP
360
9D1
  0
DICTIONARY
  5
9CA
330
38
100
AcDbDictionary
280
     1
281
     1
  3
ACAD_XREC_ROUNDTRIP
360
9CB
  0
DICTIONARY
  5
9D2
330
3C
100
AcDbDictionary
280
     1
281
     1
  3
ACAD_XREC_ROUNDTRIP
360
9D3
  0
DICTIONARY
  5
9C0
330
33
100
AcDbDictionary
280
     1
281
     1
  3
ACAD_XREC_ROUNDTRIP
360
9C1
  0
DICTIONARY
  5
9DE
330
42
100
AcDbDictionary
280
     1
281
     1
  3
ACAD_XREC_ROUNDTRIP
360
9DF
  0
DICTIONARY
  5
9DC
330
41
100
AcDbDictionary
280
     1
281
     1
  3
ACAD_XREC_ROUNDTRIP
360
9DD
  0
DICTIONARY
  5
9D6
330
3E
100
AcDbDictionary
280
     1
281
     1
  3
ACAD_XREC_ROUNDTRIP
360
9D7
  0
DICTIONARY
  5
9D8
330
3F
100
AcDbDictionary
280
     1
281
     1
  3
ACAD_XREC_ROUNDTRIP
360
9D9
  0
DICTIONARY
  5
9C8
330
37
100
AcDbDictionary
280
     1
281
     1
  3
ACAD_XREC_ROUNDTRIP
360
9C9
  0
DICTIONARY
  5
9BA
330
30
100
AcDbDictionary
280
     1
281
     1
  3
ACAD_XREC_ROUNDTRIP
360
9BB
  0
DICTIONARY
  5
9DA
330
40
100
AcDbDictionary
280
     1
281
     1
  3
ACAD_XREC_ROUNDTRIP
360
9DB
  0
XRECORD
  5
9E4
102
{ACAD_REACTORS
330
9E3
102
}
330
9E3
100
AcDbXrecord
280
     1
102
DISPLAYNAME
  1
Metric50
102
FLAGS
 90
        0
  0
XRECORD
  5
9AB
102
{ACAD_REACTORS
330
9AA
102
}
330
9AA
100
AcDbXrecord
280
     1
102
SHADEPLOT
 70
     0
102
SHADEPLOTRESLEVEL
 70
     2
102
SHADEPLOTCUSTOMDPI
 70
   300
  0
XRECORD
  5
9AF
102
{ACAD_REACTORS
330
9AE
102
}
330
9AE
100
AcDbXrecord
280
     1
102
SHADEPLOT
 70
     0
102
SHADEPLOTRESLEVEL
 70
     2
102
SHADEPLOTCUSTOMDPI
 70
   300
  0
XRECORD
  5
9AD
102
{ACAD_REACTORS
330
9AC
102
}
330
9AC
100
AcDbXrecord
280
     1
102
SHADEPLOT
 70
     0
102
SHADEPLOTRESLEVEL
 70
     2
102
SHADEPLOTCUSTOMDPI
 70
   300
  0
XRECORD
  5
41E
102
{ACAD_REACTORS
330
41D
102
}
330
41D
100
AcDbXrecord
280
     1
102
MATERIAL
148
0.0
149
0.0
149
0.0
 93
        0
 94
      127
282
     0
 72
     1
 77
     1
171
     1
175
     1
179
     1
273
     0
  0
XRECORD
  5
41C
102
{ACAD_REACTORS
330
41B
102
}
330
41B
100
AcDbXrecord
280
     1
102
MATERIAL
148
0.0
149
0.0
149
0.0
 93
        0
 94
      127
282
     0
 72
     1
 77
     1
171
     1
175
     1
179
     1
273
     0
  0
XRECORD
  5
420
102
{ACAD_REACTORS
330
41F
102
}
330
41F
100
AcDbXrecord
280
     1
102
MATERIAL
148
0.0
149
0.0
149
0.0
 93
        0
 94
      127
282
     0
 72
     1
 77
     1
171
     1
175
     1
179
     1
273
     0
  0
XRECORD
  5
9E2
102
{ACAD_REACTORS
330
9E1
102
}
330
9E1
100
AcDbXrecord
280
     1
102
DISPLAYNAME
  1
Metric50
102
FLAGS
 90
        0
  0
CELLSTYLEMAP
  5
9A7
102
{ACAD_REACTORS
330
421
102
}
330
421
100
AcDbCellStyleMap
 90
        3
300
CELLSTYLE
  1
TABLEFORMAT_BEGIN
 90
        5
170
     1
 91
        0
 92
    32768
 62
   257
 93
        1
300
CONTENTFORMAT
  1
CONTENTFORMAT_BEGIN
 90
        0
 91
        0
 92
        4
 93
        0
300

 40
0.0
140
1.0
 94
        5
 62
     0
340
11
144
0.25
309
CONTENTFORMAT_END
171
     1
301
MARGIN
  1
CELLMARGIN_BEGIN
 40
0.06
 40
0.06
 40
0.06
 40
0.06
 40
0.18
 40
0.18
309
CELLMARGIN_END
 94
        6
 95
        1
302
GRIDFORMAT
  1
GRIDFORMAT_BEGIN
 90
        0
 91
        1
 62
     0
 92
       -2
340
14
 93
        0
 40
0.045
309
GRIDFORMAT_END
 95
        2
302
GRIDFORMAT
  1
GRIDFORMAT_BEGIN
 90
        0
 91
        1
 62
     0
 92
       -2
340
14
 93
        0
 40
0.045
309
GRIDFORMAT_END
 95
        4
302
GRIDFORMAT
  1
GRIDFORMAT_BEGIN
 90
        0
 91
        1
 62
     0
 92
       -2
340
14
 93
        0
 40
0.045
309
GRIDFORMAT_END
 95
        8
302
GRIDFORMAT
  1
GRIDFORMAT_BEGIN
 90
        0
 91
        1
 62
     0
 92
       -2
340
14
 93
        0
 40
0.045
309
GRIDFORMAT_END
 95
       16
302
GRIDFORMAT
  1
GRIDFORMAT_BEGIN
 90
        0
 91
        1
 62
     0
 92
       -2
340
14
 93
        0
 40
0.045
309
GRIDFORMAT_END
 95
       32
302
GRIDFORMAT
  1
GRIDFORMAT_BEGIN
 90
        0
 91
        1
 62
     0
 92
       -2
340
14
 93
        0
 40
0.045
309
GRIDFORMAT_END
309
TABLEFORMAT_END
  1
CELLSTYLE_BEGIN
 90
        1
 91
        1
300
_TITLE
309
CELLSTYLE_END
300
CELLSTYLE
  1
TABLEFORMAT_BEGIN
 90
        5
170
     1
 91
        0
 92
        0
 62
   257
 93
        1
300
CONTENTFORMAT
  1
CONTENTFORMAT_BEGIN
 90
        0
 91
        0
 92
        4
 93
        0
300

 40
0.0
140
1.0
 94
        5
 62
     0
340
11
144
0.18
309
CONTENTFORMAT_END
171
     1
301
MARGIN
  1
CELLMARGIN_BEGIN
 40
0.06
 40
0.06
 40
0.06
 40
0.06
 40
0.18
 40
0.18
309
CELLMARGIN_END
 94
        6
 95
        1
302
GRIDFORMAT
  1
GRIDFORMAT_BEGIN
 90
        0
 91
        1
 62
     0
 92
       -2
340
14
 93
        0
 40
0.045
309
GRIDFORMAT_END
 95
        2
302
GRIDFORMAT
  1
GRIDFORMAT_BEGIN
 90
        0
 91
        1
 62
     0
 92
       -2
340
14
 93
        0
 40
0.045
309
GRIDFORMAT_END
 95
        4
302
GRIDFORMAT
  1
GRIDFORMAT_BEGIN
 90
        0
 91
        1
 62
     0
 92
       -2
340
14
 93
        0
 40
0.045
309
GRIDFORMAT_END
 95
        8
302
GRIDFORMAT
  1
GRIDFORMAT_BEGIN
 90
        0
 91
        1
 62
     0
 92
       -2
340
14
 93
        0
 40
0.045
309
GRIDFORMAT_END
 95
       16
302
GRIDFORMAT
  1
GRIDFORMAT_BEGIN
 90
        0
 91
        1
 62
     0
 92
       -2
340
14
 93
        0
 40
0.045
309
GRIDFORMAT_END
 95
       32
302
GRIDFORMAT
  1
GRIDFORMAT_BEGIN
 90
        0
 91
        1
 62
     0
 92
       -2
340
14
 93
        0
 40
0.045
309
GRIDFORMAT_END
309
TABLEFORMAT_END
  1
CELLSTYLE_BEGIN
 90
        2
 91
        1
300
_HEADER
309
CELLSTYLE_END
300
CELLSTYLE
  1
TABLEFORMAT_BEGIN
 90
        5
170
     1
 91
        0
 92
        0
 62
   257
 93
        1
300
CONTENTFORMAT
  1
CONTENTFORMAT_BEGIN
 90
        0
 91
        0
 92
        4
 93
        0
300

 40
0.0
140
1.0
 94
        2
 62
     0
340
11
144
0.18
309
CONTENTFORMAT_END
171
     1
301
MARGIN
  1
CELLMARGIN_BEGIN
 40
0.06
 40
0.06
 40
0.06
 40
0.06
 40
0.18
 40
0.18
309
CELLMARGIN_END
 94
        6
 95
        1
302
GRIDFORMAT
  1
GRIDFORMAT_BEGIN
 90
        0
 91
        1
 62
     0
 92
       -2
340
14
 93
        0
 40
0.045
309
GRIDFORMAT_END
 95
        2
302
GRIDFORMAT
  1
GRIDFORMAT_BEGIN
 90
        0
 91
        1
 62
     0
 92
       -2
340
14
 93
        0
 40
0.045
309
GRIDFORMAT_END
 95
        4
302
GRIDFORMAT
  1
GRIDFORMAT_BEGIN
 90
        0
 91
        1
 62
     0
 92
       -2
340
14
 93
        0
 40
0.045
309
GRIDFORMAT_END
 95
        8
302
GRIDFORMAT
  1
GRIDFORMAT_BEGIN
 90
        0
 91
        1
 62
     0
 92
       -2
340
14
 93
        0
 40
0.045
309
GRIDFORMAT_END
 95
       16
302
GRIDFORMAT
  1
GRIDFORMAT_BEGIN
 90
        0
 91
        1
 62
     0
 92
       -2
340
14
 93
        0
 40
0.045
309
GRIDFORMAT_END
 95
       32
302
GRIDFORMAT
  1
GRIDFORMAT_BEGIN
 90
        0
 91
        1
 62
     0
 92
       -2
340
14
 93
        0
 40
0.045
309
GRIDFORMAT_END
309
TABLEFORMAT_END
  1
CELLSTYLE_BEGIN
 90
        3
 91
        2
300
_DATA
309
CELLSTYLE_END
  0
XRECORD
  5
9E0
102
{ACAD_REACTORS
330
421
102
}
330
421
100
AcDbXrecord
280
     1
102
ACAD_ROUNDTRIP_PRE2007_TABLESTYLE
 90
        4
 91
        0
  1

 92
        4
 93
        0
  2

 94
        4
 95
        0
  3

  0
XRECORD
  5
9B9
102
{ACAD_REACTORS
330
9B8
102
}
330
9B8
100
AcDbXrecord
280
     1
102
RTVSPost2010Prop28
280
     1
102
RTVSPost2010PropOp28
 70
     1
102
RTVSPost2010Prop29
280
     1
102
RTVSPost2010PropOp29
 70
     1
102
RTVSPost2010Prop30
280
     0
102
RTVSPost2010PropOp30
 70
     1
102
RTVSPost2010Prop31
280
     0
102
RTVSPost2010PropOp31
 70
     1
102
RTVSPost2010Prop32
280
     0
102
RTVSPost2010PropOp32
 70
     1
102
RTVSPost2010Prop33
280
     0
102
RTVSPost2010PropOp33
 70
     1
102
RTVSPost2010Prop34
280
     0
102
RTVSPost2010PropOp34
 70
     1
102
RTVSPost2010Prop35
280
     0
102
RTVSPost2010PropOp35
 70
     1
102
RTVSPost2010Prop36
280
     0
102
RTVSPost2010PropOp36
 70
     1
102
RTVSPost2010Prop37
 90
       50
102
RTVSPost2010PropOp37
 70
     1
102
RTVSPost2010Prop38
140
0.0
102
RTVSPost2010PropOp38
 70
     1
102
RTVSPost2010Prop39
140
1.0
102
RTVSPost2010PropOp39
 70
     1
102
RTVSPost2010Prop40
 90
        0
102
RTVSPost2010PropOp40
 70
     1
102
RTVSPost2010Prop41ColorIndex
 90
       18
102
RTVSPost2010Prop41ColorRGB
 90
        0
102
RTVSPost2010PropOp41
 70
     1
102
RTVSPost2010Prop42
 90
       50
102
RTVSPost2010PropOp42
 70
     1
102
RTVSPost2010Prop43
 90
        3
102
RTVSPost2010PropOp43
 70
     1
102
RTVSPost2010Prop44ColorIndex
 90
        5
102
RTVSPost2010Prop44ColorRGB
 90
      255
102
RTVSPost2010PropOp44
 70
     1
102
RTVSPost2010Prop45
280
     0
102
RTVSPost2010PropOp45
 70
     1
102
RTVSPost2010Prop46
 90
       50
102
RTVSPost2010PropOp46
 70
     1
102
RTVSPost2010Prop47
 90
       50
102
RTVSPost2010PropOp47
 70
     1
102
RTVSPost2010Prop48
 90
       50
102
RTVSPost2010PropOp48
 70
     1
102
RTVSPost2010Prop49
280
     0
102
RTVSPost2010PropOp49
 70
     1
102
RTVSPost2010Prop50
 90
       50
102
RTVSPost2010PropOp50
 70
     1
102
RTVSPost2010Prop51ColorIndex
 90
      256
102
RTVSPost2010Prop51ColorRGB
 90
-16777216
102
RTVSPost2010PropOp51
 70
     0
102
RTVSPost2010Prop52
140
1.0
102
RTVSPost2010PropOp52
 70
     0
102
RTVSPost2010Prop53
 90
        2
102
RTVSPost2010PropOp53
 70
     1
102
RTVSPost2010Prop54
  1
strokes_ogs.tif
102
RTVSPost2010PropOp54
 70
     1
102
RTVSPost2010Prop55
280
     0
102
RTVSPost2010PropOp55
 70
     1
102
RTVSPost2010Prop56
140
1.0
102
RTVSPost2010PropOp56
 70
     1
102
RTVSPost2010Prop57
140
1.0
102
RTVSPost2010PropOp57
 70
     1
102
RTVSPropertyOp0
 70
     1
102
RTVSPropertyOp1
 70
     1
102
RTVSPropertyOp2
 70
     1
102
RTVSPropertyOp3
 70
     1
102
RTVSPropertyOp4
 70
     1
102
RTVSPropertyOp5
 70
     1
102
RTVSPropertyOp6
 70
     1
102
RTVSPropertyOp7
 70
     1
102
RTVSPropertyOp8
 70
     1
102
RTVSPropertyOp9
 70
     1
102
RTVSPropertyOp10
 70
     1
102
RTVSPropertyOp11
 70
     1
102
RTVSPropertyOp12
 70
     1
102
RTVSPropertyOp13
 70
     1
102
RTVSPropertyOp14
 70
     1
102
RTVSPropertyOp15
 70
     1
102
RTVSPropertyOp16
 70
     1
102
RTVSPropertyOp17
 70
     1
102
RTVSPropertyOp18
 70
     1
102
RTVSPropertyOp19
 70
     1
102
RTVSPropertyOp20
 70
     1
102
RTVSPropertyOp21
 70
     1
102
RTVSPropertyOp22
 70
     1
102
RTVSPropertyOp23
 70
     1
102
RTVSPropertyOp24
 70
     1
102
RTVSPropertyOp25
 70
     1
102
RTVSPropertyOp26
 70
     1
102
RTVSPropertyOp27
 70
     1
102
RTVSPropertyOp28
 70
     1
102
RTVSPropertyOp29
 70
     1
102
RTVSPropertyOp30
 70
     1
102
RTVSPropertyOp31
 70
     1
102
RTVSPropertyOp32
 70
     1
102
RTVSPropertyOp33
 70
     1
102
RTVSPropertyOp34
 70
     1
102
RTVSPropertyOp35
 70
     1
102
RTVSPropertyOp36
 70
     1
102
RTVSPropertyOp37
 70
     1
102
RTVSPropertyOp38
 70
     1
102
RTVSPropertyOp39
 70
     1
102
RTVSPropertyOp40
 70
     1
102
RTVSPropertyOp41
 70
     1
102
RTVSPropertyOp42
 70
     1
102
RTVSPropertyOp43
 70
     1
102
RTVSPropertyOp44
 70
     1
102
RTVSPropertyOp45
 70
     1
102
RTVSPropertyOp46
 70
     1
102
RTVSPropertyOp47
 70
     1
102
RTVSPropertyOp48
 70
     1
102
RTVSPropertyOp49
 70
     1
102
RTVSPropertyOp50
 70
     1
102
RTVSPropertyOp51
 70
     0
102
RTVSPropertyOp52
 70
     0
102
RTVSPropertyOp53
 70
     1
102
RTVSPropertyOp54
 70
     1
102
RTVSPropertyOp55
 70
     1
102
RTVSPropertyOp56
 70
     1
102
RTVSPropertyOp57
 70
     1
102
RTVSPropertyOp58
 70
     1
102
RTVSPropertyOp59
 70
     1
102
RTVSPropertyOp60
 70
     1
102
RTVSPropertyOp61
 70
     1
102
RTVSPropertyOp62
 70
     1
  0
XRECORD
  5
9BF
102
{ACAD_REACTORS
330
9BE
102
}
330
9BE
100
AcDbXrecord
280
     1
102
RTVSPost2010Prop28
280
     0
102
RTVSPost2010PropOp28
 70
     1
102
RTVSPost2010Prop29
280
     1
102
RTVSPost2010PropOp29
 70
     1
102
RTVSPost2010Prop30
280
     1
102
RTVSPost2010PropOp30
 70
     1
102
RTVSPost2010Prop31
280
     0
102
RTVSPost2010PropOp31
 70
     1
102
RTVSPost2010Prop32
280
     0
102
RTVSPost2010PropOp32
 70
     1
102
RTVSPost2010Prop33
280
     0
102
RTVSPost2010PropOp33
 70
     1
102
RTVSPost2010Prop34
280
     0
102
RTVSPost2010PropOp34
 70
     1
102
RTVSPost2010Prop35
280
     0
102
RTVSPost2010PropOp35
 70
     1
102
RTVSPost2010Prop36
280
     0
102
RTVSPost2010PropOp36
 70
     1
102
RTVSPost2010Prop37
 90
       50
102
RTVSPost2010PropOp37
 70
     1
102
RTVSPost2010Prop38
140
0.0
102
RTVSPost2010PropOp38
 70
     1
102
RTVSPost2010Prop39
140
1.0
102
RTVSPost2010PropOp39
 70
     1
102
RTVSPost2010Prop40
 90
        0
102
RTVSPost2010PropOp40
 70
     1
102
RTVSPost2010Prop41ColorIndex
 90
       18
102
RTVSPost2010Prop41ColorRGB
 90
        0
102
RTVSPost2010PropOp41
 70
     1
102
RTVSPost2010Prop42
 90
       50
102
RTVSPost2010PropOp42
 70
     1
102
RTVSPost2010Prop43
 90
        3
102
RTVSPost2010PropOp43
 70
     1
102
RTVSPost2010Prop44ColorIndex
 90
        5
102
RTVSPost2010Prop44ColorRGB
 90
      255
102
RTVSPost2010PropOp44
 70
     1
102
RTVSPost2010Prop45
280
     0
102
RTVSPost2010PropOp45
 70
     1
102
RTVSPost2010Prop46
 90
       50
102
RTVSPost2010PropOp46
 70
     1
102
RTVSPost2010Prop47
 90
       50
102
RTVSPost2010PropOp47
 70
     1
102
RTVSPost2010Prop48
 90
       50
102
RTVSPost2010PropOp48
 70
     1
102
RTVSPost2010Prop49
280
     0
102
RTVSPost2010PropOp49
 70
     1
102
RTVSPost2010Prop50
 90
       50
102
RTVSPost2010PropOp50
 70
     1
102
RTVSPost2010Prop51ColorIndex
 90
      256
102
RTVSPost2010Prop51ColorRGB
 90
-16777216
102
RTVSPost2010PropOp51
 70
     0
102
RTVSPost2010Prop52
140
1.0
102
RTVSPost2010PropOp52
 70
     0
102
RTVSPost2010Prop53
 90
        2
102
RTVSPost2010PropOp53
 70
     1
102
RTVSPost2010Prop54
  1
strokes_ogs.tif
102
RTVSPost2010PropOp54
 70
     1
102
RTVSPost2010Prop55
280
     0
102
RTVSPost2010PropOp55
 70
     1
102
RTVSPost2010Prop56
140
1.0
102
RTVSPost2010PropOp56
 70
     1
102
RTVSPost2010Prop57
140
1.0
102
RTVSPost2010PropOp57
 70
     1
102
RTVSPropertyOp0
 70
     1
102
RTVSPropertyOp1
 70
     1
102
RTVSPropertyOp2
 70
     1
102
RTVSPropertyOp3
 70
     1
102
RTVSPropertyOp4
 70
     1
102
RTVSPropertyOp5
 70
     1
102
RTVSPropertyOp6
 70
     1
102
RTVSPropertyOp7
 70
     1
102
RTVSPropertyOp8
 70
     1
102
RTVSPropertyOp9
 70
     1
102
RTVSPropertyOp10
 70
     1
102
RTVSPropertyOp11
 70
     1
102
RTVSPropertyOp12
 70
     1
102
RTVSPropertyOp13
 70
     1
102
RTVSPropertyOp14
 70
     1
102
RTVSPropertyOp15
 70
     1
102
RTVSPropertyOp16
 70
     1
102
RTVSPropertyOp17
 70
     1
102
RTVSPropertyOp18
 70
     1
102
RTVSPropertyOp19
 70
     1
102
RTVSPropertyOp20
 70
     1
102
RTVSPropertyOp21
 70
     1
102
RTVSPropertyOp22
 70
     1
102
RTVSPropertyOp23
 70
     1
102
RTVSPropertyOp24
 70
     1
102
RTVSPropertyOp25
 70
     1
102
RTVSPropertyOp26
 70
     1
102
RTVSPropertyOp27
 70
     1
102
RTVSPropertyOp28
 70
     1
102
RTVSPropertyOp29
 70
     1
102
RTVSPropertyOp30
 70
     1
102
RTVSPropertyOp31
 70
     1
102
RTVSPropertyOp32
 70
     1
102
RTVSPropertyOp33
 70
     1
102
RTVSPropertyOp34
 70
     1
102
RTVSPropertyOp35
 70
     1
102
RTVSPropertyOp36
 70
     1
102
RTVSPropertyOp37
 70
     1
102
RTVSPropertyOp38
 70
     1
102
RTVSPropertyOp39
 70
     1
102
RTVSPropertyOp40
 70
     1
102
RTVSPropertyOp41
 70
     1
102
RTVSPropertyOp42
 70
     1
102
RTVSPropertyOp43
 70
     1
102
RTVSPropertyOp44
 70
     1
102
RTVSPropertyOp45
 70
     1
102
RTVSPropertyOp46
 70
     1
102
RTVSPropertyOp47
 70
     1
102
RTVSPropertyOp48
 70
     1
102
RTVSPropertyOp49
 70
     1
102
RTVSPropertyOp50
 70
     1
102
RTVSPropertyOp51
 70
     0
102
RTVSPropertyOp52
 70
     0
102
RTVSPropertyOp53
 70
     1
102
RTVSPropertyOp54
 70
     1
102
RTVSPropertyOp55
 70
     1
102
RTVSPropertyOp56
 70
     1
102
RTVSPropertyOp57
 70
     1
102
RTVSPropertyOp58
 70
     1
102
RTVSPropertyOp59
 70
     1
102
RTVSPropertyOp60
 70
     1
102
RTVSPropertyOp61
 70
     1
102
RTVSPropertyOp62
 70
     1
  0
XRECORD
  5
9C7
102
{ACAD_REACTORS
330
9C6
102
}
330
9C6
100
AcDbXrecord
280
     1
102
RTVSPost2010Prop28
280
     0
102
RTVSPost2010PropOp28
 70
     1
102
RTVSPost2010Prop29
280
     1
102
RTVSPost2010PropOp29
 70
     1
102
RTVSPost2010Prop30
280
     1
102
RTVSPost2010PropOp30
 70
     1
102
RTVSPost2010Prop31
280
     0
102
RTVSPost2010PropOp31
 70
     1
102
RTVSPost2010Prop32
280
     0
102
RTVSPost2010PropOp32
 70
     1
102
RTVSPost2010Prop33
280
     0
102
RTVSPost2010PropOp33
 70
     1
102
RTVSPost2010Prop34
280
     0
102
RTVSPost2010PropOp34
 70
     1
102
RTVSPost2010Prop35
280
     0
102
RTVSPost2010PropOp35
 70
     1
102
RTVSPost2010Prop36
280
     0
102
RTVSPost2010PropOp36
 70
     1
102
RTVSPost2010Prop37
 90
       50
102
RTVSPost2010PropOp37
 70
     1
102
RTVSPost2010Prop38
140
0.0
102
RTVSPost2010PropOp38
 70
     1
102
RTVSPost2010Prop39
140
1.0
102
RTVSPost2010PropOp39
 70
     1
102
RTVSPost2010Prop40
 90
        0
102
RTVSPost2010PropOp40
 70
     1
102
RTVSPost2010Prop41ColorIndex
 90
       18
102
RTVSPost2010Prop41ColorRGB
 90
        0
102
RTVSPost2010PropOp41
 70
     1
102
RTVSPost2010Prop42
 90
       50
102
RTVSPost2010PropOp42
 70
     1
102
RTVSPost2010Prop43
 90
        3
102
RTVSPost2010PropOp43
 70
     1
102
RTVSPost2010Prop44ColorIndex
 90
        5
102
RTVSPost2010Prop44ColorRGB
 90
      255
102
RTVSPost2010PropOp44
 70
     1
102
RTVSPost2010Prop45
280
     0
102
RTVSPost2010PropOp45
 70
     1
102
RTVSPost2010Prop46
 90
       50
102
RTVSPost2010PropOp46
 70
     1
102
RTVSPost2010Prop47
 90
       50
102
RTVSPost2010PropOp47
 70
     1
102
RTVSPost2010Prop48
 90
       50
102
RTVSPost2010PropOp48
 70
     1
102
RTVSPost2010Prop49
280
     0
102
RTVSPost2010PropOp49
 70
     1
102
RTVSPost2010Prop50
 90
       50
102
RTVSPost2010PropOp50
 70
     1
102
RTVSPost2010Prop51ColorIndex
 90
      256
102
RTVSPost2010Prop51ColorRGB
 90
-16777216
102
RTVSPost2010PropOp51
 70
     0
102
RTVSPost2010Prop52
140
1.0
102
RTVSPost2010PropOp52
 70
     0
102
RTVSPost2010Prop53
 90
        2
102
RTVSPost2010PropOp53
 70
     1
102
RTVSPost2010Prop54
  1
strokes_ogs.tif
102
RTVSPost2010PropOp54
 70
     1
102
RTVSPost2010Prop55
280
     0
102
RTVSPost2010PropOp55
 70
     1
102
RTVSPost2010Prop56
140
1.0
102
RTVSPost2010PropOp56
 70
     1
102
RTVSPost2010Prop57
140
1.0
102
RTVSPost2010PropOp57
 70
     1
102
RTVSPropertyOp0
 70
     1
102
RTVSPropertyOp1
 70
     1
102
RTVSPropertyOp2
 70
     1
102
RTVSPropertyOp3
 70
     1
102
RTVSPropertyOp4
 70
     1
102
RTVSPropertyOp5
 70
     1
102
RTVSPropertyOp6
 70
     1
102
RTVSPropertyOp7
 70
     1
102
RTVSPropertyOp8
 70
     1
102
RTVSPropertyOp9
 70
     1
102
RTVSPropertyOp10
 70
     1
102
RTVSPropertyOp11
 70
     1
102
RTVSPropertyOp12
 70
     1
102
RTVSPropertyOp13
 70
     1
102
RTVSPropertyOp14
 70
     1
102
RTVSPropertyOp15
 70
     1
102
RTVSPropertyOp16
 70
     1
102
RTVSPropertyOp17
 70
     1
102
RTVSPropertyOp18
 70
     1
102
RTVSPropertyOp19
 70
     1
102
RTVSPropertyOp20
 70
     1
102
RTVSPropertyOp21
 70
     1
102
RTVSPropertyOp22
 70
     1
102
RTVSPropertyOp23
 70
     1
102
RTVSPropertyOp24
 70
     1
102
RTVSPropertyOp25
 70
     1
102
RTVSPropertyOp26
 70
     1
102
RTVSPropertyOp27
 70
     1
102
RTVSPropertyOp28
 70
     1
102
RTVSPropertyOp29
 70
     1
102
RTVSPropertyOp30
 70
     1
102
RTVSPropertyOp31
 70
     1
102
RTVSPropertyOp32
 70
     1
102
RTVSPropertyOp33
 70
     1
102
RTVSPropertyOp34
 70
     1
102
RTVSPropertyOp35
 70
     1
102
RTVSPropertyOp36
 70
     1
102
RTVSPropertyOp37
 70
     1
102
RTVSPropertyOp38
 70
     1
102
RTVSPropertyOp39
 70
     1
102
RTVSPropertyOp40
 70
     1
102
RTVSPropertyOp41
 70
     1
102
RTVSPropertyOp42
 70
     1
102
RTVSPropertyOp43
 70
     1
102
RTVSPropertyOp44
 70
     1
102
RTVSPropertyOp45
 70
     1
102
RTVSPropertyOp46
 70
     1
102
RTVSPropertyOp47
 70
     1
102
RTVSPropertyOp48
 70
     1
102
RTVSPropertyOp49
 70
     1
102
RTVSPropertyOp50
 70
     1
102
RTVSPropertyOp51
 70
     0
102
RTVSPropertyOp52
 70
     0
102
RTVSPropertyOp53
 70
     1
102
RTVSPropertyOp54
 70
     1
102
RTVSPropertyOp55
 70
     1
102
RTVSPropertyOp56
 70
     1
102
RTVSPropertyOp57
 70
     1
102
RTVSPropertyOp58
 70
     1
102
RTVSPropertyOp59
 70
     1
102
RTVSPropertyOp60
 70
     1
102
RTVSPropertyOp61
 70
     1
102
RTVSPropertyOp62
 70
     1
  0
XRECORD
  5
9CF
102
{ACAD_REACTORS
330
9CE
102
}
330
9CE
100
AcDbXrecord
280
     1
102
RTVSPost2010Prop28
280
     0
102
RTVSPost2010PropOp28
 70
     1
102
RTVSPost2010Prop29
280
     1
102
RTVSPost2010PropOp29
 70
     1
102
RTVSPost2010Prop30
280
     1
102
RTVSPost2010PropOp30
 70
     1
102
RTVSPost2010Prop31
280
     0
102
RTVSPost2010PropOp31
 70
     1
102
RTVSPost2010Prop32
280
     0
102
RTVSPost2010PropOp32
 70
     1
102
RTVSPost2010Prop33
280
     0
102
RTVSPost2010PropOp33
 70
     1
102
RTVSPost2010Prop34
280
     0
102
RTVSPost2010PropOp34
 70
     1
102
RTVSPost2010Prop35
280
     0
102
RTVSPost2010PropOp35
 70
     1
102
RTVSPost2010Prop36
280
     0
102
RTVSPost2010PropOp36
 70
     1
102
RTVSPost2010Prop37
 90
       50
102
RTVSPost2010PropOp37
 70
     1
102
RTVSPost2010Prop38
140
0.0
102
RTVSPost2010PropOp38
 70
     1
102
RTVSPost2010Prop39
140
1.0
102
RTVSPost2010PropOp39
 70
     1
102
RTVSPost2010Prop40
 90
        0
102
RTVSPost2010PropOp40
 70
     1
102
RTVSPost2010Prop41ColorIndex
 90
       18
102
RTVSPost2010Prop41ColorRGB
 90
        0
102
RTVSPost2010PropOp41
 70
     1
102
RTVSPost2010Prop42
 90
       50
102
RTVSPost2010PropOp42
 70
     1
102
RTVSPost2010Prop43
 90
        3
102
RTVSPost2010PropOp43
 70
     1
102
RTVSPost2010Prop44ColorIndex
 90
        5
102
RTVSPost2010Prop44ColorRGB
 90
      255
102
RTVSPost2010PropOp44
 70
     1
102
RTVSPost2010Prop45
280
     0
102
RTVSPost2010PropOp45
 70
     1
102
RTVSPost2010Prop46
 90
       50
102
RTVSPost2010PropOp46
 70
     1
102
RTVSPost2010Prop47
 90
       50
102
RTVSPost2010PropOp47
 70
     1
102
RTVSPost2010Prop48
 90
       50
102
RTVSPost2010PropOp48
 70
     1
102
RTVSPost2010Prop49
280
     0
102
RTVSPost2010PropOp49
 70
     1
102
RTVSPost2010Prop50
 90
       50
102
RTVSPost2010PropOp50
 70
     1
102
RTVSPost2010Prop51ColorIndex
 90
      256
102
RTVSPost2010Prop51ColorRGB
 90
-16777216
102
RTVSPost2010PropOp51
 70
     0
102
RTVSPost2010Prop52
140
1.0
102
RTVSPost2010PropOp52
 70
     0
102
RTVSPost2010Prop53
 90
        2
102
RTVSPost2010PropOp53
 70
     1
102
RTVSPost2010Prop54
  1
strokes_ogs.tif
102
RTVSPost2010PropOp54
 70
     1
102
RTVSPost2010Prop55
280
     0
102
RTVSPost2010PropOp55
 70
     1
102
RTVSPost2010Prop56
140
1.0
102
RTVSPost2010PropOp56
 70
     1
102
RTVSPost2010Prop57
140
1.0
102
RTVSPost2010PropOp57
 70
     1
102
RTVSPropertyOp0
 70
     1
102
RTVSPropertyOp1
 70
     1
102
RTVSPropertyOp2
 70
     1
102
RTVSPropertyOp3
 70
     1
102
RTVSPropertyOp4
 70
     1
102
RTVSPropertyOp5
 70
     1
102
RTVSPropertyOp6
 70
     1
102
RTVSPropertyOp7
 70
     1
102
RTVSPropertyOp8
 70
     1
102
RTVSPropertyOp9
 70
     1
102
RTVSPropertyOp10
 70
     1
102
RTVSPropertyOp11
 70
     1
102
RTVSPropertyOp12
 70
     1
102
RTVSPropertyOp13
 70
     1
102
RTVSPropertyOp14
 70
     1
102
RTVSPropertyOp15
 70
     1
102
RTVSPropertyOp16
 70
     1
102
RTVSPropertyOp17
 70
     1
102
RTVSPropertyOp18
 70
     1
102
RTVSPropertyOp19
 70
     1
102
RTVSPropertyOp20
 70
     1
102
RTVSPropertyOp21
 70
     1
102
RTVSPropertyOp22
 70
     1
102
RTVSPropertyOp23
 70
     1
102
RTVSPropertyOp24
 70
     1
102
RTVSPropertyOp25
 70
     1
102
RTVSPropertyOp26
 70
     1
102
RTVSPropertyOp27
 70
     1
102
RTVSPropertyOp28
 70
     1
102
RTVSPropertyOp29
 70
     1
102
RTVSPropertyOp30
 70
     1
102
RTVSPropertyOp31
 70
     1
102
RTVSPropertyOp32
 70
     1
102
RTVSPropertyOp33
 70
     1
102
RTVSPropertyOp34
 70
     1
102
RTVSPropertyOp35
 70
     1
102
RTVSPropertyOp36
 70
     1
102
RTVSPropertyOp37
 70
     1
102
RTVSPropertyOp38
 70
     1
102
RTVSPropertyOp39
 70
     1
102
RTVSPropertyOp40
 70
     1
102
RTVSPropertyOp41
 70
     1
102
RTVSPropertyOp42
 70
     1
102
RTVSPropertyOp43
 70
     1
102
RTVSPropertyOp44
 70
     1
102
RTVSPropertyOp45
 70
     1
102
RTVSPropertyOp46
 70
     1
102
RTVSPropertyOp47
 70
     1
102
RTVSPropertyOp48
 70
     1
102
RTVSPropertyOp49
 70
     1
102
RTVSPropertyOp50
 70
     1
102
RTVSPropertyOp51
 70
     0
102
RTVSPropertyOp52
 70
     0
102
RTVSPropertyOp53
 70
     1
102
RTVSPropertyOp54
 70
     1
102
RTVSPropertyOp55
 70
     1
102
RTVSPropertyOp56
 70
     1
102
RTVSPropertyOp57
 70
     1
102
RTVSPropertyOp58
 70
     1
102
RTVSPropertyOp59
 70
     1
102
RTVSPropertyOp60
 70
     1
102
RTVSPropertyOp61
 70
     1
102
RTVSPropertyOp62
 70
     1
  0
XRECORD
  5
9C3
102
{ACAD_REACTORS
330
9C2
102
}
330
9C2
100
AcDbXrecord
280
     1
102
RTVSPost2010Prop28
280
     0
102
RTVSPost2010PropOp28
 70
     1
102
RTVSPost2010Prop29
280
     1
102
RTVSPost2010PropOp29
 70
     1
102
RTVSPost2010Prop30
280
     1
102
RTVSPost2010PropOp30
 70
     1
102
RTVSPost2010Prop31
280
     0
102
RTVSPost2010PropOp31
 70
     1
102
RTVSPost2010Prop32
280
     0
102
RTVSPost2010PropOp32
 70
     1
102
RTVSPost2010Prop33
280
     0
102
RTVSPost2010PropOp33
 70
     1
102
RTVSPost2010Prop34
280
     0
102
RTVSPost2010PropOp34
 70
     1
102
RTVSPost2010Prop35
280
     0
102
RTVSPost2010PropOp35
 70
     1
102
RTVSPost2010Prop36
280
     0
102
RTVSPost2010PropOp36
 70
     1
102
RTVSPost2010Prop37
 90
       50
102
RTVSPost2010PropOp37
 70
     1
102
RTVSPost2010Prop38
140
0.0
102
RTVSPost2010PropOp38
 70
     1
102
RTVSPost2010Prop39
140
1.0
102
RTVSPost2010PropOp39
 70
     1
102
RTVSPost2010Prop40
 90
        0
102
RTVSPost2010PropOp40
 70
     1
102
RTVSPost2010Prop41ColorIndex
 90
       18
102
RTVSPost2010Prop41ColorRGB
 90
        0
102
RTVSPost2010PropOp41
 70
     1
102
RTVSPost2010Prop42
 90
       50
102
RTVSPost2010PropOp42
 70
     1
102
RTVSPost2010Prop43
 90
        3
102
RTVSPost2010PropOp43
 70
     1
102
RTVSPost2010Prop44ColorIndex
 90
        5
102
RTVSPost2010Prop44ColorRGB
 90
      255
102
RTVSPost2010PropOp44
 70
     1
102
RTVSPost2010Prop45
280
     0
102
RTVSPost2010PropOp45
 70
     1
102
RTVSPost2010Prop46
 90
       50
102
RTVSPost2010PropOp46
 70
     1
102
RTVSPost2010Prop47
 90
       50
102
RTVSPost2010PropOp47
 70
     1
102
RTVSPost2010Prop48
 90
       50
102
RTVSPost2010PropOp48
 70
     1
102
RTVSPost2010Prop49
280
     0
102
RTVSPost2010PropOp49
 70
     1
102
RTVSPost2010Prop50
 90
       50
102
RTVSPost2010PropOp50
 70
     1
102
RTVSPost2010Prop51ColorIndex
 90
      256
102
RTVSPost2010Prop51ColorRGB
 90
-16777216
102
RTVSPost2010PropOp51
 70
     0
102
RTVSPost2010Prop52
140
1.0
102
RTVSPost2010PropOp52
 70
     0
102
RTVSPost2010Prop53
 90
        2
102
RTVSPost2010PropOp53
 70
     1
102
RTVSPost2010Prop54
  1
strokes_ogs.tif
102
RTVSPost2010PropOp54
 70
     1
102
RTVSPost2010Prop55
280
     0
102
RTVSPost2010PropOp55
 70
     1
102
RTVSPost2010Prop56
140
1.0
102
RTVSPost2010PropOp56
 70
     1
102
RTVSPost2010Prop57
140
1.0
102
RTVSPost2010PropOp57
 70
     1
102
RTVSPropertyOp0
 70
     1
102
RTVSPropertyOp1
 70
     1
102
RTVSPropertyOp2
 70
     1
102
RTVSPropertyOp3
 70
     1
102
RTVSPropertyOp4
 70
     1
102
RTVSPropertyOp5
 70
     1
102
RTVSPropertyOp6
 70
     1
102
RTVSPropertyOp7
 70
     1
102
RTVSPropertyOp8
 70
     1
102
RTVSPropertyOp9
 70
     1
102
RTVSPropertyOp10
 70
     1
102
RTVSPropertyOp11
 70
     1
102
RTVSPropertyOp12
 70
     1
102
RTVSPropertyOp13
 70
     1
102
RTVSPropertyOp14
 70
     1
102
RTVSPropertyOp15
 70
     1
102
RTVSPropertyOp16
 70
     1
102
RTVSPropertyOp17
 70
     1
102
RTVSPropertyOp18
 70
     1
102
RTVSPropertyOp19
 70
     1
102
RTVSPropertyOp20
 70
     1
102
RTVSPropertyOp21
 70
     1
102
RTVSPropertyOp22
 70
     1
102
RTVSPropertyOp23
 70
     1
102
RTVSPropertyOp24
 70
     1
102
RTVSPropertyOp25
 70
     1
102
RTVSPropertyOp26
 70
     1
102
RTVSPropertyOp27
 70
     1
102
RTVSPropertyOp28
 70
     1
102
RTVSPropertyOp29
 70
     1
102
RTVSPropertyOp30
 70
     1
102
RTVSPropertyOp31
 70
     1
102
RTVSPropertyOp32
 70
     1
102
RTVSPropertyOp33
 70
     1
102
RTVSPropertyOp34
 70
     1
102
RTVSPropertyOp35
 70
     1
102
RTVSPropertyOp36
 70
     1
102
RTVSPropertyOp37
 70
     1
102
RTVSPropertyOp38
 70
     1
102
RTVSPropertyOp39
 70
     1
102
RTVSPropertyOp40
 70
     1
102
RTVSPropertyOp41
 70
     1
102
RTVSPropertyOp42
 70
     1
102
RTVSPropertyOp43
 70
     1
102
RTVSPropertyOp44
 70
     1
102
RTVSPropertyOp45
 70
     1
102
RTVSPropertyOp46
 70
     1
102
RTVSPropertyOp47
 70
     1
102
RTVSPropertyOp48
 70
     1
102
RTVSPropertyOp49
 70
     1
102
RTVSPropertyOp50
 70
     1
102
RTVSPropertyOp51
 70
     0
102
RTVSPropertyOp52
 70
     0
102
RTVSPropertyOp53
 70
     1
102
RTVSPropertyOp54
 70
     1
102
RTVSPropertyOp55
 70
     1
102
RTVSPropertyOp56
 70
     1
102
RTVSPropertyOp57
 70
     1
102
RTVSPropertyOp58
 70
     1
102
RTVSPropertyOp59
 70
     1
102
RTVSPropertyOp60
 70
     1
102
RTVSPropertyOp61
 70
     1
102
RTVSPropertyOp62
 70
     1
  0
XRECORD
  5
9C5
102
{ACAD_REACTORS
330
9C4
102
}
330
9C4
100
AcDbXrecord
280
     1
102
RTVSPost2010Prop28
280
     0
102
RTVSPost2010PropOp28
 70
     1
102
RTVSPost2010Prop29
280
     1
102
RTVSPost2010PropOp29
 70
     1
102
RTVSPost2010Prop30
280
     1
102
RTVSPost2010PropOp30
 70
     1
102
RTVSPost2010Prop31
280
     0
102
RTVSPost2010PropOp31
 70
     1
102
RTVSPost2010Prop32
280
     0
102
RTVSPost2010PropOp32
 70
     1
102
RTVSPost2010Prop33
280
     0
102
RTVSPost2010PropOp33
 70
     1
102
RTVSPost2010Prop34
280
     0
102
RTVSPost2010PropOp34
 70
     1
102
RTVSPost2010Prop35
280
     0
102
RTVSPost2010PropOp35
 70
     1
102
RTVSPost2010Prop36
280
     0
102
RTVSPost2010PropOp36
 70
     1
102
RTVSPost2010Prop37
 90
       50
102
RTVSPost2010PropOp37
 70
     1
102
RTVSPost2010Prop38
140
0.0
102
RTVSPost2010PropOp38
 70
     1
102
RTVSPost2010Prop39
140
1.0
102
RTVSPost2010PropOp39
 70
     1
102
RTVSPost2010Prop40
 90
        0
102
RTVSPost2010PropOp40
 70
     1
102
RTVSPost2010Prop41ColorIndex
 90
       18
102
RTVSPost2010Prop41ColorRGB
 90
        0
102
RTVSPost2010PropOp41
 70
     1
102
RTVSPost2010Prop42
 90
       50
102
RTVSPost2010PropOp42
 70
     1
102
RTVSPost2010Prop43
 90
        3
102
RTVSPost2010PropOp43
 70
     1
102
RTVSPost2010Prop44ColorIndex
 90
        5
102
RTVSPost2010Prop44ColorRGB
 90
      255
102
RTVSPost2010PropOp44
 70
     1
102
RTVSPost2010Prop45
280
     0
102
RTVSPost2010PropOp45
 70
     1
102
RTVSPost2010Prop46
 90
       50
102
RTVSPost2010PropOp46
 70
     1
102
RTVSPost2010Prop47
 90
       50
102
RTVSPost2010PropOp47
 70
     1
102
RTVSPost2010Prop48
 90
       50
102
RTVSPost2010PropOp48
 70
     1
102
RTVSPost2010Prop49
280
     0
102
RTVSPost2010PropOp49
 70
     1
102
RTVSPost2010Prop50
 90
       50
102
RTVSPost2010PropOp50
 70
     1
102
RTVSPost2010Prop51ColorIndex
 90
      256
102
RTVSPost2010Prop51ColorRGB
 90
-16777216
102
RTVSPost2010PropOp51
 70
     0
102
RTVSPost2010Prop52
140
1.0
102
RTVSPost2010PropOp52
 70
     0
102
RTVSPost2010Prop53
 90
        2
102
RTVSPost2010PropOp53
 70
     1
102
RTVSPost2010Prop54
  1
strokes_ogs.tif
102
RTVSPost2010PropOp54
 70
     1
102
RTVSPost2010Prop55
280
     0
102
RTVSPost2010PropOp55
 70
     1
102
RTVSPost2010Prop56
140
1.0
102
RTVSPost2010PropOp56
 70
     1
102
RTVSPost2010Prop57
140
1.0
102
RTVSPost2010PropOp57
 70
     1
102
RTVSPropertyOp0
 70
     1
102
RTVSPropertyOp1
 70
     1
102
RTVSPropertyOp2
 70
     1
102
RTVSPropertyOp3
 70
     1
102
RTVSPropertyOp4
 70
     1
102
RTVSPropertyOp5
 70
     1
102
RTVSPropertyOp6
 70
     1
102
RTVSPropertyOp7
 70
     1
102
RTVSPropertyOp8
 70
     1
102
RTVSPropertyOp9
 70
     1
102
RTVSPropertyOp10
 70
     1
102
RTVSPropertyOp11
 70
     1
102
RTVSPropertyOp12
 70
     1
102
RTVSPropertyOp13
 70
     1
102
RTVSPropertyOp14
 70
     1
102
RTVSPropertyOp15
 70
     1
102
RTVSPropertyOp16
 70
     1
102
RTVSPropertyOp17
 70
     1
102
RTVSPropertyOp18
 70
     1
102
RTVSPropertyOp19
 70
     1
102
RTVSPropertyOp20
 70
     1
102
RTVSPropertyOp21
 70
     1
102
RTVSPropertyOp22
 70
     1
102
RTVSPropertyOp23
 70
     1
102
RTVSPropertyOp24
 70
     1
102
RTVSPropertyOp25
 70
     1
102
RTVSPropertyOp26
 70
     1
102
RTVSPropertyOp27
 70
     1
102
RTVSPropertyOp28
 70
     1
102
RTVSPropertyOp29
 70
     1
102
RTVSPropertyOp30
 70
     1
102
RTVSPropertyOp31
 70
     1
102
RTVSPropertyOp32
 70
     1
102
RTVSPropertyOp33
 70
     1
102
RTVSPropertyOp34
 70
     1
102
RTVSPropertyOp35
 70
     1
102
RTVSPropertyOp36
 70
     1
102
RTVSPropertyOp37
 70
     1
102
RTVSPropertyOp38
 70
     1
102
RTVSPropertyOp39
 70
     1
102
RTVSPropertyOp40
 70
     1
102
RTVSPropertyOp41
 70
     1
102
RTVSPropertyOp42
 70
     1
102
RTVSPropertyOp43
 70
     1
102
RTVSPropertyOp44
 70
     1
102
RTVSPropertyOp45
 70
     1
102
RTVSPropertyOp46
 70
     1
102
RTVSPropertyOp47
 70
     1
102
RTVSPropertyOp48
 70
     1
102
RTVSPropertyOp49
 70
     1
102
RTVSPropertyOp50
 70
     1
102
RTVSPropertyOp51
 70
     0
102
RTVSPropertyOp52
 70
     0
102
RTVSPropertyOp53
 70
     1
102
RTVSPropertyOp54
 70
     1
102
RTVSPropertyOp55
 70
     1
102
RTVSPropertyOp56
 70
     1
102
RTVSPropertyOp57
 70
     1
102
RTVSPropertyOp58
 70
     1
102
RTVSPropertyOp59
 70
     1
102
RTVSPropertyOp60
 70
     1
102
RTVSPropertyOp61
 70
     1
102
RTVSPropertyOp62
 70
     1
  0
XRECORD
  5
9D5
102
{ACAD_REACTORS
330
9D4
102
}
330
9D4
100
AcDbXrecord
280
     1
102
RTVSPost2010Prop28
280
     0
102
RTVSPost2010PropOp28
 70
     0
102
RTVSPost2010Prop29
280
     1
102
RTVSPost2010PropOp29
 70
     0
102
RTVSPost2010Prop30
280
     1
102
RTVSPost2010PropOp30
 70
     0
102
RTVSPost2010Prop31
280
     0
102
RTVSPost2010PropOp31
 70
     0
102
RTVSPost2010Prop32
280
     0
102
RTVSPost2010PropOp32
 70
     0
102
RTVSPost2010Prop33
280
     0
102
RTVSPost2010PropOp33
 70
     0
102
RTVSPost2010Prop34
280
     0
102
RTVSPost2010PropOp34
 70
     0
102
RTVSPost2010Prop35
280
     0
102
RTVSPost2010PropOp35
 70
     0
102
RTVSPost2010Prop36
280
     0
102
RTVSPost2010PropOp36
 70
     0
102
RTVSPost2010Prop37
 90
       50
102
RTVSPost2010PropOp37
 70
     0
102
RTVSPost2010Prop38
140
0.0
102
RTVSPost2010PropOp38
 70
     0
102
RTVSPost2010Prop39
140
1.0
102
RTVSPost2010PropOp39
 70
     0
102
RTVSPost2010Prop40
 90
        0
102
RTVSPost2010PropOp40
 70
     0
102
RTVSPost2010Prop41ColorIndex
 90
       18
102
RTVSPost2010Prop41ColorRGB
 90
        0
102
RTVSPost2010PropOp41
 70
     0
102
RTVSPost2010Prop42
 90
       50
102
RTVSPost2010PropOp42
 70
     0
102
RTVSPost2010Prop43
 90
        3
102
RTVSPost2010PropOp43
 70
     0
102
RTVSPost2010Prop44ColorIndex
 90
        5
102
RTVSPost2010Prop44ColorRGB
 90
      255
102
RTVSPost2010PropOp44
 70
     0
102
RTVSPost2010Prop45
280
     0
102
RTVSPost2010PropOp45
 70
     0
102
RTVSPost2010Prop46
 90
       50
102
RTVSPost2010PropOp46
 70
     0
102
RTVSPost2010Prop47
 90
       50
102
RTVSPost2010PropOp47
 70
     0
102
RTVSPost2010Prop48
 90
       50
102
RTVSPost2010PropOp48
 70
     0
102
RTVSPost2010Prop49
280
     0
102
RTVSPost2010PropOp49
 70
     0
102
RTVSPost2010Prop50
 90
       50
102
RTVSPost2010PropOp50
 70
     0
102
RTVSPost2010Prop51ColorIndex
 90
      256
102
RTVSPost2010Prop51ColorRGB
 90
-16777216
102
RTVSPost2010PropOp51
 70
     0
102
RTVSPost2010Prop52
140
1.0
102
RTVSPost2010PropOp52
 70
     0
102
RTVSPost2010Prop53
 90
        2
102
RTVSPost2010PropOp53
 70
     0
102
RTVSPost2010Prop54
  1
strokes_ogs.tif
102
RTVSPost2010PropOp54
 70
     0
102
RTVSPost2010Prop55
280
     0
102
RTVSPost2010PropOp55
 70
     0
102
RTVSPost2010Prop56
140
1.0
102
RTVSPost2010PropOp56
 70
     0
102
RTVSPost2010Prop57
140
1.0
102
RTVSPost2010PropOp57
 70
     0
102
RTVSPropertyOp0
 70
     0
102
RTVSPropertyOp1
 70
     0
102
RTVSPropertyOp2
 70
     0
102
RTVSPropertyOp3
 70
     0
102
RTVSPropertyOp4
 70
     0
102
RTVSPropertyOp5
 70
     0
102
RTVSPropertyOp6
 70
     0
102
RTVSPropertyOp7
 70
     0
102
RTVSPropertyOp8
 70
     0
102
RTVSPropertyOp9
 70
     0
102
RTVSPropertyOp10
 70
     0
102
RTVSPropertyOp11
 70
     0
102
RTVSPropertyOp12
 70
     0
102
RTVSPropertyOp13
 70
     0
102
RTVSPropertyOp14
 70
     2
102
RTVSPropertyOp15
 70
     0
102
RTVSPropertyOp16
 70
     0
102
RTVSPropertyOp17
 70
     0
102
RTVSPropertyOp18
 70
     0
102
RTVSPropertyOp19
 70
     0
102
RTVSPropertyOp20
 70
     0
102
RTVSPropertyOp21
 70
     0
102
RTVSPropertyOp22
 70
     0
102
RTVSPropertyOp23
 70
     0
102
RTVSPropertyOp24
 70
     0
102
RTVSPropertyOp25
 70
     0
102
RTVSPropertyOp26
 70
     0
102
RTVSPropertyOp27
 70
     0
102
RTVSPropertyOp28
 70
     0
102
RTVSPropertyOp29
 70
     0
102
RTVSPropertyOp30
 70
     0
102
RTVSPropertyOp31
 70
     0
102
RTVSPropertyOp32
 70
     0
102
RTVSPropertyOp33
 70
     0
102
RTVSPropertyOp34
 70
     0
102
RTVSPropertyOp35
 70
     0
102
RTVSPropertyOp36
 70
     0
102
RTVSPropertyOp37
 70
     0
102
RTVSPropertyOp38
 70
     0
102
RTVSPropertyOp39
 70
     0
102
RTVSPropertyOp40
 70
     0
102
RTVSPropertyOp41
 70
     0
102
RTVSPropertyOp42
 70
     0
102
RTVSPropertyOp43
 70
     0
102
RTVSPropertyOp44
 70
     0
102
RTVSPropertyOp45
 70
     0
102
RTVSPropertyOp46
 70
     0
102
RTVSPropertyOp47
 70
     0
102
RTVSPropertyOp48
 70
     0
102
RTVSPropertyOp49
 70
     0
102
RTVSPropertyOp50
 70
     0
102
RTVSPropertyOp51
 70
     0
102
RTVSPropertyOp52
 70
     0
102
RTVSPropertyOp53
 70
     0
102
RTVSPropertyOp54
 70
     0
102
RTVSPropertyOp55
 70
     0
102
RTVSPropertyOp56
 70
     0
102
RTVSPropertyOp57
 70
     0
102
RTVSPropertyOp58
 70
     1
102
RTVSPropertyOp59
 70
     1
102
RTVSPropertyOp60
 70
     1
102
RTVSPropertyOp61
 70
     1
102
RTVSPropertyOp62
 70
     1
  0
XRECORD
  5
9CD
102
{ACAD_REACTORS
330
9CC
102
}
330
9CC
100
AcDbXrecord
280
     1
102
RTVSPost2010Prop28
280
     0
102
RTVSPost2010PropOp28
 70
     1
102
RTVSPost2010Prop29
280
     1
102
RTVSPost2010PropOp29
 70
     1
102
RTVSPost2010Prop30
280
     1
102
RTVSPost2010PropOp30
 70
     1
102
RTVSPost2010Prop31
280
     0
102
RTVSPost2010PropOp31
 70
     1
102
RTVSPost2010Prop32
280
     0
102
RTVSPost2010PropOp32
 70
     1
102
RTVSPost2010Prop33
280
     0
102
RTVSPost2010PropOp33
 70
     1
102
RTVSPost2010Prop34
280
     0
102
RTVSPost2010PropOp34
 70
     1
102
RTVSPost2010Prop35
280
     0
102
RTVSPost2010PropOp35
 70
     1
102
RTVSPost2010Prop36
280
     0
102
RTVSPost2010PropOp36
 70
     1
102
RTVSPost2010Prop37
 90
       50
102
RTVSPost2010PropOp37
 70
     1
102
RTVSPost2010Prop38
140
0.0
102
RTVSPost2010PropOp38
 70
     1
102
RTVSPost2010Prop39
140
1.0
102
RTVSPost2010PropOp39
 70
     1
102
RTVSPost2010Prop40
 90
        0
102
RTVSPost2010PropOp40
 70
     1
102
RTVSPost2010Prop41ColorIndex
 90
       18
102
RTVSPost2010Prop41ColorRGB
 90
        0
102
RTVSPost2010PropOp41
 70
     1
102
RTVSPost2010Prop42
 90
       50
102
RTVSPost2010PropOp42
 70
     1
102
RTVSPost2010Prop43
 90
        3
102
RTVSPost2010PropOp43
 70
     1
102
RTVSPost2010Prop44ColorIndex
 90
        5
102
RTVSPost2010Prop44ColorRGB
 90
      255
102
RTVSPost2010PropOp44
 70
     1
102
RTVSPost2010Prop45
280
     0
102
RTVSPost2010PropOp45
 70
     1
102
RTVSPost2010Prop46
 90
       50
102
RTVSPost2010PropOp46
 70
     1
102
RTVSPost2010Prop47
 90
       50
102
RTVSPost2010PropOp47
 70
     1
102
RTVSPost2010Prop48
 90
       50
102
RTVSPost2010PropOp48
 70
     1
102
RTVSPost2010Prop49
280
     0
102
RTVSPost2010PropOp49
 70
     1
102
RTVSPost2010Prop50
 90
       50
102
RTVSPost2010PropOp50
 70
     1
102
RTVSPost2010Prop51ColorIndex
 90
      256
102
RTVSPost2010Prop51ColorRGB
 90
-16777216
102
RTVSPost2010PropOp51
 70
     0
102
RTVSPost2010Prop52
140
1.0
102
RTVSPost2010PropOp52
 70
     0
102
RTVSPost2010Prop53
 90
        2
102
RTVSPost2010PropOp53
 70
     1
102
RTVSPost2010Prop54
  1
strokes_ogs.tif
102
RTVSPost2010PropOp54
 70
     1
102
RTVSPost2010Prop55
280
     0
102
RTVSPost2010PropOp55
 70
     1
102
RTVSPost2010Prop56
140
1.0
102
RTVSPost2010PropOp56
 70
     1
102
RTVSPost2010Prop57
140
1.0
102
RTVSPost2010PropOp57
 70
     1
102
RTVSPropertyOp0
 70
     1
102
RTVSPropertyOp1
 70
     1
102
RTVSPropertyOp2
 70
     1
102
RTVSPropertyOp3
 70
     1
102
RTVSPropertyOp4
 70
     1
102
RTVSPropertyOp5
 70
     1
102
RTVSPropertyOp6
 70
     1
102
RTVSPropertyOp7
 70
     1
102
RTVSPropertyOp8
 70
     1
102
RTVSPropertyOp9
 70
     1
102
RTVSPropertyOp10
 70
     1
102
RTVSPropertyOp11
 70
     1
102
RTVSPropertyOp12
 70
     1
102
RTVSPropertyOp13
 70
     1
102
RTVSPropertyOp14
 70
     1
102
RTVSPropertyOp15
 70
     1
102
RTVSPropertyOp16
 70
     1
102
RTVSPropertyOp17
 70
     1
102
RTVSPropertyOp18
 70
     1
102
RTVSPropertyOp19
 70
     1
102
RTVSPropertyOp20
 70
     1
102
RTVSPropertyOp21
 70
     1
102
RTVSPropertyOp22
 70
     1
102
RTVSPropertyOp23
 70
     1
102
RTVSPropertyOp24
 70
     1
102
RTVSPropertyOp25
 70
     1
102
RTVSPropertyOp26
 70
     1
102
RTVSPropertyOp27
 70
     1
102
RTVSPropertyOp28
 70
     1
102
RTVSPropertyOp29
 70
     1
102
RTVSPropertyOp30
 70
     1
102
RTVSPropertyOp31
 70
     1
102
RTVSPropertyOp32
 70
     1
102
RTVSPropertyOp33
 70
     1
102
RTVSPropertyOp34
 70
     1
102
RTVSPropertyOp35
 70
     1
102
RTVSPropertyOp36
 70
     1
102
RTVSPropertyOp37
 70
     1
102
RTVSPropertyOp38
 70
     1
102
RTVSPropertyOp39
 70
     1
102
RTVSPropertyOp40
 70
     1
102
RTVSPropertyOp41
 70
     1
102
RTVSPropertyOp42
 70
     1
102
RTVSPropertyOp43
 70
     1
102
RTVSPropertyOp44
 70
     1
102
RTVSPropertyOp45
 70
     1
102
RTVSPropertyOp46
 70
     1
102
RTVSPropertyOp47
 70
     1
102
RTVSPropertyOp48
 70
     1
102
RTVSPropertyOp49
 70
     1
102
RTVSPropertyOp50
 70
     1
102
RTVSPropertyOp51
 70
     0
102
RTVSPropertyOp52
 70
     0
102
RTVSPropertyOp53
 70
     1
102
RTVSPropertyOp54
 70
     1
102
RTVSPropertyOp55
 70
     1
102
RTVSPropertyOp56
 70
     1
102
RTVSPropertyOp57
 70
     1
102
RTVSPropertyOp58
 70
     1
102
RTVSPropertyOp59
 70
     1
102
RTVSPropertyOp60
 70
     1
102
RTVSPropertyOp61
 70
     1
102
RTVSPropertyOp62
 70
     1
  0
XRECORD
  5
9B1
102
{ACAD_REACTORS
330
9B0
102
}
330
9B0
100
AcDbXrecord
280
     1
102
RTVSPost2010Prop28
280
     0
102
RTVSPost2010PropOp28
 70
     1
102
RTVSPost2010Prop29
280
     1
102
RTVSPost2010PropOp29
 70
     1
102
RTVSPost2010Prop30
280
     1
102
RTVSPost2010PropOp30
 70
     1
102
RTVSPost2010Prop31
280
     0
102
RTVSPost2010PropOp31
 70
     1
102
RTVSPost2010Prop32
280
     0
102
RTVSPost2010PropOp32
 70
     1
102
RTVSPost2010Prop33
280
     0
102
RTVSPost2010PropOp33
 70
     1
102
RTVSPost2010Prop34
280
     0
102
RTVSPost2010PropOp34
 70
     1
102
RTVSPost2010Prop35
280
     0
102
RTVSPost2010PropOp35
 70
     1
102
RTVSPost2010Prop36
280
     0
102
RTVSPost2010PropOp36
 70
     1
102
RTVSPost2010Prop37
 90
       50
102
RTVSPost2010PropOp37
 70
     1
102
RTVSPost2010Prop38
140
0.0
102
RTVSPost2010PropOp38
 70
     1
102
RTVSPost2010Prop39
140
1.0
102
RTVSPost2010PropOp39
 70
     1
102
RTVSPost2010Prop40
 90
        0
102
RTVSPost2010PropOp40
 70
     1
102
RTVSPost2010Prop41ColorIndex
 90
       18
102
RTVSPost2010Prop41ColorRGB
 90
        0
102
RTVSPost2010PropOp41
 70
     1
102
RTVSPost2010Prop42
 90
       50
102
RTVSPost2010PropOp42
 70
     1
102
RTVSPost2010Prop43
 90
        3
102
RTVSPost2010PropOp43
 70
     1
102
RTVSPost2010Prop44ColorIndex
 90
        5
102
RTVSPost2010Prop44ColorRGB
 90
      255
102
RTVSPost2010PropOp44
 70
     1
102
RTVSPost2010Prop45
280
     0
102
RTVSPost2010PropOp45
 70
     1
102
RTVSPost2010Prop46
 90
       50
102
RTVSPost2010PropOp46
 70
     1
102
RTVSPost2010Prop47
 90
       50
102
RTVSPost2010PropOp47
 70
     1
102
RTVSPost2010Prop48
 90
       50
102
RTVSPost2010PropOp48
 70
     1
102
RTVSPost2010Prop49
280
     0
102
RTVSPost2010PropOp49
 70
     1
102
RTVSPost2010Prop50
 90
       50
102
RTVSPost2010PropOp50
 70
     1
102
RTVSPost2010Prop51ColorIndex
 90
      256
102
RTVSPost2010Prop51ColorRGB
 90
-16777216
102
RTVSPost2010PropOp51
 70
     0
102
RTVSPost2010Prop52
140
1.0
102
RTVSPost2010PropOp52
 70
     0
102
RTVSPost2010Prop53
 90
        2
102
RTVSPost2010PropOp53
 70
     1
102
RTVSPost2010Prop54
  1
strokes_ogs.tif
102
RTVSPost2010PropOp54
 70
     1
102
RTVSPost2010Prop55
280
     0
102
RTVSPost2010PropOp55
 70
     1
102
RTVSPost2010Prop56
140
1.0
102
RTVSPost2010PropOp56
 70
     1
102
RTVSPost2010Prop57
140
1.0
102
RTVSPost2010PropOp57
 70
     1
102
RTVSPropertyOp0
 70
     1
102
RTVSPropertyOp1
 70
     1
102
RTVSPropertyOp2
 70
     1
102
RTVSPropertyOp3
 70
     1
102
RTVSPropertyOp4
 70
     1
102
RTVSPropertyOp5
 70
     1
102
RTVSPropertyOp6
 70
     1
102
RTVSPropertyOp7
 70
     1
102
RTVSPropertyOp8
 70
     1
102
RTVSPropertyOp9
 70
     1
102
RTVSPropertyOp10
 70
     1
102
RTVSPropertyOp11
 70
     1
102
RTVSPropertyOp12
 70
     1
102
RTVSPropertyOp13
 70
     1
102
RTVSPropertyOp14
 70
     1
102
RTVSPropertyOp15
 70
     1
102
RTVSPropertyOp16
 70
     1
102
RTVSPropertyOp17
 70
     1
102
RTVSPropertyOp18
 70
     1
102
RTVSPropertyOp19
 70
     1
102
RTVSPropertyOp20
 70
     1
102
RTVSPropertyOp21
 70
     1
102
RTVSPropertyOp22
 70
     1
102
RTVSPropertyOp23
 70
     1
102
RTVSPropertyOp24
 70
     1
102
RTVSPropertyOp25
 70
     1
102
RTVSPropertyOp26
 70
     1
102
RTVSPropertyOp27
 70
     1
102
RTVSPropertyOp28
 70
     1
102
RTVSPropertyOp29
 70
     1
102
RTVSPropertyOp30
 70
     1
102
RTVSPropertyOp31
 70
     1
102
RTVSPropertyOp32
 70
     1
102
RTVSPropertyOp33
 70
     1
102
RTVSPropertyOp34
 70
     1
102
RTVSPropertyOp35
 70
     1
102
RTVSPropertyOp36
 70
     1
102
RTVSPropertyOp37
 70
     1
102
RTVSPropertyOp38
 70
     1
102
RTVSPropertyOp39
 70
     1
102
RTVSPropertyOp40
 70
     1
102
RTVSPropertyOp41
 70
     1
102
RTVSPropertyOp42
 70
     1
102
RTVSPropertyOp43
 70
     1
102
RTVSPropertyOp44
 70
     1
102
RTVSPropertyOp45
 70
     1
102
RTVSPropertyOp46
 70
     1
102
RTVSPropertyOp47
 70
     1
102
RTVSPropertyOp48
 70
     1
102
RTVSPropertyOp49
 70
     1
102
RTVSPropertyOp50
 70
     1
102
RTVSPropertyOp51
 70
     0
102
RTVSPropertyOp52
 70
     0
102
RTVSPropertyOp53
 70
     1
102
RTVSPropertyOp54
 70
     1
102
RTVSPropertyOp55
 70
     1
102
RTVSPropertyOp56
 70
     1
102
RTVSPropertyOp57
 70
     1
102
RTVSPropertyOp58
 70
     1
102
RTVSPropertyOp59
 70
     1
102
RTVSPropertyOp60
 70
     1
102
RTVSPropertyOp61
 70
     1
102
RTVSPropertyOp62
 70
     1
  0
XRECORD
  5
9B3
102
{ACAD_REACTORS
330
9B2
102
}
330
9B2
100
AcDbXrecord
280
     1
102
RTVSPost2010Prop28
280
     0
102
RTVSPost2010PropOp28
 70
     1
102
RTVSPost2010Prop29
280
     1
102
RTVSPost2010PropOp29
 70
     1
102
RTVSPost2010Prop30
280
     1
102
RTVSPost2010PropOp30
 70
     1
102
RTVSPost2010Prop31
280
     0
102
RTVSPost2010PropOp31
 70
     1
102
RTVSPost2010Prop32
280
     0
102
RTVSPost2010PropOp32
 70
     1
102
RTVSPost2010Prop33
280
     0
102
RTVSPost2010PropOp33
 70
     1
102
RTVSPost2010Prop34
280
     0
102
RTVSPost2010PropOp34
 70
     1
102
RTVSPost2010Prop35
280
     0
102
RTVSPost2010PropOp35
 70
     1
102
RTVSPost2010Prop36
280
     0
102
RTVSPost2010PropOp36
 70
     1
102
RTVSPost2010Prop37
 90
       50
102
RTVSPost2010PropOp37
 70
     1
102
RTVSPost2010Prop38
140
0.0
102
RTVSPost2010PropOp38
 70
     1
102
RTVSPost2010Prop39
140
1.0
102
RTVSPost2010PropOp39
 70
     1
102
RTVSPost2010Prop40
 90
        0
102
RTVSPost2010PropOp40
 70
     1
102
RTVSPost2010Prop41ColorIndex
 90
       18
102
RTVSPost2010Prop41ColorRGB
 90
        0
102
RTVSPost2010PropOp41
 70
     1
102
RTVSPost2010Prop42
 90
       50
102
RTVSPost2010PropOp42
 70
     1
102
RTVSPost2010Prop43
 90
        3
102
RTVSPost2010PropOp43
 70
     1
102
RTVSPost2010Prop44ColorIndex
 90
        5
102
RTVSPost2010Prop44ColorRGB
 90
      255
102
RTVSPost2010PropOp44
 70
     1
102
RTVSPost2010Prop45
280
     0
102
RTVSPost2010PropOp45
 70
     1
102
RTVSPost2010Prop46
 90
       50
102
RTVSPost2010PropOp46
 70
     1
102
RTVSPost2010Prop47
 90
       50
102
RTVSPost2010PropOp47
 70
     1
102
RTVSPost2010Prop48
 90
       50
102
RTVSPost2010PropOp48
 70
     1
102
RTVSPost2010Prop49
280
     0
102
RTVSPost2010PropOp49
 70
     1
102
RTVSPost2010Prop50
 90
       50
102
RTVSPost2010PropOp50
 70
     1
102
RTVSPost2010Prop51ColorIndex
 90
      256
102
RTVSPost2010Prop51ColorRGB
 90
-16777216
102
RTVSPost2010PropOp51
 70
     0
102
RTVSPost2010Prop52
140
1.0
102
RTVSPost2010PropOp52
 70
     0
102
RTVSPost2010Prop53
 90
        2
102
RTVSPost2010PropOp53
 70
     1
102
RTVSPost2010Prop54
  1
strokes_ogs.tif
102
RTVSPost2010PropOp54
 70
     1
102
RTVSPost2010Prop55
280
     0
102
RTVSPost2010PropOp55
 70
     1
102
RTVSPost2010Prop56
140
1.0
102
RTVSPost2010PropOp56
 70
     1
102
RTVSPost2010Prop57
140
1.0
102
RTVSPost2010PropOp57
 70
     1
102
RTVSPropertyOp0
 70
     1
102
RTVSPropertyOp1
 70
     1
102
RTVSPropertyOp2
 70
     1
102
RTVSPropertyOp3
 70
     1
102
RTVSPropertyOp4
 70
     1
102
RTVSPropertyOp5
 70
     1
102
RTVSPropertyOp6
 70
     1
102
RTVSPropertyOp7
 70
     1
102
RTVSPropertyOp8
 70
     1
102
RTVSPropertyOp9
 70
     1
102
RTVSPropertyOp10
 70
     1
102
RTVSPropertyOp11
 70
     1
102
RTVSPropertyOp12
 70
     1
102
RTVSPropertyOp13
 70
     1
102
RTVSPropertyOp14
 70
     1
102
RTVSPropertyOp15
 70
     1
102
RTVSPropertyOp16
 70
     1
102
RTVSPropertyOp17
 70
     1
102
RTVSPropertyOp18
 70
     1
102
RTVSPropertyOp19
 70
     1
102
RTVSPropertyOp20
 70
     1
102
RTVSPropertyOp21
 70
     1
102
RTVSPropertyOp22
 70
     1
102
RTVSPropertyOp23
 70
     1
102
RTVSPropertyOp24
 70
     1
102
RTVSPropertyOp25
 70
     1
102
RTVSPropertyOp26
 70
     1
102
RTVSPropertyOp27
 70
     1
102
RTVSPropertyOp28
 70
     1
102
RTVSPropertyOp29
 70
     1
102
RTVSPropertyOp30
 70
     1
102
RTVSPropertyOp31
 70
     1
102
RTVSPropertyOp32
 70
     1
102
RTVSPropertyOp33
 70
     1
102
RTVSPropertyOp34
 70
     1
102
RTVSPropertyOp35
 70
     1
102
RTVSPropertyOp36
 70
     1
102
RTVSPropertyOp37
 70
     1
102
RTVSPropertyOp38
 70
     1
102
RTVSPropertyOp39
 70
     1
102
RTVSPropertyOp40
 70
     1
102
RTVSPropertyOp41
 70
     1
102
RTVSPropertyOp42
 70
     1
102
RTVSPropertyOp43
 70
     1
102
RTVSPropertyOp44
 70
     1
102
RTVSPropertyOp45
 70
     1
102
RTVSPropertyOp46
 70
     1
102
RTVSPropertyOp47
 70
     1
102
RTVSPropertyOp48
 70
     1
102
RTVSPropertyOp49
 70
     1
102
RTVSPropertyOp50
 70
     1
102
RTVSPropertyOp51
 70
     0
102
RTVSPropertyOp52
 70
     0
102
RTVSPropertyOp53
 70
     1
102
RTVSPropertyOp54
 70
     1
102
RTVSPropertyOp55
 70
     1
102
RTVSPropertyOp56
 70
     1
102
RTVSPropertyOp57
 70
     1
102
RTVSPropertyOp58
 70
     1
102
RTVSPropertyOp59
 70
     1
102
RTVSPropertyOp60
 70
     1
102
RTVSPropertyOp61
 70
     1
102
RTVSPropertyOp62
 70
     1
  0
XRECORD
  5
9B5
102
{ACAD_REACTORS
330
9B4
102
}
330
9B4
100
AcDbXrecord
280
     1
102
RTVSPost2010Prop28
280
     0
102
RTVSPost2010PropOp28
 70
     1
102
RTVSPost2010Prop29
280
     1
102
RTVSPost2010PropOp29
 70
     1
102
RTVSPost2010Prop30
280
     1
102
RTVSPost2010PropOp30
 70
     1
102
RTVSPost2010Prop31
280
     0
102
RTVSPost2010PropOp31
 70
     1
102
RTVSPost2010Prop32
280
     0
102
RTVSPost2010PropOp32
 70
     1
102
RTVSPost2010Prop33
280
     0
102
RTVSPost2010PropOp33
 70
     1
102
RTVSPost2010Prop34
280
     0
102
RTVSPost2010PropOp34
 70
     1
102
RTVSPost2010Prop35
280
     0
102
RTVSPost2010PropOp35
 70
     1
102
RTVSPost2010Prop36
280
     0
102
RTVSPost2010PropOp36
 70
     1
102
RTVSPost2010Prop37
 90
       50
102
RTVSPost2010PropOp37
 70
     1
102
RTVSPost2010Prop38
140
0.0
102
RTVSPost2010PropOp38
 70
     1
102
RTVSPost2010Prop39
140
1.0
102
RTVSPost2010PropOp39
 70
     1
102
RTVSPost2010Prop40
 90
        0
102
RTVSPost2010PropOp40
 70
     1
102
RTVSPost2010Prop41ColorIndex
 90
       18
102
RTVSPost2010Prop41ColorRGB
 90
        0
102
RTVSPost2010PropOp41
 70
     1
102
RTVSPost2010Prop42
 90
       50
102
RTVSPost2010PropOp42
 70
     1
102
RTVSPost2010Prop43
 90
        3
102
RTVSPost2010PropOp43
 70
     1
102
RTVSPost2010Prop44ColorIndex
 90
        5
102
RTVSPost2010Prop44ColorRGB
 90
      255
102
RTVSPost2010PropOp44
 70
     1
102
RTVSPost2010Prop45
280
     0
102
RTVSPost2010PropOp45
 70
     1
102
RTVSPost2010Prop46
 90
       50
102
RTVSPost2010PropOp46
 70
     1
102
RTVSPost2010Prop47
 90
       50
102
RTVSPost2010PropOp47
 70
     1
102
RTVSPost2010Prop48
 90
       50
102
RTVSPost2010PropOp48
 70
     1
102
RTVSPost2010Prop49
280
     0
102
RTVSPost2010PropOp49
 70
     1
102
RTVSPost2010Prop50
 90
       50
102
RTVSPost2010PropOp50
 70
     1
102
RTVSPost2010Prop51ColorIndex
 90
      256
102
RTVSPost2010Prop51ColorRGB
 90
-16777216
102
RTVSPost2010PropOp51
 70
     0
102
RTVSPost2010Prop52
140
1.0
102
RTVSPost2010PropOp52
 70
     0
102
RTVSPost2010Prop53
 90
        2
102
RTVSPost2010PropOp53
 70
     1
102
RTVSPost2010Prop54
  1
strokes_ogs.tif
102
RTVSPost2010PropOp54
 70
     1
102
RTVSPost2010Prop55
280
     0
102
RTVSPost2010PropOp55
 70
     1
102
RTVSPost2010Prop56
140
1.0
102
RTVSPost2010PropOp56
 70
     1
102
RTVSPost2010Prop57
140
1.0
102
RTVSPost2010PropOp57
 70
     1
102
RTVSPropertyOp0
 70
     1
102
RTVSPropertyOp1
 70
     1
102
RTVSPropertyOp2
 70
     1
102
RTVSPropertyOp3
 70
     1
102
RTVSPropertyOp4
 70
     1
102
RTVSPropertyOp5
 70
     1
102
RTVSPropertyOp6
 70
     1
102
RTVSPropertyOp7
 70
     1
102
RTVSPropertyOp8
 70
     1
102
RTVSPropertyOp9
 70
     1
102
RTVSPropertyOp10
 70
     1
102
RTVSPropertyOp11
 70
     1
102
RTVSPropertyOp12
 70
     1
102
RTVSPropertyOp13
 70
     1
102
RTVSPropertyOp14
 70
     1
102
RTVSPropertyOp15
 70
     1
102
RTVSPropertyOp16
 70
     1
102
RTVSPropertyOp17
 70
     1
102
RTVSPropertyOp18
 70
     1
102
RTVSPropertyOp19
 70
     1
102
RTVSPropertyOp20
 70
     1
102
RTVSPropertyOp21
 70
     1
102
RTVSPropertyOp22
 70
     1
102
RTVSPropertyOp23
 70
     1
102
RTVSPropertyOp24
 70
     1
102
RTVSPropertyOp25
 70
     1
102
RTVSPropertyOp26
 70
     1
102
RTVSPropertyOp27
 70
     1
102
RTVSPropertyOp28
 70
     1
102
RTVSPropertyOp29
 70
     1
102
RTVSPropertyOp30
 70
     1
102
RTVSPropertyOp31
 70
     1
102
RTVSPropertyOp32
 70
     1
102
RTVSPropertyOp33
 70
     1
102
RTVSPropertyOp34
 70
     1
102
RTVSPropertyOp35
 70
     1
102
RTVSPropertyOp36
 70
     1
102
RTVSPropertyOp37
 70
     1
102
RTVSPropertyOp38
 70
     1
102
RTVSPropertyOp39
 70
     1
102
RTVSPropertyOp40
 70
     1
102
RTVSPropertyOp41
 70
     1
102
RTVSPropertyOp42
 70
     1
102
RTVSPropertyOp43
 70
     1
102
RTVSPropertyOp44
 70
     1
102
RTVSPropertyOp45
 70
     1
102
RTVSPropertyOp46
 70
     1
102
RTVSPropertyOp47
 70
     1
102
RTVSPropertyOp48
 70
     1
102
RTVSPropertyOp49
 70
     1
102
RTVSPropertyOp50
 70
     1
102
RTVSPropertyOp51
 70
     0
102
RTVSPropertyOp52
 70
     0
102
RTVSPropertyOp53
 70
     1
102
RTVSPropertyOp54
 70
     1
102
RTVSPropertyOp55
 70
     1
102
RTVSPropertyOp56
 70
     1
102
RTVSPropertyOp57
 70
     1
102
RTVSPropertyOp58
 70
     1
102
RTVSPropertyOp59
 70
     1
102
RTVSPropertyOp60
 70
     1
102
RTVSPropertyOp61
 70
     1
102
RTVSPropertyOp62
 70
     1
  0
XRECORD
  5
9B7
102
{ACAD_REACTORS
330
9B6
102
}
330
9B6
100
AcDbXrecord
280
     1
102
RTVSPost2010Prop28
280
     0
102
RTVSPost2010PropOp28
 70
     1
102
RTVSPost2010Prop29
280
     1
102
RTVSPost2010PropOp29
 70
     1
102
RTVSPost2010Prop30
280
     1
102
RTVSPost2010PropOp30
 70
     1
102
RTVSPost2010Prop31
280
     0
102
RTVSPost2010PropOp31
 70
     1
102
RTVSPost2010Prop32
280
     0
102
RTVSPost2010PropOp32
 70
     1
102
RTVSPost2010Prop33
280
     0
102
RTVSPost2010PropOp33
 70
     1
102
RTVSPost2010Prop34
280
     0
102
RTVSPost2010PropOp34
 70
     1
102
RTVSPost2010Prop35
280
     0
102
RTVSPost2010PropOp35
 70
     1
102
RTVSPost2010Prop36
280
     0
102
RTVSPost2010PropOp36
 70
     1
102
RTVSPost2010Prop37
 90
       50
102
RTVSPost2010PropOp37
 70
     1
102
RTVSPost2010Prop38
140
0.0
102
RTVSPost2010PropOp38
 70
     1
102
RTVSPost2010Prop39
140
1.0
102
RTVSPost2010PropOp39
 70
     1
102
RTVSPost2010Prop40
 90
        0
102
RTVSPost2010PropOp40
 70
     1
102
RTVSPost2010Prop41ColorIndex
 90
       18
102
RTVSPost2010Prop41ColorRGB
 90
        0
102
RTVSPost2010PropOp41
 70
     1
102
RTVSPost2010Prop42
 90
       50
102
RTVSPost2010PropOp42
 70
     1
102
RTVSPost2010Prop43
 90
        3
102
RTVSPost2010PropOp43
 70
     1
102
RTVSPost2010Prop44ColorIndex
 90
        5
102
RTVSPost2010Prop44ColorRGB
 90
      255
102
RTVSPost2010PropOp44
 70
     1
102
RTVSPost2010Prop45
280
     0
102
RTVSPost2010PropOp45
 70
     1
102
RTVSPost2010Prop46
 90
       50
102
RTVSPost2010PropOp46
 70
     1
102
RTVSPost2010Prop47
 90
       50
102
RTVSPost2010PropOp47
 70
     1
102
RTVSPost2010Prop48
 90
       50
102
RTVSPost2010PropOp48
 70
     1
102
RTVSPost2010Prop49
280
     0
102
RTVSPost2010PropOp49
 70
     1
102
RTVSPost2010Prop50
 90
       50
102
RTVSPost2010PropOp50
 70
     1
102
RTVSPost2010Prop51ColorIndex
 90
      256
102
RTVSPost2010Prop51ColorRGB
 90
-16777216
102
RTVSPost2010PropOp51
 70
     0
102
RTVSPost2010Prop52
140
1.0
102
RTVSPost2010PropOp52
 70
     0
102
RTVSPost2010Prop53
 90
        2
102
RTVSPost2010PropOp53
 70
     1
102
RTVSPost2010Prop54
  1
strokes_ogs.tif
102
RTVSPost2010PropOp54
 70
     1
102
RTVSPost2010Prop55
280
     0
102
RTVSPost2010PropOp55
 70
     1
102
RTVSPost2010Prop56
140
1.0
102
RTVSPost2010PropOp56
 70
     1
102
RTVSPost2010Prop57
140
1.0
102
RTVSPost2010PropOp57
 70
     1
102
RTVSPropertyOp0
 70
     1
102
RTVSPropertyOp1
 70
     1
102
RTVSPropertyOp2
 70
     1
102
RTVSPropertyOp3
 70
     1
102
RTVSPropertyOp4
 70
     1
102
RTVSPropertyOp5
 70
     1
102
RTVSPropertyOp6
 70
     1
102
RTVSPropertyOp7
 70
     1
102
RTVSPropertyOp8
 70
     1
102
RTVSPropertyOp9
 70
     1
102
RTVSPropertyOp10
 70
     1
102
RTVSPropertyOp11
 70
     1
102
RTVSPropertyOp12
 70
     1
102
RTVSPropertyOp13
 70
     1
102
RTVSPropertyOp14
 70
     1
102
RTVSPropertyOp15
 70
     1
102
RTVSPropertyOp16
 70
     1
102
RTVSPropertyOp17
 70
     1
102
RTVSPropertyOp18
 70
     1
102
RTVSPropertyOp19
 70
     1
102
RTVSPropertyOp20
 70
     1
102
RTVSPropertyOp21
 70
     1
102
RTVSPropertyOp22
 70
     1
102
RTVSPropertyOp23
 70
     1
102
RTVSPropertyOp24
 70
     1
102
RTVSPropertyOp25
 70
     1
102
RTVSPropertyOp26
 70
     1
102
RTVSPropertyOp27
 70
     1
102
RTVSPropertyOp28
 70
     1
102
RTVSPropertyOp29
 70
     1
102
RTVSPropertyOp30
 70
     1
102
RTVSPropertyOp31
 70
     1
102
RTVSPropertyOp32
 70
     1
102
RTVSPropertyOp33
 70
     1
102
RTVSPropertyOp34
 70
     1
102
RTVSPropertyOp35
 70
     1
102
RTVSPropertyOp36
 70
     1
102
RTVSPropertyOp37
 70
     1
102
RTVSPropertyOp38
 70
     1
102
RTVSPropertyOp39
 70
     1
102
RTVSPropertyOp40
 70
     1
102
RTVSPropertyOp41
 70
     1
102
RTVSPropertyOp42
 70
     1
102
RTVSPropertyOp43
 70
     1
102
RTVSPropertyOp44
 70
     1
102
RTVSPropertyOp45
 70
     1
102
RTVSPropertyOp46
 70
     1
102
RTVSPropertyOp47
 70
     1
102
RTVSPropertyOp48
 70
     1
102
RTVSPropertyOp49
 70
     1
102
RTVSPropertyOp50
 70
     1
102
RTVSPropertyOp51
 70
     0
102
RTVSPropertyOp52
 70
     0
102
RTVSPropertyOp53
 70
     1
102
RTVSPropertyOp54
 70
     1
102
RTVSPropertyOp55
 70
     1
102
RTVSPropertyOp56
 70
     1
102
RTVSPropertyOp57
 70
     1
102
RTVSPropertyOp58
 70
     1
102
RTVSPropertyOp59
 70
     1
102
RTVSPropertyOp60
 70
     1
102
RTVSPropertyOp61
 70
     1
102
RTVSPropertyOp62
 70
     1
  0
XRECORD
  5
9BD
102
{ACAD_REACTORS
330
9BC
102
}
330
9BC
100
AcDbXrecord
280
     1
102
RTVSPost2010Prop28
280
     0
102
RTVSPost2010PropOp28
 70
     1
102
RTVSPost2010Prop29
280
     1
102
RTVSPost2010PropOp29
 70
     1
102
RTVSPost2010Prop30
280
     1
102
RTVSPost2010PropOp30
 70
     1
102
RTVSPost2010Prop31
280
     0
102
RTVSPost2010PropOp31
 70
     1
102
RTVSPost2010Prop32
280
     0
102
RTVSPost2010PropOp32
 70
     1
102
RTVSPost2010Prop33
280
     0
102
RTVSPost2010PropOp33
 70
     1
102
RTVSPost2010Prop34
280
     0
102
RTVSPost2010PropOp34
 70
     1
102
RTVSPost2010Prop35
280
     0
102
RTVSPost2010PropOp35
 70
     1
102
RTVSPost2010Prop36
280
     0
102
RTVSPost2010PropOp36
 70
     1
102
RTVSPost2010Prop37
 90
       50
102
RTVSPost2010PropOp37
 70
     1
102
RTVSPost2010Prop38
140
0.0
102
RTVSPost2010PropOp38
 70
     1
102
RTVSPost2010Prop39
140
1.0
102
RTVSPost2010PropOp39
 70
     1
102
RTVSPost2010Prop40
 90
        0
102
RTVSPost2010PropOp40
 70
     1
102
RTVSPost2010Prop41ColorIndex
 90
       18
102
RTVSPost2010Prop41ColorRGB
 90
        0
102
RTVSPost2010PropOp41
 70
     1
102
RTVSPost2010Prop42
 90
       50
102
RTVSPost2010PropOp42
 70
     1
102
RTVSPost2010Prop43
 90
        3
102
RTVSPost2010PropOp43
 70
     1
102
RTVSPost2010Prop44ColorIndex
 90
        5
102
RTVSPost2010Prop44ColorRGB
 90
      255
102
RTVSPost2010PropOp44
 70
     1
102
RTVSPost2010Prop45
280
     0
102
RTVSPost2010PropOp45
 70
     1
102
RTVSPost2010Prop46
 90
       50
102
RTVSPost2010PropOp46
 70
     1
102
RTVSPost2010Prop47
 90
       50
102
RTVSPost2010PropOp47
 70
     1
102
RTVSPost2010Prop48
 90
       50
102
RTVSPost2010PropOp48
 70
     1
102
RTVSPost2010Prop49
280
     0
102
RTVSPost2010PropOp49
 70
     1
102
RTVSPost2010Prop50
 90
       50
102
RTVSPost2010PropOp50
 70
     1
102
RTVSPost2010Prop51ColorIndex
 90
      256
102
RTVSPost2010Prop51ColorRGB
 90
-16777216
102
RTVSPost2010PropOp51
 70
     0
102
RTVSPost2010Prop52
140
1.0
102
RTVSPost2010PropOp52
 70
     0
102
RTVSPost2010Prop53
 90
        2
102
RTVSPost2010PropOp53
 70
     1
102
RTVSPost2010Prop54
  1
strokes_ogs.tif
102
RTVSPost2010PropOp54
 70
     1
102
RTVSPost2010Prop55
280
     0
102
RTVSPost2010PropOp55
 70
     1
102
RTVSPost2010Prop56
140
1.0
102
RTVSPost2010PropOp56
 70
     1
102
RTVSPost2010Prop57
140
1.0
102
RTVSPost2010PropOp57
 70
     1
102
RTVSPropertyOp0
 70
     1
102
RTVSPropertyOp1
 70
     1
102
RTVSPropertyOp2
 70
     1
102
RTVSPropertyOp3
 70
     1
102
RTVSPropertyOp4
 70
     1
102
RTVSPropertyOp5
 70
     1
102
RTVSPropertyOp6
 70
     1
102
RTVSPropertyOp7
 70
     1
102
RTVSPropertyOp8
 70
     1
102
RTVSPropertyOp9
 70
     1
102
RTVSPropertyOp10
 70
     1
102
RTVSPropertyOp11
 70
     1
102
RTVSPropertyOp12
 70
     1
102
RTVSPropertyOp13
 70
     1
102
RTVSPropertyOp14
 70
     1
102
RTVSPropertyOp15
 70
     1
102
RTVSPropertyOp16
 70
     1
102
RTVSPropertyOp17
 70
     1
102
RTVSPropertyOp18
 70
     1
102
RTVSPropertyOp19
 70
     1
102
RTVSPropertyOp20
 70
     1
102
RTVSPropertyOp21
 70
     1
102
RTVSPropertyOp22
 70
     1
102
RTVSPropertyOp23
 70
     1
102
RTVSPropertyOp24
 70
     1
102
RTVSPropertyOp25
 70
     1
102
RTVSPropertyOp26
 70
     1
102
RTVSPropertyOp27
 70
     1
102
RTVSPropertyOp28
 70
     1
102
RTVSPropertyOp29
 70
     1
102
RTVSPropertyOp30
 70
     1
102
RTVSPropertyOp31
 70
     1
102
RTVSPropertyOp32
 70
     1
102
RTVSPropertyOp33
 70
     1
102
RTVSPropertyOp34
 70
     1
102
RTVSPropertyOp35
 70
     1
102
RTVSPropertyOp36
 70
     1
102
RTVSPropertyOp37
 70
     1
102
RTVSPropertyOp38
 70
     1
102
RTVSPropertyOp39
 70
     1
102
RTVSPropertyOp40
 70
     1
102
RTVSPropertyOp41
 70
     1
102
RTVSPropertyOp42
 70
     1
102
RTVSPropertyOp43
 70
     1
102
RTVSPropertyOp44
 70
     1
102
RTVSPropertyOp45
 70
     1
102
RTVSPropertyOp46
 70
     1
102
RTVSPropertyOp47
 70
     1
102
RTVSPropertyOp48
 70
     1
102
RTVSPropertyOp49
 70
     1
102
RTVSPropertyOp50
 70
     1
102
RTVSPropertyOp51
 70
     0
102
RTVSPropertyOp52
 70
     0
102
RTVSPropertyOp53
 70
     1
102
RTVSPropertyOp54
 70
     1
102
RTVSPropertyOp55
 70
     1
102
RTVSPropertyOp56
 70
     1
102
RTVSPropertyOp57
 70
     1
102
RTVSPropertyOp58
 70
     1
102
RTVSPropertyOp59
 70
     1
102
RTVSPropertyOp60
 70
     1
102
RTVSPropertyOp61
 70
     1
102
RTVSPropertyOp62
 70
     1
  0
XRECORD
  5
9D1
102
{ACAD_REACTORS
330
9D0
102
}
330
9D0
100
AcDbXrecord
280
     1
102
RTVSPost2010Prop28
280
     0
102
RTVSPost2010PropOp28
 70
     0
102
RTVSPost2010Prop29
280
     1
102
RTVSPost2010PropOp29
 70
     0
102
RTVSPost2010Prop30
280
     1
102
RTVSPost2010PropOp30
 70
     0
102
RTVSPost2010Prop31
280
     0
102
RTVSPost2010PropOp31
 70
     0
102
RTVSPost2010Prop32
280
     0
102
RTVSPost2010PropOp32
 70
     0
102
RTVSPost2010Prop33
280
     0
102
RTVSPost2010PropOp33
 70
     0
102
RTVSPost2010Prop34
280
     0
102
RTVSPost2010PropOp34
 70
     0
102
RTVSPost2010Prop35
280
     0
102
RTVSPost2010PropOp35
 70
     0
102
RTVSPost2010Prop36
280
     0
102
RTVSPost2010PropOp36
 70
     0
102
RTVSPost2010Prop37
 90
       50
102
RTVSPost2010PropOp37
 70
     0
102
RTVSPost2010Prop38
140
0.0
102
RTVSPost2010PropOp38
 70
     0
102
RTVSPost2010Prop39
140
1.0
102
RTVSPost2010PropOp39
 70
     0
102
RTVSPost2010Prop40
 90
        0
102
RTVSPost2010PropOp40
 70
     0
102
RTVSPost2010Prop41ColorIndex
 90
       18
102
RTVSPost2010Prop41ColorRGB
 90
        0
102
RTVSPost2010PropOp41
 70
     0
102
RTVSPost2010Prop42
 90
       50
102
RTVSPost2010PropOp42
 70
     0
102
RTVSPost2010Prop43
 90
        3
102
RTVSPost2010PropOp43
 70
     0
102
RTVSPost2010Prop44ColorIndex
 90
        5
102
RTVSPost2010Prop44ColorRGB
 90
      255
102
RTVSPost2010PropOp44
 70
     0
102
RTVSPost2010Prop45
280
     0
102
RTVSPost2010PropOp45
 70
     0
102
RTVSPost2010Prop46
 90
       50
102
RTVSPost2010PropOp46
 70
     0
102
RTVSPost2010Prop47
 90
       50
102
RTVSPost2010PropOp47
 70
     0
102
RTVSPost2010Prop48
 90
       50
102
RTVSPost2010PropOp48
 70
     0
102
RTVSPost2010Prop49
280
     0
102
RTVSPost2010PropOp49
 70
     0
102
RTVSPost2010Prop50
 90
       50
102
RTVSPost2010PropOp50
 70
     0
102
RTVSPost2010Prop51ColorIndex
 90
      256
102
RTVSPost2010Prop51ColorRGB
 90
-16777216
102
RTVSPost2010PropOp51
 70
     0
102
RTVSPost2010Prop52
140
1.0
102
RTVSPost2010PropOp52
 70
     0
102
RTVSPost2010Prop53
 90
        2
102
RTVSPost2010PropOp53
 70
     0
102
RTVSPost2010Prop54
  1
strokes_ogs.tif
102
RTVSPost2010PropOp54
 70
     0
102
RTVSPost2010Prop55
280
     0
102
RTVSPost2010PropOp55
 70
     0
102
RTVSPost2010Prop56
140
1.0
102
RTVSPost2010PropOp56
 70
     0
102
RTVSPost2010Prop57
140
1.0
102
RTVSPost2010PropOp57
 70
     0
102
RTVSPropertyOp0
 70
     0
102
RTVSPropertyOp1
 70
     0
102
RTVSPropertyOp2
 70
     0
102
RTVSPropertyOp3
 70
     0
102
RTVSPropertyOp4
 70
     0
102
RTVSPropertyOp5
 70
     0
102
RTVSPropertyOp6
 70
     0
102
RTVSPropertyOp7
 70
     0
102
RTVSPropertyOp8
 70
     0
102
RTVSPropertyOp9
 70
     0
102
RTVSPropertyOp10
 70
     0
102
RTVSPropertyOp11
 70
     0
102
RTVSPropertyOp12
 70
     0
102
RTVSPropertyOp13
 70
     0
102
RTVSPropertyOp14
 70
     2
102
RTVSPropertyOp15
 70
     0
102
RTVSPropertyOp16
 70
     0
102
RTVSPropertyOp17
 70
     0
102
RTVSPropertyOp18
 70
     0
102
RTVSPropertyOp19
 70
     0
102
RTVSPropertyOp20
 70
     0
102
RTVSPropertyOp21
 70
     0
102
RTVSPropertyOp22
 70
     0
102
RTVSPropertyOp23
 70
     0
102
RTVSPropertyOp24
 70
     0
102
RTVSPropertyOp25
 70
     0
102
RTVSPropertyOp26
 70
     0
102
RTVSPropertyOp27
 70
     0
102
RTVSPropertyOp28
 70
     0
102
RTVSPropertyOp29
 70
     0
102
RTVSPropertyOp30
 70
     0
102
RTVSPropertyOp31
 70
     0
102
RTVSPropertyOp32
 70
     0
102
RTVSPropertyOp33
 70
     0
102
RTVSPropertyOp34
 70
     0
102
RTVSPropertyOp35
 70
     0
102
RTVSPropertyOp36
 70
     0
102
RTVSPropertyOp37
 70
     0
102
RTVSPropertyOp38
 70
     0
102
RTVSPropertyOp39
 70
     0
102
RTVSPropertyOp40
 70
     0
102
RTVSPropertyOp41
 70
     0
102
RTVSPropertyOp42
 70
     0
102
RTVSPropertyOp43
 70
     0
102
RTVSPropertyOp44
 70
     0
102
RTVSPropertyOp45
 70
     0
102
RTVSPropertyOp46
 70
     0
102
RTVSPropertyOp47
 70
     0
102
RTVSPropertyOp48
 70
     0
102
RTVSPropertyOp49
 70
     0
102
RTVSPropertyOp50
 70
     0
102
RTVSPropertyOp51
 70
     0
102
RTVSPropertyOp52
 70
     0
102
RTVSPropertyOp53
 70
     0
102
RTVSPropertyOp54
 70
     0
102
RTVSPropertyOp55
 70
     0
102
RTVSPropertyOp56
 70
     0
102
RTVSPropertyOp57
 70
     0
102
RTVSPropertyOp58
 70
     1
102
RTVSPropertyOp59
 70
     1
102
RTVSPropertyOp60
 70
     1
102
RTVSPropertyOp61
 70
     1
102
RTVSPropertyOp62
 70
     1
  0
XRECORD
  5
9CB
102
{ACAD_REACTORS
330
9CA
102
}
330
9CA
100
AcDbXrecord
280
     1
102
RTVSPost2010Prop28
280
     0
102
RTVSPost2010PropOp28
 70
     1
102
RTVSPost2010Prop29
280
     1
102
RTVSPost2010PropOp29
 70
     1
102
RTVSPost2010Prop30
280
     1
102
RTVSPost2010PropOp30
 70
     1
102
RTVSPost2010Prop31
280
     0
102
RTVSPost2010PropOp31
 70
     1
102
RTVSPost2010Prop32
280
     0
102
RTVSPost2010PropOp32
 70
     1
102
RTVSPost2010Prop33
280
     0
102
RTVSPost2010PropOp33
 70
     1
102
RTVSPost2010Prop34
280
     0
102
RTVSPost2010PropOp34
 70
     1
102
RTVSPost2010Prop35
280
     0
102
RTVSPost2010PropOp35
 70
     1
102
RTVSPost2010Prop36
280
     0
102
RTVSPost2010PropOp36
 70
     1
102
RTVSPost2010Prop37
 90
       50
102
RTVSPost2010PropOp37
 70
     1
102
RTVSPost2010Prop38
140
0.0
102
RTVSPost2010PropOp38
 70
     1
102
RTVSPost2010Prop39
140
1.0
102
RTVSPost2010PropOp39
 70
     1
102
RTVSPost2010Prop40
 90
        0
102
RTVSPost2010PropOp40
 70
     1
102
RTVSPost2010Prop41ColorIndex
 90
       18
102
RTVSPost2010Prop41ColorRGB
 90
        0
102
RTVSPost2010PropOp41
 70
     1
102
RTVSPost2010Prop42
 90
       50
102
RTVSPost2010PropOp42
 70
     1
102
RTVSPost2010Prop43
 90
        3
102
RTVSPost2010PropOp43
 70
     1
102
RTVSPost2010Prop44ColorIndex
 90
        5
102
RTVSPost2010Prop44ColorRGB
 90
      255
102
RTVSPost2010PropOp44
 70
     1
102
RTVSPost2010Prop45
280
     0
102
RTVSPost2010PropOp45
 70
     1
102
RTVSPost2010Prop46
 90
       50
102
RTVSPost2010PropOp46
 70
     1
102
RTVSPost2010Prop47
 90
       50
102
RTVSPost2010PropOp47
 70
     1
102
RTVSPost2010Prop48
 90
       50
102
RTVSPost2010PropOp48
 70
     1
102
RTVSPost2010Prop49
280
     0
102
RTVSPost2010PropOp49
 70
     1
102
RTVSPost2010Prop50
 90
       50
102
RTVSPost2010PropOp50
 70
     1
102
RTVSPost2010Prop51ColorIndex
 90
      256
102
RTVSPost2010Prop51ColorRGB
 90
-16777216
102
RTVSPost2010PropOp51
 70
     0
102
RTVSPost2010Prop52
140
1.0
102
RTVSPost2010PropOp52
 70
     0
102
RTVSPost2010Prop53
 90
        2
102
RTVSPost2010PropOp53
 70
     1
102
RTVSPost2010Prop54
  1
strokes_ogs.tif
102
RTVSPost2010PropOp54
 70
     1
102
RTVSPost2010Prop55
280
     0
102
RTVSPost2010PropOp55
 70
     1
102
RTVSPost2010Prop56
140
1.0
102
RTVSPost2010PropOp56
 70
     1
102
RTVSPost2010Prop57
140
1.0
102
RTVSPost2010PropOp57
 70
     1
102
RTVSPropertyOp0
 70
     1
102
RTVSPropertyOp1
 70
     1
102
RTVSPropertyOp2
 70
     1
102
RTVSPropertyOp3
 70
     1
102
RTVSPropertyOp4
 70
     1
102
RTVSPropertyOp5
 70
     1
102
RTVSPropertyOp6
 70
     1
102
RTVSPropertyOp7
 70
     1
102
RTVSPropertyOp8
 70
     1
102
RTVSPropertyOp9
 70
     1
102
RTVSPropertyOp10
 70
     1
102
RTVSPropertyOp11
 70
     1
102
RTVSPropertyOp12
 70
     1
102
RTVSPropertyOp13
 70
     1
102
RTVSPropertyOp14
 70
     1
102
RTVSPropertyOp15
 70
     1
102
RTVSPropertyOp16
 70
     1
102
RTVSPropertyOp17
 70
     1
102
RTVSPropertyOp18
 70
     1
102
RTVSPropertyOp19
 70
     1
102
RTVSPropertyOp20
 70
     1
102
RTVSPropertyOp21
 70
     1
102
RTVSPropertyOp22
 70
     1
102
RTVSPropertyOp23
 70
     1
102
RTVSPropertyOp24
 70
     1
102
RTVSPropertyOp25
 70
     1
102
RTVSPropertyOp26
 70
     1
102
RTVSPropertyOp27
 70
     1
102
RTVSPropertyOp28
 70
     1
102
RTVSPropertyOp29
 70
     1
102
RTVSPropertyOp30
 70
     1
102
RTVSPropertyOp31
 70
     1
102
RTVSPropertyOp32
 70
     1
102
RTVSPropertyOp33
 70
     1
102
RTVSPropertyOp34
 70
     1
102
RTVSPropertyOp35
 70
     1
102
RTVSPropertyOp36
 70
     1
102
RTVSPropertyOp37
 70
     1
102
RTVSPropertyOp38
 70
     1
102
RTVSPropertyOp39
 70
     1
102
RTVSPropertyOp40
 70
     1
102
RTVSPropertyOp41
 70
     1
102
RTVSPropertyOp42
 70
     1
102
RTVSPropertyOp43
 70
     1
102
RTVSPropertyOp44
 70
     1
102
RTVSPropertyOp45
 70
     1
102
RTVSPropertyOp46
 70
     1
102
RTVSPropertyOp47
 70
     1
102
RTVSPropertyOp48
 70
     1
102
RTVSPropertyOp49
 70
     1
102
RTVSPropertyOp50
 70
     1
102
RTVSPropertyOp51
 70
     0
102
RTVSPropertyOp52
 70
     0
102
RTVSPropertyOp53
 70
     1
102
RTVSPropertyOp54
 70
     1
102
RTVSPropertyOp55
 70
     1
102
RTVSPropertyOp56
 70
     1
102
RTVSPropertyOp57
 70
     1
102
RTVSPropertyOp58
 70
     1
102
RTVSPropertyOp59
 70
     1
102
RTVSPropertyOp60
 70
     1
102
RTVSPropertyOp61
 70
     1
102
RTVSPropertyOp62
 70
     1
  0
XRECORD
  5
9D3
102
{ACAD_REACTORS
330
9D2
102
}
330
9D2
100
AcDbXrecord
280
     1
102
RTVSPost2010Prop28
280
     0
102
RTVSPost2010PropOp28
 70
     0
102
RTVSPost2010Prop29
280
     1
102
RTVSPost2010PropOp29
 70
     0
102
RTVSPost2010Prop30
280
     1
102
RTVSPost2010PropOp30
 70
     0
102
RTVSPost2010Prop31
280
     0
102
RTVSPost2010PropOp31
 70
     0
102
RTVSPost2010Prop32
280
     0
102
RTVSPost2010PropOp32
 70
     0
102
RTVSPost2010Prop33
280
     0
102
RTVSPost2010PropOp33
 70
     0
102
RTVSPost2010Prop34
280
     0
102
RTVSPost2010PropOp34
 70
     0
102
RTVSPost2010Prop35
280
     0
102
RTVSPost2010PropOp35
 70
     0
102
RTVSPost2010Prop36
280
     0
102
RTVSPost2010PropOp36
 70
     0
102
RTVSPost2010Prop37
 90
       50
102
RTVSPost2010PropOp37
 70
     0
102
RTVSPost2010Prop38
140
0.0
102
RTVSPost2010PropOp38
 70
     0
102
RTVSPost2010Prop39
140
1.0
102
RTVSPost2010PropOp39
 70
     0
102
RTVSPost2010Prop40
 90
        0
102
RTVSPost2010PropOp40
 70
     0
102
RTVSPost2010Prop41ColorIndex
 90
       18
102
RTVSPost2010Prop41ColorRGB
 90
        0
102
RTVSPost2010PropOp41
 70
     0
102
RTVSPost2010Prop42
 90
       50
102
RTVSPost2010PropOp42
 70
     0
102
RTVSPost2010Prop43
 90
        3
102
RTVSPost2010PropOp43
 70
     0
102
RTVSPost2010Prop44ColorIndex
 90
        5
102
RTVSPost2010Prop44ColorRGB
 90
      255
102
RTVSPost2010PropOp44
 70
     0
102
RTVSPost2010Prop45
280
     0
102
RTVSPost2010PropOp45
 70
     0
102
RTVSPost2010Prop46
 90
       50
102
RTVSPost2010PropOp46
 70
     0
102
RTVSPost2010Prop47
 90
       50
102
RTVSPost2010PropOp47
 70
     0
102
RTVSPost2010Prop48
 90
       50
102
RTVSPost2010PropOp48
 70
     0
102
RTVSPost2010Prop49
280
     0
102
RTVSPost2010PropOp49
 70
     0
102
RTVSPost2010Prop50
 90
       50
102
RTVSPost2010PropOp50
 70
     0
102
RTVSPost2010Prop51ColorIndex
 90
      256
102
RTVSPost2010Prop51ColorRGB
 90
-16777216
102
RTVSPost2010PropOp51
 70
     0
102
RTVSPost2010Prop52
140
1.0
102
RTVSPost2010PropOp52
 70
     0
102
RTVSPost2010Prop53
 90
        2
102
RTVSPost2010PropOp53
 70
     0
102
RTVSPost2010Prop54
  1
strokes_ogs.tif
102
RTVSPost2010PropOp54
 70
     0
102
RTVSPost2010Prop55
280
     0
102
RTVSPost2010PropOp55
 70
     0
102
RTVSPost2010Prop56
140
1.0
102
RTVSPost2010PropOp56
 70
     0
102
RTVSPost2010Prop57
140
1.0
102
RTVSPost2010PropOp57
 70
     0
102
RTVSPropertyOp0
 70
     0
102
RTVSPropertyOp1
 70
     0
102
RTVSPropertyOp2
 70
     0
102
RTVSPropertyOp3
 70
     0
102
RTVSPropertyOp4
 70
     0
102
RTVSPropertyOp5
 70
     0
102
RTVSPropertyOp6
 70
     0
102
RTVSPropertyOp7
 70
     0
102
RTVSPropertyOp8
 70
     0
102
RTVSPropertyOp9
 70
     0
102
RTVSPropertyOp10
 70
     0
102
RTVSPropertyOp11
 70
     0
102
RTVSPropertyOp12
 70
     0
102
RTVSPropertyOp13
 70
     0
102
RTVSPropertyOp14
 70
     2
102
RTVSPropertyOp15
 70
     0
102
RTVSPropertyOp16
 70
     0
102
RTVSPropertyOp17
 70
     0
102
RTVSPropertyOp18
 70
     0
102
RTVSPropertyOp19
 70
     0
102
RTVSPropertyOp20
 70
     0
102
RTVSPropertyOp21
 70
     0
102
RTVSPropertyOp22
 70
     0
102
RTVSPropertyOp23
 70
     0
102
RTVSPropertyOp24
 70
     0
102
RTVSPropertyOp25
 70
     0
102
RTVSPropertyOp26
 70
     0
102
RTVSPropertyOp27
 70
     0
102
RTVSPropertyOp28
 70
     0
102
RTVSPropertyOp29
 70
     0
102
RTVSPropertyOp30
 70
     0
102
RTVSPropertyOp31
 70
     0
102
RTVSPropertyOp32
 70
     0
102
RTVSPropertyOp33
 70
     0
102
RTVSPropertyOp34
 70
     0
102
RTVSPropertyOp35
 70
     0
102
RTVSPropertyOp36
 70
     0
102
RTVSPropertyOp37
 70
     0
102
RTVSPropertyOp38
 70
     0
102
RTVSPropertyOp39
 70
     0
102
RTVSPropertyOp40
 70
     0
102
RTVSPropertyOp41
 70
     0
102
RTVSPropertyOp42
 70
     0
102
RTVSPropertyOp43
 70
     0
102
RTVSPropertyOp44
 70
     0
102
RTVSPropertyOp45
 70
     0
102
RTVSPropertyOp46
 70
     0
102
RTVSPropertyOp47
 70
     0
102
RTVSPropertyOp48
 70
     0
102
RTVSPropertyOp49
 70
     0
102
RTVSPropertyOp50
 70
     0
102
RTVSPropertyOp51
 70
     0
102
RTVSPropertyOp52
 70
     0
102
RTVSPropertyOp53
 70
     0
102
RTVSPropertyOp54
 70
     0
102
RTVSPropertyOp55
 70
     0
102
RTVSPropertyOp56
 70
     0
102
RTVSPropertyOp57
 70
     0
102
RTVSPropertyOp58
 70
     1
102
RTVSPropertyOp59
 70
     1
102
RTVSPropertyOp60
 70
     1
102
RTVSPropertyOp61
 70
     1
102
RTVSPropertyOp62
 70
     1
  0
XRECORD
  5
9C1
102
{ACAD_REACTORS
330
9C0
102
}
330
9C0
100
AcDbXrecord
280
     1
102
RTVSPost2010Prop28
280
     0
102
RTVSPost2010PropOp28
 70
     1
102
RTVSPost2010Prop29
280
     1
102
RTVSPost2010PropOp29
 70
     1
102
RTVSPost2010Prop30
280
     1
102
RTVSPost2010PropOp30
 70
     1
102
RTVSPost2010Prop31
280
     0
102
RTVSPost2010PropOp31
 70
     1
102
RTVSPost2010Prop32
280
     0
102
RTVSPost2010PropOp32
 70
     1
102
RTVSPost2010Prop33
280
     0
102
RTVSPost2010PropOp33
 70
     1
102
RTVSPost2010Prop34
280
     0
102
RTVSPost2010PropOp34
 70
     1
102
RTVSPost2010Prop35
280
     0
102
RTVSPost2010PropOp35
 70
     1
102
RTVSPost2010Prop36
280
     0
102
RTVSPost2010PropOp36
 70
     1
102
RTVSPost2010Prop37
 90
       50
102
RTVSPost2010PropOp37
 70
     1
102
RTVSPost2010Prop38
140
0.0
102
RTVSPost2010PropOp38
 70
     1
102
RTVSPost2010Prop39
140
1.0
102
RTVSPost2010PropOp39
 70
     1
102
RTVSPost2010Prop40
 90
        0
102
RTVSPost2010PropOp40
 70
     1
102
RTVSPost2010Prop41ColorIndex
 90
       18
102
RTVSPost2010Prop41ColorRGB
 90
        0
102
RTVSPost2010PropOp41
 70
     1
102
RTVSPost2010Prop42
 90
       50
102
RTVSPost2010PropOp42
 70
     1
102
RTVSPost2010Prop43
 90
        3
102
RTVSPost2010PropOp43
 70
     1
102
RTVSPost2010Prop44ColorIndex
 90
        5
102
RTVSPost2010Prop44ColorRGB
 90
      255
102
RTVSPost2010PropOp44
 70
     1
102
RTVSPost2010Prop45
280
     0
102
RTVSPost2010PropOp45
 70
     1
102
RTVSPost2010Prop46
 90
       50
102
RTVSPost2010PropOp46
 70
     1
102
RTVSPost2010Prop47
 90
       50
102
RTVSPost2010PropOp47
 70
     1
102
RTVSPost2010Prop48
 90
       50
102
RTVSPost2010PropOp48
 70
     1
102
RTVSPost2010Prop49
280
     0
102
RTVSPost2010PropOp49
 70
     1
102
RTVSPost2010Prop50
 90
       50
102
RTVSPost2010PropOp50
 70
     1
102
RTVSPost2010Prop51ColorIndex
 90
      256
102
RTVSPost2010Prop51ColorRGB
 90
-16777216
102
RTVSPost2010PropOp51
 70
     0
102
RTVSPost2010Prop52
140
1.0
102
RTVSPost2010PropOp52
 70
     0
102
RTVSPost2010Prop53
 90
        2
102
RTVSPost2010PropOp53
 70
     1
102
RTVSPost2010Prop54
  1
strokes_ogs.tif
102
RTVSPost2010PropOp54
 70
     1
102
RTVSPost2010Prop55
280
     0
102
RTVSPost2010PropOp55
 70
     1
102
RTVSPost2010Prop56
140
1.0
102
RTVSPost2010PropOp56
 70
     1
102
RTVSPost2010Prop57
140
1.0
102
RTVSPost2010PropOp57
 70
     1
102
RTVSPropertyOp0
 70
     1
102
RTVSPropertyOp1
 70
     1
102
RTVSPropertyOp2
 70
     1
102
RTVSPropertyOp3
 70
     1
102
RTVSPropertyOp4
 70
     1
102
RTVSPropertyOp5
 70
     1
102
RTVSPropertyOp6
 70
     1
102
RTVSPropertyOp7
 70
     1
102
RTVSPropertyOp8
 70
     1
102
RTVSPropertyOp9
 70
     1
102
RTVSPropertyOp10
 70
     1
102
RTVSPropertyOp11
 70
     1
102
RTVSPropertyOp12
 70
     1
102
RTVSPropertyOp13
 70
     1
102
RTVSPropertyOp14
 70
     1
102
RTVSPropertyOp15
 70
     1
102
RTVSPropertyOp16
 70
     1
102
RTVSPropertyOp17
 70
     1
102
RTVSPropertyOp18
 70
     1
102
RTVSPropertyOp19
 70
     1
102
RTVSPropertyOp20
 70
     1
102
RTVSPropertyOp21
 70
     1
102
RTVSPropertyOp22
 70
     1
102
RTVSPropertyOp23
 70
     1
102
RTVSPropertyOp24
 70
     1
102
RTVSPropertyOp25
 70
     1
102
RTVSPropertyOp26
 70
     1
102
RTVSPropertyOp27
 70
     1
102
RTVSPropertyOp28
 70
     1
102
RTVSPropertyOp29
 70
     1
102
RTVSPropertyOp30
 70
     1
102
RTVSPropertyOp31
 70
     1
102
RTVSPropertyOp32
 70
     1
102
RTVSPropertyOp33
 70
     1
102
RTVSPropertyOp34
 70
     1
102
RTVSPropertyOp35
 70
     1
102
RTVSPropertyOp36
 70
     1
102
RTVSPropertyOp37
 70
     1
102
RTVSPropertyOp38
 70
     1
102
RTVSPropertyOp39
 70
     1
102
RTVSPropertyOp40
 70
     1
102
RTVSPropertyOp41
 70
     1
102
RTVSPropertyOp42
 70
     1
102
RTVSPropertyOp43
 70
     1
102
RTVSPropertyOp44
 70
     1
102
RTVSPropertyOp45
 70
     1
102
RTVSPropertyOp46
 70
     1
102
RTVSPropertyOp47
 70
     1
102
RTVSPropertyOp48
 70
     1
102
RTVSPropertyOp49
 70
     1
102
RTVSPropertyOp50
 70
     1
102
RTVSPropertyOp51
 70
     0
102
RTVSPropertyOp52
 70
     0
102
RTVSPropertyOp53
 70
     1
102
RTVSPropertyOp54
 70
     1
102
RTVSPropertyOp55
 70
     1
102
RTVSPropertyOp56
 70
     1
102
RTVSPropertyOp57
 70
     1
102
RTVSPropertyOp58
 70
     1
102
RTVSPropertyOp59
 70
     1
102
RTVSPropertyOp60
 70
     1
102
RTVSPropertyOp61
 70
     1
102
RTVSPropertyOp62
 70
     1
  0
XRECORD
  5
9DF
102
{ACAD_REACTORS
330
9DE
102
}
330
9DE
100
AcDbXrecord
280
     1
102
RTVSPost2010Prop28
280
     0
102
RTVSPost2010PropOp28
 70
     1
102
RTVSPost2010Prop29
280
     1
102
RTVSPost2010PropOp29
 70
     1
102
RTVSPost2010Prop30
280
     1
102
RTVSPost2010PropOp30
 70
     1
102
RTVSPost2010Prop31
280
     0
102
RTVSPost2010PropOp31
 70
     1
102
RTVSPost2010Prop32
280
     0
102
RTVSPost2010PropOp32
 70
     1
102
RTVSPost2010Prop33
280
     0
102
RTVSPost2010PropOp33
 70
     1
102
RTVSPost2010Prop34
280
     0
102
RTVSPost2010PropOp34
 70
     1
102
RTVSPost2010Prop35
280
     0
102
RTVSPost2010PropOp35
 70
     1
102
RTVSPost2010Prop36
280
     0
102
RTVSPost2010PropOp36
 70
     1
102
RTVSPost2010Prop37
 90
       50
102
RTVSPost2010PropOp37
 70
     1
102
RTVSPost2010Prop38
140
0.0
102
RTVSPost2010PropOp38
 70
     1
102
RTVSPost2010Prop39
140
1.0
102
RTVSPost2010PropOp39
 70
     1
102
RTVSPost2010Prop40
 90
        0
102
RTVSPost2010PropOp40
 70
     1
102
RTVSPost2010Prop41ColorIndex
 90
       18
102
RTVSPost2010Prop41ColorRGB
 90
        0
102
RTVSPost2010PropOp41
 70
     1
102
RTVSPost2010Prop42
 90
       50
102
RTVSPost2010PropOp42
 70
     1
102
RTVSPost2010Prop43
 90
        3
102
RTVSPost2010PropOp43
 70
     1
102
RTVSPost2010Prop44ColorIndex
 90
        5
102
RTVSPost2010Prop44ColorRGB
 90
      255
102
RTVSPost2010PropOp44
 70
     1
102
RTVSPost2010Prop45
280
     0
102
RTVSPost2010PropOp45
 70
     1
102
RTVSPost2010Prop46
 90
       50
102
RTVSPost2010PropOp46
 70
     1
102
RTVSPost2010Prop47
 90
       50
102
RTVSPost2010PropOp47
 70
     1
102
RTVSPost2010Prop48
 90
       50
102
RTVSPost2010PropOp48
 70
     1
102
RTVSPost2010Prop49
280
     0
102
RTVSPost2010PropOp49
 70
     1
102
RTVSPost2010Prop50
 90
       50
102
RTVSPost2010PropOp50
 70
     1
102
RTVSPost2010Prop51ColorIndex
 90
      256
102
RTVSPost2010Prop51ColorRGB
 90
-16777216
102
RTVSPost2010PropOp51
 70
     0
102
RTVSPost2010Prop52
140
1.0
102
RTVSPost2010PropOp52
 70
     0
102
RTVSPost2010Prop53
 90
        2
102
RTVSPost2010PropOp53
 70
     1
102
RTVSPost2010Prop54
  1
strokes_ogs.tif
102
RTVSPost2010PropOp54
 70
     1
102
RTVSPost2010Prop55
280
     0
102
RTVSPost2010PropOp55
 70
     1
102
RTVSPost2010Prop56
140
1.0
102
RTVSPost2010PropOp56
 70
     1
102
RTVSPost2010Prop57
140
1.0
102
RTVSPost2010PropOp57
 70
     1
102
RTVSPropertyOp0
 70
     1
102
RTVSPropertyOp1
 70
     1
102
RTVSPropertyOp2
 70
     1
102
RTVSPropertyOp3
 70
     1
102
RTVSPropertyOp4
 70
     1
102
RTVSPropertyOp5
 70
     1
102
RTVSPropertyOp6
 70
     1
102
RTVSPropertyOp7
 70
     1
102
RTVSPropertyOp8
 70
     1
102
RTVSPropertyOp9
 70
     1
102
RTVSPropertyOp10
 70
     1
102
RTVSPropertyOp11
 70
     1
102
RTVSPropertyOp12
 70
     1
102
RTVSPropertyOp13
 70
     1
102
RTVSPropertyOp14
 70
     1
102
RTVSPropertyOp15
 70
     1
102
RTVSPropertyOp16
 70
     1
102
RTVSPropertyOp17
 70
     1
102
RTVSPropertyOp18
 70
     1
102
RTVSPropertyOp19
 70
     1
102
RTVSPropertyOp20
 70
     1
102
RTVSPropertyOp21
 70
     1
102
RTVSPropertyOp22
 70
     1
102
RTVSPropertyOp23
 70
     1
102
RTVSPropertyOp24
 70
     1
102
RTVSPropertyOp25
 70
     1
102
RTVSPropertyOp26
 70
     1
102
RTVSPropertyOp27
 70
     1
102
RTVSPropertyOp28
 70
     1
102
RTVSPropertyOp29
 70
     1
102
RTVSPropertyOp30
 70
     1
102
RTVSPropertyOp31
 70
     1
102
RTVSPropertyOp32
 70
     1
102
RTVSPropertyOp33
 70
     1
102
RTVSPropertyOp34
 70
     1
102
RTVSPropertyOp35
 70
     1
102
RTVSPropertyOp36
 70
     1
102
RTVSPropertyOp37
 70
     1
102
RTVSPropertyOp38
 70
     1
102
RTVSPropertyOp39
 70
     1
102
RTVSPropertyOp40
 70
     1
102
RTVSPropertyOp41
 70
     1
102
RTVSPropertyOp42
 70
     1
102
RTVSPropertyOp43
 70
     1
102
RTVSPropertyOp44
 70
     1
102
RTVSPropertyOp45
 70
     1
102
RTVSPropertyOp46
 70
     1
102
RTVSPropertyOp47
 70
     1
102
RTVSPropertyOp48
 70
     1
102
RTVSPropertyOp49
 70
     1
102
RTVSPropertyOp50
 70
     1
102
RTVSPropertyOp51
 70
     0
102
RTVSPropertyOp52
 70
     0
102
RTVSPropertyOp53
 70
     1
102
RTVSPropertyOp54
 70
     1
102
RTVSPropertyOp55
 70
     1
102
RTVSPropertyOp56
 70
     1
102
RTVSPropertyOp57
 70
     1
102
RTVSPropertyOp58
 70
     1
102
RTVSPropertyOp59
 70
     1
102
RTVSPropertyOp60
 70
     1
102
RTVSPropertyOp61
 70
     1
102
RTVSPropertyOp62
 70
     1
  0
XRECORD
  5
9DD
102
{ACAD_REACTORS
330
9DC
102
}
330
9DC
100
AcDbXrecord
280
     1
102
RTVSPost2010Prop28
280
     0
102
RTVSPost2010PropOp28
 70
     1
102
RTVSPost2010Prop29
280
     1
102
RTVSPost2010PropOp29
 70
     1
102
RTVSPost2010Prop30
280
     1
102
RTVSPost2010PropOp30
 70
     1
102
RTVSPost2010Prop31
280
     0
102
RTVSPost2010PropOp31
 70
     1
102
RTVSPost2010Prop32
280
     0
102
RTVSPost2010PropOp32
 70
     1
102
RTVSPost2010Prop33
280
     0
102
RTVSPost2010PropOp33
 70
     1
102
RTVSPost2010Prop34
280
     0
102
RTVSPost2010PropOp34
 70
     1
102
RTVSPost2010Prop35
280
     0
102
RTVSPost2010PropOp35
 70
     1
102
RTVSPost2010Prop36
280
     0
102
RTVSPost2010PropOp36
 70
     1
102
RTVSPost2010Prop37
 90
       50
102
RTVSPost2010PropOp37
 70
     1
102
RTVSPost2010Prop38
140
0.0
102
RTVSPost2010PropOp38
 70
     1
102
RTVSPost2010Prop39
140
1.0
102
RTVSPost2010PropOp39
 70
     1
102
RTVSPost2010Prop40
 90
        0
102
RTVSPost2010PropOp40
 70
     1
102
RTVSPost2010Prop41ColorIndex
 90
       18
102
RTVSPost2010Prop41ColorRGB
 90
        0
102
RTVSPost2010PropOp41
 70
     1
102
RTVSPost2010Prop42
 90
       50
102
RTVSPost2010PropOp42
 70
     1
102
RTVSPost2010Prop43
 90
        3
102
RTVSPost2010PropOp43
 70
     1
102
RTVSPost2010Prop44ColorIndex
 90
        5
102
RTVSPost2010Prop44ColorRGB
 90
      255
102
RTVSPost2010PropOp44
 70
     1
102
RTVSPost2010Prop45
280
     0
102
RTVSPost2010PropOp45
 70
     1
102
RTVSPost2010Prop46
 90
       50
102
RTVSPost2010PropOp46
 70
     1
102
RTVSPost2010Prop47
 90
       50
102
RTVSPost2010PropOp47
 70
     1
102
RTVSPost2010Prop48
 90
       50
102
RTVSPost2010PropOp48
 70
     1
102
RTVSPost2010Prop49
280
     0
102
RTVSPost2010PropOp49
 70
     1
102
RTVSPost2010Prop50
 90
       50
102
RTVSPost2010PropOp50
 70
     1
102
RTVSPost2010Prop51ColorIndex
 90
      256
102
RTVSPost2010Prop51ColorRGB
 90
-16777216
102
RTVSPost2010PropOp51
 70
     0
102
RTVSPost2010Prop52
140
1.0
102
RTVSPost2010PropOp52
 70
     0
102
RTVSPost2010Prop53
 90
        2
102
RTVSPost2010PropOp53
 70
     1
102
RTVSPost2010Prop54
  1
strokes_ogs.tif
102
RTVSPost2010PropOp54
 70
     1
102
RTVSPost2010Prop55
280
     0
102
RTVSPost2010PropOp55
 70
     1
102
RTVSPost2010Prop56
140
1.0
102
RTVSPost2010PropOp56
 70
     1
102
RTVSPost2010Prop57
140
1.0
102
RTVSPost2010PropOp57
 70
     1
102
RTVSPropertyOp0
 70
     1
102
RTVSPropertyOp1
 70
     1
102
RTVSPropertyOp2
 70
     1
102
RTVSPropertyOp3
 70
     1
102
RTVSPropertyOp4
 70
     1
102
RTVSPropertyOp5
 70
     1
102
RTVSPropertyOp6
 70
     1
102
RTVSPropertyOp7
 70
     1
102
RTVSPropertyOp8
 70
     1
102
RTVSPropertyOp9
 70
     1
102
RTVSPropertyOp10
 70
     1
102
RTVSPropertyOp11
 70
     1
102
RTVSPropertyOp12
 70
     1
102
RTVSPropertyOp13
 70
     1
102
RTVSPropertyOp14
 70
     1
102
RTVSPropertyOp15
 70
     1
102
RTVSPropertyOp16
 70
     1
102
RTVSPropertyOp17
 70
     1
102
RTVSPropertyOp18
 70
     1
102
RTVSPropertyOp19
 70
     1
102
RTVSPropertyOp20
 70
     1
102
RTVSPropertyOp21
 70
     1
102
RTVSPropertyOp22
 70
     1
102
RTVSPropertyOp23
 70
     1
102
RTVSPropertyOp24
 70
     1
102
RTVSPropertyOp25
 70
     1
102
RTVSPropertyOp26
 70
     1
102
RTVSPropertyOp27
 70
     1
102
RTVSPropertyOp28
 70
     1
102
RTVSPropertyOp29
 70
     1
102
RTVSPropertyOp30
 70
     1
102
RTVSPropertyOp31
 70
     1
102
RTVSPropertyOp32
 70
     1
102
RTVSPropertyOp33
 70
     1
102
RTVSPropertyOp34
 70
     1
102
RTVSPropertyOp35
 70
     1
102
RTVSPropertyOp36
 70
     1
102
RTVSPropertyOp37
 70
     1
102
RTVSPropertyOp38
 70
     1
102
RTVSPropertyOp39
 70
     1
102
RTVSPropertyOp40
 70
     1
102
RTVSPropertyOp41
 70
     1
102
RTVSPropertyOp42
 70
     1
102
RTVSPropertyOp43
 70
     1
102
RTVSPropertyOp44
 70
     1
102
RTVSPropertyOp45
 70
     1
102
RTVSPropertyOp46
 70
     1
102
RTVSPropertyOp47
 70
     1
102
RTVSPropertyOp48
 70
     1
102
RTVSPropertyOp49
 70
     1
102
RTVSPropertyOp50
 70
     1
102
RTVSPropertyOp51
 70
     0
102
RTVSPropertyOp52
 70
     0
102
RTVSPropertyOp53
 70
     1
102
RTVSPropertyOp54
 70
     1
102
RTVSPropertyOp55
 70
     1
102
RTVSPropertyOp56
 70
     1
102
RTVSPropertyOp57
 70
     1
102
RTVSPropertyOp58
 70
     1
102
RTVSPropertyOp59
 70
     1
102
RTVSPropertyOp60
 70
     1
102
RTVSPropertyOp61
 70
     1
102
RTVSPropertyOp62
 70
     1
  0
XRECORD
  5
9D7
102
{ACAD_REACTORS
330
9D6
102
}
330
9D6
100
AcDbXrecord
280
     1
102
RTVSPost2010Prop28
280
     0
102
RTVSPost2010PropOp28
 70
     1
102
RTVSPost2010Prop29
280
     1
102
RTVSPost2010PropOp29
 70
     1
102
RTVSPost2010Prop30
280
     1
102
RTVSPost2010PropOp30
 70
     1
102
RTVSPost2010Prop31
280
     0
102
RTVSPost2010PropOp31
 70
     1
102
RTVSPost2010Prop32
280
     0
102
RTVSPost2010PropOp32
 70
     1
102
RTVSPost2010Prop33
280
     0
102
RTVSPost2010PropOp33
 70
     1
102
RTVSPost2010Prop34
280
     0
102
RTVSPost2010PropOp34
 70
     1
102
RTVSPost2010Prop35
280
     0
102
RTVSPost2010PropOp35
 70
     1
102
RTVSPost2010Prop36
280
     0
102
RTVSPost2010PropOp36
 70
     1
102
RTVSPost2010Prop37
 90
       50
102
RTVSPost2010PropOp37
 70
     1
102
RTVSPost2010Prop38
140
0.0
102
RTVSPost2010PropOp38
 70
     1
102
RTVSPost2010Prop39
140
1.0
102
RTVSPost2010PropOp39
 70
     1
102
RTVSPost2010Prop40
 90
        0
102
RTVSPost2010PropOp40
 70
     1
102
RTVSPost2010Prop41ColorIndex
 90
       18
102
RTVSPost2010Prop41ColorRGB
 90
        0
102
RTVSPost2010PropOp41
 70
     1
102
RTVSPost2010Prop42
 90
       50
102
RTVSPost2010PropOp42
 70
     1
102
RTVSPost2010Prop43
 90
        3
102
RTVSPost2010PropOp43
 70
     1
102
RTVSPost2010Prop44ColorIndex
 90
        5
102
RTVSPost2010Prop44ColorRGB
 90
      255
102
RTVSPost2010PropOp44
 70
     1
102
RTVSPost2010Prop45
280
     0
102
RTVSPost2010PropOp45
 70
     1
102
RTVSPost2010Prop46
 90
       50
102
RTVSPost2010PropOp46
 70
     1
102
RTVSPost2010Prop47
 90
       50
102
RTVSPost2010PropOp47
 70
     1
102
RTVSPost2010Prop48
 90
       50
102
RTVSPost2010PropOp48
 70
     1
102
RTVSPost2010Prop49
280
     0
102
RTVSPost2010PropOp49
 70
     1
102
RTVSPost2010Prop50
 90
       50
102
RTVSPost2010PropOp50
 70
     1
102
RTVSPost2010Prop51ColorIndex
 90
      256
102
RTVSPost2010Prop51ColorRGB
 90
-16777216
102
RTVSPost2010PropOp51
 70
     0
102
RTVSPost2010Prop52
140
1.0
102
RTVSPost2010PropOp52
 70
     0
102
RTVSPost2010Prop53
 90
        2
102
RTVSPost2010PropOp53
 70
     1
102
RTVSPost2010Prop54
  1
strokes_ogs.tif
102
RTVSPost2010PropOp54
 70
     1
102
RTVSPost2010Prop55
280
     0
102
RTVSPost2010PropOp55
 70
     1
102
RTVSPost2010Prop56
140
1.0
102
RTVSPost2010PropOp56
 70
     1
102
RTVSPost2010Prop57
140
1.0
102
RTVSPost2010PropOp57
 70
     1
102
RTVSPropertyOp0
 70
     1
102
RTVSPropertyOp1
 70
     1
102
RTVSPropertyOp2
 70
     1
102
RTVSPropertyOp3
 70
     1
102
RTVSPropertyOp4
 70
     1
102
RTVSPropertyOp5
 70
     1
102
RTVSPropertyOp6
 70
     1
102
RTVSPropertyOp7
 70
     1
102
RTVSPropertyOp8
 70
     1
102
RTVSPropertyOp9
 70
     1
102
RTVSPropertyOp10
 70
     1
102
RTVSPropertyOp11
 70
     1
102
RTVSPropertyOp12
 70
     1
102
RTVSPropertyOp13
 70
     1
102
RTVSPropertyOp14
 70
     1
102
RTVSPropertyOp15
 70
     1
102
RTVSPropertyOp16
 70
     1
102
RTVSPropertyOp17
 70
     1
102
RTVSPropertyOp18
 70
     1
102
RTVSPropertyOp19
 70
     1
102
RTVSPropertyOp20
 70
     1
102
RTVSPropertyOp21
 70
     1
102
RTVSPropertyOp22
 70
     1
102
RTVSPropertyOp23
 70
     1
102
RTVSPropertyOp24
 70
     1
102
RTVSPropertyOp25
 70
     1
102
RTVSPropertyOp26
 70
     1
102
RTVSPropertyOp27
 70
     1
102
RTVSPropertyOp28
 70
     1
102
RTVSPropertyOp29
 70
     1
102
RTVSPropertyOp30
 70
     1
102
RTVSPropertyOp31
 70
     1
102
RTVSPropertyOp32
 70
     1
102
RTVSPropertyOp33
 70
     1
102
RTVSPropertyOp34
 70
     1
102
RTVSPropertyOp35
 70
     1
102
RTVSPropertyOp36
 70
     1
102
RTVSPropertyOp37
 70
     1
102
RTVSPropertyOp38
 70
     1
102
RTVSPropertyOp39
 70
     1
102
RTVSPropertyOp40
 70
     1
102
RTVSPropertyOp41
 70
     1
102
RTVSPropertyOp42
 70
     1
102
RTVSPropertyOp43
 70
     1
102
RTVSPropertyOp44
 70
     1
102
RTVSPropertyOp45
 70
     1
102
RTVSPropertyOp46
 70
     1
102
RTVSPropertyOp47
 70
     1
102
RTVSPropertyOp48
 70
     1
102
RTVSPropertyOp49
 70
     1
102
RTVSPropertyOp50
 70
     1
102
RTVSPropertyOp51
 70
     0
102
RTVSPropertyOp52
 70
     0
102
RTVSPropertyOp53
 70
     1
102
RTVSPropertyOp54
 70
     1
102
RTVSPropertyOp55
 70
     1
102
RTVSPropertyOp56
 70
     1
102
RTVSPropertyOp57
 70
     1
102
RTVSPropertyOp58
 70
     1
102
RTVSPropertyOp59
 70
     1
102
RTVSPropertyOp60
 70
     1
102
RTVSPropertyOp61
 70
     1
102
RTVSPropertyOp62
 70
     1
  0
XRECORD
  5
9D9
102
{ACAD_REACTORS
330
9D8
102
}
330
9D8
100
AcDbXrecord
280
     1
102
RTVSPost2010Prop28
280
     0
102
RTVSPost2010PropOp28
 70
     1
102
RTVSPost2010Prop29
280
     1
102
RTVSPost2010PropOp29
 70
     1
102
RTVSPost2010Prop30
280
     1
102
RTVSPost2010PropOp30
 70
     1
102
RTVSPost2010Prop31
280
     0
102
RTVSPost2010PropOp31
 70
     1
102
RTVSPost2010Prop32
280
     0
102
RTVSPost2010PropOp32
 70
     1
102
RTVSPost2010Prop33
280
     0
102
RTVSPost2010PropOp33
 70
     1
102
RTVSPost2010Prop34
280
     0
102
RTVSPost2010PropOp34
 70
     1
102
RTVSPost2010Prop35
280
     0
102
RTVSPost2010PropOp35
 70
     1
102
RTVSPost2010Prop36
280
     0
102
RTVSPost2010PropOp36
 70
     1
102
RTVSPost2010Prop37
 90
       50
102
RTVSPost2010PropOp37
 70
     1
102
RTVSPost2010Prop38
140
0.0
102
RTVSPost2010PropOp38
 70
     1
102
RTVSPost2010Prop39
140
1.0
102
RTVSPost2010PropOp39
 70
     1
102
RTVSPost2010Prop40
 90
        0
102
RTVSPost2010PropOp40
 70
     1
102
RTVSPost2010Prop41ColorIndex
 90
       18
102
RTVSPost2010Prop41ColorRGB
 90
        0
102
RTVSPost2010PropOp41
 70
     1
102
RTVSPost2010Prop42
 90
       50
102
RTVSPost2010PropOp42
 70
     1
102
RTVSPost2010Prop43
 90
        3
102
RTVSPost2010PropOp43
 70
     1
102
RTVSPost2010Prop44ColorIndex
 90
        5
102
RTVSPost2010Prop44ColorRGB
 90
      255
102
RTVSPost2010PropOp44
 70
     1
102
RTVSPost2010Prop45
280
     0
102
RTVSPost2010PropOp45
 70
     1
102
RTVSPost2010Prop46
 90
       50
102
RTVSPost2010PropOp46
 70
     1
102
RTVSPost2010Prop47
 90
       50
102
RTVSPost2010PropOp47
 70
     1
102
RTVSPost2010Prop48
 90
       50
102
RTVSPost2010PropOp48
 70
     1
102
RTVSPost2010Prop49
280
     0
102
RTVSPost2010PropOp49
 70
     1
102
RTVSPost2010Prop50
 90
       50
102
RTVSPost2010PropOp50
 70
     1
102
RTVSPost2010Prop51ColorIndex
 90
      256
102
RTVSPost2010Prop51ColorRGB
 90
-16777216
102
RTVSPost2010PropOp51
 70
     0
102
RTVSPost2010Prop52
140
1.0
102
RTVSPost2010PropOp52
 70
     0
102
RTVSPost2010Prop53
 90
        2
102
RTVSPost2010PropOp53
 70
     1
102
RTVSPost2010Prop54
  1
strokes_ogs.tif
102
RTVSPost2010PropOp54
 70
     1
102
RTVSPost2010Prop55
280
     0
102
RTVSPost2010PropOp55
 70
     1
102
RTVSPost2010Prop56
140
1.0
102
RTVSPost2010PropOp56
 70
     1
102
RTVSPost2010Prop57
140
1.0
102
RTVSPost2010PropOp57
 70
     1
102
RTVSPropertyOp0
 70
     1
102
RTVSPropertyOp1
 70
     1
102
RTVSPropertyOp2
 70
     1
102
RTVSPropertyOp3
 70
     1
102
RTVSPropertyOp4
 70
     1
102
RTVSPropertyOp5
 70
     1
102
RTVSPropertyOp6
 70
     1
102
RTVSPropertyOp7
 70
     1
102
RTVSPropertyOp8
 70
     1
102
RTVSPropertyOp9
 70
     1
102
RTVSPropertyOp10
 70
     1
102
RTVSPropertyOp11
 70
     1
102
RTVSPropertyOp12
 70
     1
102
RTVSPropertyOp13
 70
     1
102
RTVSPropertyOp14
 70
     1
102
RTVSPropertyOp15
 70
     1
102
RTVSPropertyOp16
 70
     1
102
RTVSPropertyOp17
 70
     1
102
RTVSPropertyOp18
 70
     1
102
RTVSPropertyOp19
 70
     1
102
RTVSPropertyOp20
 70
     1
102
RTVSPropertyOp21
 70
     1
102
RTVSPropertyOp22
 70
     1
102
RTVSPropertyOp23
 70
     1
102
RTVSPropertyOp24
 70
     1
102
RTVSPropertyOp25
 70
     1
102
RTVSPropertyOp26
 70
     1
102
RTVSPropertyOp27
 70
     1
102
RTVSPropertyOp28
 70
     1
102
RTVSPropertyOp29
 70
     1
102
RTVSPropertyOp30
 70
     1
102
RTVSPropertyOp31
 70
     1
102
RTVSPropertyOp32
 70
     1
102
RTVSPropertyOp33
 70
     1
102
RTVSPropertyOp34
 70
     1
102
RTVSPropertyOp35
 70
     1
102
RTVSPropertyOp36
 70
     1
102
RTVSPropertyOp37
 70
     1
102
RTVSPropertyOp38
 70
     1
102
RTVSPropertyOp39
 70
     1
102
RTVSPropertyOp40
 70
     1
102
RTVSPropertyOp41
 70
     1
102
RTVSPropertyOp42
 70
     1
102
RTVSPropertyOp43
 70
     1
102
RTVSPropertyOp44
 70
     1
102
RTVSPropertyOp45
 70
     1
102
RTVSPropertyOp46
 70
     1
102
RTVSPropertyOp47
 70
     1
102
RTVSPropertyOp48
 70
     1
102
RTVSPropertyOp49
 70
     1
102
RTVSPropertyOp50
 70
     1
102
RTVSPropertyOp51
 70
     0
102
RTVSPropertyOp52
 70
     0
102
RTVSPropertyOp53
 70
     1
102
RTVSPropertyOp54
 70
     1
102
RTVSPropertyOp55
 70
     1
102
RTVSPropertyOp56
 70
     1
102
RTVSPropertyOp57
 70
     1
102
RTVSPropertyOp58
 70
     1
102
RTVSPropertyOp59
 70
     1
102
RTVSPropertyOp60
 70
     1
102
RTVSPropertyOp61
 70
     1
102
RTVSPropertyOp62
 70
     1
  0
XRECORD
  5
9C9
102
{ACAD_REACTORS
330
9C8
102
}
330
9C8
100
AcDbXrecord
280
     1
102
RTVSPost2010Prop28
280
     0
102
RTVSPost2010PropOp28
 70
     1
102
RTVSPost2010Prop29
280
     1
102
RTVSPost2010PropOp29
 70
     1
102
RTVSPost2010Prop30
280
     1
102
RTVSPost2010PropOp30
 70
     1
102
RTVSPost2010Prop31
280
     0
102
RTVSPost2010PropOp31
 70
     1
102
RTVSPost2010Prop32
280
     0
102
RTVSPost2010PropOp32
 70
     1
102
RTVSPost2010Prop33
280
     0
102
RTVSPost2010PropOp33
 70
     1
102
RTVSPost2010Prop34
280
     0
102
RTVSPost2010PropOp34
 70
     1
102
RTVSPost2010Prop35
280
     0
102
RTVSPost2010PropOp35
 70
     1
102
RTVSPost2010Prop36
280
     0
102
RTVSPost2010PropOp36
 70
     1
102
RTVSPost2010Prop37
 90
       50
102
RTVSPost2010PropOp37
 70
     1
102
RTVSPost2010Prop38
140
0.0
102
RTVSPost2010PropOp38
 70
     1
102
RTVSPost2010Prop39
140
1.0
102
RTVSPost2010PropOp39
 70
     1
102
RTVSPost2010Prop40
 90
        0
102
RTVSPost2010PropOp40
 70
     1
102
RTVSPost2010Prop41ColorIndex
 90
       18
102
RTVSPost2010Prop41ColorRGB
 90
        0
102
RTVSPost2010PropOp41
 70
     1
102
RTVSPost2010Prop42
 90
       50
102
RTVSPost2010PropOp42
 70
     1
102
RTVSPost2010Prop43
 90
        3
102
RTVSPost2010PropOp43
 70
     1
102
RTVSPost2010Prop44ColorIndex
 90
        5
102
RTVSPost2010Prop44ColorRGB
 90
      255
102
RTVSPost2010PropOp44
 70
     1
102
RTVSPost2010Prop45
280
     0
102
RTVSPost2010PropOp45
 70
     1
102
RTVSPost2010Prop46
 90
       50
102
RTVSPost2010PropOp46
 70
     1
102
RTVSPost2010Prop47
 90
       50
102
RTVSPost2010PropOp47
 70
     1
102
RTVSPost2010Prop48
 90
       50
102
RTVSPost2010PropOp48
 70
     1
102
RTVSPost2010Prop49
280
     0
102
RTVSPost2010PropOp49
 70
     1
102
RTVSPost2010Prop50
 90
       50
102
RTVSPost2010PropOp50
 70
     1
102
RTVSPost2010Prop51ColorIndex
 90
      256
102
RTVSPost2010Prop51ColorRGB
 90
-16777216
102
RTVSPost2010PropOp51
 70
     0
102
RTVSPost2010Prop52
140
1.0
102
RTVSPost2010PropOp52
 70
     0
102
RTVSPost2010Prop53
 90
        2
102
RTVSPost2010PropOp53
 70
     1
102
RTVSPost2010Prop54
  1
strokes_ogs.tif
102
RTVSPost2010PropOp54
 70
     1
102
RTVSPost2010Prop55
280
     0
102
RTVSPost2010PropOp55
 70
     1
102
RTVSPost2010Prop56
140
1.0
102
RTVSPost2010PropOp56
 70
     1
102
RTVSPost2010Prop57
140
1.0
102
RTVSPost2010PropOp57
 70
     1
102
RTVSPropertyOp0
 70
     1
102
RTVSPropertyOp1
 70
     1
102
RTVSPropertyOp2
 70
     1
102
RTVSPropertyOp3
 70
     1
102
RTVSPropertyOp4
 70
     1
102
RTVSPropertyOp5
 70
     1
102
RTVSPropertyOp6
 70
     1
102
RTVSPropertyOp7
 70
     1
102
RTVSPropertyOp8
 70
     1
102
RTVSPropertyOp9
 70
     1
102
RTVSPropertyOp10
 70
     1
102
RTVSPropertyOp11
 70
     1
102
RTVSPropertyOp12
 70
     1
102
RTVSPropertyOp13
 70
     1
102
RTVSPropertyOp14
 70
     1
102
RTVSPropertyOp15
 70
     1
102
RTVSPropertyOp16
 70
     1
102
RTVSPropertyOp17
 70
     1
102
RTVSPropertyOp18
 70
     1
102
RTVSPropertyOp19
 70
     1
102
RTVSPropertyOp20
 70
     1
102
RTVSPropertyOp21
 70
     1
102
RTVSPropertyOp22
 70
     1
102
RTVSPropertyOp23
 70
     1
102
RTVSPropertyOp24
 70
     1
102
RTVSPropertyOp25
 70
     1
102
RTVSPropertyOp26
 70
     1
102
RTVSPropertyOp27
 70
     1
102
RTVSPropertyOp28
 70
     1
102
RTVSPropertyOp29
 70
     1
102
RTVSPropertyOp30
 70
     1
102
RTVSPropertyOp31
 70
     1
102
RTVSPropertyOp32
 70
     1
102
RTVSPropertyOp33
 70
     1
102
RTVSPropertyOp34
 70
     1
102
RTVSPropertyOp35
 70
     1
102
RTVSPropertyOp36
 70
     1
102
RTVSPropertyOp37
 70
     1
102
RTVSPropertyOp38
 70
     1
102
RTVSPropertyOp39
 70
     1
102
RTVSPropertyOp40
 70
     1
102
RTVSPropertyOp41
 70
     1
102
RTVSPropertyOp42
 70
     1
102
RTVSPropertyOp43
 70
     1
102
RTVSPropertyOp44
 70
     1
102
RTVSPropertyOp45
 70
     1
102
RTVSPropertyOp46
 70
     1
102
RTVSPropertyOp47
 70
     1
102
RTVSPropertyOp48
 70
     1
102
RTVSPropertyOp49
 70
     1
102
RTVSPropertyOp50
 70
     1
102
RTVSPropertyOp51
 70
     0
102
RTVSPropertyOp52
 70
     0
102
RTVSPropertyOp53
 70
     1
102
RTVSPropertyOp54
 70
     1
102
RTVSPropertyOp55
 70
     1
102
RTVSPropertyOp56
 70
     1
102
RTVSPropertyOp57
 70
     1
102
RTVSPropertyOp58
 70
     1
102
RTVSPropertyOp59
 70
     1
102
RTVSPropertyOp60
 70
     1
102
RTVSPropertyOp61
 70
     1
102
RTVSPropertyOp62
 70
     1
  0
XRECORD
  5
9BB
102
{ACAD_REACTORS
330
9BA
102
}
330
9BA
100
AcDbXrecord
280
     1
102
RTVSPost2010Prop28
280
     0
102
RTVSPost2010PropOp28
 70
     1
102
RTVSPost2010Prop29
280
     1
102
RTVSPost2010PropOp29
 70
     1
102
RTVSPost2010Prop30
280
     1
102
RTVSPost2010PropOp30
 70
     1
102
RTVSPost2010Prop31
280
     0
102
RTVSPost2010PropOp31
 70
     1
102
RTVSPost2010Prop32
280
     0
102
RTVSPost2010PropOp32
 70
     1
102
RTVSPost2010Prop33
280
     0
102
RTVSPost2010PropOp33
 70
     1
102
RTVSPost2010Prop34
280
     0
102
RTVSPost2010PropOp34
 70
     1
102
RTVSPost2010Prop35
280
     0
102
RTVSPost2010PropOp35
 70
     1
102
RTVSPost2010Prop36
280
     0
102
RTVSPost2010PropOp36
 70
     1
102
RTVSPost2010Prop37
 90
       50
102
RTVSPost2010PropOp37
 70
     1
102
RTVSPost2010Prop38
140
0.0
102
RTVSPost2010PropOp38
 70
     1
102
RTVSPost2010Prop39
140
1.0
102
RTVSPost2010PropOp39
 70
     1
102
RTVSPost2010Prop40
 90
        0
102
RTVSPost2010PropOp40
 70
     1
102
RTVSPost2010Prop41ColorIndex
 90
       18
102
RTVSPost2010Prop41ColorRGB
 90
        0
102
RTVSPost2010PropOp41
 70
     1
102
RTVSPost2010Prop42
 90
       50
102
RTVSPost2010PropOp42
 70
     1
102
RTVSPost2010Prop43
 90
        3
102
RTVSPost2010PropOp43
 70
     1
102
RTVSPost2010Prop44ColorIndex
 90
        5
102
RTVSPost2010Prop44ColorRGB
 90
      255
102
RTVSPost2010PropOp44
 70
     1
102
RTVSPost2010Prop45
280
     0
102
RTVSPost2010PropOp45
 70
     1
102
RTVSPost2010Prop46
 90
       50
102
RTVSPost2010PropOp46
 70
     1
102
RTVSPost2010Prop47
 90
       50
102
RTVSPost2010PropOp47
 70
     1
102
RTVSPost2010Prop48
 90
       50
102
RTVSPost2010PropOp48
 70
     1
102
RTVSPost2010Prop49
280
     0
102
RTVSPost2010PropOp49
 70
     1
102
RTVSPost2010Prop50
 90
       50
102
RTVSPost2010PropOp50
 70
     1
102
RTVSPost2010Prop51ColorIndex
 90
      256
102
RTVSPost2010Prop51ColorRGB
 90
-16777216
102
RTVSPost2010PropOp51
 70
     0
102
RTVSPost2010Prop52
140
1.0
102
RTVSPost2010PropOp52
 70
     0
102
RTVSPost2010Prop53
 90
        2
102
RTVSPost2010PropOp53
 70
     1
102
RTVSPost2010Prop54
  1
strokes_ogs.tif
102
RTVSPost2010PropOp54
 70
     1
102
RTVSPost2010Prop55
280
     0
102
RTVSPost2010PropOp55
 70
     1
102
RTVSPost2010Prop56
140
1.0
102
RTVSPost2010PropOp56
 70
     1
102
RTVSPost2010Prop57
140
1.0
102
RTVSPost2010PropOp57
 70
     1
102
RTVSPropertyOp0
 70
     1
102
RTVSPropertyOp1
 70
     1
102
RTVSPropertyOp2
 70
     1
102
RTVSPropertyOp3
 70
     1
102
RTVSPropertyOp4
 70
     1
102
RTVSPropertyOp5
 70
     1
102
RTVSPropertyOp6
 70
     1
102
RTVSPropertyOp7
 70
     1
102
RTVSPropertyOp8
 70
     1
102
RTVSPropertyOp9
 70
     1
102
RTVSPropertyOp10
 70
     1
102
RTVSPropertyOp11
 70
     1
102
RTVSPropertyOp12
 70
     1
102
RTVSPropertyOp13
 70
     1
102
RTVSPropertyOp14
 70
     1
102
RTVSPropertyOp15
 70
     1
102
RTVSPropertyOp16
 70
     1
102
RTVSPropertyOp17
 70
     1
102
RTVSPropertyOp18
 70
     1
102
RTVSPropertyOp19
 70
     1
102
RTVSPropertyOp20
 70
     1
102
RTVSPropertyOp21
 70
     1
102
RTVSPropertyOp22
 70
     1
102
RTVSPropertyOp23
 70
     1
102
RTVSPropertyOp24
 70
     1
102
RTVSPropertyOp25
 70
     1
102
RTVSPropertyOp26
 70
     1
102
RTVSPropertyOp27
 70
     1
102
RTVSPropertyOp28
 70
     1
102
RTVSPropertyOp29
 70
     1
102
RTVSPropertyOp30
 70
     1
102
RTVSPropertyOp31
 70
     1
102
RTVSPropertyOp32
 70
     1
102
RTVSPropertyOp33
 70
     1
102
RTVSPropertyOp34
 70
     1
102
RTVSPropertyOp35
 70
     1
102
RTVSPropertyOp36
 70
     1
102
RTVSPropertyOp37
 70
     1
102
RTVSPropertyOp38
 70
     1
102
RTVSPropertyOp39
 70
     1
102
RTVSPropertyOp40
 70
     1
102
RTVSPropertyOp41
 70
     1
102
RTVSPropertyOp42
 70
     1
102
RTVSPropertyOp43
 70
     1
102
RTVSPropertyOp44
 70
     1
102
RTVSPropertyOp45
 70
     1
102
RTVSPropertyOp46
 70
     1
102
RTVSPropertyOp47
 70
     1
102
RTVSPropertyOp48
 70
     1
102
RTVSPropertyOp49
 70
     1
102
RTVSPropertyOp50
 70
     1
102
RTVSPropertyOp51
 70
     0
102
RTVSPropertyOp52
 70
     0
102
RTVSPropertyOp53
 70
     1
102
RTVSPropertyOp54
 70
     1
102
RTVSPropertyOp55
 70
     1
102
RTVSPropertyOp56
 70
     1
102
RTVSPropertyOp57
 70
     1
102
RTVSPropertyOp58
 70
     1
102
RTVSPropertyOp59
 70
     1
102
RTVSPropertyOp60
 70
     1
102
RTVSPropertyOp61
 70
     1
102
RTVSPropertyOp62
 70
     1
  0
XRECORD
  5
9DB
102
{ACAD_REACTORS
330
9DA
102
}
330
9DA
100
AcDbXrecord
280
     1
102
RTVSPost2010Prop28
280
     0
102
RTVSPost2010PropOp28
 70
     1
102
RTVSPost2010Prop29
280
     1
102
RTVSPost2010PropOp29
 70
     1
102
RTVSPost2010Prop30
280
     1
102
RTVSPost2010PropOp30
 70
     1
102
RTVSPost2010Prop31
280
     0
102
RTVSPost2010PropOp31
 70
     1
102
RTVSPost2010Prop32
280
     0
102
RTVSPost2010PropOp32
 70
     1
102
RTVSPost2010Prop33
280
     0
102
RTVSPost2010PropOp33
 70
     1
102
RTVSPost2010Prop34
280
     0
102
RTVSPost2010PropOp34
 70
     1
102
RTVSPost2010Prop35
280
     0
102
RTVSPost2010PropOp35
 70
     1
102
RTVSPost2010Prop36
280
     0
102
RTVSPost2010PropOp36
 70
     1
102
RTVSPost2010Prop37
 90
       50
102
RTVSPost2010PropOp37
 70
     1
102
RTVSPost2010Prop38
140
0.0
102
RTVSPost2010PropOp38
 70
     1
102
RTVSPost2010Prop39
140
1.0
102
RTVSPost2010PropOp39
 70
     1
102
RTVSPost2010Prop40
 90
        0
102
RTVSPost2010PropOp40
 70
     1
102
RTVSPost2010Prop41ColorIndex
 90
       18
102
RTVSPost2010Prop41ColorRGB
 90
        0
102
RTVSPost2010PropOp41
 70
     1
102
RTVSPost2010Prop42
 90
       50
102
RTVSPost2010PropOp42
 70
     1
102
RTVSPost2010Prop43
 90
        3
102
RTVSPost2010PropOp43
 70
     1
102
RTVSPost2010Prop44ColorIndex
 90
        5
102
RTVSPost2010Prop44ColorRGB
 90
      255
102
RTVSPost2010PropOp44
 70
     1
102
RTVSPost2010Prop45
280
     0
102
RTVSPost2010PropOp45
 70
     1
102
RTVSPost2010Prop46
 90
       50
102
RTVSPost2010PropOp46
 70
     1
102
RTVSPost2010Prop47
 90
       50
102
RTVSPost2010PropOp47
 70
     1
102
RTVSPost2010Prop48
 90
       50
102
RTVSPost2010PropOp48
 70
     1
102
RTVSPost2010Prop49
280
     0
102
RTVSPost2010PropOp49
 70
     1
102
RTVSPost2010Prop50
 90
       50
102
RTVSPost2010PropOp50
 70
     1
102
RTVSPost2010Prop51ColorIndex
 90
      256
102
RTVSPost2010Prop51ColorRGB
 90
-16777216
102
RTVSPost2010PropOp51
 70
     0
102
RTVSPost2010Prop52
140
1.0
102
RTVSPost2010PropOp52
 70
     0
102
RTVSPost2010Prop53
 90
        2
102
RTVSPost2010PropOp53
 70
     1
102
RTVSPost2010Prop54
  1
strokes_ogs.tif
102
RTVSPost2010PropOp54
 70
     1
102
RTVSPost2010Prop55
280
     0
102
RTVSPost2010PropOp55
 70
     1
102
RTVSPost2010Prop56
140
1.0
102
RTVSPost2010PropOp56
 70
     1
102
RTVSPost2010Prop57
140
1.0
102
RTVSPost2010PropOp57
 70
     1
102
RTVSPropertyOp0
 70
     1
102
RTVSPropertyOp1
 70
     1
102
RTVSPropertyOp2
 70
     1
102
RTVSPropertyOp3
 70
     1
102
RTVSPropertyOp4
 70
     1
102
RTVSPropertyOp5
 70
     1
102
RTVSPropertyOp6
 70
     1
102
RTVSPropertyOp7
 70
     1
102
RTVSPropertyOp8
 70
     1
102
RTVSPropertyOp9
 70
     1
102
RTVSPropertyOp10
 70
     1
102
RTVSPropertyOp11
 70
     1
102
RTVSPropertyOp12
 70
     1
102
RTVSPropertyOp13
 70
     1
102
RTVSPropertyOp14
 70
     1
102
RTVSPropertyOp15
 70
     1
102
RTVSPropertyOp16
 70
     1
102
RTVSPropertyOp17
 70
     1
102
RTVSPropertyOp18
 70
     1
102
RTVSPropertyOp19
 70
     1
102
RTVSPropertyOp20
 70
     1
102
RTVSPropertyOp21
 70
     1
102
RTVSPropertyOp22
 70
     1
102
RTVSPropertyOp23
 70
     1
102
RTVSPropertyOp24
 70
     1
102
RTVSPropertyOp25
 70
     1
102
RTVSPropertyOp26
 70
     1
102
RTVSPropertyOp27
 70
     1
102
RTVSPropertyOp28
 70
     1
102
RTVSPropertyOp29
 70
     1
102
RTVSPropertyOp30
 70
     1
102
RTVSPropertyOp31
 70
     1
102
RTVSPropertyOp32
 70
     1
102
RTVSPropertyOp33
 70
     1
102
RTVSPropertyOp34
 70
     1
102
RTVSPropertyOp35
 70
     1
102
RTVSPropertyOp36
 70
     1
102
RTVSPropertyOp37
 70
     1
102
RTVSPropertyOp38
 70
     1
102
RTVSPropertyOp39
 70
     1
102
RTVSPropertyOp40
 70
     1
102
RTVSPropertyOp41
 70
     1
102
RTVSPropertyOp42
 70
     1
102
RTVSPropertyOp43
 70
     1
102
RTVSPropertyOp44
 70
     1
102
RTVSPropertyOp45
 70
     1
102
RTVSPropertyOp46
 70
     1
102
RTVSPropertyOp47
 70
     1
102
RTVSPropertyOp48
 70
     1
102
RTVSPropertyOp49
 70
     1
102
RTVSPropertyOp50
 70
     1
102
RTVSPropertyOp51
 70
     0
102
RTVSPropertyOp52
 70
     0
102
RTVSPropertyOp53
 70
     1
102
RTVSPropertyOp54
 70
     1
102
RTVSPropertyOp55
 70
     1
102
RTVSPropertyOp56
 70
     1
102
RTVSPropertyOp57
 70
     1
102
RTVSPropertyOp58
 70
     1
102
RTVSPropertyOp59
 70
     1
102
RTVSPropertyOp60
 70
     1
102
RTVSPropertyOp61
 70
     1
102
RTVSPropertyOp62
 70
     1
  0
ENDSEC
  0
EOF
