  0
SECTION
  2
HEADER
  9
$ACADVER
  1
AC1015
  9
$ACADMAINTVER
 70
    20
  9
$DWGCODEPAGE
  3
ANSI_1250
  9
$INSBASE
 10
0.0
 20
0.0
 30
0.0
  9
$EXTMIN
 10
0.4117677104797509
 20
8.3763713453136
 30
-0.0000000000000002
  9
$EXTMAX
 10
144.9317167104798
 20
66.66192994435363
 30
0.0000000000000001
  9
$LIMMIN
 10
-0.5
 20
-0.5
  9
$LIMMAX
 10
5.0
 20
5.0
  9
$ORTHOMODE
 70
     1
  9
$REGENMODE
 70
     1
  9
$FILLMODE
 70
     1
  9
$QTEXTMODE
 70
     0
  9
$MIRRTEXT
 70
     1
  9
$LTSCALE
 40
1.0
  9
$ATTMODE
 70
     1
  9
$TEXTSIZE
 40
0.2
  9
$TRACEWID
 40
0.05
  9
$TEXTSTYLE
  7
Standard
  9
$CLAYER
  8
0
  9
$CELTYPE
  6
ByLayer
  9
$CECOLOR
 62
   256
  9
$CELTSCALE
 40
1.0
  9
$DISPSILH
 70
     0
  9
$DIMSCALE
 40
1.0
  9
$DIMASZ
 40
0.18
  9
$DIMEXO
 40
0.0625
  9
$DIMDLI
 40
0.38
  9
$DIMRND
 40
0.0
  9
$DIMDLE
 40
0.0
  9
$DIMEXE
 40
0.18
  9
$DIMTP
 40
0.0
  9
$DIMTM
 40
0.0
  9
$DIMTXT
 40
0.18
  9
$DIMCEN
 40
0.09
  9
$DIMTSZ
 40
0.0
  9
$DIMTOL
 70
     0
  9
$DIMLIM
 70
     0
  9
$DIMTIH
 70
     1
  9
$DIMTOH
 70
     1
  9
$DIMSE1
 70
     0
  9
$DIMSE2
 70
     0
  9
$DIMTAD
 70
     0
  9
$DIMZIN
 70
     0
  9
$DIMBLK
  1

  9
$DIMASO
 70
     1
  9
$DIMSHO
 70
     1
  9
$DIMPOST
  1

  9
$DIMAPOST
  1

  9
$DIMALT
 70
     0
  9
$DIMALTD
 70
     2
  9
$DIMALTF
 40
25.4
  9
$DIMLFAC
 40
1.0
  9
$DIMTOFL
 70
     0
  9
$DIMTVP
 40
0.0
  9
$DIMTIX
 70
     0
  9
$DIMSOXD
 70
     0
  9
$DIMSAH
 70
     0
  9
$DIMBLK1
  1

  9
$DIMBLK2
  1

  9
$DIMSTYLE
  2
Standard
  9
$DIMCLRD
 70
     0
  9
$DIMCLRE
 70
     0
  9
$DIMCLRT
 70
     0
  9
$DIMTFAC
 40
1.0
  9
$DIMGAP
 40
0.09
  9
$DIMJUST
 70
     0
  9
$DIMSD1
 70
     0
  9
$DIMSD2
 70
     0
  9
$DIMTOLJ
 70
     1
  9
$DIMTZIN
 70
     0
  9
$DIMALTZ
 70
     0
  9
$DIMALTTZ
 70
     0
  9
$DIMUPT
 70
     0
  9
$DIMDEC
 70
     4
  9
$DIMTDEC
 70
     4
  9
$DIMALTU
 70
     2
  9
$DIMALTTD
 70
     2
  9
$DIMTXSTY
  7
Standard
  9
$DIMAUNIT
 70
     0
  9
$DIMADEC
 70
     0
  9
$DIMALTRND
 40
0.0
  9
$DIMAZIN
 70
     0
  9
$DIMDSEP
 70
    46
  9
$DIMATFIT
 70
     3
  9
$DIMFRAC
 70
     0
  9
$DIMLDRBLK
  1

  9
$DIMLUNIT
 70
     2
  9
$DIMLWD
 70
    -2
  9
$DIMLWE
 70
    -2
  9
$DIMTMOVE
 70
     0
  9
$LUNITS
 70
     2
  9
$LUPREC
 70
     4
  9
$SKETCHINC
 40
0.1
  9
$FILLETRAD
 40
0.5
  9
$AUNITS
 70
     0
  9
$AUPREC
 70
     0
  9
$MENU
  1
.
  9
$ELEVATION
 40
0.0
  9
$PELEVATION
 40
0.0
  9
$THICKNESS
 40
0.0
  9
$LIMCHECK
 70
     0
  9
$CHAMFERA
 40
0.0
  9
$CHAMFERB
 40
0.0
  9
$CHAMFERC
 40
0.0
  9
$CHAMFERD
 40
0.0
  9
$SKPOLY
 70
     0
  9
$TDCREATE
 40
2459325.422523149
  9
$TDUCREATE
 40
2459325.339190915
  9
$TDUPDATE
 40
2459325.425810185
  9
$TDUUPDATE
 40
2459325.342476852
  9
$TDINDWG
 40
0.0029745486
  9
$TDUSRTIMER
 40
0.0029745486
  9
$USRTIMER
 70
     1
  9
$ANGBASE
 50
0.0
  9
$ANGDIR
 70
     0
  9
$PDMODE
 70
     0
  9
$PDSIZE
 40
0.0
  9
$PLINEWID
 40
0.0
  9
$SPLFRAME
 70
     0
  9
$SPLINETYPE
 70
     6
  9
$SPLINESEGS
 70
     8
  9
$HANDSEED
  5
5C6
  9
$SURFTAB1
 70
     6
  9
$SURFTAB2
 70
     6
  9
$SURFTYPE
 70
     6
  9
$SURFU
 70
     6
  9
$SURFV
 70
     6
  9
$UCSBASE
  2

  9
$UCSNAME
  2

  9
$UCSORG
 10
0.0
 20
0.0
 30
0.0
  9
$UCSXDIR
 10
1.0
 20
0.0
 30
0.0
  9
$UCSYDIR
 10
0.0
 20
1.0
 30
0.0
  9
$UCSORTHOREF
  2

  9
$UCSORTHOVIEW
 70
     0
  9
$UCSORGTOP
 10
0.0
 20
0.0
 30
0.0
  9
$UCSORGBOTTOM
 10
0.0
 20
0.0
 30
0.0
  9
$UCSORGLEFT
 10
0.0
 20
0.0
 30
0.0
  9
$UCSORGRIGHT
 10
0.0
 20
0.0
 30
0.0
  9
$UCSORGFRONT
 10
0.0
 20
0.0
 30
0.0
  9
$UCSORGBACK
 10
0.0
 20
0.0
 30
0.0
  9
$PUCSBASE
  2

  9
$PUCSNAME
  2

  9
$PUCSORG
 10
0.0
 20
0.0
 30
0.0
  9
$PUCSXDIR
 10
1.0
 20
0.0
 30
0.0
  9
$PUCSYDIR
 10
0.0
 20
1.0
 30
0.0
  9
$PUCSORTHOREF
  2

  9
$PUCSORTHOVIEW
 70
     0
  9
$PUCSORGTOP
 10
0.0
 20
0.0
 30
0.0
  9
$PUCSORGBOTTOM
 10
0.0
 20
0.0
 30
0.0
  9
$PUCSORGLEFT
 10
0.0
 20
0.0
 30
0.0
  9
$PUCSORGRIGHT
 10
0.0
 20
0.0
 30
0.0
  9
$PUCSORGFRONT
 10
0.0
 20
0.0
 30
0.0
  9
$PUCSORGBACK
 10
0.0
 20
0.0
 30
0.0
  9
$USERI1
 70
     0
  9
$USERI2
 70
     0
  9
$USERI3
 70
     0
  9
$USERI4
 70
     0
  9
$USERI5
 70
     0
  9
$USERR1
 40
0.0
  9
$USERR2
 40
0.0
  9
$USERR3
 40
0.0
  9
$USERR4
 40
0.0
  9
$USERR5
 40
0.0
  9
$WORLDVIEW
 70
     1
  9
$SHADEDGE
 70
     3
  9
$SHADEDIF
 70
    70
  9
$TILEMODE
 70
     1
  9
$MAXACTVP
 70
    64
  9
$PINSBASE
 10
0.0
 20
0.0
 30
0.0
  9
$PLIMCHECK
 70
     0
  9
$PEXTMIN
 10
-0.5
 20
-0.5
 30
-0.5
  9
$PEXTMAX
 10
5.0
 20
5.0
 30
5.0
  9
$PLIMMIN
 10
-0.5
 20
-0.5
  9
$PLIMMAX
 10
5.0
 20
5.0
  9
$UNITMODE
 70
     0
  9
$VISRETAIN
 70
     1
  9
$PLINEGEN
 70
     0
  9
$PSLTSCALE
 70
     1
  9
$TREEDEPTH
 70
  3020
  9
$CMLSTYLE
  2
Standard
  9
$CMLJUST
 70
     0
  9
$CMLSCALE
 40
1.0
  9
$PROXYGRAPHICS
 70
     1
  9
$MEASUREMENT
 70
     1
  9
$CELWEIGHT
370
    13
  9
$ENDCAPS
280
     0
  9
$JOINSTYLE
280
     0
  9
$LWDISPLAY
290
     0
  9
$INSUNITS
 70
     4
  9
$HYPERLINKBASE
  1

  9
$STYLESHEET
  1

  9
$XEDIT
290
     1
  9
$CEPSNTYPE
380
     0
  9
$PSTYLEMODE
290
     1
  9
$FINGERPRINTGUID
  2
{FA221EB3-2E05-48D6-B529-6DBCD1F24B72}
  9
$VERSIONGUID
  2
{2EA65014-DFF2-D941-B1FD-7F4FDDB6A4D9}
  9
$EXTNAMES
290
     1
  9
$PSVPSCALE
 40
0.0
  9
$OLESTARTUP
290
     0
  0
ENDSEC
  0
SECTION
  2
CLASSES
  0
CLASS
  1
ACDBDICTIONARYWDFLT
  2
AcDbDictionaryWithDefault
  3
ObjectDBX Classes
 90
        0
280
     0
281
     0
  0
CLASS
  1
VISUALSTYLE
  2
AcDbVisualStyle
  3
ObjectDBX Classes
 90
     4095
280
     0
281
     0
  0
CLASS
  1
MATERIAL
  2
AcDbMaterial
  3
ObjectDBX Classes
 90
     1153
280
     0
281
     0
  0
CLASS
  1
SCALE
  2
AcDbScale
  3
ObjectDBX Classes
 90
     1153
280
     0
281
     0
  0
CLASS
  1
TABLESTYLE
  2
AcDbTableStyle
  3
ObjectDBX Classes
 90
     4095
280
     0
281
     0
  0
CLASS
  1
MLEADERSTYLE
  2
AcDbMLeaderStyle
  3
ACDB_MLEADERSTYLE_CLASS
 90
     4095
280
     0
281
     0
  0
CLASS
  1
SUN
  2
AcDbSun
  3
SCENEOE
 90
    33921
280
     0
281
     0
  0
CLASS
  1
DIMASSOC
  2
AcDbDimAssoc
  3
"AcDbDimAssoc|Product Desc:     AcDim ARX App For Dimension|Company:          Autodesk, Inc.|WEB Address:      www.autodesk.com"
 90
        0
280
     0
281
     0
  0
CLASS
  1
DICTIONARYVAR
  2
AcDbDictionaryVar
  3
ObjectDBX Classes
 90
        0
280
     0
281
     0
  0
CLASS
  1
CELLSTYLEMAP
  2
AcDbCellStyleMap
  3
ObjectDBX Classes
 90
     1152
280
     0
281
     0
  0
CLASS
  1
ACDBSECTIONVIEWSTYLE
  2
AcDbSectionViewStyle
  3
ObjectDBX Classes
 90
     1025
280
     0
281
     0
  0
CLASS
  1
ACDBDETAILVIEWSTYLE
  2
AcDbDetailViewStyle
  3
ObjectDBX Classes
 90
     1025
280
     0
281
     0
  0
CLASS
  1
SORTENTSTABLE
  2
AcDbSortentsTable
  3
ObjectDBX Classes
 90
        0
280
     0
281
     0
  0
CLASS
  1
ACDBPLACEHOLDER
  2
AcDbPlaceHolder
  3
ObjectDBX Classes
 90
        0
280
     0
281
     0
  0
CLASS
  1
LAYOUT
  2
AcDbLayout
  3
ObjectDBX Classes
 90
        0
280
     0
281
     0
  0
ENDSEC
  0
SECTION
  2
TABLES
  0
TABLE
  2
VPORT
  5
8
330
0
100
AcDbSymbolTable
 70
    16
  0
VPORT
  5
29
330
8
100
AcDbSymbolTableRecord
100
AcDbViewportTableRecord
  2
*Active
 70
     0
 10
0.0
 20
0.0
 11
1.0
 21
1.0
 12
133.7901746309233
 22
23.04785549413114
 13
0.0
 23
0.0
 14
0.5
 24
0.5
 15
0.5
 25
0.5
 16
0.0
 26
0.0
 36
1.0
 17
0.0
 27
0.0
 37
0.0
 40
448.4663828008432
 41
2.283154121863799
 42
50.0
 43
788.88564
 44
-788.88564
 50
0.0
 51
0.0
 71
     0
 72
   100
 73
     1
 74
     3
 75
     0
 76
     0
 77
     0
 78
     0
281
     0
 65
     1
110
0.0
120
0.0
130
0.0
111
1.0
121
0.0
131
0.0
112
0.0
122
1.0
132
0.0
 79
     0
146
0.0
1001
ACAD_NAV_VCDISPLAY
1070
     3
  0
VPORT
  5
3AB
330
8
100
AcDbSymbolTableRecord
100
AcDbViewportTableRecord
  2
L1
 70
     0
 10
0.0
 20
0.0
 11
1.0
 21
1.0
 12
210.0
 22
148.401476
 13
0.0
 23
0.0
 14
0.5
 24
0.5
 15
0.5
 25
0.5
 16
0.0
 26
0.0
 36
1.0
 17
0.0
 27
0.0
 37
0.0
 40
219.339583
 41
0.080956
 42
50.0
 43
788.88564
 44
-788.88564
 50
0.0
 51
0.0
 71
     0
 72
   100
 73
     1
 74
     3
 75
     0
 76
     0
 77
     0
 78
     0
281
     0
 65
     1
110
0.0
120
0.0
130
0.0
111
1.0
121
0.0
131
0.0
112
0.0
122
1.0
132
0.0
 79
     0
146
0.0
  0
VPORT
  5
3AC
330
8
100
AcDbSymbolTableRecord
100
AcDbViewportTableRecord
  2
L2
 70
     0
 10
0.0
 20
0.0
 11
0.5
 21
1.0
 12
0.0
 22
0.0
 13
0.0
 23
0.0
 14
0.5
 24
0.5
 15
0.5
 25
0.5
 16
0.0
 26
-1.0
 36
0.0
 17
0.0
 27
0.0
 37
0.0
 40
1561.030612
 41
0.011375
 42
50.0
 43
807.984261
 44
-807.984261
 50
0.0
 51
0.0
 71
     0
 72
   100
 73
     1
 74
     3
 75
     0
 76
     0
 77
     0
 78
     0
281
     0
 65
     1
110
0.0
120
0.0
130
0.0
111
1.0
121
0.0
131
0.0
112
0.0
122
1.0
132
0.0
 79
     0
146
0.0
  0
VPORT
  5
3AD
330
8
100
AcDbSymbolTableRecord
100
AcDbViewportTableRecord
  2
L2
 70
     0
 10
0.5
 20
0.0
 11
1.0
 21
1.0
 12
0.0
 22
0.0
 13
0.0
 23
0.0
 14
0.5
 24
0.5
 15
0.5
 25
0.5
 16
1.0
 26
0.0
 36
0.0
 17
0.0
 27
0.0
 37
0.0
 40
1561.030612
 41
0.011375
 42
50.0
 43
788.18247
 44
-788.18247
 50
0.0
 51
0.0
 71
     0
 72
   100
 73
     1
 74
     3
 75
     0
 76
     0
 77
     0
 78
     0
281
     0
 65
     1
110
0.0
120
0.0
130
0.0
111
1.0
121
0.0
131
0.0
112
0.0
122
1.0
132
0.0
 79
     0
146
0.0
  0
VPORT
  5
3AE
330
8
100
AcDbSymbolTableRecord
100
AcDbViewportTableRecord
  2
L3
 70
     0
 10
0.0
 20
0.5
 11
1.0
 21
1.0
 12
210.0
 22
148.401476
 13
0.0
 23
0.0
 14
0.5
 24
0.5
 15
0.5
 25
0.5
 16
0.0
 26
0.0
 36
1.0
 17
0.0
 27
0.0
 37
0.0
 40
219.339583
 41
0.080956
 42
50.0
 43
788.88564
 44
-788.88564
 50
0.0
 51
0.0
 71
     0
 72
   100
 73
     1
 74
     3
 75
     0
 76
     0
 77
     0
 78
     0
281
     0
 65
     1
110
0.0
120
0.0
130
0.0
111
1.0
121
0.0
131
0.0
112
0.0
122
1.0
132
0.0
 79
     0
146
0.0
  0
VPORT
  5
3AF
330
8
100
AcDbSymbolTableRecord
100
AcDbViewportTableRecord
  2
L3
 70
     0
 10
0.0
 20
0.0
 11
1.0
 21
0.5
 12
0.0
 22
0.0
 13
0.0
 23
0.0
 14
0.5
 24
0.5
 15
0.5
 25
0.5
 16
0.0
 26
-1.0
 36
0.0
 17
0.0
 27
0.0
 37
0.0
 40
1561.030612
 41
0.011375
 42
50.0
 43
807.984261
 44
-807.984261
 50
0.0
 51
0.0
 71
     0
 72
   100
 73
     1
 74
     3
 75
     0
 76
     0
 77
     0
 78
     0
281
     0
 65
     1
110
0.0
120
0.0
130
0.0
111
1.0
121
0.0
131
0.0
112
0.0
122
1.0
132
0.0
 79
     0
146
0.0
  0
VPORT
  5
3B0
330
8
100
AcDbSymbolTableRecord
100
AcDbViewportTableRecord
  2
L4
 70
     0
 10
0.0
 20
0.5
 11
0.5
 21
1.0
 12
210.0
 22
148.401476
 13
0.0
 23
0.0
 14
0.5
 24
0.5
 15
0.5
 25
0.5
 16
0.0
 26
0.0
 36
1.0
 17
0.0
 27
0.0
 37
0.0
 40
219.339583
 41
0.080956
 42
50.0
 43
788.88564
 44
-788.88564
 50
0.0
 51
0.0
 71
     0
 72
   100
 73
     1
 74
     3
 75
     0
 76
     0
 77
     0
 78
     0
281
     0
 65
     1
110
0.0
120
0.0
130
0.0
111
1.0
121
0.0
131
0.0
112
0.0
122
1.0
132
0.0
 79
     0
146
0.0
  0
VPORT
  5
3B1
330
8
100
AcDbSymbolTableRecord
100
AcDbViewportTableRecord
  2
L4
 70
     0
 10
0.0
 20
0.0
 11
0.5
 21
0.5
 12
0.0
 22
0.0
 13
0.0
 23
0.0
 14
0.5
 24
0.5
 15
0.5
 25
0.5
 16
0.0
 26
-1.0
 36
0.0
 17
0.0
 27
0.0
 37
0.0
 40
1561.030612
 41
0.011375
 42
50.0
 43
807.984261
 44
-807.984261
 50
0.0
 51
0.0
 71
     0
 72
   100
 73
     1
 74
     3
 75
     0
 76
     0
 77
     0
 78
     0
281
     0
 65
     1
110
0.0
120
0.0
130
0.0
111
1.0
121
0.0
131
0.0
112
0.0
122
1.0
132
0.0
 79
     0
146
0.0
  0
VPORT
  5
3B2
330
8
100
AcDbSymbolTableRecord
100
AcDbViewportTableRecord
  2
L4
 70
     0
 10
0.5
 20
0.0
 11
1.0
 21
0.5
 12
0.0
 22
0.0
 13
0.0
 23
0.0
 14
0.5
 24
0.5
 15
0.5
 25
0.5
 16
1.0
 26
0.0
 36
0.0
 17
0.0
 27
0.0
 37
0.0
 40
1561.030612
 41
0.011375
 42
50.0
 43
788.18247
 44
-788.18247
 50
0.0
 51
0.0
 71
     0
 72
   100
 73
     1
 74
     3
 75
     0
 76
     0
 77
     0
 78
     0
281
     0
 65
     1
110
0.0
120
0.0
130
0.0
111
1.0
121
0.0
131
0.0
112
0.0
122
1.0
132
0.0
 79
     0
146
0.0
  0
VPORT
  5
3B3
330
8
100
AcDbSymbolTableRecord
100
AcDbViewportTableRecord
  2
L4
 70
     0
 10
0.5
 20
0.5
 11
1.0
 21
1.0
 12
0.0
 22
0.0
 13
0.0
 23
0.0
 14
0.5
 24
0.5
 15
0.5
 25
0.5
 16
0.5773502691896259
 26
-0.5773502691896259
 36
0.5773502691896259
 17
0.0
 27
0.0
 37
0.0
 40
1534.677948
 41
0.01157
 42
50.0
 43
799.7179539999999
 44
-799.7179539999999
 50
0.0
 51
0.0
 71
     0
 72
   100
 73
     1
 74
     3
 75
     0
 76
     0
 77
     0
 78
     0
281
     0
 65
     1
110
0.0
120
0.0
130
0.0
111
1.0
121
0.0
131
0.0
112
0.0
122
1.0
132
0.0
 79
     0
146
0.0
  0
VPORT
  5
3B4
330
8
100
AcDbSymbolTableRecord
100
AcDbViewportTableRecord
  2
L6
 70
     0
 10
0.0
 20
0.5
 11
0.333333
 21
1.0
 12
0.0
 22
0.0
 13
0.0
 23
0.0
 14
0.5
 24
0.5
 15
0.5
 25
0.5
 16
0.7188730927569434
 26
-0.5850486126764433
 36
0.3754192287502549
 17
0.0
 27
0.0
 37
0.0
 40
1620.473525
 41
0.010958
 42
50.0
 43
838.7703209999999
 44
-838.7703209999999
 50
0.0
 51
0.0
 71
     0
 72
   100
 73
     1
 74
     3
 75
     0
 76
     0
 77
     0
 78
     0
281
     0
 65
     1
110
0.0
120
0.0
130
0.0
111
1.0
121
0.0
131
0.0
112
0.0
122
1.0
132
0.0
 79
     0
146
0.0
  0
VPORT
  5
3B5
330
8
100
AcDbSymbolTableRecord
100
AcDbViewportTableRecord
  2
L6
 70
     0
 10
0.0
 20
0.0
 11
0.333333
 21
0.5
 12
0.0
 22
0.0
 13
0.0
 23
0.0
 14
0.5
 24
0.5
 15
0.5
 25
0.5
 16
-1.0
 26
0.0
 36
0.0
 17
0.0
 27
0.0
 37
0.0
 40
1561.030612
 41
0.011375
 42
50.0
 43
788.18247
 44
-788.18247
 50
0.0
 51
0.0
 71
     0
 72
   100
 73
     1
 74
     3
 75
     0
 76
     0
 77
     0
 78
     0
281
     0
 65
     1
110
0.0
120
0.0
130
0.0
111
1.0
121
0.0
131
0.0
112
0.0
122
1.0
132
0.0
 79
     0
146
0.0
  0
VPORT
  5
3B6
330
8
100
AcDbSymbolTableRecord
100
AcDbViewportTableRecord
  2
L6
 70
     0
 10
0.333333
 20
0.5
 11
0.666667
 21
1.0
 12
210.0
 22
148.401476
 13
0.0
 23
0.0
 14
0.5
 24
0.5
 15
0.5
 25
0.5
 16
0.0
 26
0.0
 36
1.0
 17
0.0
 27
0.0
 37
0.0
 40
219.339583
 41
0.080956
 42
50.0
 43
788.88564
 44
-788.88564
 50
0.0
 51
0.0
 71
     0
 72
   100
 73
     1
 74
     3
 75
     0
 76
     0
 77
     0
 78
     0
281
     0
 65
     1
110
0.0
120
0.0
130
0.0
111
1.0
121
0.0
131
0.0
112
0.0
122
1.0
132
0.0
 79
     0
146
0.0
  0
VPORT
  5
3B7
330
8
100
AcDbSymbolTableRecord
100
AcDbViewportTableRecord
  2
L6
 70
     0
 10
0.333333
 20
0.0
 11
0.666667
 21
0.5
 12
0.0
 22
0.0
 13
0.0
 23
0.0
 14
0.5
 24
0.5
 15
0.5
 25
0.5
 16
0.0
 26
-1.0
 36
0.0
 17
0.0
 27
0.0
 37
0.0
 40
1561.030612
 41
0.011375
 42
50.0
 43
807.984261
 44
-807.984261
 50
0.0
 51
0.0
 71
     0
 72
   100
 73
     1
 74
     3
 75
     0
 76
     0
 77
     0
 78
     0
281
     0
 65
     1
110
0.0
120
0.0
130
0.0
111
1.0
121
0.0
131
0.0
112
0.0
122
1.0
132
0.0
 79
     0
146
0.0
  0
VPORT
  5
3B8
330
8
100
AcDbSymbolTableRecord
100
AcDbViewportTableRecord
  2
L6
 70
     0
 10
0.666667
 20
0.5
 11
1.0
 21
1.0
 12
0.0
 22
0.0
 13
0.0
 23
0.0
 14
0.5
 24
0.5
 15
0.5
 25
0.5
 16
0.5773502691896259
 26
-0.5773502691896259
 36
0.5773502691896259
 17
0.0
 27
0.0
 37
0.0
 40
1534.677948
 41
0.01157
 42
50.0
 43
799.7179539999999
 44
-799.7179539999999
 50
0.0
 51
0.0
 71
     0
 72
   100
 73
     1
 74
     3
 75
     0
 76
     0
 77
     0
 78
     0
281
     0
 65
     1
110
0.0
120
0.0
130
0.0
111
1.0
121
0.0
131
0.0
112
0.0
122
1.0
132
0.0
 79
     0
146
0.0
  0
VPORT
  5
3B9
330
8
100
AcDbSymbolTableRecord
100
AcDbViewportTableRecord
  2
L6
 70
     0
 10
0.666667
 20
0.0
 11
1.0
 21
0.5
 12
0.0
 22
0.0
 13
0.0
 23
0.0
 14
0.5
 24
0.5
 15
0.5
 25
0.5
 16
1.0
 26
0.0
 36
0.0
 17
0.0
 27
0.0
 37
0.0
 40
1561.030612
 41
0.011375
 42
50.0
 43
788.18247
 44
-788.18247
 50
0.0
 51
0.0
 71
     0
 72
   100
 73
     1
 74
     3
 75
     0
 76
     0
 77
     0
 78
     0
281
     0
 65
     1
110
0.0
120
0.0
130
0.0
111
1.0
121
0.0
131
0.0
112
0.0
122
1.0
132
0.0
 79
     0
146
0.0
  0
ENDTAB
  0
TABLE
  2
LTYPE
  5
5
330
0
100
AcDbSymbolTable
 70
     6
  0
LTYPE
  5
14
330
5
100
AcDbSymbolTableRecord
100
AcDbLinetypeTableRecord
  2
ByBlock
 70
     0
  3

 72
    65
 73
     0
 40
0.0
  0
LTYPE
  5
15
330
5
100
AcDbSymbolTableRecord
100
AcDbLinetypeTableRecord
  2
ByLayer
 70
     0
  3

 72
    65
 73
     0
 40
0.0
  0
LTYPE
  5
16
330
5
100
AcDbSymbolTableRecord
100
AcDbLinetypeTableRecord
  2
Continuous
 70
     0
  3
Solid line
 72
    65
 73
     0
 40
0.0
  0
LTYPE
  5
6E
330
5
100
AcDbSymbolTableRecord
100
AcDbLinetypeTableRecord
  2
CENTER
 70
     0
  3
____ _ ____ _ ____ _ ____
 72
    65
 73
     4
 40
47.4
 49
22.0
 74
     4
 75
     0
340
0
 46
0.0
 50
0.0
 44
0.0
 45
0.0
 49
-8.5
 74
     4
 75
     0
340
0
 46
0.0
 50
0.0
 44
0.0
 45
0.0
 49
8.5
 74
     4
 75
     0
340
0
 46
0.0
 50
0.0
 44
0.0
 45
0.0
 49
-8.5
 74
     4
 75
     0
340
0
 46
0.0
 50
0.0
 44
0.0
 45
0.0
  0
LTYPE
  5
6F
330
5
100
AcDbSymbolTableRecord
100
AcDbLinetypeTableRecord
  2
DASHDOT
 70
     0
  3
_._._._._._._._._._._._._._._._.
 72
    65
 73
     4
 40
70.0
 49
31.0
 74
     4
 75
     0
340
0
 46
0.0
 50
0.0
 44
0.0
 45
0.0
 49
-13.0
 74
     4
 75
     0
340
0
 46
0.0
 50
0.0
 44
0.0
 45
0.0
 49
13.0
 74
     4
 75
     0
340
0
 46
0.0
 50
0.0
 44
0.0
 45
0.0
 49
-13.0
 74
     4
 75
     0
340
0
 46
0.0
 50
0.0
 44
0.0
 45
0.0
  0
LTYPE
  5
70
330
5
100
AcDbSymbolTableRecord
100
AcDbLinetypeTableRecord
  2
DASHED
 70
     0
  3
__ __ __ __ __ __ __ __ __
 72
    65
 73
     2
 40
25.72
 49
12.86
 74
     4
 75
     0
340
0
 46
0.0
 50
0.0
 44
0.0
 45
0.0
 49
-12.86
 74
     4
 75
     0
340
0
 46
0.0
 50
0.0
 44
0.0
 45
0.0
  0
LTYPE
  5
71
330
5
100
AcDbSymbolTableRecord
100
AcDbLinetypeTableRecord
  2
DOT
 70
     0
  3
.........................
 72
    65
 73
     2
 40
10.0
 49
0.0
 74
     4
 75
     0
340
0
 46
0.0
 50
0.0
 44
0.0
 45
0.0
 49
-10.0
 74
     4
 75
     0
340
0
 46
0.0
 50
0.0
 44
0.0
 45
0.0
  0
LTYPE
  5
72
330
5
100
AcDbSymbolTableRecord
100
AcDbLinetypeTableRecord
  2
PHANTOM
 70
     0
  3
____ _ _ ____ _ _ _____ _ _ ____
 72
    65
 73
     6
 40
50.5
 49
18.0
 74
     4
 75
     0
340
0
 46
0.0
 50
0.0
 44
0.0
 45
0.0
 49
-6.5
 74
     4
 75
     0
340
0
 46
0.0
 50
0.0
 44
0.0
 45
0.0
 49
6.5
 74
     4
 75
     0
340
0
 46
0.0
 50
0.0
 44
0.0
 45
0.0
 49
-6.5
 74
     4
 75
     0
340
0
 46
0.0
 50
0.0
 44
0.0
 45
0.0
 49
6.5
 74
     4
 75
     0
340
0
 46
0.0
 50
0.0
 44
0.0
 45
0.0
 49
-6.5
 74
     4
 75
     0
340
0
 46
0.0
 50
0.0
 44
0.0
 45
0.0
  0
ENDTAB
  0
TABLE
  2
LAYER
  5
2
330
0
100
AcDbSymbolTable
 70
    14
  0
LAYER
  5
10
102
{ACAD_XDICTIONARY
360
566
102
}
330
2
100
AcDbSymbolTableRecord
100
AcDbLayerTableRecord
  2
0
 70
     0
 62
     7
  6
Continuous
370
    -3
390
F
  0
LAYER
  5
74
102
{ACAD_XDICTIONARY
360
568
102
}
330
2
100
AcDbSymbolTableRecord
100
AcDbLayerTableRecord
  2
250
 70
     0
 62
     7
  6
Continuous
370
    -3
390
F
  0
LAYER
  5
76
102
{ACAD_XDICTIONARY
360
56A
102
}
330
2
100
AcDbSymbolTableRecord
100
AcDbLayerTableRecord
  2
41
 70
     0
 62
     7
  6
Continuous
370
    -3
390
F
  0
LAYER
  5
8A
102
{ACAD_XDICTIONARY
360
56C
102
}
330
2
100
AcDbSymbolTableRecord
100
AcDbLayerTableRecord
  2
15
 70
     0
 62
     7
  6
Continuous
370
    -3
390
F
  0
LAYER
  5
8C
102
{ACAD_XDICTIONARY
360
56E
102
}
330
2
100
AcDbSymbolTableRecord
100
AcDbLayerTableRecord
  2
10
 70
     0
 62
     7
  6
Continuous
370
    -3
390
F
  0
LAYER
  5
9A
102
{ACAD_XDICTIONARY
360
570
102
}
330
2
100
AcDbSymbolTableRecord
100
AcDbLayerTableRecord
  2
16
 70
     0
 62
     7
  6
Continuous
370
    -3
390
F
  0
LAYER
  5
1EF
330
2
100
AcDbSymbolTableRecord
100
AcDbLayerTableRecord
  2
Defpoints
 70
     0
 62
     7
  6
Continuous
290
     0
370
    -3
390
F
  0
LAYER
  5
44B
102
{ACAD_XDICTIONARY
360
572
102
}
330
2
100
AcDbSymbolTableRecord
100
AcDbLayerTableRecord
  2
1
 70
     0
 62
     4
  6
Continuous
370
    -3
390
F
1001
AcAecLayerStandard
1000

1000

1001
AcCmTransparency
1071
        0
  0
LAYER
  5
44E
102
{ACAD_XDICTIONARY
360
574
102
}
330
2
100
AcDbSymbolTableRecord
100
AcDbLayerTableRecord
  2
2
 70
     0
 62
     7
  6
Continuous
370
    -3
390
F
1001
AcAecLayerStandard
1000

1000

1001
AcCmTransparency
1071
        0
  0
LAYER
  5
44F
102
{ACAD_XDICTIONARY
360
576
102
}
330
2
100
AcDbSymbolTableRecord
100
AcDbLayerTableRecord
  2
SK1
 70
     0
 62
     4
  6
Continuous
370
    -3
390
F
1001
AcAecLayerStandard
1000

1000

1001
AcCmTransparency
1071
        0
  0
LAYER
  5
450
102
{ACAD_XDICTIONARY
360
578
102
}
330
2
100
AcDbSymbolTableRecord
100
AcDbLayerTableRecord
  2
SK2
 70
     0
 62
     7
  6
Continuous
370
    -3
390
F
1001
AcAecLayerStandard
1000

1000

1001
AcCmTransparency
1071
        0
  0
LAYER
  5
451
102
{ACAD_XDICTIONARY
360
57A
102
}
330
2
100
AcDbSymbolTableRecord
100
AcDbLayerTableRecord
  2
SK6
 70
     0
 62
     5
  6
Continuous
370
    -3
390
F
1001
AcAecLayerStandard
1000

1000

1001
AcCmTransparency
1071
        0
  0
LAYER
  5
452
102
{ACAD_XDICTIONARY
360
57C
102
}
330
2
100
AcDbSymbolTableRecord
100
AcDbLayerTableRecord
  2
CUT
 70
     0
 62
     1
  6
Continuous
370
    -3
390
F
1001
AcAecLayerStandard
1000

1000

1001
AcCmTransparency
1071
        0
  0
LAYER
  5
453
102
{ACAD_XDICTIONARY
360
57E
102
}
330
2
100
AcDbSymbolTableRecord
100
AcDbLayerTableRecord
  2
NOCUT
 70
     0
 62
     7
  6
Continuous
370
    -3
390
F
1001
AcAecLayerStandard
1000

1000

1001
AcCmTransparency
1071
        0
  0
ENDTAB
  0
TABLE
  2
STYLE
  5
3
330
0
100
AcDbSymbolTable
 70
     4
  0
STYLE
  5
11
330
3
100
AcDbSymbolTableRecord
100
AcDbTextStyleTableRecord
  2
Standard
 70
     0
 40
0.0
 41
1.0
 50
0.0
 71
     0
 42
0.2
  3
txt
  4

  0
STYLE
  5
1A3
330
3
100
AcDbSymbolTableRecord
100
AcDbTextStyleTableRecord
  2
iso_b_vert
 70
     0
 40
0.0
 41
1.0
 50
0.0
 71
     0
 42
0.2
  3
simplex.shx
  4

  0
STYLE
  5
1A4
330
3
100
AcDbSymbolTableRecord
100
AcDbTextStyleTableRecord
  2
DWGDirectTextStyle
 70
     0
 40
0.0
 41
1.0
 50
0.0
 71
     0
 42
0.2
  3
simplex
  4

  0
STYLE
  5
1D2
330
3
100
AcDbSymbolTableRecord
100
AcDbTextStyleTableRecord
  2
blockfont
 70
     0
 40
0.0
 41
1.0
 50
0.0
 71
     0
 42
0.2
  3
simplex.shx
  4

  0
ENDTAB
  0
TABLE
  2
VIEW
  5
6
330
0
100
AcDbSymbolTable
 70
     0
  0
ENDTAB
  0
TABLE
  2
UCS
  5
7
330
0
100
AcDbSymbolTable
 70
     0
  0
ENDTAB
  0
TABLE
  2
APPID
  5
9
330
0
100
AcDbSymbolTable
 70
     9
  0
APPID
  5
12
330
9
100
AcDbSymbolTableRecord
100
AcDbRegAppTableRecord
  2
ACAD
 70
     0
  0
APPID
  5
1EB
330
9
100
AcDbSymbolTableRecord
100
AcDbRegAppTableRecord
  2
ACAD_DSTYLE_DIMBREAK
 70
     0
  0
APPID
  5
3BA
330
9
100
AcDbSymbolTableRecord
100
AcDbRegAppTableRecord
  2
ACAD_DSTYLE_DIM_LINETYPE
 70
     0
  0
APPID
  5
3BB
330
9
100
AcDbSymbolTableRecord
100
AcDbRegAppTableRecord
  2
ACAD_DSTYLE_DIM_EXT1_LINETYPE
 70
     0
  0
APPID
  5
3BC
330
9
100
AcDbSymbolTableRecord
100
AcDbRegAppTableRecord
  2
ACAD_DSTYLE_DIM_EXT2_LINETYPE
 70
     0
  0
APPID
  5
3FC
330
9
100
AcDbSymbolTableRecord
100
AcDbRegAppTableRecord
  2
ACAD_MLEADERVER
 70
     0
  0
APPID
  5
44C
330
9
100
AcDbSymbolTableRecord
100
AcDbRegAppTableRecord
  2
AcAecLayerStandard
 70
     0
  0
APPID
  5
44D
330
9
100
AcDbSymbolTableRecord
100
AcDbRegAppTableRecord
  2
AcCmTransparency
 70
     0
  0
APPID
  5
587
330
9
100
AcDbSymbolTableRecord
100
AcDbRegAppTableRecord
  2
ACAD_NAV_VCDISPLAY
 70
     0
  0
ENDTAB
  0
TABLE
  2
DIMSTYLE
  5
A
330
0
100
AcDbSymbolTable
 70
     1
100
AcDbDimStyleTable
 71
     0
  0
DIMSTYLE
105
27
102
{ACAD_REACTORS
330
207
102
}
330
A
100
AcDbSymbolTableRecord
100
AcDbDimStyleTableRecord
  2
Standard
 70
     0
340
11
1001
ACAD_DSTYLE_DIMBREAK
1070
   391
1040
6.349999999999999
  0
ENDTAB
  0
TABLE
  2
BLOCK_RECORD
  5
1
330
0
100
AcDbSymbolTable
 70
    18
  0
BLOCK_RECORD
  5
1F
102
{ACAD_XDICTIONARY
360
46B
102
}
330
1
100
AcDbSymbolTableRecord
100
AcDbBlockTableRecord
  2
*Model_Space
340
22
  0
BLOCK_RECORD
  5
1B
330
1
100
AcDbSymbolTableRecord
100
AcDbBlockTableRecord
  2
*Paper_Space
340
1E
  0
BLOCK_RECORD
  5
23
330
1
100
AcDbSymbolTableRecord
100
AcDbBlockTableRecord
  2
*Paper_Space0
340
26
  0
BLOCK_RECORD
  5
1BF
330
1
100
AcDbSymbolTableRecord
100
AcDbBlockTableRecord
  2
LABLE3D_1
340
0
  0
BLOCK_RECORD
  5
1C8
330
1
100
AcDbSymbolTableRecord
100
AcDbBlockTableRecord
  2
LABLE3D_2
340
0
  0
BLOCK_RECORD
  5
1E2
330
1
100
AcDbSymbolTableRecord
100
AcDbBlockTableRecord
  2
LABLE3D_3
340
0
  0
BLOCK_RECORD
  5
1F0
330
1
100
AcDbSymbolTableRecord
100
AcDbBlockTableRecord
  2
*D4
340
0
  0
BLOCK_RECORD
  5
1FC
330
1
100
AcDbSymbolTableRecord
100
AcDbBlockTableRecord
  2
_U0
340
0
  0
BLOCK_RECORD
  5
20A
330
1
100
AcDbSymbolTableRecord
100
AcDbBlockTableRecord
  2
*D6
340
0
  0
BLOCK_RECORD
  5
217
330
1
100
AcDbSymbolTableRecord
100
AcDbBlockTableRecord
  2
_U1
340
0
  0
BLOCK_RECORD
  5
223
330
1
100
AcDbSymbolTableRecord
100
AcDbBlockTableRecord
  2
*D8
340
0
  0
BLOCK_RECORD
  5
22F
330
1
100
AcDbSymbolTableRecord
100
AcDbBlockTableRecord
  2
_U2
340
0
  0
BLOCK_RECORD
  5
23C
330
1
100
AcDbSymbolTableRecord
100
AcDbBlockTableRecord
  2
*D10
340
0
  0
BLOCK_RECORD
  5
248
330
1
100
AcDbSymbolTableRecord
100
AcDbBlockTableRecord
  2
_U3
340
0
  0
BLOCK_RECORD
  5
252
330
1
100
AcDbSymbolTableRecord
100
AcDbBlockTableRecord
  2
TOL_TABLE
340
0
  0
BLOCK_RECORD
  5
294
330
1
100
AcDbSymbolTableRecord
100
AcDbBlockTableRecord
  2
TabularNote1
340
0
  0
BLOCK_RECORD
  5
2B5
330
1
100
AcDbSymbolTableRecord
100
AcDbBlockTableRecord
  2
TabularNote2
340
0
  0
BLOCK_RECORD
  5
2F7
330
1
100
AcDbSymbolTableRecord
100
AcDbBlockTableRecord
  2
TabularNote3
340
0
  0
BLOCK_RECORD
  5
327
330
1
100
AcDbSymbolTableRecord
100
AcDbBlockTableRecord
  2
MODIFICATION_TABLE
340
0
  0
BLOCK_RECORD
  5
34B
330
1
100
AcDbSymbolTableRecord
100
AcDbBlockTableRecord
  2
BOM
340
0
  0
ENDTAB
  0
ENDSEC
  0
SECTION
  2
BLOCKS
  0
BLOCK
  5
20
330
1F
100
AcDbEntity
  8
0
100
AcDbBlockBegin
  2
*Model_Space
 70
     0
 10
0.0
 20
0.0
 30
0.0
  3
*Model_Space
  1

  0
ENDBLK
  5
21
330
1F
100
AcDbEntity
  8
0
100
AcDbBlockEnd
  0
BLOCK
  5
1C
330
1B
100
AcDbEntity
 67
     1
  8
0
100
AcDbBlockBegin
  2
*Paper_Space
 70
     0
 10
0.0
 20
0.0
 30
0.0
  3
*Paper_Space
  1

  0
ENDBLK
  5
1D
330
1B
100
AcDbEntity
 67
     1
  8
0
100
AcDbBlockEnd
  0
BLOCK
  5
24
330
23
100
AcDbEntity
 67
     1
  8
0
100
AcDbBlockBegin
  2
*Paper_Space0
 70
     0
 10
0.0
 20
0.0
 30
0.0
  3
*Paper_Space0
  1

  0
ENDBLK
  5
25
330
23
100
AcDbEntity
 67
     1
  8
0
100
AcDbBlockEnd
  0
BLOCK
  5
1C6
330
1BF
100
AcDbEntity
  8
0
100
AcDbBlockBegin
  2
LABLE3D_1
 70
     0
 10
105.91854
 20
100.029955
 30
0.0
  3
LABLE3D_1
  1

  0
MTEXT
  5
1C4
330
1BF
100
AcDbEntity
  8
41
  6
Continuous
 62
     3
370
    18
100
AcDbMText
 10
103.985597
 20
97.91507000000001
 30
0.0
 40
3.0
 41
0.0
 71
     7
 72
     5
  1
\W0.7875;1
  7
iso_b_vert
 73
     2
 44
1.084337
1001
ACAD
1000
MTEXTBEGIN
1070
    73
1070
     2
1070
    44
1040
1.084337
1070
    74
1070
     0
1000
MTEXTEND
  0
ENDBLK
  5
1C7
330
1BF
100
AcDbEntity
  8
0
100
AcDbBlockEnd
  0
BLOCK
  5
1CF
330
1C8
100
AcDbEntity
  8
0
100
AcDbBlockBegin
  2
LABLE3D_2
 70
     0
 10
37.364366
 20
68.31494000000001
 30
0.0
  3
LABLE3D_2
  1

  0
MTEXT
  5
1CD
330
1C8
100
AcDbEntity
  8
41
  6
Continuous
 62
     3
370
    18
100
AcDbMText
 10
34.681538
 20
66.20005400000001
 30
0.0
 40
3.0
 41
0.0
 71
     7
 72
     5
  1
\W0.6563;2
  7
iso_b_vert
 73
     2
 44
1.084337
1001
ACAD
1000
MTEXTBEGIN
1070
    73
1070
     2
1070
    44
1040
1.084337
1070
    74
1070
     0
1000
MTEXTEND
  0
ENDBLK
  5
1D0
330
1C8
100
AcDbEntity
  8
0
100
AcDbBlockEnd
  0
BLOCK
  5
1E9
330
1E2
100
AcDbEntity
  8
0
100
AcDbBlockBegin
  2
LABLE3D_3
 70
     0
 10
37.364366
 20
56.686276
 30
0.0
  3
LABLE3D_3
  1

  0
MTEXT
  5
1E7
330
1E2
100
AcDbEntity
  8
41
  6
Continuous
 62
     3
370
    18
100
AcDbMText
 10
34.681538
 20
54.57139
 30
0.0
 40
3.0
 41
0.0
 71
     7
 72
     5
  1
\W0.6563;3
  7
iso_b_vert
 73
     2
 44
1.084337
1001
ACAD
1000
MTEXTBEGIN
1070
    73
1070
     2
1070
    44
1040
1.084337
1070
    74
1070
     0
1000
MTEXTEND
  0
ENDBLK
  5
1EA
330
1E2
100
AcDbEntity
  8
0
100
AcDbBlockEnd
  0
BLOCK
  5
1F1
330
1F0
100
AcDbEntity
  8
0
100
AcDbBlockBegin
  2
*D4
 70
     1
 10
0.0
 20
0.0
 30
0.0
  3
*D4
  1

  0
LINE
  5
1F3
330
1F0
100
AcDbEntity
  8
0
  6
Continuous
 62
     4
370
    -2
100
AcDbLine
 10
136.908362
 20
257.581961
 30
0.0
 11
136.908362
 21
270.053794
 31
0.0
  0
LINE
  5
1F4
330
1F0
100
AcDbEntity
  8
0
  6
Continuous
 62
     4
370
    -2
100
AcDbLine
 10
96.60023000000002
 20
257.581961
 30
0.0
 11
96.60023000000002
 21
270.053794
 31
0.0
  0
LINE
  5
1F5
330
1F0
100
AcDbEntity
  8
0
  6
Continuous
 62
     4
370
    -2
100
AcDbLine
 10
133.733362
 20
268.053794
 30
0.0
 11
99.77523000000001
 21
268.053794
 31
0.0
  0
SOLID
  5
1F6
330
1F0
100
AcDbEntity
  8
0
 62
     4
100
AcDbTrace
 10
133.733362
 20
267.524627
 30
0.0
 11
133.733362
 21
268.58296
 31
0.0
 12
136.908362
 22
268.053794
 32
0.0
 13
136.908362
 23
268.053794
 33
0.0
  0
SOLID
  5
1F7
330
1F0
100
AcDbEntity
  8
0
 62
     4
100
AcDbTrace
 10
99.77523000000001
 20
268.58296
 30
0.0
 11
99.77523000000001
 21
267.524627
 31
0.0
 12
96.60023000000002
 22
268.053794
 32
0.0
 13
96.60023000000002
 23
268.053794
 33
0.0
  0
MTEXT
  5
1F8
330
1F0
100
AcDbEntity
  8
0
 62
     3
370
    13
100
AcDbMText
 10
110.254296
 20
274.125222
 30
0.0
 40
3.0
 41
0.0
 71
     1
 72
     1
  1
\A1;(20,2)
  7
iso_b_vert
 73
     1
 44
1.0
1001
ACAD
1000
MTEXTBEGIN
1070
    73
1070
     1
1070
    44
1040
1.0
1070
    74
1070
     0
1000
MTEXTEND
  0
POINT
  5
1F9
330
1F0
100
AcDbEntity
  8
Defpoints
 62
     0
100
AcDbPoint
 10
136.908362
 20
257.581961
 30
0.0
  0
POINT
  5
1FA
330
1F0
100
AcDbEntity
  8
Defpoints
 62
     0
100
AcDbPoint
 10
96.60023000000002
 20
257.581961
 30
0.0
  0
POINT
  5
1FB
330
1F0
100
AcDbEntity
  8
Defpoints
 62
     0
100
AcDbPoint
 10
96.60023000000002
 20
268.053794
 30
0.0
  0
ENDBLK
  5
1F2
330
1F0
100
AcDbEntity
  8
0
100
AcDbBlockEnd
  0
BLOCK
  5
205
330
1FC
100
AcDbEntity
  8
0
100
AcDbBlockBegin
  2
_U0
 70
     0
 10
0.0
 20
0.0
 30
0.0
  3
_U0
  1

  0
MTEXT
  5
1FD
330
1FC
100
AcDbEntity
  8
41
  6
Continuous
 62
     3
370
    18
100
AcDbMText
 10
113.471811
 20
270.251408
 30
0.0
 40
3.0
 41
0.0
 71
     7
 72
     5
  1
\W0.7485;20,2
  7
iso_b_vert
 73
     2
 44
0.9879520000000001
1001
ACAD
1000
MTEXTBEGIN
1070
    73
1070
     2
1070
    44
1040
0.9879520000000001
1070
    74
1070
     0
1000
MTEXTEND
  0
MTEXT
  5
1FE
330
1FC
100
AcDbEntity
  8
41
  6
Continuous
 62
     3
370
    18
100
AcDbMText
 10
111.371811
 20
270.251408
 30
0.0
 40
3.0
 41
0.0
 71
     7
 72
     5
  1
\W1.3868;{\H1.88x;(}
  7
iso_b_vert
 73
     2
 44
0.9879520000000001
1001
ACAD
1000
MTEXTBEGIN
1070
    73
1070
     2
1070
    44
1040
0.9879520000000001
1070
    74
1070
     0
1000
MTEXTEND
  0
MTEXT
  5
1FF
330
1FC
100
AcDbEntity
  8
41
  6
Continuous
 62
     3
370
    18
100
AcDbMText
 10
120.354781
 20
270.251408
 30
0.0
 40
3.0
 41
0.0
 71
     7
 72
     5
  1
\W1.3868;{\H1.88x;)}
  7
iso_b_vert
 73
     2
 44
0.9879520000000001
1001
ACAD
1000
MTEXTBEGIN
1070
    73
1070
     2
1070
    44
1040
0.9879520000000001
1070
    74
1070
     0
1000
MTEXTEND
  0
LINE
  5
200
330
1FC
100
AcDbEntity
  8
41
 62
     4
370
    13
100
AcDbLine
 10
136.908362
 20
257.581961
 30
0.0
 11
136.908362
 21
270.053794
 31
0.0
  0
LINE
  5
201
330
1FC
100
AcDbEntity
  8
41
 62
     4
370
    13
100
AcDbLine
 10
96.60023000000002
 20
257.581961
 30
0.0
 11
96.60023000000002
 21
270.053794
 31
0.0
  0
LINE
  5
202
330
1FC
100
AcDbEntity
  8
41
 62
     4
370
    13
100
AcDbLine
 10
136.908362
 20
268.053794
 30
0.0
 11
96.60023000000002
 21
268.053794
 31
0.0
  0
SOLID
  5
203
330
1FC
100
AcDbEntity
  8
41
 62
     4
370
    13
100
AcDbTrace
 10
136.908362
 20
268.053794
 30
0.0
 11
133.733364
 21
267.635797
 31
0.0
 12
133.73336
 22
268.47179
 32
0.0
 13
133.73336
 23
268.47179
 33
0.0
  0
SOLID
  5
204
330
1FC
100
AcDbEntity
  8
41
 62
     4
370
    13
100
AcDbTrace
 10
96.60023000000002
 20
268.053794
 30
0.0
 11
99.77522900000002
 21
268.47179
 31
0.0
 12
99.775232
 22
267.635797
 32
0.0
 13
99.775232
 23
267.635797
 33
0.0
  0
ENDBLK
  5
206
330
1FC
100
AcDbEntity
  8
0
100
AcDbBlockEnd
  0
BLOCK
  5
20B
330
20A
100
AcDbEntity
  8
0
100
AcDbBlockBegin
  2
*D6
 70
     1
 10
0.0
 20
0.0
 30
0.0
  3
*D6
  1

  0
LINE
  5
20D
330
20A
100
AcDbEntity
  8
0
 62
     4
370
    -2
100
AcDbLine
 10
284.09796
 20
192.437479
 30
0.0
 11
294.678521
 21
192.437479
 31
0.0
  0
LINE
  5
20E
330
20A
100
AcDbEntity
  8
0
 62
     4
370
    -2
100
AcDbLine
 10
284.09796
 20
180.437479
 30
0.0
 11
294.678521
 21
180.437479
 31
0.0
  0
LINE
  5
20F
330
20A
100
AcDbEntity
  8
0
 62
     4
370
    -2
100
AcDbLine
 10
292.678521
 20
195.612479
 30
0.0
 11
292.678521
 21
198.787479
 31
0.0
  0
LINE
  5
210
330
20A
100
AcDbEntity
  8
0
 62
     4
370
    -2
100
AcDbLine
 10
292.678521
 20
177.262479
 30
0.0
 11
292.678521
 21
174.087479
 31
0.0
  0
SOLID
  5
211
330
20A
100
AcDbEntity
  8
0
 62
     4
100
AcDbTrace
 10
292.149354
 20
195.612479
 30
0.0
 11
293.207688
 21
195.612479
 31
0.0
 12
292.678521
 22
192.437479
 32
0.0
 13
292.678521
 23
192.437479
 33
0.0
  0
SOLID
  5
212
330
20A
100
AcDbEntity
  8
0
 62
     4
100
AcDbTrace
 10
293.207688
 20
177.262479
 30
0.0
 11
292.149354
 21
177.262479
 31
0.0
 12
292.678521
 22
180.437479
 32
0.0
 13
292.678521
 23
180.437479
 33
0.0
  0
MTEXT
  5
213
330
20A
100
AcDbEntity
  8
0
 62
     3
370
    13
100
AcDbMText
 10
286.678521
 20
186.437479
 30
0.0
 40
3.0
 41
0.0
 71
     5
 72
     1
  1
\A1;12
  7
iso_b_vert
 11
0.0
 21
1.0
 31
0.0
 73
     1
 44
1.0
1001
ACAD
1000
MTEXTBEGIN
1070
    73
1070
     1
1070
    44
1040
1.0
1070
    74
1070
     0
1000
MTEXTEND
  0
POINT
  5
214
330
20A
100
AcDbEntity
  8
Defpoints
 62
     0
100
AcDbPoint
 10
284.09796
 20
192.437479
 30
0.0
  0
POINT
  5
215
330
20A
100
AcDbEntity
  8
Defpoints
 62
     0
100
AcDbPoint
 10
284.09796
 20
180.437479
 30
0.0
  0
POINT
  5
216
330
20A
100
AcDbEntity
  8
Defpoints
 62
     0
100
AcDbPoint
 10
292.678521
 20
180.437479
 30
0.0
  0
ENDBLK
  5
20C
330
20A
100
AcDbEntity
  8
0
100
AcDbBlockEnd
  0
BLOCK
  5
21E
330
217
100
AcDbEntity
  8
0
100
AcDbBlockBegin
  2
_U1
 70
     0
 10
0.0
 20
0.0
 30
0.0
  3
_U1
  1

  0
LINE
  5
55D
330
217
100
AcDbEntity
  8
SK2
  6
Continuous
370
    13
100
AcDbLine
 10
134.3511557104798
 20
37.55871234531362
 30
0.0
 11
144.9317167104798
 21
37.55871234531363
 31
0.0
  0
LINE
  5
55E
330
217
100
AcDbEntity
  8
SK2
  6
Continuous
370
    13
100
AcDbLine
 10
134.3511557104798
 20
25.55871234531363
 30
0.0
 11
144.9317167104798
 21
25.55871234531363
 31
0.0
  0
LINE
  5
55F
330
217
100
AcDbEntity
  8
SK2
  6
Continuous
370
    13
100
AcDbLine
 10
142.9317167104797
 20
34.38371234531363
 30
0.0
 11
142.9317167104797
 21
28.73371234531363
 31
0.0
  0
SOLID
  5
560
330
217
100
AcDbEntity
  8
SK2
  6
Continuous
370
    13
100
AcDbTrace
 10
142.4025500438131
 20
34.38371234531363
 30
0.0
 11
143.4608833771464
 21
34.38371234531363
 31
0.0
 12
142.9317167104797
 22
37.55871234531362
 32
0.0
 13
142.9317167104797
 23
37.55871234531362
 33
0.0
  0
SOLID
  5
561
330
217
100
AcDbEntity
  8
SK2
  6
Continuous
370
    13
100
AcDbTrace
 10
142.4025500438131
 20
28.73371234531363
 30
0.0
 11
143.4608833771464
 21
28.73371234531363
 31
0.0
 12
142.9317167104797
 22
25.55871234531363
 32
0.0
 13
142.9317167104797
 23
25.55871234531363
 33
0.0
  0
MTEXT
  5
562
330
217
100
AcDbEntity
  8
SK2
  6
Continuous
370
    18
100
AcDbMText
 10
138.4317167104797
 20
29.41585520245647
 30
0.0
 40
3.0
 41
0.0
 71
     1
 72
     1
  1
\A1;12
  7
iso_b_vert
 11
0.0000000000000001
 21
1.0
 31
0.0
 73
     1
 44
1.0
1001
ACAD
1000
MTEXTBEGIN
1070
    73
1070
     1
1070
    44
1040
1.0
1070
    74
1070
     0
1000
MTEXTEND
  0
POINT
  5
563
330
217
100
AcDbEntity
  8
Defpoints
  6
Continuous
 62
     0
370
    13
100
AcDbPoint
 10
134.3511557104798
 20
37.55871234531362
 30
0.0
  0
POINT
  5
564
330
217
100
AcDbEntity
  8
Defpoints
  6
Continuous
 62
     0
370
    13
100
AcDbPoint
 10
134.3511557104798
 20
25.55871234531363
 30
0.0
  0
POINT
  5
565
330
217
100
AcDbEntity
  8
Defpoints
  6
Continuous
 62
     0
370
    13
100
AcDbPoint
 10
142.9317167104797
 20
25.55871234531363
 30
0.0
  0
ENDBLK
  5
21F
330
217
100
AcDbEntity
  8
0
100
AcDbBlockEnd
  0
BLOCK
  5
224
330
223
100
AcDbEntity
  8
0
100
AcDbBlockBegin
  2
*D8
 70
     1
 10
0.0
 20
0.0
 30
0.0
  3
*D8
  1

  0
LINE
  5
226
330
223
100
AcDbEntity
  8
0
  6
Continuous
 62
     4
370
    -2
100
AcDbLine
 10
192.781428
 20
233.581961
 30
0.0
 11
152.749686
 21
233.581961
 31
0.0
  0
LINE
  5
227
330
223
100
AcDbEntity
  8
0
  6
Continuous
 62
     4
370
    -2
100
AcDbLine
 10
96.60023000000002
 20
257.581961
 30
0.0
 11
156.749686
 21
257.581961
 31
0.0
  0
LINE
  5
228
330
223
100
AcDbEntity
  8
0
  6
Continuous
 62
     4
370
    -2
100
AcDbLine
 10
154.749686
 20
236.756961
 30
0.0
 11
154.749686
 21
254.406961
 31
0.0
  0
SOLID
  5
229
330
223
100
AcDbEntity
  8
0
 62
     4
100
AcDbTrace
 10
154.220519
 20
236.756961
 30
0.0
 11
155.278853
 21
236.756961
 31
0.0
 12
154.749686
 22
233.581961
 32
0.0
 13
154.749686
 23
233.581961
 33
0.0
  0
SOLID
  5
22A
330
223
100
AcDbEntity
  8
0
 62
     4
100
AcDbTrace
 10
155.278853
 20
254.406961
 30
0.0
 11
154.220519
 21
254.406961
 31
0.0
 12
154.749686
 22
257.581961
 32
0.0
 13
154.749686
 23
257.581961
 33
0.0
  0
MTEXT
  5
22B
330
223
100
AcDbEntity
  8
0
 62
     3
370
    13
100
AcDbMText
 10
149.678257
 20
236.581961
 30
0.0
 40
3.0
 41
0.0
 71
     1
 72
     1
  1
\A1;12%%p0,05
  7
iso_b_vert
 11
0.0
 21
1.0
 31
0.0
 73
     1
 44
1.0
1001
ACAD
1000
MTEXTBEGIN
1070
    73
1070
     1
1070
    44
1040
1.0
1070
    74
1070
     0
1000
MTEXTEND
  0
POINT
  5
22C
330
223
100
AcDbEntity
  8
Defpoints
 62
     0
100
AcDbPoint
 10
192.781428
 20
233.581961
 30
0.0
  0
POINT
  5
22D
330
223
100
AcDbEntity
  8
Defpoints
 62
     0
100
AcDbPoint
 10
96.60023000000002
 20
257.581961
 30
0.0
  0
POINT
  5
22E
330
223
100
AcDbEntity
  8
Defpoints
 62
     0
100
AcDbPoint
 10
154.749686
 20
257.581961
 30
0.0
  0
ENDBLK
  5
225
330
223
100
AcDbEntity
  8
0
100
AcDbBlockEnd
  0
BLOCK
  5
237
330
22F
100
AcDbEntity
  8
0
100
AcDbBlockBegin
  2
_U2
 70
     0
 10
0.0
 20
0.0
 30
0.0
  3
_U2
  1

  0
MTEXT
  5
230
330
22F
100
AcDbEntity
  8
41
  6
Continuous
 62
     3
370
    18
100
AcDbMText
 10
154.158572
 20
237.408591
 30
0.0
 40
3.0
 41
0.0
 71
     7
 72
     5
  1
\W0.6563;12
  7
iso_b_vert
 11
0.0000000000000001
 21
1.0
 31
0.0
 73
     2
 44
0.9879520000000001
1001
ACAD
1000
MTEXTBEGIN
1070
    73
1070
     2
1070
    44
1040
0.9879520000000001
1070
    74
1070
     0
1000
MTEXTEND
  0
MTEXT
  5
231
330
22F
100
AcDbEntity
  8
41
  6
Continuous
 62
     3
370
    18
100
AcDbMText
 10
154.158572
 20
243.242362
 30
0.0
 40
3.0
 41
0.0
 71
     7
 72
     5
  1
\W0.8385;\W0.4193;%%p\W0.8385;0,05
  7
iso_b_vert
 11
0.0000000000000001
 21
1.0
 31
0.0
 73
     2
 44
0.9879520000000001
1001
ACAD
1000
MTEXTBEGIN
1070
    73
1070
     2
1070
    44
1040
0.9879520000000001
1070
    74
1070
     0
1000
MTEXTEND
  0
LINE
  5
232
330
22F
100
AcDbEntity
  8
41
 62
     4
370
    13
100
AcDbLine
 10
96.60023000000002
 20
257.581961
 30
0.0
 11
156.749686
 21
257.581961
 31
0.0
  0
LINE
  5
233
330
22F
100
AcDbEntity
  8
41
 62
     4
370
    13
100
AcDbLine
 10
132.568829
 20
233.581961
 30
0.0
 11
156.749686
 21
233.581961
 31
0.0
  0
LINE
  5
234
330
22F
100
AcDbEntity
  8
41
 62
     4
370
    13
100
AcDbLine
 10
154.749686
 20
257.581961
 30
0.0
 11
154.749686
 21
233.581961
 31
0.0
  0
SOLID
  5
235
330
22F
100
AcDbEntity
  8
41
 62
     4
370
    13
100
AcDbTrace
 10
154.749686
 20
257.581961
 30
0.0
 11
155.167683
 21
254.406962
 31
0.0
 12
154.331689
 22
254.406959
 32
0.0
 13
154.331689
 23
254.406959
 33
0.0
  0
SOLID
  5
236
330
22F
100
AcDbEntity
  8
41
 62
     4
370
    13
100
AcDbTrace
 10
154.749686
 20
233.581961
 30
0.0
 11
154.331689
 21
236.756959
 31
0.0
 12
155.167683
 22
236.756962
 32
0.0
 13
155.167683
 23
236.756962
 33
0.0
  0
ENDBLK
  5
238
330
22F
100
AcDbEntity
  8
0
100
AcDbBlockEnd
  0
BLOCK
  5
23D
330
23C
100
AcDbEntity
  8
0
100
AcDbBlockBegin
  2
*D10
 70
     1
 10
0.0
 20
0.0
 30
0.0
  3
*D10
  1

  0
LINE
  5
23F
330
23C
100
AcDbEntity
  8
0
  6
Continuous
 62
     4
370
    -2
100
AcDbLine
 10
346.6002299999999
 20
233.581961
 30
0.0
 11
358.827325
 21
233.581961
 31
0.0
  0
LINE
  5
240
330
23C
100
AcDbEntity
  8
0
  6
Continuous
 62
     4
370
    -2
100
AcDbLine
 10
346.6002299999999
 20
257.581961
 30
0.0
 11
358.827325
 21
257.581961
 31
0.0
  0
LINE
  5
241
330
23C
100
AcDbEntity
  8
0
  6
Continuous
 62
     4
370
    -2
100
AcDbLine
 10
356.827325
 20
236.756961
 30
0.0
 11
356.827325
 21
254.406961
 31
0.0
  0
SOLID
  5
242
330
23C
100
AcDbEntity
  8
0
 62
     4
100
AcDbTrace
 10
356.298159
 20
236.756961
 30
0.0
 11
357.356492
 21
236.756961
 31
0.0
 12
356.827325
 22
233.581961
 32
0.0
 13
356.827325
 23
233.581961
 33
0.0
  0
SOLID
  5
243
330
23C
100
AcDbEntity
  8
0
 62
     4
100
AcDbTrace
 10
357.356492
 20
254.406961
 30
0.0
 11
356.298159
 21
254.406961
 31
0.0
 12
356.827325
 22
257.581961
 32
0.0
 13
356.827325
 23
257.581961
 33
0.0
  0
MTEXT
  5
244
330
23C
100
AcDbEntity
  8
0
 62
     3
370
    13
100
AcDbMText
 10
352.327325
 20
236.796247
 30
0.0
 40
3.0
 41
0.0
 71
     1
 72
     1
  1
\A1; 12 \C3;\H3.00;\Fsimplex.shx;h10\Fsimplex.shx;\H3.00;\C3;
  7
iso_b_vert
 11
0.0
 21
1.0
 31
0.0
 73
     1
 44
1.0
1001
ACAD
1000
MTEXTBEGIN
1070
    73
1070
     1
1070
    44
1040
1.0
1070
    74
1070
     0
1000
MTEXTEND
  0
POINT
  5
245
330
23C
100
AcDbEntity
  8
Defpoints
 62
     0
100
AcDbPoint
 10
346.6002299999999
 20
233.581961
 30
0.0
  0
POINT
  5
246
330
23C
100
AcDbEntity
  8
Defpoints
 62
     0
100
AcDbPoint
 10
346.6002299999999
 20
257.581961
 30
0.0
  0
POINT
  5
247
330
23C
100
AcDbEntity
  8
Defpoints
 62
     0
100
AcDbPoint
 10
356.827325
 20
257.581961
 30
0.0
  0
ENDBLK
  5
23E
330
23C
100
AcDbEntity
  8
0
100
AcDbBlockEnd
  0
BLOCK
  5
250
330
248
100
AcDbEntity
  8
0
100
AcDbBlockBegin
  2
_U3
 70
     0
 10
0.0
 20
0.0
 30
0.0
  3
_U3
  1

  0
MTEXT
  5
249
330
248
100
AcDbEntity
  8
41
  6
Continuous
 62
     3
370
    18
100
AcDbMText
 10
356.236211
 20
240.262276
 30
0.0
 40
3.0
 41
0.0
 71
     7
 72
     5
  1
\W0.6563;12
  7
iso_b_vert
 11
0.0000000000000001
 21
1.0
 31
0.0
 73
     2
 44
0.9879520000000001
1001
ACAD
1000
MTEXTBEGIN
1070
    73
1070
     2
1070
    44
1040
0.9879520000000001
1070
    74
1070
     0
1000
MTEXTEND
  0
MTEXT
  5
24A
330
248
100
AcDbEntity
  8
41
  6
Continuous
 62
     3
370
    18
100
AcDbMText
 10
356.236211
 20
246.096047
 30
0.0
 40
3.0
 41
0.0
 71
     7
 72
     5
  1
\W0.7232;h10
  7
iso_b_vert
 11
0.0000000000000001
 21
1.0
 31
0.0
 73
     2
 44
0.9879520000000001
1001
ACAD
1000
MTEXTBEGIN
1070
    73
1070
     2
1070
    44
1040
0.9879520000000001
1070
    74
1070
     0
1000
MTEXTEND
  0
LINE
  5
24B
330
248
100
AcDbEntity
  8
41
 62
     4
370
    13
100
AcDbLine
 10
346.6002299999999
 20
233.581961
 30
0.0
 11
358.827325
 21
233.581961
 31
0.0
  0
LINE
  5
24C
330
248
100
AcDbEntity
  8
41
 62
     4
370
    13
100
AcDbLine
 10
346.6002299999999
 20
257.581961
 30
0.0
 11
358.827325
 21
257.581961
 31
0.0
  0
LINE
  5
24D
330
248
100
AcDbEntity
  8
41
 62
     4
370
    13
100
AcDbLine
 10
356.827325
 20
233.581961
 30
0.0
 11
356.827325
 21
257.581961
 31
0.0
  0
SOLID
  5
24E
330
248
100
AcDbEntity
  8
41
 62
     4
370
    13
100
AcDbTrace
 10
356.827325
 20
233.581961
 30
0.0
 11
356.409329
 21
236.756959
 31
0.0
 12
357.245322
 22
236.756962
 32
0.0
 13
357.245322
 23
236.756962
 33
0.0
  0
SOLID
  5
24F
330
248
100
AcDbEntity
  8
41
 62
     4
370
    13
100
AcDbTrace
 10
356.827325
 20
257.581961
 30
0.0
 11
357.245322
 21
254.406962
 31
0.0
 12
356.409329
 22
254.406959
 32
0.0
 13
356.409329
 23
254.406959
 33
0.0
  0
ENDBLK
  5
251
330
248
100
AcDbEntity
  8
0
100
AcDbBlockEnd
  0
BLOCK
  5
292
330
252
100
AcDbEntity
  8
0
100
AcDbBlockBegin
  2
TOL_TABLE
 70
     0
 10
0.0
 20
0.0
 30
0.0
  3
TOL_TABLE
  1

  0
LINE
  5
253
330
252
100
AcDbEntity
  8
250
  6
Continuous
 62
     5
370
    18
100
AcDbLine
 10
-65.22
 20
44.43999999999999
 30
0.0
 11
-53.22
 21
44.43999999999999
 31
0.0
  0
LINE
  5
254
330
252
100
AcDbEntity
  8
250
  6
Continuous
 62
     5
370
    18
100
AcDbLine
 10
-65.22
 20
44.43999999999999
 30
0.0
 11
-65.22
 21
36.97
 31
0.0
  0
LINE
  5
255
330
252
100
AcDbEntity
  8
250
  6
Continuous
 62
     5
370
    18
100
AcDbLine
 10
-65.22
 20
36.97
 30
0.0
 11
-53.22
 21
36.97
 31
0.0
  0
LINE
  5
256
330
252
100
AcDbEntity
  8
250
  6
Continuous
 62
     5
370
    18
100
AcDbLine
 10
-53.22
 20
44.43999999999999
 30
0.0
 11
-50.22
 21
44.43999999999999
 31
0.0
  0
LINE
  5
257
330
252
100
AcDbEntity
  8
250
  6
Continuous
 62
     5
370
    18
100
AcDbLine
 10
-53.22
 20
36.97
 30
0.0
 11
-50.22
 21
36.97
 31
0.0
  0
LINE
  5
258
330
252
100
AcDbEntity
  8
250
  6
Continuous
 62
     5
370
    18
100
AcDbLine
 10
-50.22
 20
44.43999999999999
 30
0.0
 11
-40.22
 21
44.43999999999999
 31
0.0
  0
LINE
  5
259
330
252
100
AcDbEntity
  8
250
  6
Continuous
 62
     5
370
    18
100
AcDbLine
 10
-50.22
 20
36.97
 30
0.0
 11
-40.22
 21
36.97
 31
0.0
  0
LINE
  5
25A
330
252
100
AcDbEntity
  8
250
  6
Continuous
 62
     5
370
    18
100
AcDbLine
 10
-40.22
 20
44.43999999999999
 30
0.0
 11
-30.22
 21
44.43999999999999
 31
0.0
  0
LINE
  5
25B
330
252
100
AcDbEntity
  8
250
  6
Continuous
 62
     5
370
    18
100
AcDbLine
 10
-40.22
 20
36.97
 30
0.0
 11
-30.22
 21
36.97
 31
0.0
  0
MTEXT
  5
25C
330
252
100
AcDbEntity
  8
41
  6
Continuous
 62
     2
370
    18
100
AcDbMText
 10
-64.19499999999999
 20
40.705
 30
0.0
 40
2.0
 41
0.0
 71
     4
 72
     5
  1
\W1.3303;Tolerance systems acc. to ISO\PSurface roughness Ra {\fArial Unicode MS;µ}m
  7
blockfont
 73
     1
 44
0.9036139999999999
1001
ACAD
1000
MTEXTBEGIN
1070
    73
1070
     1
1070
    44
1040
0.9036139999999999
1070
    74
1070
     0
1000
MTEXTEND
  0
LINE
  5
25D
330
252
100
AcDbEntity
  8
250
  6
Continuous
 62
     5
370
    18
100
AcDbLine
 10
-30.22
 20
44.43999999999999
 30
0.0
 11
-21.22
 21
44.43999999999999
 31
0.0
  0
LINE
  5
25E
330
252
100
AcDbEntity
  8
250
  6
Continuous
 62
     5
370
    18
100
AcDbLine
 10
-30.22
 20
36.97
 30
0.0
 11
-21.22
 21
36.97
 31
0.0
  0
LINE
  5
25F
330
252
100
AcDbEntity
  8
250
  6
Continuous
 62
     5
370
    18
100
AcDbLine
 10
-21.22
 20
44.43999999999999
 30
0.0
 11
-18.22
 21
44.43999999999999
 31
0.0
  0
LINE
  5
260
330
252
100
AcDbEntity
  8
250
  6
Continuous
 62
     5
370
    18
100
AcDbLine
 10
-21.22
 20
36.97
 30
0.0
 11
-18.22
 21
36.97
 31
0.0
  0
LINE
  5
261
330
252
100
AcDbEntity
  8
250
  6
Continuous
 62
     5
370
    18
100
AcDbLine
 10
-18.22
 20
44.43999999999999
 30
0.0
 11
-10.22
 21
44.43999999999999
 31
0.0
  0
LINE
  5
262
330
252
100
AcDbEntity
  8
250
  6
Continuous
 62
     5
370
    18
100
AcDbLine
 10
-18.22
 20
36.97
 30
0.0
 11
-10.22
 21
36.97
 31
0.0
  0
LINE
  5
263
330
252
100
AcDbEntity
  8
250
  6
Continuous
 62
     5
370
    18
100
AcDbLine
 10
-10.22
 20
44.43999999999999
 30
0.0
 11
0.0
 21
44.43999999999999
 31
0.0
  0
LINE
  5
264
330
252
100
AcDbEntity
  8
250
  6
Continuous
 62
     5
370
    18
100
AcDbLine
 10
-10.22
 20
36.97
 30
0.0
 11
0.0
 21
36.97
 31
0.0
  0
LINE
  5
265
330
252
100
AcDbEntity
  8
250
  6
Continuous
 62
     5
370
    18
100
AcDbLine
 10
0.0
 20
44.43999999999999
 30
0.0
 11
0.0
 21
36.97
 31
0.0
  0
LINE
  5
266
330
252
100
AcDbEntity
  8
250
  6
Continuous
 62
     5
370
    18
100
AcDbLine
 10
-65.22
 20
36.97
 30
0.0
 11
-65.22
 21
23.55
 31
0.0
  0
LINE
  5
267
330
252
100
AcDbEntity
  8
250
  6
Continuous
 62
     5
370
    18
100
AcDbLine
 10
-65.22
 20
23.55
 30
0.0
 11
-53.22
 21
23.55
 31
0.0
  0
LINE
  5
268
330
252
100
AcDbEntity
  8
250
  6
Continuous
 62
     5
370
    18
100
AcDbLine
 10
-53.22
 20
23.55
 30
0.0
 11
-50.22
 21
23.55
 31
0.0
  0
LINE
  5
269
330
252
100
AcDbEntity
  8
250
  6
Continuous
 62
     5
370
    18
100
AcDbLine
 10
-50.22
 20
23.55
 30
0.0
 11
-40.22
 21
23.55
 31
0.0
  0
LINE
  5
26A
330
252
100
AcDbEntity
  8
250
  6
Continuous
 62
     5
370
    18
100
AcDbLine
 10
-40.22
 20
23.55
 30
0.0
 11
-30.22
 21
23.55
 31
0.0
  0
MTEXT
  5
26B
330
252
100
AcDbEntity
  8
41
  6
Continuous
 62
     2
370
    18
100
AcDbMText
 10
-64.19499999999999
 20
30.26
 30
0.0
 40
2.0
 41
0.0
 71
     4
 72
     5
  1
\W1.3679;Where tolerance not stated:\PThreads: ISO 965/2\PDimensions: ISO 2768-1 Medium\P\Q20.000000;* = Company standard\Q0;
  7
blockfont
 73
     1
 44
0.9036139999999999
1001
ACAD
1000
MTEXTBEGIN
1070
    73
1070
     1
1070
    44
1040
0.9036139999999999
1070
    74
1070
     0
1000
MTEXTEND
  0
LINE
  5
26C
330
252
100
AcDbEntity
  8
250
  6
Continuous
 62
     5
370
    18
100
AcDbLine
 10
-30.22
 20
23.55
 30
0.0
 11
-21.22
 21
23.55
 31
0.0
  0
LINE
  5
26D
330
252
100
AcDbEntity
  8
250
  6
Continuous
 62
     5
370
    18
100
AcDbLine
 10
-21.22
 20
23.55
 30
0.0
 11
-18.22
 21
23.55
 31
0.0
  0
LINE
  5
26E
330
252
100
AcDbEntity
  8
250
  6
Continuous
 62
     5
370
    18
100
AcDbLine
 10
-18.22
 20
23.55
 30
0.0
 11
-10.22
 21
23.55
 31
0.0
  0
LINE
  5
26F
330
252
100
AcDbEntity
  8
250
  6
Continuous
 62
     5
370
    18
100
AcDbLine
 10
-10.22
 20
23.55
 30
0.0
 11
0.0
 21
23.55
 31
0.0
  0
LINE
  5
270
330
252
100
AcDbEntity
  8
250
  6
Continuous
 62
     5
370
    18
100
AcDbLine
 10
0.0
 20
36.97
 30
0.0
 11
0.0
 21
23.55
 31
0.0
  0
LINE
  5
271
330
252
100
AcDbEntity
  8
250
  6
Continuous
 62
     5
370
    18
100
AcDbLine
 10
-65.22
 20
23.55
 30
0.0
 11
-65.22
 21
18.55
 31
0.0
  0
MTEXT
  5
272
330
252
100
AcDbEntity
  8
41
  6
Continuous
 62
     2
370
    18
100
AcDbMText
 10
-64.19499999999999
 20
21.050001
 30
0.0
 40
2.0
 41
0.0
 71
     4
 72
     5
  1
\W1.3318;Dimensions
  7
blockfont
 73
     2
 44
0.9036139999999999
1001
ACAD
1000
MTEXTBEGIN
1070
    73
1070
     2
1070
    44
1040
0.9036139999999999
1070
    74
1070
     0
1000
MTEXTEND
  0
LINE
  5
273
330
252
100
AcDbEntity
  8
250
  6
Continuous
 62
     5
370
    18
100
AcDbLine
 10
-40.22
 20
23.55
 30
0.0
 11
-40.22
 21
18.55
 31
0.0
  0
LINE
  5
274
330
252
100
AcDbEntity
  8
250
  6
Continuous
 62
     5
370
    18
100
AcDbLine
 10
-30.22
 20
23.55
 30
0.0
 11
-30.22
 21
18.55
 31
0.0
  0
MTEXT
  5
275
330
252
100
AcDbEntity
  8
41
  6
Continuous
 62
     2
370
    18
100
AcDbMText
 10
-39.247101
 20
21.050001
 30
0.0
 40
2.0
 41
0.0
 71
     4
 72
     5
  1
\W1.8082;Tol.
  7
blockfont
 73
     2
 44
0.9036139999999999
1001
ACAD
1000
MTEXTBEGIN
1070
    73
1070
     2
1070
    44
1040
0.9036139999999999
1070
    74
1070
     0
1000
MTEXTEND
  0
MTEXT
  5
276
330
252
100
AcDbEntity
  8
41
  6
Continuous
 62
     2
370
    18
100
AcDbMText
 10
-29.195
 20
21.050001
 30
0.0
 40
2.0
 41
0.0
 71
     4
 72
     5
  1
\W1.4027;Angle
  7
blockfont
 73
     2
 44
0.9036139999999999
1001
ACAD
1000
MTEXTBEGIN
1070
    73
1070
     2
1070
    44
1040
0.9036139999999999
1070
    74
1070
     0
1000
MTEXTEND
  0
LINE
  5
277
330
252
100
AcDbEntity
  8
250
  6
Continuous
 62
     5
370
    18
100
AcDbLine
 10
-10.22
 20
23.55
 30
0.0
 11
-10.22
 21
18.55
 31
0.0
  0
LINE
  5
278
330
252
100
AcDbEntity
  8
250
  6
Continuous
 62
     5
370
    18
100
AcDbLine
 10
0.0
 20
23.55
 30
0.0
 11
0.0
 21
18.55
 31
0.0
  0
MTEXT
  5
279
330
252
100
AcDbEntity
  8
41
  6
Continuous
 62
     2
370
    18
100
AcDbMText
 10
-9.224914999999999
 20
21.050001
 30
0.0
 40
2.0
 41
0.0
 71
     4
 72
     5
  1
\W1.8431;Tol.
  7
blockfont
 73
     2
 44
0.9036139999999999
1001
ACAD
1000
MTEXTBEGIN
1070
    73
1070
     2
1070
    44
1040
0.9036139999999999
1070
    74
1070
     0
1000
MTEXTEND
  0
LINE
  5
27A
330
252
100
AcDbEntity
  8
250
  6
Continuous
 62
     5
370
    18
100
AcDbLine
 10
-65.22
 20
18.55
 30
0.0
 11
-65.22
 21
11.55
 31
0.0
  0
LINE
  5
27B
330
252
100
AcDbEntity
  8
250
  6
Continuous
 62
     5
370
    18
100
AcDbLine
 10
-30.22
 20
18.55
 30
0.0
 11
-30.22
 21
11.55
 31
0.0
  0
MTEXT
  5
27C
330
252
100
AcDbEntity
  8
41
  6
Continuous
 62
     2
370
    18
100
AcDbMText
 10
-29.482174
 20
15.050001
 30
0.0
 40
2.0
 41
0.0
 71
     4
 72
     5
  1
\W1.0175;(Shortest adjacent\Pside in mm)
  7
blockfont
 73
     1
 44
0.9036139999999999
1001
ACAD
1000
MTEXTBEGIN
1070
    73
1070
     1
1070
    44
1040
0.9036139999999999
1070
    74
1070
     0
1000
MTEXTEND
  0
LINE
  5
27D
330
252
100
AcDbEntity
  8
250
  6
Continuous
 62
     5
370
    18
100
AcDbLine
 10
0.0
 20
18.55
 30
0.0
 11
0.0
 21
11.55
 31
0.0
  0
LINE
  5
27E
330
252
100
AcDbEntity
  8
250
  6
Continuous
 62
     5
370
    18
100
AcDbLine
 10
-65.22
 20
11.55
 30
0.0
 11
-65.22
 21
0.0
 31
0.0
  0
LINE
  5
27F
330
252
100
AcDbEntity
  8
250
  6
Continuous
 62
     5
370
    18
100
AcDbLine
 10
-65.22
 20
0.0
 30
0.0
 11
-53.22
 21
0.0
 31
0.0
  0
MTEXT
  5
280
330
252
100
AcDbEntity
  8
41
  6
Continuous
 62
     2
370
    18
100
AcDbMText
 10
-64.494869
 20
9.274999000000001
 30
0.0
 40
1.5
 41
0.0
 71
     4
 72
     5
  1
\W1.9399;\Q20.000000;* \Q0; \P\Q20.000000;* \Q0;(0.2)\P0.5\P(6)\P(30)\P(120)\P(400)
  7
blockfont
 73
     1
 44
0.9036139999999999
1001
ACAD
1000
MTEXTBEGIN
1070
    73
1070
     1
1070
    44
1040
0.9036139999999999
1070
    74
1070
     0
1000
MTEXTEND
  0
LINE
  5
281
330
252
100
AcDbEntity
  8
250
  6
Continuous
 62
     5
370
    18
100
AcDbLine
 10
-53.22
 20
0.0
 30
0.0
 11
-50.22
 21
0.0
 31
0.0
  0
MTEXT
  5
282
330
252
100
AcDbEntity
  8
41
  6
Continuous
 62
     2
370
    18
100
AcDbMText
 10
-52.445
 20
9.274999000000001
 30
0.0
 40
1.5
 41
0.0
 71
     4
 72
     5
  1
\W1.1484;-\P-\P-\P-\P-\P-
  7
blockfont
 73
     1
 44
0.9036139999999999
1001
ACAD
1000
MTEXTBEGIN
1070
    73
1070
     1
1070
    44
1040
0.9036139999999999
1070
    74
1070
     0
1000
MTEXTEND
  0
LINE
  5
283
330
252
100
AcDbEntity
  8
250
  6
Continuous
 62
     5
370
    18
100
AcDbLine
 10
-50.22
 20
0.0
 30
0.0
 11
-40.22
 21
0.0
 31
0.0
  0
MTEXT
  5
284
330
252
100
AcDbEntity
  8
41
  6
Continuous
 62
     2
370
    18
100
AcDbMText
 10
-49.445
 20
9.274999000000001
 30
0.0
 40
1.5
 41
0.0
 71
     4
 72
     5
  1
\W1.5064;0.2\P0.499\P6\P30\P120\P400\P1000
  7
blockfont
 73
     1
 44
0.9036139999999999
1001
ACAD
1000
MTEXTBEGIN
1070
    73
1070
     1
1070
    44
1040
0.9036139999999999
1070
    74
1070
     0
1000
MTEXTEND
  0
LINE
  5
285
330
252
100
AcDbEntity
  8
250
  6
Continuous
 62
     5
370
    18
100
AcDbLine
 10
-40.22
 20
0.0
 30
0.0
 11
-30.22
 21
0.0
 31
0.0
  0
LINE
  5
286
330
252
100
AcDbEntity
  8
250
  6
Continuous
 62
     5
370
    18
100
AcDbLine
 10
-30.22
 20
11.55
 30
0.0
 11
-30.22
 21
0.0
 31
0.0
  0
MTEXT
  5
287
330
252
100
AcDbEntity
  8
41
  6
Continuous
 62
     2
370
    18
100
AcDbMText
 10
-39.445
 20
9.274999000000001
 30
0.0
 40
1.5
 41
0.0
 71
     4
 72
     5
  1
\W1.2469;\W0.6234;%%p\W1.2469;0.05\P\W0.6234;%%p\W1.2469;0.10\P\W0.6234;%%p\W1.2469;0.10\P\W0.6234;%%p\W1.2469;0.20\P\W0.6234;%%p\W1.2469;0.30\P\W0.6234;%%p\W1.2469;0.50\P\W0.6234;%%p\W1.2469;0.80
  7
blockfont
 73
     1
 44
0.9036139999999999
1001
ACAD
1000
MTEXTBEGIN
1070
    73
1070
     1
1070
    44
1040
0.9036139999999999
1070
    74
1070
     0
1000
MTEXTEND
  0
LINE
  5
288
330
252
100
AcDbEntity
  8
250
  6
Continuous
 62
     5
370
    18
100
AcDbLine
 10
-30.22
 20
0.0
 30
0.0
 11
-21.22
 21
0.0
 31
0.0
  0
MTEXT
  5
289
330
252
100
AcDbEntity
  8
41
  6
Continuous
 62
     2
370
    18
100
AcDbMText
 10
-29.488869
 20
5.774999
 30
0.0
 40
1.5
 41
0.0
 71
     4
 72
     5
  1
\W1.0000;\P(10)\P(50)\P(120)
  7
blockfont
 73
     1
 44
0.9036139999999999
1001
ACAD
1000
MTEXTBEGIN
1070
    73
1070
     1
1070
    44
1040
0.9036139999999999
1070
    74
1070
     0
1000
MTEXTEND
  0
LINE
  5
28A
330
252
100
AcDbEntity
  8
250
  6
Continuous
 62
     5
370
    18
100
AcDbLine
 10
-21.22
 20
0.0
 30
0.0
 11
-18.22
 21
0.0
 31
0.0
  0
MTEXT
  5
28B
330
252
100
AcDbEntity
  8
41
  6
Continuous
 62
     2
370
    18
100
AcDbMText
 10
-20.445
 20
5.774999
 30
0.0
 40
1.5
 41
0.0
 71
     4
 72
     5
  1
\W1.1484;-\P-\P-\P-
  7
blockfont
 73
     1
 44
0.9036139999999999
1001
ACAD
1000
MTEXTBEGIN
1070
    73
1070
     1
1070
    44
1040
0.9036139999999999
1070
    74
1070
     0
1000
MTEXTEND
  0
LINE
  5
28C
330
252
100
AcDbEntity
  8
250
  6
Continuous
 62
     5
370
    18
100
AcDbLine
 10
-18.22
 20
0.0
 30
0.0
 11
-10.22
 21
0.0
 31
0.0
  0
MTEXT
  5
28D
330
252
100
AcDbEntity
  8
41
  6
Continuous
 62
     2
370
    18
100
AcDbMText
 10
-17.445
 20
5.774999
 30
0.0
 40
1.5
 41
0.0
 71
     4
 72
     5
  1
\W1.4547;10\P50\P120 \P -
  7
blockfont
 73
     1
 44
0.9036139999999999
1001
ACAD
1000
MTEXTBEGIN
1070
    73
1070
     1
1070
    44
1040
0.9036139999999999
1070
    74
1070
     0
1000
MTEXTEND
  0
LINE
  5
28E
330
252
100
AcDbEntity
  8
250
  6
Continuous
 62
     5
370
    18
100
AcDbLine
 10
-10.22
 20
0.0
 30
0.0
 11
0.0
 21
0.0
 31
0.0
  0
LINE
  5
28F
330
252
100
AcDbEntity
  8
250
  6
Continuous
 62
     5
370
    18
100
AcDbLine
 10
0.0
 20
11.55
 30
0.0
 11
0.0
 21
0.0
 31
0.0
  0
MTEXT
  5
290
330
252
100
AcDbEntity
  8
41
  6
Continuous
 62
     2
370
    18
100
AcDbMText
 10
-9.445
 20
5.774999
 30
0.0
 40
1.5
 41
0.0
 71
     4
 72
     5
  1
\W1.4480;\W0.7240;%%p\W1.4480;1%%d\P\W0.7240;%%p\W1.4480;30'\P\W0.7240;%%p\W1.4480;20'\P\W0.7240;%%p\W1.4480;10'
  7
blockfont
 73
     1
 44
0.9036139999999999
1001
ACAD
1000
MTEXTBEGIN
1070
    73
1070
     1
1070
    44
1040
0.9036139999999999
1070
    74
1070
     0
1000
MTEXTEND
  0
ENDBLK
  5
293
330
252
100
AcDbEntity
  8
0
100
AcDbBlockEnd
  0
BLOCK
  5
2B3
330
294
100
AcDbEntity
  8
0
100
AcDbBlockBegin
  2
TabularNote1
 70
     0
 10
0.0
 20
0.0
 30
0.0
  3
TabularNote1
  1

  0
LINE
  5
295
330
294
100
AcDbEntity
  8
250
  6
Continuous
 62
     5
370
    18
100
AcDbLine
 10
0.0
 20
0.0
 30
0.0
 11
72.0
 21
0.0
 31
0.0
  0
LINE
  5
296
330
294
100
AcDbEntity
  8
250
  6
Continuous
 62
     5
370
    18
100
AcDbLine
 10
0.0
 20
0.0
 30
0.0
 11
0.0
 21
-1.9
 31
0.0
  0
LINE
  5
297
330
294
100
AcDbEntity
  8
250
  6
Continuous
 62
     5
370
    18
100
AcDbLine
 10
72.0
 20
0.0
 30
0.0
 11
72.0
 21
-1.9
 31
0.0
  0
MTEXT
  5
298
330
294
100
AcDbEntity
  8
41
  6
Continuous
 62
     2
370
    18
100
AcDbMText
 10
0.575
 20
-0.95
 30
0.0
 40
1.0
 41
0.0
 71
     4
 72
     5
  1
\W0.8122;PRODUCT CODE
  7
iso_b_vert
 73
     2
 44
1.084337
1001
ACAD
1000
MTEXTBEGIN
1070
    73
1070
     2
1070
    44
1040
1.084337
1070
    74
1070
     0
1000
MTEXTEND
  0
LINE
  5
299
330
294
100
AcDbEntity
  8
250
  6
Continuous
 62
     5
370
    18
100
AcDbLine
 10
72.0
 20
0.0
 30
0.0
 11
127.0
 21
0.0
 31
0.0
  0
LINE
  5
29A
330
294
100
AcDbEntity
  8
250
  6
Continuous
 62
     5
370
    18
100
AcDbLine
 10
127.0
 20
0.0
 30
0.0
 11
127.0
 21
-1.9
 31
0.0
  0
MTEXT
  5
29B
330
294
100
AcDbEntity
  8
41
  6
Continuous
 62
     2
370
    18
100
AcDbMText
 10
72.575
 20
-0.95
 30
0.0
 40
1.0
 41
0.0
 71
     4
 72
     5
  1
\W0.8810;MATERIAL
  7
iso_b_vert
 73
     2
 44
1.084337
1001
ACAD
1000
MTEXTBEGIN
1070
    73
1070
     2
1070
    44
1040
1.084337
1070
    74
1070
     0
1000
MTEXTEND
  0
LINE
  5
29C
330
294
100
AcDbEntity
  8
250
  6
Continuous
 62
     5
370
    18
100
AcDbLine
 10
127.0
 20
0.0
 30
0.0
 11
180.0
 21
0.0
 31
0.0
  0
LINE
  5
29D
330
294
100
AcDbEntity
  8
250
  6
Continuous
 62
     5
370
    18
100
AcDbLine
 10
180.0
 20
0.0
 30
0.0
 11
180.0
 21
-1.9
 31
0.0
  0
LINE
  5
29E
330
294
100
AcDbEntity
  8
250
  6
Continuous
 62
     5
370
    18
100
AcDbLine
 10
0.0
 20
-1.9
 30
0.0
 11
0.0
 21
-8.9
 31
0.0
  0
LINE
  5
29F
330
294
100
AcDbEntity
  8
250
  6
Continuous
 62
     5
370
    18
100
AcDbLine
 10
0.0
 20
-8.9
 30
0.0
 11
72.0
 21
-8.9
 31
0.0
  0
LINE
  5
2A0
330
294
100
AcDbEntity
  8
250
  6
Continuous
 62
     5
370
    18
100
AcDbLine
 10
72.0
 20
-1.9
 30
0.0
 11
72.0
 21
-8.9
 31
0.0
  0
MTEXT
  5
2A1
330
294
100
AcDbEntity
  8
41
  6
Continuous
 62
     2
370
    25
100
AcDbMText
 10
1.825
 20
-5.4
 30
0.0
 40
3.5
 41
0.0
 71
     4
 72
     5
  1
\W0.7607;SDJCR1212K11-S
  7
iso_b_vert
 73
     2
 44
1.084337
1001
ACAD
1000
MTEXTBEGIN
1070
    73
1070
     2
1070
    44
1040
1.084337
1070
    74
1070
     0
1000
MTEXTEND
  0
LINE
  5
2A2
330
294
100
AcDbEntity
  8
250
  6
Continuous
 62
     5
370
    18
100
AcDbLine
 10
72.0
 20
-8.9
 30
0.0
 11
127.0
 21
-8.9
 31
0.0
  0
LINE
  5
2A3
330
294
100
AcDbEntity
  8
250
  6
Continuous
 62
     5
370
    18
100
AcDbLine
 10
127.0
 20
-1.9
 30
0.0
 11
127.0
 21
-8.9
 31
0.0
  0
LINE
  5
2A4
330
294
100
AcDbEntity
  8
250
  6
Continuous
 62
     5
370
    18
100
AcDbLine
 10
180.0
 20
-1.9
 30
0.0
 11
180.0
 21
-8.9
 31
0.0
  0
LINE
  5
2A5
330
294
100
AcDbEntity
  8
250
  6
Continuous
 62
     5
370
    18
100
AcDbLine
 10
0.0
 20
-8.9
 30
0.0
 11
0.0
 21
-10.8
 31
0.0
  0
MTEXT
  5
2A6
330
294
100
AcDbEntity
  8
41
  6
Continuous
 62
     2
370
    18
100
AcDbMText
 10
0.575
 20
-9.849999
 30
0.0
 40
1.0
 41
0.0
 71
     4
 72
     5
  1
\W0.9090;TITLE
  7
iso_b_vert
 73
     2
 44
1.084337
1001
ACAD
1000
MTEXTBEGIN
1070
    73
1070
     2
1070
    44
1040
1.084337
1070
    74
1070
     0
1000
MTEXTEND
  0
LINE
  5
2A7
330
294
100
AcDbEntity
  8
250
  6
Continuous
 62
     5
370
    18
100
AcDbLine
 10
127.0
 20
-8.9
 30
0.0
 11
127.0
 21
-10.8
 31
0.0
  0
LINE
  5
2A8
330
294
100
AcDbEntity
  8
250
  6
Continuous
 62
     5
370
    18
100
AcDbLine
 10
180.0
 20
-8.9
 30
0.0
 11
180.0
 21
-10.8
 31
0.0
  0
LINE
  5
2A9
330
294
100
AcDbEntity
  8
250
  6
Continuous
 62
     5
370
    18
100
AcDbLine
 10
0.0
 20
-10.8
 30
0.0
 11
0.0
 21
-18.725
 31
0.0
  0
LINE
  5
2AA
330
294
100
AcDbEntity
  8
250
  6
Continuous
 62
     5
370
    18
100
AcDbLine
 10
127.0
 20
-10.8
 30
0.0
 11
127.0
 21
-18.725
 31
0.0
  0
LINE
  5
2AB
330
294
100
AcDbEntity
  8
250
  6
Continuous
 62
     5
370
    18
100
AcDbLine
 10
180.0
 20
-10.8
 30
0.0
 11
180.0
 21
-18.725
 31
0.0
  0
LINE
  5
2AC
330
294
100
AcDbEntity
  8
250
  6
Continuous
 62
     5
370
    18
100
AcDbLine
 10
0.0
 20
-18.725
 30
0.0
 11
0.0
 21
-26.65
 31
0.0
  0
LINE
  5
2AD
330
294
100
AcDbEntity
  8
250
  6
Continuous
 62
     5
370
    18
100
AcDbLine
 10
0.0
 20
-26.65
 30
0.0
 11
72.0
 21
-26.65
 31
0.0
  0
LINE
  5
2AE
330
294
100
AcDbEntity
  8
250
  6
Continuous
 62
     5
370
    18
100
AcDbLine
 10
72.0
 20
-26.65
 30
0.0
 11
127.0
 21
-26.65
 31
0.0
  0
LINE
  5
2AF
330
294
100
AcDbEntity
  8
250
  6
Continuous
 62
     5
370
    18
100
AcDbLine
 10
127.0
 20
-18.725
 30
0.0
 11
127.0
 21
-26.65
 31
0.0
  0
LINE
  5
2B0
330
294
100
AcDbEntity
  8
250
  6
Continuous
 62
     5
370
    18
100
AcDbLine
 10
127.0
 20
-26.65
 30
0.0
 11
180.0
 21
-26.65
 31
0.0
  0
LINE
  5
2B1
330
294
100
AcDbEntity
  8
250
  6
Continuous
 62
     5
370
    18
100
AcDbLine
 10
180.0
 20
-18.725
 30
0.0
 11
180.0
 21
-26.65
 31
0.0
  0
ENDBLK
  5
2B4
330
294
100
AcDbEntity
  8
0
100
AcDbBlockEnd
  0
BLOCK
  5
2F5
330
2B5
100
AcDbEntity
  8
0
100
AcDbBlockBegin
  2
TabularNote2
 70
     0
 10
0.0
 20
0.0
 30
0.0
  3
TabularNote2
  1

  0
LINE
  5
2B6
330
2B5
100
AcDbEntity
  8
250
  6
Continuous
 62
     5
370
    18
100
AcDbLine
 10
0.0
 20
0.0
 30
0.0
 11
12.0
 21
0.0
 31
0.0
  0
LINE
  5
2B7
330
2B5
100
AcDbEntity
  8
250
  6
Continuous
 62
     5
370
    18
100
AcDbLine
 10
0.0
 20
0.0
 30
0.0
 11
0.0
 21
-1.9
 31
0.0
  0
LINE
  5
2B8
330
2B5
100
AcDbEntity
  8
250
  6
Continuous
 62
     5
370
    18
100
AcDbLine
 10
12.0
 20
0.0
 30
0.0
 11
12.0
 21
-1.9
 31
0.0
  0
MTEXT
  5
2B9
330
2B5
100
AcDbEntity
  8
41
  6
Continuous
 62
     2
370
    18
100
AcDbMText
 10
0.575
 20
-0.95
 30
0.0
 40
1.0
 41
0.0
 71
     4
 72
     5
  1
\W0.9067;STATUS
  7
iso_b_vert
 73
     2
 44
1.084337
1001
ACAD
1000
MTEXTBEGIN
1070
    73
1070
     2
1070
    44
1040
1.084337
1070
    74
1070
     0
1000
MTEXTEND
  0
LINE
  5
2BA
330
2B5
100
AcDbEntity
  8
250
  6
Continuous
 62
     5
370
    18
100
AcDbLine
 10
12.0
 20
0.0
 30
0.0
 11
26.0
 21
0.0
 31
0.0
  0
LINE
  5
2BB
330
2B5
100
AcDbEntity
  8
250
  6
Continuous
 62
     5
370
    18
100
AcDbLine
 10
12.0
 20
-1.9
 30
0.0
 11
26.0
 21
-1.9
 31
0.0
  0
LINE
  5
2BC
330
2B5
100
AcDbEntity
  8
250
  6
Continuous
 62
     5
370
    18
100
AcDbLine
 10
26.0
 20
0.0
 30
0.0
 11
26.0
 21
-1.9
 31
0.0
  0
LINE
  5
2BD
330
2B5
100
AcDbEntity
  8
250
  6
Continuous
 62
     5
370
    18
100
AcDbLine
 10
26.0
 20
0.0
 30
0.0
 11
50.0
 21
0.0
 31
0.0
  0
LINE
  5
2BE
330
2B5
100
AcDbEntity
  8
250
  6
Continuous
 62
     5
370
    18
100
AcDbLine
 10
26.0
 20
-1.9
 30
0.0
 11
50.0
 21
-1.9
 31
0.0
  0
LINE
  5
2BF
330
2B5
100
AcDbEntity
  8
250
  6
Continuous
 62
     5
370
    18
100
AcDbLine
 10
50.0
 20
0.0
 30
0.0
 11
50.0
 21
-1.9
 31
0.0
  0
MTEXT
  5
2C0
330
2B5
100
AcDbEntity
  8
41
  6
Continuous
 62
     2
370
    18
100
AcDbMText
 10
26.575
 20
-0.95
 30
0.0
 40
1.0
 41
0.0
 71
     4
 72
     5
  1
\W0.8824;DATE
  7
iso_b_vert
 73
     2
 44
1.084337
1001
ACAD
1000
MTEXTBEGIN
1070
    73
1070
     2
1070
    44
1040
1.084337
1070
    74
1070
     0
1000
MTEXTEND
  0
LINE
  5
2C1
330
2B5
100
AcDbEntity
  8
250
  6
Continuous
 62
     5
370
    18
100
AcDbLine
 10
50.0
 20
0.0
 30
0.0
 11
88.0
 21
0.0
 31
0.0
  0
LINE
  5
2C2
330
2B5
100
AcDbEntity
  8
250
  6
Continuous
 62
     5
370
    18
100
AcDbLine
 10
50.0
 20
-1.9
 30
0.0
 11
88.0
 21
-1.9
 31
0.0
  0
LINE
  5
2C3
330
2B5
100
AcDbEntity
  8
250
  6
Continuous
 62
     5
370
    18
100
AcDbLine
 10
88.0
 20
0.0
 30
0.0
 11
88.0
 21
-1.9
 31
0.0
  0
MTEXT
  5
2C4
330
2B5
100
AcDbEntity
  8
41
  6
Continuous
 62
     2
370
    18
100
AcDbMText
 10
50.575
 20
-0.95
 30
0.0
 40
1.0
 41
0.0
 71
     4
 72
     5
  1
\W0.8385;NAME
  7
iso_b_vert
 73
     2
 44
1.084337
1001
ACAD
1000
MTEXTBEGIN
1070
    73
1070
     2
1070
    44
1040
1.084337
1070
    74
1070
     0
1000
MTEXTEND
  0
LINE
  5
2C5
330
2B5
100
AcDbEntity
  8
250
  6
Continuous
 62
     5
370
    18
100
AcDbLine
 10
88.0
 20
0.0
 30
0.0
 11
112.0
 21
0.0
 31
0.0
  0
LINE
  5
2C6
330
2B5
100
AcDbEntity
  8
250
  6
Continuous
 62
     5
370
    18
100
AcDbLine
 10
88.0
 20
-1.9
 30
0.0
 11
112.0
 21
-1.9
 31
0.0
  0
LINE
  5
2C7
330
2B5
100
AcDbEntity
  8
250
  6
Continuous
 62
     5
370
    18
100
AcDbLine
 10
112.0
 20
0.0
 30
0.0
 11
112.0
 21
-1.9
 31
0.0
  0
MTEXT
  5
2C8
330
2B5
100
AcDbEntity
  8
41
  6
Continuous
 62
     2
370
    18
100
AcDbMText
 10
88.57499999999999
 20
-0.95
 30
0.0
 40
1.0
 41
0.0
 71
     4
 72
     5
  1
\W0.8136;USER ID
  7
iso_b_vert
 73
     2
 44
1.084337
1001
ACAD
1000
MTEXTBEGIN
1070
    73
1070
     2
1070
    44
1040
1.084337
1070
    74
1070
     0
1000
MTEXTEND
  0
LINE
  5
2C9
330
2B5
100
AcDbEntity
  8
250
  6
Continuous
 62
     5
370
    18
100
AcDbLine
 10
112.0
 20
0.0
 30
0.0
 11
124.0
 21
0.0
 31
0.0
  0
LINE
  5
2CA
330
2B5
100
AcDbEntity
  8
250
  6
Continuous
 62
     5
370
    18
100
AcDbLine
 10
124.0
 20
0.0
 30
0.0
 11
124.0
 21
-1.9
 31
0.0
  0
MTEXT
  5
2CB
330
2B5
100
AcDbEntity
  8
41
  6
Continuous
 62
     2
370
    18
100
AcDbMText
 10
112.575
 20
-0.95
 30
0.0
 40
1.0
 41
0.0
 71
     4
 72
     5
  1
\W0.8468;SCALE
  7
iso_b_vert
 73
     2
 44
1.084337
1001
ACAD
1000
MTEXTBEGIN
1070
    73
1070
     2
1070
    44
1040
1.084337
1070
    74
1070
     0
1000
MTEXTEND
  0
LINE
  5
2CC
330
2B5
100
AcDbEntity
  8
250
  6
Continuous
 62
     5
370
    18
100
AcDbLine
 10
124.0
 20
0.0
 30
0.0
 11
180.0
 21
0.0
 31
0.0
  0
LINE
  5
2CD
330
2B5
100
AcDbEntity
  8
250
  6
Continuous
 62
     5
370
    18
100
AcDbLine
 10
180.0
 20
0.0
 30
0.0
 11
180.0
 21
-1.9
 31
0.0
  0
MTEXT
  5
2CE
330
2B5
100
AcDbEntity
  8
41
  6
Continuous
 62
     2
370
    18
100
AcDbMText
 10
124.575
 20
-0.95
 30
0.0
 40
1.0
 41
0.0
 71
     4
 72
     5
  1
\W0.8471;SUPERSEDES
  7
iso_b_vert
 73
     2
 44
1.084337
1001
ACAD
1000
MTEXTBEGIN
1070
    73
1070
     2
1070
    44
1040
1.084337
1070
    74
1070
     0
1000
MTEXTEND
  0
LINE
  5
2CF
330
2B5
100
AcDbEntity
  8
250
  6
Continuous
 62
     5
370
    18
100
AcDbLine
 10
0.0
 20
-1.9
 30
0.0
 11
0.0
 21
-5.4
 31
0.0
  0
LINE
  5
2D0
330
2B5
100
AcDbEntity
  8
250
  6
Continuous
 62
     5
370
    18
100
AcDbLine
 10
12.0
 20
-1.9
 30
0.0
 11
12.0
 21
-5.4
 31
0.0
  0
LINE
  5
2D1
330
2B5
100
AcDbEntity
  8
250
  6
Continuous
 62
     5
370
    18
100
AcDbLine
 10
12.0
 20
-5.4
 30
0.0
 11
26.0
 21
-5.4
 31
0.0
  0
LINE
  5
2D2
330
2B5
100
AcDbEntity
  8
250
  6
Continuous
 62
     5
370
    18
100
AcDbLine
 10
26.0
 20
-1.9
 30
0.0
 11
26.0
 21
-5.4
 31
0.0
  0
MTEXT
  5
2D3
330
2B5
100
AcDbEntity
  8
41
  6
Continuous
 62
     2
370
    18
100
AcDbMText
 10
12.575
 20
-3.649999999999999
 30
0.0
 40
1.0
 41
0.0
 71
     4
 72
     5
  1
\W0.8408;DESIGNED
  7
iso_b_vert
 73
     2
 44
1.084337
1001
ACAD
1000
MTEXTBEGIN
1070
    73
1070
     2
1070
    44
1040
1.084337
1070
    74
1070
     0
1000
MTEXTEND
  0
LINE
  5
2D4
330
2B5
100
AcDbEntity
  8
250
  6
Continuous
 62
     5
370
    18
100
AcDbLine
 10
26.0
 20
-5.4
 30
0.0
 11
50.0
 21
-5.4
 31
0.0
  0
LINE
  5
2D5
330
2B5
100
AcDbEntity
  8
250
  6
Continuous
 62
     5
370
    18
100
AcDbLine
 10
50.0
 20
-1.9
 30
0.0
 11
50.0
 21
-5.4
 31
0.0
  0
MTEXT
  5
2D6
330
2B5
100
AcDbEntity
  8
41
  6
Continuous
 62
     2
370
    18
100
AcDbMText
 10
27.075
 20
-3.649999999999999
 30
0.0
 40
2.0
 41
0.0
 71
     4
 72
     5
  1
\W0.7379;2020-08-31
  7
iso_b_vert
 73
     2
 44
1.084337
1001
ACAD
1000
MTEXTBEGIN
1070
    73
1070
     2
1070
    44
1040
1.084337
1070
    74
1070
     0
1000
MTEXTEND
  0
LINE
  5
2D7
330
2B5
100
AcDbEntity
  8
250
  6
Continuous
 62
     5
370
    18
100
AcDbLine
 10
50.0
 20
-5.4
 30
0.0
 11
88.0
 21
-5.4
 31
0.0
  0
LINE
  5
2D8
330
2B5
100
AcDbEntity
  8
250
  6
Continuous
 62
     5
370
    18
100
AcDbLine
 10
88.0
 20
-1.9
 30
0.0
 11
88.0
 21
-5.4
 31
0.0
  0
MTEXT
  5
2D9
330
2B5
100
AcDbEntity
  8
41
  6
Continuous
 62
     2
370
    18
100
AcDbMText
 10
51.075
 20
-3.649999999999999
 30
0.0
 40
2.0
 41
0.0
 71
     4
 72
     5
  1
\W0.8822;R.Vlcek
  7
iso_b_vert
 73
     2
 44
1.084337
1001
ACAD
1000
MTEXTBEGIN
1070
    73
1070
     2
1070
    44
1040
1.084337
1070
    74
1070
     0
1000
MTEXTEND
  0
LINE
  5
2DA
330
2B5
100
AcDbEntity
  8
250
  6
Continuous
 62
     5
370
    18
100
AcDbLine
 10
88.0
 20
-5.4
 30
0.0
 11
112.0
 21
-5.4
 31
0.0
  0
LINE
  5
2DB
330
2B5
100
AcDbEntity
  8
250
  6
Continuous
 62
     5
370
    18
100
AcDbLine
 10
112.0
 20
-1.9
 30
0.0
 11
112.0
 21
-5.4
 31
0.0
  0
MTEXT
  5
2DC
330
2B5
100
AcDbEntity
  8
41
  6
Continuous
 62
     2
370
    18
100
AcDbMText
 10
89.075
 20
-3.649999999999999
 30
0.0
 40
2.0
 41
0.0
 71
     4
 72
     5
  1
\W0.8327;MP5448
  7
iso_b_vert
 73
     2
 44
1.084337
1001
ACAD
1000
MTEXTBEGIN
1070
    73
1070
     2
1070
    44
1040
1.084337
1070
    74
1070
     0
1000
MTEXTEND
  0
LINE
  5
2DD
330
2B5
100
AcDbEntity
  8
250
  6
Continuous
 62
     5
370
    18
100
AcDbLine
 10
124.0
 20
-1.9
 30
0.0
 11
124.0
 21
-5.4
 31
0.0
  0
LINE
  5
2DE
330
2B5
100
AcDbEntity
  8
250
  6
Continuous
 62
     5
370
    18
100
AcDbLine
 10
180.0
 20
-1.9
 30
0.0
 11
180.0
 21
-5.4
 31
0.0
  0
LINE
  5
2DF
330
2B5
100
AcDbEntity
  8
250
  6
Continuous
 62
     5
370
    18
100
AcDbLine
 10
0.0
 20
-5.4
 30
0.0
 11
0.0
 21
-8.9
 31
0.0
  0
LINE
  5
2E0
330
2B5
100
AcDbEntity
  8
250
  6
Continuous
 62
     5
370
    18
100
AcDbLine
 10
0.0
 20
-8.9
 30
0.0
 11
12.0
 21
-8.9
 31
0.0
  0
LINE
  5
2E1
330
2B5
100
AcDbEntity
  8
250
  6
Continuous
 62
     5
370
    18
100
AcDbLine
 10
12.0
 20
-5.4
 30
0.0
 11
12.0
 21
-8.9
 31
0.0
  0
MTEXT
  5
2E2
330
2B5
100
AcDbEntity
  8
41
  6
Continuous
 62
     2
370
    18
100
AcDbMText
 10
6.0
 20
-5.4
 30
0.0
 40
3.5
 41
0.0
 71
     5
 72
     5
  1
\W0.8511;FR
  7
iso_b_vert
 73
     2
 44
1.084337
1001
ACAD
1000
MTEXTBEGIN
1070
    73
1070
     2
1070
    44
1040
1.084337
1070
    74
1070
     0
1000
MTEXTEND
  0
LINE
  5
2E3
330
2B5
100
AcDbEntity
  8
250
  6
Continuous
 62
     5
370
    18
100
AcDbLine
 10
12.0
 20
-8.9
 30
0.0
 11
26.0
 21
-8.9
 31
0.0
  0
LINE
  5
2E4
330
2B5
100
AcDbEntity
  8
250
  6
Continuous
 62
     5
370
    18
100
AcDbLine
 10
26.0
 20
-5.4
 30
0.0
 11
26.0
 21
-8.9
 31
0.0
  0
MTEXT
  5
2E5
330
2B5
100
AcDbEntity
  8
41
  6
Continuous
 62
     2
370
    18
100
AcDbMText
 10
12.575
 20
-7.15
 30
0.0
 40
1.0
 41
0.0
 71
     4
 72
     5
  1
\W0.8716;APPROVED
  7
iso_b_vert
 73
     2
 44
1.084337
1001
ACAD
1000
MTEXTBEGIN
1070
    73
1070
     2
1070
    44
1040
1.084337
1070
    74
1070
     0
1000
MTEXTEND
  0
LINE
  5
2E6
330
2B5
100
AcDbEntity
  8
250
  6
Continuous
 62
     5
370
    18
100
AcDbLine
 10
26.0
 20
-8.9
 30
0.0
 11
50.0
 21
-8.9
 31
0.0
  0
LINE
  5
2E7
330
2B5
100
AcDbEntity
  8
250
  6
Continuous
 62
     5
370
    18
100
AcDbLine
 10
50.0
 20
-5.4
 30
0.0
 11
50.0
 21
-8.9
 31
0.0
  0
MTEXT
  5
2E8
330
2B5
100
AcDbEntity
  8
41
  6
Continuous
 62
     2
370
    18
100
AcDbMText
 10
27.075
 20
-7.15
 30
0.0
 40
2.0
 41
0.0
 71
     4
 72
     5
  1
\W0.7379;2020-08-31
  7
iso_b_vert
 73
     2
 44
1.084337
1001
ACAD
1000
MTEXTBEGIN
1070
    73
1070
     2
1070
    44
1040
1.084337
1070
    74
1070
     0
1000
MTEXTEND
  0
LINE
  5
2E9
330
2B5
100
AcDbEntity
  8
250
  6
Continuous
 62
     5
370
    18
100
AcDbLine
 10
50.0
 20
-8.9
 30
0.0
 11
88.0
 21
-8.9
 31
0.0
  0
LINE
  5
2EA
330
2B5
100
AcDbEntity
  8
250
  6
Continuous
 62
     5
370
    18
100
AcDbLine
 10
88.0
 20
-5.4
 30
0.0
 11
88.0
 21
-8.9
 31
0.0
  0
MTEXT
  5
2EB
330
2B5
100
AcDbEntity
  8
41
  6
Continuous
 62
     2
370
    18
100
AcDbMText
 10
51.075
 20
-7.15
 30
0.0
 40
2.0
 41
0.0
 71
     4
 72
     5
  1
\W0.9012;T.Sebesta
  7
iso_b_vert
 73
     2
 44
1.084337
1001
ACAD
1000
MTEXTBEGIN
1070
    73
1070
     2
1070
    44
1040
1.084337
1070
    74
1070
     0
1000
MTEXTEND
  0
LINE
  5
2EC
330
2B5
100
AcDbEntity
  8
250
  6
Continuous
 62
     5
370
    18
100
AcDbLine
 10
88.0
 20
-8.9
 30
0.0
 11
112.0
 21
-8.9
 31
0.0
  0
LINE
  5
2ED
330
2B5
100
AcDbEntity
  8
250
  6
Continuous
 62
     5
370
    18
100
AcDbLine
 10
112.0
 20
-5.4
 30
0.0
 11
112.0
 21
-8.9
 31
0.0
  0
MTEXT
  5
2EE
330
2B5
100
AcDbEntity
  8
41
  6
Continuous
 62
     2
370
    18
100
AcDbMText
 10
89.075
 20
-7.15
 30
0.0
 40
2.0
 41
0.0
 71
     4
 72
     5
  1
\W0.7837;PI2597
  7
iso_b_vert
 73
     2
 44
1.084337
1001
ACAD
1000
MTEXTBEGIN
1070
    73
1070
     2
1070
    44
1040
1.084337
1070
    74
1070
     0
1000
MTEXTEND
  0
LINE
  5
2EF
330
2B5
100
AcDbEntity
  8
250
  6
Continuous
 62
     5
370
    18
100
AcDbLine
 10
112.0
 20
-8.9
 30
0.0
 11
124.0
 21
-8.9
 31
0.0
  0
LINE
  5
2F0
330
2B5
100
AcDbEntity
  8
250
  6
Continuous
 62
     5
370
    18
100
AcDbLine
 10
124.0
 20
-5.4
 30
0.0
 11
124.0
 21
-8.9
 31
0.0
  0
MTEXT
  5
2F1
330
2B5
100
AcDbEntity
  8
41
  6
Continuous
 62
     2
370
    18
100
AcDbMText
 10
118.0
 20
-5.4
 30
0.0
 40
3.5
 41
0.0
 71
     5
 72
     5
  1
\W0.6016;1:1
  7
iso_b_vert
 73
     2
 44
1.084337
1001
ACAD
1000
MTEXTBEGIN
1070
    73
1070
     2
1070
    44
1040
1.084337
1070
    74
1070
     0
1000
MTEXTEND
  0
LINE
  5
2F2
330
2B5
100
AcDbEntity
  8
250
  6
Continuous
 62
     5
370
    18
100
AcDbLine
 10
124.0
 20
-8.9
 30
0.0
 11
180.0
 21
-8.9
 31
0.0
  0
LINE
  5
2F3
330
2B5
100
AcDbEntity
  8
250
  6
Continuous
 62
     5
370
    18
100
AcDbLine
 10
180.0
 20
-5.4
 30
0.0
 11
180.0
 21
-8.9
 31
0.0
  0
ENDBLK
  5
2F6
330
2B5
100
AcDbEntity
  8
0
100
AcDbBlockEnd
  0
BLOCK
  5
325
330
2F7
100
AcDbEntity
  8
0
100
AcDbBlockBegin
  2
TabularNote3
 70
     0
 10
0.0
 20
0.0
 30
0.0
  3
TabularNote3
  1

  0
LINE
  5
2F8
330
2F7
100
AcDbEntity
  8
250
  6
Continuous
 62
     5
370
    18
100
AcDbLine
 10
0.0
 20
0.0
 30
0.0
 11
10.0
 21
0.0
 31
0.0
  0
LINE
  5
2F9
330
2F7
100
AcDbEntity
  8
250
  6
Continuous
 62
     5
370
    18
100
AcDbLine
 10
0.0
 20
0.0
 30
0.0
 11
0.0
 21
-1.9
 31
0.0
  0
LINE
  5
2FA
330
2F7
100
AcDbEntity
  8
250
  6
Continuous
 62
     5
370
    18
100
AcDbLine
 10
10.0
 20
0.0
 30
0.0
 11
10.0
 21
-1.9
 31
0.0
  0
MTEXT
  5
2FB
330
2F7
100
AcDbEntity
  8
41
  6
Continuous
 62
     2
370
    18
100
AcDbMText
 10
0.575
 20
-0.95
 30
0.0
 40
1.0
 41
0.0
 71
     4
 72
     5
  1
\W0.8569;FORMAT
  7
iso_b_vert
 73
     2
 44
1.084337
1001
ACAD
1000
MTEXTBEGIN
1070
    73
1070
     2
1070
    44
1040
1.084337
1070
    74
1070
     0
1000
MTEXTEND
  0
LINE
  5
2FC
330
2F7
100
AcDbEntity
  8
250
  6
Continuous
 62
     5
370
    18
100
AcDbLine
 10
10.0
 20
0.0
 30
0.0
 11
33.0
 21
0.0
 31
0.0
  0
LINE
  5
2FD
330
2F7
100
AcDbEntity
  8
250
  6
Continuous
 62
     5
370
    18
100
AcDbLine
 10
33.0
 20
0.0
 30
0.0
 11
33.0
 21
-1.9
 31
0.0
  0
LINE
  5
2FE
330
2F7
100
AcDbEntity
  8
250
  6
Continuous
 62
     5
370
    18
100
AcDbLine
 10
33.0
 20
0.0
 30
0.0
 11
94.0
 21
0.0
 31
0.0
  0
LINE
  5
2FF
330
2F7
100
AcDbEntity
  8
250
  6
Continuous
 62
     5
370
    18
100
AcDbLine
 10
94.0
 20
0.0
 30
0.0
 11
94.0
 21
-1.9
 31
0.0
  0
MTEXT
  5
300
330
2F7
100
AcDbEntity
  8
41
  6
Continuous
 62
     2
370
    18
100
AcDbMText
 10
33.575
 20
-0.95
 30
0.0
 40
1.0
 41
0.0
 71
     4
 72
     5
  1
\W0.8199;SUB-KIND DESCRIPTION
  7
iso_b_vert
 73
     2
 44
1.084337
1001
ACAD
1000
MTEXTBEGIN
1070
    73
1070
     2
1070
    44
1040
1.084337
1070
    74
1070
     0
1000
MTEXTEND
  0
LINE
  5
301
330
2F7
100
AcDbEntity
  8
250
  6
Continuous
 62
     5
370
    18
100
AcDbLine
 10
94.0
 20
0.0
 30
0.0
 11
116.0
 21
0.0
 31
0.0
  0
LINE
  5
302
330
2F7
100
AcDbEntity
  8
250
  6
Continuous
 62
     5
370
    18
100
AcDbLine
 10
116.0
 20
0.0
 30
0.0
 11
116.0
 21
-1.9
 31
0.0
  0
MTEXT
  5
303
330
2F7
100
AcDbEntity
  8
41
  6
Continuous
 62
     2
370
    18
100
AcDbMText
 10
94.57500000000001
 20
-0.95
 30
0.0
 40
1.0
 41
0.0
 71
     4
 72
     5
  1
\W0.8011;SUB-KIND
  7
iso_b_vert
 73
     2
 44
1.084337
1001
ACAD
1000
MTEXTBEGIN
1070
    73
1070
     2
1070
    44
1040
1.084337
1070
    74
1070
     0
1000
MTEXTEND
  0
LINE
  5
304
330
2F7
100
AcDbEntity
  8
250
  6
Continuous
 62
     5
370
    18
100
AcDbLine
 10
116.0
 20
0.0
 30
0.0
 11
148.0
 21
0.0
 31
0.0
  0
LINE
  5
305
330
2F7
100
AcDbEntity
  8
250
  6
Continuous
 62
     5
370
    18
100
AcDbLine
 10
148.0
 20
0.0
 30
0.0
 11
148.0
 21
-1.9
 31
0.0
  0
MTEXT
  5
306
330
2F7
100
AcDbEntity
  8
41
  6
Continuous
 62
     2
370
    18
100
AcDbMText
 10
116.575
 20
-0.95
 30
0.0
 40
1.0
 41
0.0
 71
     4
 72
     5
  1
\W0.8484;DRAWING NUMBER
  7
iso_b_vert
 73
     2
 44
1.084337
1001
ACAD
1000
MTEXTBEGIN
1070
    73
1070
     2
1070
    44
1040
1.084337
1070
    74
1070
     0
1000
MTEXTEND
  0
LINE
  5
307
330
2F7
100
AcDbEntity
  8
250
  6
Continuous
 62
     5
370
    18
100
AcDbLine
 10
148.0
 20
0.0
 30
0.0
 11
159.0
 21
0.0
 31
0.0
  0
LINE
  5
308
330
2F7
100
AcDbEntity
  8
250
  6
Continuous
 62
     5
370
    18
100
AcDbLine
 10
159.0
 20
0.0
 30
0.0
 11
159.0
 21
-1.9
 31
0.0
  0
LINE
  5
309
330
2F7
100
AcDbEntity
  8
250
  6
Continuous
 62
     5
370
    18
100
AcDbLine
 10
159.0
 20
0.0
 30
0.0
 11
170.0
 21
0.0
 31
0.0
  0
LINE
  5
30A
330
2F7
100
AcDbEntity
  8
250
  6
Continuous
 62
     5
370
    18
100
AcDbLine
 10
170.0
 20
0.0
 30
0.0
 11
170.0
 21
-1.9
 31
0.0
  0
LINE
  5
30B
330
2F7
100
AcDbEntity
  8
250
  6
Continuous
 62
     5
370
    18
100
AcDbLine
 10
170.0
 20
0.0
 30
0.0
 11
180.0
 21
0.0
 31
0.0
  0
LINE
  5
30C
330
2F7
100
AcDbEntity
  8
250
  6
Continuous
 62
     5
370
    18
100
AcDbLine
 10
180.0
 20
0.0
 30
0.0
 11
180.0
 21
-1.9
 31
0.0
  0
MTEXT
  5
30D
330
2F7
100
AcDbEntity
  8
41
  6
Continuous
 62
     2
370
    18
100
AcDbMText
 10
170.575
 20
-0.95
 30
0.0
 40
1.0
 41
0.0
 71
     4
 72
     5
  1
\W0.8706;VERSION
  7
iso_b_vert
 73
     2
 44
1.084337
1001
ACAD
1000
MTEXTBEGIN
1070
    73
1070
     2
1070
    44
1040
1.084337
1070
    74
1070
     0
1000
MTEXTEND
  0
LINE
  5
30E
330
2F7
100
AcDbEntity
  8
250
  6
Continuous
 62
     5
370
    18
100
AcDbLine
 10
0.0
 20
-1.9
 30
0.0
 11
0.0
 21
-8.9
 31
0.0
  0
LINE
  5
30F
330
2F7
100
AcDbEntity
  8
250
  6
Continuous
 62
     5
370
    18
100
AcDbLine
 10
10.0
 20
-1.9
 30
0.0
 11
10.0
 21
-8.9
 31
0.0
  0
LINE
  5
310
330
2F7
100
AcDbEntity
  8
250
  6
Continuous
 62
     5
370
    18
100
AcDbLine
 10
0.0
 20
-8.9
 30
0.0
 11
10.0
 21
-8.9
 31
0.0
  0
MTEXT
  5
311
330
2F7
100
AcDbEntity
  8
41
  6
Continuous
 62
     2
370
    18
100
AcDbMText
 10
1.825
 20
-5.4
 30
0.0
 40
3.5
 41
0.0
 71
     4
 72
     5
  1
\W0.8203;A3
  7
iso_b_vert
 73
     2
 44
1.084337
1001
ACAD
1000
MTEXTBEGIN
1070
    73
1070
     2
1070
    44
1040
1.084337
1070
    74
1070
     0
1000
MTEXTEND
  0
LINE
  5
312
330
2F7
100
AcDbEntity
  8
250
  6
Continuous
 62
     5
370
    18
100
AcDbLine
 10
33.0
 20
-1.9
 30
0.0
 11
33.0
 21
-8.9
 31
0.0
  0
LINE
  5
313
330
2F7
100
AcDbEntity
  8
250
  6
Continuous
 62
     5
370
    18
100
AcDbLine
 10
10.0
 20
-8.9
 30
0.0
 11
33.0
 21
-8.9
 31
0.0
  0
LINE
  5
314
330
2F7
100
AcDbEntity
  8
250
  6
Continuous
 62
     5
370
    18
100
AcDbLine
 10
94.0
 20
-1.9
 30
0.0
 11
94.0
 21
-8.9
 31
0.0
  0
LINE
  5
315
330
2F7
100
AcDbEntity
  8
250
  6
Continuous
 62
     5
370
    18
100
AcDbLine
 10
33.0
 20
-8.9
 30
0.0
 11
94.0
 21
-8.9
 31
0.0
  0
MTEXT
  5
316
330
2F7
100
AcDbEntity
  8
41
  6
Continuous
 62
     2
370
    18
100
AcDbMText
 10
34.825
 20
-5.4
 30
0.0
 40
3.5
 41
0.0
 71
     4
 72
     5
  1
\W0.8564;Assembling Directives
  7
iso_b_vert
 73
     2
 44
1.084337
1001
ACAD
1000
MTEXTBEGIN
1070
    73
1070
     2
1070
    44
1040
1.084337
1070
    74
1070
     0
1000
MTEXTEND
  0
LINE
  5
317
330
2F7
100
AcDbEntity
  8
250
  6
Continuous
 62
     5
370
    18
100
AcDbLine
 10
116.0
 20
-1.9
 30
0.0
 11
116.0
 21
-8.9
 31
0.0
  0
LINE
  5
318
330
2F7
100
AcDbEntity
  8
250
  6
Continuous
 62
     5
370
    18
100
AcDbLine
 10
94.0
 20
-8.9
 30
0.0
 11
116.0
 21
-8.9
 31
0.0
  0
MTEXT
  5
319
330
2F7
100
AcDbEntity
  8
41
  6
Continuous
 62
     2
370
    18
100
AcDbMText
 10
95.82500000000001
 20
-5.4
 30
0.0
 40
3.5
 41
0.0
 71
     4
 72
     5
  1
\W0.7880;TB07_00
  7
iso_b_vert
 73
     2
 44
1.084337
1001
ACAD
1000
MTEXTBEGIN
1070
    73
1070
     2
1070
    44
1040
1.084337
1070
    74
1070
     0
1000
MTEXTEND
  0
LINE
  5
31A
330
2F7
100
AcDbEntity
  8
250
  6
Continuous
 62
     5
370
    18
100
AcDbLine
 10
116.0
 20
-8.9
 30
0.0
 11
148.0
 21
-8.9
 31
0.0
  0
MTEXT
  5
31B
330
2F7
100
AcDbEntity
  8
41
  6
Continuous
 62
     2
370
    18
100
AcDbMText
 10
146.25
 20
-5.4
 30
0.0
 40
3.5
 41
0.0
 71
     6
 72
     5
  1
\W0.7724;203139981
  7
iso_b_vert
 73
     2
 44
1.084337
1001
ACAD
1000
MTEXTBEGIN
1070
    73
1070
     2
1070
    44
1040
1.084337
1070
    74
1070
     0
1000
MTEXTEND
  0
LINE
  5
31C
330
2F7
100
AcDbEntity
  8
250
  6
Continuous
 62
     5
370
    18
100
AcDbLine
 10
148.0
 20
-8.9
 30
0.0
 11
159.0
 21
-8.9
 31
0.0
  0
MTEXT
  5
31D
330
2F7
100
AcDbEntity
  8
41
  6
Continuous
 62
     2
370
    18
100
AcDbMText
 10
149.748828
 20
-5.4
 30
0.0
 40
3.5
 41
0.0
 71
     4
 72
     5
  1
\W0.7517;D20
  7
iso_b_vert
 73
     2
 44
1.084337
1001
ACAD
1000
MTEXTBEGIN
1070
    73
1070
     2
1070
    44
1040
1.084337
1070
    74
1070
     0
1000
MTEXTEND
  0
LINE
  5
31E
330
2F7
100
AcDbEntity
  8
250
  6
Continuous
 62
     5
370
    18
100
AcDbLine
 10
170.0
 20
-1.9
 30
0.0
 11
170.0
 21
-8.9
 31
0.0
  0
LINE
  5
31F
330
2F7
100
AcDbEntity
  8
250
  6
Continuous
 62
     5
370
    18
100
AcDbLine
 10
159.0
 20
-8.9
 30
0.0
 11
170.0
 21
-8.9
 31
0.0
  0
MTEXT
  5
320
330
2F7
100
AcDbEntity
  8
41
  6
Continuous
 62
     2
370
    18
100
AcDbMText
 10
160.825
 20
-5.4
 30
0.0
 40
3.5
 41
0.0
 71
     4
 72
     5
  1
\W0.7535;002
  7
iso_b_vert
 73
     2
 44
1.084337
1001
ACAD
1000
MTEXTBEGIN
1070
    73
1070
     2
1070
    44
1040
1.084337
1070
    74
1070
     0
1000
MTEXTEND
  0
LINE
  5
321
330
2F7
100
AcDbEntity
  8
250
  6
Continuous
 62
     5
370
    18
100
AcDbLine
 10
180.0
 20
-1.9
 30
0.0
 11
180.0
 21
-8.9
 31
0.0
  0
LINE
  5
322
330
2F7
100
AcDbEntity
  8
250
  6
Continuous
 62
     5
370
    18
100
AcDbLine
 10
170.0
 20
-8.9
 30
0.0
 11
180.0
 21
-8.9
 31
0.0
  0
MTEXT
  5
323
330
2F7
100
AcDbEntity
  8
41
  6
Continuous
 62
     2
370
    18
100
AcDbMText
 10
171.825
 20
-5.4
 30
0.0
 40
3.5
 41
0.0
 71
     4
 72
     5
  1
\W0.7335;00
  7
iso_b_vert
 73
     2
 44
1.084337
1001
ACAD
1000
MTEXTBEGIN
1070
    73
1070
     2
1070
    44
1040
1.084337
1070
    74
1070
     0
1000
MTEXTEND
  0
ENDBLK
  5
326
330
2F7
100
AcDbEntity
  8
0
100
AcDbBlockEnd
  0
BLOCK
  5
349
330
327
100
AcDbEntity
  8
0
100
AcDbBlockBegin
  2
MODIFICATION_TABLE
 70
     0
 10
0.0
 20
0.0
 30
0.0
  3
MODIFICATION_TABLE
  1

  0
LINE
  5
328
330
327
100
AcDbEntity
  8
250
  6
Continuous
 62
     5
370
    18
100
AcDbLine
 10
0.0
 20
14.35
 30
0.0
 11
5.08
 21
14.35
 31
0.0
  0
LINE
  5
329
330
327
100
AcDbEntity
  8
250
  6
Continuous
 62
     5
370
    18
100
AcDbLine
 10
0.0
 20
14.35
 30
0.0
 11
0.0
 21
6.349999999999999
 31
0.0
  0
LINE
  5
32A
330
327
100
AcDbEntity
  8
250
  6
Continuous
 62
     5
370
    18
100
AcDbLine
 10
5.08
 20
14.35
 30
0.0
 11
5.08
 21
6.349999999999999
 31
0.0
  0
LINE
  5
32B
330
327
100
AcDbEntity
  8
250
  6
Continuous
 62
     5
370
    18
100
AcDbLine
 10
0.0
 20
6.349999999999999
 30
0.0
 11
5.08
 21
6.349999999999999
 31
0.0
  0
LINE
  5
32C
330
327
100
AcDbEntity
  8
250
  6
Continuous
 62
     5
370
    18
100
AcDbLine
 10
5.08
 20
14.35
 30
0.0
 11
15.24
 21
14.35
 31
0.0
  0
LINE
  5
32D
330
327
100
AcDbEntity
  8
250
  6
Continuous
 62
     5
370
    18
100
AcDbLine
 10
15.24
 20
14.35
 30
0.0
 11
15.24
 21
6.349999999999999
 31
0.0
  0
LINE
  5
32E
330
327
100
AcDbEntity
  8
250
  6
Continuous
 62
     5
370
    18
100
AcDbLine
 10
5.08
 20
6.349999999999999
 30
0.0
 11
15.24
 21
6.349999999999999
 31
0.0
  0
LINE
  5
32F
330
327
100
AcDbEntity
  8
250
  6
Continuous
 62
     5
370
    18
100
AcDbLine
 10
15.24
 20
14.35
 30
0.0
 11
97.00000199999999
 21
14.35
 31
0.0
  0
LINE
  5
330
330
327
100
AcDbEntity
  8
250
  6
Continuous
 62
     5
370
    18
100
AcDbLine
 10
97.00000199999999
 20
14.35
 30
0.0
 11
97.00000199999999
 21
6.349999999999999
 31
0.0
  0
LINE
  5
331
330
327
100
AcDbEntity
  8
250
  6
Continuous
 62
     5
370
    18
100
AcDbLine
 10
15.24
 20
6.349999999999999
 30
0.0
 11
97.00000199999999
 21
6.349999999999999
 31
0.0
  0
LINE
  5
332
330
327
100
AcDbEntity
  8
250
  6
Continuous
 62
     5
370
    18
100
AcDbLine
 10
97.00000199999999
 20
14.35
 30
0.0
 11
114.780003
 21
14.35
 31
0.0
  0
LINE
  5
333
330
327
100
AcDbEntity
  8
250
  6
Continuous
 62
     5
370
    18
100
AcDbLine
 10
114.780003
 20
14.35
 30
0.0
 11
114.780003
 21
6.349999999999999
 31
0.0
  0
LINE
  5
334
330
327
100
AcDbEntity
  8
250
  6
Continuous
 62
     5
370
    18
100
AcDbLine
 10
97.00000199999999
 20
6.349999999999999
 30
0.0
 11
114.780003
 21
6.349999999999999
 31
0.0
  0
LINE
  5
335
330
327
100
AcDbEntity
  8
250
  6
Continuous
 62
     5
370
    18
100
AcDbLine
 10
114.780003
 20
14.35
 30
0.0
 11
144.780003
 21
14.35
 31
0.0
  0
LINE
  5
336
330
327
100
AcDbEntity
  8
250
  6
Continuous
 62
     5
370
    18
100
AcDbLine
 10
144.780003
 20
14.35
 30
0.0
 11
144.780003
 21
6.349999999999999
 31
0.0
  0
LINE
  5
337
330
327
100
AcDbEntity
  8
250
  6
Continuous
 62
     5
370
    18
100
AcDbLine
 10
114.780003
 20
6.349999999999999
 30
0.0
 11
144.780003
 21
6.349999999999999
 31
0.0
  0
LINE
  5
338
330
327
100
AcDbEntity
  8
250
  6
Continuous
 62
     5
370
    18
100
AcDbLine
 10
0.0
 20
6.349999999999999
 30
0.0
 11
0.0
 21
0.0
 31
0.0
  0
LINE
  5
339
330
327
100
AcDbEntity
  8
250
  6
Continuous
 62
     5
370
    18
100
AcDbLine
 10
5.08
 20
6.349999999999999
 30
0.0
 11
5.08
 21
0.0
 31
0.0
  0
LINE
  5
33A
330
327
100
AcDbEntity
  8
250
  6
Continuous
 62
     5
370
    18
100
AcDbLine
 10
0.0
 20
0.0
 30
0.0
 11
5.08
 21
0.0
 31
0.0
  0
MTEXT
  5
33B
330
327
100
AcDbEntity
  8
41
  6
Continuous
 62
     2
370
    18
100
AcDbMText
 10
2.54
 20
3.174999999999999
 30
0.0
 40
1.0
 41
0.0
 71
     5
 72
     5
  1
\W0.9003;VERS.
  7
iso_b_vert
 73
     2
 44
1.084337
1001
ACAD
1000
MTEXTBEGIN
1070
    73
1070
     2
1070
    44
1040
1.084337
1070
    74
1070
     0
1000
MTEXTEND
  0
LINE
  5
33C
330
327
100
AcDbEntity
  8
250
  6
Continuous
 62
     5
370
    18
100
AcDbLine
 10
15.24
 20
6.349999999999999
 30
0.0
 11
15.24
 21
0.0
 31
0.0
  0
LINE
  5
33D
330
327
100
AcDbEntity
  8
250
  6
Continuous
 62
     5
370
    18
100
AcDbLine
 10
5.08
 20
0.0
 30
0.0
 11
15.24
 21
0.0
 31
0.0
  0
MTEXT
  5
33E
330
327
100
AcDbEntity
  8
41
  6
Continuous
 62
     2
370
    18
100
AcDbMText
 10
10.16
 20
3.174999999999999
 30
0.0
 40
1.0
 41
0.0
 71
     5
 72
     5
  1
\W0.8190;CHANGE\PNUMBER
  7
iso_b_vert
 73
     1
 44
1.084337
1001
ACAD
1000
MTEXTBEGIN
1070
    73
1070
     1
1070
    44
1040
1.084337
1070
    74
1070
     0
1000
MTEXTEND
  0
LINE
  5
33F
330
327
100
AcDbEntity
  8
250
  6
Continuous
 62
     5
370
    18
100
AcDbLine
 10
97.00000199999999
 20
6.349999999999999
 30
0.0
 11
97.00000199999999
 21
0.0
 31
0.0
  0
LINE
  5
340
330
327
100
AcDbEntity
  8
250
  6
Continuous
 62
     5
370
    18
100
AcDbLine
 10
15.24
 20
0.0
 30
0.0
 11
97.00000199999999
 21
0.0
 31
0.0
  0
MTEXT
  5
341
330
327
100
AcDbEntity
  8
41
  6
Continuous
 62
     2
370
    18
100
AcDbMText
 10
56.120003
 20
3.174999999999999
 30
0.0
 40
1.0
 41
0.0
 71
     5
 72
     5
  1
\W0.8467;DESCRIPTION
  7
iso_b_vert
 73
     2
 44
1.084337
1001
ACAD
1000
MTEXTBEGIN
1070
    73
1070
     2
1070
    44
1040
1.084337
1070
    74
1070
     0
1000
MTEXTEND
  0
LINE
  5
342
330
327
100
AcDbEntity
  8
250
  6
Continuous
 62
     5
370
    18
100
AcDbLine
 10
114.780003
 20
6.349999999999999
 30
0.0
 11
114.780003
 21
0.0
 31
0.0
  0
LINE
  5
343
330
327
100
AcDbEntity
  8
250
  6
Continuous
 62
     5
370
    18
100
AcDbLine
 10
97.00000199999999
 20
0.0
 30
0.0
 11
114.780003
 21
0.0
 31
0.0
  0
MTEXT
  5
344
330
327
100
AcDbEntity
  8
41
  6
Continuous
 62
     2
370
    18
100
AcDbMText
 10
105.889999
 20
3.174999999999999
 30
0.0
 40
1.0
 41
0.0
 71
     5
 72
     5
  1
\W0.8824;DATE
  7
iso_b_vert
 73
     2
 44
1.084337
1001
ACAD
1000
MTEXTBEGIN
1070
    73
1070
     2
1070
    44
1040
1.084337
1070
    74
1070
     0
1000
MTEXTEND
  0
LINE
  5
345
330
327
100
AcDbEntity
  8
250
  6
Continuous
 62
     5
370
    18
100
AcDbLine
 10
144.780003
 20
6.349999999999999
 30
0.0
 11
144.780003
 21
0.0
 31
0.0
  0
LINE
  5
346
330
327
100
AcDbEntity
  8
250
  6
Continuous
 62
     5
370
    18
100
AcDbLine
 10
114.780003
 20
0.0
 30
0.0
 11
144.780003
 21
0.0
 31
0.0
  0
MTEXT
  5
347
330
327
100
AcDbEntity
  8
41
  6
Continuous
 62
     2
370
    18
100
AcDbMText
 10
129.779999
 20
3.174999999999999
 30
0.0
 40
1.0
 41
0.0
 71
     5
 72
     5
  1
\W0.8385;NAME
  7
iso_b_vert
 73
     2
 44
1.084337
1001
ACAD
1000
MTEXTBEGIN
1070
    73
1070
     2
1070
    44
1040
1.084337
1070
    74
1070
     0
1000
MTEXTEND
  0
ENDBLK
  5
34A
330
327
100
AcDbEntity
  8
0
100
AcDbBlockEnd
  0
BLOCK
  5
39A
330
34B
100
AcDbEntity
  8
0
100
AcDbBlockBegin
  2
BOM
 70
     0
 10
0.0
 20
0.0
 30
0.0
  3
BOM
  1

  0
LINE
  5
34C
330
34B
100
AcDbEntity
  8
250
  6
Continuous
 62
     5
370
    18
100
AcDbLine
 10
0.0
 20
36.233333
 30
0.0
 11
10.0
 21
36.233333
 31
0.0
  0
LINE
  5
34D
330
34B
100
AcDbEntity
  8
250
  6
Continuous
 62
     5
370
    18
100
AcDbLine
 10
0.0
 20
36.233333
 30
0.0
 11
0.0
 21
28.233333
 31
0.0
  0
LINE
  5
34E
330
34B
100
AcDbEntity
  8
250
  6
Continuous
 62
     5
370
    18
100
AcDbLine
 10
10.0
 20
36.233333
 30
0.0
 11
10.0
 21
28.233333
 31
0.0
  0
LINE
  5
34F
330
34B
100
AcDbEntity
  8
250
  6
Continuous
 62
     5
370
    18
100
AcDbLine
 10
0.0
 20
28.233333
 30
0.0
 11
10.0
 21
28.233333
 31
0.0
  0
MTEXT
  5
350
330
34B
100
AcDbEntity
  8
41
  6
Continuous
 62
     2
370
    18
100
AcDbMText
 10
5.0
 20
32.233333
 30
0.0
 40
2.5
 41
0.0
 71
     5
 72
     5
  1
\W0.7656;4
  7
iso_b_vert
 73
     2
 44
0.8915659999999999
1001
ACAD
1000
MTEXTBEGIN
1070
    73
1070
     2
1070
    44
1040
0.8915659999999999
1070
    74
1070
     0
1000
MTEXTEND
  0
LINE
  5
351
330
34B
100
AcDbEntity
  8
250
  6
Continuous
 62
     5
370
    18
100
AcDbLine
 10
10.0
 20
36.233333
 30
0.0
 11
20.0
 21
36.233333
 31
0.0
  0
LINE
  5
352
330
34B
100
AcDbEntity
  8
250
  6
Continuous
 62
     5
370
    18
100
AcDbLine
 10
20.0
 20
36.233333
 30
0.0
 11
20.0
 21
28.233333
 31
0.0
  0
LINE
  5
353
330
34B
100
AcDbEntity
  8
250
  6
Continuous
 62
     5
370
    18
100
AcDbLine
 10
10.0
 20
28.233333
 30
0.0
 11
20.0
 21
28.233333
 31
0.0
  0
MTEXT
  5
354
330
34B
100
AcDbEntity
  8
41
  6
Continuous
 62
     2
370
    18
100
AcDbMText
 10
15.0
 20
32.233333
 30
0.0
 40
2.5
 41
0.0
 71
     5
 72
     5
  1
\W0.7875;1
  7
iso_b_vert
 73
     2
 44
0.8915659999999999
1001
ACAD
1000
MTEXTBEGIN
1070
    73
1070
     2
1070
    44
1040
0.8915659999999999
1070
    74
1070
     0
1000
MTEXTEND
  0
LINE
  5
355
330
34B
100
AcDbEntity
  8
250
  6
Continuous
 62
     5
370
    18
100
AcDbLine
 10
20.0
 20
36.233333
 30
0.0
 11
70.0
 21
36.233333
 31
0.0
  0
LINE
  5
356
330
34B
100
AcDbEntity
  8
250
  6
Continuous
 62
     5
370
    18
100
AcDbLine
 10
70.0
 20
36.233333
 30
0.0
 11
70.0
 21
28.233333
 31
0.0
  0
LINE
  5
357
330
34B
100
AcDbEntity
  8
250
  6
Continuous
 62
     5
370
    18
100
AcDbLine
 10
20.0
 20
28.233333
 30
0.0
 11
70.0
 21
28.233333
 31
0.0
  0
MTEXT
  5
358
330
34B
100
AcDbEntity
  8
41
  6
Continuous
 62
     2
370
    18
100
AcDbMText
 10
21.325
 20
32.233333
 30
0.0
 40
2.5
 41
0.0
 71
     4
 72
     5
  1
\W0.8755;SCREWDRIVER
  7
iso_b_vert
 73
     2
 44
0.8915659999999999
1001
ACAD
1000
MTEXTBEGIN
1070
    73
1070
     2
1070
    44
1040
0.8915659999999999
1070
    74
1070
     0
1000
MTEXTEND
  0
LINE
  5
359
330
34B
100
AcDbEntity
  8
250
  6
Continuous
 62
     5
370
    18
100
AcDbLine
 10
70.0
 20
36.233333
 30
0.0
 11
127.0
 21
36.233333
 31
0.0
  0
LINE
  5
35A
330
34B
100
AcDbEntity
  8
250
  6
Continuous
 62
     5
370
    18
100
AcDbLine
 10
127.0
 20
36.233333
 30
0.0
 11
127.0
 21
28.233333
 31
0.0
  0
LINE
  5
35B
330
34B
100
AcDbEntity
  8
250
  6
Continuous
 62
     5
370
    18
100
AcDbLine
 10
70.0
 20
28.233333
 30
0.0
 11
127.0
 21
28.233333
 31
0.0
  0
LINE
  5
35C
330
34B
100
AcDbEntity
  8
250
  6
Continuous
 62
     5
370
    18
100
AcDbLine
 10
127.0
 20
36.233333
 30
0.0
 11
180.0
 21
36.233333
 31
0.0
  0
LINE
  5
35D
330
34B
100
AcDbEntity
  8
250
  6
Continuous
 62
     5
370
    18
100
AcDbLine
 10
180.0
 20
36.233333
 30
0.0
 11
180.0
 21
28.233333
 31
0.0
  0
LINE
  5
35E
330
34B
100
AcDbEntity
  8
250
  6
Continuous
 62
     5
370
    18
100
AcDbLine
 10
127.0
 20
28.233333
 30
0.0
 11
180.0
 21
28.233333
 31
0.0
  0
LINE
  5
35F
330
34B
100
AcDbEntity
  8
250
  6
Continuous
 62
     5
370
    18
100
AcDbLine
 10
0.0
 20
28.233333
 30
0.0
 11
0.0
 21
20.233333
 31
0.0
  0
LINE
  5
360
330
34B
100
AcDbEntity
  8
250
  6
Continuous
 62
     5
370
    18
100
AcDbLine
 10
10.0
 20
28.233333
 30
0.0
 11
10.0
 21
20.233333
 31
0.0
  0
LINE
  5
361
330
34B
100
AcDbEntity
  8
250
  6
Continuous
 62
     5
370
    18
100
AcDbLine
 10
0.0
 20
20.233333
 30
0.0
 11
10.0
 21
20.233333
 31
0.0
  0
MTEXT
  5
362
330
34B
100
AcDbEntity
  8
41
  6
Continuous
 62
     2
370
    18
100
AcDbMText
 10
5.0
 20
24.233333
 30
0.0
 40
2.5
 41
0.0
 71
     5
 72
     5
  1
\W0.6563;3
  7
iso_b_vert
 73
     2
 44
0.8915659999999999
1001
ACAD
1000
MTEXTBEGIN
1070
    73
1070
     2
1070
    44
1040
0.8915659999999999
1070
    74
1070
     0
1000
MTEXTEND
  0
LINE
  5
363
330
34B
100
AcDbEntity
  8
250
  6
Continuous
 62
     5
370
    18
100
AcDbLine
 10
20.0
 20
28.233333
 30
0.0
 11
20.0
 21
20.233333
 31
0.0
  0
LINE
  5
364
330
34B
100
AcDbEntity
  8
250
  6
Continuous
 62
     5
370
    18
100
AcDbLine
 10
10.0
 20
20.233333
 30
0.0
 11
20.0
 21
20.233333
 31
0.0
  0
MTEXT
  5
365
330
34B
100
AcDbEntity
  8
41
  6
Continuous
 62
     2
370
    18
100
AcDbMText
 10
15.0
 20
24.233333
 30
0.0
 40
2.5
 41
0.0
 71
     5
 72
     5
  1
\W0.7875;1
  7
iso_b_vert
 73
     2
 44
0.8915659999999999
1001
ACAD
1000
MTEXTBEGIN
1070
    73
1070
     2
1070
    44
1040
0.8915659999999999
1070
    74
1070
     0
1000
MTEXTEND
  0
LINE
  5
366
330
34B
100
AcDbEntity
  8
250
  6
Continuous
 62
     5
370
    18
100
AcDbLine
 10
70.0
 20
28.233333
 30
0.0
 11
70.0
 21
20.233333
 31
0.0
  0
LINE
  5
367
330
34B
100
AcDbEntity
  8
250
  6
Continuous
 62
     5
370
    18
100
AcDbLine
 10
20.0
 20
20.233333
 30
0.0
 11
70.0
 21
20.233333
 31
0.0
  0
MTEXT
  5
368
330
34B
100
AcDbEntity
  8
41
  6
Continuous
 62
     2
370
    18
100
AcDbMText
 10
21.325
 20
24.233333
 30
0.0
 40
2.5
 41
0.0
 71
     4
 72
     5
  1
\W0.8392;INSERT
  7
iso_b_vert
 73
     2
 44
0.8915659999999999
1001
ACAD
1000
MTEXTBEGIN
1070
    73
1070
     2
1070
    44
1040
0.8915659999999999
1070
    74
1070
     0
1000
MTEXTEND
  0
LINE
  5
369
330
34B
100
AcDbEntity
  8
250
  6
Continuous
 62
     5
370
    18
100
AcDbLine
 10
127.0
 20
28.233333
 30
0.0
 11
127.0
 21
20.233333
 31
0.0
  0
LINE
  5
36A
330
34B
100
AcDbEntity
  8
250
  6
Continuous
 62
     5
370
    18
100
AcDbLine
 10
70.0
 20
20.233333
 30
0.0
 11
127.0
 21
20.233333
 31
0.0
  0
LINE
  5
36B
330
34B
100
AcDbEntity
  8
250
  6
Continuous
 62
     5
370
    18
100
AcDbLine
 10
180.0
 20
28.233333
 30
0.0
 11
180.0
 21
20.233333
 31
0.0
  0
LINE
  5
36C
330
34B
100
AcDbEntity
  8
250
  6
Continuous
 62
     5
370
    18
100
AcDbLine
 10
127.0
 20
20.233333
 30
0.0
 11
180.0
 21
20.233333
 31
0.0
  0
LINE
  5
36D
330
34B
100
AcDbEntity
  8
250
  6
Continuous
 62
     5
370
    18
100
AcDbLine
 10
0.0
 20
20.233333
 30
0.0
 11
0.0
 21
12.233333
 31
0.0
  0
LINE
  5
36E
330
34B
100
AcDbEntity
  8
250
  6
Continuous
 62
     5
370
    18
100
AcDbLine
 10
10.0
 20
20.233333
 30
0.0
 11
10.0
 21
12.233333
 31
0.0
  0
LINE
  5
36F
330
34B
100
AcDbEntity
  8
250
  6
Continuous
 62
     5
370
    18
100
AcDbLine
 10
0.0
 20
12.233333
 30
0.0
 11
10.0
 21
12.233333
 31
0.0
  0
MTEXT
  5
370
330
34B
100
AcDbEntity
  8
41
  6
Continuous
 62
     2
370
    18
100
AcDbMText
 10
5.0
 20
16.233333
 30
0.0
 40
2.5
 41
0.0
 71
     5
 72
     5
  1
\W0.6563;2
  7
iso_b_vert
 73
     2
 44
0.8915659999999999
1001
ACAD
1000
MTEXTBEGIN
1070
    73
1070
     2
1070
    44
1040
0.8915659999999999
1070
    74
1070
     0
1000
MTEXTEND
  0
LINE
  5
371
330
34B
100
AcDbEntity
  8
250
  6
Continuous
 62
     5
370
    18
100
AcDbLine
 10
20.0
 20
20.233333
 30
0.0
 11
20.0
 21
12.233333
 31
0.0
  0
LINE
  5
372
330
34B
100
AcDbEntity
  8
250
  6
Continuous
 62
     5
370
    18
100
AcDbLine
 10
10.0
 20
12.233333
 30
0.0
 11
20.0
 21
12.233333
 31
0.0
  0
MTEXT
  5
373
330
34B
100
AcDbEntity
  8
41
  6
Continuous
 62
     2
370
    18
100
AcDbMText
 10
15.0
 20
16.233333
 30
0.0
 40
2.5
 41
0.0
 71
     5
 72
     5
  1
\W0.7875;1
  7
iso_b_vert
 73
     2
 44
0.8915659999999999
1001
ACAD
1000
MTEXTBEGIN
1070
    73
1070
     2
1070
    44
1040
0.8915659999999999
1070
    74
1070
     0
1000
MTEXTEND
  0
LINE
  5
374
330
34B
100
AcDbEntity
  8
250
  6
Continuous
 62
     5
370
    18
100
AcDbLine
 10
70.0
 20
20.233333
 30
0.0
 11
70.0
 21
12.233333
 31
0.0
  0
LINE
  5
375
330
34B
100
AcDbEntity
  8
250
  6
Continuous
 62
     5
370
    18
100
AcDbLine
 10
20.0
 20
12.233333
 30
0.0
 11
70.0
 21
12.233333
 31
0.0
  0
MTEXT
  5
376
330
34B
100
AcDbEntity
  8
41
  6
Continuous
 62
     2
370
    18
100
AcDbMText
 10
21.325
 20
16.233333
 30
0.0
 40
2.5
 41
0.0
 71
     4
 72
     5
  1
\W0.8512;SCREW
  7
iso_b_vert
 73
     2
 44
0.8915659999999999
1001
ACAD
1000
MTEXTBEGIN
1070
    73
1070
     2
1070
    44
1040
0.8915659999999999
1070
    74
1070
     0
1000
MTEXTEND
  0
LINE
  5
377
330
34B
100
AcDbEntity
  8
250
  6
Continuous
 62
     5
370
    18
100
AcDbLine
 10
127.0
 20
20.233333
 30
0.0
 11
127.0
 21
12.233333
 31
0.0
  0
LINE
  5
378
330
34B
100
AcDbEntity
  8
250
  6
Continuous
 62
     5
370
    18
100
AcDbLine
 10
70.0
 20
12.233333
 30
0.0
 11
127.0
 21
12.233333
 31
0.0
  0
LINE
  5
379
330
34B
100
AcDbEntity
  8
250
  6
Continuous
 62
     5
370
    18
100
AcDbLine
 10
180.0
 20
20.233333
 30
0.0
 11
180.0
 21
12.233333
 31
0.0
  0
LINE
  5
37A
330
34B
100
AcDbEntity
  8
250
  6
Continuous
 62
     5
370
    18
100
AcDbLine
 10
127.0
 20
12.233333
 30
0.0
 11
180.0
 21
12.233333
 31
0.0
  0
LINE
  5
37B
330
34B
100
AcDbEntity
  8
250
  6
Continuous
 62
     5
370
    18
100
AcDbLine
 10
0.0
 20
12.233333
 30
0.0
 11
0.0
 21
4.233333
 31
0.0
  0
LINE
  5
37C
330
34B
100
AcDbEntity
  8
250
  6
Continuous
 62
     5
370
    18
100
AcDbLine
 10
10.0
 20
12.233333
 30
0.0
 11
10.0
 21
4.233333
 31
0.0
  0
LINE
  5
37D
330
34B
100
AcDbEntity
  8
250
  6
Continuous
 62
     5
370
    18
100
AcDbLine
 10
0.0
 20
4.233333
 30
0.0
 11
10.0
 21
4.233333
 31
0.0
  0
MTEXT
  5
37E
330
34B
100
AcDbEntity
  8
41
  6
Continuous
 62
     2
370
    18
100
AcDbMText
 10
5.0
 20
8.233333
 30
0.0
 40
2.5
 41
0.0
 71
     5
 72
     5
  1
\W0.7875;1
  7
iso_b_vert
 73
     2
 44
0.8915659999999999
1001
ACAD
1000
MTEXTBEGIN
1070
    73
1070
     2
1070
    44
1040
0.8915659999999999
1070
    74
1070
     0
1000
MTEXTEND
  0
LINE
  5
37F
330
34B
100
AcDbEntity
  8
250
  6
Continuous
 62
     5
370
    18
100
AcDbLine
 10
20.0
 20
12.233333
 30
0.0
 11
20.0
 21
4.233333
 31
0.0
  0
LINE
  5
380
330
34B
100
AcDbEntity
  8
250
  6
Continuous
 62
     5
370
    18
100
AcDbLine
 10
10.0
 20
4.233333
 30
0.0
 11
20.0
 21
4.233333
 31
0.0
  0
MTEXT
  5
381
330
34B
100
AcDbEntity
  8
41
  6
Continuous
 62
     2
370
    18
100
AcDbMText
 10
15.0
 20
8.233333
 30
0.0
 40
2.5
 41
0.0
 71
     5
 72
     5
  1
\W0.7875;1
  7
iso_b_vert
 73
     2
 44
0.8915659999999999
1001
ACAD
1000
MTEXTBEGIN
1070
    73
1070
     2
1070
    44
1040
0.8915659999999999
1070
    74
1070
     0
1000
MTEXTEND
  0
LINE
  5
382
330
34B
100
AcDbEntity
  8
250
  6
Continuous
 62
     5
370
    18
100
AcDbLine
 10
70.0
 20
12.233333
 30
0.0
 11
70.0
 21
4.233333
 31
0.0
  0
LINE
  5
383
330
34B
100
AcDbEntity
  8
250
  6
Continuous
 62
     5
370
    18
100
AcDbLine
 10
20.0
 20
4.233333
 30
0.0
 11
70.0
 21
4.233333
 31
0.0
  0
MTEXT
  5
384
330
34B
100
AcDbEntity
  8
41
  6
Continuous
 62
     2
370
    18
100
AcDbMText
 10
21.325
 20
8.233333
 30
0.0
 40
2.5
 41
0.0
 71
     4
 72
     5
  1
\W0.8406;TOOL BODY
  7
iso_b_vert
 73
     2
 44
0.8915659999999999
1001
ACAD
1000
MTEXTBEGIN
1070
    73
1070
     2
1070
    44
1040
0.8915659999999999
1070
    74
1070
     0
1000
MTEXTEND
  0
LINE
  5
385
330
34B
100
AcDbEntity
  8
250
  6
Continuous
 62
     5
370
    18
100
AcDbLine
 10
127.0
 20
12.233333
 30
0.0
 11
127.0
 21
4.233333
 31
0.0
  0
LINE
  5
386
330
34B
100
AcDbEntity
  8
250
  6
Continuous
 62
     5
370
    18
100
AcDbLine
 10
70.0
 20
4.233333
 30
0.0
 11
127.0
 21
4.233333
 31
0.0
  0
LINE
  5
387
330
34B
100
AcDbEntity
  8
250
  6
Continuous
 62
     5
370
    18
100
AcDbLine
 10
180.0
 20
12.233333
 30
0.0
 11
180.0
 21
4.233333
 31
0.0
  0
LINE
  5
388
330
34B
100
AcDbEntity
  8
250
  6
Continuous
 62
     5
370
    18
100
AcDbLine
 10
127.0
 20
4.233333
 30
0.0
 11
180.0
 21
4.233333
 31
0.0
  0
LINE
  5
389
330
34B
100
AcDbEntity
  8
250
  6
Continuous
 62
     5
370
    18
100
AcDbLine
 10
0.0
 20
4.233333
 30
0.0
 11
0.0
 21
0.0
 31
0.0
  0
LINE
  5
38A
330
34B
100
AcDbEntity
  8
250
  6
Continuous
 62
     5
370
    18
100
AcDbLine
 10
10.0
 20
4.233333
 30
0.0
 11
10.0
 21
0.0
 31
0.0
  0
LINE
  5
38B
330
34B
100
AcDbEntity
  8
250
  6
Continuous
 62
     5
370
    18
100
AcDbLine
 10
0.0
 20
0.0
 30
0.0
 11
10.0
 21
0.0
 31
0.0
  0
MTEXT
  5
38C
330
34B
100
AcDbEntity
  8
41
  6
Continuous
 62
     2
370
    18
100
AcDbMText
 10
5.0
 20
2.116668
 30
0.0
 40
1.0
 41
0.0
 71
     5
 72
     5
  1
\W0.8876;ITEM
  7
iso_b_vert
 73
     2
 44
1.084337
1001
ACAD
1000
MTEXTBEGIN
1070
    73
1070
     2
1070
    44
1040
1.084337
1070
    74
1070
     0
1000
MTEXTEND
  0
LINE
  5
38D
330
34B
100
AcDbEntity
  8
250
  6
Continuous
 62
     5
370
    18
100
AcDbLine
 10
20.0
 20
4.233333
 30
0.0
 11
20.0
 21
0.0
 31
0.0
  0
LINE
  5
38E
330
34B
100
AcDbEntity
  8
250
  6
Continuous
 62
     5
370
    18
100
AcDbLine
 10
10.0
 20
0.0
 30
0.0
 11
20.0
 21
0.0
 31
0.0
  0
MTEXT
  5
38F
330
34B
100
AcDbEntity
  8
41
  6
Continuous
 62
     2
370
    18
100
AcDbMText
 10
15.0
 20
2.116668
 30
0.0
 40
1.0
 41
0.0
 71
     5
 72
     5
  1
\W0.8957;QUANTITY
  7
iso_b_vert
 73
     2
 44
1.084337
1001
ACAD
1000
MTEXTBEGIN
1070
    73
1070
     2
1070
    44
1040
1.084337
1070
    74
1070
     0
1000
MTEXTEND
  0
LINE
  5
390
330
34B
100
AcDbEntity
  8
250
  6
Continuous
 62
     5
370
    18
100
AcDbLine
 10
70.0
 20
4.233333
 30
0.0
 11
70.0
 21
0.0
 31
0.0
  0
LINE
  5
391
330
34B
100
AcDbEntity
  8
250
  6
Continuous
 62
     5
370
    18
100
AcDbLine
 10
20.0
 20
0.0
 30
0.0
 11
70.0
 21
0.0
 31
0.0
  0
MTEXT
  5
392
330
34B
100
AcDbEntity
  8
41
  6
Continuous
 62
     2
370
    18
100
AcDbMText
 10
20.575
 20
2.116668
 30
0.0
 40
1.0
 41
0.0
 71
     4
 72
     5
  1
\W0.8467;DESCRIPTION
  7
iso_b_vert
 73
     2
 44
1.084337
1001
ACAD
1000
MTEXTBEGIN
1070
    73
1070
     2
1070
    44
1040
1.084337
1070
    74
1070
     0
1000
MTEXTEND
  0
LINE
  5
393
330
34B
100
AcDbEntity
  8
250
  6
Continuous
 62
     5
370
    18
100
AcDbLine
 10
127.0
 20
4.233333
 30
0.0
 11
127.0
 21
0.0
 31
0.0
  0
LINE
  5
394
330
34B
100
AcDbEntity
  8
250
  6
Continuous
 62
     5
370
    18
100
AcDbLine
 10
70.0
 20
0.0
 30
0.0
 11
127.0
 21
0.0
 31
0.0
  0
MTEXT
  5
395
330
34B
100
AcDbEntity
  8
41
  6
Continuous
 62
     2
370
    18
100
AcDbMText
 10
70.575
 20
2.116668
 30
0.0
 40
1.0
 41
0.0
 71
     4
 72
     5
  1
\W0.8329;MATERIAL, PRODUCT CODE AND REMARK
  7
iso_b_vert
 73
     2
 44
1.084337
1001
ACAD
1000
MTEXTBEGIN
1070
    73
1070
     2
1070
    44
1040
1.084337
1070
    74
1070
     0
1000
MTEXTEND
  0
LINE
  5
396
330
34B
100
AcDbEntity
  8
250
  6
Continuous
 62
     5
370
    18
100
AcDbLine
 10
180.0
 20
4.233333
 30
0.0
 11
180.0
 21
0.0
 31
0.0
  0
LINE
  5
397
330
34B
100
AcDbEntity
  8
250
  6
Continuous
 62
     5
370
    18
100
AcDbLine
 10
127.0
 20
0.0
 30
0.0
 11
180.0
 21
0.0
 31
0.0
  0
MTEXT
  5
398
330
34B
100
AcDbEntity
  8
41
  6
Continuous
 62
     2
370
    18
100
AcDbMText
 10
127.575
 20
2.116668
 30
0.0
 40
1.0
 41
0.0
 71
     4
 72
     5
  1
\W0.8808;DRAWING
  7
iso_b_vert
 73
     2
 44
1.084337
1001
ACAD
1000
MTEXTBEGIN
1070
    73
1070
     2
1070
    44
1040
1.084337
1070
    74
1070
     0
1000
MTEXTEND
  0
ENDBLK
  5
39B
330
34B
100
AcDbEntity
  8
0
100
AcDbBlockEnd
  0
ENDSEC
  0
SECTION
  2
ENTITIES
  0
POINT
  5
75
330
1F
100
AcDbEntity
  8
41
  6
Continuous
 62
     5
 60
     1
370
    13
100
AcDbPoint
 10
124.250047
 20
82.730683
 30
0.0
  0
POINT
  5
77
330
1F
100
AcDbEntity
  8
41
  6
Continuous
 62
     5
 60
     1
370
    13
100
AcDbPoint
 10
57.99900400000001
 20
50.998691
 30
0.0
  0
POINT
  5
78
330
1F
100
AcDbEntity
  8
41
  6
Continuous
 62
     5
 60
     1
370
    13
100
AcDbPoint
 10
56.919912
 20
45.360724
 30
0.0
  0
LINE
  5
85
330
1F
100
AcDbEntity
  8
41
  6
Continuous
 62
    11
 60
     1
370
    13
100
AcDbLine
 10
0.0
 20
0.0
 30
0.0
 11
0.0
 21
297.0
 31
0.0
  0
LINE
  5
86
330
1F
100
AcDbEntity
  8
41
  6
Continuous
 62
    11
 60
     1
370
    13
100
AcDbLine
 10
420.0
 20
297.0
 30
0.0
 11
0.0
 21
297.0
 31
0.0
  0
LINE
  5
87
330
1F
100
AcDbEntity
  8
41
  6
Continuous
 62
    11
 60
     1
370
    13
100
AcDbLine
 10
420.0
 20
297.0
 30
0.0
 11
420.0
 21
0.0
 31
0.0
  0
LINE
  5
88
330
1F
100
AcDbEntity
  8
41
  6
Continuous
 62
    11
 60
     1
370
    13
100
AcDbLine
 10
0.0
 20
0.0
 30
0.0
 11
420.0
 21
0.0
 31
0.0
  0
LINE
  5
89
330
1F
100
AcDbEntity
  8
SK1
  6
Continuous
370
    50
100
AcDbLine
 10
29.50522171047976
 20
37.55871234531361
 30
0.0
 11
134.3511557104797
 21
37.55871234531361
 31
0.0
  0
LINE
  5
8B
330
1F
100
AcDbEntity
  8
1
  6
Continuous
370
    50
100
AcDbLine
 10
20.33456671047975
 20
26.17622034531362
 30
0.0
 11
25.63334071047976
 21
34.65603134531361
 31
0.0
  0
LINE
  5
8D
330
1F
100
AcDbEntity
  8
1
  6
Continuous
370
    50
100
AcDbLine
 10
24.91840271047977
 20
35.86975534531362
 30
0.0
 11
14.93289571047975
 21
35.34643734531361
 31
0.0
  0
LINE
  5
8E
330
1F
100
AcDbEntity
  8
1
  6
Continuous
370
    50
100
AcDbLine
 10
14.77493971047974
 20
35.25339334531361
 30
0.0
 11
9.476165710479762
 21
26.77358334531362
 31
0.0
  0
LINE
  5
8F
330
1F
100
AcDbEntity
  8
1
  6
Continuous
370
    50
100
AcDbLine
 10
17.14401271047975
 20
37.55871234531361
 30
0.0
 11
27.35115571047976
 21
37.55871234531361
 31
0.0
  0
LINE
  5
90
102
{ACAD_REACTORS
330
209
102
}
330
1F
100
AcDbEntity
  8
SK1
  6
Continuous
370
    50
100
AcDbLine
 10
134.3511557104797
 20
37.55871234531361
 30
0.0
 11
134.3511557104797
 21
25.55871234531361
 31
0.0
  0
LINE
  5
91
330
1F
100
AcDbEntity
  8
1
  6
Continuous
370
    50
100
AcDbLine
 10
10.19110371047978
 20
25.55985834531361
 30
0.0
 11
20.17661071047974
 21
26.0831773453136
 31
0.0
  0
LINE
  5
92
330
1F
100
AcDbEntity
  8
1
  6
Continuous
370
    50
100
AcDbLine
 10
20.78928271047977
 20
26.90382134531359
 30
0.0
 11
27.33545471047978
 21
27.24689134531363
 31
0.0
  0
LINE
  5
93
330
1F
100
AcDbEntity
  8
1
  6
Continuous
370
    50
100
AcDbLine
 10
15.78970771047977
 20
35.39137234531362
 30
0.0
 11
17.14401271047975
 21
37.55871234531361
 31
0.0
  0
LINE
  5
95
330
1F
100
AcDbEntity
  8
1
  6
Continuous
370
    50
100
AcDbLine
 10
27.35115571047976
 20
37.55871234531361
 30
0.0
 11
29.50522171047976
 21
37.55871234531361
 31
0.0
  0
LINE
  5
97
330
1F
100
AcDbEntity
  8
SK1
  6
Continuous
370
    50
100
AcDbLine
 10
31.96641171047975
 20
25.55871234531361
 30
0.0
 11
134.3511557104797
 21
25.55871234531361
 31
0.0
  0
LINE
  5
10B
102
{ACAD_REACTORS
330
39C
102
}
330
1F
100
AcDbEntity
  8
SK2
  6
Continuous
370
    13
100
AcDbLine
 10
9.351155710479758
 20
10.3763713453136
 30
0.0
 11
134.3511557104797
 21
10.3763713453136
 31
0.0
  0
LINE
  5
10C
102
{ACAD_REACTORS
330
39C
102
}
330
1F
100
AcDbEntity
  8
SK2
  6
Continuous
370
    13
100
AcDbLine
 10
134.3511557104797
 20
25.55871234531361
 30
0.0
 11
134.3511557104797
 21
8.3763713453136
 31
0.0
  0
LINE
  5
10D
102
{ACAD_REACTORS
330
39C
102
}
330
1F
100
AcDbEntity
  8
SK2
  6
Continuous
370
    13
100
AcDbLine
 10
9.351155710479758
 20
26.34185234531361
 30
0.0
 11
9.351155710479758
 21
8.3763713453136
 31
0.0
  0
LINE
  5
10E
330
1F
100
AcDbEntity
  8
41
  6
Continuous
 62
     4
 60
     1
370
    13
100
AcDbLine
 10
284.09796
 20
165.255138
 30
0.0
 11
280.922962
 21
164.837141
 31
0.0
  0
LINE
  5
10F
330
1F
100
AcDbEntity
  8
41
  6
Continuous
 62
     4
 60
     1
370
    13
100
AcDbLine
 10
280.922962
 20
164.837141
 30
0.0
 11
280.922959
 21
165.673135
 31
0.0
  0
LINE
  5
110
330
1F
100
AcDbEntity
  8
41
  6
Continuous
 62
     4
 60
     1
370
    13
100
AcDbLine
 10
280.922959
 20
165.673135
 30
0.0
 11
284.09796
 21
165.255138
 31
0.0
  0
LINE
  5
111
330
1F
100
AcDbEntity
  8
41
  6
Continuous
 62
     4
 60
     1
370
    13
100
AcDbLine
 10
159.09796
 20
165.255138
 30
0.0
 11
162.272959
 21
165.673135
 31
0.0
  0
LINE
  5
112
330
1F
100
AcDbEntity
  8
41
  6
Continuous
 62
     4
 60
     1
370
    13
100
AcDbLine
 10
162.272959
 20
165.673135
 30
0.0
 11
162.272962
 21
164.837141
 31
0.0
  0
LINE
  5
113
330
1F
100
AcDbEntity
  8
41
  6
Continuous
 62
     4
 60
     1
370
    13
100
AcDbLine
 10
162.272962
 20
164.837141
 30
0.0
 11
159.09796
 21
165.255138
 31
0.0
  0
LINE
  5
114
102
{ACAD_REACTORS
330
39D
102
}
330
1F
100
AcDbEntity
  8
2
  6
Continuous
370
    13
100
AcDbLine
 10
20.17661071047974
 20
26.0831773453136
 30
0.0
 11
20.58294171047976
 21
26.10447134531361
 31
0.0
  0
LINE
  5
115
102
{ACAD_REACTORS
330
39D
102
}
330
1F
100
AcDbEntity
  8
2
  6
Continuous
370
    13
100
AcDbLine
 10
9.351155710479758
 20
26.34185234531361
 30
0.0
 11
9.351155710479758
 21
14.2686383453136
 31
0.0
  0
LINE
  5
116
330
1F
100
AcDbEntity
  8
41
  6
Continuous
 62
     4
 60
     1
370
    13
100
AcDbLine
 10
168.332487
 20
180.878567
 30
0.0
 11
168.646622
 21
177.691616
 31
0.0
  0
LINE
  5
117
330
1F
100
AcDbEntity
  8
41
  6
Continuous
 62
     4
 60
     1
370
    13
100
AcDbLine
 10
168.646622
 20
177.691616
 30
0.0
 11
167.811074
 21
177.718901
 31
0.0
  0
LINE
  5
118
330
1F
100
AcDbEntity
  8
41
  6
Continuous
 62
     4
 60
     1
370
    13
100
AcDbLine
 10
167.811074
 20
177.718901
 30
0.0
 11
168.332487
 21
180.878567
 31
0.0
  0
LINE
  5
119
330
1F
100
AcDbEntity
  8
41
  6
Continuous
 62
     4
 60
     1
370
    13
100
AcDbLine
 10
159.09796
 20
171.147405
 30
0.0
 11
162.226003
 21
171.833468
 31
0.0
  0
LINE
  5
11A
330
1F
100
AcDbEntity
  8
41
  6
Continuous
 62
     4
 60
     1
370
    13
100
AcDbLine
 10
162.226003
 20
171.833468
 30
0.0
 11
162.296987
 21
171.000494
 31
0.0
  0
LINE
  5
11B
330
1F
100
AcDbEntity
  8
41
  6
Continuous
 62
     4
 60
     1
370
    13
100
AcDbLine
 10
162.296987
 20
171.000494
 30
0.0
 11
159.09796
 21
171.147405
 31
0.0
  0
LINE
  5
11C
102
{ACAD_REACTORS
330
39E
102
}
330
1F
100
AcDbEntity
  8
2
  6
Continuous
370
    13
100
AcDbLine
 10
5.002881710479755
 20
25.55871234531361
 30
0.0
 11
5.002881710479755
 21
37.55871234531361
 31
0.0
  0
LINE
  5
11D
102
{ACAD_REACTORS
330
39E
102
}
330
1F
100
AcDbEntity
  8
2
  6
Continuous
370
    13
100
AcDbLine
 10
17.14401271047975
 20
37.55871234531361
 30
0.0
 11
3.002881710479755
 21
37.55871234531361
 31
0.0
  0
LINE
  5
11E
102
{ACAD_REACTORS
330
39E
102
}
330
1F
100
AcDbEntity
  8
2
  6
Continuous
370
    13
100
AcDbLine
 10
10.14736971047975
 20
25.55871234531361
 30
0.0
 11
3.002881710479755
 21
25.55871234531361
 31
0.0
  0
LINE
  5
11F
330
1F
100
AcDbEntity
  8
41
  6
Continuous
 62
     4
 60
     1
370
    13
100
AcDbLine
 10
154.749686
 20
192.437479
 30
0.0
 11
155.167683
 21
189.262481
 31
0.0
  0
LINE
  5
120
330
1F
100
AcDbEntity
  8
41
  6
Continuous
 62
     4
 60
     1
370
    13
100
AcDbLine
 10
155.167683
 20
189.262481
 30
0.0
 11
154.331689
 21
189.262478
 31
0.0
  0
LINE
  5
121
330
1F
100
AcDbEntity
  8
41
  6
Continuous
 62
     4
 60
     1
370
    13
100
AcDbLine
 10
154.331689
 20
189.262478
 30
0.0
 11
154.749686
 21
192.437479
 31
0.0
  0
LINE
  5
122
330
1F
100
AcDbEntity
  8
41
  6
Continuous
 62
     4
 60
     1
370
    13
100
AcDbLine
 10
154.749686
 20
180.437479
 30
0.0
 11
154.331689
 21
183.612478
 31
0.0
  0
LINE
  5
123
330
1F
100
AcDbEntity
  8
41
  6
Continuous
 62
     4
 60
     1
370
    13
100
AcDbLine
 10
154.331689
 20
183.612478
 30
0.0
 11
155.167683
 21
183.612481
 31
0.0
  0
LINE
  5
124
330
1F
100
AcDbEntity
  8
41
  6
Continuous
 62
     4
 60
     1
370
    13
100
AcDbLine
 10
155.167683
 20
183.612481
 30
0.0
 11
154.749686
 21
180.437479
 31
0.0
  0
ARC
  5
127
330
1F
100
AcDbEntity
  8
15
  6
Continuous
370
    50
100
AcDbCircle
 10
27.66517171047977
 20
20.95552534531362
 30
0.0
 40
6.300000000000002
100
AcDbArc
 50
46.9421420000001
 51
73.01798799999938
  0
ARC
  5
14E
330
1F
100
AcDbEntity
  8
1
  6
Continuous
370
    50
100
AcDbCircle
 10
27.66517171047977
 20
20.95552534531362
 30
0.0
 40
6.300000000000002
100
AcDbArc
 50
92.85702100000033
 51
93.00000000000071
  0
ARC
  5
154
102
{ACAD_REACTORS
330
39D
102
}
330
1F
100
AcDbEntity
  8
2
  6
Continuous
370
    13
100
AcDbCircle
 10
9.351155710479758
 20
25.51583934531362
 30
0.0
 40
9.247200193911373
100
AcDbArc
 50
270.0
 51
3.000000000000715
  0
ELLIPSE
  5
155
330
1F
100
AcDbEntity
  8
1
  6
Continuous
370
    50
100
AcDbEllipse
 10
10.17188571047975
 20
26.36596534531361
 30
0.0
 11
-0.7132571860990791
 21
-0.4201405908978061
 31
-0.0000000000000001
210
0.0
220
-0.0000000000000002
230
1.0
 40
0.9664159999999998
 41
5.20648200694748
 42
7.359888607411682
  0
ELLIPSE
  5
156
330
1F
100
AcDbEntity
  8
1
  6
Continuous
370
    50
100
AcDbEllipse
 10
20.16450871047974
 20
26.2843213453136
 30
0.0
 11
0.1024755779797036
 21
-0.1739690093677657
 31
0.0
210
-0.0000000000000001
220
-0.0000000000000001
230
1.0
 40
0.9905549999999999
 41
5.807096089452728
 42
6.759274524906456
  0
ELLIPSE
  5
157
330
1F
100
AcDbEntity
  8
1
  6
Continuous
370
    50
100
AcDbEllipse
 10
24.93762071047977
 20
35.0636483453136
 30
0.0
 11
0.7132571860990791
 21
0.4201405908978062
 31
0.0000000000000001
210
0.0
220
-0.0000000000000002
230
1.0
 40
0.9664159999999998
 41
5.20648200694748
 42
7.359888607411699
  0
ELLIPSE
  5
158
330
1F
100
AcDbEntity
  8
1
  6
Continuous
370
    50
100
AcDbEllipse
 10
14.94499771047975
 20
35.14529234531364
 30
0.0
 11
-0.1024755779797025
 21
0.1739690093677664
 31
0.0
210
0.0
220
-0.0000000000000002
230
1.0
 40
0.9905549999999999
 41
5.80709608945273
 42
6.759274524906467
  0
SPLINE
  5
192
330
1F
100
AcDbEntity
  8
1
  6
Continuous
370
    50
100
AcDbSpline
210
0.0
220
0.0
230
1.0
 70
     8
 71
     3
 72
    17
 73
    13
 74
     0
 42
0.000000001
 43
0.0000000001
 40
0.0
 40
0.0
 40
0.0
 40
0.0
 40
0.2500000000000535
 40
0.500000000000107
 40
0.500000000000107
 40
0.5312500000001091
 40
0.5312500000001091
 40
0.5625000000001111
 40
0.6250000000000981
 40
0.7500000000000712
 40
0.7500000000000712
 40
1.0
 40
1.0
 40
1.0
 40
1.0
 10
27.35115590237226
 20
27.24769461092041
 30
0.0
 10
27.53687411556825
 20
27.2569630268161
 30
0.0
 10
27.90704891774217
 20
27.2589844311631
 30
0.0
 10
28.27472405491784
 20
27.2286863455048
 30
0.0
 10
28.48082679973544
 20
27.20254379192528
 30
0.0
 10
28.50373370120386
 20
27.19950997515622
 30
0.0
 10
28.54936358672575
 20
27.19321201503178
 30
0.0
 10
28.61758196182714
 20
27.18341383652429
 30
0.0
 10
28.77519453581476
 20
27.15812994081872
 30
0.0
 10
28.90768059413029
 20
27.13242851278869
 30
0.0
 10
29.1693283990966
 20
27.07593036112252
 30
0.0
 10
29.33933588962458
 20
27.03148276313161
 30
0.0
 10
29.50522182522608
 20
26.98082328547761
 30
0.0
  0
MTEXT
  5
1A2
102
{ACAD_REACTORS
330
39C
102
}
330
1F
100
AcDbEntity
  8
SK2
  6
Continuous
370
    18
100
AcDbMText
 10
69.47235671047974
 20
11.26148634531361
 30
0.0
 40
3.0
 41
0.0
 71
     7
 72
     5
  1
\W0.7088;125
  7
iso_b_vert
 73
     2
 44
0.9879520000000001
1001
ACAD
1000
MTEXTBEGIN
1070
    73
1070
     2
1070
    44
1040
0.9879520000000001
1070
    74
1070
     0
1000
MTEXTEND
  0
LINE
  5
1A5
330
1F
100
AcDbEntity
  8
41
  6
Continuous
 62
     4
 60
     1
370
    13
100
AcDbLine
 10
284.09796
 20
165.255138
 30
0.0
 11
280.922962
 21
164.837141
 31
0.0
  0
LINE
  5
1A6
330
1F
100
AcDbEntity
  8
41
  6
Continuous
 62
     4
 60
     1
370
    13
100
AcDbLine
 10
280.922962
 20
164.837141
 30
0.0
 11
280.922959
 21
165.673135
 31
0.0
  0
LINE
  5
1A7
330
1F
100
AcDbEntity
  8
41
  6
Continuous
 62
     4
 60
     1
370
    13
100
AcDbLine
 10
280.922959
 20
165.673135
 30
0.0
 11
284.09796
 21
165.255138
 31
0.0
  0
HATCH
  5
1A8
102
{ACAD_REACTORS
330
39C
102
}
330
1F
100
AcDbEntity
  8
SK2
  6
Continuous
370
    13
100
AcDbHatch
 10
0.0
 20
0.0
 30
0.0
210
0.0
220
0.0
230
1.0
  2
ANSI31
 70
     0
 71
     0
 91
        1
 92
        0
 93
        3
 72
     1
 10
134.3511559023722
 20
10.37637146527143
 11
131.1761574377597
 21
9.958374785434301
 72
     1
 10
131.1761574377597
 20
9.958374785434301
 11
131.1761543669846
 21
10.79436814510862
 72
     1
 10
131.1761543669846
 20
10.79436814510862
 11
134.3511559023722
 21
10.37637146527143
 97
        0
 75
     0
 76
     1
 52
0.0
 41
0.0062
 77
     0
 78
     1
 53
44.99999999999999
 43
-149.7468042895202
 44
-154.8787666546864
 45
-0.0139193969876572
 46
0.0139193969876572
 79
     0
 98
        0
  0
LINE
  5
1A9
330
1F
100
AcDbEntity
  8
41
  6
Continuous
 62
     4
 60
     1
370
    13
100
AcDbLine
 10
159.09796
 20
165.255138
 30
0.0
 11
162.272959
 21
165.673135
 31
0.0
  0
LINE
  5
1AA
330
1F
100
AcDbEntity
  8
41
  6
Continuous
 62
     4
 60
     1
370
    13
100
AcDbLine
 10
162.272959
 20
165.673135
 30
0.0
 11
162.272962
 21
164.837141
 31
0.0
  0
LINE
  5
1AB
330
1F
100
AcDbEntity
  8
41
  6
Continuous
 62
     4
 60
     1
370
    13
100
AcDbLine
 10
162.272962
 20
164.837141
 30
0.0
 11
159.09796
 21
165.255138
 31
0.0
  0
HATCH
  5
1AC
102
{ACAD_REACTORS
330
39C
102
}
330
1F
100
AcDbEntity
  8
SK2
  6
Continuous
370
    13
100
AcDbHatch
 10
0.0
 20
0.0
 30
0.0
210
0.0
220
0.0
230
1.0
  2
ANSI31
 70
     0
 71
     0
 91
        1
 92
        0
 93
        3
 72
     1
 10
9.351155902372255
 20
10.37637146527143
 11
12.52615436698474
 21
10.79436814510862
 72
     1
 10
12.52615436698474
 20
10.79436814510862
 11
12.52615743775976
 21
9.958374785434301
 72
     1
 10
12.52615743775976
 20
9.958374785434301
 11
9.351155902372255
 21
10.37637146527143
 97
        0
 75
     0
 76
     1
 52
0.0
 41
0.0062
 77
     0
 78
     1
 53
44.99999999999998
 43
-149.7468042895202
 44
-154.8787666546864
 45
-0.0139193969876572
 46
0.0139193969876572
 79
     0
 98
        0
  0
MTEXT
  5
1AD
102
{ACAD_REACTORS
330
39D
102
}
330
1F
100
AcDbEntity
  8
2
  6
Continuous
370
    18
100
AcDbMText
 10
13.78414171047976
 20
17.8106273453136
 30
0.0
 40
3.0
 41
0.0
 71
     7
 72
     5
  1
\W0.8725;93%%d
  7
iso_b_vert
 11
0.6883545756937549
 21
0.7253743710122868
 31
0.0
 73
     2
 44
0.9879520000000001
1001
ACAD
1000
MTEXTBEGIN
1070
    73
1070
     2
1070
    44
1040
0.9879520000000001
1070
    74
1070
     0
1000
MTEXTEND
  0
LINE
  5
1AE
330
1F
100
AcDbEntity
  8
41
  6
Continuous
 62
     4
 60
     1
370
    13
100
AcDbLine
 10
168.332487
 20
180.878567
 30
0.0
 11
168.646622
 21
177.691616
 31
0.0
  0
LINE
  5
1AF
330
1F
100
AcDbEntity
  8
41
  6
Continuous
 62
     4
 60
     1
370
    13
100
AcDbLine
 10
168.646622
 20
177.691616
 30
0.0
 11
167.811074
 21
177.718901
 31
0.0
  0
LINE
  5
1B0
330
1F
100
AcDbEntity
  8
41
  6
Continuous
 62
     4
 60
     1
370
    13
100
AcDbLine
 10
167.811074
 20
177.718901
 30
0.0
 11
168.332487
 21
180.878567
 31
0.0
  0
HATCH
  5
1B1
102
{ACAD_REACTORS
330
39D
102
}
330
1F
100
AcDbEntity
  8
2
  6
Continuous
370
    13
100
AcDbHatch
 10
0.0
 20
0.0
 30
0.0
210
0.0
220
0.0
230
1.0
  2
ANSI31
 70
     0
 71
     0
 91
        1
 92
        0
 93
        3
 72
     1
 10
18.58568312980037
 20
25.99979992422411
 11
18.89981728379865
 21
22.81284899772112
 72
     1
 10
18.89981728379865
 20
22.81284899772112
 11
18.06426933078057
 21
22.84013481154844
 72
     1
 10
18.06426933078057
 20
22.84013481154844
 11
18.58568312980037
 21
25.99979992422411
 97
        0
 75
     0
 76
     1
 52
0.0
 41
0.0062
 77
     0
 78
     1
 53
44.99999999999999
 43
-149.7468042895202
 44
-154.8787666546864
 45
-0.0139193969876572
 46
0.0139193969876572
 79
     0
 98
        0
  0
LINE
  5
1B2
330
1F
100
AcDbEntity
  8
41
  6
Continuous
 62
     4
 60
     1
370
    13
100
AcDbLine
 10
159.09796
 20
171.147405
 30
0.0
 11
162.226003
 21
171.833468
 31
0.0
  0
LINE
  5
1B3
330
1F
100
AcDbEntity
  8
41
  6
Continuous
 62
     4
 60
     1
370
    13
100
AcDbLine
 10
162.226003
 20
171.833468
 30
0.0
 11
162.296987
 21
171.000494
 31
0.0
  0
LINE
  5
1B4
330
1F
100
AcDbEntity
  8
41
  6
Continuous
 62
     4
 60
     1
370
    13
100
AcDbLine
 10
162.296987
 20
171.000494
 30
0.0
 11
159.09796
 21
171.147405
 31
0.0
  0
HATCH
  5
1B5
102
{ACAD_REACTORS
330
39D
102
}
330
1F
100
AcDbEntity
  8
2
  6
Continuous
370
    13
100
AcDbHatch
 10
0.0
 20
0.0
 30
0.0
210
0.0
220
0.0
230
1.0
  2
ANSI31
 70
     0
 71
     0
 91
        1
 92
        0
 93
        3
 72
     1
 10
9.351155902372255
 20
16.26863866559444
 11
12.47919905436734
 21
16.95470171947693
 72
     1
 10
12.47919905436734
 20
16.95470171947693
 11
12.55018279441606
 21
16.12172740650101
 72
     1
 10
12.55018279441606
 20
16.12172740650101
 11
9.351155902372255
 21
16.26863866559444
 97
        0
 75
     0
 76
     1
 52
0.0
 41
0.0062
 77
     0
 78
     1
 53
44.99999999999998
 43
-149.7468042895202
 44
-154.8787666546864
 45
-0.0139193969876572
 46
0.0139193969876572
 79
     0
 98
        0
  0
MTEXT
  5
1B6
102
{ACAD_REACTORS
330
39E
102
}
330
1F
100
AcDbEntity
  8
2
  6
Continuous
370
    18
100
AcDbMText
 10
4.41176771047975
 20
30.27682734531362
 30
0.0
 40
3.0
 41
0.0
 71
     7
 72
     5
  1
\W0.6563;12
  7
iso_b_vert
 11
0.0000000000000007
 21
1.0
 31
0.0
 73
     2
 44
0.9879520000000001
1001
ACAD
1000
MTEXTBEGIN
1070
    73
1070
     2
1070
    44
1040
0.9879520000000001
1070
    74
1070
     0
1000
MTEXTEND
  0
LINE
  5
1B7
330
1F
100
AcDbEntity
  8
41
  6
Continuous
 62
     4
 60
     1
370
    13
100
AcDbLine
 10
154.749686
 20
192.437479
 30
0.0
 11
155.167683
 21
189.262481
 31
0.0
  0
LINE
  5
1B8
330
1F
100
AcDbEntity
  8
41
  6
Continuous
 62
     4
 60
     1
370
    13
100
AcDbLine
 10
155.167683
 20
189.262481
 30
0.0
 11
154.331689
 21
189.262478
 31
0.0
  0
LINE
  5
1B9
330
1F
100
AcDbEntity
  8
41
  6
Continuous
 62
     4
 60
     1
370
    13
100
AcDbLine
 10
154.331689
 20
189.262478
 30
0.0
 11
154.749686
 21
192.437479
 31
0.0
  0
HATCH
  5
1BA
102
{ACAD_REACTORS
330
39E
102
}
330
1F
100
AcDbEntity
  8
2
  6
Continuous
370
    13
100
AcDbHatch
 10
0.0
 20
0.0
 30
0.0
210
0.0
220
0.0
230
1.0
  2
ANSI31
 70
     0
 71
     0
 91
        1
 92
        0
 93
        3
 72
     1
 10
5.002881739251165
 20
37.55871257731042
 11
5.420878419088353
 21
34.3837141126979
 72
     1
 10
5.420878419088353
 20
34.3837141126979
 11
4.584885059413949
 21
34.38371104192291
 72
     1
 10
4.584885059413949
 20
34.38371104192291
 11
5.002881739251165
 21
37.55871257731042
 97
        0
 75
     0
 76
     1
 52
0.0
 41
0.0062
 77
     0
 78
     1
 53
44.99999999999999
 43
-149.7468042895202
 44
-154.8787666546864
 45
-0.0139193969876572
 46
0.0139193969876572
 79
     0
 98
        0
  0
LINE
  5
1BB
330
1F
100
AcDbEntity
  8
41
  6
Continuous
 62
     4
 60
     1
370
    13
100
AcDbLine
 10
154.749686
 20
180.437479
 30
0.0
 11
154.331689
 21
183.612478
 31
0.0
  0
LINE
  5
1BC
330
1F
100
AcDbEntity
  8
41
  6
Continuous
 62
     4
 60
     1
370
    13
100
AcDbLine
 10
154.331689
 20
183.612478
 30
0.0
 11
155.167683
 21
183.612481
 31
0.0
  0
LINE
  5
1BD
330
1F
100
AcDbEntity
  8
41
  6
Continuous
 62
     4
 60
     1
370
    13
100
AcDbLine
 10
155.167683
 20
183.612481
 30
0.0
 11
154.749686
 21
180.437479
 31
0.0
  0
HATCH
  5
1BE
102
{ACAD_REACTORS
330
39E
102
}
330
1F
100
AcDbEntity
  8
2
  6
Continuous
370
    13
100
AcDbHatch
 10
0.0
 20
0.0
 30
0.0
210
0.0
220
0.0
230
1.0
  2
ANSI31
 70
     0
 71
     0
 91
        1
 92
        0
 93
        3
 72
     1
 10
5.002881739251165
 20
25.55871257731042
 11
4.584885059413949
 21
28.73371104192293
 72
     1
 10
4.584885059413949
 20
28.73371104192293
 11
5.420878419088353
 21
28.73371411269793
 72
     1
 10
5.420878419088353
 20
28.73371411269793
 11
5.002881739251165
 21
25.55871257731042
 97
        0
 75
     0
 76
     1
 52
0.0
 41
0.0062
 77
     0
 78
     1
 53
44.99999999999998
 43
-149.7468042895202
 44
-154.8787666546864
 45
-0.0139193969876572
 46
0.0139193969876572
 79
     0
 98
        0
  0
MTEXT
  5
1E1
330
1F
100
AcDbEntity
  8
SK6
  6
Continuous
370
    18
100
AcDbMText
 10
56.31060671047976
 20
46.30361234531361
 30
0.0
 40
3.0
 41
0.0
 71
     7
 72
     5
  1
\W0.7607;SDJCR1212K11-S
  7
iso_b_vert
 73
     2
 44
1.084337
1001
ACAD
1000
MTEXTBEGIN
1070
    73
1070
     2
1070
    44
1040
1.084337
1070
    74
1070
     0
1000
MTEXTEND
  0
DIMENSION
  5
207
102
{ACAD_XDICTIONARY
360
208
102
}
102
{ACAD_REACTORS
330
209
102
}
330
1F
100
AcDbEntity
  8
SK2
  6
Continuous
370
    18
100
AcDbDimension
  2
_U1
 10
142.9317167104797
 20
25.55871234531363
 30
0.0
 11
142.9317167104797
 21
31.55871234531361
 31
0.0
 70
   160
 42
12.0
 52
90.0
  3
Standard
100
AcDbAlignedDimension
 13
134.3511557104797
 23
37.55871234531361
 33
0.0
 14
134.3511557104797
 24
25.55871234531361
 34
0.0
 50
90.0
100
AcDbRotatedDimension
1001
ACAD_DSTYLE_DIM_LINETYPE
1070
   380
1005
16
1001
ACAD_DSTYLE_DIM_EXT1_LINETYPE
1070
   381
1005
16
1001
ACAD_DSTYLE_DIM_EXT2_LINETYPE
1070
   382
1005
16
1001
ACAD
1000
DSTYLE
1002
{
1070
   371
1070
    13
1070
   372
1070
    13
1070
   170
1070
     0
1070
   144
1040
1.0
1070
   277
1070
     2
1070
   284
1070
     8
1070
   278
1070
    44
1070
   146
1040
1.0
1070
   345
1005
16
1070
   347
1005
16
1070
   346
1005
16
1070
   344
1005
0
1070
   343
1005
0
1070
   172
1070
     1
1070
    76
1070
     0
1070
    75
1070
     0
1070
   282
1070
     0
1070
   281
1070
     0
1070
    71
1070
     0
1070
    74
1070
     0
1070
   279
1070
     0
1070
   173
1070
     1
1070
   340
1005
1A3
1070
   271
1070
     3
1070
   272
1070
     3
1070
    77
1070
     1
1070
    73
1070
     0
1070
   171
1070
     3
1070
   274
1070
     4
1070
   177
1070
   256
1070
   176
1070
   256
1070
   178
1070
   256
1070
    78
1070
     8
1070
    48
1040
-0.1
1070
    41
1040
3.174999999999999
1070
   147
1040
1.5
1070
    42
1040
0.0
1070
    44
1040
2.0
1070
   140
1040
3.0
1002
}
  0
LINE
  5
457
330
1F
100
AcDbEntity
  8
NOCUT
  6
Continuous
370
    50
100
AcDbLine
 10
17.14401271047975
 20
37.55871234531361
 30
0.0
 11
27.35115571047976
 21
37.55871234531361
 31
0.0
  0
LINE
  5
459
330
1F
100
AcDbEntity
  8
NOCUT
  6
Continuous
370
    50
100
AcDbLine
 10
11.09643722784476
 20
26.39584133810816
 30
0.0
 11
27.33545471047978
 21
27.24689134531363
 31
0.0
  0
LINE
  5
45A
330
1F
100
AcDbEntity
  8
NOCUT
  6
Continuous
370
    50
100
AcDbLine
 10
10.64624528522971
 20
27.16011583164676
 30
0.0
 11
17.14401271047975
 21
37.55871234531361
 31
0.0
  0
LINE
  5
45B
330
1F
100
AcDbEntity
  8
NOCUT
  6
Continuous
370
    50
100
AcDbLine
 10
29.50522171047976
 20
37.55871234531361
 30
0.0
 11
29.50522171047976
 21
26.98082334531361
 31
0.0
  0
LINE
  5
45C
330
1F
100
AcDbEntity
  8
NOCUT
  6
Continuous
370
    50
100
AcDbLine
 10
27.35115571047976
 20
37.55871234531361
 30
0.0
 11
29.50522171047976
 21
37.55871234531361
 31
0.0
  0
ARC
  5
45F
330
1F
100
AcDbEntity
  8
NOCUT
  6
Continuous
370
    50
100
AcDbCircle
 10
27.66517171047977
 20
20.95552534531362
 30
0.0
 40
6.300000000000002
100
AcDbArc
 50
92.85702100000033
 51
93.00000000000071
  0
SPLINE
  5
465
330
1F
100
AcDbEntity
  8
NOCUT
  6
Continuous
370
    50
100
AcDbSpline
210
0.0
220
0.0
230
1.0
 70
     8
 71
     3
 72
    17
 73
    13
 74
     0
 42
0.000000001
 43
0.0000000001
 40
0.0
 40
0.0
 40
0.0
 40
0.0
 40
0.2500000000000535
 40
0.500000000000107
 40
0.500000000000107
 40
0.5312500000001091
 40
0.5312500000001091
 40
0.5625000000001111
 40
0.6250000000000981
 40
0.7500000000000712
 40
0.7500000000000712
 40
1.0
 40
1.0
 40
1.0
 40
1.0
 10
27.35115590237226
 20
27.24769461092041
 30
0.0
 10
27.53687411556825
 20
27.2569630268161
 30
0.0
 10
27.90704891774217
 20
27.2589844311631
 30
0.0
 10
28.27472405491784
 20
27.2286863455048
 30
0.0
 10
28.48082679973544
 20
27.20254379192528
 30
0.0
 10
28.50373370120386
 20
27.19950997515622
 30
0.0
 10
28.54936358672575
 20
27.19321201503178
 30
0.0
 10
28.61758196182714
 20
27.18341383652429
 30
0.0
 10
28.77519453581476
 20
27.15812994081872
 30
0.0
 10
28.90768059413029
 20
27.13242851278869
 30
0.0
 10
29.1693283990966
 20
27.07593036112252
 30
0.0
 10
29.33933588962458
 20
27.03148276313161
 30
0.0
 10
29.50522182522608
 20
26.98082328547761
 30
0.0
  0
ARC
  5
46A
330
1F
100
AcDbEntity
  8
NOCUT
  6
Continuous
370
    50
100
AcDbCircle
 10
11.07026927538255
 20
26.89515610683019
 30
0.0
 40
0.5
100
AcDbArc
 50
147.9999874740197
 51
272.9999970556307
  0
LINE
  5
46D
330
1F
100
AcDbEntity
  8
CUT
  6
Continuous
370
    50
100
AcDbLine
 10
20.33456605514984
 20
26.17622008411956
 30
-0.0000000000000001
 11
25.63334005514985
 21
34.65603108411955
 31
-0.0000000000000001
  0
LINE
  5
46E
330
1F
100
AcDbEntity
  8
CUT
  6
Continuous
370
    50
100
AcDbLine
 10
24.91840205514986
 20
35.86975508411956
 30
-0.0000000000000001
 11
14.93289505514984
 21
35.34643708411954
 31
-0.0000000000000001
  0
LINE
  5
46F
330
1F
100
AcDbEntity
  8
CUT
  6
Continuous
370
    50
100
AcDbLine
 10
14.77493905514983
 20
35.25339308411955
 30
-0.0000000000000001
 11
9.476165055149852
 21
26.77358308411957
 31
-0.0000000000000001
  0
LINE
  5
470
330
1F
100
AcDbEntity
  8
CUT
  6
Continuous
370
    50
100
AcDbLine
 10
10.19110305514987
 20
25.55985808411956
 30
-0.0000000000000001
 11
20.17661005514983
 21
26.08317708411954
 31
-0.0000000000000001
  0
ELLIPSE
  5
474
330
1F
100
AcDbEntity
  8
CUT
  6
Continuous
370
    50
100
AcDbEllipse
 10
10.17188505514984
 20
26.36596508411955
 30
-0.0000000000000001
 11
-0.7132571860990791
 21
-0.4201405908978061
 31
-0.0000000000000001
210
0.0
220
-0.0000000000000002
230
1.0
 40
0.9664159999999998
 41
5.20648200694748
 42
7.359888607411682
  0
ELLIPSE
  5
475
330
1F
100
AcDbEntity
  8
CUT
  6
Continuous
370
    50
100
AcDbEllipse
 10
20.16450805514983
 20
26.28432108411954
 30
-0.0000000000000001
 11
0.1024755779797036
 21
-0.1739690093677657
 31
0.0
210
-0.0000000000000001
220
-0.0000000000000001
230
1.0
 40
0.9905549999999999
 41
5.807096089452728
 42
6.759274524906456
  0
ELLIPSE
  5
476
330
1F
100
AcDbEntity
  8
CUT
  6
Continuous
370
    50
100
AcDbEllipse
 10
24.93762005514986
 20
35.06364808411954
 30
-0.0000000000000001
 11
0.7132571860990791
 21
0.4201405908978062
 31
0.0000000000000001
210
0.0
220
-0.0000000000000002
230
1.0
 40
0.9664159999999998
 41
5.20648200694748
 42
7.359888607411699
  0
ELLIPSE
  5
477
330
1F
100
AcDbEntity
  8
CUT
  6
Continuous
370
    50
100
AcDbEllipse
 10
14.94499705514984
 20
35.14529208411957
 30
-0.0000000000000001
 11
-0.1024755779797025
 21
0.1739690093677664
 31
0.0
210
0.0
220
-0.0000000000000002
230
1.0
 40
0.9905549999999999
 41
5.80709608945273
 42
6.759274524906467
  0
ENDSEC
  0
SECTION
  2
OBJECTS
  0
DICTIONARY
  5
C
330
0
100
AcDbDictionary
281
     1
  3
ACAD_CIP_PREVIOUS_PRODUCT_INFO
350
40B
  3
ACAD_COLOR
350
406
  3
ACAD_DETAILVIEWSTYLE
350
402
  3
ACAD_GROUP
350
D
  3
ACAD_LAYOUT
350
1A
  3
ACAD_MATERIAL
350
43
  3
ACAD_MLEADERSTYLE
350
6B
  3
ACAD_MLINESTYLE
350
17
  3
ACAD_PLOTSETTINGS
350
19
  3
ACAD_PLOTSTYLENAME
350
E
  3
ACAD_SCALELIST
350
47
  3
ACAD_SECTIONVIEWSTYLE
350
403
  3
ACAD_TABLESTYLE
350
69
  3
ACAD_VISUALSTYLE
350
2A
  3
ACDB_RECOMPOSE_DATA
350
589
  3
AcDbVariableDictionary
350
3BF
  3
DWGPROPS
350
58A
  0
DICTIONARY
  5
566
330
10
100
AcDbDictionary
280
     1
281
     1
  3
ADSK_XREC_LAYER_RECONCILED
360
567
  0
DICTIONARY
  5
568
330
74
100
AcDbDictionary
280
     1
281
     1
  3
ADSK_XREC_LAYER_RECONCILED
360
569
  0
DICTIONARY
  5
56A
330
76
100
AcDbDictionary
280
     1
281
     1
  3
ADSK_XREC_LAYER_RECONCILED
360
56B
  0
DICTIONARY
  5
56C
330
8A
100
AcDbDictionary
280
     1
281
     1
  3
ADSK_XREC_LAYER_RECONCILED
360
56D
  0
DICTIONARY
  5
56E
330
8C
100
AcDbDictionary
280
     1
281
     1
  3
ADSK_XREC_LAYER_RECONCILED
360
56F
  0
DICTIONARY
  5
570
330
9A
100
AcDbDictionary
280
     1
281
     1
  3
ADSK_XREC_LAYER_RECONCILED
360
571
  0
DICTIONARY
  5
572
330
44B
100
AcDbDictionary
280
     1
281
     1
  3
ADSK_XREC_LAYER_RECONCILED
360
573
  0
DICTIONARY
  5
574
330
44E
100
AcDbDictionary
280
     1
281
     1
  3
ADSK_XREC_LAYER_RECONCILED
360
575
  0
DICTIONARY
  5
576
330
44F
100
AcDbDictionary
280
     1
281
     1
  3
ADSK_XREC_LAYER_RECONCILED
360
577
  0
DICTIONARY
  5
578
330
450
100
AcDbDictionary
280
     1
281
     1
  3
ADSK_XREC_LAYER_RECONCILED
360
579
  0
DICTIONARY
  5
57A
330
451
100
AcDbDictionary
280
     1
281
     1
  3
ADSK_XREC_LAYER_RECONCILED
360
57B
  0
DICTIONARY
  5
57C
330
452
100
AcDbDictionary
280
     1
281
     1
  3
ADSK_XREC_LAYER_RECONCILED
360
57D
  0
DICTIONARY
  5
57E
330
453
100
AcDbDictionary
280
     1
281
     1
  3
ADSK_XREC_LAYER_RECONCILED
360
57F
  0
DICTIONARY
  5
46B
330
1F
100
AcDbDictionary
280
     1
281
     1
  3
ACAD_SORTENTS
360
46C
  0
DICTIONARY
  5
208
330
207
100
AcDbDictionary
280
     1
281
     1
  3
ACAD_DIMASSOC
360
209
  0
XRECORD
  5
40B
102
{ACAD_REACTORS
330
C
102
}
330
C
100
AcDbXrecord
280
     1
300
AMECH_PP
300
2017
300
86627AMECH_PP_2017_0F
  0
DICTIONARY
  5
406
102
{ACAD_REACTORS
330
C
102
}
330
C
100
AcDbDictionary
281
     1
  0
DICTIONARY
  5
402
102
{ACAD_REACTORS
330
C
102
}
330
C
100
AcDbDictionary
281
     1
  3
Metric50
350
408
  0
DICTIONARY
  5
D
102
{ACAD_REACTORS
330
C
102
}
330
C
100
AcDbDictionary
281
     1
  3
*A1
350
469
  3
*A2
350
47B
  3
A3
350
39F
  3
ANNOTATION
350
39C
  3
ANNOTATION2
350
39D
  3
ANNOTATION3
350
39E
  3
ASSORTED_PARTS
350
3A0
  3
ASSORTED_PARTS10
350
3A5
  3
ASSORTED_PARTS11
350
3A6
  3
ASSORTED_PARTS12
350
3A7
  3
ASSORTED_PARTS13
350
3A8
  3
ASSORTED_PARTS14
350
3A9
  3
ASSORTED_PARTS6
350
3A1
  3
ASSORTED_PARTS7
350
3A2
  3
ASSORTED_PARTS8
350
3A3
  3
ASSORTED_PARTS9
350
3A4
  3
SANDVIKBORDER_1ST_ANGLE_PROJECTION
350
3AA
  0
DICTIONARY
  5
1A
102
{ACAD_REACTORS
330
C
102
}
330
C
100
AcDbDictionary
281
     1
  3
Layout1
350
1E
  3
Layout2
350
26
  3
Model
350
22
  0
DICTIONARY
  5
43
102
{ACAD_REACTORS
330
C
102
}
330
C
100
AcDbDictionary
281
     1
  3
ByBlock
350
45
  3
ByLayer
350
44
  3
Global
350
46
  0
DICTIONARY
  5
6B
102
{ACAD_REACTORS
330
C
102
}
330
C
100
AcDbDictionary
281
     1
  3
Standard
350
6C
  0
DICTIONARY
  5
17
102
{ACAD_REACTORS
330
C
102
}
330
C
100
AcDbDictionary
281
     1
  3
Standard
350
18
  0
DICTIONARY
  5
19
102
{ACAD_REACTORS
330
C
102
}
330
C
100
AcDbDictionary
281
     1
  0
ACDBDICTIONARYWDFLT
  5
E
102
{ACAD_REACTORS
330
C
102
}
330
C
100
AcDbDictionary
281
     1
  3
Normal
350
F
100
AcDbDictionaryWithDefault
340
F
  0
DICTIONARY
  5
47
102
{ACAD_REACTORS
330
C
102
}
330
C
100
AcDbDictionary
281
     1
  3
A0
350
48
  3
A1
350
49
  3
A2
350
4A
  3
A3
350
4B
  3
A4
350
4C
  3
A5
350
4D
  3
A6
350
4E
  3
A7
350
4F
  3
A8
350
50
  3
A9
350
51
  3
B0
350
52
  3
B1
350
53
  3
B2
350
54
  3
B3
350
55
  3
B4
350
56
  3
B5
350
57
  3
B6
350
58
  3
B7
350
59
  3
B8
350
5A
  3
B9
350
5B
  3
C0
350
5C
  3
C1
350
5D
  3
C2
350
5E
  3
C3
350
5F
  3
C4
350
60
  3
C5
350
61
  3
C6
350
62
  3
C7
350
63
  3
C8
350
64
  3
C9
350
65
  3
D0
350
66
  3
D1
350
67
  3
D2
350
68
  0
DICTIONARY
  5
403
102
{ACAD_REACTORS
330
C
102
}
330
C
100
AcDbDictionary
281
     1
  3
Metric50
350
407
  0
DICTIONARY
  5
69
102
{ACAD_REACTORS
330
C
102
}
330
C
100
AcDbDictionary
281
     1
  3
Standard
350
6A
  0
DICTIONARY
  5
2A
102
{ACAD_REACTORS
330
C
102
}
330
C
100
AcDbDictionary
281
     1
  3
2dWireframe
350
2F
  3
Basic
350
32
  3
Brighten
350
36
  3
ColorChange
350
3A
  3
Conceptual
350
34
  3
Dim
350
35
  3
EdgeColorOff
350
3D
  3
Facepattern
350
39
  3
Flat
350
2B
  3
FlatWithEdges
350
2C
  3
Gouraud
350
2D
  3
GouraudWithEdges
350
2E
  3
Hidden
350
31
  3
JitterOff
350
3B
  3
Linepattern
350
38
  3
OverhangOff
350
3C
  3
Realistic
350
33
  3
Shaded
350
42
  3
Shaded with edges
350
41
  3
Shades of Gray
350
3E
  3
Sketchy
350
3F
  3
Thicken
350
37
  3
Wireframe
350
30
  3
X-Ray
350
40
  0
XRECORD
  5
589
102
{ACAD_REACTORS
330
C
102
}
330
C
100
AcDbXrecord
280
     1
 90
        1
330
6A
  0
DICTIONARY
  5
3BF
102
{ACAD_REACTORS
330
C
102
}
330
C
100
AcDbDictionary
281
     1
  3
CANNOSCALE
350
3C0
  3
CMLEADERSTYLE
350
401
  3
CTABLESTYLE
350
400
  3
CVIEWDETAILSTYLE
350
580
  3
CVIEWSECTIONSTYLE
350
581
  3
DIMASSOC
350
585
  3
HIDETEXT
350
584
  3
INDEXCTL
350
583
  3
MSLTSCALE
350
3C1
  3
SORTENTS
350
582
  3
XCLIPFRAME
350
586
  0
XRECORD
  5
58A
102
{ACAD_REACTORS
330
C
102
}
330
C
100
AcDbXrecord
280
     1
  1
DWGPROPS COOKIE
  2

  3

  4

  6

  7

  8
mp5448
  9

300
=
301
=
302
=
303
=
304
=
305
=
306
=
307
=
308
=
309
=
 40
0.0029745486111111
 41
2459325.422523149
 42
2459325.425810185
  1

 90
        0
  0
XRECORD
  5
567
102
{ACAD_REACTORS
330
566
102
}
330
566
100
AcDbXrecord
280
     1
290
     1
  0
XRECORD
  5
569
102
{ACAD_REACTORS
330
568
102
}
330
568
100
AcDbXrecord
280
     1
290
     1
  0
XRECORD
  5
56B
102
{ACAD_REACTORS
330
56A
102
}
330
56A
100
AcDbXrecord
280
     1
290
     1
  0
XRECORD
  5
56D
102
{ACAD_REACTORS
330
56C
102
}
330
56C
100
AcDbXrecord
280
     1
290
     1
  0
XRECORD
  5
56F
102
{ACAD_REACTORS
330
56E
102
}
330
56E
100
AcDbXrecord
280
     1
290
     1
  0
XRECORD
  5
571
102
{ACAD_REACTORS
330
570
102
}
330
570
100
AcDbXrecord
280
     1
290
     1
  0
XRECORD
  5
573
102
{ACAD_REACTORS
330
572
102
}
330
572
100
AcDbXrecord
280
     1
290
     1
  0
XRECORD
  5
575
102
{ACAD_REACTORS
330
574
102
}
330
574
100
AcDbXrecord
280
     1
290
     1
  0
XRECORD
  5
577
102
{ACAD_REACTORS
330
576
102
}
330
576
100
AcDbXrecord
280
     1
290
     1
  0
XRECORD
  5
579
102
{ACAD_REACTORS
330
578
102
}
330
578
100
AcDbXrecord
280
     1
290
     1
  0
XRECORD
  5
57B
102
{ACAD_REACTORS
330
57A
102
}
330
57A
100
AcDbXrecord
280
     1
290
     1
  0
XRECORD
  5
57D
102
{ACAD_REACTORS
330
57C
102
}
330
57C
100
AcDbXrecord
280
     1
290
     1
  0
XRECORD
  5
57F
102
{ACAD_REACTORS
330
57E
102
}
330
57E
100
AcDbXrecord
280
     1
290
     1
  0
SORTENTSTABLE
  5
46C
102
{ACAD_REACTORS
330
46B
102
}
330
46B
100
AcDbSortentsTable
330
1F
331
192
  5
192
331
1AB
  5
1AB
331
11D
  5
11D
331
8B
  5
8B
331
1A8
  5
1A8
331
11A
  5
11A
331
88
  5
88
331
85
  5
85
331
77
  5
77
331
1A9
  5
1A9
331
11B
  5
11B
331
116
  5
116
331
89
  5
89
331
118
  5
118
331
1B6
  5
1B6
331
117
  5
117
331
75
  5
75
331
119
  5
119
331
1B7
  5
1B7
331
114
  5
114
331
45F
  5
465
331
1B4
  5
1B4
331
115
  5
115
331
45C
  5
45F
331
1B5
  5
1B5
331
1BE
  5
1BE
331
156
  5
156
331
207
  5
207
331
127
  5
127
331
112
  5
112
331
46A
  5
45A
331
1B2
  5
1B2
331
158
  5
158
331
124
  5
124
331
113
  5
113
331
157
  5
157
331
97
  5
97
331
45A
  5
45B
331
1B3
  5
1B3
331
1BC
  5
1BC
331
154
  5
154
331
110
  5
110
331
45B
  5
45C
331
1B0
  5
1B0
331
122
  5
122
331
111
  5
111
331
1BD
  5
1BD
331
155
  5
155
331
95
  5
95
331
1B1
  5
1B1
331
1BA
  5
1BA
331
457
  5
457
331
123
  5
123
331
92
  5
92
331
459
  5
459
331
1A6
  5
1A6
331
120
  5
120
331
10E
  5
10E
331
1BB
  5
1BB
331
93
  5
93
331
1AE
  5
1AE
331
1A7
  5
1A7
331
10F
  5
10F
331
1B8
  5
1B8
331
121
  5
121
331
90
  5
90
331
8E
  5
8E
331
10C
  5
10C
331
1AF
  5
1AF
331
8F
  5
8F
331
1B9
  5
1B9
331
91
  5
91
331
78
  5
78
331
1AC
  5
1AC
331
1A5
  5
1A5
331
11E
  5
11E
331
10D
  5
10D
331
1A2
  5
1A2
331
1AD
  5
1AD
331
8D
  5
8D
331
14E
  5
14E
331
465
  5
46A
331
11F
  5
11F
331
86
  5
86
331
1AA
  5
1AA
331
11C
  5
11C
331
10B
  5
10B
331
1E1
  5
1E1
331
87
  5
87
  0
DIMASSOC
  5
209
102
{ACAD_REACTORS
330
208
102
}
330
208
100
AcDbDimAssoc
330
207
 90
        3
 70
     0
 71
     1
  1
AcDbOsnapPointRef
 72
    13
331
90
 73
     2
 91
        1
 40
0.0
 10
284.09796
 20
192.437479
 30
0.0
 75
     0
  1
AcDbOsnapPointRef
 72
     1
331
90
 73
     2
 91
        2
 40
1.0
 10
284.09796
 20
180.437479
 30
0.0
 75
     0
  0
ACDBDETAILVIEWSTYLE
  5
408
102
{ACAD_XDICTIONARY
360
5C4
102
}
102
{ACAD_REACTORS
330
402
102
}
330
402
100
AcDbModelDocViewStyle
 70
     0
  3
Metric50
290
     0
100
AcDbDetailViewStyle
 70
     0
 71
     0
 90
        3
 71
     1
340
11
 40
5.0
340
0
 40
5.0
300

 40
0.0
280
     1
 71
     2
340
16
 90
       25
 71
     3
340
11
 40
5.0
 90
        0
 40
15.0
 90
        1
300
%<\AcVar ViewDetailId>% (%<\AcVar ViewScale \f "%sn">%)
 71
     4
340
16
 90
       25
340
16
 90
       25
280
     0
  0
GROUP
  5
469
102
{ACAD_REACTORS
330
D
102
}
330
D
100
AcDbGroup
300

 70
     1
 71
     1
  0
GROUP
  5
47B
102
{ACAD_REACTORS
330
D
102
}
330
D
100
AcDbGroup
300

 70
     1
 71
     1
  0
GROUP
  5
39F
102
{ACAD_REACTORS
330
D
102
}
330
D
100
AcDbGroup
300

 70
     0
 71
     1
340
104
340
103
340
102
340
101
340
100
340
FF
340
FE
340
FD
340
FC
340
FB
340
FA
340
F9
340
F8
340
F7
340
F6
340
F5
340
F4
340
1D1
340
1D3
340
1D4
340
1D5
340
1D6
340
1D7
340
1D8
340
1D9
340
1DA
340
1DB
  0
GROUP
  5
39C
102
{ACAD_REACTORS
330
D
102
}
330
D
100
AcDbGroup
300

 70
     0
 71
     1
340
1A2
340
10B
340
10C
340
10D
340
1A8
340
1AC
  0
GROUP
  5
39D
102
{ACAD_REACTORS
330
D
102
}
330
D
100
AcDbGroup
300

 70
     0
 71
     1
340
1AD
340
114
340
115
340
154
340
1B1
340
1B5
  0
GROUP
  5
39E
102
{ACAD_REACTORS
330
D
102
}
330
D
100
AcDbGroup
300

 70
     0
 71
     1
340
1B6
340
11C
340
11D
340
11E
340
1BA
340
1BE
  0
GROUP
  5
3A0
102
{ACAD_REACTORS
330
D
102
}
330
D
100
AcDbGroup
300

 70
     0
 71
     1
  0
GROUP
  5
3A5
102
{ACAD_REACTORS
330
D
102
}
330
D
100
AcDbGroup
300

 70
     0
 71
     1
  0
GROUP
  5
3A6
102
{ACAD_REACTORS
330
D
102
}
330
D
100
AcDbGroup
300

 70
     0
 71
     1
  0
GROUP
  5
3A7
102
{ACAD_REACTORS
330
D
102
}
330
D
100
AcDbGroup
300

 70
     0
 71
     1
  0
GROUP
  5
3A8
102
{ACAD_REACTORS
330
D
102
}
330
D
100
AcDbGroup
300

 70
     0
 71
     1
  0
GROUP
  5
3A9
102
{ACAD_REACTORS
330
D
102
}
330
D
100
AcDbGroup
300

 70
     0
 71
     1
  0
GROUP
  5
3A1
102
{ACAD_REACTORS
330
D
102
}
330
D
100
AcDbGroup
300

 70
     0
 71
     1
  0
GROUP
  5
3A2
102
{ACAD_REACTORS
330
D
102
}
330
D
100
AcDbGroup
300

 70
     0
 71
     1
  0
GROUP
  5
3A3
102
{ACAD_REACTORS
330
D
102
}
330
D
100
AcDbGroup
300

 70
     0
 71
     1
  0
GROUP
  5
3A4
102
{ACAD_REACTORS
330
D
102
}
330
D
100
AcDbGroup
300

 70
     0
 71
     1
  0
GROUP
  5
3AA
102
{ACAD_REACTORS
330
D
102
}
330
D
100
AcDbGroup
300

 70
     0
 71
     1
  0
LAYOUT
  5
1E
102
{ACAD_XDICTIONARY
360
58B
102
}
102
{ACAD_REACTORS
330
1A
102
}
330
1A
100
AcDbPlotSettings
  1

  2
none_device
  4

  6

 40
0.0
 41
0.0
 42
0.0
 43
0.0
 44
0.0
 45
0.0
 46
0.0
 47
0.0
 48
0.0
 49
0.0
140
0.0
141
0.0
142
1.0
143
1.0
 70
   688
 72
     0
 73
     0
 74
     5
  7

 75
    16
147
1.0
148
0.0
149
0.0
100
AcDbLayout
  1
Layout1
 70
     1
 71
     1
 10
-0.5
 20
-0.5
 11
5.0
 21
5.0
 12
0.0
 22
0.0
 32
0.0
 14
-0.5
 24
-0.5
 34
-0.5
 15
5.0
 25
5.0
 35
5.0
146
0.0
 13
0.0
 23
0.0
 33
0.0
 16
1.0
 26
0.0
 36
0.0
 17
0.0
 27
1.0
 37
0.0
 76
     0
330
1B
  0
LAYOUT
  5
26
102
{ACAD_XDICTIONARY
360
58F
102
}
102
{ACAD_REACTORS
330
1A
102
}
330
1A
100
AcDbPlotSettings
  1

  2
none_device
  4

  6

 40
0.0
 41
0.0
 42
0.0
 43
0.0
 44
0.0
 45
0.0
 46
0.0
 47
0.0
 48
0.0
 49
0.0
140
0.0
141
0.0
142
1.0
143
1.0
 70
   688
 72
     0
 73
     0
 74
     5
  7

 75
    16
147
1.0
148
0.0
149
0.0
100
AcDbLayout
  1
Layout2
 70
     1
 71
     2
 10
0.0
 20
0.0
 11
0.0
 21
0.0
 12
0.0
 22
0.0
 32
0.0
 14
0.0
 24
0.0
 34
0.0
 15
0.0
 25
0.0
 35
0.0
146
0.0
 13
0.0
 23
0.0
 33
0.0
 16
1.0
 26
0.0
 36
0.0
 17
0.0
 27
1.0
 37
0.0
 76
     0
330
23
  0
LAYOUT
  5
22
102
{ACAD_XDICTIONARY
360
58D
102
}
102
{ACAD_REACTORS
330
1A
102
}
330
1A
100
AcDbPlotSettings
  1

  2
none_device
  4
Letter_(8.50_x_11.00_Inches)
  6

 40
6.349999999999999
 41
6.349999999999999
 42
6.350005
 43
6.350005
 44
215.9
 45
279.4
 46
0.0
 47
0.0
 48
0.0
 49
0.0
140
0.0
141
0.0
142
1.0
143
1.0
 70
  1712
 72
     0
 73
     0
 74
     0
  7

 75
     0
147
1.0
148
0.0
149
0.0
100
AcDbLayout
  1
Model
 70
     1
 71
     0
 10
-0.5
 20
-0.5
 11
5.0
 21
5.0
 12
0.0
 22
0.0
 32
0.0
 14
-0.5
 24
-0.5
 34
-0.5
 15
5.0
 25
5.0
 35
5.0
146
0.0
 13
0.0
 23
0.0
 33
0.0
 16
1.0
 26
0.0
 36
0.0
 17
0.0
 27
1.0
 37
0.0
 76
     0
330
1F
331
29
  0
MATERIAL
  5
45
102
{ACAD_XDICTIONARY
360
3F5
102
}
102
{ACAD_REACTORS
330
43
102
}
330
43
100
AcDbMaterial
  1
ByBlock
  0
MATERIAL
  5
44
102
{ACAD_XDICTIONARY
360
3F3
102
}
102
{ACAD_REACTORS
330
43
102
}
330
43
100
AcDbMaterial
  1
ByLayer
  0
MATERIAL
  5
46
102
{ACAD_XDICTIONARY
360
3F7
102
}
102
{ACAD_REACTORS
330
43
102
}
330
43
100
AcDbMaterial
  1
Global
  0
MLEADERSTYLE
  5
6C
102
{ACAD_REACTORS
330
6B
102
}
330
6B
100
AcDbMLeaderStyle
170
     2
171
     1
172
     0
 90
        2
 40
0.0
 41
0.0
173
     1
 91
-1056964608
340
14
 92
       -2
290
     1
 42
0.09
291
     1
 43
0.36
  3
Standard
 44
0.18
300

342
11
174
     1
178
     6
175
     1
176
     0
 93
-1056964608
 45
0.18
292
     0
297
     0
 46
0.18
 94
-1056964608
 47
1.0
 49
1.0
140
1.0
293
     1
141
0.0
294
     1
177
     0
142
1.0
295
     0
296
     0
143
0.125
1001
ACAD_MLEADERVER
1070
     2
  0
MLINESTYLE
  5
18
102
{ACAD_REACTORS
330
17
102
}
330
17
100
AcDbMlineStyle
  2
STANDARD
 70
     0
  3

 62
   256
 51
90.0
 52
90.0
 71
     2
 49
0.5
 62
   256
  6
BYLAYER
 49
-0.5
 62
   256
  6
BYLAYER
  0
ACDBPLACEHOLDER
  5
F
102
{ACAD_REACTORS
330
E
102
}
330
E
  0
SCALE
  5
48
102
{ACAD_REACTORS
330
47
102
}
330
47
100
AcDbScale
 70
     0
300
1:1
140
1.0
141
1.0
290
     1
  0
SCALE
  5
49
102
{ACAD_REACTORS
330
47
102
}
330
47
100
AcDbScale
 70
     0
300
1:2
140
1.0
141
2.0
290
     0
  0
SCALE
  5
4A
102
{ACAD_REACTORS
330
47
102
}
330
47
100
AcDbScale
 70
     0
300
1:4
140
1.0
141
4.0
290
     0
  0
SCALE
  5
4B
102
{ACAD_REACTORS
330
47
102
}
330
47
100
AcDbScale
 70
     0
300
1:5
140
1.0
141
5.0
290
     0
  0
SCALE
  5
4C
102
{ACAD_REACTORS
330
47
102
}
330
47
100
AcDbScale
 70
     0
300
1:8
140
1.0
141
8.0
290
     0
  0
SCALE
  5
4D
102
{ACAD_REACTORS
330
47
102
}
330
47
100
AcDbScale
 70
     0
300
1:10
140
1.0
141
10.0
290
     0
  0
SCALE
  5
4E
102
{ACAD_REACTORS
330
47
102
}
330
47
100
AcDbScale
 70
     0
300
1:16
140
1.0
141
16.0
290
     0
  0
SCALE
  5
4F
102
{ACAD_REACTORS
330
47
102
}
330
47
100
AcDbScale
 70
     0
300
1:20
140
1.0
141
20.0
290
     0
  0
SCALE
  5
50
102
{ACAD_REACTORS
330
47
102
}
330
47
100
AcDbScale
 70
     0
300
1:30
140
1.0
141
30.0
290
     0
  0
SCALE
  5
51
102
{ACAD_REACTORS
330
47
102
}
330
47
100
AcDbScale
 70
     0
300
1:40
140
1.0
141
40.0
290
     0
  0
SCALE
  5
52
102
{ACAD_REACTORS
330
47
102
}
330
47
100
AcDbScale
 70
     0
300
1:50
140
1.0
141
50.0
290
     0
  0
SCALE
  5
53
102
{ACAD_REACTORS
330
47
102
}
330
47
100
AcDbScale
 70
     0
300
1:100
140
1.0
141
100.0
290
     0
  0
SCALE
  5
54
102
{ACAD_REACTORS
330
47
102
}
330
47
100
AcDbScale
 70
     0
300
2:1
140
2.0
141
1.0
290
     0
  0
SCALE
  5
55
102
{ACAD_REACTORS
330
47
102
}
330
47
100
AcDbScale
 70
     0
300
4:1
140
4.0
141
1.0
290
     0
  0
SCALE
  5
56
102
{ACAD_REACTORS
330
47
102
}
330
47
100
AcDbScale
 70
     0
300
8:1
140
8.0
141
1.0
290
     0
  0
SCALE
  5
57
102
{ACAD_REACTORS
330
47
102
}
330
47
100
AcDbScale
 70
     0
300
10:1
140
10.0
141
1.0
290
     0
  0
SCALE
  5
58
102
{ACAD_REACTORS
330
47
102
}
330
47
100
AcDbScale
 70
     0
300
100:1
140
100.0
141
1.0
290
     0
  0
SCALE
  5
59
102
{ACAD_REACTORS
330
47
102
}
330
47
100
AcDbScale
 70
     0
300
1/128" = 1'-0"
140
0.007812
141
12.0
290
     0
  0
SCALE
  5
5A
102
{ACAD_REACTORS
330
47
102
}
330
47
100
AcDbScale
 70
     0
300
1/64" = 1'-0"
140
0.015625
141
12.0
290
     0
  0
SCALE
  5
5B
102
{ACAD_REACTORS
330
47
102
}
330
47
100
AcDbScale
 70
     0
300
1/32" = 1'-0"
140
0.03125
141
12.0
290
     0
  0
SCALE
  5
5C
102
{ACAD_REACTORS
330
47
102
}
330
47
100
AcDbScale
 70
     0
300
1/16" = 1'-0"
140
0.0625
141
12.0
290
     0
  0
SCALE
  5
5D
102
{ACAD_REACTORS
330
47
102
}
330
47
100
AcDbScale
 70
     0
300
3/32" = 1'-0"
140
0.09375
141
12.0
290
     0
  0
SCALE
  5
5E
102
{ACAD_REACTORS
330
47
102
}
330
47
100
AcDbScale
 70
     0
300
1/8" = 1'-0"
140
0.125
141
12.0
290
     0
  0
SCALE
  5
5F
102
{ACAD_REACTORS
330
47
102
}
330
47
100
AcDbScale
 70
     0
300
3/16" = 1'-0"
140
0.1875
141
12.0
290
     0
  0
SCALE
  5
60
102
{ACAD_REACTORS
330
47
102
}
330
47
100
AcDbScale
 70
     0
300
1/4" = 1'-0"
140
0.25
141
12.0
290
     0
  0
SCALE
  5
61
102
{ACAD_REACTORS
330
47
102
}
330
47
100
AcDbScale
 70
     0
300
3/8" = 1'-0"
140
0.375
141
12.0
290
     0
  0
SCALE
  5
62
102
{ACAD_REACTORS
330
47
102
}
330
47
100
AcDbScale
 70
     0
300
1/2" = 1'-0"
140
0.5
141
12.0
290
     0
  0
SCALE
  5
63
102
{ACAD_REACTORS
330
47
102
}
330
47
100
AcDbScale
 70
     0
300
3/4" = 1'-0"
140
0.75
141
12.0
290
     0
  0
SCALE
  5
64
102
{ACAD_REACTORS
330
47
102
}
330
47
100
AcDbScale
 70
     0
300
1" = 1'-0"
140
1.0
141
12.0
290
     0
  0
SCALE
  5
65
102
{ACAD_REACTORS
330
47
102
}
330
47
100
AcDbScale
 70
     0
300
1-1/2" = 1'-0"
140
1.5
141
12.0
290
     0
  0
SCALE
  5
66
102
{ACAD_REACTORS
330
47
102
}
330
47
100
AcDbScale
 70
     0
300
3" = 1'-0"
140
3.0
141
12.0
290
     0
  0
SCALE
  5
67
102
{ACAD_REACTORS
330
47
102
}
330
47
100
AcDbScale
 70
     0
300
6" = 1'-0"
140
6.0
141
12.0
290
     0
  0
SCALE
  5
68
102
{ACAD_REACTORS
330
47
102
}
330
47
100
AcDbScale
 70
     0
300
1'-0" = 1'-0"
140
12.0
141
12.0
290
     0
  0
ACDBSECTIONVIEWSTYLE
  5
407
102
{ACAD_XDICTIONARY
360
5C2
102
}
102
{ACAD_REACTORS
330
403
102
}
330
403
100
AcDbModelDocViewStyle
 70
     0
  3
Metric50
290
     0
100
AcDbSectionViewStyle
 70
     0
 71
     0
 90
      102
 71
     1
340
11
 40
5.0
340
0
340
0
 40
5.0
300
I, O, Q, S, X, Z
 40
10.0
 90
        0
 40
2.5
 90
        0
 71
     2
340
16
 90
       25
340
16
 90
       50
 40
5.0
 40
2.5
 40
5.0
 71
     3
340
11
 40
5.0
 90
        0
 40
15.0
 90
        1
300
%<\AcVar ViewSectionStartId>%-%<\AcVar ViewSectionEndId>% (%<\AcVar ViewScale \f "%sn">%)
 71
     4
300
ANSI31
 40
1.0
 90
        0
290
     0
290
     0
 90
        6
 40
0.0
 40
1.570796326794896
 40
0.2617993877991494
 40
1.308996938995747
 40
-0.2617993877991494
 40
1.832595714594046
  0
TABLESTYLE
  5
6A
102
{ACAD_XDICTIONARY
360
3F9
102
}
102
{ACAD_REACTORS
330
69
102
}
330
69
100
AcDbTableStyle
  3
Standard
 70
     0
 71
     0
 40
0.06
 41
0.06
280
     0
281
     0
  7
Standard
140
0.18
170
     2
 62
     0
 63
     7
283
     0
274
    -2
284
     1
 64
     0
275
    -2
285
     1
 65
     0
276
    -2
286
     1
 66
     0
277
    -2
287
     1
 67
     0
278
    -2
288
     1
 68
     0
279
    -2
289
     1
 69
     0
  7
Standard
140
0.25
170
     5
 62
     0
 63
     7
283
     0
274
    -2
284
     1
 64
     0
275
    -2
285
     1
 65
     0
276
    -2
286
     1
 66
     0
277
    -2
287
     1
 67
     0
278
    -2
288
     1
 68
     0
279
    -2
289
     1
 69
     0
  7
Standard
140
0.18
170
     5
 62
     0
 63
     7
283
     0
274
    -2
284
     1
 64
     0
275
    -2
285
     1
 65
     0
276
    -2
286
     1
 66
     0
277
    -2
287
     1
 67
     0
278
    -2
288
     1
 68
     0
279
    -2
289
     1
 69
     0
  0
VISUALSTYLE
  5
2F
102
{ACAD_XDICTIONARY
360
599
102
}
102
{ACAD_REACTORS
330
2A
102
}
330
2A
100
AcDbVisualStyle
  2

 70
     4
 71
     0
 72
     2
 73
     0
 90
        0
 40
-0.6
 41
-30.0
 62
     5
 63
     7
 74
     1
 91
        4
 64
     7
 65
   257
 75
     1
175
     1
 42
1.0
 92
        0
 66
   257
 43
1.0
 76
     1
 77
     6
 78
     2
 67
     7
 79
     5
170
     0
171
     0
290
     0
174
     0
 93
        1
 44
0.0
173
     0
291
     0
 45
0.0
1001
ACAD
1000
AcDbSavedByObjectVersion
1070
     0
  0
VISUALSTYLE
  5
32
102
{ACAD_XDICTIONARY
360
59F
102
}
102
{ACAD_REACTORS
330
2A
102
}
330
2A
100
AcDbVisualStyle
  2

 70
     7
 71
     1
 72
     0
 73
     1
 90
        0
 40
-0.6
 41
-30.0
 62
     5
 63
     7
 74
     0
 91
        4
 64
     7
 65
   257
 75
     1
175
     1
 42
1.0
 92
        8
 66
     7
 43
1.0
 76
     1
 77
     6
 78
     2
 67
     7
 79
     5
170
     0
171
     0
290
     0
174
     0
 93
        1
 44
0.0
173
     0
291
     1
 45
0.0
1001
ACAD
1000
AcDbSavedByObjectVersion
1070
     0
  0
VISUALSTYLE
  5
36
102
{ACAD_XDICTIONARY
360
5A7
102
}
102
{ACAD_REACTORS
330
2A
102
}
330
2A
100
AcDbVisualStyle
  2

 70
    12
 71
     2
 72
     2
 73
     0
 90
        0
 40
-0.6
 41
-30.0
 62
     5
 63
     7
 74
     1
 91
        4
 64
     7
 65
   257
 75
     1
175
     1
 42
1.0
 92
        8
 66
     7
 43
1.0
 76
     1
 77
     6
 78
     2
 67
     7
 79
     5
170
     0
171
     0
290
     0
174
     0
 93
        1
 44
50.0
173
     0
291
     1
 45
0.0
1001
ACAD
1000
AcDbSavedByObjectVersion
1070
     0
  0
VISUALSTYLE
  5
3A
102
{ACAD_XDICTIONARY
360
5AF
102
}
102
{ACAD_REACTORS
330
2A
102
}
330
2A
100
AcDbVisualStyle
  2

 70
    16
 71
     2
 72
     2
 73
     3
 90
        0
 40
-0.6
 41
-30.0
 62
     5
 63
     8
 74
     1
 91
        4
 64
     7
 65
   257
 75
     1
175
     1
 42
1.0
 92
        8
 66
     8
 43
1.0
 76
     1
 77
     6
 78
     2
 67
     7
 79
     5
170
     0
171
     0
290
     0
174
     0
 93
        1
 44
0.0
173
     0
291
     1
 45
0.0
1001
ACAD
1000
AcDbSavedByObjectVersion
1070
     0
  0
VISUALSTYLE
  5
34
102
{ACAD_XDICTIONARY
360
5A3
102
}
102
{ACAD_REACTORS
330
2A
102
}
330
2A
100
AcDbVisualStyle
  2

 70
     9
 71
     3
 72
     2
 73
     0
 90
        0
 40
-0.6
 41
-30.0
 62
     5
 63
     7
 74
     2
 91
        2
 64
     7
 65
   257
 75
     1
175
     1
 42
179.0
 92
        8
 66
     7
 43
1.0
 76
     1
 77
     6
 78
     2
 67
     7
 79
     3
170
     0
171
     0
290
     0
174
     0
 93
        1
 44
0.0
173
     0
291
     0
 45
0.0
1001
ACAD
1000
AcDbSavedByObjectVersion
1070
     0
  0
VISUALSTYLE
  5
35
102
{ACAD_XDICTIONARY
360
5A5
102
}
102
{ACAD_REACTORS
330
2A
102
}
330
2A
100
AcDbVisualStyle
  2

 70
    11
 71
     2
 72
     2
 73
     0
 90
        0
 40
-0.6
 41
-30.0
 62
     5
 63
     7
 74
     1
 91
        4
 64
     7
 65
   257
 75
     1
175
     1
 42
1.0
 92
        8
 66
     7
 43
1.0
 76
     1
 77
     6
 78
     2
 67
     7
 79
     5
170
     0
171
     0
290
     0
174
     0
 93
        1
 44
-50.0
173
     0
291
     1
 45
0.0
1001
ACAD
1000
AcDbSavedByObjectVersion
1070
     0
  0
VISUALSTYLE
  5
3D
102
{ACAD_XDICTIONARY
360
5B5
102
}
102
{ACAD_REACTORS
330
2A
102
}
330
2A
100
AcDbVisualStyle
  2

 70
    22
 71
     2
 72
     2
 73
     0
 90
        0
 40
-0.6
 41
-30.0
 62
     5
 63
     7
 74
     1
 91
        4
 64
     7
 65
   257
 75
     1
175
     1
 42
1.0
 92
        8
 66
     7
 43
1.0
 76
     1
 77
     6
 78
     2
 67
     7
 79
     5
170
     0
171
     0
290
     0
174
     0
 93
        1
 44
0.0
173
     0
291
     1
 45
0.0
1001
ACAD
1000
AcDbSavedByObjectVersion
1070
     0
  0
VISUALSTYLE
  5
39
102
{ACAD_XDICTIONARY
360
5AD
102
}
102
{ACAD_REACTORS
330
2A
102
}
330
2A
100
AcDbVisualStyle
  2

 70
    15
 71
     2
 72
     2
 73
     0
 90
        0
 40
-0.6
 41
-30.0
 62
     5
 63
     7
 74
     1
 91
        4
 64
     7
 65
   257
 75
     1
175
     1
 42
1.0
 92
        8
 66
     7
 43
1.0
 76
     1
 77
     6
 78
     2
 67
     7
 79
     5
170
     0
171
     0
290
     0
174
     0
 93
        1
 44
0.0
173
     0
291
     1
 45
0.0
1001
ACAD
1000
AcDbSavedByObjectVersion
1070
     0
  0
VISUALSTYLE
  5
2B
102
{ACAD_XDICTIONARY
360
591
102
}
102
{ACAD_REACTORS
330
2A
102
}
330
2A
100
AcDbVisualStyle
  2

 70
     0
 71
     2
 72
     1
 73
     1
 90
        2
 40
-0.6
 41
30.0
 62
     5
 63
     7
 74
     0
 91
        0
 64
     7
 65
   257
 75
     1
175
     1
 42
1.0
 92
        8
 66
     7
 43
1.0
 76
     1
 77
     6
 78
     2
 67
     7
 79
     5
170
     0
171
     0
290
     0
174
     0
 93
       13
 44
0.0
173
     0
291
     1
 45
0.0
1001
ACAD
1000
AcDbSavedByObjectVersion
1070
     0
  0
VISUALSTYLE
  5
2C
102
{ACAD_XDICTIONARY
360
593
102
}
102
{ACAD_REACTORS
330
2A
102
}
330
2A
100
AcDbVisualStyle
  2

 70
     1
 71
     2
 72
     1
 73
     1
 90
        2
 40
-0.6
 41
30.0
 62
     5
 63
     7
 74
     1
 91
        0
 64
     7
 65
   257
 75
     1
175
     1
 42
1.0
 92
        0
 66
   257
 43
1.0
 76
     1
 77
     6
 78
     2
 67
     7
 79
     5
170
     0
171
     0
290
     0
174
     0
 93
       13
 44
0.0
173
     0
291
     1
 45
0.0
1001
ACAD
1000
AcDbSavedByObjectVersion
1070
     0
  0
VISUALSTYLE
  5
2D
102
{ACAD_XDICTIONARY
360
595
102
}
102
{ACAD_REACTORS
330
2A
102
}
330
2A
100
AcDbVisualStyle
  2

 70
     2
 71
     2
 72
     2
 73
     1
 90
        2
 40
-0.6
 41
30.0
 62
     5
 63
     7
 74
     0
 91
        0
 64
     7
 65
   257
 75
     1
175
     1
 42
1.0
 92
        0
 66
     7
 43
1.0
 76
     1
 77
     6
 78
     2
 67
     7
 79
     5
170
     0
171
     0
290
     0
174
     0
 93
       13
 44
0.0
173
     0
291
     1
 45
0.0
1001
ACAD
1000
AcDbSavedByObjectVersion
1070
     0
  0
VISUALSTYLE
  5
2E
102
{ACAD_XDICTIONARY
360
597
102
}
102
{ACAD_REACTORS
330
2A
102
}
330
2A
100
AcDbVisualStyle
  2

 70
     3
 71
     2
 72
     2
 73
     1
 90
        2
 40
-0.6
 41
30.0
 62
     5
 63
     7
 74
     1
 91
        0
 64
     7
 65
   257
 75
     1
175
     1
 42
1.0
 92
        0
 66
   257
 43
1.0
 76
     1
 77
     6
 78
     2
 67
     7
 79
     5
170
     0
171
     0
290
     0
174
     0
 93
       13
 44
0.0
173
     0
291
     1
 45
0.0
1001
ACAD
1000
AcDbSavedByObjectVersion
1070
     0
  0
VISUALSTYLE
  5
31
102
{ACAD_XDICTIONARY
360
59D
102
}
102
{ACAD_REACTORS
330
2A
102
}
330
2A
100
AcDbVisualStyle
  2

 70
     6
 71
     1
 72
     2
 73
     2
 90
        0
 40
-0.6
 41
-30.0
 62
     5
 63
     7
 74
     2
 91
        2
 64
     7
 65
   257
 75
     2
175
     1
 42
40.0
 92
        0
 66
   257
 43
1.0
 76
     1
 77
     6
 78
     2
 67
     7
 79
     3
170
     0
171
     0
290
     0
174
     0
 93
        1
 44
0.0
173
     0
291
     0
 45
0.0
1001
ACAD
1000
AcDbSavedByObjectVersion
1070
     0
  0
VISUALSTYLE
  5
3B
102
{ACAD_XDICTIONARY
360
5B1
102
}
102
{ACAD_REACTORS
330
2A
102
}
330
2A
100
AcDbVisualStyle
  2

 70
    20
 71
     2
 72
     2
 73
     0
 90
        0
 40
-0.6
 41
-30.0
 62
     5
 63
     7
 74
     1
 91
        4
 64
     7
 65
   257
 75
     1
175
     1
 42
1.0
 92
       10
 66
     7
 43
1.0
 76
     1
 77
     6
 78
     2
 67
     7
 79
     5
170
     0
171
     0
290
     0
174
     0
 93
        1
 44
0.0
173
     0
291
     1
 45
0.0
1001
ACAD
1000
AcDbSavedByObjectVersion
1070
     0
  0
VISUALSTYLE
  5
38
102
{ACAD_XDICTIONARY
360
5AB
102
}
102
{ACAD_REACTORS
330
2A
102
}
330
2A
100
AcDbVisualStyle
  2

 70
    14
 71
     2
 72
     2
 73
     0
 90
        0
 40
-0.6
 41
-30.0
 62
     5
 63
     7
 74
     1
 91
        4
 64
     7
 65
   257
 75
     7
175
     7
 42
1.0
 92
        8
 66
     7
 43
1.0
 76
     1
 77
     6
 78
     2
 67
     7
 79
     5
170
     0
171
     0
290
     0
174
     0
 93
        1
 44
0.0
173
     0
291
     1
 45
0.0
1001
ACAD
1000
AcDbSavedByObjectVersion
1070
     0
  0
VISUALSTYLE
  5
3C
102
{ACAD_XDICTIONARY
360
5B3
102
}
102
{ACAD_REACTORS
330
2A
102
}
330
2A
100
AcDbVisualStyle
  2

 70
    21
 71
     2
 72
     2
 73
     0
 90
        0
 40
-0.6
 41
-30.0
 62
     5
 63
     7
 74
     1
 91
        4
 64
     7
 65
   257
 75
     1
175
     1
 42
1.0
 92
        9
 66
     7
 43
1.0
 76
     1
 77
     6
 78
     2
 67
     7
 79
     5
170
     0
171
     0
290
     0
174
     0
 93
        1
 44
0.0
173
     0
291
     1
 45
0.0
1001
ACAD
1000
AcDbSavedByObjectVersion
1070
     0
  0
VISUALSTYLE
  5
33
102
{ACAD_XDICTIONARY
360
5A1
102
}
102
{ACAD_REACTORS
330
2A
102
}
330
2A
100
AcDbVisualStyle
  2

 70
     8
 71
     2
 72
     3
 73
     0
 90
        2
 40
-0.6
 41
30.0
 62
     5
 63
     7
 74
     0
 91
        0
 64
     7
 65
   257
 75
     1
175
     1
 42
1.0
 92
        8
 66
   257
 43
1.0
 76
     1
 77
     6
 78
     2
 67
     7
 79
     3
170
     0
171
     0
290
     0
174
     0
 93
       13
 44
0.0
173
     0
291
     0
 45
0.0
1001
ACAD
1000
AcDbSavedByObjectVersion
1070
     0
  0
VISUALSTYLE
  5
42
102
{ACAD_XDICTIONARY
360
5BF
102
}
102
{ACAD_REACTORS
330
2A
102
}
330
2A
100
AcDbVisualStyle
  2

 70
    27
 71
     2
 72
     2
 73
     1
 90
        2
 40
-0.6
 41
30.0
 62
     5
 63
     7
 74
     0
 91
        4
 64
     7
 65
   257
 75
     1
175
     1
 42
1.0
 92
        8
 66
   257
 43
1.0
 76
     1
 77
     6
 78
     2
 67
     8
 79
     3
170
     0
171
     0
290
     0
174
     0
 93
        5
 44
0.0
173
     0
291
     0
 45
0.0
1001
ACAD
1000
AcDbSavedByObjectVersion
1070
     0
  0
VISUALSTYLE
  5
41
102
{ACAD_XDICTIONARY
360
5BD
102
}
102
{ACAD_REACTORS
330
2A
102
}
330
2A
100
AcDbVisualStyle
  2

 70
    26
 71
     2
 72
     2
 73
     1
 90
        2
 40
-0.6
 41
30.0
 62
     5
 63
     7
 74
     1
 91
       10
 64
     7
 65
   257
 75
     2
175
     1
 42
1.0
 92
        8
 66
   257
 43
1.0
 76
     1
 77
     6
 78
     2
 67
     7
 79
     3
170
     0
171
     0
290
     0
174
     0
 93
        5
 44
0.0
173
     0
291
     0
 45
0.0
1001
ACAD
1000
AcDbSavedByObjectVersion
1070
     0
  0
VISUALSTYLE
  5
3E
102
{ACAD_XDICTIONARY
360
5B7
102
}
102
{ACAD_REACTORS
330
2A
102
}
330
2A
100
AcDbVisualStyle
  2

 70
    23
 71
     2
 72
     2
 73
     3
 90
        0
 40
-0.6
 41
-30.0
 62
     5
 63
     7
 74
     2
 91
        2
 64
     7
 65
     7
 75
     1
175
     1
 42
40.0
 92
        8
 66
     7
 43
1.0
 76
     1
 77
     6
 78
     2
 67
     7
 79
     3
170
     0
171
     0
290
     0
174
     0
 93
        1
 44
0.0
173
     0
291
     0
 45
0.0
1001
ACAD
1000
AcDbSavedByObjectVersion
1070
     0
  0
VISUALSTYLE
  5
3F
102
{ACAD_XDICTIONARY
360
5B9
102
}
102
{ACAD_REACTORS
330
2A
102
}
330
2A
100
AcDbVisualStyle
  2

 70
    24
 71
     1
 72
     2
 73
     2
 90
        0
 40
-0.6
 41
-30.0
 62
     5
 63
     7
 74
     2
 91
        2
 64
     7
 65
     7
 75
     1
175
     1
 42
40.0
 92
       11
 66
     7
 43
1.0
 76
     1
 77
     6
 78
     2
 67
     7
 79
     6
170
     0
171
     0
290
     0
174
     0
 93
        1
 44
0.0
173
     0
291
     0
 45
0.0
1001
ACAD
1000
AcDbSavedByObjectVersion
1070
     0
  0
VISUALSTYLE
  5
37
102
{ACAD_XDICTIONARY
360
5A9
102
}
102
{ACAD_REACTORS
330
2A
102
}
330
2A
100
AcDbVisualStyle
  2

 70
    13
 71
     2
 72
     2
 73
     0
 90
        0
 40
-0.6
 41
-30.0
 62
     5
 63
     7
 74
     1
 91
        4
 64
     7
 65
   257
 75
     1
175
     1
 42
1.0
 92
       12
 66
     7
 43
1.0
 76
     1
 77
     6
 78
     2
 67
     7
 79
     5
170
     0
171
     0
290
     0
174
     0
 93
        1
 44
0.0
173
     0
291
     1
 45
0.0
1001
ACAD
1000
AcDbSavedByObjectVersion
1070
     0
  0
VISUALSTYLE
  5
30
102
{ACAD_XDICTIONARY
360
59B
102
}
102
{ACAD_REACTORS
330
2A
102
}
330
2A
100
AcDbVisualStyle
  2

 70
     5
 71
     0
 72
     2
 73
     0
 90
        0
 40
-0.6
 41
-30.0
 62
     5
 63
     7
 74
     1
 91
        4
 64
     7
 65
   257
 75
     1
175
     1
 42
1.0
 92
        0
 66
   257
 43
1.0
 76
     1
 77
     6
 78
     2
 67
     7
 79
     3
170
     0
171
     0
290
     0
174
     0
 93
        1
 44
0.0
173
     0
291
     0
 45
0.0
1001
ACAD
1000
AcDbSavedByObjectVersion
1070
     0
  0
VISUALSTYLE
  5
40
102
{ACAD_XDICTIONARY
360
5BB
102
}
102
{ACAD_REACTORS
330
2A
102
}
330
2A
100
AcDbVisualStyle
  2

 70
    25
 71
     2
 72
     2
 73
     1
 90
        1
 40
0.5
 41
-30.0
 62
     5
 63
     7
 74
     1
 91
        0
 64
     7
 65
   257
 75
     1
175
     1
 42
1.0
 92
        8
 66
     7
 43
1.0
 76
     1
 77
     6
 78
     2
 67
     7
 79
     3
170
     0
171
     0
290
     0
174
     0
 93
       13
 44
0.0
173
     0
291
     0
 45
0.0
1001
ACAD
1000
AcDbSavedByObjectVersion
1070
     0
  0
DICTIONARYVAR
  5
3C0
102
{ACAD_REACTORS
330
3BF
102
}
330
3BF
100
DictionaryVariables
280
     0
  1
1:1
  0
DICTIONARYVAR
  5
401
102
{ACAD_REACTORS
330
3BF
102
}
330
3BF
100
DictionaryVariables
280
     0
  1
STANDARD
  0
DICTIONARYVAR
  5
400
102
{ACAD_REACTORS
330
3BF
102
}
330
3BF
100
DictionaryVariables
280
     0
  1
STANDARD
  0
DICTIONARYVAR
  5
580
102
{ACAD_REACTORS
330
3BF
102
}
330
3BF
100
DictionaryVariables
280
     0
  1
Metric50
  0
DICTIONARYVAR
  5
581
102
{ACAD_REACTORS
330
3BF
102
}
330
3BF
100
DictionaryVariables
280
     0
  1
Metric50
  0
DICTIONARYVAR
  5
585
102
{ACAD_REACTORS
330
3BF
102
}
330
3BF
100
DictionaryVariables
280
     0
  1
2
  0
DICTIONARYVAR
  5
584
102
{ACAD_REACTORS
330
3BF
102
}
330
3BF
100
DictionaryVariables
280
     0
  1
1
  0
DICTIONARYVAR
  5
583
102
{ACAD_REACTORS
330
3BF
102
}
330
3BF
100
DictionaryVariables
280
     0
  1
0
  0
DICTIONARYVAR
  5
3C1
102
{ACAD_REACTORS
330
3BF
102
}
330
3BF
100
DictionaryVariables
280
     0
  1
1
  0
DICTIONARYVAR
  5
582
102
{ACAD_REACTORS
330
3BF
102
}
330
3BF
100
DictionaryVariables
280
     0
  1
127
  0
DICTIONARYVAR
  5
586
102
{ACAD_REACTORS
330
3BF
102
}
330
3BF
100
DictionaryVariables
280
     0
  1
2
  0
DICTIONARY
  5
5C4
330
408
100
AcDbDictionary
280
     1
281
     1
  3
ACAD_XREC_ROUNDTRIP
360
5C5
  0
DICTIONARY
  5
58B
330
1E
100
AcDbDictionary
280
     1
281
     1
  3
ACAD_XREC_ROUNDTRIP
360
58C
  0
DICTIONARY
  5
58F
330
26
100
AcDbDictionary
280
     1
281
     1
  3
ACAD_XREC_ROUNDTRIP
360
590
  0
DICTIONARY
  5
58D
330
22
100
AcDbDictionary
280
     1
281
     1
  3
ACAD_XREC_ROUNDTRIP
360
58E
  0
DICTIONARY
  5
3F5
330
45
100
AcDbDictionary
280
     1
281
     1
  3
ACAD_XREC_ROUNDTRIP
360
3F6
  0
DICTIONARY
  5
3F3
330
44
100
AcDbDictionary
280
     1
281
     1
  3
ACAD_XREC_ROUNDTRIP
360
3F4
  0
DICTIONARY
  5
3F7
330
46
100
AcDbDictionary
280
     1
281
     1
  3
ACAD_XREC_ROUNDTRIP
360
3F8
  0
DICTIONARY
  5
5C2
330
407
100
AcDbDictionary
280
     1
281
     1
  3
ACAD_XREC_ROUNDTRIP
360
5C3
  0
DICTIONARY
  5
3F9
330
6A
100
AcDbDictionary
280
     1
281
     1
  3
ACAD_ROUNDTRIP_2008_TABLESTYLE_CELLSTYLEMAP
360
588
  3
ACAD_XREC_ROUNDTRIP
360
5C1
  0
DICTIONARY
  5
599
330
2F
100
AcDbDictionary
280
     1
281
     1
  3
ACAD_XREC_ROUNDTRIP
360
59A
  0
DICTIONARY
  5
59F
330
32
100
AcDbDictionary
280
     1
281
     1
  3
ACAD_XREC_ROUNDTRIP
360
5A0
  0
DICTIONARY
  5
5A7
330
36
100
AcDbDictionary
280
     1
281
     1
  3
ACAD_XREC_ROUNDTRIP
360
5A8
  0
DICTIONARY
  5
5AF
330
3A
100
AcDbDictionary
280
     1
281
     1
  3
ACAD_XREC_ROUNDTRIP
360
5B0
  0
DICTIONARY
  5
5A3
330
34
100
AcDbDictionary
280
     1
281
     1
  3
ACAD_XREC_ROUNDTRIP
360
5A4
  0
DICTIONARY
  5
5A5
330
35
100
AcDbDictionary
280
     1
281
     1
  3
ACAD_XREC_ROUNDTRIP
360
5A6
  0
DICTIONARY
  5
5B5
330
3D
100
AcDbDictionary
280
     1
281
     1
  3
ACAD_XREC_ROUNDTRIP
360
5B6
  0
DICTIONARY
  5
5AD
330
39
100
AcDbDictionary
280
     1
281
     1
  3
ACAD_XREC_ROUNDTRIP
360
5AE
  0
DICTIONARY
  5
591
330
2B
100
AcDbDictionary
280
     1
281
     1
  3
ACAD_XREC_ROUNDTRIP
360
592
  0
DICTIONARY
  5
593
330
2C
100
AcDbDictionary
280
     1
281
     1
  3
ACAD_XREC_ROUNDTRIP
360
594
  0
DICTIONARY
  5
595
330
2D
100
AcDbDictionary
280
     1
281
     1
  3
ACAD_XREC_ROUNDTRIP
360
596
  0
DICTIONARY
  5
597
330
2E
100
AcDbDictionary
280
     1
281
     1
  3
ACAD_XREC_ROUNDTRIP
360
598
  0
DICTIONARY
  5
59D
330
31
100
AcDbDictionary
280
     1
281
     1
  3
ACAD_XREC_ROUNDTRIP
360
59E
  0
DICTIONARY
  5
5B1
330
3B
100
AcDbDictionary
280
     1
281
     1
  3
ACAD_XREC_ROUNDTRIP
360
5B2
  0
DICTIONARY
  5
5AB
330
38
100
AcDbDictionary
280
     1
281
     1
  3
ACAD_XREC_ROUNDTRIP
360
5AC
  0
DICTIONARY
  5
5B3
330
3C
100
AcDbDictionary
280
     1
281
     1
  3
ACAD_XREC_ROUNDTRIP
360
5B4
  0
DICTIONARY
  5
5A1
330
33
100
AcDbDictionary
280
     1
281
     1
  3
ACAD_XREC_ROUNDTRIP
360
5A2
  0
DICTIONARY
  5
5BF
330
42
100
AcDbDictionary
280
     1
281
     1
  3
ACAD_XREC_ROUNDTRIP
360
5C0
  0
DICTIONARY
  5
5BD
330
41
100
AcDbDictionary
280
     1
281
     1
  3
ACAD_XREC_ROUNDTRIP
360
5BE
  0
DICTIONARY
  5
5B7
330
3E
100
AcDbDictionary
280
     1
281
     1
  3
ACAD_XREC_ROUNDTRIP
360
5B8
  0
DICTIONARY
  5
5B9
330
3F
100
AcDbDictionary
280
     1
281
     1
  3
ACAD_XREC_ROUNDTRIP
360
5BA
  0
DICTIONARY
  5
5A9
330
37
100
AcDbDictionary
280
     1
281
     1
  3
ACAD_XREC_ROUNDTRIP
360
5AA
  0
DICTIONARY
  5
59B
330
30
100
AcDbDictionary
280
     1
281
     1
  3
ACAD_XREC_ROUNDTRIP
360
59C
  0
DICTIONARY
  5
5BB
330
40
100
AcDbDictionary
280
     1
281
     1
  3
ACAD_XREC_ROUNDTRIP
360
5BC
  0
XRECORD
  5
5C5
102
{ACAD_REACTORS
330
5C4
102
}
330
5C4
100
AcDbXrecord
280
     1
102
DISPLAYNAME
  1
Metric50
102
FLAGS
 90
        0
  0
XRECORD
  5
58C
102
{ACAD_REACTORS
330
58B
102
}
330
58B
100
AcDbXrecord
280
     1
102
SHADEPLOT
 70
     0
102
SHADEPLOTRESLEVEL
 70
     2
102
SHADEPLOTCUSTOMDPI
 70
   300
  0
XRECORD
  5
590
102
{ACAD_REACTORS
330
58F
102
}
330
58F
100
AcDbXrecord
280
     1
102
SHADEPLOT
 70
     0
102
SHADEPLOTRESLEVEL
 70
     2
102
SHADEPLOTCUSTOMDPI
 70
   300
  0
XRECORD
  5
58E
102
{ACAD_REACTORS
330
58D
102
}
330
58D
100
AcDbXrecord
280
     1
102
SHADEPLOT
 70
     0
102
SHADEPLOTRESLEVEL
 70
     2
102
SHADEPLOTCUSTOMDPI
 70
   300
  0
XRECORD
  5
3F6
102
{ACAD_REACTORS
330
3F5
102
}
330
3F5
100
AcDbXrecord
280
     1
102
MATERIAL
148
0.0
149
0.0
149
0.0
 93
        0
 94
      127
282
     0
 72
     1
 77
     1
171
     1
175
     1
179
     1
273
     0
  0
XRECORD
  5
3F4
102
{ACAD_REACTORS
330
3F3
102
}
330
3F3
100
AcDbXrecord
280
     1
102
MATERIAL
148
0.0
149
0.0
149
0.0
 93
        0
 94
      127
282
     0
 72
     1
 77
     1
171
     1
175
     1
179
     1
273
     0
  0
XRECORD
  5
3F8
102
{ACAD_REACTORS
330
3F7
102
}
330
3F7
100
AcDbXrecord
280
     1
102
MATERIAL
148
0.0
149
0.0
149
0.0
 93
        0
 94
      127
282
     0
 72
     1
 77
     1
171
     1
175
     1
179
     1
273
     0
  0
XRECORD
  5
5C3
102
{ACAD_REACTORS
330
5C2
102
}
330
5C2
100
AcDbXrecord
280
     1
102
DISPLAYNAME
  1
Metric50
102
FLAGS
 90
        0
  0
CELLSTYLEMAP
  5
588
102
{ACAD_REACTORS
330
3F9
102
}
330
3F9
100
AcDbCellStyleMap
 90
        3
300
CELLSTYLE
  1
TABLEFORMAT_BEGIN
 90
        5
170
     1
 91
        0
 92
    32768
 62
   257
 93
        1
300
CONTENTFORMAT
  1
CONTENTFORMAT_BEGIN
 90
        0
 91
        0
 92
        4
 93
        0
300

 40
0.0
140
1.0
 94
        5
 62
     0
340
11
144
0.25
309
CONTENTFORMAT_END
171
     1
301
MARGIN
  1
CELLMARGIN_BEGIN
 40
0.06
 40
0.06
 40
0.06
 40
0.06
 40
0.18
 40
0.18
309
CELLMARGIN_END
 94
        6
 95
        1
302
GRIDFORMAT
  1
GRIDFORMAT_BEGIN
 90
        0
 91
        1
 62
     0
 92
       -2
340
14
 93
        0
 40
0.045
309
GRIDFORMAT_END
 95
        2
302
GRIDFORMAT
  1
GRIDFORMAT_BEGIN
 90
        0
 91
        1
 62
     0
 92
       -2
340
14
 93
        0
 40
0.045
309
GRIDFORMAT_END
 95
        4
302
GRIDFORMAT
  1
GRIDFORMAT_BEGIN
 90
        0
 91
        1
 62
     0
 92
       -2
340
14
 93
        0
 40
0.045
309
GRIDFORMAT_END
 95
        8
302
GRIDFORMAT
  1
GRIDFORMAT_BEGIN
 90
        0
 91
        1
 62
     0
 92
       -2
340
14
 93
        0
 40
0.045
309
GRIDFORMAT_END
 95
       16
302
GRIDFORMAT
  1
GRIDFORMAT_BEGIN
 90
        0
 91
        1
 62
     0
 92
       -2
340
14
 93
        0
 40
0.045
309
GRIDFORMAT_END
 95
       32
302
GRIDFORMAT
  1
GRIDFORMAT_BEGIN
 90
        0
 91
        1
 62
     0
 92
       -2
340
14
 93
        0
 40
0.045
309
GRIDFORMAT_END
309
TABLEFORMAT_END
  1
CELLSTYLE_BEGIN
 90
        1
 91
        1
300
_TITLE
309
CELLSTYLE_END
300
CELLSTYLE
  1
TABLEFORMAT_BEGIN
 90
        5
170
     1
 91
        0
 92
        0
 62
   257
 93
        1
300
CONTENTFORMAT
  1
CONTENTFORMAT_BEGIN
 90
        0
 91
        0
 92
        4
 93
        0
300

 40
0.0
140
1.0
 94
        5
 62
     0
340
11
144
0.18
309
CONTENTFORMAT_END
171
     1
301
MARGIN
  1
CELLMARGIN_BEGIN
 40
0.06
 40
0.06
 40
0.06
 40
0.06
 40
0.18
 40
0.18
309
CELLMARGIN_END
 94
        6
 95
        1
302
GRIDFORMAT
  1
GRIDFORMAT_BEGIN
 90
        0
 91
        1
 62
     0
 92
       -2
340
14
 93
        0
 40
0.045
309
GRIDFORMAT_END
 95
        2
302
GRIDFORMAT
  1
GRIDFORMAT_BEGIN
 90
        0
 91
        1
 62
     0
 92
       -2
340
14
 93
        0
 40
0.045
309
GRIDFORMAT_END
 95
        4
302
GRIDFORMAT
  1
GRIDFORMAT_BEGIN
 90
        0
 91
        1
 62
     0
 92
       -2
340
14
 93
        0
 40
0.045
309
GRIDFORMAT_END
 95
        8
302
GRIDFORMAT
  1
GRIDFORMAT_BEGIN
 90
        0
 91
        1
 62
     0
 92
       -2
340
14
 93
        0
 40
0.045
309
GRIDFORMAT_END
 95
       16
302
GRIDFORMAT
  1
GRIDFORMAT_BEGIN
 90
        0
 91
        1
 62
     0
 92
       -2
340
14
 93
        0
 40
0.045
309
GRIDFORMAT_END
 95
       32
302
GRIDFORMAT
  1
GRIDFORMAT_BEGIN
 90
        0
 91
        1
 62
     0
 92
       -2
340
14
 93
        0
 40
0.045
309
GRIDFORMAT_END
309
TABLEFORMAT_END
  1
CELLSTYLE_BEGIN
 90
        2
 91
        1
300
_HEADER
309
CELLSTYLE_END
300
CELLSTYLE
  1
TABLEFORMAT_BEGIN
 90
        5
170
     1
 91
        0
 92
        0
 62
   257
 93
        1
300
CONTENTFORMAT
  1
CONTENTFORMAT_BEGIN
 90
        0
 91
        0
 92
        4
 93
        0
300

 40
0.0
140
1.0
 94
        2
 62
     0
340
11
144
0.18
309
CONTENTFORMAT_END
171
     1
301
MARGIN
  1
CELLMARGIN_BEGIN
 40
0.06
 40
0.06
 40
0.06
 40
0.06
 40
0.18
 40
0.18
309
CELLMARGIN_END
 94
        6
 95
        1
302
GRIDFORMAT
  1
GRIDFORMAT_BEGIN
 90
        0
 91
        1
 62
     0
 92
       -2
340
14
 93
        0
 40
0.045
309
GRIDFORMAT_END
 95
        2
302
GRIDFORMAT
  1
GRIDFORMAT_BEGIN
 90
        0
 91
        1
 62
     0
 92
       -2
340
14
 93
        0
 40
0.045
309
GRIDFORMAT_END
 95
        4
302
GRIDFORMAT
  1
GRIDFORMAT_BEGIN
 90
        0
 91
        1
 62
     0
 92
       -2
340
14
 93
        0
 40
0.045
309
GRIDFORMAT_END
 95
        8
302
GRIDFORMAT
  1
GRIDFORMAT_BEGIN
 90
        0
 91
        1
 62
     0
 92
       -2
340
14
 93
        0
 40
0.045
309
GRIDFORMAT_END
 95
       16
302
GRIDFORMAT
  1
GRIDFORMAT_BEGIN
 90
        0
 91
        1
 62
     0
 92
       -2
340
14
 93
        0
 40
0.045
309
GRIDFORMAT_END
 95
       32
302
GRIDFORMAT
  1
GRIDFORMAT_BEGIN
 90
        0
 91
        1
 62
     0
 92
       -2
340
14
 93
        0
 40
0.045
309
GRIDFORMAT_END
309
TABLEFORMAT_END
  1
CELLSTYLE_BEGIN
 90
        3
 91
        2
300
_DATA
309
CELLSTYLE_END
  0
XRECORD
  5
5C1
102
{ACAD_REACTORS
330
3F9
102
}
330
3F9
100
AcDbXrecord
280
     1
102
ACAD_ROUNDTRIP_PRE2007_TABLESTYLE
 90
        4
 91
        0
  1

 92
        4
 93
        0
  2

 94
        4
 95
        0
  3

  0
XRECORD
  5
59A
102
{ACAD_REACTORS
330
599
102
}
330
599
100
AcDbXrecord
280
     1
102
RTVSPost2010Prop28
280
     1
102
RTVSPost2010PropOp28
 70
     1
102
RTVSPost2010Prop29
280
     1
102
RTVSPost2010PropOp29
 70
     1
102
RTVSPost2010Prop30
280
     0
102
RTVSPost2010PropOp30
 70
     1
102
RTVSPost2010Prop31
280
     0
102
RTVSPost2010PropOp31
 70
     1
102
RTVSPost2010Prop32
280
     0
102
RTVSPost2010PropOp32
 70
     1
102
RTVSPost2010Prop33
280
     0
102
RTVSPost2010PropOp33
 70
     1
102
RTVSPost2010Prop34
280
     0
102
RTVSPost2010PropOp34
 70
     1
102
RTVSPost2010Prop35
280
     0
102
RTVSPost2010PropOp35
 70
     1
102
RTVSPost2010Prop36
280
     0
102
RTVSPost2010PropOp36
 70
     1
102
RTVSPost2010Prop37
 90
       50
102
RTVSPost2010PropOp37
 70
     1
102
RTVSPost2010Prop38
140
0.0
102
RTVSPost2010PropOp38
 70
     1
102
RTVSPost2010Prop39
140
1.0
102
RTVSPost2010PropOp39
 70
     1
102
RTVSPost2010Prop40
 90
        0
102
RTVSPost2010PropOp40
 70
     1
102
RTVSPost2010Prop41ColorIndex
 90
       18
102
RTVSPost2010Prop41ColorRGB
 90
        0
102
RTVSPost2010PropOp41
 70
     1
102
RTVSPost2010Prop42
 90
       50
102
RTVSPost2010PropOp42
 70
     1
102
RTVSPost2010Prop43
 90
        3
102
RTVSPost2010PropOp43
 70
     1
102
RTVSPost2010Prop44ColorIndex
 90
        5
102
RTVSPost2010Prop44ColorRGB
 90
      255
102
RTVSPost2010PropOp44
 70
     1
102
RTVSPost2010Prop45
280
     0
102
RTVSPost2010PropOp45
 70
     1
102
RTVSPost2010Prop46
 90
       50
102
RTVSPost2010PropOp46
 70
     1
102
RTVSPost2010Prop47
 90
       50
102
RTVSPost2010PropOp47
 70
     1
102
RTVSPost2010Prop48
 90
       50
102
RTVSPost2010PropOp48
 70
     1
102
RTVSPost2010Prop49
280
     0
102
RTVSPost2010PropOp49
 70
     1
102
RTVSPost2010Prop50
 90
       50
102
RTVSPost2010PropOp50
 70
     1
102
RTVSPost2010Prop51ColorIndex
 90
      256
102
RTVSPost2010Prop51ColorRGB
 90
-16777216
102
RTVSPost2010PropOp51
 70
     0
102
RTVSPost2010Prop52
140
1.0
102
RTVSPost2010PropOp52
 70
     0
102
RTVSPost2010Prop53
 90
        2
102
RTVSPost2010PropOp53
 70
     1
102
RTVSPost2010Prop54
  1
strokes_ogs.tif
102
RTVSPost2010PropOp54
 70
     1
102
RTVSPost2010Prop55
280
     0
102
RTVSPost2010PropOp55
 70
     1
102
RTVSPost2010Prop56
140
1.0
102
RTVSPost2010PropOp56
 70
     1
102
RTVSPost2010Prop57
140
1.0
102
RTVSPost2010PropOp57
 70
     1
102
RTVSPropertyOp0
 70
     1
102
RTVSPropertyOp1
 70
     1
102
RTVSPropertyOp2
 70
     1
102
RTVSPropertyOp3
 70
     1
102
RTVSPropertyOp4
 70
     1
102
RTVSPropertyOp5
 70
     1
102
RTVSPropertyOp6
 70
     1
102
RTVSPropertyOp7
 70
     1
102
RTVSPropertyOp8
 70
     1
102
RTVSPropertyOp9
 70
     1
102
RTVSPropertyOp10
 70
     1
102
RTVSPropertyOp11
 70
     1
102
RTVSPropertyOp12
 70
     1
102
RTVSPropertyOp13
 70
     1
102
RTVSPropertyOp14
 70
     1
102
RTVSPropertyOp15
 70
     1
102
RTVSPropertyOp16
 70
     1
102
RTVSPropertyOp17
 70
     1
102
RTVSPropertyOp18
 70
     1
102
RTVSPropertyOp19
 70
     1
102
RTVSPropertyOp20
 70
     1
102
RTVSPropertyOp21
 70
     1
102
RTVSPropertyOp22
 70
     1
102
RTVSPropertyOp23
 70
     1
102
RTVSPropertyOp24
 70
     1
102
RTVSPropertyOp25
 70
     1
102
RTVSPropertyOp26
 70
     1
102
RTVSPropertyOp27
 70
     1
102
RTVSPropertyOp28
 70
     1
102
RTVSPropertyOp29
 70
     1
102
RTVSPropertyOp30
 70
     1
102
RTVSPropertyOp31
 70
     1
102
RTVSPropertyOp32
 70
     1
102
RTVSPropertyOp33
 70
     1
102
RTVSPropertyOp34
 70
     1
102
RTVSPropertyOp35
 70
     1
102
RTVSPropertyOp36
 70
     1
102
RTVSPropertyOp37
 70
     1
102
RTVSPropertyOp38
 70
     1
102
RTVSPropertyOp39
 70
     1
102
RTVSPropertyOp40
 70
     1
102
RTVSPropertyOp41
 70
     1
102
RTVSPropertyOp42
 70
     1
102
RTVSPropertyOp43
 70
     1
102
RTVSPropertyOp44
 70
     1
102
RTVSPropertyOp45
 70
     1
102
RTVSPropertyOp46
 70
     1
102
RTVSPropertyOp47
 70
     1
102
RTVSPropertyOp48
 70
     1
102
RTVSPropertyOp49
 70
     1
102
RTVSPropertyOp50
 70
     1
102
RTVSPropertyOp51
 70
     0
102
RTVSPropertyOp52
 70
     0
102
RTVSPropertyOp53
 70
     1
102
RTVSPropertyOp54
 70
     1
102
RTVSPropertyOp55
 70
     1
102
RTVSPropertyOp56
 70
     1
102
RTVSPropertyOp57
 70
     1
102
RTVSPropertyOp58
 70
     1
102
RTVSPropertyOp59
 70
     1
102
RTVSPropertyOp60
 70
     1
102
RTVSPropertyOp61
 70
     1
102
RTVSPropertyOp62
 70
     1
  0
XRECORD
  5
5A0
102
{ACAD_REACTORS
330
59F
102
}
330
59F
100
AcDbXrecord
280
     1
102
RTVSPost2010Prop28
280
     0
102
RTVSPost2010PropOp28
 70
     1
102
RTVSPost2010Prop29
280
     1
102
RTVSPost2010PropOp29
 70
     1
102
RTVSPost2010Prop30
280
     1
102
RTVSPost2010PropOp30
 70
     1
102
RTVSPost2010Prop31
280
     0
102
RTVSPost2010PropOp31
 70
     1
102
RTVSPost2010Prop32
280
     0
102
RTVSPost2010PropOp32
 70
     1
102
RTVSPost2010Prop33
280
     0
102
RTVSPost2010PropOp33
 70
     1
102
RTVSPost2010Prop34
280
     0
102
RTVSPost2010PropOp34
 70
     1
102
RTVSPost2010Prop35
280
     0
102
RTVSPost2010PropOp35
 70
     1
102
RTVSPost2010Prop36
280
     0
102
RTVSPost2010PropOp36
 70
     1
102
RTVSPost2010Prop37
 90
       50
102
RTVSPost2010PropOp37
 70
     1
102
RTVSPost2010Prop38
140
0.0
102
RTVSPost2010PropOp38
 70
     1
102
RTVSPost2010Prop39
140
1.0
102
RTVSPost2010PropOp39
 70
     1
102
RTVSPost2010Prop40
 90
        0
102
RTVSPost2010PropOp40
 70
     1
102
RTVSPost2010Prop41ColorIndex
 90
       18
102
RTVSPost2010Prop41ColorRGB
 90
        0
102
RTVSPost2010PropOp41
 70
     1
102
RTVSPost2010Prop42
 90
       50
102
RTVSPost2010PropOp42
 70
     1
102
RTVSPost2010Prop43
 90
        3
102
RTVSPost2010PropOp43
 70
     1
102
RTVSPost2010Prop44ColorIndex
 90
        5
102
RTVSPost2010Prop44ColorRGB
 90
      255
102
RTVSPost2010PropOp44
 70
     1
102
RTVSPost2010Prop45
280
     0
102
RTVSPost2010PropOp45
 70
     1
102
RTVSPost2010Prop46
 90
       50
102
RTVSPost2010PropOp46
 70
     1
102
RTVSPost2010Prop47
 90
       50
102
RTVSPost2010PropOp47
 70
     1
102
RTVSPost2010Prop48
 90
       50
102
RTVSPost2010PropOp48
 70
     1
102
RTVSPost2010Prop49
280
     0
102
RTVSPost2010PropOp49
 70
     1
102
RTVSPost2010Prop50
 90
       50
102
RTVSPost2010PropOp50
 70
     1
102
RTVSPost2010Prop51ColorIndex
 90
      256
102
RTVSPost2010Prop51ColorRGB
 90
-16777216
102
RTVSPost2010PropOp51
 70
     0
102
RTVSPost2010Prop52
140
1.0
102
RTVSPost2010PropOp52
 70
     0
102
RTVSPost2010Prop53
 90
        2
102
RTVSPost2010PropOp53
 70
     1
102
RTVSPost2010Prop54
  1
strokes_ogs.tif
102
RTVSPost2010PropOp54
 70
     1
102
RTVSPost2010Prop55
280
     0
102
RTVSPost2010PropOp55
 70
     1
102
RTVSPost2010Prop56
140
1.0
102
RTVSPost2010PropOp56
 70
     1
102
RTVSPost2010Prop57
140
1.0
102
RTVSPost2010PropOp57
 70
     1
102
RTVSPropertyOp0
 70
     1
102
RTVSPropertyOp1
 70
     1
102
RTVSPropertyOp2
 70
     1
102
RTVSPropertyOp3
 70
     1
102
RTVSPropertyOp4
 70
     1
102
RTVSPropertyOp5
 70
     1
102
RTVSPropertyOp6
 70
     1
102
RTVSPropertyOp7
 70
     1
102
RTVSPropertyOp8
 70
     1
102
RTVSPropertyOp9
 70
     1
102
RTVSPropertyOp10
 70
     1
102
RTVSPropertyOp11
 70
     1
102
RTVSPropertyOp12
 70
     1
102
RTVSPropertyOp13
 70
     1
102
RTVSPropertyOp14
 70
     1
102
RTVSPropertyOp15
 70
     1
102
RTVSPropertyOp16
 70
     1
102
RTVSPropertyOp17
 70
     1
102
RTVSPropertyOp18
 70
     1
102
RTVSPropertyOp19
 70
     1
102
RTVSPropertyOp20
 70
     1
102
RTVSPropertyOp21
 70
     1
102
RTVSPropertyOp22
 70
     1
102
RTVSPropertyOp23
 70
     1
102
RTVSPropertyOp24
 70
     1
102
RTVSPropertyOp25
 70
     1
102
RTVSPropertyOp26
 70
     1
102
RTVSPropertyOp27
 70
     1
102
RTVSPropertyOp28
 70
     1
102
RTVSPropertyOp29
 70
     1
102
RTVSPropertyOp30
 70
     1
102
RTVSPropertyOp31
 70
     1
102
RTVSPropertyOp32
 70
     1
102
RTVSPropertyOp33
 70
     1
102
RTVSPropertyOp34
 70
     1
102
RTVSPropertyOp35
 70
     1
102
RTVSPropertyOp36
 70
     1
102
RTVSPropertyOp37
 70
     1
102
RTVSPropertyOp38
 70
     1
102
RTVSPropertyOp39
 70
     1
102
RTVSPropertyOp40
 70
     1
102
RTVSPropertyOp41
 70
     1
102
RTVSPropertyOp42
 70
     1
102
RTVSPropertyOp43
 70
     1
102
RTVSPropertyOp44
 70
     1
102
RTVSPropertyOp45
 70
     1
102
RTVSPropertyOp46
 70
     1
102
RTVSPropertyOp47
 70
     1
102
RTVSPropertyOp48
 70
     1
102
RTVSPropertyOp49
 70
     1
102
RTVSPropertyOp50
 70
     1
102
RTVSPropertyOp51
 70
     0
102
RTVSPropertyOp52
 70
     0
102
RTVSPropertyOp53
 70
     1
102
RTVSPropertyOp54
 70
     1
102
RTVSPropertyOp55
 70
     1
102
RTVSPropertyOp56
 70
     1
102
RTVSPropertyOp57
 70
     1
102
RTVSPropertyOp58
 70
     1
102
RTVSPropertyOp59
 70
     1
102
RTVSPropertyOp60
 70
     1
102
RTVSPropertyOp61
 70
     1
102
RTVSPropertyOp62
 70
     1
  0
XRECORD
  5
5A8
102
{ACAD_REACTORS
330
5A7
102
}
330
5A7
100
AcDbXrecord
280
     1
102
RTVSPost2010Prop28
280
     0
102
RTVSPost2010PropOp28
 70
     1
102
RTVSPost2010Prop29
280
     1
102
RTVSPost2010PropOp29
 70
     1
102
RTVSPost2010Prop30
280
     1
102
RTVSPost2010PropOp30
 70
     1
102
RTVSPost2010Prop31
280
     0
102
RTVSPost2010PropOp31
 70
     1
102
RTVSPost2010Prop32
280
     0
102
RTVSPost2010PropOp32
 70
     1
102
RTVSPost2010Prop33
280
     0
102
RTVSPost2010PropOp33
 70
     1
102
RTVSPost2010Prop34
280
     0
102
RTVSPost2010PropOp34
 70
     1
102
RTVSPost2010Prop35
280
     0
102
RTVSPost2010PropOp35
 70
     1
102
RTVSPost2010Prop36
280
     0
102
RTVSPost2010PropOp36
 70
     1
102
RTVSPost2010Prop37
 90
       50
102
RTVSPost2010PropOp37
 70
     1
102
RTVSPost2010Prop38
140
0.0
102
RTVSPost2010PropOp38
 70
     1
102
RTVSPost2010Prop39
140
1.0
102
RTVSPost2010PropOp39
 70
     1
102
RTVSPost2010Prop40
 90
        0
102
RTVSPost2010PropOp40
 70
     1
102
RTVSPost2010Prop41ColorIndex
 90
       18
102
RTVSPost2010Prop41ColorRGB
 90
        0
102
RTVSPost2010PropOp41
 70
     1
102
RTVSPost2010Prop42
 90
       50
102
RTVSPost2010PropOp42
 70
     1
102
RTVSPost2010Prop43
 90
        3
102
RTVSPost2010PropOp43
 70
     1
102
RTVSPost2010Prop44ColorIndex
 90
        5
102
RTVSPost2010Prop44ColorRGB
 90
      255
102
RTVSPost2010PropOp44
 70
     1
102
RTVSPost2010Prop45
280
     0
102
RTVSPost2010PropOp45
 70
     1
102
RTVSPost2010Prop46
 90
       50
102
RTVSPost2010PropOp46
 70
     1
102
RTVSPost2010Prop47
 90
       50
102
RTVSPost2010PropOp47
 70
     1
102
RTVSPost2010Prop48
 90
       50
102
RTVSPost2010PropOp48
 70
     1
102
RTVSPost2010Prop49
280
     0
102
RTVSPost2010PropOp49
 70
     1
102
RTVSPost2010Prop50
 90
       50
102
RTVSPost2010PropOp50
 70
     1
102
RTVSPost2010Prop51ColorIndex
 90
      256
102
RTVSPost2010Prop51ColorRGB
 90
-16777216
102
RTVSPost2010PropOp51
 70
     0
102
RTVSPost2010Prop52
140
1.0
102
RTVSPost2010PropOp52
 70
     0
102
RTVSPost2010Prop53
 90
        2
102
RTVSPost2010PropOp53
 70
     1
102
RTVSPost2010Prop54
  1
strokes_ogs.tif
102
RTVSPost2010PropOp54
 70
     1
102
RTVSPost2010Prop55
280
     0
102
RTVSPost2010PropOp55
 70
     1
102
RTVSPost2010Prop56
140
1.0
102
RTVSPost2010PropOp56
 70
     1
102
RTVSPost2010Prop57
140
1.0
102
RTVSPost2010PropOp57
 70
     1
102
RTVSPropertyOp0
 70
     1
102
RTVSPropertyOp1
 70
     1
102
RTVSPropertyOp2
 70
     1
102
RTVSPropertyOp3
 70
     1
102
RTVSPropertyOp4
 70
     1
102
RTVSPropertyOp5
 70
     1
102
RTVSPropertyOp6
 70
     1
102
RTVSPropertyOp7
 70
     1
102
RTVSPropertyOp8
 70
     1
102
RTVSPropertyOp9
 70
     1
102
RTVSPropertyOp10
 70
     1
102
RTVSPropertyOp11
 70
     1
102
RTVSPropertyOp12
 70
     1
102
RTVSPropertyOp13
 70
     1
102
RTVSPropertyOp14
 70
     1
102
RTVSPropertyOp15
 70
     1
102
RTVSPropertyOp16
 70
     1
102
RTVSPropertyOp17
 70
     1
102
RTVSPropertyOp18
 70
     1
102
RTVSPropertyOp19
 70
     1
102
RTVSPropertyOp20
 70
     1
102
RTVSPropertyOp21
 70
     1
102
RTVSPropertyOp22
 70
     1
102
RTVSPropertyOp23
 70
     1
102
RTVSPropertyOp24
 70
     1
102
RTVSPropertyOp25
 70
     1
102
RTVSPropertyOp26
 70
     1
102
RTVSPropertyOp27
 70
     1
102
RTVSPropertyOp28
 70
     1
102
RTVSPropertyOp29
 70
     1
102
RTVSPropertyOp30
 70
     1
102
RTVSPropertyOp31
 70
     1
102
RTVSPropertyOp32
 70
     1
102
RTVSPropertyOp33
 70
     1
102
RTVSPropertyOp34
 70
     1
102
RTVSPropertyOp35
 70
     1
102
RTVSPropertyOp36
 70
     1
102
RTVSPropertyOp37
 70
     1
102
RTVSPropertyOp38
 70
     1
102
RTVSPropertyOp39
 70
     1
102
RTVSPropertyOp40
 70
     1
102
RTVSPropertyOp41
 70
     1
102
RTVSPropertyOp42
 70
     1
102
RTVSPropertyOp43
 70
     1
102
RTVSPropertyOp44
 70
     1
102
RTVSPropertyOp45
 70
     1
102
RTVSPropertyOp46
 70
     1
102
RTVSPropertyOp47
 70
     1
102
RTVSPropertyOp48
 70
     1
102
RTVSPropertyOp49
 70
     1
102
RTVSPropertyOp50
 70
     1
102
RTVSPropertyOp51
 70
     0
102
RTVSPropertyOp52
 70
     0
102
RTVSPropertyOp53
 70
     1
102
RTVSPropertyOp54
 70
     1
102
RTVSPropertyOp55
 70
     1
102
RTVSPropertyOp56
 70
     1
102
RTVSPropertyOp57
 70
     1
102
RTVSPropertyOp58
 70
     1
102
RTVSPropertyOp59
 70
     1
102
RTVSPropertyOp60
 70
     1
102
RTVSPropertyOp61
 70
     1
102
RTVSPropertyOp62
 70
     1
  0
XRECORD
  5
5B0
102
{ACAD_REACTORS
330
5AF
102
}
330
5AF
100
AcDbXrecord
280
     1
102
RTVSPost2010Prop28
280
     0
102
RTVSPost2010PropOp28
 70
     1
102
RTVSPost2010Prop29
280
     1
102
RTVSPost2010PropOp29
 70
     1
102
RTVSPost2010Prop30
280
     1
102
RTVSPost2010PropOp30
 70
     1
102
RTVSPost2010Prop31
280
     0
102
RTVSPost2010PropOp31
 70
     1
102
RTVSPost2010Prop32
280
     0
102
RTVSPost2010PropOp32
 70
     1
102
RTVSPost2010Prop33
280
     0
102
RTVSPost2010PropOp33
 70
     1
102
RTVSPost2010Prop34
280
     0
102
RTVSPost2010PropOp34
 70
     1
102
RTVSPost2010Prop35
280
     0
102
RTVSPost2010PropOp35
 70
     1
102
RTVSPost2010Prop36
280
     0
102
RTVSPost2010PropOp36
 70
     1
102
RTVSPost2010Prop37
 90
       50
102
RTVSPost2010PropOp37
 70
     1
102
RTVSPost2010Prop38
140
0.0
102
RTVSPost2010PropOp38
 70
     1
102
RTVSPost2010Prop39
140
1.0
102
RTVSPost2010PropOp39
 70
     1
102
RTVSPost2010Prop40
 90
        0
102
RTVSPost2010PropOp40
 70
     1
102
RTVSPost2010Prop41ColorIndex
 90
       18
102
RTVSPost2010Prop41ColorRGB
 90
        0
102
RTVSPost2010PropOp41
 70
     1
102
RTVSPost2010Prop42
 90
       50
102
RTVSPost2010PropOp42
 70
     1
102
RTVSPost2010Prop43
 90
        3
102
RTVSPost2010PropOp43
 70
     1
102
RTVSPost2010Prop44ColorIndex
 90
        5
102
RTVSPost2010Prop44ColorRGB
 90
      255
102
RTVSPost2010PropOp44
 70
     1
102
RTVSPost2010Prop45
280
     0
102
RTVSPost2010PropOp45
 70
     1
102
RTVSPost2010Prop46
 90
       50
102
RTVSPost2010PropOp46
 70
     1
102
RTVSPost2010Prop47
 90
       50
102
RTVSPost2010PropOp47
 70
     1
102
RTVSPost2010Prop48
 90
       50
102
RTVSPost2010PropOp48
 70
     1
102
RTVSPost2010Prop49
280
     0
102
RTVSPost2010PropOp49
 70
     1
102
RTVSPost2010Prop50
 90
       50
102
RTVSPost2010PropOp50
 70
     1
102
RTVSPost2010Prop51ColorIndex
 90
      256
102
RTVSPost2010Prop51ColorRGB
 90
-16777216
102
RTVSPost2010PropOp51
 70
     0
102
RTVSPost2010Prop52
140
1.0
102
RTVSPost2010PropOp52
 70
     0
102
RTVSPost2010Prop53
 90
        2
102
RTVSPost2010PropOp53
 70
     1
102
RTVSPost2010Prop54
  1
strokes_ogs.tif
102
RTVSPost2010PropOp54
 70
     1
102
RTVSPost2010Prop55
280
     0
102
RTVSPost2010PropOp55
 70
     1
102
RTVSPost2010Prop56
140
1.0
102
RTVSPost2010PropOp56
 70
     1
102
RTVSPost2010Prop57
140
1.0
102
RTVSPost2010PropOp57
 70
     1
102
RTVSPropertyOp0
 70
     1
102
RTVSPropertyOp1
 70
     1
102
RTVSPropertyOp2
 70
     1
102
RTVSPropertyOp3
 70
     1
102
RTVSPropertyOp4
 70
     1
102
RTVSPropertyOp5
 70
     1
102
RTVSPropertyOp6
 70
     1
102
RTVSPropertyOp7
 70
     1
102
RTVSPropertyOp8
 70
     1
102
RTVSPropertyOp9
 70
     1
102
RTVSPropertyOp10
 70
     1
102
RTVSPropertyOp11
 70
     1
102
RTVSPropertyOp12
 70
     1
102
RTVSPropertyOp13
 70
     1
102
RTVSPropertyOp14
 70
     1
102
RTVSPropertyOp15
 70
     1
102
RTVSPropertyOp16
 70
     1
102
RTVSPropertyOp17
 70
     1
102
RTVSPropertyOp18
 70
     1
102
RTVSPropertyOp19
 70
     1
102
RTVSPropertyOp20
 70
     1
102
RTVSPropertyOp21
 70
     1
102
RTVSPropertyOp22
 70
     1
102
RTVSPropertyOp23
 70
     1
102
RTVSPropertyOp24
 70
     1
102
RTVSPropertyOp25
 70
     1
102
RTVSPropertyOp26
 70
     1
102
RTVSPropertyOp27
 70
     1
102
RTVSPropertyOp28
 70
     1
102
RTVSPropertyOp29
 70
     1
102
RTVSPropertyOp30
 70
     1
102
RTVSPropertyOp31
 70
     1
102
RTVSPropertyOp32
 70
     1
102
RTVSPropertyOp33
 70
     1
102
RTVSPropertyOp34
 70
     1
102
RTVSPropertyOp35
 70
     1
102
RTVSPropertyOp36
 70
     1
102
RTVSPropertyOp37
 70
     1
102
RTVSPropertyOp38
 70
     1
102
RTVSPropertyOp39
 70
     1
102
RTVSPropertyOp40
 70
     1
102
RTVSPropertyOp41
 70
     1
102
RTVSPropertyOp42
 70
     1
102
RTVSPropertyOp43
 70
     1
102
RTVSPropertyOp44
 70
     1
102
RTVSPropertyOp45
 70
     1
102
RTVSPropertyOp46
 70
     1
102
RTVSPropertyOp47
 70
     1
102
RTVSPropertyOp48
 70
     1
102
RTVSPropertyOp49
 70
     1
102
RTVSPropertyOp50
 70
     1
102
RTVSPropertyOp51
 70
     0
102
RTVSPropertyOp52
 70
     0
102
RTVSPropertyOp53
 70
     1
102
RTVSPropertyOp54
 70
     1
102
RTVSPropertyOp55
 70
     1
102
RTVSPropertyOp56
 70
     1
102
RTVSPropertyOp57
 70
     1
102
RTVSPropertyOp58
 70
     1
102
RTVSPropertyOp59
 70
     1
102
RTVSPropertyOp60
 70
     1
102
RTVSPropertyOp61
 70
     1
102
RTVSPropertyOp62
 70
     1
  0
XRECORD
  5
5A4
102
{ACAD_REACTORS
330
5A3
102
}
330
5A3
100
AcDbXrecord
280
     1
102
RTVSPost2010Prop28
280
     0
102
RTVSPost2010PropOp28
 70
     1
102
RTVSPost2010Prop29
280
     1
102
RTVSPost2010PropOp29
 70
     1
102
RTVSPost2010Prop30
280
     1
102
RTVSPost2010PropOp30
 70
     1
102
RTVSPost2010Prop31
280
     0
102
RTVSPost2010PropOp31
 70
     1
102
RTVSPost2010Prop32
280
     0
102
RTVSPost2010PropOp32
 70
     1
102
RTVSPost2010Prop33
280
     0
102
RTVSPost2010PropOp33
 70
     1
102
RTVSPost2010Prop34
280
     0
102
RTVSPost2010PropOp34
 70
     1
102
RTVSPost2010Prop35
280
     0
102
RTVSPost2010PropOp35
 70
     1
102
RTVSPost2010Prop36
280
     0
102
RTVSPost2010PropOp36
 70
     1
102
RTVSPost2010Prop37
 90
       50
102
RTVSPost2010PropOp37
 70
     1
102
RTVSPost2010Prop38
140
0.0
102
RTVSPost2010PropOp38
 70
     1
102
RTVSPost2010Prop39
140
1.0
102
RTVSPost2010PropOp39
 70
     1
102
RTVSPost2010Prop40
 90
        0
102
RTVSPost2010PropOp40
 70
     1
102
RTVSPost2010Prop41ColorIndex
 90
       18
102
RTVSPost2010Prop41ColorRGB
 90
        0
102
RTVSPost2010PropOp41
 70
     1
102
RTVSPost2010Prop42
 90
       50
102
RTVSPost2010PropOp42
 70
     1
102
RTVSPost2010Prop43
 90
        3
102
RTVSPost2010PropOp43
 70
     1
102
RTVSPost2010Prop44ColorIndex
 90
        5
102
RTVSPost2010Prop44ColorRGB
 90
      255
102
RTVSPost2010PropOp44
 70
     1
102
RTVSPost2010Prop45
280
     0
102
RTVSPost2010PropOp45
 70
     1
102
RTVSPost2010Prop46
 90
       50
102
RTVSPost2010PropOp46
 70
     1
102
RTVSPost2010Prop47
 90
       50
102
RTVSPost2010PropOp47
 70
     1
102
RTVSPost2010Prop48
 90
       50
102
RTVSPost2010PropOp48
 70
     1
102
RTVSPost2010Prop49
280
     0
102
RTVSPost2010PropOp49
 70
     1
102
RTVSPost2010Prop50
 90
       50
102
RTVSPost2010PropOp50
 70
     1
102
RTVSPost2010Prop51ColorIndex
 90
      256
102
RTVSPost2010Prop51ColorRGB
 90
-16777216
102
RTVSPost2010PropOp51
 70
     0
102
RTVSPost2010Prop52
140
1.0
102
RTVSPost2010PropOp52
 70
     0
102
RTVSPost2010Prop53
 90
        2
102
RTVSPost2010PropOp53
 70
     1
102
RTVSPost2010Prop54
  1
strokes_ogs.tif
102
RTVSPost2010PropOp54
 70
     1
102
RTVSPost2010Prop55
280
     0
102
RTVSPost2010PropOp55
 70
     1
102
RTVSPost2010Prop56
140
1.0
102
RTVSPost2010PropOp56
 70
     1
102
RTVSPost2010Prop57
140
1.0
102
RTVSPost2010PropOp57
 70
     1
102
RTVSPropertyOp0
 70
     1
102
RTVSPropertyOp1
 70
     1
102
RTVSPropertyOp2
 70
     1
102
RTVSPropertyOp3
 70
     1
102
RTVSPropertyOp4
 70
     1
102
RTVSPropertyOp5
 70
     1
102
RTVSPropertyOp6
 70
     1
102
RTVSPropertyOp7
 70
     1
102
RTVSPropertyOp8
 70
     1
102
RTVSPropertyOp9
 70
     1
102
RTVSPropertyOp10
 70
     1
102
RTVSPropertyOp11
 70
     1
102
RTVSPropertyOp12
 70
     1
102
RTVSPropertyOp13
 70
     1
102
RTVSPropertyOp14
 70
     1
102
RTVSPropertyOp15
 70
     1
102
RTVSPropertyOp16
 70
     1
102
RTVSPropertyOp17
 70
     1
102
RTVSPropertyOp18
 70
     1
102
RTVSPropertyOp19
 70
     1
102
RTVSPropertyOp20
 70
     1
102
RTVSPropertyOp21
 70
     1
102
RTVSPropertyOp22
 70
     1
102
RTVSPropertyOp23
 70
     1
102
RTVSPropertyOp24
 70
     1
102
RTVSPropertyOp25
 70
     1
102
RTVSPropertyOp26
 70
     1
102
RTVSPropertyOp27
 70
     1
102
RTVSPropertyOp28
 70
     1
102
RTVSPropertyOp29
 70
     1
102
RTVSPropertyOp30
 70
     1
102
RTVSPropertyOp31
 70
     1
102
RTVSPropertyOp32
 70
     1
102
RTVSPropertyOp33
 70
     1
102
RTVSPropertyOp34
 70
     1
102
RTVSPropertyOp35
 70
     1
102
RTVSPropertyOp36
 70
     1
102
RTVSPropertyOp37
 70
     1
102
RTVSPropertyOp38
 70
     1
102
RTVSPropertyOp39
 70
     1
102
RTVSPropertyOp40
 70
     1
102
RTVSPropertyOp41
 70
     1
102
RTVSPropertyOp42
 70
     1
102
RTVSPropertyOp43
 70
     1
102
RTVSPropertyOp44
 70
     1
102
RTVSPropertyOp45
 70
     1
102
RTVSPropertyOp46
 70
     1
102
RTVSPropertyOp47
 70
     1
102
RTVSPropertyOp48
 70
     1
102
RTVSPropertyOp49
 70
     1
102
RTVSPropertyOp50
 70
     1
102
RTVSPropertyOp51
 70
     0
102
RTVSPropertyOp52
 70
     0
102
RTVSPropertyOp53
 70
     1
102
RTVSPropertyOp54
 70
     1
102
RTVSPropertyOp55
 70
     1
102
RTVSPropertyOp56
 70
     1
102
RTVSPropertyOp57
 70
     1
102
RTVSPropertyOp58
 70
     1
102
RTVSPropertyOp59
 70
     1
102
RTVSPropertyOp60
 70
     1
102
RTVSPropertyOp61
 70
     1
102
RTVSPropertyOp62
 70
     1
  0
XRECORD
  5
5A6
102
{ACAD_REACTORS
330
5A5
102
}
330
5A5
100
AcDbXrecord
280
     1
102
RTVSPost2010Prop28
280
     0
102
RTVSPost2010PropOp28
 70
     1
102
RTVSPost2010Prop29
280
     1
102
RTVSPost2010PropOp29
 70
     1
102
RTVSPost2010Prop30
280
     1
102
RTVSPost2010PropOp30
 70
     1
102
RTVSPost2010Prop31
280
     0
102
RTVSPost2010PropOp31
 70
     1
102
RTVSPost2010Prop32
280
     0
102
RTVSPost2010PropOp32
 70
     1
102
RTVSPost2010Prop33
280
     0
102
RTVSPost2010PropOp33
 70
     1
102
RTVSPost2010Prop34
280
     0
102
RTVSPost2010PropOp34
 70
     1
102
RTVSPost2010Prop35
280
     0
102
RTVSPost2010PropOp35
 70
     1
102
RTVSPost2010Prop36
280
     0
102
RTVSPost2010PropOp36
 70
     1
102
RTVSPost2010Prop37
 90
       50
102
RTVSPost2010PropOp37
 70
     1
102
RTVSPost2010Prop38
140
0.0
102
RTVSPost2010PropOp38
 70
     1
102
RTVSPost2010Prop39
140
1.0
102
RTVSPost2010PropOp39
 70
     1
102
RTVSPost2010Prop40
 90
        0
102
RTVSPost2010PropOp40
 70
     1
102
RTVSPost2010Prop41ColorIndex
 90
       18
102
RTVSPost2010Prop41ColorRGB
 90
        0
102
RTVSPost2010PropOp41
 70
     1
102
RTVSPost2010Prop42
 90
       50
102
RTVSPost2010PropOp42
 70
     1
102
RTVSPost2010Prop43
 90
        3
102
RTVSPost2010PropOp43
 70
     1
102
RTVSPost2010Prop44ColorIndex
 90
        5
102
RTVSPost2010Prop44ColorRGB
 90
      255
102
RTVSPost2010PropOp44
 70
     1
102
RTVSPost2010Prop45
280
     0
102
RTVSPost2010PropOp45
 70
     1
102
RTVSPost2010Prop46
 90
       50
102
RTVSPost2010PropOp46
 70
     1
102
RTVSPost2010Prop47
 90
       50
102
RTVSPost2010PropOp47
 70
     1
102
RTVSPost2010Prop48
 90
       50
102
RTVSPost2010PropOp48
 70
     1
102
RTVSPost2010Prop49
280
     0
102
RTVSPost2010PropOp49
 70
     1
102
RTVSPost2010Prop50
 90
       50
102
RTVSPost2010PropOp50
 70
     1
102
RTVSPost2010Prop51ColorIndex
 90
      256
102
RTVSPost2010Prop51ColorRGB
 90
-16777216
102
RTVSPost2010PropOp51
 70
     0
102
RTVSPost2010Prop52
140
1.0
102
RTVSPost2010PropOp52
 70
     0
102
RTVSPost2010Prop53
 90
        2
102
RTVSPost2010PropOp53
 70
     1
102
RTVSPost2010Prop54
  1
strokes_ogs.tif
102
RTVSPost2010PropOp54
 70
     1
102
RTVSPost2010Prop55
280
     0
102
RTVSPost2010PropOp55
 70
     1
102
RTVSPost2010Prop56
140
1.0
102
RTVSPost2010PropOp56
 70
     1
102
RTVSPost2010Prop57
140
1.0
102
RTVSPost2010PropOp57
 70
     1
102
RTVSPropertyOp0
 70
     1
102
RTVSPropertyOp1
 70
     1
102
RTVSPropertyOp2
 70
     1
102
RTVSPropertyOp3
 70
     1
102
RTVSPropertyOp4
 70
     1
102
RTVSPropertyOp5
 70
     1
102
RTVSPropertyOp6
 70
     1
102
RTVSPropertyOp7
 70
     1
102
RTVSPropertyOp8
 70
     1
102
RTVSPropertyOp9
 70
     1
102
RTVSPropertyOp10
 70
     1
102
RTVSPropertyOp11
 70
     1
102
RTVSPropertyOp12
 70
     1
102
RTVSPropertyOp13
 70
     1
102
RTVSPropertyOp14
 70
     1
102
RTVSPropertyOp15
 70
     1
102
RTVSPropertyOp16
 70
     1
102
RTVSPropertyOp17
 70
     1
102
RTVSPropertyOp18
 70
     1
102
RTVSPropertyOp19
 70
     1
102
RTVSPropertyOp20
 70
     1
102
RTVSPropertyOp21
 70
     1
102
RTVSPropertyOp22
 70
     1
102
RTVSPropertyOp23
 70
     1
102
RTVSPropertyOp24
 70
     1
102
RTVSPropertyOp25
 70
     1
102
RTVSPropertyOp26
 70
     1
102
RTVSPropertyOp27
 70
     1
102
RTVSPropertyOp28
 70
     1
102
RTVSPropertyOp29
 70
     1
102
RTVSPropertyOp30
 70
     1
102
RTVSPropertyOp31
 70
     1
102
RTVSPropertyOp32
 70
     1
102
RTVSPropertyOp33
 70
     1
102
RTVSPropertyOp34
 70
     1
102
RTVSPropertyOp35
 70
     1
102
RTVSPropertyOp36
 70
     1
102
RTVSPropertyOp37
 70
     1
102
RTVSPropertyOp38
 70
     1
102
RTVSPropertyOp39
 70
     1
102
RTVSPropertyOp40
 70
     1
102
RTVSPropertyOp41
 70
     1
102
RTVSPropertyOp42
 70
     1
102
RTVSPropertyOp43
 70
     1
102
RTVSPropertyOp44
 70
     1
102
RTVSPropertyOp45
 70
     1
102
RTVSPropertyOp46
 70
     1
102
RTVSPropertyOp47
 70
     1
102
RTVSPropertyOp48
 70
     1
102
RTVSPropertyOp49
 70
     1
102
RTVSPropertyOp50
 70
     1
102
RTVSPropertyOp51
 70
     0
102
RTVSPropertyOp52
 70
     0
102
RTVSPropertyOp53
 70
     1
102
RTVSPropertyOp54
 70
     1
102
RTVSPropertyOp55
 70
     1
102
RTVSPropertyOp56
 70
     1
102
RTVSPropertyOp57
 70
     1
102
RTVSPropertyOp58
 70
     1
102
RTVSPropertyOp59
 70
     1
102
RTVSPropertyOp60
 70
     1
102
RTVSPropertyOp61
 70
     1
102
RTVSPropertyOp62
 70
     1
  0
XRECORD
  5
5B6
102
{ACAD_REACTORS
330
5B5
102
}
330
5B5
100
AcDbXrecord
280
     1
102
RTVSPost2010Prop28
280
     0
102
RTVSPost2010PropOp28
 70
     0
102
RTVSPost2010Prop29
280
     1
102
RTVSPost2010PropOp29
 70
     0
102
RTVSPost2010Prop30
280
     1
102
RTVSPost2010PropOp30
 70
     0
102
RTVSPost2010Prop31
280
     0
102
RTVSPost2010PropOp31
 70
     0
102
RTVSPost2010Prop32
280
     0
102
RTVSPost2010PropOp32
 70
     0
102
RTVSPost2010Prop33
280
     0
102
RTVSPost2010PropOp33
 70
     0
102
RTVSPost2010Prop34
280
     0
102
RTVSPost2010PropOp34
 70
     0
102
RTVSPost2010Prop35
280
     0
102
RTVSPost2010PropOp35
 70
     0
102
RTVSPost2010Prop36
280
     0
102
RTVSPost2010PropOp36
 70
     0
102
RTVSPost2010Prop37
 90
       50
102
RTVSPost2010PropOp37
 70
     0
102
RTVSPost2010Prop38
140
0.0
102
RTVSPost2010PropOp38
 70
     0
102
RTVSPost2010Prop39
140
1.0
102
RTVSPost2010PropOp39
 70
     0
102
RTVSPost2010Prop40
 90
        0
102
RTVSPost2010PropOp40
 70
     0
102
RTVSPost2010Prop41ColorIndex
 90
       18
102
RTVSPost2010Prop41ColorRGB
 90
        0
102
RTVSPost2010PropOp41
 70
     0
102
RTVSPost2010Prop42
 90
       50
102
RTVSPost2010PropOp42
 70
     0
102
RTVSPost2010Prop43
 90
        3
102
RTVSPost2010PropOp43
 70
     0
102
RTVSPost2010Prop44ColorIndex
 90
        5
102
RTVSPost2010Prop44ColorRGB
 90
      255
102
RTVSPost2010PropOp44
 70
     0
102
RTVSPost2010Prop45
280
     0
102
RTVSPost2010PropOp45
 70
     0
102
RTVSPost2010Prop46
 90
       50
102
RTVSPost2010PropOp46
 70
     0
102
RTVSPost2010Prop47
 90
       50
102
RTVSPost2010PropOp47
 70
     0
102
RTVSPost2010Prop48
 90
       50
102
RTVSPost2010PropOp48
 70
     0
102
RTVSPost2010Prop49
280
     0
102
RTVSPost2010PropOp49
 70
     0
102
RTVSPost2010Prop50
 90
       50
102
RTVSPost2010PropOp50
 70
     0
102
RTVSPost2010Prop51ColorIndex
 90
      256
102
RTVSPost2010Prop51ColorRGB
 90
-16777216
102
RTVSPost2010PropOp51
 70
     0
102
RTVSPost2010Prop52
140
1.0
102
RTVSPost2010PropOp52
 70
     0
102
RTVSPost2010Prop53
 90
        2
102
RTVSPost2010PropOp53
 70
     0
102
RTVSPost2010Prop54
  1
strokes_ogs.tif
102
RTVSPost2010PropOp54
 70
     0
102
RTVSPost2010Prop55
280
     0
102
RTVSPost2010PropOp55
 70
     0
102
RTVSPost2010Prop56
140
1.0
102
RTVSPost2010PropOp56
 70
     0
102
RTVSPost2010Prop57
140
1.0
102
RTVSPost2010PropOp57
 70
     0
102
RTVSPropertyOp0
 70
     0
102
RTVSPropertyOp1
 70
     0
102
RTVSPropertyOp2
 70
     0
102
RTVSPropertyOp3
 70
     0
102
RTVSPropertyOp4
 70
     0
102
RTVSPropertyOp5
 70
     0
102
RTVSPropertyOp6
 70
     0
102
RTVSPropertyOp7
 70
     0
102
RTVSPropertyOp8
 70
     0
102
RTVSPropertyOp9
 70
     0
102
RTVSPropertyOp10
 70
     0
102
RTVSPropertyOp11
 70
     0
102
RTVSPropertyOp12
 70
     0
102
RTVSPropertyOp13
 70
     0
102
RTVSPropertyOp14
 70
     2
102
RTVSPropertyOp15
 70
     0
102
RTVSPropertyOp16
 70
     0
102
RTVSPropertyOp17
 70
     0
102
RTVSPropertyOp18
 70
     0
102
RTVSPropertyOp19
 70
     0
102
RTVSPropertyOp20
 70
     0
102
RTVSPropertyOp21
 70
     0
102
RTVSPropertyOp22
 70
     0
102
RTVSPropertyOp23
 70
     0
102
RTVSPropertyOp24
 70
     0
102
RTVSPropertyOp25
 70
     0
102
RTVSPropertyOp26
 70
     0
102
RTVSPropertyOp27
 70
     0
102
RTVSPropertyOp28
 70
     0
102
RTVSPropertyOp29
 70
     0
102
RTVSPropertyOp30
 70
     0
102
RTVSPropertyOp31
 70
     0
102
RTVSPropertyOp32
 70
     0
102
RTVSPropertyOp33
 70
     0
102
RTVSPropertyOp34
 70
     0
102
RTVSPropertyOp35
 70
     0
102
RTVSPropertyOp36
 70
     0
102
RTVSPropertyOp37
 70
     0
102
RTVSPropertyOp38
 70
     0
102
RTVSPropertyOp39
 70
     0
102
RTVSPropertyOp40
 70
     0
102
RTVSPropertyOp41
 70
     0
102
RTVSPropertyOp42
 70
     0
102
RTVSPropertyOp43
 70
     0
102
RTVSPropertyOp44
 70
     0
102
RTVSPropertyOp45
 70
     0
102
RTVSPropertyOp46
 70
     0
102
RTVSPropertyOp47
 70
     0
102
RTVSPropertyOp48
 70
     0
102
RTVSPropertyOp49
 70
     0
102
RTVSPropertyOp50
 70
     0
102
RTVSPropertyOp51
 70
     0
102
RTVSPropertyOp52
 70
     0
102
RTVSPropertyOp53
 70
     0
102
RTVSPropertyOp54
 70
     0
102
RTVSPropertyOp55
 70
     0
102
RTVSPropertyOp56
 70
     0
102
RTVSPropertyOp57
 70
     0
102
RTVSPropertyOp58
 70
     1
102
RTVSPropertyOp59
 70
     1
102
RTVSPropertyOp60
 70
     1
102
RTVSPropertyOp61
 70
     1
102
RTVSPropertyOp62
 70
     1
  0
XRECORD
  5
5AE
102
{ACAD_REACTORS
330
5AD
102
}
330
5AD
100
AcDbXrecord
280
     1
102
RTVSPost2010Prop28
280
     0
102
RTVSPost2010PropOp28
 70
     1
102
RTVSPost2010Prop29
280
     1
102
RTVSPost2010PropOp29
 70
     1
102
RTVSPost2010Prop30
280
     1
102
RTVSPost2010PropOp30
 70
     1
102
RTVSPost2010Prop31
280
     0
102
RTVSPost2010PropOp31
 70
     1
102
RTVSPost2010Prop32
280
     0
102
RTVSPost2010PropOp32
 70
     1
102
RTVSPost2010Prop33
280
     0
102
RTVSPost2010PropOp33
 70
     1
102
RTVSPost2010Prop34
280
     0
102
RTVSPost2010PropOp34
 70
     1
102
RTVSPost2010Prop35
280
     0
102
RTVSPost2010PropOp35
 70
     1
102
RTVSPost2010Prop36
280
     0
102
RTVSPost2010PropOp36
 70
     1
102
RTVSPost2010Prop37
 90
       50
102
RTVSPost2010PropOp37
 70
     1
102
RTVSPost2010Prop38
140
0.0
102
RTVSPost2010PropOp38
 70
     1
102
RTVSPost2010Prop39
140
1.0
102
RTVSPost2010PropOp39
 70
     1
102
RTVSPost2010Prop40
 90
        0
102
RTVSPost2010PropOp40
 70
     1
102
RTVSPost2010Prop41ColorIndex
 90
       18
102
RTVSPost2010Prop41ColorRGB
 90
        0
102
RTVSPost2010PropOp41
 70
     1
102
RTVSPost2010Prop42
 90
       50
102
RTVSPost2010PropOp42
 70
     1
102
RTVSPost2010Prop43
 90
        3
102
RTVSPost2010PropOp43
 70
     1
102
RTVSPost2010Prop44ColorIndex
 90
        5
102
RTVSPost2010Prop44ColorRGB
 90
      255
102
RTVSPost2010PropOp44
 70
     1
102
RTVSPost2010Prop45
280
     0
102
RTVSPost2010PropOp45
 70
     1
102
RTVSPost2010Prop46
 90
       50
102
RTVSPost2010PropOp46
 70
     1
102
RTVSPost2010Prop47
 90
       50
102
RTVSPost2010PropOp47
 70
     1
102
RTVSPost2010Prop48
 90
       50
102
RTVSPost2010PropOp48
 70
     1
102
RTVSPost2010Prop49
280
     0
102
RTVSPost2010PropOp49
 70
     1
102
RTVSPost2010Prop50
 90
       50
102
RTVSPost2010PropOp50
 70
     1
102
RTVSPost2010Prop51ColorIndex
 90
      256
102
RTVSPost2010Prop51ColorRGB
 90
-16777216
102
RTVSPost2010PropOp51
 70
     0
102
RTVSPost2010Prop52
140
1.0
102
RTVSPost2010PropOp52
 70
     0
102
RTVSPost2010Prop53
 90
        2
102
RTVSPost2010PropOp53
 70
     1
102
RTVSPost2010Prop54
  1
strokes_ogs.tif
102
RTVSPost2010PropOp54
 70
     1
102
RTVSPost2010Prop55
280
     0
102
RTVSPost2010PropOp55
 70
     1
102
RTVSPost2010Prop56
140
1.0
102
RTVSPost2010PropOp56
 70
     1
102
RTVSPost2010Prop57
140
1.0
102
RTVSPost2010PropOp57
 70
     1
102
RTVSPropertyOp0
 70
     1
102
RTVSPropertyOp1
 70
     1
102
RTVSPropertyOp2
 70
     1
102
RTVSPropertyOp3
 70
     1
102
RTVSPropertyOp4
 70
     1
102
RTVSPropertyOp5
 70
     1
102
RTVSPropertyOp6
 70
     1
102
RTVSPropertyOp7
 70
     1
102
RTVSPropertyOp8
 70
     1
102
RTVSPropertyOp9
 70
     1
102
RTVSPropertyOp10
 70
     1
102
RTVSPropertyOp11
 70
     1
102
RTVSPropertyOp12
 70
     1
102
RTVSPropertyOp13
 70
     1
102
RTVSPropertyOp14
 70
     1
102
RTVSPropertyOp15
 70
     1
102
RTVSPropertyOp16
 70
     1
102
RTVSPropertyOp17
 70
     1
102
RTVSPropertyOp18
 70
     1
102
RTVSPropertyOp19
 70
     1
102
RTVSPropertyOp20
 70
     1
102
RTVSPropertyOp21
 70
     1
102
RTVSPropertyOp22
 70
     1
102
RTVSPropertyOp23
 70
     1
102
RTVSPropertyOp24
 70
     1
102
RTVSPropertyOp25
 70
     1
102
RTVSPropertyOp26
 70
     1
102
RTVSPropertyOp27
 70
     1
102
RTVSPropertyOp28
 70
     1
102
RTVSPropertyOp29
 70
     1
102
RTVSPropertyOp30
 70
     1
102
RTVSPropertyOp31
 70
     1
102
RTVSPropertyOp32
 70
     1
102
RTVSPropertyOp33
 70
     1
102
RTVSPropertyOp34
 70
     1
102
RTVSPropertyOp35
 70
     1
102
RTVSPropertyOp36
 70
     1
102
RTVSPropertyOp37
 70
     1
102
RTVSPropertyOp38
 70
     1
102
RTVSPropertyOp39
 70
     1
102
RTVSPropertyOp40
 70
     1
102
RTVSPropertyOp41
 70
     1
102
RTVSPropertyOp42
 70
     1
102
RTVSPropertyOp43
 70
     1
102
RTVSPropertyOp44
 70
     1
102
RTVSPropertyOp45
 70
     1
102
RTVSPropertyOp46
 70
     1
102
RTVSPropertyOp47
 70
     1
102
RTVSPropertyOp48
 70
     1
102
RTVSPropertyOp49
 70
     1
102
RTVSPropertyOp50
 70
     1
102
RTVSPropertyOp51
 70
     0
102
RTVSPropertyOp52
 70
     0
102
RTVSPropertyOp53
 70
     1
102
RTVSPropertyOp54
 70
     1
102
RTVSPropertyOp55
 70
     1
102
RTVSPropertyOp56
 70
     1
102
RTVSPropertyOp57
 70
     1
102
RTVSPropertyOp58
 70
     1
102
RTVSPropertyOp59
 70
     1
102
RTVSPropertyOp60
 70
     1
102
RTVSPropertyOp61
 70
     1
102
RTVSPropertyOp62
 70
     1
  0
XRECORD
  5
592
102
{ACAD_REACTORS
330
591
102
}
330
591
100
AcDbXrecord
280
     1
102
RTVSPost2010Prop28
280
     0
102
RTVSPost2010PropOp28
 70
     1
102
RTVSPost2010Prop29
280
     1
102
RTVSPost2010PropOp29
 70
     1
102
RTVSPost2010Prop30
280
     1
102
RTVSPost2010PropOp30
 70
     1
102
RTVSPost2010Prop31
280
     0
102
RTVSPost2010PropOp31
 70
     1
102
RTVSPost2010Prop32
280
     0
102
RTVSPost2010PropOp32
 70
     1
102
RTVSPost2010Prop33
280
     0
102
RTVSPost2010PropOp33
 70
     1
102
RTVSPost2010Prop34
280
     0
102
RTVSPost2010PropOp34
 70
     1
102
RTVSPost2010Prop35
280
     0
102
RTVSPost2010PropOp35
 70
     1
102
RTVSPost2010Prop36
280
     0
102
RTVSPost2010PropOp36
 70
     1
102
RTVSPost2010Prop37
 90
       50
102
RTVSPost2010PropOp37
 70
     1
102
RTVSPost2010Prop38
140
0.0
102
RTVSPost2010PropOp38
 70
     1
102
RTVSPost2010Prop39
140
1.0
102
RTVSPost2010PropOp39
 70
     1
102
RTVSPost2010Prop40
 90
        0
102
RTVSPost2010PropOp40
 70
     1
102
RTVSPost2010Prop41ColorIndex
 90
       18
102
RTVSPost2010Prop41ColorRGB
 90
        0
102
RTVSPost2010PropOp41
 70
     1
102
RTVSPost2010Prop42
 90
       50
102
RTVSPost2010PropOp42
 70
     1
102
RTVSPost2010Prop43
 90
        3
102
RTVSPost2010PropOp43
 70
     1
102
RTVSPost2010Prop44ColorIndex
 90
        5
102
RTVSPost2010Prop44ColorRGB
 90
      255
102
RTVSPost2010PropOp44
 70
     1
102
RTVSPost2010Prop45
280
     0
102
RTVSPost2010PropOp45
 70
     1
102
RTVSPost2010Prop46
 90
       50
102
RTVSPost2010PropOp46
 70
     1
102
RTVSPost2010Prop47
 90
       50
102
RTVSPost2010PropOp47
 70
     1
102
RTVSPost2010Prop48
 90
       50
102
RTVSPost2010PropOp48
 70
     1
102
RTVSPost2010Prop49
280
     0
102
RTVSPost2010PropOp49
 70
     1
102
RTVSPost2010Prop50
 90
       50
102
RTVSPost2010PropOp50
 70
     1
102
RTVSPost2010Prop51ColorIndex
 90
      256
102
RTVSPost2010Prop51ColorRGB
 90
-16777216
102
RTVSPost2010PropOp51
 70
     0
102
RTVSPost2010Prop52
140
1.0
102
RTVSPost2010PropOp52
 70
     0
102
RTVSPost2010Prop53
 90
        2
102
RTVSPost2010PropOp53
 70
     1
102
RTVSPost2010Prop54
  1
strokes_ogs.tif
102
RTVSPost2010PropOp54
 70
     1
102
RTVSPost2010Prop55
280
     0
102
RTVSPost2010PropOp55
 70
     1
102
RTVSPost2010Prop56
140
1.0
102
RTVSPost2010PropOp56
 70
     1
102
RTVSPost2010Prop57
140
1.0
102
RTVSPost2010PropOp57
 70
     1
102
RTVSPropertyOp0
 70
     1
102
RTVSPropertyOp1
 70
     1
102
RTVSPropertyOp2
 70
     1
102
RTVSPropertyOp3
 70
     1
102
RTVSPropertyOp4
 70
     1
102
RTVSPropertyOp5
 70
     1
102
RTVSPropertyOp6
 70
     1
102
RTVSPropertyOp7
 70
     1
102
RTVSPropertyOp8
 70
     1
102
RTVSPropertyOp9
 70
     1
102
RTVSPropertyOp10
 70
     1
102
RTVSPropertyOp11
 70
     1
102
RTVSPropertyOp12
 70
     1
102
RTVSPropertyOp13
 70
     1
102
RTVSPropertyOp14
 70
     1
102
RTVSPropertyOp15
 70
     1
102
RTVSPropertyOp16
 70
     1
102
RTVSPropertyOp17
 70
     1
102
RTVSPropertyOp18
 70
     1
102
RTVSPropertyOp19
 70
     1
102
RTVSPropertyOp20
 70
     1
102
RTVSPropertyOp21
 70
     1
102
RTVSPropertyOp22
 70
     1
102
RTVSPropertyOp23
 70
     1
102
RTVSPropertyOp24
 70
     1
102
RTVSPropertyOp25
 70
     1
102
RTVSPropertyOp26
 70
     1
102
RTVSPropertyOp27
 70
     1
102
RTVSPropertyOp28
 70
     1
102
RTVSPropertyOp29
 70
     1
102
RTVSPropertyOp30
 70
     1
102
RTVSPropertyOp31
 70
     1
102
RTVSPropertyOp32
 70
     1
102
RTVSPropertyOp33
 70
     1
102
RTVSPropertyOp34
 70
     1
102
RTVSPropertyOp35
 70
     1
102
RTVSPropertyOp36
 70
     1
102
RTVSPropertyOp37
 70
     1
102
RTVSPropertyOp38
 70
     1
102
RTVSPropertyOp39
 70
     1
102
RTVSPropertyOp40
 70
     1
102
RTVSPropertyOp41
 70
     1
102
RTVSPropertyOp42
 70
     1
102
RTVSPropertyOp43
 70
     1
102
RTVSPropertyOp44
 70
     1
102
RTVSPropertyOp45
 70
     1
102
RTVSPropertyOp46
 70
     1
102
RTVSPropertyOp47
 70
     1
102
RTVSPropertyOp48
 70
     1
102
RTVSPropertyOp49
 70
     1
102
RTVSPropertyOp50
 70
     1
102
RTVSPropertyOp51
 70
     0
102
RTVSPropertyOp52
 70
     0
102
RTVSPropertyOp53
 70
     1
102
RTVSPropertyOp54
 70
     1
102
RTVSPropertyOp55
 70
     1
102
RTVSPropertyOp56
 70
     1
102
RTVSPropertyOp57
 70
     1
102
RTVSPropertyOp58
 70
     1
102
RTVSPropertyOp59
 70
     1
102
RTVSPropertyOp60
 70
     1
102
RTVSPropertyOp61
 70
     1
102
RTVSPropertyOp62
 70
     1
  0
XRECORD
  5
594
102
{ACAD_REACTORS
330
593
102
}
330
593
100
AcDbXrecord
280
     1
102
RTVSPost2010Prop28
280
     0
102
RTVSPost2010PropOp28
 70
     1
102
RTVSPost2010Prop29
280
     1
102
RTVSPost2010PropOp29
 70
     1
102
RTVSPost2010Prop30
280
     1
102
RTVSPost2010PropOp30
 70
     1
102
RTVSPost2010Prop31
280
     0
102
RTVSPost2010PropOp31
 70
     1
102
RTVSPost2010Prop32
280
     0
102
RTVSPost2010PropOp32
 70
     1
102
RTVSPost2010Prop33
280
     0
102
RTVSPost2010PropOp33
 70
     1
102
RTVSPost2010Prop34
280
     0
102
RTVSPost2010PropOp34
 70
     1
102
RTVSPost2010Prop35
280
     0
102
RTVSPost2010PropOp35
 70
     1
102
RTVSPost2010Prop36
280
     0
102
RTVSPost2010PropOp36
 70
     1
102
RTVSPost2010Prop37
 90
       50
102
RTVSPost2010PropOp37
 70
     1
102
RTVSPost2010Prop38
140
0.0
102
RTVSPost2010PropOp38
 70
     1
102
RTVSPost2010Prop39
140
1.0
102
RTVSPost2010PropOp39
 70
     1
102
RTVSPost2010Prop40
 90
        0
102
RTVSPost2010PropOp40
 70
     1
102
RTVSPost2010Prop41ColorIndex
 90
       18
102
RTVSPost2010Prop41ColorRGB
 90
        0
102
RTVSPost2010PropOp41
 70
     1
102
RTVSPost2010Prop42
 90
       50
102
RTVSPost2010PropOp42
 70
     1
102
RTVSPost2010Prop43
 90
        3
102
RTVSPost2010PropOp43
 70
     1
102
RTVSPost2010Prop44ColorIndex
 90
        5
102
RTVSPost2010Prop44ColorRGB
 90
      255
102
RTVSPost2010PropOp44
 70
     1
102
RTVSPost2010Prop45
280
     0
102
RTVSPost2010PropOp45
 70
     1
102
RTVSPost2010Prop46
 90
       50
102
RTVSPost2010PropOp46
 70
     1
102
RTVSPost2010Prop47
 90
       50
102
RTVSPost2010PropOp47
 70
     1
102
RTVSPost2010Prop48
 90
       50
102
RTVSPost2010PropOp48
 70
     1
102
RTVSPost2010Prop49
280
     0
102
RTVSPost2010PropOp49
 70
     1
102
RTVSPost2010Prop50
 90
       50
102
RTVSPost2010PropOp50
 70
     1
102
RTVSPost2010Prop51ColorIndex
 90
      256
102
RTVSPost2010Prop51ColorRGB
 90
-16777216
102
RTVSPost2010PropOp51
 70
     0
102
RTVSPost2010Prop52
140
1.0
102
RTVSPost2010PropOp52
 70
     0
102
RTVSPost2010Prop53
 90
        2
102
RTVSPost2010PropOp53
 70
     1
102
RTVSPost2010Prop54
  1
strokes_ogs.tif
102
RTVSPost2010PropOp54
 70
     1
102
RTVSPost2010Prop55
280
     0
102
RTVSPost2010PropOp55
 70
     1
102
RTVSPost2010Prop56
140
1.0
102
RTVSPost2010PropOp56
 70
     1
102
RTVSPost2010Prop57
140
1.0
102
RTVSPost2010PropOp57
 70
     1
102
RTVSPropertyOp0
 70
     1
102
RTVSPropertyOp1
 70
     1
102
RTVSPropertyOp2
 70
     1
102
RTVSPropertyOp3
 70
     1
102
RTVSPropertyOp4
 70
     1
102
RTVSPropertyOp5
 70
     1
102
RTVSPropertyOp6
 70
     1
102
RTVSPropertyOp7
 70
     1
102
RTVSPropertyOp8
 70
     1
102
RTVSPropertyOp9
 70
     1
102
RTVSPropertyOp10
 70
     1
102
RTVSPropertyOp11
 70
     1
102
RTVSPropertyOp12
 70
     1
102
RTVSPropertyOp13
 70
     1
102
RTVSPropertyOp14
 70
     1
102
RTVSPropertyOp15
 70
     1
102
RTVSPropertyOp16
 70
     1
102
RTVSPropertyOp17
 70
     1
102
RTVSPropertyOp18
 70
     1
102
RTVSPropertyOp19
 70
     1
102
RTVSPropertyOp20
 70
     1
102
RTVSPropertyOp21
 70
     1
102
RTVSPropertyOp22
 70
     1
102
RTVSPropertyOp23
 70
     1
102
RTVSPropertyOp24
 70
     1
102
RTVSPropertyOp25
 70
     1
102
RTVSPropertyOp26
 70
     1
102
RTVSPropertyOp27
 70
     1
102
RTVSPropertyOp28
 70
     1
102
RTVSPropertyOp29
 70
     1
102
RTVSPropertyOp30
 70
     1
102
RTVSPropertyOp31
 70
     1
102
RTVSPropertyOp32
 70
     1
102
RTVSPropertyOp33
 70
     1
102
RTVSPropertyOp34
 70
     1
102
RTVSPropertyOp35
 70
     1
102
RTVSPropertyOp36
 70
     1
102
RTVSPropertyOp37
 70
     1
102
RTVSPropertyOp38
 70
     1
102
RTVSPropertyOp39
 70
     1
102
RTVSPropertyOp40
 70
     1
102
RTVSPropertyOp41
 70
     1
102
RTVSPropertyOp42
 70
     1
102
RTVSPropertyOp43
 70
     1
102
RTVSPropertyOp44
 70
     1
102
RTVSPropertyOp45
 70
     1
102
RTVSPropertyOp46
 70
     1
102
RTVSPropertyOp47
 70
     1
102
RTVSPropertyOp48
 70
     1
102
RTVSPropertyOp49
 70
     1
102
RTVSPropertyOp50
 70
     1
102
RTVSPropertyOp51
 70
     0
102
RTVSPropertyOp52
 70
     0
102
RTVSPropertyOp53
 70
     1
102
RTVSPropertyOp54
 70
     1
102
RTVSPropertyOp55
 70
     1
102
RTVSPropertyOp56
 70
     1
102
RTVSPropertyOp57
 70
     1
102
RTVSPropertyOp58
 70
     1
102
RTVSPropertyOp59
 70
     1
102
RTVSPropertyOp60
 70
     1
102
RTVSPropertyOp61
 70
     1
102
RTVSPropertyOp62
 70
     1
  0
XRECORD
  5
596
102
{ACAD_REACTORS
330
595
102
}
330
595
100
AcDbXrecord
280
     1
102
RTVSPost2010Prop28
280
     0
102
RTVSPost2010PropOp28
 70
     1
102
RTVSPost2010Prop29
280
     1
102
RTVSPost2010PropOp29
 70
     1
102
RTVSPost2010Prop30
280
     1
102
RTVSPost2010PropOp30
 70
     1
102
RTVSPost2010Prop31
280
     0
102
RTVSPost2010PropOp31
 70
     1
102
RTVSPost2010Prop32
280
     0
102
RTVSPost2010PropOp32
 70
     1
102
RTVSPost2010Prop33
280
     0
102
RTVSPost2010PropOp33
 70
     1
102
RTVSPost2010Prop34
280
     0
102
RTVSPost2010PropOp34
 70
     1
102
RTVSPost2010Prop35
280
     0
102
RTVSPost2010PropOp35
 70
     1
102
RTVSPost2010Prop36
280
     0
102
RTVSPost2010PropOp36
 70
     1
102
RTVSPost2010Prop37
 90
       50
102
RTVSPost2010PropOp37
 70
     1
102
RTVSPost2010Prop38
140
0.0
102
RTVSPost2010PropOp38
 70
     1
102
RTVSPost2010Prop39
140
1.0
102
RTVSPost2010PropOp39
 70
     1
102
RTVSPost2010Prop40
 90
        0
102
RTVSPost2010PropOp40
 70
     1
102
RTVSPost2010Prop41ColorIndex
 90
       18
102
RTVSPost2010Prop41ColorRGB
 90
        0
102
RTVSPost2010PropOp41
 70
     1
102
RTVSPost2010Prop42
 90
       50
102
RTVSPost2010PropOp42
 70
     1
102
RTVSPost2010Prop43
 90
        3
102
RTVSPost2010PropOp43
 70
     1
102
RTVSPost2010Prop44ColorIndex
 90
        5
102
RTVSPost2010Prop44ColorRGB
 90
      255
102
RTVSPost2010PropOp44
 70
     1
102
RTVSPost2010Prop45
280
     0
102
RTVSPost2010PropOp45
 70
     1
102
RTVSPost2010Prop46
 90
       50
102
RTVSPost2010PropOp46
 70
     1
102
RTVSPost2010Prop47
 90
       50
102
RTVSPost2010PropOp47
 70
     1
102
RTVSPost2010Prop48
 90
       50
102
RTVSPost2010PropOp48
 70
     1
102
RTVSPost2010Prop49
280
     0
102
RTVSPost2010PropOp49
 70
     1
102
RTVSPost2010Prop50
 90
       50
102
RTVSPost2010PropOp50
 70
     1
102
RTVSPost2010Prop51ColorIndex
 90
      256
102
RTVSPost2010Prop51ColorRGB
 90
-16777216
102
RTVSPost2010PropOp51
 70
     0
102
RTVSPost2010Prop52
140
1.0
102
RTVSPost2010PropOp52
 70
     0
102
RTVSPost2010Prop53
 90
        2
102
RTVSPost2010PropOp53
 70
     1
102
RTVSPost2010Prop54
  1
strokes_ogs.tif
102
RTVSPost2010PropOp54
 70
     1
102
RTVSPost2010Prop55
280
     0
102
RTVSPost2010PropOp55
 70
     1
102
RTVSPost2010Prop56
140
1.0
102
RTVSPost2010PropOp56
 70
     1
102
RTVSPost2010Prop57
140
1.0
102
RTVSPost2010PropOp57
 70
     1
102
RTVSPropertyOp0
 70
     1
102
RTVSPropertyOp1
 70
     1
102
RTVSPropertyOp2
 70
     1
102
RTVSPropertyOp3
 70
     1
102
RTVSPropertyOp4
 70
     1
102
RTVSPropertyOp5
 70
     1
102
RTVSPropertyOp6
 70
     1
102
RTVSPropertyOp7
 70
     1
102
RTVSPropertyOp8
 70
     1
102
RTVSPropertyOp9
 70
     1
102
RTVSPropertyOp10
 70
     1
102
RTVSPropertyOp11
 70
     1
102
RTVSPropertyOp12
 70
     1
102
RTVSPropertyOp13
 70
     1
102
RTVSPropertyOp14
 70
     1
102
RTVSPropertyOp15
 70
     1
102
RTVSPropertyOp16
 70
     1
102
RTVSPropertyOp17
 70
     1
102
RTVSPropertyOp18
 70
     1
102
RTVSPropertyOp19
 70
     1
102
RTVSPropertyOp20
 70
     1
102
RTVSPropertyOp21
 70
     1
102
RTVSPropertyOp22
 70
     1
102
RTVSPropertyOp23
 70
     1
102
RTVSPropertyOp24
 70
     1
102
RTVSPropertyOp25
 70
     1
102
RTVSPropertyOp26
 70
     1
102
RTVSPropertyOp27
 70
     1
102
RTVSPropertyOp28
 70
     1
102
RTVSPropertyOp29
 70
     1
102
RTVSPropertyOp30
 70
     1
102
RTVSPropertyOp31
 70
     1
102
RTVSPropertyOp32
 70
     1
102
RTVSPropertyOp33
 70
     1
102
RTVSPropertyOp34
 70
     1
102
RTVSPropertyOp35
 70
     1
102
RTVSPropertyOp36
 70
     1
102
RTVSPropertyOp37
 70
     1
102
RTVSPropertyOp38
 70
     1
102
RTVSPropertyOp39
 70
     1
102
RTVSPropertyOp40
 70
     1
102
RTVSPropertyOp41
 70
     1
102
RTVSPropertyOp42
 70
     1
102
RTVSPropertyOp43
 70
     1
102
RTVSPropertyOp44
 70
     1
102
RTVSPropertyOp45
 70
     1
102
RTVSPropertyOp46
 70
     1
102
RTVSPropertyOp47
 70
     1
102
RTVSPropertyOp48
 70
     1
102
RTVSPropertyOp49
 70
     1
102
RTVSPropertyOp50
 70
     1
102
RTVSPropertyOp51
 70
     0
102
RTVSPropertyOp52
 70
     0
102
RTVSPropertyOp53
 70
     1
102
RTVSPropertyOp54
 70
     1
102
RTVSPropertyOp55
 70
     1
102
RTVSPropertyOp56
 70
     1
102
RTVSPropertyOp57
 70
     1
102
RTVSPropertyOp58
 70
     1
102
RTVSPropertyOp59
 70
     1
102
RTVSPropertyOp60
 70
     1
102
RTVSPropertyOp61
 70
     1
102
RTVSPropertyOp62
 70
     1
  0
XRECORD
  5
598
102
{ACAD_REACTORS
330
597
102
}
330
597
100
AcDbXrecord
280
     1
102
RTVSPost2010Prop28
280
     0
102
RTVSPost2010PropOp28
 70
     1
102
RTVSPost2010Prop29
280
     1
102
RTVSPost2010PropOp29
 70
     1
102
RTVSPost2010Prop30
280
     1
102
RTVSPost2010PropOp30
 70
     1
102
RTVSPost2010Prop31
280
     0
102
RTVSPost2010PropOp31
 70
     1
102
RTVSPost2010Prop32
280
     0
102
RTVSPost2010PropOp32
 70
     1
102
RTVSPost2010Prop33
280
     0
102
RTVSPost2010PropOp33
 70
     1
102
RTVSPost2010Prop34
280
     0
102
RTVSPost2010PropOp34
 70
     1
102
RTVSPost2010Prop35
280
     0
102
RTVSPost2010PropOp35
 70
     1
102
RTVSPost2010Prop36
280
     0
102
RTVSPost2010PropOp36
 70
     1
102
RTVSPost2010Prop37
 90
       50
102
RTVSPost2010PropOp37
 70
     1
102
RTVSPost2010Prop38
140
0.0
102
RTVSPost2010PropOp38
 70
     1
102
RTVSPost2010Prop39
140
1.0
102
RTVSPost2010PropOp39
 70
     1
102
RTVSPost2010Prop40
 90
        0
102
RTVSPost2010PropOp40
 70
     1
102
RTVSPost2010Prop41ColorIndex
 90
       18
102
RTVSPost2010Prop41ColorRGB
 90
        0
102
RTVSPost2010PropOp41
 70
     1
102
RTVSPost2010Prop42
 90
       50
102
RTVSPost2010PropOp42
 70
     1
102
RTVSPost2010Prop43
 90
        3
102
RTVSPost2010PropOp43
 70
     1
102
RTVSPost2010Prop44ColorIndex
 90
        5
102
RTVSPost2010Prop44ColorRGB
 90
      255
102
RTVSPost2010PropOp44
 70
     1
102
RTVSPost2010Prop45
280
     0
102
RTVSPost2010PropOp45
 70
     1
102
RTVSPost2010Prop46
 90
       50
102
RTVSPost2010PropOp46
 70
     1
102
RTVSPost2010Prop47
 90
       50
102
RTVSPost2010PropOp47
 70
     1
102
RTVSPost2010Prop48
 90
       50
102
RTVSPost2010PropOp48
 70
     1
102
RTVSPost2010Prop49
280
     0
102
RTVSPost2010PropOp49
 70
     1
102
RTVSPost2010Prop50
 90
       50
102
RTVSPost2010PropOp50
 70
     1
102
RTVSPost2010Prop51ColorIndex
 90
      256
102
RTVSPost2010Prop51ColorRGB
 90
-16777216
102
RTVSPost2010PropOp51
 70
     0
102
RTVSPost2010Prop52
140
1.0
102
RTVSPost2010PropOp52
 70
     0
102
RTVSPost2010Prop53
 90
        2
102
RTVSPost2010PropOp53
 70
     1
102
RTVSPost2010Prop54
  1
strokes_ogs.tif
102
RTVSPost2010PropOp54
 70
     1
102
RTVSPost2010Prop55
280
     0
102
RTVSPost2010PropOp55
 70
     1
102
RTVSPost2010Prop56
140
1.0
102
RTVSPost2010PropOp56
 70
     1
102
RTVSPost2010Prop57
140
1.0
102
RTVSPost2010PropOp57
 70
     1
102
RTVSPropertyOp0
 70
     1
102
RTVSPropertyOp1
 70
     1
102
RTVSPropertyOp2
 70
     1
102
RTVSPropertyOp3
 70
     1
102
RTVSPropertyOp4
 70
     1
102
RTVSPropertyOp5
 70
     1
102
RTVSPropertyOp6
 70
     1
102
RTVSPropertyOp7
 70
     1
102
RTVSPropertyOp8
 70
     1
102
RTVSPropertyOp9
 70
     1
102
RTVSPropertyOp10
 70
     1
102
RTVSPropertyOp11
 70
     1
102
RTVSPropertyOp12
 70
     1
102
RTVSPropertyOp13
 70
     1
102
RTVSPropertyOp14
 70
     1
102
RTVSPropertyOp15
 70
     1
102
RTVSPropertyOp16
 70
     1
102
RTVSPropertyOp17
 70
     1
102
RTVSPropertyOp18
 70
     1
102
RTVSPropertyOp19
 70
     1
102
RTVSPropertyOp20
 70
     1
102
RTVSPropertyOp21
 70
     1
102
RTVSPropertyOp22
 70
     1
102
RTVSPropertyOp23
 70
     1
102
RTVSPropertyOp24
 70
     1
102
RTVSPropertyOp25
 70
     1
102
RTVSPropertyOp26
 70
     1
102
RTVSPropertyOp27
 70
     1
102
RTVSPropertyOp28
 70
     1
102
RTVSPropertyOp29
 70
     1
102
RTVSPropertyOp30
 70
     1
102
RTVSPropertyOp31
 70
     1
102
RTVSPropertyOp32
 70
     1
102
RTVSPropertyOp33
 70
     1
102
RTVSPropertyOp34
 70
     1
102
RTVSPropertyOp35
 70
     1
102
RTVSPropertyOp36
 70
     1
102
RTVSPropertyOp37
 70
     1
102
RTVSPropertyOp38
 70
     1
102
RTVSPropertyOp39
 70
     1
102
RTVSPropertyOp40
 70
     1
102
RTVSPropertyOp41
 70
     1
102
RTVSPropertyOp42
 70
     1
102
RTVSPropertyOp43
 70
     1
102
RTVSPropertyOp44
 70
     1
102
RTVSPropertyOp45
 70
     1
102
RTVSPropertyOp46
 70
     1
102
RTVSPropertyOp47
 70
     1
102
RTVSPropertyOp48
 70
     1
102
RTVSPropertyOp49
 70
     1
102
RTVSPropertyOp50
 70
     1
102
RTVSPropertyOp51
 70
     0
102
RTVSPropertyOp52
 70
     0
102
RTVSPropertyOp53
 70
     1
102
RTVSPropertyOp54
 70
     1
102
RTVSPropertyOp55
 70
     1
102
RTVSPropertyOp56
 70
     1
102
RTVSPropertyOp57
 70
     1
102
RTVSPropertyOp58
 70
     1
102
RTVSPropertyOp59
 70
     1
102
RTVSPropertyOp60
 70
     1
102
RTVSPropertyOp61
 70
     1
102
RTVSPropertyOp62
 70
     1
  0
XRECORD
  5
59E
102
{ACAD_REACTORS
330
59D
102
}
330
59D
100
AcDbXrecord
280
     1
102
RTVSPost2010Prop28
280
     0
102
RTVSPost2010PropOp28
 70
     1
102
RTVSPost2010Prop29
280
     1
102
RTVSPost2010PropOp29
 70
     1
102
RTVSPost2010Prop30
280
     1
102
RTVSPost2010PropOp30
 70
     1
102
RTVSPost2010Prop31
280
     0
102
RTVSPost2010PropOp31
 70
     1
102
RTVSPost2010Prop32
280
     0
102
RTVSPost2010PropOp32
 70
     1
102
RTVSPost2010Prop33
280
     0
102
RTVSPost2010PropOp33
 70
     1
102
RTVSPost2010Prop34
280
     0
102
RTVSPost2010PropOp34
 70
     1
102
RTVSPost2010Prop35
280
     0
102
RTVSPost2010PropOp35
 70
     1
102
RTVSPost2010Prop36
280
     0
102
RTVSPost2010PropOp36
 70
     1
102
RTVSPost2010Prop37
 90
       50
102
RTVSPost2010PropOp37
 70
     1
102
RTVSPost2010Prop38
140
0.0
102
RTVSPost2010PropOp38
 70
     1
102
RTVSPost2010Prop39
140
1.0
102
RTVSPost2010PropOp39
 70
     1
102
RTVSPost2010Prop40
 90
        0
102
RTVSPost2010PropOp40
 70
     1
102
RTVSPost2010Prop41ColorIndex
 90
       18
102
RTVSPost2010Prop41ColorRGB
 90
        0
102
RTVSPost2010PropOp41
 70
     1
102
RTVSPost2010Prop42
 90
       50
102
RTVSPost2010PropOp42
 70
     1
102
RTVSPost2010Prop43
 90
        3
102
RTVSPost2010PropOp43
 70
     1
102
RTVSPost2010Prop44ColorIndex
 90
        5
102
RTVSPost2010Prop44ColorRGB
 90
      255
102
RTVSPost2010PropOp44
 70
     1
102
RTVSPost2010Prop45
280
     0
102
RTVSPost2010PropOp45
 70
     1
102
RTVSPost2010Prop46
 90
       50
102
RTVSPost2010PropOp46
 70
     1
102
RTVSPost2010Prop47
 90
       50
102
RTVSPost2010PropOp47
 70
     1
102
RTVSPost2010Prop48
 90
       50
102
RTVSPost2010PropOp48
 70
     1
102
RTVSPost2010Prop49
280
     0
102
RTVSPost2010PropOp49
 70
     1
102
RTVSPost2010Prop50
 90
       50
102
RTVSPost2010PropOp50
 70
     1
102
RTVSPost2010Prop51ColorIndex
 90
      256
102
RTVSPost2010Prop51ColorRGB
 90
-16777216
102
RTVSPost2010PropOp51
 70
     0
102
RTVSPost2010Prop52
140
1.0
102
RTVSPost2010PropOp52
 70
     0
102
RTVSPost2010Prop53
 90
        2
102
RTVSPost2010PropOp53
 70
     1
102
RTVSPost2010Prop54
  1
strokes_ogs.tif
102
RTVSPost2010PropOp54
 70
     1
102
RTVSPost2010Prop55
280
     0
102
RTVSPost2010PropOp55
 70
     1
102
RTVSPost2010Prop56
140
1.0
102
RTVSPost2010PropOp56
 70
     1
102
RTVSPost2010Prop57
140
1.0
102
RTVSPost2010PropOp57
 70
     1
102
RTVSPropertyOp0
 70
     1
102
RTVSPropertyOp1
 70
     1
102
RTVSPropertyOp2
 70
     1
102
RTVSPropertyOp3
 70
     1
102
RTVSPropertyOp4
 70
     1
102
RTVSPropertyOp5
 70
     1
102
RTVSPropertyOp6
 70
     1
102
RTVSPropertyOp7
 70
     1
102
RTVSPropertyOp8
 70
     1
102
RTVSPropertyOp9
 70
     1
102
RTVSPropertyOp10
 70
     1
102
RTVSPropertyOp11
 70
     1
102
RTVSPropertyOp12
 70
     1
102
RTVSPropertyOp13
 70
     1
102
RTVSPropertyOp14
 70
     1
102
RTVSPropertyOp15
 70
     1
102
RTVSPropertyOp16
 70
     1
102
RTVSPropertyOp17
 70
     1
102
RTVSPropertyOp18
 70
     1
102
RTVSPropertyOp19
 70
     1
102
RTVSPropertyOp20
 70
     1
102
RTVSPropertyOp21
 70
     1
102
RTVSPropertyOp22
 70
     1
102
RTVSPropertyOp23
 70
     1
102
RTVSPropertyOp24
 70
     1
102
RTVSPropertyOp25
 70
     1
102
RTVSPropertyOp26
 70
     1
102
RTVSPropertyOp27
 70
     1
102
RTVSPropertyOp28
 70
     1
102
RTVSPropertyOp29
 70
     1
102
RTVSPropertyOp30
 70
     1
102
RTVSPropertyOp31
 70
     1
102
RTVSPropertyOp32
 70
     1
102
RTVSPropertyOp33
 70
     1
102
RTVSPropertyOp34
 70
     1
102
RTVSPropertyOp35
 70
     1
102
RTVSPropertyOp36
 70
     1
102
RTVSPropertyOp37
 70
     1
102
RTVSPropertyOp38
 70
     1
102
RTVSPropertyOp39
 70
     1
102
RTVSPropertyOp40
 70
     1
102
RTVSPropertyOp41
 70
     1
102
RTVSPropertyOp42
 70
     1
102
RTVSPropertyOp43
 70
     1
102
RTVSPropertyOp44
 70
     1
102
RTVSPropertyOp45
 70
     1
102
RTVSPropertyOp46
 70
     1
102
RTVSPropertyOp47
 70
     1
102
RTVSPropertyOp48
 70
     1
102
RTVSPropertyOp49
 70
     1
102
RTVSPropertyOp50
 70
     1
102
RTVSPropertyOp51
 70
     0
102
RTVSPropertyOp52
 70
     0
102
RTVSPropertyOp53
 70
     1
102
RTVSPropertyOp54
 70
     1
102
RTVSPropertyOp55
 70
     1
102
RTVSPropertyOp56
 70
     1
102
RTVSPropertyOp57
 70
     1
102
RTVSPropertyOp58
 70
     1
102
RTVSPropertyOp59
 70
     1
102
RTVSPropertyOp60
 70
     1
102
RTVSPropertyOp61
 70
     1
102
RTVSPropertyOp62
 70
     1
  0
XRECORD
  5
5B2
102
{ACAD_REACTORS
330
5B1
102
}
330
5B1
100
AcDbXrecord
280
     1
102
RTVSPost2010Prop28
280
     0
102
RTVSPost2010PropOp28
 70
     0
102
RTVSPost2010Prop29
280
     1
102
RTVSPost2010PropOp29
 70
     0
102
RTVSPost2010Prop30
280
     1
102
RTVSPost2010PropOp30
 70
     0
102
RTVSPost2010Prop31
280
     0
102
RTVSPost2010PropOp31
 70
     0
102
RTVSPost2010Prop32
280
     0
102
RTVSPost2010PropOp32
 70
     0
102
RTVSPost2010Prop33
280
     0
102
RTVSPost2010PropOp33
 70
     0
102
RTVSPost2010Prop34
280
     0
102
RTVSPost2010PropOp34
 70
     0
102
RTVSPost2010Prop35
280
     0
102
RTVSPost2010PropOp35
 70
     0
102
RTVSPost2010Prop36
280
     0
102
RTVSPost2010PropOp36
 70
     0
102
RTVSPost2010Prop37
 90
       50
102
RTVSPost2010PropOp37
 70
     0
102
RTVSPost2010Prop38
140
0.0
102
RTVSPost2010PropOp38
 70
     0
102
RTVSPost2010Prop39
140
1.0
102
RTVSPost2010PropOp39
 70
     0
102
RTVSPost2010Prop40
 90
        0
102
RTVSPost2010PropOp40
 70
     0
102
RTVSPost2010Prop41ColorIndex
 90
       18
102
RTVSPost2010Prop41ColorRGB
 90
        0
102
RTVSPost2010PropOp41
 70
     0
102
RTVSPost2010Prop42
 90
       50
102
RTVSPost2010PropOp42
 70
     0
102
RTVSPost2010Prop43
 90
        3
102
RTVSPost2010PropOp43
 70
     0
102
RTVSPost2010Prop44ColorIndex
 90
        5
102
RTVSPost2010Prop44ColorRGB
 90
      255
102
RTVSPost2010PropOp44
 70
     0
102
RTVSPost2010Prop45
280
     0
102
RTVSPost2010PropOp45
 70
     0
102
RTVSPost2010Prop46
 90
       50
102
RTVSPost2010PropOp46
 70
     0
102
RTVSPost2010Prop47
 90
       50
102
RTVSPost2010PropOp47
 70
     0
102
RTVSPost2010Prop48
 90
       50
102
RTVSPost2010PropOp48
 70
     0
102
RTVSPost2010Prop49
280
     0
102
RTVSPost2010PropOp49
 70
     0
102
RTVSPost2010Prop50
 90
       50
102
RTVSPost2010PropOp50
 70
     0
102
RTVSPost2010Prop51ColorIndex
 90
      256
102
RTVSPost2010Prop51ColorRGB
 90
-16777216
102
RTVSPost2010PropOp51
 70
     0
102
RTVSPost2010Prop52
140
1.0
102
RTVSPost2010PropOp52
 70
     0
102
RTVSPost2010Prop53
 90
        2
102
RTVSPost2010PropOp53
 70
     0
102
RTVSPost2010Prop54
  1
strokes_ogs.tif
102
RTVSPost2010PropOp54
 70
     0
102
RTVSPost2010Prop55
280
     0
102
RTVSPost2010PropOp55
 70
     0
102
RTVSPost2010Prop56
140
1.0
102
RTVSPost2010PropOp56
 70
     0
102
RTVSPost2010Prop57
140
1.0
102
RTVSPost2010PropOp57
 70
     0
102
RTVSPropertyOp0
 70
     0
102
RTVSPropertyOp1
 70
     0
102
RTVSPropertyOp2
 70
     0
102
RTVSPropertyOp3
 70
     0
102
RTVSPropertyOp4
 70
     0
102
RTVSPropertyOp5
 70
     0
102
RTVSPropertyOp6
 70
     0
102
RTVSPropertyOp7
 70
     0
102
RTVSPropertyOp8
 70
     0
102
RTVSPropertyOp9
 70
     0
102
RTVSPropertyOp10
 70
     0
102
RTVSPropertyOp11
 70
     0
102
RTVSPropertyOp12
 70
     0
102
RTVSPropertyOp13
 70
     0
102
RTVSPropertyOp14
 70
     2
102
RTVSPropertyOp15
 70
     0
102
RTVSPropertyOp16
 70
     0
102
RTVSPropertyOp17
 70
     0
102
RTVSPropertyOp18
 70
     0
102
RTVSPropertyOp19
 70
     0
102
RTVSPropertyOp20
 70
     0
102
RTVSPropertyOp21
 70
     0
102
RTVSPropertyOp22
 70
     0
102
RTVSPropertyOp23
 70
     0
102
RTVSPropertyOp24
 70
     0
102
RTVSPropertyOp25
 70
     0
102
RTVSPropertyOp26
 70
     0
102
RTVSPropertyOp27
 70
     0
102
RTVSPropertyOp28
 70
     0
102
RTVSPropertyOp29
 70
     0
102
RTVSPropertyOp30
 70
     0
102
RTVSPropertyOp31
 70
     0
102
RTVSPropertyOp32
 70
     0
102
RTVSPropertyOp33
 70
     0
102
RTVSPropertyOp34
 70
     0
102
RTVSPropertyOp35
 70
     0
102
RTVSPropertyOp36
 70
     0
102
RTVSPropertyOp37
 70
     0
102
RTVSPropertyOp38
 70
     0
102
RTVSPropertyOp39
 70
     0
102
RTVSPropertyOp40
 70
     0
102
RTVSPropertyOp41
 70
     0
102
RTVSPropertyOp42
 70
     0
102
RTVSPropertyOp43
 70
     0
102
RTVSPropertyOp44
 70
     0
102
RTVSPropertyOp45
 70
     0
102
RTVSPropertyOp46
 70
     0
102
RTVSPropertyOp47
 70
     0
102
RTVSPropertyOp48
 70
     0
102
RTVSPropertyOp49
 70
     0
102
RTVSPropertyOp50
 70
     0
102
RTVSPropertyOp51
 70
     0
102
RTVSPropertyOp52
 70
     0
102
RTVSPropertyOp53
 70
     0
102
RTVSPropertyOp54
 70
     0
102
RTVSPropertyOp55
 70
     0
102
RTVSPropertyOp56
 70
     0
102
RTVSPropertyOp57
 70
     0
102
RTVSPropertyOp58
 70
     1
102
RTVSPropertyOp59
 70
     1
102
RTVSPropertyOp60
 70
     1
102
RTVSPropertyOp61
 70
     1
102
RTVSPropertyOp62
 70
     1
  0
XRECORD
  5
5AC
102
{ACAD_REACTORS
330
5AB
102
}
330
5AB
100
AcDbXrecord
280
     1
102
RTVSPost2010Prop28
280
     0
102
RTVSPost2010PropOp28
 70
     1
102
RTVSPost2010Prop29
280
     1
102
RTVSPost2010PropOp29
 70
     1
102
RTVSPost2010Prop30
280
     1
102
RTVSPost2010PropOp30
 70
     1
102
RTVSPost2010Prop31
280
     0
102
RTVSPost2010PropOp31
 70
     1
102
RTVSPost2010Prop32
280
     0
102
RTVSPost2010PropOp32
 70
     1
102
RTVSPost2010Prop33
280
     0
102
RTVSPost2010PropOp33
 70
     1
102
RTVSPost2010Prop34
280
     0
102
RTVSPost2010PropOp34
 70
     1
102
RTVSPost2010Prop35
280
     0
102
RTVSPost2010PropOp35
 70
     1
102
RTVSPost2010Prop36
280
     0
102
RTVSPost2010PropOp36
 70
     1
102
RTVSPost2010Prop37
 90
       50
102
RTVSPost2010PropOp37
 70
     1
102
RTVSPost2010Prop38
140
0.0
102
RTVSPost2010PropOp38
 70
     1
102
RTVSPost2010Prop39
140
1.0
102
RTVSPost2010PropOp39
 70
     1
102
RTVSPost2010Prop40
 90
        0
102
RTVSPost2010PropOp40
 70
     1
102
RTVSPost2010Prop41ColorIndex
 90
       18
102
RTVSPost2010Prop41ColorRGB
 90
        0
102
RTVSPost2010PropOp41
 70
     1
102
RTVSPost2010Prop42
 90
       50
102
RTVSPost2010PropOp42
 70
     1
102
RTVSPost2010Prop43
 90
        3
102
RTVSPost2010PropOp43
 70
     1
102
RTVSPost2010Prop44ColorIndex
 90
        5
102
RTVSPost2010Prop44ColorRGB
 90
      255
102
RTVSPost2010PropOp44
 70
     1
102
RTVSPost2010Prop45
280
     0
102
RTVSPost2010PropOp45
 70
     1
102
RTVSPost2010Prop46
 90
       50
102
RTVSPost2010PropOp46
 70
     1
102
RTVSPost2010Prop47
 90
       50
102
RTVSPost2010PropOp47
 70
     1
102
RTVSPost2010Prop48
 90
       50
102
RTVSPost2010PropOp48
 70
     1
102
RTVSPost2010Prop49
280
     0
102
RTVSPost2010PropOp49
 70
     1
102
RTVSPost2010Prop50
 90
       50
102
RTVSPost2010PropOp50
 70
     1
102
RTVSPost2010Prop51ColorIndex
 90
      256
102
RTVSPost2010Prop51ColorRGB
 90
-16777216
102
RTVSPost2010PropOp51
 70
     0
102
RTVSPost2010Prop52
140
1.0
102
RTVSPost2010PropOp52
 70
     0
102
RTVSPost2010Prop53
 90
        2
102
RTVSPost2010PropOp53
 70
     1
102
RTVSPost2010Prop54
  1
strokes_ogs.tif
102
RTVSPost2010PropOp54
 70
     1
102
RTVSPost2010Prop55
280
     0
102
RTVSPost2010PropOp55
 70
     1
102
RTVSPost2010Prop56
140
1.0
102
RTVSPost2010PropOp56
 70
     1
102
RTVSPost2010Prop57
140
1.0
102
RTVSPost2010PropOp57
 70
     1
102
RTVSPropertyOp0
 70
     1
102
RTVSPropertyOp1
 70
     1
102
RTVSPropertyOp2
 70
     1
102
RTVSPropertyOp3
 70
     1
102
RTVSPropertyOp4
 70
     1
102
RTVSPropertyOp5
 70
     1
102
RTVSPropertyOp6
 70
     1
102
RTVSPropertyOp7
 70
     1
102
RTVSPropertyOp8
 70
     1
102
RTVSPropertyOp9
 70
     1
102
RTVSPropertyOp10
 70
     1
102
RTVSPropertyOp11
 70
     1
102
RTVSPropertyOp12
 70
     1
102
RTVSPropertyOp13
 70
     1
102
RTVSPropertyOp14
 70
     1
102
RTVSPropertyOp15
 70
     1
102
RTVSPropertyOp16
 70
     1
102
RTVSPropertyOp17
 70
     1
102
RTVSPropertyOp18
 70
     1
102
RTVSPropertyOp19
 70
     1
102
RTVSPropertyOp20
 70
     1
102
RTVSPropertyOp21
 70
     1
102
RTVSPropertyOp22
 70
     1
102
RTVSPropertyOp23
 70
     1
102
RTVSPropertyOp24
 70
     1
102
RTVSPropertyOp25
 70
     1
102
RTVSPropertyOp26
 70
     1
102
RTVSPropertyOp27
 70
     1
102
RTVSPropertyOp28
 70
     1
102
RTVSPropertyOp29
 70
     1
102
RTVSPropertyOp30
 70
     1
102
RTVSPropertyOp31
 70
     1
102
RTVSPropertyOp32
 70
     1
102
RTVSPropertyOp33
 70
     1
102
RTVSPropertyOp34
 70
     1
102
RTVSPropertyOp35
 70
     1
102
RTVSPropertyOp36
 70
     1
102
RTVSPropertyOp37
 70
     1
102
RTVSPropertyOp38
 70
     1
102
RTVSPropertyOp39
 70
     1
102
RTVSPropertyOp40
 70
     1
102
RTVSPropertyOp41
 70
     1
102
RTVSPropertyOp42
 70
     1
102
RTVSPropertyOp43
 70
     1
102
RTVSPropertyOp44
 70
     1
102
RTVSPropertyOp45
 70
     1
102
RTVSPropertyOp46
 70
     1
102
RTVSPropertyOp47
 70
     1
102
RTVSPropertyOp48
 70
     1
102
RTVSPropertyOp49
 70
     1
102
RTVSPropertyOp50
 70
     1
102
RTVSPropertyOp51
 70
     0
102
RTVSPropertyOp52
 70
     0
102
RTVSPropertyOp53
 70
     1
102
RTVSPropertyOp54
 70
     1
102
RTVSPropertyOp55
 70
     1
102
RTVSPropertyOp56
 70
     1
102
RTVSPropertyOp57
 70
     1
102
RTVSPropertyOp58
 70
     1
102
RTVSPropertyOp59
 70
     1
102
RTVSPropertyOp60
 70
     1
102
RTVSPropertyOp61
 70
     1
102
RTVSPropertyOp62
 70
     1
  0
XRECORD
  5
5B4
102
{ACAD_REACTORS
330
5B3
102
}
330
5B3
100
AcDbXrecord
280
     1
102
RTVSPost2010Prop28
280
     0
102
RTVSPost2010PropOp28
 70
     0
102
RTVSPost2010Prop29
280
     1
102
RTVSPost2010PropOp29
 70
     0
102
RTVSPost2010Prop30
280
     1
102
RTVSPost2010PropOp30
 70
     0
102
RTVSPost2010Prop31
280
     0
102
RTVSPost2010PropOp31
 70
     0
102
RTVSPost2010Prop32
280
     0
102
RTVSPost2010PropOp32
 70
     0
102
RTVSPost2010Prop33
280
     0
102
RTVSPost2010PropOp33
 70
     0
102
RTVSPost2010Prop34
280
     0
102
RTVSPost2010PropOp34
 70
     0
102
RTVSPost2010Prop35
280
     0
102
RTVSPost2010PropOp35
 70
     0
102
RTVSPost2010Prop36
280
     0
102
RTVSPost2010PropOp36
 70
     0
102
RTVSPost2010Prop37
 90
       50
102
RTVSPost2010PropOp37
 70
     0
102
RTVSPost2010Prop38
140
0.0
102
RTVSPost2010PropOp38
 70
     0
102
RTVSPost2010Prop39
140
1.0
102
RTVSPost2010PropOp39
 70
     0
102
RTVSPost2010Prop40
 90
        0
102
RTVSPost2010PropOp40
 70
     0
102
RTVSPost2010Prop41ColorIndex
 90
       18
102
RTVSPost2010Prop41ColorRGB
 90
        0
102
RTVSPost2010PropOp41
 70
     0
102
RTVSPost2010Prop42
 90
       50
102
RTVSPost2010PropOp42
 70
     0
102
RTVSPost2010Prop43
 90
        3
102
RTVSPost2010PropOp43
 70
     0
102
RTVSPost2010Prop44ColorIndex
 90
        5
102
RTVSPost2010Prop44ColorRGB
 90
      255
102
RTVSPost2010PropOp44
 70
     0
102
RTVSPost2010Prop45
280
     0
102
RTVSPost2010PropOp45
 70
     0
102
RTVSPost2010Prop46
 90
       50
102
RTVSPost2010PropOp46
 70
     0
102
RTVSPost2010Prop47
 90
       50
102
RTVSPost2010PropOp47
 70
     0
102
RTVSPost2010Prop48
 90
       50
102
RTVSPost2010PropOp48
 70
     0
102
RTVSPost2010Prop49
280
     0
102
RTVSPost2010PropOp49
 70
     0
102
RTVSPost2010Prop50
 90
       50
102
RTVSPost2010PropOp50
 70
     0
102
RTVSPost2010Prop51ColorIndex
 90
      256
102
RTVSPost2010Prop51ColorRGB
 90
-16777216
102
RTVSPost2010PropOp51
 70
     0
102
RTVSPost2010Prop52
140
1.0
102
RTVSPost2010PropOp52
 70
     0
102
RTVSPost2010Prop53
 90
        2
102
RTVSPost2010PropOp53
 70
     0
102
RTVSPost2010Prop54
  1
strokes_ogs.tif
102
RTVSPost2010PropOp54
 70
     0
102
RTVSPost2010Prop55
280
     0
102
RTVSPost2010PropOp55
 70
     0
102
RTVSPost2010Prop56
140
1.0
102
RTVSPost2010PropOp56
 70
     0
102
RTVSPost2010Prop57
140
1.0
102
RTVSPost2010PropOp57
 70
     0
102
RTVSPropertyOp0
 70
     0
102
RTVSPropertyOp1
 70
     0
102
RTVSPropertyOp2
 70
     0
102
RTVSPropertyOp3
 70
     0
102
RTVSPropertyOp4
 70
     0
102
RTVSPropertyOp5
 70
     0
102
RTVSPropertyOp6
 70
     0
102
RTVSPropertyOp7
 70
     0
102
RTVSPropertyOp8
 70
     0
102
RTVSPropertyOp9
 70
     0
102
RTVSPropertyOp10
 70
     0
102
RTVSPropertyOp11
 70
     0
102
RTVSPropertyOp12
 70
     0
102
RTVSPropertyOp13
 70
     0
102
RTVSPropertyOp14
 70
     2
102
RTVSPropertyOp15
 70
     0
102
RTVSPropertyOp16
 70
     0
102
RTVSPropertyOp17
 70
     0
102
RTVSPropertyOp18
 70
     0
102
RTVSPropertyOp19
 70
     0
102
RTVSPropertyOp20
 70
     0
102
RTVSPropertyOp21
 70
     0
102
RTVSPropertyOp22
 70
     0
102
RTVSPropertyOp23
 70
     0
102
RTVSPropertyOp24
 70
     0
102
RTVSPropertyOp25
 70
     0
102
RTVSPropertyOp26
 70
     0
102
RTVSPropertyOp27
 70
     0
102
RTVSPropertyOp28
 70
     0
102
RTVSPropertyOp29
 70
     0
102
RTVSPropertyOp30
 70
     0
102
RTVSPropertyOp31
 70
     0
102
RTVSPropertyOp32
 70
     0
102
RTVSPropertyOp33
 70
     0
102
RTVSPropertyOp34
 70
     0
102
RTVSPropertyOp35
 70
     0
102
RTVSPropertyOp36
 70
     0
102
RTVSPropertyOp37
 70
     0
102
RTVSPropertyOp38
 70
     0
102
RTVSPropertyOp39
 70
     0
102
RTVSPropertyOp40
 70
     0
102
RTVSPropertyOp41
 70
     0
102
RTVSPropertyOp42
 70
     0
102
RTVSPropertyOp43
 70
     0
102
RTVSPropertyOp44
 70
     0
102
RTVSPropertyOp45
 70
     0
102
RTVSPropertyOp46
 70
     0
102
RTVSPropertyOp47
 70
     0
102
RTVSPropertyOp48
 70
     0
102
RTVSPropertyOp49
 70
     0
102
RTVSPropertyOp50
 70
     0
102
RTVSPropertyOp51
 70
     0
102
RTVSPropertyOp52
 70
     0
102
RTVSPropertyOp53
 70
     0
102
RTVSPropertyOp54
 70
     0
102
RTVSPropertyOp55
 70
     0
102
RTVSPropertyOp56
 70
     0
102
RTVSPropertyOp57
 70
     0
102
RTVSPropertyOp58
 70
     1
102
RTVSPropertyOp59
 70
     1
102
RTVSPropertyOp60
 70
     1
102
RTVSPropertyOp61
 70
     1
102
RTVSPropertyOp62
 70
     1
  0
XRECORD
  5
5A2
102
{ACAD_REACTORS
330
5A1
102
}
330
5A1
100
AcDbXrecord
280
     1
102
RTVSPost2010Prop28
280
     0
102
RTVSPost2010PropOp28
 70
     1
102
RTVSPost2010Prop29
280
     1
102
RTVSPost2010PropOp29
 70
     1
102
RTVSPost2010Prop30
280
     1
102
RTVSPost2010PropOp30
 70
     1
102
RTVSPost2010Prop31
280
     0
102
RTVSPost2010PropOp31
 70
     1
102
RTVSPost2010Prop32
280
     0
102
RTVSPost2010PropOp32
 70
     1
102
RTVSPost2010Prop33
280
     0
102
RTVSPost2010PropOp33
 70
     1
102
RTVSPost2010Prop34
280
     0
102
RTVSPost2010PropOp34
 70
     1
102
RTVSPost2010Prop35
280
     0
102
RTVSPost2010PropOp35
 70
     1
102
RTVSPost2010Prop36
280
     0
102
RTVSPost2010PropOp36
 70
     1
102
RTVSPost2010Prop37
 90
       50
102
RTVSPost2010PropOp37
 70
     1
102
RTVSPost2010Prop38
140
0.0
102
RTVSPost2010PropOp38
 70
     1
102
RTVSPost2010Prop39
140
1.0
102
RTVSPost2010PropOp39
 70
     1
102
RTVSPost2010Prop40
 90
        0
102
RTVSPost2010PropOp40
 70
     1
102
RTVSPost2010Prop41ColorIndex
 90
       18
102
RTVSPost2010Prop41ColorRGB
 90
        0
102
RTVSPost2010PropOp41
 70
     1
102
RTVSPost2010Prop42
 90
       50
102
RTVSPost2010PropOp42
 70
     1
102
RTVSPost2010Prop43
 90
        3
102
RTVSPost2010PropOp43
 70
     1
102
RTVSPost2010Prop44ColorIndex
 90
        5
102
RTVSPost2010Prop44ColorRGB
 90
      255
102
RTVSPost2010PropOp44
 70
     1
102
RTVSPost2010Prop45
280
     0
102
RTVSPost2010PropOp45
 70
     1
102
RTVSPost2010Prop46
 90
       50
102
RTVSPost2010PropOp46
 70
     1
102
RTVSPost2010Prop47
 90
       50
102
RTVSPost2010PropOp47
 70
     1
102
RTVSPost2010Prop48
 90
       50
102
RTVSPost2010PropOp48
 70
     1
102
RTVSPost2010Prop49
280
     0
102
RTVSPost2010PropOp49
 70
     1
102
RTVSPost2010Prop50
 90
       50
102
RTVSPost2010PropOp50
 70
     1
102
RTVSPost2010Prop51ColorIndex
 90
      256
102
RTVSPost2010Prop51ColorRGB
 90
-16777216
102
RTVSPost2010PropOp51
 70
     0
102
RTVSPost2010Prop52
140
1.0
102
RTVSPost2010PropOp52
 70
     0
102
RTVSPost2010Prop53
 90
        2
102
RTVSPost2010PropOp53
 70
     1
102
RTVSPost2010Prop54
  1
strokes_ogs.tif
102
RTVSPost2010PropOp54
 70
     1
102
RTVSPost2010Prop55
280
     0
102
RTVSPost2010PropOp55
 70
     1
102
RTVSPost2010Prop56
140
1.0
102
RTVSPost2010PropOp56
 70
     1
102
RTVSPost2010Prop57
140
1.0
102
RTVSPost2010PropOp57
 70
     1
102
RTVSPropertyOp0
 70
     1
102
RTVSPropertyOp1
 70
     1
102
RTVSPropertyOp2
 70
     1
102
RTVSPropertyOp3
 70
     1
102
RTVSPropertyOp4
 70
     1
102
RTVSPropertyOp5
 70
     1
102
RTVSPropertyOp6
 70
     1
102
RTVSPropertyOp7
 70
     1
102
RTVSPropertyOp8
 70
     1
102
RTVSPropertyOp9
 70
     1
102
RTVSPropertyOp10
 70
     1
102
RTVSPropertyOp11
 70
     1
102
RTVSPropertyOp12
 70
     1
102
RTVSPropertyOp13
 70
     1
102
RTVSPropertyOp14
 70
     1
102
RTVSPropertyOp15
 70
     1
102
RTVSPropertyOp16
 70
     1
102
RTVSPropertyOp17
 70
     1
102
RTVSPropertyOp18
 70
     1
102
RTVSPropertyOp19
 70
     1
102
RTVSPropertyOp20
 70
     1
102
RTVSPropertyOp21
 70
     1
102
RTVSPropertyOp22
 70
     1
102
RTVSPropertyOp23
 70
     1
102
RTVSPropertyOp24
 70
     1
102
RTVSPropertyOp25
 70
     1
102
RTVSPropertyOp26
 70
     1
102
RTVSPropertyOp27
 70
     1
102
RTVSPropertyOp28
 70
     1
102
RTVSPropertyOp29
 70
     1
102
RTVSPropertyOp30
 70
     1
102
RTVSPropertyOp31
 70
     1
102
RTVSPropertyOp32
 70
     1
102
RTVSPropertyOp33
 70
     1
102
RTVSPropertyOp34
 70
     1
102
RTVSPropertyOp35
 70
     1
102
RTVSPropertyOp36
 70
     1
102
RTVSPropertyOp37
 70
     1
102
RTVSPropertyOp38
 70
     1
102
RTVSPropertyOp39
 70
     1
102
RTVSPropertyOp40
 70
     1
102
RTVSPropertyOp41
 70
     1
102
RTVSPropertyOp42
 70
     1
102
RTVSPropertyOp43
 70
     1
102
RTVSPropertyOp44
 70
     1
102
RTVSPropertyOp45
 70
     1
102
RTVSPropertyOp46
 70
     1
102
RTVSPropertyOp47
 70
     1
102
RTVSPropertyOp48
 70
     1
102
RTVSPropertyOp49
 70
     1
102
RTVSPropertyOp50
 70
     1
102
RTVSPropertyOp51
 70
     0
102
RTVSPropertyOp52
 70
     0
102
RTVSPropertyOp53
 70
     1
102
RTVSPropertyOp54
 70
     1
102
RTVSPropertyOp55
 70
     1
102
RTVSPropertyOp56
 70
     1
102
RTVSPropertyOp57
 70
     1
102
RTVSPropertyOp58
 70
     1
102
RTVSPropertyOp59
 70
     1
102
RTVSPropertyOp60
 70
     1
102
RTVSPropertyOp61
 70
     1
102
RTVSPropertyOp62
 70
     1
  0
XRECORD
  5
5C0
102
{ACAD_REACTORS
330
5BF
102
}
330
5BF
100
AcDbXrecord
280
     1
102
RTVSPost2010Prop28
280
     0
102
RTVSPost2010PropOp28
 70
     1
102
RTVSPost2010Prop29
280
     1
102
RTVSPost2010PropOp29
 70
     1
102
RTVSPost2010Prop30
280
     1
102
RTVSPost2010PropOp30
 70
     1
102
RTVSPost2010Prop31
280
     0
102
RTVSPost2010PropOp31
 70
     1
102
RTVSPost2010Prop32
280
     0
102
RTVSPost2010PropOp32
 70
     1
102
RTVSPost2010Prop33
280
     0
102
RTVSPost2010PropOp33
 70
     1
102
RTVSPost2010Prop34
280
     0
102
RTVSPost2010PropOp34
 70
     1
102
RTVSPost2010Prop35
280
     0
102
RTVSPost2010PropOp35
 70
     1
102
RTVSPost2010Prop36
280
     0
102
RTVSPost2010PropOp36
 70
     1
102
RTVSPost2010Prop37
 90
       50
102
RTVSPost2010PropOp37
 70
     1
102
RTVSPost2010Prop38
140
0.0
102
RTVSPost2010PropOp38
 70
     1
102
RTVSPost2010Prop39
140
1.0
102
RTVSPost2010PropOp39
 70
     1
102
RTVSPost2010Prop40
 90
        0
102
RTVSPost2010PropOp40
 70
     1
102
RTVSPost2010Prop41ColorIndex
 90
       18
102
RTVSPost2010Prop41ColorRGB
 90
        0
102
RTVSPost2010PropOp41
 70
     1
102
RTVSPost2010Prop42
 90
       50
102
RTVSPost2010PropOp42
 70
     1
102
RTVSPost2010Prop43
 90
        3
102
RTVSPost2010PropOp43
 70
     1
102
RTVSPost2010Prop44ColorIndex
 90
        5
102
RTVSPost2010Prop44ColorRGB
 90
      255
102
RTVSPost2010PropOp44
 70
     1
102
RTVSPost2010Prop45
280
     0
102
RTVSPost2010PropOp45
 70
     1
102
RTVSPost2010Prop46
 90
       50
102
RTVSPost2010PropOp46
 70
     1
102
RTVSPost2010Prop47
 90
       50
102
RTVSPost2010PropOp47
 70
     1
102
RTVSPost2010Prop48
 90
       50
102
RTVSPost2010PropOp48
 70
     1
102
RTVSPost2010Prop49
280
     0
102
RTVSPost2010PropOp49
 70
     1
102
RTVSPost2010Prop50
 90
       50
102
RTVSPost2010PropOp50
 70
     1
102
RTVSPost2010Prop51ColorIndex
 90
      256
102
RTVSPost2010Prop51ColorRGB
 90
-16777216
102
RTVSPost2010PropOp51
 70
     0
102
RTVSPost2010Prop52
140
1.0
102
RTVSPost2010PropOp52
 70
     0
102
RTVSPost2010Prop53
 90
        2
102
RTVSPost2010PropOp53
 70
     1
102
RTVSPost2010Prop54
  1
strokes_ogs.tif
102
RTVSPost2010PropOp54
 70
     1
102
RTVSPost2010Prop55
280
     0
102
RTVSPost2010PropOp55
 70
     1
102
RTVSPost2010Prop56
140
1.0
102
RTVSPost2010PropOp56
 70
     1
102
RTVSPost2010Prop57
140
1.0
102
RTVSPost2010PropOp57
 70
     1
102
RTVSPropertyOp0
 70
     1
102
RTVSPropertyOp1
 70
     1
102
RTVSPropertyOp2
 70
     1
102
RTVSPropertyOp3
 70
     1
102
RTVSPropertyOp4
 70
     1
102
RTVSPropertyOp5
 70
     1
102
RTVSPropertyOp6
 70
     1
102
RTVSPropertyOp7
 70
     1
102
RTVSPropertyOp8
 70
     1
102
RTVSPropertyOp9
 70
     1
102
RTVSPropertyOp10
 70
     1
102
RTVSPropertyOp11
 70
     1
102
RTVSPropertyOp12
 70
     1
102
RTVSPropertyOp13
 70
     1
102
RTVSPropertyOp14
 70
     1
102
RTVSPropertyOp15
 70
     1
102
RTVSPropertyOp16
 70
     1
102
RTVSPropertyOp17
 70
     1
102
RTVSPropertyOp18
 70
     1
102
RTVSPropertyOp19
 70
     1
102
RTVSPropertyOp20
 70
     1
102
RTVSPropertyOp21
 70
     1
102
RTVSPropertyOp22
 70
     1
102
RTVSPropertyOp23
 70
     1
102
RTVSPropertyOp24
 70
     1
102
RTVSPropertyOp25
 70
     1
102
RTVSPropertyOp26
 70
     1
102
RTVSPropertyOp27
 70
     1
102
RTVSPropertyOp28
 70
     1
102
RTVSPropertyOp29
 70
     1
102
RTVSPropertyOp30
 70
     1
102
RTVSPropertyOp31
 70
     1
102
RTVSPropertyOp32
 70
     1
102
RTVSPropertyOp33
 70
     1
102
RTVSPropertyOp34
 70
     1
102
RTVSPropertyOp35
 70
     1
102
RTVSPropertyOp36
 70
     1
102
RTVSPropertyOp37
 70
     1
102
RTVSPropertyOp38
 70
     1
102
RTVSPropertyOp39
 70
     1
102
RTVSPropertyOp40
 70
     1
102
RTVSPropertyOp41
 70
     1
102
RTVSPropertyOp42
 70
     1
102
RTVSPropertyOp43
 70
     1
102
RTVSPropertyOp44
 70
     1
102
RTVSPropertyOp45
 70
     1
102
RTVSPropertyOp46
 70
     1
102
RTVSPropertyOp47
 70
     1
102
RTVSPropertyOp48
 70
     1
102
RTVSPropertyOp49
 70
     1
102
RTVSPropertyOp50
 70
     1
102
RTVSPropertyOp51
 70
     0
102
RTVSPropertyOp52
 70
     0
102
RTVSPropertyOp53
 70
     1
102
RTVSPropertyOp54
 70
     1
102
RTVSPropertyOp55
 70
     1
102
RTVSPropertyOp56
 70
     1
102
RTVSPropertyOp57
 70
     1
102
RTVSPropertyOp58
 70
     1
102
RTVSPropertyOp59
 70
     1
102
RTVSPropertyOp60
 70
     1
102
RTVSPropertyOp61
 70
     1
102
RTVSPropertyOp62
 70
     1
  0
XRECORD
  5
5BE
102
{ACAD_REACTORS
330
5BD
102
}
330
5BD
100
AcDbXrecord
280
     1
102
RTVSPost2010Prop28
280
     0
102
RTVSPost2010PropOp28
 70
     1
102
RTVSPost2010Prop29
280
     1
102
RTVSPost2010PropOp29
 70
     1
102
RTVSPost2010Prop30
280
     1
102
RTVSPost2010PropOp30
 70
     1
102
RTVSPost2010Prop31
280
     0
102
RTVSPost2010PropOp31
 70
     1
102
RTVSPost2010Prop32
280
     0
102
RTVSPost2010PropOp32
 70
     1
102
RTVSPost2010Prop33
280
     0
102
RTVSPost2010PropOp33
 70
     1
102
RTVSPost2010Prop34
280
     0
102
RTVSPost2010PropOp34
 70
     1
102
RTVSPost2010Prop35
280
     0
102
RTVSPost2010PropOp35
 70
     1
102
RTVSPost2010Prop36
280
     0
102
RTVSPost2010PropOp36
 70
     1
102
RTVSPost2010Prop37
 90
       50
102
RTVSPost2010PropOp37
 70
     1
102
RTVSPost2010Prop38
140
0.0
102
RTVSPost2010PropOp38
 70
     1
102
RTVSPost2010Prop39
140
1.0
102
RTVSPost2010PropOp39
 70
     1
102
RTVSPost2010Prop40
 90
        0
102
RTVSPost2010PropOp40
 70
     1
102
RTVSPost2010Prop41ColorIndex
 90
       18
102
RTVSPost2010Prop41ColorRGB
 90
        0
102
RTVSPost2010PropOp41
 70
     1
102
RTVSPost2010Prop42
 90
       50
102
RTVSPost2010PropOp42
 70
     1
102
RTVSPost2010Prop43
 90
        3
102
RTVSPost2010PropOp43
 70
     1
102
RTVSPost2010Prop44ColorIndex
 90
        5
102
RTVSPost2010Prop44ColorRGB
 90
      255
102
RTVSPost2010PropOp44
 70
     1
102
RTVSPost2010Prop45
280
     0
102
RTVSPost2010PropOp45
 70
     1
102
RTVSPost2010Prop46
 90
       50
102
RTVSPost2010PropOp46
 70
     1
102
RTVSPost2010Prop47
 90
       50
102
RTVSPost2010PropOp47
 70
     1
102
RTVSPost2010Prop48
 90
       50
102
RTVSPost2010PropOp48
 70
     1
102
RTVSPost2010Prop49
280
     0
102
RTVSPost2010PropOp49
 70
     1
102
RTVSPost2010Prop50
 90
       50
102
RTVSPost2010PropOp50
 70
     1
102
RTVSPost2010Prop51ColorIndex
 90
      256
102
RTVSPost2010Prop51ColorRGB
 90
-16777216
102
RTVSPost2010PropOp51
 70
     0
102
RTVSPost2010Prop52
140
1.0
102
RTVSPost2010PropOp52
 70
     0
102
RTVSPost2010Prop53
 90
        2
102
RTVSPost2010PropOp53
 70
     1
102
RTVSPost2010Prop54
  1
strokes_ogs.tif
102
RTVSPost2010PropOp54
 70
     1
102
RTVSPost2010Prop55
280
     0
102
RTVSPost2010PropOp55
 70
     1
102
RTVSPost2010Prop56
140
1.0
102
RTVSPost2010PropOp56
 70
     1
102
RTVSPost2010Prop57
140
1.0
102
RTVSPost2010PropOp57
 70
     1
102
RTVSPropertyOp0
 70
     1
102
RTVSPropertyOp1
 70
     1
102
RTVSPropertyOp2
 70
     1
102
RTVSPropertyOp3
 70
     1
102
RTVSPropertyOp4
 70
     1
102
RTVSPropertyOp5
 70
     1
102
RTVSPropertyOp6
 70
     1
102
RTVSPropertyOp7
 70
     1
102
RTVSPropertyOp8
 70
     1
102
RTVSPropertyOp9
 70
     1
102
RTVSPropertyOp10
 70
     1
102
RTVSPropertyOp11
 70
     1
102
RTVSPropertyOp12
 70
     1
102
RTVSPropertyOp13
 70
     1
102
RTVSPropertyOp14
 70
     1
102
RTVSPropertyOp15
 70
     1
102
RTVSPropertyOp16
 70
     1
102
RTVSPropertyOp17
 70
     1
102
RTVSPropertyOp18
 70
     1
102
RTVSPropertyOp19
 70
     1
102
RTVSPropertyOp20
 70
     1
102
RTVSPropertyOp21
 70
     1
102
RTVSPropertyOp22
 70
     1
102
RTVSPropertyOp23
 70
     1
102
RTVSPropertyOp24
 70
     1
102
RTVSPropertyOp25
 70
     1
102
RTVSPropertyOp26
 70
     1
102
RTVSPropertyOp27
 70
     1
102
RTVSPropertyOp28
 70
     1
102
RTVSPropertyOp29
 70
     1
102
RTVSPropertyOp30
 70
     1
102
RTVSPropertyOp31
 70
     1
102
RTVSPropertyOp32
 70
     1
102
RTVSPropertyOp33
 70
     1
102
RTVSPropertyOp34
 70
     1
102
RTVSPropertyOp35
 70
     1
102
RTVSPropertyOp36
 70
     1
102
RTVSPropertyOp37
 70
     1
102
RTVSPropertyOp38
 70
     1
102
RTVSPropertyOp39
 70
     1
102
RTVSPropertyOp40
 70
     1
102
RTVSPropertyOp41
 70
     1
102
RTVSPropertyOp42
 70
     1
102
RTVSPropertyOp43
 70
     1
102
RTVSPropertyOp44
 70
     1
102
RTVSPropertyOp45
 70
     1
102
RTVSPropertyOp46
 70
     1
102
RTVSPropertyOp47
 70
     1
102
RTVSPropertyOp48
 70
     1
102
RTVSPropertyOp49
 70
     1
102
RTVSPropertyOp50
 70
     1
102
RTVSPropertyOp51
 70
     0
102
RTVSPropertyOp52
 70
     0
102
RTVSPropertyOp53
 70
     1
102
RTVSPropertyOp54
 70
     1
102
RTVSPropertyOp55
 70
     1
102
RTVSPropertyOp56
 70
     1
102
RTVSPropertyOp57
 70
     1
102
RTVSPropertyOp58
 70
     1
102
RTVSPropertyOp59
 70
     1
102
RTVSPropertyOp60
 70
     1
102
RTVSPropertyOp61
 70
     1
102
RTVSPropertyOp62
 70
     1
  0
XRECORD
  5
5B8
102
{ACAD_REACTORS
330
5B7
102
}
330
5B7
100
AcDbXrecord
280
     1
102
RTVSPost2010Prop28
280
     0
102
RTVSPost2010PropOp28
 70
     1
102
RTVSPost2010Prop29
280
     1
102
RTVSPost2010PropOp29
 70
     1
102
RTVSPost2010Prop30
280
     1
102
RTVSPost2010PropOp30
 70
     1
102
RTVSPost2010Prop31
280
     0
102
RTVSPost2010PropOp31
 70
     1
102
RTVSPost2010Prop32
280
     0
102
RTVSPost2010PropOp32
 70
     1
102
RTVSPost2010Prop33
280
     0
102
RTVSPost2010PropOp33
 70
     1
102
RTVSPost2010Prop34
280
     0
102
RTVSPost2010PropOp34
 70
     1
102
RTVSPost2010Prop35
280
     0
102
RTVSPost2010PropOp35
 70
     1
102
RTVSPost2010Prop36
280
     0
102
RTVSPost2010PropOp36
 70
     1
102
RTVSPost2010Prop37
 90
       50
102
RTVSPost2010PropOp37
 70
     1
102
RTVSPost2010Prop38
140
0.0
102
RTVSPost2010PropOp38
 70
     1
102
RTVSPost2010Prop39
140
1.0
102
RTVSPost2010PropOp39
 70
     1
102
RTVSPost2010Prop40
 90
        0
102
RTVSPost2010PropOp40
 70
     1
102
RTVSPost2010Prop41ColorIndex
 90
       18
102
RTVSPost2010Prop41ColorRGB
 90
        0
102
RTVSPost2010PropOp41
 70
     1
102
RTVSPost2010Prop42
 90
       50
102
RTVSPost2010PropOp42
 70
     1
102
RTVSPost2010Prop43
 90
        3
102
RTVSPost2010PropOp43
 70
     1
102
RTVSPost2010Prop44ColorIndex
 90
        5
102
RTVSPost2010Prop44ColorRGB
 90
      255
102
RTVSPost2010PropOp44
 70
     1
102
RTVSPost2010Prop45
280
     0
102
RTVSPost2010PropOp45
 70
     1
102
RTVSPost2010Prop46
 90
       50
102
RTVSPost2010PropOp46
 70
     1
102
RTVSPost2010Prop47
 90
       50
102
RTVSPost2010PropOp47
 70
     1
102
RTVSPost2010Prop48
 90
       50
102
RTVSPost2010PropOp48
 70
     1
102
RTVSPost2010Prop49
280
     0
102
RTVSPost2010PropOp49
 70
     1
102
RTVSPost2010Prop50
 90
       50
102
RTVSPost2010PropOp50
 70
     1
102
RTVSPost2010Prop51ColorIndex
 90
      256
102
RTVSPost2010Prop51ColorRGB
 90
-16777216
102
RTVSPost2010PropOp51
 70
     0
102
RTVSPost2010Prop52
140
1.0
102
RTVSPost2010PropOp52
 70
     0
102
RTVSPost2010Prop53
 90
        2
102
RTVSPost2010PropOp53
 70
     1
102
RTVSPost2010Prop54
  1
strokes_ogs.tif
102
RTVSPost2010PropOp54
 70
     1
102
RTVSPost2010Prop55
280
     0
102
RTVSPost2010PropOp55
 70
     1
102
RTVSPost2010Prop56
140
1.0
102
RTVSPost2010PropOp56
 70
     1
102
RTVSPost2010Prop57
140
1.0
102
RTVSPost2010PropOp57
 70
     1
102
RTVSPropertyOp0
 70
     1
102
RTVSPropertyOp1
 70
     1
102
RTVSPropertyOp2
 70
     1
102
RTVSPropertyOp3
 70
     1
102
RTVSPropertyOp4
 70
     1
102
RTVSPropertyOp5
 70
     1
102
RTVSPropertyOp6
 70
     1
102
RTVSPropertyOp7
 70
     1
102
RTVSPropertyOp8
 70
     1
102
RTVSPropertyOp9
 70
     1
102
RTVSPropertyOp10
 70
     1
102
RTVSPropertyOp11
 70
     1
102
RTVSPropertyOp12
 70
     1
102
RTVSPropertyOp13
 70
     1
102
RTVSPropertyOp14
 70
     1
102
RTVSPropertyOp15
 70
     1
102
RTVSPropertyOp16
 70
     1
102
RTVSPropertyOp17
 70
     1
102
RTVSPropertyOp18
 70
     1
102
RTVSPropertyOp19
 70
     1
102
RTVSPropertyOp20
 70
     1
102
RTVSPropertyOp21
 70
     1
102
RTVSPropertyOp22
 70
     1
102
RTVSPropertyOp23
 70
     1
102
RTVSPropertyOp24
 70
     1
102
RTVSPropertyOp25
 70
     1
102
RTVSPropertyOp26
 70
     1
102
RTVSPropertyOp27
 70
     1
102
RTVSPropertyOp28
 70
     1
102
RTVSPropertyOp29
 70
     1
102
RTVSPropertyOp30
 70
     1
102
RTVSPropertyOp31
 70
     1
102
RTVSPropertyOp32
 70
     1
102
RTVSPropertyOp33
 70
     1
102
RTVSPropertyOp34
 70
     1
102
RTVSPropertyOp35
 70
     1
102
RTVSPropertyOp36
 70
     1
102
RTVSPropertyOp37
 70
     1
102
RTVSPropertyOp38
 70
     1
102
RTVSPropertyOp39
 70
     1
102
RTVSPropertyOp40
 70
     1
102
RTVSPropertyOp41
 70
     1
102
RTVSPropertyOp42
 70
     1
102
RTVSPropertyOp43
 70
     1
102
RTVSPropertyOp44
 70
     1
102
RTVSPropertyOp45
 70
     1
102
RTVSPropertyOp46
 70
     1
102
RTVSPropertyOp47
 70
     1
102
RTVSPropertyOp48
 70
     1
102
RTVSPropertyOp49
 70
     1
102
RTVSPropertyOp50
 70
     1
102
RTVSPropertyOp51
 70
     0
102
RTVSPropertyOp52
 70
     0
102
RTVSPropertyOp53
 70
     1
102
RTVSPropertyOp54
 70
     1
102
RTVSPropertyOp55
 70
     1
102
RTVSPropertyOp56
 70
     1
102
RTVSPropertyOp57
 70
     1
102
RTVSPropertyOp58
 70
     1
102
RTVSPropertyOp59
 70
     1
102
RTVSPropertyOp60
 70
     1
102
RTVSPropertyOp61
 70
     1
102
RTVSPropertyOp62
 70
     1
  0
XRECORD
  5
5BA
102
{ACAD_REACTORS
330
5B9
102
}
330
5B9
100
AcDbXrecord
280
     1
102
RTVSPost2010Prop28
280
     0
102
RTVSPost2010PropOp28
 70
     1
102
RTVSPost2010Prop29
280
     1
102
RTVSPost2010PropOp29
 70
     1
102
RTVSPost2010Prop30
280
     1
102
RTVSPost2010PropOp30
 70
     1
102
RTVSPost2010Prop31
280
     0
102
RTVSPost2010PropOp31
 70
     1
102
RTVSPost2010Prop32
280
     0
102
RTVSPost2010PropOp32
 70
     1
102
RTVSPost2010Prop33
280
     0
102
RTVSPost2010PropOp33
 70
     1
102
RTVSPost2010Prop34
280
     0
102
RTVSPost2010PropOp34
 70
     1
102
RTVSPost2010Prop35
280
     0
102
RTVSPost2010PropOp35
 70
     1
102
RTVSPost2010Prop36
280
     0
102
RTVSPost2010PropOp36
 70
     1
102
RTVSPost2010Prop37
 90
       50
102
RTVSPost2010PropOp37
 70
     1
102
RTVSPost2010Prop38
140
0.0
102
RTVSPost2010PropOp38
 70
     1
102
RTVSPost2010Prop39
140
1.0
102
RTVSPost2010PropOp39
 70
     1
102
RTVSPost2010Prop40
 90
        0
102
RTVSPost2010PropOp40
 70
     1
102
RTVSPost2010Prop41ColorIndex
 90
       18
102
RTVSPost2010Prop41ColorRGB
 90
        0
102
RTVSPost2010PropOp41
 70
     1
102
RTVSPost2010Prop42
 90
       50
102
RTVSPost2010PropOp42
 70
     1
102
RTVSPost2010Prop43
 90
        3
102
RTVSPost2010PropOp43
 70
     1
102
RTVSPost2010Prop44ColorIndex
 90
        5
102
RTVSPost2010Prop44ColorRGB
 90
      255
102
RTVSPost2010PropOp44
 70
     1
102
RTVSPost2010Prop45
280
     0
102
RTVSPost2010PropOp45
 70
     1
102
RTVSPost2010Prop46
 90
       50
102
RTVSPost2010PropOp46
 70
     1
102
RTVSPost2010Prop47
 90
       50
102
RTVSPost2010PropOp47
 70
     1
102
RTVSPost2010Prop48
 90
       50
102
RTVSPost2010PropOp48
 70
     1
102
RTVSPost2010Prop49
280
     0
102
RTVSPost2010PropOp49
 70
     1
102
RTVSPost2010Prop50
 90
       50
102
RTVSPost2010PropOp50
 70
     1
102
RTVSPost2010Prop51ColorIndex
 90
      256
102
RTVSPost2010Prop51ColorRGB
 90
-16777216
102
RTVSPost2010PropOp51
 70
     0
102
RTVSPost2010Prop52
140
1.0
102
RTVSPost2010PropOp52
 70
     0
102
RTVSPost2010Prop53
 90
        2
102
RTVSPost2010PropOp53
 70
     1
102
RTVSPost2010Prop54
  1
strokes_ogs.tif
102
RTVSPost2010PropOp54
 70
     1
102
RTVSPost2010Prop55
280
     0
102
RTVSPost2010PropOp55
 70
     1
102
RTVSPost2010Prop56
140
1.0
102
RTVSPost2010PropOp56
 70
     1
102
RTVSPost2010Prop57
140
1.0
102
RTVSPost2010PropOp57
 70
     1
102
RTVSPropertyOp0
 70
     1
102
RTVSPropertyOp1
 70
     1
102
RTVSPropertyOp2
 70
     1
102
RTVSPropertyOp3
 70
     1
102
RTVSPropertyOp4
 70
     1
102
RTVSPropertyOp5
 70
     1
102
RTVSPropertyOp6
 70
     1
102
RTVSPropertyOp7
 70
     1
102
RTVSPropertyOp8
 70
     1
102
RTVSPropertyOp9
 70
     1
102
RTVSPropertyOp10
 70
     1
102
RTVSPropertyOp11
 70
     1
102
RTVSPropertyOp12
 70
     1
102
RTVSPropertyOp13
 70
     1
102
RTVSPropertyOp14
 70
     1
102
RTVSPropertyOp15
 70
     1
102
RTVSPropertyOp16
 70
     1
102
RTVSPropertyOp17
 70
     1
102
RTVSPropertyOp18
 70
     1
102
RTVSPropertyOp19
 70
     1
102
RTVSPropertyOp20
 70
     1
102
RTVSPropertyOp21
 70
     1
102
RTVSPropertyOp22
 70
     1
102
RTVSPropertyOp23
 70
     1
102
RTVSPropertyOp24
 70
     1
102
RTVSPropertyOp25
 70
     1
102
RTVSPropertyOp26
 70
     1
102
RTVSPropertyOp27
 70
     1
102
RTVSPropertyOp28
 70
     1
102
RTVSPropertyOp29
 70
     1
102
RTVSPropertyOp30
 70
     1
102
RTVSPropertyOp31
 70
     1
102
RTVSPropertyOp32
 70
     1
102
RTVSPropertyOp33
 70
     1
102
RTVSPropertyOp34
 70
     1
102
RTVSPropertyOp35
 70
     1
102
RTVSPropertyOp36
 70
     1
102
RTVSPropertyOp37
 70
     1
102
RTVSPropertyOp38
 70
     1
102
RTVSPropertyOp39
 70
     1
102
RTVSPropertyOp40
 70
     1
102
RTVSPropertyOp41
 70
     1
102
RTVSPropertyOp42
 70
     1
102
RTVSPropertyOp43
 70
     1
102
RTVSPropertyOp44
 70
     1
102
RTVSPropertyOp45
 70
     1
102
RTVSPropertyOp46
 70
     1
102
RTVSPropertyOp47
 70
     1
102
RTVSPropertyOp48
 70
     1
102
RTVSPropertyOp49
 70
     1
102
RTVSPropertyOp50
 70
     1
102
RTVSPropertyOp51
 70
     0
102
RTVSPropertyOp52
 70
     0
102
RTVSPropertyOp53
 70
     1
102
RTVSPropertyOp54
 70
     1
102
RTVSPropertyOp55
 70
     1
102
RTVSPropertyOp56
 70
     1
102
RTVSPropertyOp57
 70
     1
102
RTVSPropertyOp58
 70
     1
102
RTVSPropertyOp59
 70
     1
102
RTVSPropertyOp60
 70
     1
102
RTVSPropertyOp61
 70
     1
102
RTVSPropertyOp62
 70
     1
  0
XRECORD
  5
5AA
102
{ACAD_REACTORS
330
5A9
102
}
330
5A9
100
AcDbXrecord
280
     1
102
RTVSPost2010Prop28
280
     0
102
RTVSPost2010PropOp28
 70
     1
102
RTVSPost2010Prop29
280
     1
102
RTVSPost2010PropOp29
 70
     1
102
RTVSPost2010Prop30
280
     1
102
RTVSPost2010PropOp30
 70
     1
102
RTVSPost2010Prop31
280
     0
102
RTVSPost2010PropOp31
 70
     1
102
RTVSPost2010Prop32
280
     0
102
RTVSPost2010PropOp32
 70
     1
102
RTVSPost2010Prop33
280
     0
102
RTVSPost2010PropOp33
 70
     1
102
RTVSPost2010Prop34
280
     0
102
RTVSPost2010PropOp34
 70
     1
102
RTVSPost2010Prop35
280
     0
102
RTVSPost2010PropOp35
 70
     1
102
RTVSPost2010Prop36
280
     0
102
RTVSPost2010PropOp36
 70
     1
102
RTVSPost2010Prop37
 90
       50
102
RTVSPost2010PropOp37
 70
     1
102
RTVSPost2010Prop38
140
0.0
102
RTVSPost2010PropOp38
 70
     1
102
RTVSPost2010Prop39
140
1.0
102
RTVSPost2010PropOp39
 70
     1
102
RTVSPost2010Prop40
 90
        0
102
RTVSPost2010PropOp40
 70
     1
102
RTVSPost2010Prop41ColorIndex
 90
       18
102
RTVSPost2010Prop41ColorRGB
 90
        0
102
RTVSPost2010PropOp41
 70
     1
102
RTVSPost2010Prop42
 90
       50
102
RTVSPost2010PropOp42
 70
     1
102
RTVSPost2010Prop43
 90
        3
102
RTVSPost2010PropOp43
 70
     1
102
RTVSPost2010Prop44ColorIndex
 90
        5
102
RTVSPost2010Prop44ColorRGB
 90
      255
102
RTVSPost2010PropOp44
 70
     1
102
RTVSPost2010Prop45
280
     0
102
RTVSPost2010PropOp45
 70
     1
102
RTVSPost2010Prop46
 90
       50
102
RTVSPost2010PropOp46
 70
     1
102
RTVSPost2010Prop47
 90
       50
102
RTVSPost2010PropOp47
 70
     1
102
RTVSPost2010Prop48
 90
       50
102
RTVSPost2010PropOp48
 70
     1
102
RTVSPost2010Prop49
280
     0
102
RTVSPost2010PropOp49
 70
     1
102
RTVSPost2010Prop50
 90
       50
102
RTVSPost2010PropOp50
 70
     1
102
RTVSPost2010Prop51ColorIndex
 90
      256
102
RTVSPost2010Prop51ColorRGB
 90
-16777216
102
RTVSPost2010PropOp51
 70
     0
102
RTVSPost2010Prop52
140
1.0
102
RTVSPost2010PropOp52
 70
     0
102
RTVSPost2010Prop53
 90
        2
102
RTVSPost2010PropOp53
 70
     1
102
RTVSPost2010Prop54
  1
strokes_ogs.tif
102
RTVSPost2010PropOp54
 70
     1
102
RTVSPost2010Prop55
280
     0
102
RTVSPost2010PropOp55
 70
     1
102
RTVSPost2010Prop56
140
1.0
102
RTVSPost2010PropOp56
 70
     1
102
RTVSPost2010Prop57
140
1.0
102
RTVSPost2010PropOp57
 70
     1
102
RTVSPropertyOp0
 70
     1
102
RTVSPropertyOp1
 70
     1
102
RTVSPropertyOp2
 70
     1
102
RTVSPropertyOp3
 70
     1
102
RTVSPropertyOp4
 70
     1
102
RTVSPropertyOp5
 70
     1
102
RTVSPropertyOp6
 70
     1
102
RTVSPropertyOp7
 70
     1
102
RTVSPropertyOp8
 70
     1
102
RTVSPropertyOp9
 70
     1
102
RTVSPropertyOp10
 70
     1
102
RTVSPropertyOp11
 70
     1
102
RTVSPropertyOp12
 70
     1
102
RTVSPropertyOp13
 70
     1
102
RTVSPropertyOp14
 70
     1
102
RTVSPropertyOp15
 70
     1
102
RTVSPropertyOp16
 70
     1
102
RTVSPropertyOp17
 70
     1
102
RTVSPropertyOp18
 70
     1
102
RTVSPropertyOp19
 70
     1
102
RTVSPropertyOp20
 70
     1
102
RTVSPropertyOp21
 70
     1
102
RTVSPropertyOp22
 70
     1
102
RTVSPropertyOp23
 70
     1
102
RTVSPropertyOp24
 70
     1
102
RTVSPropertyOp25
 70
     1
102
RTVSPropertyOp26
 70
     1
102
RTVSPropertyOp27
 70
     1
102
RTVSPropertyOp28
 70
     1
102
RTVSPropertyOp29
 70
     1
102
RTVSPropertyOp30
 70
     1
102
RTVSPropertyOp31
 70
     1
102
RTVSPropertyOp32
 70
     1
102
RTVSPropertyOp33
 70
     1
102
RTVSPropertyOp34
 70
     1
102
RTVSPropertyOp35
 70
     1
102
RTVSPropertyOp36
 70
     1
102
RTVSPropertyOp37
 70
     1
102
RTVSPropertyOp38
 70
     1
102
RTVSPropertyOp39
 70
     1
102
RTVSPropertyOp40
 70
     1
102
RTVSPropertyOp41
 70
     1
102
RTVSPropertyOp42
 70
     1
102
RTVSPropertyOp43
 70
     1
102
RTVSPropertyOp44
 70
     1
102
RTVSPropertyOp45
 70
     1
102
RTVSPropertyOp46
 70
     1
102
RTVSPropertyOp47
 70
     1
102
RTVSPropertyOp48
 70
     1
102
RTVSPropertyOp49
 70
     1
102
RTVSPropertyOp50
 70
     1
102
RTVSPropertyOp51
 70
     0
102
RTVSPropertyOp52
 70
     0
102
RTVSPropertyOp53
 70
     1
102
RTVSPropertyOp54
 70
     1
102
RTVSPropertyOp55
 70
     1
102
RTVSPropertyOp56
 70
     1
102
RTVSPropertyOp57
 70
     1
102
RTVSPropertyOp58
 70
     1
102
RTVSPropertyOp59
 70
     1
102
RTVSPropertyOp60
 70
     1
102
RTVSPropertyOp61
 70
     1
102
RTVSPropertyOp62
 70
     1
  0
XRECORD
  5
59C
102
{ACAD_REACTORS
330
59B
102
}
330
59B
100
AcDbXrecord
280
     1
102
RTVSPost2010Prop28
280
     0
102
RTVSPost2010PropOp28
 70
     1
102
RTVSPost2010Prop29
280
     1
102
RTVSPost2010PropOp29
 70
     1
102
RTVSPost2010Prop30
280
     1
102
RTVSPost2010PropOp30
 70
     1
102
RTVSPost2010Prop31
280
     0
102
RTVSPost2010PropOp31
 70
     1
102
RTVSPost2010Prop32
280
     0
102
RTVSPost2010PropOp32
 70
     1
102
RTVSPost2010Prop33
280
     0
102
RTVSPost2010PropOp33
 70
     1
102
RTVSPost2010Prop34
280
     0
102
RTVSPost2010PropOp34
 70
     1
102
RTVSPost2010Prop35
280
     0
102
RTVSPost2010PropOp35
 70
     1
102
RTVSPost2010Prop36
280
     0
102
RTVSPost2010PropOp36
 70
     1
102
RTVSPost2010Prop37
 90
       50
102
RTVSPost2010PropOp37
 70
     1
102
RTVSPost2010Prop38
140
0.0
102
RTVSPost2010PropOp38
 70
     1
102
RTVSPost2010Prop39
140
1.0
102
RTVSPost2010PropOp39
 70
     1
102
RTVSPost2010Prop40
 90
        0
102
RTVSPost2010PropOp40
 70
     1
102
RTVSPost2010Prop41ColorIndex
 90
       18
102
RTVSPost2010Prop41ColorRGB
 90
        0
102
RTVSPost2010PropOp41
 70
     1
102
RTVSPost2010Prop42
 90
       50
102
RTVSPost2010PropOp42
 70
     1
102
RTVSPost2010Prop43
 90
        3
102
RTVSPost2010PropOp43
 70
     1
102
RTVSPost2010Prop44ColorIndex
 90
        5
102
RTVSPost2010Prop44ColorRGB
 90
      255
102
RTVSPost2010PropOp44
 70
     1
102
RTVSPost2010Prop45
280
     0
102
RTVSPost2010PropOp45
 70
     1
102
RTVSPost2010Prop46
 90
       50
102
RTVSPost2010PropOp46
 70
     1
102
RTVSPost2010Prop47
 90
       50
102
RTVSPost2010PropOp47
 70
     1
102
RTVSPost2010Prop48
 90
       50
102
RTVSPost2010PropOp48
 70
     1
102
RTVSPost2010Prop49
280
     0
102
RTVSPost2010PropOp49
 70
     1
102
RTVSPost2010Prop50
 90
       50
102
RTVSPost2010PropOp50
 70
     1
102
RTVSPost2010Prop51ColorIndex
 90
      256
102
RTVSPost2010Prop51ColorRGB
 90
-16777216
102
RTVSPost2010PropOp51
 70
     0
102
RTVSPost2010Prop52
140
1.0
102
RTVSPost2010PropOp52
 70
     0
102
RTVSPost2010Prop53
 90
        2
102
RTVSPost2010PropOp53
 70
     1
102
RTVSPost2010Prop54
  1
strokes_ogs.tif
102
RTVSPost2010PropOp54
 70
     1
102
RTVSPost2010Prop55
280
     0
102
RTVSPost2010PropOp55
 70
     1
102
RTVSPost2010Prop56
140
1.0
102
RTVSPost2010PropOp56
 70
     1
102
RTVSPost2010Prop57
140
1.0
102
RTVSPost2010PropOp57
 70
     1
102
RTVSPropertyOp0
 70
     1
102
RTVSPropertyOp1
 70
     1
102
RTVSPropertyOp2
 70
     1
102
RTVSPropertyOp3
 70
     1
102
RTVSPropertyOp4
 70
     1
102
RTVSPropertyOp5
 70
     1
102
RTVSPropertyOp6
 70
     1
102
RTVSPropertyOp7
 70
     1
102
RTVSPropertyOp8
 70
     1
102
RTVSPropertyOp9
 70
     1
102
RTVSPropertyOp10
 70
     1
102
RTVSPropertyOp11
 70
     1
102
RTVSPropertyOp12
 70
     1
102
RTVSPropertyOp13
 70
     1
102
RTVSPropertyOp14
 70
     1
102
RTVSPropertyOp15
 70
     1
102
RTVSPropertyOp16
 70
     1
102
RTVSPropertyOp17
 70
     1
102
RTVSPropertyOp18
 70
     1
102
RTVSPropertyOp19
 70
     1
102
RTVSPropertyOp20
 70
     1
102
RTVSPropertyOp21
 70
     1
102
RTVSPropertyOp22
 70
     1
102
RTVSPropertyOp23
 70
     1
102
RTVSPropertyOp24
 70
     1
102
RTVSPropertyOp25
 70
     1
102
RTVSPropertyOp26
 70
     1
102
RTVSPropertyOp27
 70
     1
102
RTVSPropertyOp28
 70
     1
102
RTVSPropertyOp29
 70
     1
102
RTVSPropertyOp30
 70
     1
102
RTVSPropertyOp31
 70
     1
102
RTVSPropertyOp32
 70
     1
102
RTVSPropertyOp33
 70
     1
102
RTVSPropertyOp34
 70
     1
102
RTVSPropertyOp35
 70
     1
102
RTVSPropertyOp36
 70
     1
102
RTVSPropertyOp37
 70
     1
102
RTVSPropertyOp38
 70
     1
102
RTVSPropertyOp39
 70
     1
102
RTVSPropertyOp40
 70
     1
102
RTVSPropertyOp41
 70
     1
102
RTVSPropertyOp42
 70
     1
102
RTVSPropertyOp43
 70
     1
102
RTVSPropertyOp44
 70
     1
102
RTVSPropertyOp45
 70
     1
102
RTVSPropertyOp46
 70
     1
102
RTVSPropertyOp47
 70
     1
102
RTVSPropertyOp48
 70
     1
102
RTVSPropertyOp49
 70
     1
102
RTVSPropertyOp50
 70
     1
102
RTVSPropertyOp51
 70
     0
102
RTVSPropertyOp52
 70
     0
102
RTVSPropertyOp53
 70
     1
102
RTVSPropertyOp54
 70
     1
102
RTVSPropertyOp55
 70
     1
102
RTVSPropertyOp56
 70
     1
102
RTVSPropertyOp57
 70
     1
102
RTVSPropertyOp58
 70
     1
102
RTVSPropertyOp59
 70
     1
102
RTVSPropertyOp60
 70
     1
102
RTVSPropertyOp61
 70
     1
102
RTVSPropertyOp62
 70
     1
  0
XRECORD
  5
5BC
102
{ACAD_REACTORS
330
5BB
102
}
330
5BB
100
AcDbXrecord
280
     1
102
RTVSPost2010Prop28
280
     0
102
RTVSPost2010PropOp28
 70
     1
102
RTVSPost2010Prop29
280
     1
102
RTVSPost2010PropOp29
 70
     1
102
RTVSPost2010Prop30
280
     1
102
RTVSPost2010PropOp30
 70
     1
102
RTVSPost2010Prop31
280
     0
102
RTVSPost2010PropOp31
 70
     1
102
RTVSPost2010Prop32
280
     0
102
RTVSPost2010PropOp32
 70
     1
102
RTVSPost2010Prop33
280
     0
102
RTVSPost2010PropOp33
 70
     1
102
RTVSPost2010Prop34
280
     0
102
RTVSPost2010PropOp34
 70
     1
102
RTVSPost2010Prop35
280
     0
102
RTVSPost2010PropOp35
 70
     1
102
RTVSPost2010Prop36
280
     0
102
RTVSPost2010PropOp36
 70
     1
102
RTVSPost2010Prop37
 90
       50
102
RTVSPost2010PropOp37
 70
     1
102
RTVSPost2010Prop38
140
0.0
102
RTVSPost2010PropOp38
 70
     1
102
RTVSPost2010Prop39
140
1.0
102
RTVSPost2010PropOp39
 70
     1
102
RTVSPost2010Prop40
 90
        0
102
RTVSPost2010PropOp40
 70
     1
102
RTVSPost2010Prop41ColorIndex
 90
       18
102
RTVSPost2010Prop41ColorRGB
 90
        0
102
RTVSPost2010PropOp41
 70
     1
102
RTVSPost2010Prop42
 90
       50
102
RTVSPost2010PropOp42
 70
     1
102
RTVSPost2010Prop43
 90
        3
102
RTVSPost2010PropOp43
 70
     1
102
RTVSPost2010Prop44ColorIndex
 90
        5
102
RTVSPost2010Prop44ColorRGB
 90
      255
102
RTVSPost2010PropOp44
 70
     1
102
RTVSPost2010Prop45
280
     0
102
RTVSPost2010PropOp45
 70
     1
102
RTVSPost2010Prop46
 90
       50
102
RTVSPost2010PropOp46
 70
     1
102
RTVSPost2010Prop47
 90
       50
102
RTVSPost2010PropOp47
 70
     1
102
RTVSPost2010Prop48
 90
       50
102
RTVSPost2010PropOp48
 70
     1
102
RTVSPost2010Prop49
280
     0
102
RTVSPost2010PropOp49
 70
     1
102
RTVSPost2010Prop50
 90
       50
102
RTVSPost2010PropOp50
 70
     1
102
RTVSPost2010Prop51ColorIndex
 90
      256
102
RTVSPost2010Prop51ColorRGB
 90
-16777216
102
RTVSPost2010PropOp51
 70
     0
102
RTVSPost2010Prop52
140
1.0
102
RTVSPost2010PropOp52
 70
     0
102
RTVSPost2010Prop53
 90
        2
102
RTVSPost2010PropOp53
 70
     1
102
RTVSPost2010Prop54
  1
strokes_ogs.tif
102
RTVSPost2010PropOp54
 70
     1
102
RTVSPost2010Prop55
280
     0
102
RTVSPost2010PropOp55
 70
     1
102
RTVSPost2010Prop56
140
1.0
102
RTVSPost2010PropOp56
 70
     1
102
RTVSPost2010Prop57
140
1.0
102
RTVSPost2010PropOp57
 70
     1
102
RTVSPropertyOp0
 70
     1
102
RTVSPropertyOp1
 70
     1
102
RTVSPropertyOp2
 70
     1
102
RTVSPropertyOp3
 70
     1
102
RTVSPropertyOp4
 70
     1
102
RTVSPropertyOp5
 70
     1
102
RTVSPropertyOp6
 70
     1
102
RTVSPropertyOp7
 70
     1
102
RTVSPropertyOp8
 70
     1
102
RTVSPropertyOp9
 70
     1
102
RTVSPropertyOp10
 70
     1
102
RTVSPropertyOp11
 70
     1
102
RTVSPropertyOp12
 70
     1
102
RTVSPropertyOp13
 70
     1
102
RTVSPropertyOp14
 70
     1
102
RTVSPropertyOp15
 70
     1
102
RTVSPropertyOp16
 70
     1
102
RTVSPropertyOp17
 70
     1
102
RTVSPropertyOp18
 70
     1
102
RTVSPropertyOp19
 70
     1
102
RTVSPropertyOp20
 70
     1
102
RTVSPropertyOp21
 70
     1
102
RTVSPropertyOp22
 70
     1
102
RTVSPropertyOp23
 70
     1
102
RTVSPropertyOp24
 70
     1
102
RTVSPropertyOp25
 70
     1
102
RTVSPropertyOp26
 70
     1
102
RTVSPropertyOp27
 70
     1
102
RTVSPropertyOp28
 70
     1
102
RTVSPropertyOp29
 70
     1
102
RTVSPropertyOp30
 70
     1
102
RTVSPropertyOp31
 70
     1
102
RTVSPropertyOp32
 70
     1
102
RTVSPropertyOp33
 70
     1
102
RTVSPropertyOp34
 70
     1
102
RTVSPropertyOp35
 70
     1
102
RTVSPropertyOp36
 70
     1
102
RTVSPropertyOp37
 70
     1
102
RTVSPropertyOp38
 70
     1
102
RTVSPropertyOp39
 70
     1
102
RTVSPropertyOp40
 70
     1
102
RTVSPropertyOp41
 70
     1
102
RTVSPropertyOp42
 70
     1
102
RTVSPropertyOp43
 70
     1
102
RTVSPropertyOp44
 70
     1
102
RTVSPropertyOp45
 70
     1
102
RTVSPropertyOp46
 70
     1
102
RTVSPropertyOp47
 70
     1
102
RTVSPropertyOp48
 70
     1
102
RTVSPropertyOp49
 70
     1
102
RTVSPropertyOp50
 70
     1
102
RTVSPropertyOp51
 70
     0
102
RTVSPropertyOp52
 70
     0
102
RTVSPropertyOp53
 70
     1
102
RTVSPropertyOp54
 70
     1
102
RTVSPropertyOp55
 70
     1
102
RTVSPropertyOp56
 70
     1
102
RTVSPropertyOp57
 70
     1
102
RTVSPropertyOp58
 70
     1
102
RTVSPropertyOp59
 70
     1
102
RTVSPropertyOp60
 70
     1
102
RTVSPropertyOp61
 70
     1
102
RTVSPropertyOp62
 70
     1
  0
ENDSEC
  0
EOF
