  0
SECTION
  2
HEADER
  9
$ACADVER
  1
AC1015
  9
$ACADMAINTVER
 70
    20
  9
$DWGCODEPAGE
  3
ANSI_1250
  9
$INSBASE
 10
0.0
 20
0.0
 30
0.0
  9
$EXTMIN
 10
5.0
 20
4.802951999999999
 30
-0.0000000000000213
  9
$EXTMAX
 10
415.0
 20
292.0
 30
0.0000000000000071
  9
$LIMMIN
 10
-0.5
 20
-0.5
  9
$LIMMAX
 10
5.0
 20
5.0
  9
$ORTHOMODE
 70
     1
  9
$REGENMODE
 70
     1
  9
$FILLMODE
 70
     1
  9
$QTEXTMODE
 70
     0
  9
$MIRRTEXT
 70
     1
  9
$LTSCALE
 40
1.0
  9
$ATTMODE
 70
     1
  9
$TEXTSIZE
 40
0.2
  9
$TRACEWID
 40
0.05
  9
$TEXTSTYLE
  7
Standard
  9
$CLAYER
  8
0
  9
$CELTYPE
  6
ByLayer
  9
$CECOLOR
 62
   256
  9
$CELTSCALE
 40
1.0
  9
$DISPSILH
 70
     0
  9
$DIMSCALE
 40
1.0
  9
$DIMASZ
 40
0.18
  9
$DIMEXO
 40
0.0625
  9
$DIMDLI
 40
0.38
  9
$DIMRND
 40
0.0
  9
$DIMDLE
 40
0.0
  9
$DIMEXE
 40
0.18
  9
$DIMTP
 40
0.0
  9
$DIMTM
 40
0.0
  9
$DIMTXT
 40
0.18
  9
$DIMCEN
 40
0.09
  9
$DIMTSZ
 40
0.0
  9
$DIMTOL
 70
     0
  9
$DIMLIM
 70
     0
  9
$DIMTIH
 70
     1
  9
$DIMTOH
 70
     1
  9
$DIMSE1
 70
     0
  9
$DIMSE2
 70
     0
  9
$DIMTAD
 70
     0
  9
$DIMZIN
 70
     0
  9
$DIMBLK
  1

  9
$DIMASO
 70
     1
  9
$DIMSHO
 70
     1
  9
$DIMPOST
  1

  9
$DIMAPOST
  1

  9
$DIMALT
 70
     0
  9
$DIMALTD
 70
     2
  9
$DIMALTF
 40
25.4
  9
$DIMLFAC
 40
1.0
  9
$DIMTOFL
 70
     0
  9
$DIMTVP
 40
0.0
  9
$DIMTIX
 70
     0
  9
$DIMSOXD
 70
     0
  9
$DIMSAH
 70
     0
  9
$DIMBLK1
  1

  9
$DIMBLK2
  1

  9
$DIMSTYLE
  2
Standard
  9
$DIMCLRD
 70
     0
  9
$DIMCLRE
 70
     0
  9
$DIMCLRT
 70
     0
  9
$DIMTFAC
 40
1.0
  9
$DIMGAP
 40
0.09
  9
$DIMJUST
 70
     0
  9
$DIMSD1
 70
     0
  9
$DIMSD2
 70
     0
  9
$DIMTOLJ
 70
     1
  9
$DIMTZIN
 70
     0
  9
$DIMALTZ
 70
     0
  9
$DIMALTTZ
 70
     0
  9
$DIMUPT
 70
     0
  9
$DIMDEC
 70
     4
  9
$DIMTDEC
 70
     4
  9
$DIMALTU
 70
     2
  9
$DIMALTTD
 70
     2
  9
$DIMTXSTY
  7
Standard
  9
$DIMAUNIT
 70
     0
  9
$DIMADEC
 70
     0
  9
$DIMALTRND
 40
0.0
  9
$DIMAZIN
 70
     0
  9
$DIMDSEP
 70
    46
  9
$DIMATFIT
 70
     3
  9
$DIMFRAC
 70
     0
  9
$DIMLDRBLK
  1

  9
$DIMLUNIT
 70
     2
  9
$DIMLWD
 70
    -2
  9
$DIMLWE
 70
    -2
  9
$DIMTMOVE
 70
     0
  9
$LUNITS
 70
     2
  9
$LUPREC
 70
     4
  9
$SKETCHINC
 40
0.1
  9
$FILLETRAD
 40
0.5
  9
$AUNITS
 70
     0
  9
$AUPREC
 70
     0
  9
$MENU
  1
.
  9
$ELEVATION
 40
0.0
  9
$PELEVATION
 40
0.0
  9
$THICKNESS
 40
0.0
  9
$LIMCHECK
 70
     0
  9
$CHAMFERA
 40
0.0
  9
$CHAMFERB
 40
0.0
  9
$CHAMFERC
 40
0.0
  9
$CHAMFERD
 40
0.0
  9
$SKPOLY
 70
     0
  9
$TDCREATE
 40
2459325.301817130
  9
$TDUCREATE
 40
2459325.218486597
  9
$TDUPDATE
 40
2459325.310243056
  9
$TDUUPDATE
 40
2459325.226909722
  9
$TDINDWG
 40
0.0053125116
  9
$TDUSRTIMER
 40
0.0053125116
  9
$USRTIMER
 70
     1
  9
$ANGBASE
 50
0.0
  9
$ANGDIR
 70
     0
  9
$PDMODE
 70
     0
  9
$PDSIZE
 40
0.0
  9
$PLINEWID
 40
0.0
  9
$SPLFRAME
 70
     0
  9
$SPLINETYPE
 70
     6
  9
$SPLINESEGS
 70
     8
  9
$HANDSEED
  5
B02
  9
$SURFTAB1
 70
     6
  9
$SURFTAB2
 70
     6
  9
$SURFTYPE
 70
     6
  9
$SURFU
 70
     6
  9
$SURFV
 70
     6
  9
$UCSBASE
  2

  9
$UCSNAME
  2

  9
$UCSORG
 10
0.0
 20
0.0
 30
0.0
  9
$UCSXDIR
 10
1.0
 20
0.0
 30
0.0
  9
$UCSYDIR
 10
0.0
 20
1.0
 30
0.0
  9
$UCSORTHOREF
  2

  9
$UCSORTHOVIEW
 70
     0
  9
$UCSORGTOP
 10
0.0
 20
0.0
 30
0.0
  9
$UCSORGBOTTOM
 10
0.0
 20
0.0
 30
0.0
  9
$UCSORGLEFT
 10
0.0
 20
0.0
 30
0.0
  9
$UCSORGRIGHT
 10
0.0
 20
0.0
 30
0.0
  9
$UCSORGFRONT
 10
0.0
 20
0.0
 30
0.0
  9
$UCSORGBACK
 10
0.0
 20
0.0
 30
0.0
  9
$PUCSBASE
  2

  9
$PUCSNAME
  2

  9
$PUCSORG
 10
0.0
 20
0.0
 30
0.0
  9
$PUCSXDIR
 10
1.0
 20
0.0
 30
0.0
  9
$PUCSYDIR
 10
0.0
 20
1.0
 30
0.0
  9
$PUCSORTHOREF
  2

  9
$PUCSORTHOVIEW
 70
     0
  9
$PUCSORGTOP
 10
0.0
 20
0.0
 30
0.0
  9
$PUCSORGBOTTOM
 10
0.0
 20
0.0
 30
0.0
  9
$PUCSORGLEFT
 10
0.0
 20
0.0
 30
0.0
  9
$PUCSORGRIGHT
 10
0.0
 20
0.0
 30
0.0
  9
$PUCSORGFRONT
 10
0.0
 20
0.0
 30
0.0
  9
$PUCSORGBACK
 10
0.0
 20
0.0
 30
0.0
  9
$USERI1
 70
     0
  9
$USERI2
 70
     0
  9
$USERI3
 70
     0
  9
$USERI4
 70
     0
  9
$USERI5
 70
     0
  9
$USERR1
 40
0.0
  9
$USERR2
 40
0.0
  9
$USERR3
 40
0.0
  9
$USERR4
 40
0.0
  9
$USERR5
 40
0.0
  9
$WORLDVIEW
 70
     1
  9
$SHADEDGE
 70
     3
  9
$SHADEDIF
 70
    70
  9
$TILEMODE
 70
     1
  9
$MAXACTVP
 70
    64
  9
$PINSBASE
 10
0.0
 20
0.0
 30
0.0
  9
$PLIMCHECK
 70
     0
  9
$PEXTMIN
 10
-0.5
 20
-0.5
 30
-0.5
  9
$PEXTMAX
 10
5.0
 20
5.0
 30
5.0
  9
$PLIMMIN
 10
-0.5
 20
-0.5
  9
$PLIMMAX
 10
5.0
 20
5.0
  9
$UNITMODE
 70
     0
  9
$VISRETAIN
 70
     1
  9
$PLINEGEN
 70
     0
  9
$PSLTSCALE
 70
     1
  9
$TREEDEPTH
 70
  3020
  9
$CMLSTYLE
  2
Standard
  9
$CMLJUST
 70
     0
  9
$CMLSCALE
 40
1.0
  9
$PROXYGRAPHICS
 70
     1
  9
$MEASUREMENT
 70
     1
  9
$CELWEIGHT
370
    13
  9
$ENDCAPS
280
     0
  9
$JOINSTYLE
280
     0
  9
$LWDISPLAY
290
     0
  9
$INSUNITS
 70
     4
  9
$HYPERLINKBASE
  1

  9
$STYLESHEET
  1

  9
$XEDIT
290
     1
  9
$CEPSNTYPE
380
     0
  9
$PSTYLEMODE
290
     1
  9
$FINGERPRINTGUID
  2
{C212C86D-7E9C-4DAD-9735-2E4FCA5C7746}
  9
$VERSIONGUID
  2
{C4A066D1-BD25-674E-BB73-1A308D8A0C3C}
  9
$EXTNAMES
290
     1
  9
$PSVPSCALE
 40
0.0
  9
$OLESTARTUP
290
     0
  0
ENDSEC
  0
SECTION
  2
CLASSES
  0
CLASS
  1
ACDBDICTIONARYWDFLT
  2
AcDbDictionaryWithDefault
  3
ObjectDBX Classes
 90
        0
280
     0
281
     0
  0
CLASS
  1
VISUALSTYLE
  2
AcDbVisualStyle
  3
ObjectDBX Classes
 90
     4095
280
     0
281
     0
  0
CLASS
  1
MATERIAL
  2
AcDbMaterial
  3
ObjectDBX Classes
 90
     1153
280
     0
281
     0
  0
CLASS
  1
SCALE
  2
AcDbScale
  3
ObjectDBX Classes
 90
     1153
280
     0
281
     0
  0
CLASS
  1
TABLESTYLE
  2
AcDbTableStyle
  3
ObjectDBX Classes
 90
     4095
280
     0
281
     0
  0
CLASS
  1
MLEADERSTYLE
  2
AcDbMLeaderStyle
  3
ACDB_MLEADERSTYLE_CLASS
 90
     4095
280
     0
281
     0
  0
CLASS
  1
SUN
  2
AcDbSun
  3
SCENEOE
 90
    33921
280
     0
281
     0
  0
CLASS
  1
DIMASSOC
  2
AcDbDimAssoc
  3
"AcDbDimAssoc|Product Desc:     AcDim ARX App For Dimension|Company:          Autodesk, Inc.|WEB Address:      www.autodesk.com"
 90
        0
280
     0
281
     0
  0
CLASS
  1
DICTIONARYVAR
  2
AcDbDictionaryVar
  3
ObjectDBX Classes
 90
        0
280
     0
281
     0
  0
CLASS
  1
CELLSTYLEMAP
  2
AcDbCellStyleMap
  3
ObjectDBX Classes
 90
     1152
280
     0
281
     0
  0
CLASS
  1
ACDBSECTIONVIEWSTYLE
  2
AcDbSectionViewStyle
  3
ObjectDBX Classes
 90
     1025
280
     0
281
     0
  0
CLASS
  1
ACDBDETAILVIEWSTYLE
  2
AcDbDetailViewStyle
  3
ObjectDBX Classes
 90
     1025
280
     0
281
     0
  0
CLASS
  1
SORTENTSTABLE
  2
AcDbSortentsTable
  3
ObjectDBX Classes
 90
        0
280
     0
281
     0
  0
CLASS
  1
ACDBPLACEHOLDER
  2
AcDbPlaceHolder
  3
ObjectDBX Classes
 90
        0
280
     0
281
     0
  0
CLASS
  1
LAYOUT
  2
AcDbLayout
  3
ObjectDBX Classes
 90
        0
280
     0
281
     0
  0
ENDSEC
  0
SECTION
  2
TABLES
  0
TABLE
  2
VPORT
  5
8
330
0
100
AcDbSymbolTable
 70
    16
  0
VPORT
  5
29
330
8
100
AcDbSymbolTableRecord
100
AcDbViewportTableRecord
  2
*Active
 70
     0
 10
0.0
 20
0.0
 11
1.0
 21
1.0
 12
76.3974902040931
 22
33.47479006258613
 13
0.0
 23
0.0
 14
0.5
 24
0.5
 15
0.5
 25
0.5
 16
0.0
 26
0.0
 36
1.0
 17
0.0
 27
0.0
 37
0.0
 40
67.19451576707126
 41
2.283154121863799
 42
50.0
 43
788.88564
 44
-788.88564
 50
0.0
 51
0.0
 71
     0
 72
   100
 73
     1
 74
     3
 75
     0
 76
     0
 77
     0
 78
     0
281
     0
 65
     1
110
0.0
120
0.0
130
0.0
111
1.0
121
0.0
131
0.0
112
0.0
122
1.0
132
0.0
 79
     0
146
0.0
1001
ACAD_NAV_VCDISPLAY
1070
     3
  0
VPORT
  5
3BE
330
8
100
AcDbSymbolTableRecord
100
AcDbViewportTableRecord
  2
L1
 70
     0
 10
0.0
 20
0.0
 11
1.0
 21
1.0
 12
210.0
 22
148.401476
 13
0.0
 23
0.0
 14
0.5
 24
0.5
 15
0.5
 25
0.5
 16
0.0
 26
0.0
 36
1.0
 17
0.0
 27
0.0
 37
0.0
 40
219.339583
 41
0.080956
 42
50.0
 43
788.88564
 44
-788.88564
 50
0.0
 51
0.0
 71
     0
 72
   100
 73
     1
 74
     3
 75
     0
 76
     0
 77
     0
 78
     0
281
     0
 65
     1
110
0.0
120
0.0
130
0.0
111
1.0
121
0.0
131
0.0
112
0.0
122
1.0
132
0.0
 79
     0
146
0.0
  0
VPORT
  5
3BF
330
8
100
AcDbSymbolTableRecord
100
AcDbViewportTableRecord
  2
L2
 70
     0
 10
0.0
 20
0.0
 11
0.5
 21
1.0
 12
0.0
 22
0.0
 13
0.0
 23
0.0
 14
0.5
 24
0.5
 15
0.5
 25
0.5
 16
0.0
 26
-1.0
 36
0.0
 17
0.0
 27
0.0
 37
0.0
 40
1561.030612
 41
0.011375
 42
50.0
 43
807.984261
 44
-807.984261
 50
0.0
 51
0.0
 71
     0
 72
   100
 73
     1
 74
     3
 75
     0
 76
     0
 77
     0
 78
     0
281
     0
 65
     1
110
0.0
120
0.0
130
0.0
111
1.0
121
0.0
131
0.0
112
0.0
122
1.0
132
0.0
 79
     0
146
0.0
  0
VPORT
  5
3C0
330
8
100
AcDbSymbolTableRecord
100
AcDbViewportTableRecord
  2
L2
 70
     0
 10
0.5
 20
0.0
 11
1.0
 21
1.0
 12
0.0
 22
0.0
 13
0.0
 23
0.0
 14
0.5
 24
0.5
 15
0.5
 25
0.5
 16
1.0
 26
0.0
 36
0.0
 17
0.0
 27
0.0
 37
0.0
 40
1561.030612
 41
0.011375
 42
50.0
 43
788.18247
 44
-788.18247
 50
0.0
 51
0.0
 71
     0
 72
   100
 73
     1
 74
     3
 75
     0
 76
     0
 77
     0
 78
     0
281
     0
 65
     1
110
0.0
120
0.0
130
0.0
111
1.0
121
0.0
131
0.0
112
0.0
122
1.0
132
0.0
 79
     0
146
0.0
  0
VPORT
  5
3C1
330
8
100
AcDbSymbolTableRecord
100
AcDbViewportTableRecord
  2
L3
 70
     0
 10
0.0
 20
0.5
 11
1.0
 21
1.0
 12
210.0
 22
148.401476
 13
0.0
 23
0.0
 14
0.5
 24
0.5
 15
0.5
 25
0.5
 16
0.0
 26
0.0
 36
1.0
 17
0.0
 27
0.0
 37
0.0
 40
219.339583
 41
0.080956
 42
50.0
 43
788.88564
 44
-788.88564
 50
0.0
 51
0.0
 71
     0
 72
   100
 73
     1
 74
     3
 75
     0
 76
     0
 77
     0
 78
     0
281
     0
 65
     1
110
0.0
120
0.0
130
0.0
111
1.0
121
0.0
131
0.0
112
0.0
122
1.0
132
0.0
 79
     0
146
0.0
  0
VPORT
  5
3C2
330
8
100
AcDbSymbolTableRecord
100
AcDbViewportTableRecord
  2
L3
 70
     0
 10
0.0
 20
0.0
 11
1.0
 21
0.5
 12
0.0
 22
0.0
 13
0.0
 23
0.0
 14
0.5
 24
0.5
 15
0.5
 25
0.5
 16
0.0
 26
-1.0
 36
0.0
 17
0.0
 27
0.0
 37
0.0
 40
1561.030612
 41
0.011375
 42
50.0
 43
807.984261
 44
-807.984261
 50
0.0
 51
0.0
 71
     0
 72
   100
 73
     1
 74
     3
 75
     0
 76
     0
 77
     0
 78
     0
281
     0
 65
     1
110
0.0
120
0.0
130
0.0
111
1.0
121
0.0
131
0.0
112
0.0
122
1.0
132
0.0
 79
     0
146
0.0
  0
VPORT
  5
3C3
330
8
100
AcDbSymbolTableRecord
100
AcDbViewportTableRecord
  2
L4
 70
     0
 10
0.0
 20
0.5
 11
0.5
 21
1.0
 12
210.0
 22
148.401476
 13
0.0
 23
0.0
 14
0.5
 24
0.5
 15
0.5
 25
0.5
 16
0.0
 26
0.0
 36
1.0
 17
0.0
 27
0.0
 37
0.0
 40
219.339583
 41
0.080956
 42
50.0
 43
788.88564
 44
-788.88564
 50
0.0
 51
0.0
 71
     0
 72
   100
 73
     1
 74
     3
 75
     0
 76
     0
 77
     0
 78
     0
281
     0
 65
     1
110
0.0
120
0.0
130
0.0
111
1.0
121
0.0
131
0.0
112
0.0
122
1.0
132
0.0
 79
     0
146
0.0
  0
VPORT
  5
3C4
330
8
100
AcDbSymbolTableRecord
100
AcDbViewportTableRecord
  2
L4
 70
     0
 10
0.0
 20
0.0
 11
0.5
 21
0.5
 12
0.0
 22
0.0
 13
0.0
 23
0.0
 14
0.5
 24
0.5
 15
0.5
 25
0.5
 16
0.0
 26
-1.0
 36
0.0
 17
0.0
 27
0.0
 37
0.0
 40
1561.030612
 41
0.011375
 42
50.0
 43
807.984261
 44
-807.984261
 50
0.0
 51
0.0
 71
     0
 72
   100
 73
     1
 74
     3
 75
     0
 76
     0
 77
     0
 78
     0
281
     0
 65
     1
110
0.0
120
0.0
130
0.0
111
1.0
121
0.0
131
0.0
112
0.0
122
1.0
132
0.0
 79
     0
146
0.0
  0
VPORT
  5
3C5
330
8
100
AcDbSymbolTableRecord
100
AcDbViewportTableRecord
  2
L4
 70
     0
 10
0.5
 20
0.0
 11
1.0
 21
0.5
 12
0.0
 22
0.0
 13
0.0
 23
0.0
 14
0.5
 24
0.5
 15
0.5
 25
0.5
 16
1.0
 26
0.0
 36
0.0
 17
0.0
 27
0.0
 37
0.0
 40
1561.030612
 41
0.011375
 42
50.0
 43
788.18247
 44
-788.18247
 50
0.0
 51
0.0
 71
     0
 72
   100
 73
     1
 74
     3
 75
     0
 76
     0
 77
     0
 78
     0
281
     0
 65
     1
110
0.0
120
0.0
130
0.0
111
1.0
121
0.0
131
0.0
112
0.0
122
1.0
132
0.0
 79
     0
146
0.0
  0
VPORT
  5
3C6
330
8
100
AcDbSymbolTableRecord
100
AcDbViewportTableRecord
  2
L4
 70
     0
 10
0.5
 20
0.5
 11
1.0
 21
1.0
 12
0.0
 22
0.0
 13
0.0
 23
0.0
 14
0.5
 24
0.5
 15
0.5
 25
0.5
 16
0.5773502691896259
 26
-0.5773502691896259
 36
0.5773502691896259
 17
0.0
 27
0.0
 37
0.0
 40
1534.677948
 41
0.01157
 42
50.0
 43
799.7179539999999
 44
-799.7179539999999
 50
0.0
 51
0.0
 71
     0
 72
   100
 73
     1
 74
     3
 75
     0
 76
     0
 77
     0
 78
     0
281
     0
 65
     1
110
0.0
120
0.0
130
0.0
111
1.0
121
0.0
131
0.0
112
0.0
122
1.0
132
0.0
 79
     0
146
0.0
  0
VPORT
  5
3C7
330
8
100
AcDbSymbolTableRecord
100
AcDbViewportTableRecord
  2
L6
 70
     0
 10
0.0
 20
0.5
 11
0.333333
 21
1.0
 12
0.0
 22
0.0
 13
0.0
 23
0.0
 14
0.5
 24
0.5
 15
0.5
 25
0.5
 16
0.7188730927569434
 26
-0.5850486126764433
 36
0.3754192287502549
 17
0.0
 27
0.0
 37
0.0
 40
1620.473525
 41
0.010958
 42
50.0
 43
838.7703209999999
 44
-838.7703209999999
 50
0.0
 51
0.0
 71
     0
 72
   100
 73
     1
 74
     3
 75
     0
 76
     0
 77
     0
 78
     0
281
     0
 65
     1
110
0.0
120
0.0
130
0.0
111
1.0
121
0.0
131
0.0
112
0.0
122
1.0
132
0.0
 79
     0
146
0.0
  0
VPORT
  5
3C8
330
8
100
AcDbSymbolTableRecord
100
AcDbViewportTableRecord
  2
L6
 70
     0
 10
0.0
 20
0.0
 11
0.333333
 21
0.5
 12
0.0
 22
0.0
 13
0.0
 23
0.0
 14
0.5
 24
0.5
 15
0.5
 25
0.5
 16
-1.0
 26
0.0
 36
0.0
 17
0.0
 27
0.0
 37
0.0
 40
1561.030612
 41
0.011375
 42
50.0
 43
788.18247
 44
-788.18247
 50
0.0
 51
0.0
 71
     0
 72
   100
 73
     1
 74
     3
 75
     0
 76
     0
 77
     0
 78
     0
281
     0
 65
     1
110
0.0
120
0.0
130
0.0
111
1.0
121
0.0
131
0.0
112
0.0
122
1.0
132
0.0
 79
     0
146
0.0
  0
VPORT
  5
3C9
330
8
100
AcDbSymbolTableRecord
100
AcDbViewportTableRecord
  2
L6
 70
     0
 10
0.333333
 20
0.5
 11
0.666667
 21
1.0
 12
210.0
 22
148.401476
 13
0.0
 23
0.0
 14
0.5
 24
0.5
 15
0.5
 25
0.5
 16
0.0
 26
0.0
 36
1.0
 17
0.0
 27
0.0
 37
0.0
 40
219.339583
 41
0.080956
 42
50.0
 43
788.88564
 44
-788.88564
 50
0.0
 51
0.0
 71
     0
 72
   100
 73
     1
 74
     3
 75
     0
 76
     0
 77
     0
 78
     0
281
     0
 65
     1
110
0.0
120
0.0
130
0.0
111
1.0
121
0.0
131
0.0
112
0.0
122
1.0
132
0.0
 79
     0
146
0.0
  0
VPORT
  5
3CA
330
8
100
AcDbSymbolTableRecord
100
AcDbViewportTableRecord
  2
L6
 70
     0
 10
0.333333
 20
0.0
 11
0.666667
 21
0.5
 12
0.0
 22
0.0
 13
0.0
 23
0.0
 14
0.5
 24
0.5
 15
0.5
 25
0.5
 16
0.0
 26
-1.0
 36
0.0
 17
0.0
 27
0.0
 37
0.0
 40
1561.030612
 41
0.011375
 42
50.0
 43
807.984261
 44
-807.984261
 50
0.0
 51
0.0
 71
     0
 72
   100
 73
     1
 74
     3
 75
     0
 76
     0
 77
     0
 78
     0
281
     0
 65
     1
110
0.0
120
0.0
130
0.0
111
1.0
121
0.0
131
0.0
112
0.0
122
1.0
132
0.0
 79
     0
146
0.0
  0
VPORT
  5
3CB
330
8
100
AcDbSymbolTableRecord
100
AcDbViewportTableRecord
  2
L6
 70
     0
 10
0.666667
 20
0.5
 11
1.0
 21
1.0
 12
0.0
 22
0.0
 13
0.0
 23
0.0
 14
0.5
 24
0.5
 15
0.5
 25
0.5
 16
0.5773502691896259
 26
-0.5773502691896259
 36
0.5773502691896259
 17
0.0
 27
0.0
 37
0.0
 40
1534.677948
 41
0.01157
 42
50.0
 43
799.7179539999999
 44
-799.7179539999999
 50
0.0
 51
0.0
 71
     0
 72
   100
 73
     1
 74
     3
 75
     0
 76
     0
 77
     0
 78
     0
281
     0
 65
     1
110
0.0
120
0.0
130
0.0
111
1.0
121
0.0
131
0.0
112
0.0
122
1.0
132
0.0
 79
     0
146
0.0
  0
VPORT
  5
3CC
330
8
100
AcDbSymbolTableRecord
100
AcDbViewportTableRecord
  2
L6
 70
     0
 10
0.666667
 20
0.0
 11
1.0
 21
0.5
 12
0.0
 22
0.0
 13
0.0
 23
0.0
 14
0.5
 24
0.5
 15
0.5
 25
0.5
 16
1.0
 26
0.0
 36
0.0
 17
0.0
 27
0.0
 37
0.0
 40
1561.030612
 41
0.011375
 42
50.0
 43
788.18247
 44
-788.18247
 50
0.0
 51
0.0
 71
     0
 72
   100
 73
     1
 74
     3
 75
     0
 76
     0
 77
     0
 78
     0
281
     0
 65
     1
110
0.0
120
0.0
130
0.0
111
1.0
121
0.0
131
0.0
112
0.0
122
1.0
132
0.0
 79
     0
146
0.0
  0
ENDTAB
  0
TABLE
  2
LTYPE
  5
5
330
0
100
AcDbSymbolTable
 70
     8
  0
LTYPE
  5
14
330
5
100
AcDbSymbolTableRecord
100
AcDbLinetypeTableRecord
  2
ByBlock
 70
     0
  3

 72
    65
 73
     0
 40
0.0
  0
LTYPE
  5
15
330
5
100
AcDbSymbolTableRecord
100
AcDbLinetypeTableRecord
  2
ByLayer
 70
     0
  3

 72
    65
 73
     0
 40
0.0
  0
LTYPE
  5
16
330
5
100
AcDbSymbolTableRecord
100
AcDbLinetypeTableRecord
  2
Continuous
 70
     0
  3
Solid line
 72
    65
 73
     0
 40
0.0
  0
LTYPE
  5
6E
330
5
100
AcDbSymbolTableRecord
100
AcDbLinetypeTableRecord
  2
CENTER
 70
     0
  3
____ _ ____ _ ____ _ ____
 72
    65
 73
     4
 40
47.4
 49
22.0
 74
     4
 75
     0
340
0
 46
0.0
 50
0.0
 44
0.0
 45
0.0
 49
-8.5
 74
     4
 75
     0
340
0
 46
0.0
 50
0.0
 44
0.0
 45
0.0
 49
8.5
 74
     4
 75
     0
340
0
 46
0.0
 50
0.0
 44
0.0
 45
0.0
 49
-8.5
 74
     4
 75
     0
340
0
 46
0.0
 50
0.0
 44
0.0
 45
0.0
  0
LTYPE
  5
6F
330
5
100
AcDbSymbolTableRecord
100
AcDbLinetypeTableRecord
  2
DASHDOT
 70
     0
  3
_._._._._._._._._._._._._._._._.
 72
    65
 73
     4
 40
70.0
 49
31.0
 74
     4
 75
     0
340
0
 46
0.0
 50
0.0
 44
0.0
 45
0.0
 49
-13.0
 74
     4
 75
     0
340
0
 46
0.0
 50
0.0
 44
0.0
 45
0.0
 49
13.0
 74
     4
 75
     0
340
0
 46
0.0
 50
0.0
 44
0.0
 45
0.0
 49
-13.0
 74
     4
 75
     0
340
0
 46
0.0
 50
0.0
 44
0.0
 45
0.0
  0
LTYPE
  5
70
330
5
100
AcDbSymbolTableRecord
100
AcDbLinetypeTableRecord
  2
DASHED
 70
     0
  3
__ __ __ __ __ __ __ __ __
 72
    65
 73
     2
 40
25.72
 49
12.86
 74
     4
 75
     0
340
0
 46
0.0
 50
0.0
 44
0.0
 45
0.0
 49
-12.86
 74
     4
 75
     0
340
0
 46
0.0
 50
0.0
 44
0.0
 45
0.0
  0
LTYPE
  5
71
330
5
100
AcDbSymbolTableRecord
100
AcDbLinetypeTableRecord
  2
DOT
 70
     0
  3
.........................
 72
    65
 73
     2
 40
10.0
 49
0.0
 74
     4
 75
     0
340
0
 46
0.0
 50
0.0
 44
0.0
 45
0.0
 49
-10.0
 74
     4
 75
     0
340
0
 46
0.0
 50
0.0
 44
0.0
 45
0.0
  0
LTYPE
  5
72
330
5
100
AcDbSymbolTableRecord
100
AcDbLinetypeTableRecord
  2
PHANTOM
 70
     0
  3
____ _ _ ____ _ _ _____ _ _ ____
 72
    65
 73
     6
 40
50.5
 49
18.0
 74
     4
 75
     0
340
0
 46
0.0
 50
0.0
 44
0.0
 45
0.0
 49
-6.5
 74
     4
 75
     0
340
0
 46
0.0
 50
0.0
 44
0.0
 45
0.0
 49
6.5
 74
     4
 75
     0
340
0
 46
0.0
 50
0.0
 44
0.0
 45
0.0
 49
-6.5
 74
     4
 75
     0
340
0
 46
0.0
 50
0.0
 44
0.0
 45
0.0
 49
6.5
 74
     4
 75
     0
340
0
 46
0.0
 50
0.0
 44
0.0
 45
0.0
 49
-6.5
 74
     4
 75
     0
340
0
 46
0.0
 50
0.0
 44
0.0
 45
0.0
  0
ENDTAB
  0
TABLE
  2
LAYER
  5
2
330
0
100
AcDbSymbolTable
 70
    14
  0
LAYER
  5
10
102
{ACAD_XDICTIONARY
360
AA2
102
}
330
2
100
AcDbSymbolTableRecord
100
AcDbLayerTableRecord
  2
0
 70
     0
 62
     7
  6
Continuous
370
    -3
390
F
  0
LAYER
  5
74
102
{ACAD_XDICTIONARY
360
AA4
102
}
330
2
100
AcDbSymbolTableRecord
100
AcDbLayerTableRecord
  2
250
 70
     0
 62
     7
  6
Continuous
370
    -3
390
F
  0
LAYER
  5
76
102
{ACAD_XDICTIONARY
360
AA6
102
}
330
2
100
AcDbSymbolTableRecord
100
AcDbLayerTableRecord
  2
41
 70
     0
 62
     7
  6
Continuous
370
    -3
390
F
  0
LAYER
  5
89
102
{ACAD_XDICTIONARY
360
AA8
102
}
330
2
100
AcDbSymbolTableRecord
100
AcDbLayerTableRecord
  2
10
 70
     0
 62
     7
  6
Continuous
370
    -3
390
F
  0
LAYER
  5
8D
102
{ACAD_XDICTIONARY
360
AAA
102
}
330
2
100
AcDbSymbolTableRecord
100
AcDbLayerTableRecord
  2
15
 70
     0
 62
     7
  6
Continuous
370
    -3
390
F
  0
LAYER
  5
9A
102
{ACAD_XDICTIONARY
360
AAC
102
}
330
2
100
AcDbSymbolTableRecord
100
AcDbLayerTableRecord
  2
16
 70
     0
 62
     7
  6
Continuous
370
    -3
390
F
  0
LAYER
  5
1BA
330
2
100
AcDbSymbolTableRecord
100
AcDbLayerTableRecord
  2
Defpoints
 70
     0
 62
     7
  6
Continuous
290
     0
370
    -3
390
F
  0
LAYER
  5
49E
102
{ACAD_XDICTIONARY
360
AAE
102
}
330
2
100
AcDbSymbolTableRecord
100
AcDbLayerTableRecord
  2
1
 70
     0
 62
     4
  6
Continuous
370
    -3
390
F
1001
AcAecLayerStandard
1000

1000

1001
AcCmTransparency
1071
        0
  0
LAYER
  5
4A1
102
{ACAD_XDICTIONARY
360
AB0
102
}
330
2
100
AcDbSymbolTableRecord
100
AcDbLayerTableRecord
  2
2
 70
     0
 62
     7
  6
Continuous
370
    -3
390
F
1001
AcAecLayerStandard
1000

1000

1001
AcCmTransparency
1071
        0
  0
LAYER
  5
4A2
102
{ACAD_XDICTIONARY
360
AB2
102
}
330
2
100
AcDbSymbolTableRecord
100
AcDbLayerTableRecord
  2
SK1
 70
     0
 62
     4
  6
Continuous
370
    -3
390
F
1001
AcAecLayerStandard
1000

1000

1001
AcCmTransparency
1071
        0
  0
LAYER
  5
4A3
102
{ACAD_XDICTIONARY
360
AB4
102
}
330
2
100
AcDbSymbolTableRecord
100
AcDbLayerTableRecord
  2
SK2
 70
     0
 62
     7
  6
Continuous
370
    -3
390
F
1001
AcAecLayerStandard
1000

1000

1001
AcCmTransparency
1071
        0
  0
LAYER
  5
4A4
102
{ACAD_XDICTIONARY
360
AB6
102
}
330
2
100
AcDbSymbolTableRecord
100
AcDbLayerTableRecord
  2
SK6
 70
     0
 62
     5
  6
Continuous
370
    -3
390
F
1001
AcAecLayerStandard
1000

1000

1001
AcCmTransparency
1071
        0
  0
LAYER
  5
4A5
102
{ACAD_XDICTIONARY
360
AB8
102
}
330
2
100
AcDbSymbolTableRecord
100
AcDbLayerTableRecord
  2
CUT
 70
     0
 62
     1
  6
Continuous
370
    -3
390
F
1001
AcAecLayerStandard
1000

1000

1001
AcCmTransparency
1071
        0
  0
LAYER
  5
4A6
102
{ACAD_XDICTIONARY
360
ABA
102
}
330
2
100
AcDbSymbolTableRecord
100
AcDbLayerTableRecord
  2
NOCUT
 70
     0
 62
     7
  6
Continuous
370
    -3
390
F
1001
AcAecLayerStandard
1000

1000

1001
AcCmTransparency
1071
        0
  0
ENDTAB
  0
TABLE
  2
STYLE
  5
3
330
0
100
AcDbSymbolTable
 70
     4
  0
STYLE
  5
11
330
3
100
AcDbSymbolTableRecord
100
AcDbTextStyleTableRecord
  2
Standard
 70
     0
 40
0.0
 41
1.0
 50
0.0
 71
     0
 42
0.2
  3
txt
  4

  0
STYLE
  5
18E
330
3
100
AcDbSymbolTableRecord
100
AcDbTextStyleTableRecord
  2
iso_b_vert
 70
     0
 40
0.0
 41
1.0
 50
0.0
 71
     0
 42
0.2
  3
simplex.shx
  4

  0
STYLE
  5
18F
330
3
100
AcDbSymbolTableRecord
100
AcDbTextStyleTableRecord
  2
DWGDirectTextStyle
 70
     0
 40
0.0
 41
1.0
 50
0.0
 71
     0
 42
0.2
  3
simplex
  4

  0
STYLE
  5
1A6
330
3
100
AcDbSymbolTableRecord
100
AcDbTextStyleTableRecord
  2
blockfont
 70
     0
 40
0.0
 41
1.0
 50
0.0
 71
     0
 42
0.2
  3
simplex.shx
  4

  0
ENDTAB
  0
TABLE
  2
VIEW
  5
6
330
0
100
AcDbSymbolTable
 70
     0
  0
ENDTAB
  0
TABLE
  2
UCS
  5
7
330
0
100
AcDbSymbolTable
 70
     0
  0
ENDTAB
  0
TABLE
  2
APPID
  5
9
330
0
100
AcDbSymbolTable
 70
    12
  0
APPID
  5
12
330
9
100
AcDbSymbolTableRecord
100
AcDbRegAppTableRecord
  2
ACAD
 70
     0
  0
APPID
  5
1B6
330
9
100
AcDbSymbolTableRecord
100
AcDbRegAppTableRecord
  2
ACAD_DSTYLE_DIMBREAK
 70
     0
  0
APPID
  5
234
330
9
100
AcDbSymbolTableRecord
100
AcDbRegAppTableRecord
  2
ACAD_DSTYLE_DIMANGULAR_EXTENSION
 70
     0
  0
APPID
  5
3CD
330
9
100
AcDbSymbolTableRecord
100
AcDbRegAppTableRecord
  2
ACAD_DSTYLE_DIM_LINETYPE
 70
     0
  0
APPID
  5
3CE
330
9
100
AcDbSymbolTableRecord
100
AcDbRegAppTableRecord
  2
ACAD_DSTYLE_DIM_EXT1_LINETYPE
 70
     0
  0
APPID
  5
3CF
330
9
100
AcDbSymbolTableRecord
100
AcDbRegAppTableRecord
  2
ACAD_DSTYLE_DIM_EXT2_LINETYPE
 70
     0
  0
APPID
  5
40F
330
9
100
AcDbSymbolTableRecord
100
AcDbRegAppTableRecord
  2
ACAD_MLEADERVER
 70
     0
  0
APPID
  5
46F
330
9
100
AcDbSymbolTableRecord
100
AcDbRegAppTableRecord
  2
AcadAnnoMonitorAlertIconDisabled
 70
     0
  0
APPID
  5
470
330
9
100
AcDbSymbolTableRecord
100
AcDbRegAppTableRecord
  2
ACAD_EXEMPT_FROM_CAD_STANDARDS
 70
     0
  0
APPID
  5
49F
330
9
100
AcDbSymbolTableRecord
100
AcDbRegAppTableRecord
  2
AcAecLayerStandard
 70
     0
  0
APPID
  5
4A0
330
9
100
AcDbSymbolTableRecord
100
AcDbRegAppTableRecord
  2
AcCmTransparency
 70
     0
  0
APPID
  5
AC3
330
9
100
AcDbSymbolTableRecord
100
AcDbRegAppTableRecord
  2
ACAD_NAV_VCDISPLAY
 70
     0
  0
ENDTAB
  0
TABLE
  2
DIMSTYLE
  5
A
330
0
100
AcDbSymbolTable
 70
     2
100
AcDbDimStyleTable
 71
     1
340
27
  0
DIMSTYLE
105
27
102
{ACAD_REACTORS
330
1B7
330
203
330
21B
330
233
102
}
330
A
100
AcDbSymbolTableRecord
100
AcDbDimStyleTableRecord
  2
Standard
 70
     0
340
11
1001
ACAD_DSTYLE_DIMBREAK
1070
   391
1040
6.349999999999999
  0
ENDTAB
  0
TABLE
  2
BLOCK_RECORD
  5
1
330
0
100
AcDbSymbolTable
 70
    27
  0
BLOCK_RECORD
  5
1F
102
{ACAD_XDICTIONARY
360
7FD
102
}
330
1
100
AcDbSymbolTableRecord
100
AcDbBlockTableRecord
  2
*Model_Space
340
22
  0
BLOCK_RECORD
  5
1B
330
1
100
AcDbSymbolTableRecord
100
AcDbBlockTableRecord
  2
*Paper_Space
340
1E
  0
BLOCK_RECORD
  5
23
330
1
100
AcDbSymbolTableRecord
100
AcDbBlockTableRecord
  2
*Paper_Space0
340
26
  0
BLOCK_RECORD
  5
188
330
1
100
AcDbSymbolTableRecord
100
AcDbBlockTableRecord
  2
LABLE3D_1
340
0
  0
BLOCK_RECORD
  5
193
330
1
100
AcDbSymbolTableRecord
100
AcDbBlockTableRecord
  2
LABLE3D_2
340
0
  0
BLOCK_RECORD
  5
19C
330
1
100
AcDbSymbolTableRecord
100
AcDbBlockTableRecord
  2
LABLE3D_3
340
0
  0
BLOCK_RECORD
  5
1BB
330
1
100
AcDbSymbolTableRecord
100
AcDbBlockTableRecord
  2
*D4
340
0
  0
BLOCK_RECORD
  5
1C8
330
1
100
AcDbSymbolTableRecord
100
AcDbBlockTableRecord
  2
_U0
340
0
  0
BLOCK_RECORD
  5
1D4
330
1
100
AcDbSymbolTableRecord
100
AcDbBlockTableRecord
  2
*D6
340
0
  0
BLOCK_RECORD
  5
1E0
330
1
100
AcDbSymbolTableRecord
100
AcDbBlockTableRecord
  2
_U1
340
0
  0
BLOCK_RECORD
  5
1ED
330
1
100
AcDbSymbolTableRecord
100
AcDbBlockTableRecord
  2
*D8
340
0
  0
BLOCK_RECORD
  5
1F9
330
1
100
AcDbSymbolTableRecord
100
AcDbBlockTableRecord
  2
_U2
340
0
  0
BLOCK_RECORD
  5
206
330
1
100
AcDbSymbolTableRecord
100
AcDbBlockTableRecord
  2
*D10
340
0
  0
BLOCK_RECORD
  5
212
330
1
100
AcDbSymbolTableRecord
100
AcDbBlockTableRecord
  2
_U3
340
0
  0
BLOCK_RECORD
  5
21E
330
1
100
AcDbSymbolTableRecord
100
AcDbBlockTableRecord
  2
*D12
340
0
  0
BLOCK_RECORD
  5
22A
330
1
100
AcDbSymbolTableRecord
100
AcDbBlockTableRecord
  2
_U4
340
0
  0
BLOCK_RECORD
  5
237
330
1
100
AcDbSymbolTableRecord
100
AcDbBlockTableRecord
  2
*D14
340
0
  0
BLOCK_RECORD
  5
245
330
1
100
AcDbSymbolTableRecord
100
AcDbBlockTableRecord
  2
_U5
340
0
  0
BLOCK_RECORD
  5
251
330
1
100
AcDbSymbolTableRecord
100
AcDbBlockTableRecord
  2
*D16
340
0
  0
BLOCK_RECORD
  5
25D
330
1
100
AcDbSymbolTableRecord
100
AcDbBlockTableRecord
  2
_U6
340
0
  0
BLOCK_RECORD
  5
268
330
1
100
AcDbSymbolTableRecord
100
AcDbBlockTableRecord
  2
TabularNote1
340
0
  0
BLOCK_RECORD
  5
289
330
1
100
AcDbSymbolTableRecord
100
AcDbBlockTableRecord
  2
TabularNote2
340
0
  0
BLOCK_RECORD
  5
2CB
330
1
100
AcDbSymbolTableRecord
100
AcDbBlockTableRecord
  2
TabularNote3
340
0
  0
BLOCK_RECORD
  5
2FB
330
1
100
AcDbSymbolTableRecord
100
AcDbBlockTableRecord
  2
TOL_TABLE
340
0
  0
BLOCK_RECORD
  5
33D
330
1
100
AcDbSymbolTableRecord
100
AcDbBlockTableRecord
  2
MODIFICATION_TABLE
340
0
  0
BLOCK_RECORD
  5
361
330
1
100
AcDbSymbolTableRecord
100
AcDbBlockTableRecord
  2
BOM
340
0
  0
BLOCK_RECORD
  5
7DC
330
1
100
AcDbSymbolTableRecord
100
AcDbBlockTableRecord
  2
*D24
340
0
  0
BLOCK_RECORD
  5
7E8
330
1
100
AcDbSymbolTableRecord
100
AcDbBlockTableRecord
  2
*D25
340
0
  0
ENDTAB
  0
ENDSEC
  0
SECTION
  2
BLOCKS
  0
BLOCK
  5
20
330
1F
100
AcDbEntity
  8
0
100
AcDbBlockBegin
  2
*Model_Space
 70
     0
 10
0.0
 20
0.0
 30
0.0
  3
*Model_Space
  1

  0
ENDBLK
  5
21
330
1F
100
AcDbEntity
  8
0
100
AcDbBlockEnd
  0
BLOCK
  5
1C
330
1B
100
AcDbEntity
 67
     1
  8
0
100
AcDbBlockBegin
  2
*Paper_Space
 70
     0
 10
0.0
 20
0.0
 30
0.0
  3
*Paper_Space
  1

  0
ENDBLK
  5
1D
330
1B
100
AcDbEntity
 67
     1
  8
0
100
AcDbBlockEnd
  0
BLOCK
  5
24
330
23
100
AcDbEntity
 67
     1
  8
0
100
AcDbBlockBegin
  2
*Paper_Space0
 70
     0
 10
0.0
 20
0.0
 30
0.0
  3
*Paper_Space0
  1

  0
ENDBLK
  5
25
330
23
100
AcDbEntity
 67
     1
  8
0
100
AcDbBlockEnd
  0
BLOCK
  5
191
330
188
100
AcDbEntity
  8
0
100
AcDbBlockBegin
  2
LABLE3D_1
 70
     0
 10
51.773148
 20
69.02315
 30
0.0
  3
LABLE3D_1
  1

  0
MTEXT
  5
18D
330
188
100
AcDbEntity
  8
41
  6
Continuous
 62
     3
370
    18
100
AcDbMText
 10
49.09031999999999
 20
66.908264
 30
0.0
 40
3.0
 41
0.0
 71
     7
 72
     5
  1
\W0.6563;2
  7
iso_b_vert
 73
     2
 44
1.084337
1001
ACAD
1000
MTEXTBEGIN
1070
    73
1070
     2
1070
    44
1040
1.084337
1070
    74
1070
     0
1000
MTEXTEND
  0
ENDBLK
  5
192
330
188
100
AcDbEntity
  8
0
100
AcDbBlockEnd
  0
BLOCK
  5
19A
330
193
100
AcDbEntity
  8
0
100
AcDbBlockBegin
  2
LABLE3D_2
 70
     0
 10
52.848903
 20
56.43997800000001
 30
0.0
  3
LABLE3D_2
  1

  0
MTEXT
  5
198
330
193
100
AcDbEntity
  8
41
  6
Continuous
 62
     3
370
    18
100
AcDbMText
 10
50.166075
 20
54.32509200000001
 30
0.0
 40
3.0
 41
0.0
 71
     7
 72
     5
  1
\W0.6563;3
  7
iso_b_vert
 73
     2
 44
1.084337
1001
ACAD
1000
MTEXTBEGIN
1070
    73
1070
     2
1070
    44
1040
1.084337
1070
    74
1070
     0
1000
MTEXTEND
  0
ENDBLK
  5
19B
330
193
100
AcDbEntity
  8
0
100
AcDbBlockEnd
  0
BLOCK
  5
1A3
330
19C
100
AcDbEntity
  8
0
100
AcDbBlockBegin
  2
LABLE3D_3
 70
     0
 10
136.792244
 20
115.573423
 30
0.0
  3
LABLE3D_3
  1

  0
MTEXT
  5
1A1
330
19C
100
AcDbEntity
  8
41
  6
Continuous
 62
     3
370
    18
100
AcDbMText
 10
134.859302
 20
113.458538
 30
0.0
 40
3.0
 41
0.0
 71
     7
 72
     5
  1
\W0.7875;1
  7
iso_b_vert
 73
     2
 44
1.084337
1001
ACAD
1000
MTEXTBEGIN
1070
    73
1070
     2
1070
    44
1040
1.084337
1070
    74
1070
     0
1000
MTEXTEND
  0
ENDBLK
  5
1A4
330
19C
100
AcDbEntity
  8
0
100
AcDbBlockEnd
  0
BLOCK
  5
1BC
330
1BB
100
AcDbEntity
  8
0
100
AcDbBlockBegin
  2
*D4
 70
     1
 10
0.0
 20
0.0
 30
0.0
  3
*D4
  1

  0
LINE
  5
1BE
330
1BB
100
AcDbEntity
  8
0
 62
     4
370
    -2
100
AcDbLine
 10
288.760934
 20
184.834681
 30
0.0
 11
297.30761
 21
184.834681
 31
0.0
  0
LINE
  5
1BF
330
1BB
100
AcDbEntity
  8
0
 62
     4
370
    -2
100
AcDbLine
 10
288.760934
 20
172.834681
 30
0.0
 11
297.30761
 21
172.834681
 31
0.0
  0
LINE
  5
1C0
330
1BB
100
AcDbEntity
  8
0
 62
     4
370
    -2
100
AcDbLine
 10
295.30761
 20
188.009681
 30
0.0
 11
295.30761
 21
191.184681
 31
0.0
  0
LINE
  5
1C1
330
1BB
100
AcDbEntity
  8
0
 62
     4
370
    -2
100
AcDbLine
 10
295.30761
 20
169.659681
 30
0.0
 11
295.30761
 21
166.484681
 31
0.0
  0
SOLID
  5
1C2
330
1BB
100
AcDbEntity
  8
0
 62
     4
100
AcDbTrace
 10
294.778443
 20
188.009681
 30
0.0
 11
295.836776
 21
188.009681
 31
0.0
 12
295.30761
 22
184.834681
 32
0.0
 13
295.30761
 23
184.834681
 33
0.0
  0
SOLID
  5
1C3
330
1BB
100
AcDbEntity
  8
0
 62
     4
100
AcDbTrace
 10
295.836776
 20
169.659681
 30
0.0
 11
294.778443
 21
169.659681
 31
0.0
 12
295.30761
 22
172.834681
 32
0.0
 13
295.30761
 23
172.834681
 33
0.0
  0
MTEXT
  5
1C4
330
1BB
100
AcDbEntity
  8
0
 62
     3
370
    13
100
AcDbMText
 10
289.30761
 20
178.834681
 30
0.0
 40
3.0
 41
0.0
 71
     5
 72
     1
  1
\A1;12
  7
iso_b_vert
 11
0.0
 21
1.0
 31
0.0
 73
     1
 44
1.0
1001
ACAD
1000
MTEXTBEGIN
1070
    73
1070
     1
1070
    44
1040
1.0
1070
    74
1070
     0
1000
MTEXTEND
  0
POINT
  5
1C5
330
1BB
100
AcDbEntity
  8
Defpoints
 62
     0
100
AcDbPoint
 10
288.760934
 20
184.834681
 30
0.0
  0
POINT
  5
1C6
330
1BB
100
AcDbEntity
  8
Defpoints
 62
     0
100
AcDbPoint
 10
288.760934
 20
172.834681
 30
0.0
  0
POINT
  5
1C7
330
1BB
100
AcDbEntity
  8
Defpoints
 62
     0
100
AcDbPoint
 10
295.30761
 20
172.834681
 30
0.0
  0
ENDBLK
  5
1BD
330
1BB
100
AcDbEntity
  8
0
100
AcDbBlockEnd
  0
BLOCK
  5
1CF
330
1C8
100
AcDbEntity
  8
0
100
AcDbBlockBegin
  2
_U0
 70
     0
 10
0.0
 20
0.0
 30
0.0
  3
_U0
  1

  0
LINE
  5
A90
330
1C8
100
AcDbEntity
  8
SK2
  6
Continuous
 62
     7
370
    13
100
AcDbLine
 10
156.0805428221314
 20
43.05376965163212
 30
0.0
 11
164.6272188221314
 21
43.05376965163212
 31
0.0
  0
LINE
  5
A91
330
1C8
100
AcDbEntity
  8
SK2
  6
Continuous
 62
     7
370
    13
100
AcDbLine
 10
156.0805428221314
 20
31.05376965163213
 30
0.0
 11
164.6272188221314
 21
31.05376965163213
 31
0.0
  0
LINE
  5
A92
330
1C8
100
AcDbEntity
  8
SK2
  6
Continuous
 62
     7
370
    13
100
AcDbLine
 10
162.6272188221314
 20
39.87876965163213
 30
0.0
 11
162.6272188221314
 21
34.22876965163212
 31
0.0
  0
SOLID
  5
A93
330
1C8
100
AcDbEntity
  8
SK2
  6
Continuous
 62
     7
370
    13
100
AcDbTrace
 10
162.0980521554647
 20
39.87876965163213
 30
0.0
 11
163.1563854887981
 21
39.87876965163213
 31
0.0
 12
162.6272188221314
 22
43.05376965163212
 32
0.0
 13
162.6272188221314
 23
43.05376965163212
 33
0.0
  0
SOLID
  5
A94
330
1C8
100
AcDbEntity
  8
SK2
  6
Continuous
 62
     7
370
    13
100
AcDbTrace
 10
162.0980521554647
 20
34.22876965163212
 30
0.0
 11
163.1563854887981
 21
34.22876965163212
 31
0.0
 12
162.6272188221314
 22
31.05376965163213
 32
0.0
 13
162.6272188221314
 23
31.05376965163213
 33
0.0
  0
MTEXT
  5
A95
330
1C8
100
AcDbEntity
  8
SK2
  6
Continuous
 62
     7
370
    18
100
AcDbMText
 10
158.1272188221314
 20
34.91091250877496
 30
0.0
 40
3.0
 41
0.0
 71
     1
 72
     1
  1
\A1;12
  7
iso_b_vert
 11
0.0000000000000001
 21
1.0
 31
0.0
 73
     1
 44
1.0
1001
ACAD
1000
MTEXTBEGIN
1070
    73
1070
     1
1070
    44
1040
1.0
1070
    74
1070
     0
1000
MTEXTEND
  0
POINT
  5
A96
330
1C8
100
AcDbEntity
  8
Defpoints
  6
Continuous
 62
     0
370
    13
100
AcDbPoint
 10
156.0805428221314
 20
43.05376965163212
 30
0.0
  0
POINT
  5
A97
330
1C8
100
AcDbEntity
  8
Defpoints
  6
Continuous
 62
     0
370
    13
100
AcDbPoint
 10
156.0805428221314
 20
31.05376965163213
 30
0.0
  0
POINT
  5
A98
330
1C8
100
AcDbEntity
  8
Defpoints
  6
Continuous
 62
     0
370
    13
100
AcDbPoint
 10
162.6272188221314
 20
31.05376965163213
 30
0.0
  0
ENDBLK
  5
1D0
330
1C8
100
AcDbEntity
  8
0
100
AcDbBlockEnd
  0
BLOCK
  5
1D5
330
1D4
100
AcDbEntity
  8
0
100
AcDbBlockBegin
  2
*D6
 70
     1
 10
0.0
 20
0.0
 30
0.0
  3
*D6
  1

  0
LINE
  5
1D7
330
1D4
100
AcDbEntity
  8
0
  6
Continuous
 62
     4
370
    -2
100
AcDbLine
 10
172.459761
 20
235.039228
 30
0.0
 11
91.21025799999999
 21
235.039228
 31
0.0
  0
LINE
  5
1D8
330
1D4
100
AcDbEntity
  8
0
  6
Continuous
 62
     4
370
    -2
100
AcDbLine
 10
101.261383
 20
259.039228
 30
0.0
 11
91.21025799999999
 21
259.039228
 31
0.0
  0
LINE
  5
1D9
330
1D4
100
AcDbEntity
  8
0
  6
Continuous
 62
     4
370
    -2
100
AcDbLine
 10
93.21025799999999
 20
238.214228
 30
0.0
 11
93.21025799999999
 21
255.864228
 31
0.0
  0
SOLID
  5
1DA
330
1D4
100
AcDbEntity
  8
0
 62
     4
100
AcDbTrace
 10
92.68109100000001
 20
238.214228
 30
0.0
 11
93.739424
 21
238.214228
 31
0.0
 12
93.21025799999999
 22
235.039228
 32
0.0
 13
93.21025799999999
 23
235.039228
 33
0.0
  0
SOLID
  5
1DB
330
1D4
100
AcDbEntity
  8
0
 62
     4
100
AcDbTrace
 10
93.739424
 20
255.864228
 30
0.0
 11
92.68109100000001
 21
255.864228
 31
0.0
 12
93.21025799999999
 22
259.039228
 32
0.0
 13
93.21025799999999
 23
259.039228
 33
0.0
  0
MTEXT
  5
1DC
330
1D4
100
AcDbEntity
  8
0
 62
     3
370
    13
100
AcDbMText
 10
88.13882900000001
 20
238.039228
 30
0.0
 40
3.0
 41
0.0
 71
     1
 72
     1
  1
\A1;12%%p0,05
  7
iso_b_vert
 11
0.0
 21
1.0
 31
0.0
 73
     1
 44
1.0
1001
ACAD
1000
MTEXTBEGIN
1070
    73
1070
     1
1070
    44
1040
1.0
1070
    74
1070
     0
1000
MTEXTEND
  0
POINT
  5
1DD
330
1D4
100
AcDbEntity
  8
Defpoints
 62
     0
100
AcDbPoint
 10
172.459761
 20
235.039228
 30
0.0
  0
POINT
  5
1DE
330
1D4
100
AcDbEntity
  8
Defpoints
 62
     0
100
AcDbPoint
 10
101.261383
 20
259.039228
 30
0.0
  0
POINT
  5
1DF
330
1D4
100
AcDbEntity
  8
Defpoints
 62
     0
100
AcDbPoint
 10
93.21025799999999
 20
259.039228
 30
0.0
  0
ENDBLK
  5
1D6
330
1D4
100
AcDbEntity
  8
0
100
AcDbBlockEnd
  0
BLOCK
  5
1E8
330
1E0
100
AcDbEntity
  8
0
100
AcDbBlockBegin
  2
_U1
 70
     0
 10
0.0
 20
0.0
 30
0.0
  3
_U1
  1

  0
MTEXT
  5
1E1
330
1E0
100
AcDbEntity
  8
41
  6
Continuous
 62
     3
370
    18
100
AcDbMText
 10
92.619143
 20
238.865858
 30
0.0
 40
3.0
 41
0.0
 71
     7
 72
     5
  1
\W0.6563;12
  7
iso_b_vert
 11
0.0000000000000001
 21
1.0
 31
0.0
 73
     2
 44
0.9879520000000001
1001
ACAD
1000
MTEXTBEGIN
1070
    73
1070
     2
1070
    44
1040
0.9879520000000001
1070
    74
1070
     0
1000
MTEXTEND
  0
MTEXT
  5
1E2
330
1E0
100
AcDbEntity
  8
41
  6
Continuous
 62
     3
370
    18
100
AcDbMText
 10
92.619143
 20
244.699629
 30
0.0
 40
3.0
 41
0.0
 71
     7
 72
     5
  1
\W0.8385;\W0.4193;%%p\W0.8385;0,05
  7
iso_b_vert
 11
0.0000000000000001
 21
1.0
 31
0.0
 73
     2
 44
0.9879520000000001
1001
ACAD
1000
MTEXTBEGIN
1070
    73
1070
     2
1070
    44
1040
0.9879520000000001
1070
    74
1070
     0
1000
MTEXTEND
  0
LINE
  5
1E3
330
1E0
100
AcDbEntity
  8
41
 62
     4
370
    13
100
AcDbLine
 10
101.261383
 20
259.039228
 30
0.0
 11
91.21025799999999
 21
259.039228
 31
0.0
  0
LINE
  5
1E4
330
1E0
100
AcDbEntity
  8
41
 62
     4
370
    13
100
AcDbLine
 10
104.051234
 20
235.039228
 30
0.0
 11
91.21025799999999
 21
235.039228
 31
0.0
  0
LINE
  5
1E5
330
1E0
100
AcDbEntity
  8
41
 62
     4
370
    13
100
AcDbLine
 10
93.21025799999999
 20
259.039228
 30
0.0
 11
93.21025799999999
 21
235.039228
 31
0.0
  0
SOLID
  5
1E6
330
1E0
100
AcDbEntity
  8
41
 62
     4
370
    13
100
AcDbTrace
 10
93.21025799999999
 20
259.039228
 30
0.0
 11
93.628254
 21
255.86423
 31
0.0
 12
92.792261
 22
255.864227
 32
0.0
 13
92.792261
 23
255.864227
 33
0.0
  0
SOLID
  5
1E7
330
1E0
100
AcDbEntity
  8
41
 62
     4
370
    13
100
AcDbTrace
 10
93.21025799999999
 20
235.039228
 30
0.0
 11
92.792261
 21
238.214227
 31
0.0
 12
93.628254
 22
238.21423
 32
0.0
 13
93.628254
 23
238.21423
 33
0.0
  0
ENDBLK
  5
1E9
330
1E0
100
AcDbEntity
  8
0
100
AcDbBlockEnd
  0
BLOCK
  5
1EE
330
1ED
100
AcDbEntity
  8
0
100
AcDbBlockBegin
  2
*D8
 70
     1
 10
0.0
 20
0.0
 30
0.0
  3
*D8
  1

  0
LINE
  5
1F0
330
1ED
100
AcDbEntity
  8
0
  6
Continuous
 62
     4
370
    -2
100
AcDbLine
 10
351.261383
 20
235.039228
 30
0.0
 11
293.30761
 21
235.039228
 31
0.0
  0
LINE
  5
1F1
330
1ED
100
AcDbEntity
  8
0
  6
Continuous
 62
     4
370
    -2
100
AcDbLine
 10
351.261383
 20
259.039228
 30
0.0
 11
293.30761
 21
259.039228
 31
0.0
  0
LINE
  5
1F2
330
1ED
100
AcDbEntity
  8
0
  6
Continuous
 62
     4
370
    -2
100
AcDbLine
 10
295.30761
 20
238.214228
 30
0.0
 11
295.30761
 21
255.864228
 31
0.0
  0
SOLID
  5
1F3
330
1ED
100
AcDbEntity
  8
0
 62
     4
100
AcDbTrace
 10
294.778443
 20
238.214228
 30
0.0
 11
295.836776
 21
238.214228
 31
0.0
 12
295.30761
 22
235.039228
 32
0.0
 13
295.30761
 23
235.039228
 33
0.0
  0
SOLID
  5
1F4
330
1ED
100
AcDbEntity
  8
0
 62
     4
100
AcDbTrace
 10
295.836776
 20
255.864228
 30
0.0
 11
294.778443
 21
255.864228
 31
0.0
 12
295.30761
 22
259.039228
 32
0.0
 13
295.30761
 23
259.039228
 33
0.0
  0
MTEXT
  5
1F5
330
1ED
100
AcDbEntity
  8
0
 62
     3
370
    13
100
AcDbMText
 10
290.80761
 20
238.253514
 30
0.0
 40
3.0
 41
0.0
 71
     1
 72
     1
  1
\A1; 12 \C3;\H3.00;\Fsimplex.shx;h10\Fsimplex.shx;\H3.00;\C3;
  7
iso_b_vert
 11
0.0
 21
1.0
 31
0.0
 73
     1
 44
1.0
1001
ACAD
1000
MTEXTBEGIN
1070
    73
1070
     1
1070
    44
1040
1.0
1070
    74
1070
     0
1000
MTEXTEND
  0
POINT
  5
1F6
330
1ED
100
AcDbEntity
  8
Defpoints
 62
     0
100
AcDbPoint
 10
351.261383
 20
235.039228
 30
0.0
  0
POINT
  5
1F7
330
1ED
100
AcDbEntity
  8
Defpoints
 62
     0
100
AcDbPoint
 10
351.261383
 20
259.039228
 30
0.0
  0
POINT
  5
1F8
330
1ED
100
AcDbEntity
  8
Defpoints
 62
     0
100
AcDbPoint
 10
295.30761
 20
259.039228
 30
0.0
  0
ENDBLK
  5
1EF
330
1ED
100
AcDbEntity
  8
0
100
AcDbBlockEnd
  0
BLOCK
  5
201
330
1F9
100
AcDbEntity
  8
0
100
AcDbBlockBegin
  2
_U2
 70
     0
 10
0.0
 20
0.0
 30
0.0
  3
_U2
  1

  0
MTEXT
  5
1FA
330
1F9
100
AcDbEntity
  8
41
  6
Continuous
 62
     3
370
    18
100
AcDbMText
 10
294.716495
 20
241.719543
 30
0.0
 40
3.0
 41
0.0
 71
     7
 72
     5
  1
\W0.6563;12
  7
iso_b_vert
 11
0.0000000000000001
 21
1.0
 31
0.0
 73
     2
 44
0.9879520000000001
1001
ACAD
1000
MTEXTBEGIN
1070
    73
1070
     2
1070
    44
1040
0.9879520000000001
1070
    74
1070
     0
1000
MTEXTEND
  0
MTEXT
  5
1FB
330
1F9
100
AcDbEntity
  8
41
  6
Continuous
 62
     3
370
    18
100
AcDbMText
 10
294.716495
 20
247.553314
 30
0.0
 40
3.0
 41
0.0
 71
     7
 72
     5
  1
\W0.7232;h10
  7
iso_b_vert
 11
0.0000000000000001
 21
1.0
 31
0.0
 73
     2
 44
0.9879520000000001
1001
ACAD
1000
MTEXTBEGIN
1070
    73
1070
     2
1070
    44
1040
0.9879520000000001
1070
    74
1070
     0
1000
MTEXTEND
  0
LINE
  5
1FC
330
1F9
100
AcDbEntity
  8
41
 62
     4
370
    13
100
AcDbLine
 10
351.261383
 20
235.039228
 30
0.0
 11
293.30761
 21
235.039228
 31
0.0
  0
LINE
  5
1FD
330
1F9
100
AcDbEntity
  8
41
 62
     4
370
    13
100
AcDbLine
 10
351.261383
 20
259.039228
 30
0.0
 11
293.30761
 21
259.039228
 31
0.0
  0
LINE
  5
1FE
330
1F9
100
AcDbEntity
  8
41
 62
     4
370
    13
100
AcDbLine
 10
295.30761
 20
235.039228
 30
0.0
 11
295.30761
 21
259.039228
 31
0.0
  0
SOLID
  5
1FF
330
1F9
100
AcDbEntity
  8
41
 62
     4
370
    13
100
AcDbTrace
 10
295.30761
 20
235.039228
 30
0.0
 11
294.889613
 21
238.214227
 31
0.0
 12
295.725607
 22
238.21423
 32
0.0
 13
295.725607
 23
238.21423
 33
0.0
  0
SOLID
  5
200
330
1F9
100
AcDbEntity
  8
41
 62
     4
370
    13
100
AcDbTrace
 10
295.30761
 20
259.039228
 30
0.0
 11
295.725607
 21
255.86423
 31
0.0
 12
294.889613
 22
255.864227
 32
0.0
 13
294.889613
 23
255.864227
 33
0.0
  0
ENDBLK
  5
202
330
1F9
100
AcDbEntity
  8
0
100
AcDbBlockEnd
  0
BLOCK
  5
207
330
206
100
AcDbEntity
  8
0
100
AcDbBlockBegin
  2
*D10
 70
     1
 10
0.0
 20
0.0
 30
0.0
  3
*D10
  1

  0
LINE
  5
209
330
206
100
AcDbEntity
  8
0
 62
     4
370
    -2
100
AcDbLine
 10
288.760934
 20
174.905582
 30
0.0
 11
288.760934
 21
157.810409
 31
0.0
  0
LINE
  5
20A
330
206
100
AcDbEntity
  8
0
 62
     4
370
    -2
100
AcDbLine
 10
163.760934
 20
169.234681
 30
0.0
 11
163.760934
 21
157.810409
 31
0.0
  0
LINE
  5
20B
330
206
100
AcDbEntity
  8
0
 62
     4
370
    -2
100
AcDbLine
 10
285.585934
 20
159.810409
 30
0.0
 11
166.935934
 21
159.810409
 31
0.0
  0
SOLID
  5
20C
330
206
100
AcDbEntity
  8
0
 62
     4
100
AcDbTrace
 10
285.585934
 20
159.281242
 30
0.0
 11
285.585934
 21
160.339575
 31
0.0
 12
288.760934
 22
159.810409
 32
0.0
 13
288.760934
 23
159.810409
 33
0.0
  0
SOLID
  5
20D
330
206
100
AcDbEntity
  8
0
 62
     4
100
AcDbTrace
 10
166.935934
 20
160.339575
 30
0.0
 11
166.935934
 21
159.281242
 31
0.0
 12
163.760934
 22
159.810409
 32
0.0
 13
163.760934
 23
159.810409
 33
0.0
  0
MTEXT
  5
20E
330
206
100
AcDbEntity
  8
0
 62
     3
370
    13
100
AcDbMText
 10
226.260934
 20
165.810409
 30
0.0
 40
3.0
 41
0.0
 71
     5
 72
     1
  1
\A1;125
  7
iso_b_vert
 73
     1
 44
1.0
1001
ACAD
1000
MTEXTBEGIN
1070
    73
1070
     1
1070
    44
1040
1.0
1070
    74
1070
     0
1000
MTEXTEND
  0
POINT
  5
20F
330
206
100
AcDbEntity
  8
Defpoints
 62
     0
100
AcDbPoint
 10
288.760934
 20
174.905582
 30
0.0
  0
POINT
  5
210
330
206
100
AcDbEntity
  8
Defpoints
 62
     0
100
AcDbPoint
 10
163.760934
 20
169.234681
 30
0.0
  0
POINT
  5
211
330
206
100
AcDbEntity
  8
Defpoints
 62
     0
100
AcDbPoint
 10
163.760934
 20
159.810409
 30
0.0
  0
ENDBLK
  5
208
330
206
100
AcDbEntity
  8
0
100
AcDbBlockEnd
  0
BLOCK
  5
219
330
212
100
AcDbEntity
  8
0
100
AcDbBlockBegin
  2
_U3
 70
     0
 10
0.0
 20
0.0
 30
0.0
  3
_U3
  1

  0
LINE
  5
A99
330
212
100
AcDbEntity
  8
SK2
  6
Continuous
 62
     7
370
    13
100
AcDbLine
 10
156.0805428221313
 20
33.1246706516321
 30
0.0
 11
156.0805428221313
 21
16.02949765163211
 31
0.0
  0
LINE
  5
A9A
330
212
100
AcDbEntity
  8
SK2
  6
Continuous
 62
     7
370
    13
100
AcDbLine
 10
31.08054282213141
 20
27.45376951306801
 30
0.0
 11
31.08054282213141
 21
16.02949765163211
 31
0.0
  0
LINE
  5
A9B
330
212
100
AcDbEntity
  8
SK2
  6
Continuous
 62
     7
370
    13
100
AcDbLine
 10
152.9055428221313
 20
18.02949765163211
 30
0.0
 11
34.25554282213141
 21
18.02949765163211
 31
0.0
  0
SOLID
  5
A9C
330
212
100
AcDbEntity
  8
SK2
  6
Continuous
 62
     7
370
    13
100
AcDbTrace
 10
152.9055428221313
 20
18.55866431829878
 30
0.0
 11
152.9055428221313
 21
17.50033098496545
 31
0.0
 12
156.0805428221313
 22
18.02949765163211
 32
0.0
 13
156.0805428221313
 23
18.02949765163211
 33
0.0
  0
SOLID
  5
A9D
330
212
100
AcDbEntity
  8
SK2
  6
Continuous
 62
     7
370
    13
100
AcDbTrace
 10
34.25554282213141
 20
18.55866431829878
 30
0.0
 11
34.25554282213141
 21
17.50033098496545
 31
0.0
 12
31.08054282213141
 22
18.02949765163211
 32
0.0
 13
31.08054282213141
 23
18.02949765163211
 33
0.0
  0
MTEXT
  5
A9E
330
212
100
AcDbEntity
  8
SK2
  6
Continuous
 62
     7
370
    18
100
AcDbMText
 10
90.00911425070281
 20
22.52949765163211
 30
0.0
 40
3.0
 41
0.0
 71
     1
 72
     1
  1
\A1;125
  7
iso_b_vert
 73
     1
 44
1.0
1001
ACAD
1000
MTEXTBEGIN
1070
    73
1070
     1
1070
    44
1040
1.0
1070
    74
1070
     0
1000
MTEXTEND
  0
POINT
  5
A9F
330
212
100
AcDbEntity
  8
Defpoints
  6
Continuous
 62
     0
370
    13
100
AcDbPoint
 10
156.0805428221313
 20
33.1246706516321
 30
0.0
  0
POINT
  5
AA0
330
212
100
AcDbEntity
  8
Defpoints
  6
Continuous
 62
     0
370
    13
100
AcDbPoint
 10
31.08054282213141
 20
27.45376951306801
 30
0.0
  0
POINT
  5
AA1
330
212
100
AcDbEntity
  8
Defpoints
  6
Continuous
 62
     0
370
    13
100
AcDbPoint
 10
31.08054282213141
 20
18.02949765163211
 30
0.0
  0
ENDBLK
  5
21A
330
212
100
AcDbEntity
  8
0
100
AcDbBlockEnd
  0
BLOCK
  5
21F
330
21E
100
AcDbEntity
  8
0
100
AcDbBlockBegin
  2
*D12
 70
     1
 10
0.0
 20
0.0
 30
0.0
  3
*D12
  1

  0
LINE
  5
221
330
21E
100
AcDbEntity
  8
0
 62
     4
370
    -2
100
AcDbLine
 10
217.672679
 20
184.834681
 30
0.0
 11
148.760753
 21
184.834681
 31
0.0
  0
LINE
  5
222
330
21E
100
AcDbEntity
  8
0
 62
     4
370
    -2
100
AcDbLine
 10
164.160934
 20
168.834681
 30
0.0
 11
148.760753
 21
168.834681
 31
0.0
  0
LINE
  5
223
330
21E
100
AcDbEntity
  8
0
 62
     4
370
    -2
100
AcDbLine
 10
150.760753
 20
181.659681
 30
0.0
 11
150.760753
 21
172.009681
 31
0.0
  0
SOLID
  5
224
330
21E
100
AcDbEntity
  8
0
 62
     4
100
AcDbTrace
 10
151.28992
 20
181.659681
 30
0.0
 11
150.231586
 21
181.659681
 31
0.0
 12
150.760753
 22
184.834681
 32
0.0
 13
150.760753
 23
184.834681
 33
0.0
  0
SOLID
  5
225
330
21E
100
AcDbEntity
  8
0
 62
     4
100
AcDbTrace
 10
150.231586
 20
172.009681
 30
0.0
 11
151.28992
 21
172.009681
 31
0.0
 12
150.760753
 22
168.834681
 32
0.0
 13
150.760753
 23
168.834681
 33
0.0
  0
MTEXT
  5
226
330
21E
100
AcDbEntity
  8
0
 62
     3
370
    13
100
AcDbMText
 10
144.760753
 20
176.834681
 30
0.0
 40
3.0
 41
0.0
 71
     5
 72
     1
  1
\A1;16
  7
iso_b_vert
 11
0.0
 21
1.0
 31
0.0
 73
     1
 44
1.0
1001
ACAD
1000
MTEXTBEGIN
1070
    73
1070
     1
1070
    44
1040
1.0
1070
    74
1070
     0
1000
MTEXTEND
  0
POINT
  5
227
330
21E
100
AcDbEntity
  8
Defpoints
 62
     0
100
AcDbPoint
 10
217.672679
 20
184.834681
 30
0.0
  0
POINT
  5
228
330
21E
100
AcDbEntity
  8
Defpoints
 62
     0
100
AcDbPoint
 10
164.160934
 20
168.834681
 30
0.0
  0
POINT
  5
229
330
21E
100
AcDbEntity
  8
Defpoints
 62
     0
100
AcDbPoint
 10
150.760753
 20
168.834681
 30
0.0
  0
ENDBLK
  5
220
330
21E
100
AcDbEntity
  8
0
100
AcDbBlockEnd
  0
BLOCK
  5
231
330
22A
100
AcDbEntity
  8
0
100
AcDbBlockBegin
  2
_U4
 70
     0
 10
0.0
 20
0.0
 30
0.0
  3
_U4
  1

  0
LINE
  5
7BE
330
22A
100
AcDbEntity
  8
2
  6
Continuous
 62
     7
370
    13
100
AcDbLine
 10
31.94509882213139
 20
43.05376965163212
 30
0.0
 11
11.34388847498211
 21
43.05376965163211
 31
0.0
  0
LINE
  5
7BF
330
22A
100
AcDbEntity
  8
2
  6
Continuous
 62
     7
370
    13
100
AcDbLine
 10
31.48054282997752
 20
27.0537696516321
 30
0.0
 11
11.34388847498212
 21
27.0537696516321
 31
0.0
  0
LINE
  5
7C0
330
22A
100
AcDbEntity
  8
2
  6
Continuous
 62
     7
370
    13
100
AcDbLine
 10
13.34388847498211
 20
39.87876965163212
 30
0.0
 11
13.34388847498211
 21
30.2287696516321
 31
0.0
  0
SOLID
  5
7C1
330
22A
100
AcDbEntity
  8
2
  6
Continuous
 62
     7
370
    13
100
AcDbTrace
 10
12.81472180831545
 20
39.87876965163212
 30
0.0
 11
13.87305514164878
 21
39.87876965163212
 31
0.0
 12
13.34388847498211
 22
43.05376965163211
 32
0.0
 13
13.34388847498211
 23
43.05376965163211
 33
0.0
  0
SOLID
  5
7C2
330
22A
100
AcDbEntity
  8
2
  6
Continuous
 62
     7
370
    13
100
AcDbTrace
 10
12.81472180831545
 20
30.2287696516321
 30
0.0
 11
13.87305514164878
 21
30.2287696516321
 31
0.0
 12
13.34388847498212
 22
27.0537696516321
 32
0.0
 13
13.34388847498212
 23
27.0537696516321
 33
0.0
  0
MTEXT
  5
7C3
330
22A
100
AcDbEntity
  8
2
  6
Continuous
 62
     7
370
    18
100
AcDbMText
 10
8.843888474982122
 20
33.36728757238255
 30
0.0
 40
3.0
 41
0.0
 71
     1
 72
     1
  1
\A1;16
  7
iso_b_vert
 11
0.0000000000000001
 21
1.0
 31
0.0
 73
     1
 44
1.0
1001
ACAD
1000
MTEXTBEGIN
1070
    73
1070
     1
1070
    44
1040
1.0
1070
    74
1070
     0
1000
MTEXTEND
  0
POINT
  5
7C4
330
22A
100
AcDbEntity
  8
Defpoints
  6
Continuous
 62
     0
370
    13
100
AcDbPoint
 10
31.94509882213139
 20
43.05376965163212
 30
0.0
  0
POINT
  5
7C5
330
22A
100
AcDbEntity
  8
Defpoints
  6
Continuous
 62
     0
370
    13
100
AcDbPoint
 10
31.48054282997752
 20
27.0537696516321
 30
0.0
  0
POINT
  5
7C6
330
22A
100
AcDbEntity
  8
Defpoints
  6
Continuous
 62
     0
370
    13
100
AcDbPoint
 10
13.34388847498212
 20
27.0537696516321
 30
0.0
  0
ENDBLK
  5
232
330
22A
100
AcDbEntity
  8
0
100
AcDbBlockEnd
  0
BLOCK
  5
238
330
237
100
AcDbEntity
  8
0
100
AcDbBlockBegin
  2
*D14
 70
     1
 10
0.0
 20
0.0
 30
0.0
  3
*D14
  1

  0
LINE
  5
23A
330
237
100
AcDbEntity
  8
0
 62
     4
370
    -2
100
AcDbLine
 10
163.881071
 20
176.120802
 30
0.0
 11
163.982845
 21
181.951423
 31
0.0
  0
LINE
  5
23B
330
237
100
AcDbEntity
  8
0
 62
     4
370
    -2
100
AcDbLine
 10
163.160934
 20
168.834681
 30
0.0
 11
150.63515
 21
168.834681
 31
0.0
  0
ARC
  5
23C
330
237
100
AcDbEntity
  8
0
 62
     4
370
    -2
100
AcDbCircle
 10
163.753891
 20
168.834681
 30
0.0
 40
11.11874089456501
100
AcDbArc
 50
105.417138
 51
163.582862
  0
SOLID
  5
23D
330
237
100
AcDbEntity
  8
0
 62
     4
100
AcDbTrace
 10
160.864436
 20
179.02834
 30
0.0
 11
160.731635
 21
180.078308
 31
0.0
 12
163.94794
 22
179.951728
 32
0.0
 13
163.94794
 23
179.951728
 33
0.0
  0
SOLID
  5
23E
330
237
100
AcDbEntity
  8
0
 62
     4
100
AcDbTrace
 10
152.564722
 20
172.052705
 30
0.0
 11
153.612212
 21
171.901599
 31
0.0
 12
152.63515
 22
168.834681
 32
0.0
 13
152.63515
 23
168.834681
 33
0.0
  0
MTEXT
  5
23F
330
237
100
AcDbEntity
  8
0
 62
     3
370
    13
100
AcDbMText
 10
151.755207
 20
181.04463
 30
0.0
 40
3.0
 41
0.0
 71
     5
 72
     1
  1
\A1;91%%d
  7
iso_b_vert
 73
     1
 44
1.0
1001
ACAD
1000
MTEXTBEGIN
1070
    73
1070
     1
1070
    44
1040
1.0
1070
    74
1070
     0
1000
MTEXTEND
  0
POINT
  5
240
330
237
100
AcDbEntity
  8
Defpoints
 62
     0
100
AcDbPoint
 10
158.306934
 20
178.527826
 30
0.0
  0
POINT
  5
241
330
237
100
AcDbEntity
  8
Defpoints
 62
     0
100
AcDbPoint
 10
164.160934
 20
168.834681
 30
0.0
  0
POINT
  5
242
330
237
100
AcDbEntity
  8
Defpoints
 62
     0
100
AcDbPoint
 10
163.881071
 20
176.120802
 30
0.0
  0
POINT
  5
243
330
237
100
AcDbEntity
  8
Defpoints
 62
     0
100
AcDbPoint
 10
163.760995
 20
169.241661
 30
0.0
  0
POINT
  5
244
330
237
100
AcDbEntity
  8
Defpoints
 62
     0
100
AcDbPoint
 10
163.160934
 20
168.834681
 30
0.0
  0
ENDBLK
  5
239
330
237
100
AcDbEntity
  8
0
100
AcDbBlockEnd
  0
BLOCK
  5
24C
330
245
100
AcDbEntity
  8
0
100
AcDbBlockBegin
  2
_U5
 70
     0
 10
0.0
 20
0.0
 30
0.0
  3
_U5
  1

  0
LINE
  5
7B3
330
245
100
AcDbEntity
  8
2
  6
Continuous
 62
     7
370
    13
100
AcDbLine
 10
31.16347007087138
 20
32.20814804284709
 30
0.0
 11
31.30245381350495
 21
40.17051156498412
 31
0.0
  0
LINE
  5
7B4
330
245
100
AcDbEntity
  8
2
  6
Continuous
 62
     7
370
    13
100
AcDbLine
 10
30.48054282213138
 20
27.05376965163211
 30
0.0
 11
17.95475998521031
 21
27.05376965163206
 31
0.0
  0
ARC
  5
7B5
330
245
100
AcDbEntity
  8
2
  6
Continuous
 62
     7
370
    13
100
AcDbCircle
 10
31.07349995109867
 20
27.05376965163211
 30
0.0
 40
11.11873996588835
100
AcDbArc
 50
105.4171378669234
 51
163.5828609074788
  0
SOLID
  5
7B6
330
245
100
AcDbEntity
  8
2
  6
Continuous
 62
     7
370
    13
100
AcDbTrace
 10
28.05124364632764
 20
38.29739620602747
 30
0.0
 11
28.18404500459093
 21
37.24742799522875
 31
0.0
 12
31.26754895785545
 22
38.17081617541798
 32
0.0
 13
31.26754895785545
 23
38.17081617541798
 33
0.0
  0
SOLID
  5
7B7
330
245
100
AcDbEntity
  8
2
  6
Continuous
 62
     7
370
    13
100
AcDbTrace
 10
20.93182215875412
 20
30.12068860558911
 30
0.0
 11
19.88433156971162
 21
30.27179423192996
 31
0.0
 12
19.95475998521031
 22
27.05376965163207
 32
0.0
 13
19.95475998521031
 23
27.05376965163207
 33
0.0
  0
MTEXT
  5
7B8
330
245
100
AcDbEntity
  8
2
  6
Continuous
 62
     7
370
    18
100
AcDbMText
 10
16.76371373296321
 20
34.8895559114287
 30
0.0
 40
3.0
 41
9.428571428571428
 71
     1
 72
     1
  1
\A1;91°
  7
iso_b_vert
 11
0.713250424448286
 21
0.7009092894407522
 31
0.0
 73
     1
 44
1.0
1001
ACAD
1000
MTEXTBEGIN
1070
    73
1070
     1
1070
    44
1040
1.0
1070
    74
1070
     0
1000
MTEXTEND
  0
POINT
  5
7B9
330
245
100
AcDbEntity
  8
Defpoints
  6
Continuous
 62
     0
370
    13
100
AcDbPoint
 10
25.62654370027594
 20
36.74691393151705
 30
0.0
  0
POINT
  5
7BA
330
245
100
AcDbEntity
  8
Defpoints
  6
Continuous
 62
     0
370
    13
100
AcDbPoint
 10
31.48054282213139
 20
27.05376965163211
 30
0.0
  0
POINT
  5
7BB
330
245
100
AcDbEntity
  8
Defpoints
  6
Continuous
 62
     0
370
    13
100
AcDbPoint
 10
31.16347007087138
 20
32.20814804284709
 30
0.0
  0
POINT
  5
7BC
330
245
100
AcDbEntity
  8
Defpoints
  6
Continuous
 62
     0
370
    13
100
AcDbPoint
 10
31.08060382213139
 20
27.46074965163212
 30
0.0
  0
POINT
  5
7BD
330
245
100
AcDbEntity
  8
Defpoints
  6
Continuous
 62
     0
370
    13
100
AcDbPoint
 10
30.48054282213138
 20
27.05376965163211
 30
0.0
  0
ENDBLK
  5
24D
330
245
100
AcDbEntity
  8
0
100
AcDbBlockEnd
  0
BLOCK
  5
252
330
251
100
AcDbEntity
  8
0
100
AcDbBlockBegin
  2
*D16
 70
     1
 10
0.0
 20
0.0
 30
0.0
  3
*D16
  1

  0
LINE
  5
254
330
251
100
AcDbEntity
  8
0
  6
Continuous
 62
     4
370
    -2
100
AcDbLine
 10
121.569514
 20
259.039228
 30
0.0
 11
121.569514
 21
270.707097
 31
0.0
  0
LINE
  5
255
330
251
100
AcDbEntity
  8
0
  6
Continuous
 62
     4
370
    -2
100
AcDbLine
 10
101.261383
 20
259.039228
 30
0.0
 11
101.261383
 21
270.707097
 31
0.0
  0
LINE
  5
256
330
251
100
AcDbEntity
  8
0
  6
Continuous
 62
     4
370
    -2
100
AcDbLine
 10
118.394514
 20
268.707097
 30
0.0
 11
104.436383
 21
268.707097
 31
0.0
  0
SOLID
  5
257
330
251
100
AcDbEntity
  8
0
 62
     4
100
AcDbTrace
 10
118.394514
 20
268.177931
 30
0.0
 11
118.394514
 21
269.236264
 31
0.0
 12
121.569514
 22
268.707097
 32
0.0
 13
121.569514
 23
268.707097
 33
0.0
  0
SOLID
  5
258
330
251
100
AcDbEntity
  8
0
 62
     4
100
AcDbTrace
 10
104.436383
 20
269.236264
 30
0.0
 11
104.436383
 21
268.177931
 31
0.0
 12
101.261383
 22
268.707097
 32
0.0
 13
101.261383
 23
268.707097
 33
0.0
  0
MTEXT
  5
259
330
251
100
AcDbEntity
  8
0
 62
     3
370
    13
100
AcDbMText
 10
105.201163
 20
274.778526
 30
0.0
 40
3.0
 41
0.0
 71
     1
 72
     1
  1
\A1;(10,2)
  7
iso_b_vert
 73
     1
 44
1.0
1001
ACAD
1000
MTEXTBEGIN
1070
    73
1070
     1
1070
    44
1040
1.0
1070
    74
1070
     0
1000
MTEXTEND
  0
POINT
  5
25A
330
251
100
AcDbEntity
  8
Defpoints
 62
     0
100
AcDbPoint
 10
121.569514
 20
259.039228
 30
0.0
  0
POINT
  5
25B
330
251
100
AcDbEntity
  8
Defpoints
 62
     0
100
AcDbPoint
 10
101.261383
 20
259.039228
 30
0.0
  0
POINT
  5
25C
330
251
100
AcDbEntity
  8
Defpoints
 62
     0
100
AcDbPoint
 10
101.261383
 20
268.707097
 30
0.0
  0
ENDBLK
  5
253
330
251
100
AcDbEntity
  8
0
100
AcDbBlockEnd
  0
BLOCK
  5
266
330
25D
100
AcDbEntity
  8
0
100
AcDbBlockBegin
  2
_U6
 70
     0
 10
0.0
 20
0.0
 30
0.0
  3
_U6
  1

  0
MTEXT
  5
25E
330
25D
100
AcDbEntity
  8
41
  6
Continuous
 62
     3
370
    18
100
AcDbMText
 10
108.507907
 20
270.904712
 30
0.0
 40
3.0
 41
0.0
 71
     7
 72
     5
  1
\W0.7109;10,2
  7
iso_b_vert
 73
     2
 44
0.9879520000000001
1001
ACAD
1000
MTEXTBEGIN
1070
    73
1070
     2
1070
    44
1040
0.9879520000000001
1070
    74
1070
     0
1000
MTEXTEND
  0
MTEXT
  5
25F
330
25D
100
AcDbEntity
  8
41
  6
Continuous
 62
     3
370
    18
100
AcDbMText
 10
106.407907
 20
270.904712
 30
0.0
 40
3.0
 41
0.0
 71
     7
 72
     5
  1
\W1.3868;{\H1.88x;(}
  7
iso_b_vert
 73
     2
 44
0.9879520000000001
1001
ACAD
1000
MTEXTBEGIN
1070
    73
1070
     2
1070
    44
1040
0.9879520000000001
1070
    74
1070
     0
1000
MTEXTEND
  0
MTEXT
  5
260
330
25D
100
AcDbEntity
  8
41
  6
Continuous
 62
     3
370
    18
100
AcDbMText
 10
114.640991
 20
270.904712
 30
0.0
 40
3.0
 41
0.0
 71
     7
 72
     5
  1
\W1.3868;{\H1.88x;)}
  7
iso_b_vert
 73
     2
 44
0.9879520000000001
1001
ACAD
1000
MTEXTBEGIN
1070
    73
1070
     2
1070
    44
1040
0.9879520000000001
1070
    74
1070
     0
1000
MTEXTEND
  0
LINE
  5
261
330
25D
100
AcDbEntity
  8
41
 62
     4
370
    13
100
AcDbLine
 10
121.569514
 20
259.039228
 30
0.0
 11
121.569514
 21
270.707097
 31
0.0
  0
LINE
  5
262
330
25D
100
AcDbEntity
  8
41
 62
     4
370
    13
100
AcDbLine
 10
101.261383
 20
259.039228
 30
0.0
 11
101.261383
 21
270.707097
 31
0.0
  0
LINE
  5
263
330
25D
100
AcDbEntity
  8
41
 62
     4
370
    13
100
AcDbLine
 10
121.569514
 20
268.707097
 30
0.0
 11
101.261383
 21
268.707097
 31
0.0
  0
SOLID
  5
264
330
25D
100
AcDbEntity
  8
41
 62
     4
370
    13
100
AcDbTrace
 10
121.569514
 20
268.707097
 30
0.0
 11
118.394516
 21
268.289101
 31
0.0
 12
118.394513
 22
269.125094
 32
0.0
 13
118.394513
 23
269.125094
 33
0.0
  0
SOLID
  5
265
330
25D
100
AcDbEntity
  8
41
 62
     4
370
    13
100
AcDbTrace
 10
101.261383
 20
268.707097
 30
0.0
 11
104.436381
 21
269.125094
 31
0.0
 12
104.436384
 22
268.289101
 32
0.0
 13
104.436384
 23
268.289101
 33
0.0
  0
ENDBLK
  5
267
330
25D
100
AcDbEntity
  8
0
100
AcDbBlockEnd
  0
BLOCK
  5
287
330
268
100
AcDbEntity
  8
0
100
AcDbBlockBegin
  2
TabularNote1
 70
     0
 10
0.0
 20
0.0
 30
0.0
  3
TabularNote1
  1

  0
LINE
  5
269
330
268
100
AcDbEntity
  8
250
  6
Continuous
 62
     5
370
    18
100
AcDbLine
 10
0.0
 20
0.0
 30
0.0
 11
72.0
 21
0.0
 31
0.0
  0
LINE
  5
26A
330
268
100
AcDbEntity
  8
250
  6
Continuous
 62
     5
370
    18
100
AcDbLine
 10
0.0
 20
0.0
 30
0.0
 11
0.0
 21
-1.9
 31
0.0
  0
LINE
  5
26B
330
268
100
AcDbEntity
  8
250
  6
Continuous
 62
     5
370
    18
100
AcDbLine
 10
72.0
 20
0.0
 30
0.0
 11
72.0
 21
-1.9
 31
0.0
  0
MTEXT
  5
26C
330
268
100
AcDbEntity
  8
41
  6
Continuous
 62
     2
370
    18
100
AcDbMText
 10
0.575
 20
-0.95
 30
0.0
 40
1.0
 41
0.0
 71
     4
 72
     5
  1
\W0.8122;PRODUCT CODE
  7
iso_b_vert
 73
     2
 44
1.084337
1001
ACAD
1000
MTEXTBEGIN
1070
    73
1070
     2
1070
    44
1040
1.084337
1070
    74
1070
     0
1000
MTEXTEND
  0
LINE
  5
26D
330
268
100
AcDbEntity
  8
250
  6
Continuous
 62
     5
370
    18
100
AcDbLine
 10
72.0
 20
0.0
 30
0.0
 11
127.0
 21
0.0
 31
0.0
  0
LINE
  5
26E
330
268
100
AcDbEntity
  8
250
  6
Continuous
 62
     5
370
    18
100
AcDbLine
 10
127.0
 20
0.0
 30
0.0
 11
127.0
 21
-1.9
 31
0.0
  0
MTEXT
  5
26F
330
268
100
AcDbEntity
  8
41
  6
Continuous
 62
     2
370
    18
100
AcDbMText
 10
72.575
 20
-0.95
 30
0.0
 40
1.0
 41
0.0
 71
     4
 72
     5
  1
\W0.8810;MATERIAL
  7
iso_b_vert
 73
     2
 44
1.084337
1001
ACAD
1000
MTEXTBEGIN
1070
    73
1070
     2
1070
    44
1040
1.084337
1070
    74
1070
     0
1000
MTEXTEND
  0
LINE
  5
270
330
268
100
AcDbEntity
  8
250
  6
Continuous
 62
     5
370
    18
100
AcDbLine
 10
127.0
 20
0.0
 30
0.0
 11
180.0
 21
0.0
 31
0.0
  0
LINE
  5
271
330
268
100
AcDbEntity
  8
250
  6
Continuous
 62
     5
370
    18
100
AcDbLine
 10
180.0
 20
0.0
 30
0.0
 11
180.0
 21
-1.9
 31
0.0
  0
LINE
  5
272
330
268
100
AcDbEntity
  8
250
  6
Continuous
 62
     5
370
    18
100
AcDbLine
 10
0.0
 20
-1.9
 30
0.0
 11
0.0
 21
-8.9
 31
0.0
  0
LINE
  5
273
330
268
100
AcDbEntity
  8
250
  6
Continuous
 62
     5
370
    18
100
AcDbLine
 10
0.0
 20
-8.9
 30
0.0
 11
72.0
 21
-8.9
 31
0.0
  0
LINE
  5
274
330
268
100
AcDbEntity
  8
250
  6
Continuous
 62
     5
370
    18
100
AcDbLine
 10
72.0
 20
-1.9
 30
0.0
 11
72.0
 21
-8.9
 31
0.0
  0
MTEXT
  5
275
330
268
100
AcDbEntity
  8
41
  6
Continuous
 62
     2
370
    25
100
AcDbMText
 10
1.825
 20
-5.4
 30
0.0
 40
3.5
 41
0.0
 71
     4
 72
     5
  1
\W0.7808;SDFCR1212K07-S
  7
iso_b_vert
 73
     2
 44
1.084337
1001
ACAD
1000
MTEXTBEGIN
1070
    73
1070
     2
1070
    44
1040
1.084337
1070
    74
1070
     0
1000
MTEXTEND
  0
LINE
  5
276
330
268
100
AcDbEntity
  8
250
  6
Continuous
 62
     5
370
    18
100
AcDbLine
 10
72.0
 20
-8.9
 30
0.0
 11
127.0
 21
-8.9
 31
0.0
  0
LINE
  5
277
330
268
100
AcDbEntity
  8
250
  6
Continuous
 62
     5
370
    18
100
AcDbLine
 10
127.0
 20
-1.9
 30
0.0
 11
127.0
 21
-8.9
 31
0.0
  0
LINE
  5
278
330
268
100
AcDbEntity
  8
250
  6
Continuous
 62
     5
370
    18
100
AcDbLine
 10
180.0
 20
-1.9
 30
0.0
 11
180.0
 21
-8.9
 31
0.0
  0
LINE
  5
279
330
268
100
AcDbEntity
  8
250
  6
Continuous
 62
     5
370
    18
100
AcDbLine
 10
0.0
 20
-8.9
 30
0.0
 11
0.0
 21
-10.8
 31
0.0
  0
MTEXT
  5
27A
330
268
100
AcDbEntity
  8
41
  6
Continuous
 62
     2
370
    18
100
AcDbMText
 10
0.575
 20
-9.849999
 30
0.0
 40
1.0
 41
0.0
 71
     4
 72
     5
  1
\W0.9090;TITLE
  7
iso_b_vert
 73
     2
 44
1.084337
1001
ACAD
1000
MTEXTBEGIN
1070
    73
1070
     2
1070
    44
1040
1.084337
1070
    74
1070
     0
1000
MTEXTEND
  0
LINE
  5
27B
330
268
100
AcDbEntity
  8
250
  6
Continuous
 62
     5
370
    18
100
AcDbLine
 10
127.0
 20
-8.9
 30
0.0
 11
127.0
 21
-10.8
 31
0.0
  0
LINE
  5
27C
330
268
100
AcDbEntity
  8
250
  6
Continuous
 62
     5
370
    18
100
AcDbLine
 10
180.0
 20
-8.9
 30
0.0
 11
180.0
 21
-10.8
 31
0.0
  0
LINE
  5
27D
330
268
100
AcDbEntity
  8
250
  6
Continuous
 62
     5
370
    18
100
AcDbLine
 10
0.0
 20
-10.8
 30
0.0
 11
0.0
 21
-18.725
 31
0.0
  0
LINE
  5
27E
330
268
100
AcDbEntity
  8
250
  6
Continuous
 62
     5
370
    18
100
AcDbLine
 10
127.0
 20
-10.8
 30
0.0
 11
127.0
 21
-18.725
 31
0.0
  0
LINE
  5
27F
330
268
100
AcDbEntity
  8
250
  6
Continuous
 62
     5
370
    18
100
AcDbLine
 10
180.0
 20
-10.8
 30
0.0
 11
180.0
 21
-18.725
 31
0.0
  0
LINE
  5
280
330
268
100
AcDbEntity
  8
250
  6
Continuous
 62
     5
370
    18
100
AcDbLine
 10
0.0
 20
-18.725
 30
0.0
 11
0.0
 21
-26.65
 31
0.0
  0
LINE
  5
281
330
268
100
AcDbEntity
  8
250
  6
Continuous
 62
     5
370
    18
100
AcDbLine
 10
0.0
 20
-26.65
 30
0.0
 11
72.0
 21
-26.65
 31
0.0
  0
LINE
  5
282
330
268
100
AcDbEntity
  8
250
  6
Continuous
 62
     5
370
    18
100
AcDbLine
 10
72.0
 20
-26.65
 30
0.0
 11
127.0
 21
-26.65
 31
0.0
  0
LINE
  5
283
330
268
100
AcDbEntity
  8
250
  6
Continuous
 62
     5
370
    18
100
AcDbLine
 10
127.0
 20
-18.725
 30
0.0
 11
127.0
 21
-26.65
 31
0.0
  0
LINE
  5
284
330
268
100
AcDbEntity
  8
250
  6
Continuous
 62
     5
370
    18
100
AcDbLine
 10
127.0
 20
-26.65
 30
0.0
 11
180.0
 21
-26.65
 31
0.0
  0
LINE
  5
285
330
268
100
AcDbEntity
  8
250
  6
Continuous
 62
     5
370
    18
100
AcDbLine
 10
180.0
 20
-18.725
 30
0.0
 11
180.0
 21
-26.65
 31
0.0
  0
ENDBLK
  5
288
330
268
100
AcDbEntity
  8
0
100
AcDbBlockEnd
  0
BLOCK
  5
2C9
330
289
100
AcDbEntity
  8
0
100
AcDbBlockBegin
  2
TabularNote2
 70
     0
 10
0.0
 20
0.0
 30
0.0
  3
TabularNote2
  1

  0
LINE
  5
28A
330
289
100
AcDbEntity
  8
250
  6
Continuous
 62
     5
370
    18
100
AcDbLine
 10
0.0
 20
0.0
 30
0.0
 11
12.0
 21
0.0
 31
0.0
  0
LINE
  5
28B
330
289
100
AcDbEntity
  8
250
  6
Continuous
 62
     5
370
    18
100
AcDbLine
 10
0.0
 20
0.0
 30
0.0
 11
0.0
 21
-1.9
 31
0.0
  0
LINE
  5
28C
330
289
100
AcDbEntity
  8
250
  6
Continuous
 62
     5
370
    18
100
AcDbLine
 10
12.0
 20
0.0
 30
0.0
 11
12.0
 21
-1.9
 31
0.0
  0
MTEXT
  5
28D
330
289
100
AcDbEntity
  8
41
  6
Continuous
 62
     2
370
    18
100
AcDbMText
 10
0.575
 20
-0.95
 30
0.0
 40
1.0
 41
0.0
 71
     4
 72
     5
  1
\W0.9067;STATUS
  7
iso_b_vert
 73
     2
 44
1.084337
1001
ACAD
1000
MTEXTBEGIN
1070
    73
1070
     2
1070
    44
1040
1.084337
1070
    74
1070
     0
1000
MTEXTEND
  0
LINE
  5
28E
330
289
100
AcDbEntity
  8
250
  6
Continuous
 62
     5
370
    18
100
AcDbLine
 10
12.0
 20
0.0
 30
0.0
 11
26.0
 21
0.0
 31
0.0
  0
LINE
  5
28F
330
289
100
AcDbEntity
  8
250
  6
Continuous
 62
     5
370
    18
100
AcDbLine
 10
12.0
 20
-1.9
 30
0.0
 11
26.0
 21
-1.9
 31
0.0
  0
LINE
  5
290
330
289
100
AcDbEntity
  8
250
  6
Continuous
 62
     5
370
    18
100
AcDbLine
 10
26.0
 20
0.0
 30
0.0
 11
26.0
 21
-1.9
 31
0.0
  0
LINE
  5
291
330
289
100
AcDbEntity
  8
250
  6
Continuous
 62
     5
370
    18
100
AcDbLine
 10
26.0
 20
0.0
 30
0.0
 11
50.0
 21
0.0
 31
0.0
  0
LINE
  5
292
330
289
100
AcDbEntity
  8
250
  6
Continuous
 62
     5
370
    18
100
AcDbLine
 10
26.0
 20
-1.9
 30
0.0
 11
50.0
 21
-1.9
 31
0.0
  0
LINE
  5
293
330
289
100
AcDbEntity
  8
250
  6
Continuous
 62
     5
370
    18
100
AcDbLine
 10
50.0
 20
0.0
 30
0.0
 11
50.0
 21
-1.9
 31
0.0
  0
MTEXT
  5
294
330
289
100
AcDbEntity
  8
41
  6
Continuous
 62
     2
370
    18
100
AcDbMText
 10
26.575
 20
-0.95
 30
0.0
 40
1.0
 41
0.0
 71
     4
 72
     5
  1
\W0.8824;DATE
  7
iso_b_vert
 73
     2
 44
1.084337
1001
ACAD
1000
MTEXTBEGIN
1070
    73
1070
     2
1070
    44
1040
1.084337
1070
    74
1070
     0
1000
MTEXTEND
  0
LINE
  5
295
330
289
100
AcDbEntity
  8
250
  6
Continuous
 62
     5
370
    18
100
AcDbLine
 10
50.0
 20
0.0
 30
0.0
 11
88.0
 21
0.0
 31
0.0
  0
LINE
  5
296
330
289
100
AcDbEntity
  8
250
  6
Continuous
 62
     5
370
    18
100
AcDbLine
 10
50.0
 20
-1.9
 30
0.0
 11
88.0
 21
-1.9
 31
0.0
  0
LINE
  5
297
330
289
100
AcDbEntity
  8
250
  6
Continuous
 62
     5
370
    18
100
AcDbLine
 10
88.0
 20
0.0
 30
0.0
 11
88.0
 21
-1.9
 31
0.0
  0
MTEXT
  5
298
330
289
100
AcDbEntity
  8
41
  6
Continuous
 62
     2
370
    18
100
AcDbMText
 10
50.575
 20
-0.95
 30
0.0
 40
1.0
 41
0.0
 71
     4
 72
     5
  1
\W0.8385;NAME
  7
iso_b_vert
 73
     2
 44
1.084337
1001
ACAD
1000
MTEXTBEGIN
1070
    73
1070
     2
1070
    44
1040
1.084337
1070
    74
1070
     0
1000
MTEXTEND
  0
LINE
  5
299
330
289
100
AcDbEntity
  8
250
  6
Continuous
 62
     5
370
    18
100
AcDbLine
 10
88.0
 20
0.0
 30
0.0
 11
112.0
 21
0.0
 31
0.0
  0
LINE
  5
29A
330
289
100
AcDbEntity
  8
250
  6
Continuous
 62
     5
370
    18
100
AcDbLine
 10
88.0
 20
-1.9
 30
0.0
 11
112.0
 21
-1.9
 31
0.0
  0
LINE
  5
29B
330
289
100
AcDbEntity
  8
250
  6
Continuous
 62
     5
370
    18
100
AcDbLine
 10
112.0
 20
0.0
 30
0.0
 11
112.0
 21
-1.9
 31
0.0
  0
MTEXT
  5
29C
330
289
100
AcDbEntity
  8
41
  6
Continuous
 62
     2
370
    18
100
AcDbMText
 10
88.57499999999999
 20
-0.95
 30
0.0
 40
1.0
 41
0.0
 71
     4
 72
     5
  1
\W0.8136;USER ID
  7
iso_b_vert
 73
     2
 44
1.084337
1001
ACAD
1000
MTEXTBEGIN
1070
    73
1070
     2
1070
    44
1040
1.084337
1070
    74
1070
     0
1000
MTEXTEND
  0
LINE
  5
29D
330
289
100
AcDbEntity
  8
250
  6
Continuous
 62
     5
370
    18
100
AcDbLine
 10
112.0
 20
0.0
 30
0.0
 11
124.0
 21
0.0
 31
0.0
  0
LINE
  5
29E
330
289
100
AcDbEntity
  8
250
  6
Continuous
 62
     5
370
    18
100
AcDbLine
 10
124.0
 20
0.0
 30
0.0
 11
124.0
 21
-1.9
 31
0.0
  0
MTEXT
  5
29F
330
289
100
AcDbEntity
  8
41
  6
Continuous
 62
     2
370
    18
100
AcDbMText
 10
112.575
 20
-0.95
 30
0.0
 40
1.0
 41
0.0
 71
     4
 72
     5
  1
\W0.8468;SCALE
  7
iso_b_vert
 73
     2
 44
1.084337
1001
ACAD
1000
MTEXTBEGIN
1070
    73
1070
     2
1070
    44
1040
1.084337
1070
    74
1070
     0
1000
MTEXTEND
  0
LINE
  5
2A0
330
289
100
AcDbEntity
  8
250
  6
Continuous
 62
     5
370
    18
100
AcDbLine
 10
124.0
 20
0.0
 30
0.0
 11
180.0
 21
0.0
 31
0.0
  0
LINE
  5
2A1
330
289
100
AcDbEntity
  8
250
  6
Continuous
 62
     5
370
    18
100
AcDbLine
 10
180.0
 20
0.0
 30
0.0
 11
180.0
 21
-1.9
 31
0.0
  0
MTEXT
  5
2A2
330
289
100
AcDbEntity
  8
41
  6
Continuous
 62
     2
370
    18
100
AcDbMText
 10
124.575
 20
-0.95
 30
0.0
 40
1.0
 41
0.0
 71
     4
 72
     5
  1
\W0.8471;SUPERSEDES
  7
iso_b_vert
 73
     2
 44
1.084337
1001
ACAD
1000
MTEXTBEGIN
1070
    73
1070
     2
1070
    44
1040
1.084337
1070
    74
1070
     0
1000
MTEXTEND
  0
LINE
  5
2A3
330
289
100
AcDbEntity
  8
250
  6
Continuous
 62
     5
370
    18
100
AcDbLine
 10
0.0
 20
-1.9
 30
0.0
 11
0.0
 21
-5.4
 31
0.0
  0
LINE
  5
2A4
330
289
100
AcDbEntity
  8
250
  6
Continuous
 62
     5
370
    18
100
AcDbLine
 10
12.0
 20
-1.9
 30
0.0
 11
12.0
 21
-5.4
 31
0.0
  0
LINE
  5
2A5
330
289
100
AcDbEntity
  8
250
  6
Continuous
 62
     5
370
    18
100
AcDbLine
 10
12.0
 20
-5.4
 30
0.0
 11
26.0
 21
-5.4
 31
0.0
  0
LINE
  5
2A6
330
289
100
AcDbEntity
  8
250
  6
Continuous
 62
     5
370
    18
100
AcDbLine
 10
26.0
 20
-1.9
 30
0.0
 11
26.0
 21
-5.4
 31
0.0
  0
MTEXT
  5
2A7
330
289
100
AcDbEntity
  8
41
  6
Continuous
 62
     2
370
    18
100
AcDbMText
 10
12.575
 20
-3.649999999999999
 30
0.0
 40
1.0
 41
0.0
 71
     4
 72
     5
  1
\W0.8408;DESIGNED
  7
iso_b_vert
 73
     2
 44
1.084337
1001
ACAD
1000
MTEXTBEGIN
1070
    73
1070
     2
1070
    44
1040
1.084337
1070
    74
1070
     0
1000
MTEXTEND
  0
LINE
  5
2A8
330
289
100
AcDbEntity
  8
250
  6
Continuous
 62
     5
370
    18
100
AcDbLine
 10
26.0
 20
-5.4
 30
0.0
 11
50.0
 21
-5.4
 31
0.0
  0
LINE
  5
2A9
330
289
100
AcDbEntity
  8
250
  6
Continuous
 62
     5
370
    18
100
AcDbLine
 10
50.0
 20
-1.9
 30
0.0
 11
50.0
 21
-5.4
 31
0.0
  0
MTEXT
  5
2AA
330
289
100
AcDbEntity
  8
41
  6
Continuous
 62
     2
370
    18
100
AcDbMText
 10
27.075
 20
-3.649999999999999
 30
0.0
 40
2.0
 41
0.0
 71
     4
 72
     5
  1
\W0.6952;2020-11-12
  7
iso_b_vert
 73
     2
 44
1.084337
1001
ACAD
1000
MTEXTBEGIN
1070
    73
1070
     2
1070
    44
1040
1.084337
1070
    74
1070
     0
1000
MTEXTEND
  0
LINE
  5
2AB
330
289
100
AcDbEntity
  8
250
  6
Continuous
 62
     5
370
    18
100
AcDbLine
 10
50.0
 20
-5.4
 30
0.0
 11
88.0
 21
-5.4
 31
0.0
  0
LINE
  5
2AC
330
289
100
AcDbEntity
  8
250
  6
Continuous
 62
     5
370
    18
100
AcDbLine
 10
88.0
 20
-1.9
 30
0.0
 11
88.0
 21
-5.4
 31
0.0
  0
MTEXT
  5
2AD
330
289
100
AcDbEntity
  8
41
  6
Continuous
 62
     2
370
    18
100
AcDbMText
 10
51.075
 20
-3.649999999999999
 30
0.0
 40
2.0
 41
0.0
 71
     4
 72
     5
  1
\W0.8822;R.Vlcek
  7
iso_b_vert
 73
     2
 44
1.084337
1001
ACAD
1000
MTEXTBEGIN
1070
    73
1070
     2
1070
    44
1040
1.084337
1070
    74
1070
     0
1000
MTEXTEND
  0
LINE
  5
2AE
330
289
100
AcDbEntity
  8
250
  6
Continuous
 62
     5
370
    18
100
AcDbLine
 10
88.0
 20
-5.4
 30
0.0
 11
112.0
 21
-5.4
 31
0.0
  0
LINE
  5
2AF
330
289
100
AcDbEntity
  8
250
  6
Continuous
 62
     5
370
    18
100
AcDbLine
 10
112.0
 20
-1.9
 30
0.0
 11
112.0
 21
-5.4
 31
0.0
  0
MTEXT
  5
2B0
330
289
100
AcDbEntity
  8
41
  6
Continuous
 62
     2
370
    18
100
AcDbMText
 10
89.075
 20
-3.649999999999999
 30
0.0
 40
2.0
 41
0.0
 71
     4
 72
     5
  1
\W0.8327;MP5448
  7
iso_b_vert
 73
     2
 44
1.084337
1001
ACAD
1000
MTEXTBEGIN
1070
    73
1070
     2
1070
    44
1040
1.084337
1070
    74
1070
     0
1000
MTEXTEND
  0
LINE
  5
2B1
330
289
100
AcDbEntity
  8
250
  6
Continuous
 62
     5
370
    18
100
AcDbLine
 10
124.0
 20
-1.9
 30
0.0
 11
124.0
 21
-5.4
 31
0.0
  0
LINE
  5
2B2
330
289
100
AcDbEntity
  8
250
  6
Continuous
 62
     5
370
    18
100
AcDbLine
 10
180.0
 20
-1.9
 30
0.0
 11
180.0
 21
-5.4
 31
0.0
  0
LINE
  5
2B3
330
289
100
AcDbEntity
  8
250
  6
Continuous
 62
     5
370
    18
100
AcDbLine
 10
0.0
 20
-5.4
 30
0.0
 11
0.0
 21
-8.9
 31
0.0
  0
LINE
  5
2B4
330
289
100
AcDbEntity
  8
250
  6
Continuous
 62
     5
370
    18
100
AcDbLine
 10
0.0
 20
-8.9
 30
0.0
 11
12.0
 21
-8.9
 31
0.0
  0
LINE
  5
2B5
330
289
100
AcDbEntity
  8
250
  6
Continuous
 62
     5
370
    18
100
AcDbLine
 10
12.0
 20
-5.4
 30
0.0
 11
12.0
 21
-8.9
 31
0.0
  0
MTEXT
  5
2B6
330
289
100
AcDbEntity
  8
41
  6
Continuous
 62
     2
370
    18
100
AcDbMText
 10
6.0
 20
-5.4
 30
0.0
 40
3.5
 41
0.0
 71
     5
 72
     5
  1
\W0.8511;FR
  7
iso_b_vert
 73
     2
 44
1.084337
1001
ACAD
1000
MTEXTBEGIN
1070
    73
1070
     2
1070
    44
1040
1.084337
1070
    74
1070
     0
1000
MTEXTEND
  0
LINE
  5
2B7
330
289
100
AcDbEntity
  8
250
  6
Continuous
 62
     5
370
    18
100
AcDbLine
 10
12.0
 20
-8.9
 30
0.0
 11
26.0
 21
-8.9
 31
0.0
  0
LINE
  5
2B8
330
289
100
AcDbEntity
  8
250
  6
Continuous
 62
     5
370
    18
100
AcDbLine
 10
26.0
 20
-5.4
 30
0.0
 11
26.0
 21
-8.9
 31
0.0
  0
MTEXT
  5
2B9
330
289
100
AcDbEntity
  8
41
  6
Continuous
 62
     2
370
    18
100
AcDbMText
 10
12.575
 20
-7.15
 30
0.0
 40
1.0
 41
0.0
 71
     4
 72
     5
  1
\W0.8716;APPROVED
  7
iso_b_vert
 73
     2
 44
1.084337
1001
ACAD
1000
MTEXTBEGIN
1070
    73
1070
     2
1070
    44
1040
1.084337
1070
    74
1070
     0
1000
MTEXTEND
  0
LINE
  5
2BA
330
289
100
AcDbEntity
  8
250
  6
Continuous
 62
     5
370
    18
100
AcDbLine
 10
26.0
 20
-8.9
 30
0.0
 11
50.0
 21
-8.9
 31
0.0
  0
LINE
  5
2BB
330
289
100
AcDbEntity
  8
250
  6
Continuous
 62
     5
370
    18
100
AcDbLine
 10
50.0
 20
-5.4
 30
0.0
 11
50.0
 21
-8.9
 31
0.0
  0
MTEXT
  5
2BC
330
289
100
AcDbEntity
  8
41
  6
Continuous
 62
     2
370
    18
100
AcDbMText
 10
27.075
 20
-7.15
 30
0.0
 40
2.0
 41
0.0
 71
     4
 72
     5
  1
\W0.6952;2020-11-18
  7
iso_b_vert
 73
     2
 44
1.084337
1001
ACAD
1000
MTEXTBEGIN
1070
    73
1070
     2
1070
    44
1040
1.084337
1070
    74
1070
     0
1000
MTEXTEND
  0
LINE
  5
2BD
330
289
100
AcDbEntity
  8
250
  6
Continuous
 62
     5
370
    18
100
AcDbLine
 10
50.0
 20
-8.9
 30
0.0
 11
88.0
 21
-8.9
 31
0.0
  0
LINE
  5
2BE
330
289
100
AcDbEntity
  8
250
  6
Continuous
 62
     5
370
    18
100
AcDbLine
 10
88.0
 20
-5.4
 30
0.0
 11
88.0
 21
-8.9
 31
0.0
  0
MTEXT
  5
2BF
330
289
100
AcDbEntity
  8
41
  6
Continuous
 62
     2
370
    18
100
AcDbMText
 10
51.075
 20
-7.15
 30
0.0
 40
2.0
 41
0.0
 71
     4
 72
     5
  1
\W0.9012;T.Sebesta
  7
iso_b_vert
 73
     2
 44
1.084337
1001
ACAD
1000
MTEXTBEGIN
1070
    73
1070
     2
1070
    44
1040
1.084337
1070
    74
1070
     0
1000
MTEXTEND
  0
LINE
  5
2C0
330
289
100
AcDbEntity
  8
250
  6
Continuous
 62
     5
370
    18
100
AcDbLine
 10
88.0
 20
-8.9
 30
0.0
 11
112.0
 21
-8.9
 31
0.0
  0
LINE
  5
2C1
330
289
100
AcDbEntity
  8
250
  6
Continuous
 62
     5
370
    18
100
AcDbLine
 10
112.0
 20
-5.4
 30
0.0
 11
112.0
 21
-8.9
 31
0.0
  0
MTEXT
  5
2C2
330
289
100
AcDbEntity
  8
41
  6
Continuous
 62
     2
370
    18
100
AcDbMText
 10
89.075
 20
-7.15
 30
0.0
 40
2.0
 41
0.0
 71
     4
 72
     5
  1
\W0.7837;PI2597
  7
iso_b_vert
 73
     2
 44
1.084337
1001
ACAD
1000
MTEXTBEGIN
1070
    73
1070
     2
1070
    44
1040
1.084337
1070
    74
1070
     0
1000
MTEXTEND
  0
LINE
  5
2C3
330
289
100
AcDbEntity
  8
250
  6
Continuous
 62
     5
370
    18
100
AcDbLine
 10
112.0
 20
-8.9
 30
0.0
 11
124.0
 21
-8.9
 31
0.0
  0
LINE
  5
2C4
330
289
100
AcDbEntity
  8
250
  6
Continuous
 62
     5
370
    18
100
AcDbLine
 10
124.0
 20
-5.4
 30
0.0
 11
124.0
 21
-8.9
 31
0.0
  0
MTEXT
  5
2C5
330
289
100
AcDbEntity
  8
41
  6
Continuous
 62
     2
370
    18
100
AcDbMText
 10
118.0
 20
-5.4
 30
0.0
 40
3.5
 41
0.0
 71
     5
 72
     5
  1
\W0.6016;1:1
  7
iso_b_vert
 73
     2
 44
1.084337
1001
ACAD
1000
MTEXTBEGIN
1070
    73
1070
     2
1070
    44
1040
1.084337
1070
    74
1070
     0
1000
MTEXTEND
  0
LINE
  5
2C6
330
289
100
AcDbEntity
  8
250
  6
Continuous
 62
     5
370
    18
100
AcDbLine
 10
124.0
 20
-8.9
 30
0.0
 11
180.0
 21
-8.9
 31
0.0
  0
LINE
  5
2C7
330
289
100
AcDbEntity
  8
250
  6
Continuous
 62
     5
370
    18
100
AcDbLine
 10
180.0
 20
-5.4
 30
0.0
 11
180.0
 21
-8.9
 31
0.0
  0
ENDBLK
  5
2CA
330
289
100
AcDbEntity
  8
0
100
AcDbBlockEnd
  0
BLOCK
  5
2F9
330
2CB
100
AcDbEntity
  8
0
100
AcDbBlockBegin
  2
TabularNote3
 70
     0
 10
0.0
 20
0.0
 30
0.0
  3
TabularNote3
  1

  0
LINE
  5
2CC
330
2CB
100
AcDbEntity
  8
250
  6
Continuous
 62
     5
370
    18
100
AcDbLine
 10
0.0
 20
0.0
 30
0.0
 11
10.0
 21
0.0
 31
0.0
  0
LINE
  5
2CD
330
2CB
100
AcDbEntity
  8
250
  6
Continuous
 62
     5
370
    18
100
AcDbLine
 10
0.0
 20
0.0
 30
0.0
 11
0.0
 21
-1.9
 31
0.0
  0
LINE
  5
2CE
330
2CB
100
AcDbEntity
  8
250
  6
Continuous
 62
     5
370
    18
100
AcDbLine
 10
10.0
 20
0.0
 30
0.0
 11
10.0
 21
-1.9
 31
0.0
  0
MTEXT
  5
2CF
330
2CB
100
AcDbEntity
  8
41
  6
Continuous
 62
     2
370
    18
100
AcDbMText
 10
0.575
 20
-0.95
 30
0.0
 40
1.0
 41
0.0
 71
     4
 72
     5
  1
\W0.8569;FORMAT
  7
iso_b_vert
 73
     2
 44
1.084337
1001
ACAD
1000
MTEXTBEGIN
1070
    73
1070
     2
1070
    44
1040
1.084337
1070
    74
1070
     0
1000
MTEXTEND
  0
LINE
  5
2D0
330
2CB
100
AcDbEntity
  8
250
  6
Continuous
 62
     5
370
    18
100
AcDbLine
 10
10.0
 20
0.0
 30
0.0
 11
33.0
 21
0.0
 31
0.0
  0
LINE
  5
2D1
330
2CB
100
AcDbEntity
  8
250
  6
Continuous
 62
     5
370
    18
100
AcDbLine
 10
33.0
 20
0.0
 30
0.0
 11
33.0
 21
-1.9
 31
0.0
  0
LINE
  5
2D2
330
2CB
100
AcDbEntity
  8
250
  6
Continuous
 62
     5
370
    18
100
AcDbLine
 10
33.0
 20
0.0
 30
0.0
 11
94.0
 21
0.0
 31
0.0
  0
LINE
  5
2D3
330
2CB
100
AcDbEntity
  8
250
  6
Continuous
 62
     5
370
    18
100
AcDbLine
 10
94.0
 20
0.0
 30
0.0
 11
94.0
 21
-1.9
 31
0.0
  0
MTEXT
  5
2D4
330
2CB
100
AcDbEntity
  8
41
  6
Continuous
 62
     2
370
    18
100
AcDbMText
 10
33.575
 20
-0.95
 30
0.0
 40
1.0
 41
0.0
 71
     4
 72
     5
  1
\W0.8199;SUB-KIND DESCRIPTION
  7
iso_b_vert
 73
     2
 44
1.084337
1001
ACAD
1000
MTEXTBEGIN
1070
    73
1070
     2
1070
    44
1040
1.084337
1070
    74
1070
     0
1000
MTEXTEND
  0
LINE
  5
2D5
330
2CB
100
AcDbEntity
  8
250
  6
Continuous
 62
     5
370
    18
100
AcDbLine
 10
94.0
 20
0.0
 30
0.0
 11
116.0
 21
0.0
 31
0.0
  0
LINE
  5
2D6
330
2CB
100
AcDbEntity
  8
250
  6
Continuous
 62
     5
370
    18
100
AcDbLine
 10
116.0
 20
0.0
 30
0.0
 11
116.0
 21
-1.9
 31
0.0
  0
MTEXT
  5
2D7
330
2CB
100
AcDbEntity
  8
41
  6
Continuous
 62
     2
370
    18
100
AcDbMText
 10
94.57500000000001
 20
-0.95
 30
0.0
 40
1.0
 41
0.0
 71
     4
 72
     5
  1
\W0.8011;SUB-KIND
  7
iso_b_vert
 73
     2
 44
1.084337
1001
ACAD
1000
MTEXTBEGIN
1070
    73
1070
     2
1070
    44
1040
1.084337
1070
    74
1070
     0
1000
MTEXTEND
  0
LINE
  5
2D8
330
2CB
100
AcDbEntity
  8
250
  6
Continuous
 62
     5
370
    18
100
AcDbLine
 10
116.0
 20
0.0
 30
0.0
 11
148.0
 21
0.0
 31
0.0
  0
LINE
  5
2D9
330
2CB
100
AcDbEntity
  8
250
  6
Continuous
 62
     5
370
    18
100
AcDbLine
 10
148.0
 20
0.0
 30
0.0
 11
148.0
 21
-1.9
 31
0.0
  0
MTEXT
  5
2DA
330
2CB
100
AcDbEntity
  8
41
  6
Continuous
 62
     2
370
    18
100
AcDbMText
 10
116.575
 20
-0.95
 30
0.0
 40
1.0
 41
0.0
 71
     4
 72
     5
  1
\W0.8484;DRAWING NUMBER
  7
iso_b_vert
 73
     2
 44
1.084337
1001
ACAD
1000
MTEXTBEGIN
1070
    73
1070
     2
1070
    44
1040
1.084337
1070
    74
1070
     0
1000
MTEXTEND
  0
LINE
  5
2DB
330
2CB
100
AcDbEntity
  8
250
  6
Continuous
 62
     5
370
    18
100
AcDbLine
 10
148.0
 20
0.0
 30
0.0
 11
159.0
 21
0.0
 31
0.0
  0
LINE
  5
2DC
330
2CB
100
AcDbEntity
  8
250
  6
Continuous
 62
     5
370
    18
100
AcDbLine
 10
159.0
 20
0.0
 30
0.0
 11
159.0
 21
-1.9
 31
0.0
  0
LINE
  5
2DD
330
2CB
100
AcDbEntity
  8
250
  6
Continuous
 62
     5
370
    18
100
AcDbLine
 10
159.0
 20
0.0
 30
0.0
 11
170.0
 21
0.0
 31
0.0
  0
LINE
  5
2DE
330
2CB
100
AcDbEntity
  8
250
  6
Continuous
 62
     5
370
    18
100
AcDbLine
 10
170.0
 20
0.0
 30
0.0
 11
170.0
 21
-1.9
 31
0.0
  0
LINE
  5
2DF
330
2CB
100
AcDbEntity
  8
250
  6
Continuous
 62
     5
370
    18
100
AcDbLine
 10
170.0
 20
0.0
 30
0.0
 11
180.0
 21
0.0
 31
0.0
  0
LINE
  5
2E0
330
2CB
100
AcDbEntity
  8
250
  6
Continuous
 62
     5
370
    18
100
AcDbLine
 10
180.0
 20
0.0
 30
0.0
 11
180.0
 21
-1.9
 31
0.0
  0
MTEXT
  5
2E1
330
2CB
100
AcDbEntity
  8
41
  6
Continuous
 62
     2
370
    18
100
AcDbMText
 10
170.575
 20
-0.95
 30
0.0
 40
1.0
 41
0.0
 71
     4
 72
     5
  1
\W0.8706;VERSION
  7
iso_b_vert
 73
     2
 44
1.084337
1001
ACAD
1000
MTEXTBEGIN
1070
    73
1070
     2
1070
    44
1040
1.084337
1070
    74
1070
     0
1000
MTEXTEND
  0
LINE
  5
2E2
330
2CB
100
AcDbEntity
  8
250
  6
Continuous
 62
     5
370
    18
100
AcDbLine
 10
0.0
 20
-1.9
 30
0.0
 11
0.0
 21
-8.9
 31
0.0
  0
LINE
  5
2E3
330
2CB
100
AcDbEntity
  8
250
  6
Continuous
 62
     5
370
    18
100
AcDbLine
 10
10.0
 20
-1.9
 30
0.0
 11
10.0
 21
-8.9
 31
0.0
  0
LINE
  5
2E4
330
2CB
100
AcDbEntity
  8
250
  6
Continuous
 62
     5
370
    18
100
AcDbLine
 10
0.0
 20
-8.9
 30
0.0
 11
10.0
 21
-8.9
 31
0.0
  0
MTEXT
  5
2E5
330
2CB
100
AcDbEntity
  8
41
  6
Continuous
 62
     2
370
    18
100
AcDbMText
 10
1.825
 20
-5.4
 30
0.0
 40
3.5
 41
0.0
 71
     4
 72
     5
  1
\W0.8203;A3
  7
iso_b_vert
 73
     2
 44
1.084337
1001
ACAD
1000
MTEXTBEGIN
1070
    73
1070
     2
1070
    44
1040
1.084337
1070
    74
1070
     0
1000
MTEXTEND
  0
LINE
  5
2E6
330
2CB
100
AcDbEntity
  8
250
  6
Continuous
 62
     5
370
    18
100
AcDbLine
 10
33.0
 20
-1.9
 30
0.0
 11
33.0
 21
-8.9
 31
0.0
  0
LINE
  5
2E7
330
2CB
100
AcDbEntity
  8
250
  6
Continuous
 62
     5
370
    18
100
AcDbLine
 10
10.0
 20
-8.9
 30
0.0
 11
33.0
 21
-8.9
 31
0.0
  0
LINE
  5
2E8
330
2CB
100
AcDbEntity
  8
250
  6
Continuous
 62
     5
370
    18
100
AcDbLine
 10
94.0
 20
-1.9
 30
0.0
 11
94.0
 21
-8.9
 31
0.0
  0
LINE
  5
2E9
330
2CB
100
AcDbEntity
  8
250
  6
Continuous
 62
     5
370
    18
100
AcDbLine
 10
33.0
 20
-8.9
 30
0.0
 11
94.0
 21
-8.9
 31
0.0
  0
MTEXT
  5
2EA
330
2CB
100
AcDbEntity
  8
41
  6
Continuous
 62
     2
370
    18
100
AcDbMText
 10
34.825
 20
-5.4
 30
0.0
 40
3.5
 41
0.0
 71
     4
 72
     5
  1
\W0.8564;Assembling Directives
  7
iso_b_vert
 73
     2
 44
1.084337
1001
ACAD
1000
MTEXTBEGIN
1070
    73
1070
     2
1070
    44
1040
1.084337
1070
    74
1070
     0
1000
MTEXTEND
  0
LINE
  5
2EB
330
2CB
100
AcDbEntity
  8
250
  6
Continuous
 62
     5
370
    18
100
AcDbLine
 10
116.0
 20
-1.9
 30
0.0
 11
116.0
 21
-8.9
 31
0.0
  0
LINE
  5
2EC
330
2CB
100
AcDbEntity
  8
250
  6
Continuous
 62
     5
370
    18
100
AcDbLine
 10
94.0
 20
-8.9
 30
0.0
 11
116.0
 21
-8.9
 31
0.0
  0
MTEXT
  5
2ED
330
2CB
100
AcDbEntity
  8
41
  6
Continuous
 62
     2
370
    18
100
AcDbMText
 10
95.82500000000001
 20
-5.4
 30
0.0
 40
3.5
 41
0.0
 71
     4
 72
     5
  1
\W0.7880;TB07_00
  7
iso_b_vert
 73
     2
 44
1.084337
1001
ACAD
1000
MTEXTBEGIN
1070
    73
1070
     2
1070
    44
1040
1.084337
1070
    74
1070
     0
1000
MTEXTEND
  0
LINE
  5
2EE
330
2CB
100
AcDbEntity
  8
250
  6
Continuous
 62
     5
370
    18
100
AcDbLine
 10
116.0
 20
-8.9
 30
0.0
 11
148.0
 21
-8.9
 31
0.0
  0
MTEXT
  5
2EF
330
2CB
100
AcDbEntity
  8
41
  6
Continuous
 62
     2
370
    18
100
AcDbMText
 10
146.25
 20
-5.4
 30
0.0
 40
3.5
 41
0.0
 71
     6
 72
     5
  1
\W0.7740;203249215
  7
iso_b_vert
 73
     2
 44
1.084337
1001
ACAD
1000
MTEXTBEGIN
1070
    73
1070
     2
1070
    44
1040
1.084337
1070
    74
1070
     0
1000
MTEXTEND
  0
LINE
  5
2F0
330
2CB
100
AcDbEntity
  8
250
  6
Continuous
 62
     5
370
    18
100
AcDbLine
 10
148.0
 20
-8.9
 30
0.0
 11
159.0
 21
-8.9
 31
0.0
  0
MTEXT
  5
2F1
330
2CB
100
AcDbEntity
  8
41
  6
Continuous
 62
     2
370
    18
100
AcDbMText
 10
149.748828
 20
-5.4
 30
0.0
 40
3.5
 41
0.0
 71
     4
 72
     5
  1
\W0.7517;D20
  7
iso_b_vert
 73
     2
 44
1.084337
1001
ACAD
1000
MTEXTBEGIN
1070
    73
1070
     2
1070
    44
1040
1.084337
1070
    74
1070
     0
1000
MTEXTEND
  0
LINE
  5
2F2
330
2CB
100
AcDbEntity
  8
250
  6
Continuous
 62
     5
370
    18
100
AcDbLine
 10
170.0
 20
-1.9
 30
0.0
 11
170.0
 21
-8.9
 31
0.0
  0
LINE
  5
2F3
330
2CB
100
AcDbEntity
  8
250
  6
Continuous
 62
     5
370
    18
100
AcDbLine
 10
159.0
 20
-8.9
 30
0.0
 11
170.0
 21
-8.9
 31
0.0
  0
MTEXT
  5
2F4
330
2CB
100
AcDbEntity
  8
41
  6
Continuous
 62
     2
370
    18
100
AcDbMText
 10
160.825
 20
-5.4
 30
0.0
 40
3.5
 41
0.0
 71
     4
 72
     5
  1
\W0.7535;002
  7
iso_b_vert
 73
     2
 44
1.084337
1001
ACAD
1000
MTEXTBEGIN
1070
    73
1070
     2
1070
    44
1040
1.084337
1070
    74
1070
     0
1000
MTEXTEND
  0
LINE
  5
2F5
330
2CB
100
AcDbEntity
  8
250
  6
Continuous
 62
     5
370
    18
100
AcDbLine
 10
180.0
 20
-1.9
 30
0.0
 11
180.0
 21
-8.9
 31
0.0
  0
LINE
  5
2F6
330
2CB
100
AcDbEntity
  8
250
  6
Continuous
 62
     5
370
    18
100
AcDbLine
 10
170.0
 20
-8.9
 30
0.0
 11
180.0
 21
-8.9
 31
0.0
  0
MTEXT
  5
2F7
330
2CB
100
AcDbEntity
  8
41
  6
Continuous
 62
     2
370
    18
100
AcDbMText
 10
171.825
 20
-5.4
 30
0.0
 40
3.5
 41
0.0
 71
     4
 72
     5
  1
\W0.7335;00
  7
iso_b_vert
 73
     2
 44
1.084337
1001
ACAD
1000
MTEXTBEGIN
1070
    73
1070
     2
1070
    44
1040
1.084337
1070
    74
1070
     0
1000
MTEXTEND
  0
ENDBLK
  5
2FA
330
2CB
100
AcDbEntity
  8
0
100
AcDbBlockEnd
  0
BLOCK
  5
33B
330
2FB
100
AcDbEntity
  8
0
100
AcDbBlockBegin
  2
TOL_TABLE
 70
     0
 10
0.0
 20
0.0
 30
0.0
  3
TOL_TABLE
  1

  0
LINE
  5
2FC
330
2FB
100
AcDbEntity
  8
250
  6
Continuous
 62
     5
370
    18
100
AcDbLine
 10
-65.22
 20
44.43999999999999
 30
0.0
 11
-53.22
 21
44.43999999999999
 31
0.0
  0
LINE
  5
2FD
330
2FB
100
AcDbEntity
  8
250
  6
Continuous
 62
     5
370
    18
100
AcDbLine
 10
-65.22
 20
44.43999999999999
 30
0.0
 11
-65.22
 21
36.97
 31
0.0
  0
LINE
  5
2FE
330
2FB
100
AcDbEntity
  8
250
  6
Continuous
 62
     5
370
    18
100
AcDbLine
 10
-65.22
 20
36.97
 30
0.0
 11
-53.22
 21
36.97
 31
0.0
  0
LINE
  5
2FF
330
2FB
100
AcDbEntity
  8
250
  6
Continuous
 62
     5
370
    18
100
AcDbLine
 10
-53.22
 20
44.43999999999999
 30
0.0
 11
-50.22
 21
44.43999999999999
 31
0.0
  0
LINE
  5
300
330
2FB
100
AcDbEntity
  8
250
  6
Continuous
 62
     5
370
    18
100
AcDbLine
 10
-53.22
 20
36.97
 30
0.0
 11
-50.22
 21
36.97
 31
0.0
  0
LINE
  5
301
330
2FB
100
AcDbEntity
  8
250
  6
Continuous
 62
     5
370
    18
100
AcDbLine
 10
-50.22
 20
44.43999999999999
 30
0.0
 11
-40.22
 21
44.43999999999999
 31
0.0
  0
LINE
  5
302
330
2FB
100
AcDbEntity
  8
250
  6
Continuous
 62
     5
370
    18
100
AcDbLine
 10
-50.22
 20
36.97
 30
0.0
 11
-40.22
 21
36.97
 31
0.0
  0
LINE
  5
303
330
2FB
100
AcDbEntity
  8
250
  6
Continuous
 62
     5
370
    18
100
AcDbLine
 10
-40.22
 20
44.43999999999999
 30
0.0
 11
-30.22
 21
44.43999999999999
 31
0.0
  0
LINE
  5
304
330
2FB
100
AcDbEntity
  8
250
  6
Continuous
 62
     5
370
    18
100
AcDbLine
 10
-40.22
 20
36.97
 30
0.0
 11
-30.22
 21
36.97
 31
0.0
  0
MTEXT
  5
305
330
2FB
100
AcDbEntity
  8
41
  6
Continuous
 62
     2
370
    18
100
AcDbMText
 10
-64.19499999999999
 20
40.705
 30
0.0
 40
2.0
 41
0.0
 71
     4
 72
     5
  1
\W1.3303;Tolerance systems acc. to ISO\PSurface roughness Ra {\fArial Unicode MS;µ}m
  7
blockfont
 73
     1
 44
0.9036139999999999
1001
ACAD
1000
MTEXTBEGIN
1070
    73
1070
     1
1070
    44
1040
0.9036139999999999
1070
    74
1070
     0
1000
MTEXTEND
  0
LINE
  5
306
330
2FB
100
AcDbEntity
  8
250
  6
Continuous
 62
     5
370
    18
100
AcDbLine
 10
-30.22
 20
44.43999999999999
 30
0.0
 11
-21.22
 21
44.43999999999999
 31
0.0
  0
LINE
  5
307
330
2FB
100
AcDbEntity
  8
250
  6
Continuous
 62
     5
370
    18
100
AcDbLine
 10
-30.22
 20
36.97
 30
0.0
 11
-21.22
 21
36.97
 31
0.0
  0
LINE
  5
308
330
2FB
100
AcDbEntity
  8
250
  6
Continuous
 62
     5
370
    18
100
AcDbLine
 10
-21.22
 20
44.43999999999999
 30
0.0
 11
-18.22
 21
44.43999999999999
 31
0.0
  0
LINE
  5
309
330
2FB
100
AcDbEntity
  8
250
  6
Continuous
 62
     5
370
    18
100
AcDbLine
 10
-21.22
 20
36.97
 30
0.0
 11
-18.22
 21
36.97
 31
0.0
  0
LINE
  5
30A
330
2FB
100
AcDbEntity
  8
250
  6
Continuous
 62
     5
370
    18
100
AcDbLine
 10
-18.22
 20
44.43999999999999
 30
0.0
 11
-10.22
 21
44.43999999999999
 31
0.0
  0
LINE
  5
30B
330
2FB
100
AcDbEntity
  8
250
  6
Continuous
 62
     5
370
    18
100
AcDbLine
 10
-18.22
 20
36.97
 30
0.0
 11
-10.22
 21
36.97
 31
0.0
  0
LINE
  5
30C
330
2FB
100
AcDbEntity
  8
250
  6
Continuous
 62
     5
370
    18
100
AcDbLine
 10
-10.22
 20
44.43999999999999
 30
0.0
 11
0.0
 21
44.43999999999999
 31
0.0
  0
LINE
  5
30D
330
2FB
100
AcDbEntity
  8
250
  6
Continuous
 62
     5
370
    18
100
AcDbLine
 10
-10.22
 20
36.97
 30
0.0
 11
0.0
 21
36.97
 31
0.0
  0
LINE
  5
30E
330
2FB
100
AcDbEntity
  8
250
  6
Continuous
 62
     5
370
    18
100
AcDbLine
 10
0.0
 20
44.43999999999999
 30
0.0
 11
0.0
 21
36.97
 31
0.0
  0
LINE
  5
30F
330
2FB
100
AcDbEntity
  8
250
  6
Continuous
 62
     5
370
    18
100
AcDbLine
 10
-65.22
 20
36.97
 30
0.0
 11
-65.22
 21
23.55
 31
0.0
  0
LINE
  5
310
330
2FB
100
AcDbEntity
  8
250
  6
Continuous
 62
     5
370
    18
100
AcDbLine
 10
-65.22
 20
23.55
 30
0.0
 11
-53.22
 21
23.55
 31
0.0
  0
LINE
  5
311
330
2FB
100
AcDbEntity
  8
250
  6
Continuous
 62
     5
370
    18
100
AcDbLine
 10
-53.22
 20
23.55
 30
0.0
 11
-50.22
 21
23.55
 31
0.0
  0
LINE
  5
312
330
2FB
100
AcDbEntity
  8
250
  6
Continuous
 62
     5
370
    18
100
AcDbLine
 10
-50.22
 20
23.55
 30
0.0
 11
-40.22
 21
23.55
 31
0.0
  0
LINE
  5
313
330
2FB
100
AcDbEntity
  8
250
  6
Continuous
 62
     5
370
    18
100
AcDbLine
 10
-40.22
 20
23.55
 30
0.0
 11
-30.22
 21
23.55
 31
0.0
  0
MTEXT
  5
314
330
2FB
100
AcDbEntity
  8
41
  6
Continuous
 62
     2
370
    18
100
AcDbMText
 10
-64.19499999999999
 20
30.26
 30
0.0
 40
2.0
 41
0.0
 71
     4
 72
     5
  1
\W1.3679;Where tolerance not stated:\PThreads: ISO 965/2\PDimensions: ISO 2768-1 Medium\P\Q20.000000;* = Company standard\Q0;
  7
blockfont
 73
     1
 44
0.9036139999999999
1001
ACAD
1000
MTEXTBEGIN
1070
    73
1070
     1
1070
    44
1040
0.9036139999999999
1070
    74
1070
     0
1000
MTEXTEND
  0
LINE
  5
315
330
2FB
100
AcDbEntity
  8
250
  6
Continuous
 62
     5
370
    18
100
AcDbLine
 10
-30.22
 20
23.55
 30
0.0
 11
-21.22
 21
23.55
 31
0.0
  0
LINE
  5
316
330
2FB
100
AcDbEntity
  8
250
  6
Continuous
 62
     5
370
    18
100
AcDbLine
 10
-21.22
 20
23.55
 30
0.0
 11
-18.22
 21
23.55
 31
0.0
  0
LINE
  5
317
330
2FB
100
AcDbEntity
  8
250
  6
Continuous
 62
     5
370
    18
100
AcDbLine
 10
-18.22
 20
23.55
 30
0.0
 11
-10.22
 21
23.55
 31
0.0
  0
LINE
  5
318
330
2FB
100
AcDbEntity
  8
250
  6
Continuous
 62
     5
370
    18
100
AcDbLine
 10
-10.22
 20
23.55
 30
0.0
 11
0.0
 21
23.55
 31
0.0
  0
LINE
  5
319
330
2FB
100
AcDbEntity
  8
250
  6
Continuous
 62
     5
370
    18
100
AcDbLine
 10
0.0
 20
36.97
 30
0.0
 11
0.0
 21
23.55
 31
0.0
  0
LINE
  5
31A
330
2FB
100
AcDbEntity
  8
250
  6
Continuous
 62
     5
370
    18
100
AcDbLine
 10
-65.22
 20
23.55
 30
0.0
 11
-65.22
 21
18.55
 31
0.0
  0
MTEXT
  5
31B
330
2FB
100
AcDbEntity
  8
41
  6
Continuous
 62
     2
370
    18
100
AcDbMText
 10
-64.19499999999999
 20
21.050001
 30
0.0
 40
2.0
 41
0.0
 71
     4
 72
     5
  1
\W1.3318;Dimensions
  7
blockfont
 73
     2
 44
0.9036139999999999
1001
ACAD
1000
MTEXTBEGIN
1070
    73
1070
     2
1070
    44
1040
0.9036139999999999
1070
    74
1070
     0
1000
MTEXTEND
  0
LINE
  5
31C
330
2FB
100
AcDbEntity
  8
250
  6
Continuous
 62
     5
370
    18
100
AcDbLine
 10
-40.22
 20
23.55
 30
0.0
 11
-40.22
 21
18.55
 31
0.0
  0
LINE
  5
31D
330
2FB
100
AcDbEntity
  8
250
  6
Continuous
 62
     5
370
    18
100
AcDbLine
 10
-30.22
 20
23.55
 30
0.0
 11
-30.22
 21
18.55
 31
0.0
  0
MTEXT
  5
31E
330
2FB
100
AcDbEntity
  8
41
  6
Continuous
 62
     2
370
    18
100
AcDbMText
 10
-39.247101
 20
21.050001
 30
0.0
 40
2.0
 41
0.0
 71
     4
 72
     5
  1
\W1.8082;Tol.
  7
blockfont
 73
     2
 44
0.9036139999999999
1001
ACAD
1000
MTEXTBEGIN
1070
    73
1070
     2
1070
    44
1040
0.9036139999999999
1070
    74
1070
     0
1000
MTEXTEND
  0
MTEXT
  5
31F
330
2FB
100
AcDbEntity
  8
41
  6
Continuous
 62
     2
370
    18
100
AcDbMText
 10
-29.195
 20
21.050001
 30
0.0
 40
2.0
 41
0.0
 71
     4
 72
     5
  1
\W1.4027;Angle
  7
blockfont
 73
     2
 44
0.9036139999999999
1001
ACAD
1000
MTEXTBEGIN
1070
    73
1070
     2
1070
    44
1040
0.9036139999999999
1070
    74
1070
     0
1000
MTEXTEND
  0
LINE
  5
320
330
2FB
100
AcDbEntity
  8
250
  6
Continuous
 62
     5
370
    18
100
AcDbLine
 10
-10.22
 20
23.55
 30
0.0
 11
-10.22
 21
18.55
 31
0.0
  0
LINE
  5
321
330
2FB
100
AcDbEntity
  8
250
  6
Continuous
 62
     5
370
    18
100
AcDbLine
 10
0.0
 20
23.55
 30
0.0
 11
0.0
 21
18.55
 31
0.0
  0
MTEXT
  5
322
330
2FB
100
AcDbEntity
  8
41
  6
Continuous
 62
     2
370
    18
100
AcDbMText
 10
-9.224914999999999
 20
21.050001
 30
0.0
 40
2.0
 41
0.0
 71
     4
 72
     5
  1
\W1.8431;Tol.
  7
blockfont
 73
     2
 44
0.9036139999999999
1001
ACAD
1000
MTEXTBEGIN
1070
    73
1070
     2
1070
    44
1040
0.9036139999999999
1070
    74
1070
     0
1000
MTEXTEND
  0
LINE
  5
323
330
2FB
100
AcDbEntity
  8
250
  6
Continuous
 62
     5
370
    18
100
AcDbLine
 10
-65.22
 20
18.55
 30
0.0
 11
-65.22
 21
11.55
 31
0.0
  0
LINE
  5
324
330
2FB
100
AcDbEntity
  8
250
  6
Continuous
 62
     5
370
    18
100
AcDbLine
 10
-30.22
 20
18.55
 30
0.0
 11
-30.22
 21
11.55
 31
0.0
  0
MTEXT
  5
325
330
2FB
100
AcDbEntity
  8
41
  6
Continuous
 62
     2
370
    18
100
AcDbMText
 10
-29.482174
 20
15.050001
 30
0.0
 40
2.0
 41
0.0
 71
     4
 72
     5
  1
\W1.0175;(Shortest adjacent\Pside in mm)
  7
blockfont
 73
     1
 44
0.9036139999999999
1001
ACAD
1000
MTEXTBEGIN
1070
    73
1070
     1
1070
    44
1040
0.9036139999999999
1070
    74
1070
     0
1000
MTEXTEND
  0
LINE
  5
326
330
2FB
100
AcDbEntity
  8
250
  6
Continuous
 62
     5
370
    18
100
AcDbLine
 10
0.0
 20
18.55
 30
0.0
 11
0.0
 21
11.55
 31
0.0
  0
LINE
  5
327
330
2FB
100
AcDbEntity
  8
250
  6
Continuous
 62
     5
370
    18
100
AcDbLine
 10
-65.22
 20
11.55
 30
0.0
 11
-65.22
 21
0.0
 31
0.0
  0
LINE
  5
328
330
2FB
100
AcDbEntity
  8
250
  6
Continuous
 62
     5
370
    18
100
AcDbLine
 10
-65.22
 20
0.0
 30
0.0
 11
-53.22
 21
0.0
 31
0.0
  0
MTEXT
  5
329
330
2FB
100
AcDbEntity
  8
41
  6
Continuous
 62
     2
370
    18
100
AcDbMText
 10
-64.494869
 20
9.274999000000001
 30
0.0
 40
1.5
 41
0.0
 71
     4
 72
     5
  1
\W1.9399;\Q20.000000;* \Q0; \P\Q20.000000;* \Q0;(0.2)\P0.5\P(6)\P(30)\P(120)\P(400)
  7
blockfont
 73
     1
 44
0.9036139999999999
1001
ACAD
1000
MTEXTBEGIN
1070
    73
1070
     1
1070
    44
1040
0.9036139999999999
1070
    74
1070
     0
1000
MTEXTEND
  0
LINE
  5
32A
330
2FB
100
AcDbEntity
  8
250
  6
Continuous
 62
     5
370
    18
100
AcDbLine
 10
-53.22
 20
0.0
 30
0.0
 11
-50.22
 21
0.0
 31
0.0
  0
MTEXT
  5
32B
330
2FB
100
AcDbEntity
  8
41
  6
Continuous
 62
     2
370
    18
100
AcDbMText
 10
-52.445
 20
9.274999000000001
 30
0.0
 40
1.5
 41
0.0
 71
     4
 72
     5
  1
\W1.1484;-\P-\P-\P-\P-\P-
  7
blockfont
 73
     1
 44
0.9036139999999999
1001
ACAD
1000
MTEXTBEGIN
1070
    73
1070
     1
1070
    44
1040
0.9036139999999999
1070
    74
1070
     0
1000
MTEXTEND
  0
LINE
  5
32C
330
2FB
100
AcDbEntity
  8
250
  6
Continuous
 62
     5
370
    18
100
AcDbLine
 10
-50.22
 20
0.0
 30
0.0
 11
-40.22
 21
0.0
 31
0.0
  0
MTEXT
  5
32D
330
2FB
100
AcDbEntity
  8
41
  6
Continuous
 62
     2
370
    18
100
AcDbMText
 10
-49.445
 20
9.274999000000001
 30
0.0
 40
1.5
 41
0.0
 71
     4
 72
     5
  1
\W1.5064;0.2\P0.499\P6\P30\P120\P400\P1000
  7
blockfont
 73
     1
 44
0.9036139999999999
1001
ACAD
1000
MTEXTBEGIN
1070
    73
1070
     1
1070
    44
1040
0.9036139999999999
1070
    74
1070
     0
1000
MTEXTEND
  0
LINE
  5
32E
330
2FB
100
AcDbEntity
  8
250
  6
Continuous
 62
     5
370
    18
100
AcDbLine
 10
-40.22
 20
0.0
 30
0.0
 11
-30.22
 21
0.0
 31
0.0
  0
LINE
  5
32F
330
2FB
100
AcDbEntity
  8
250
  6
Continuous
 62
     5
370
    18
100
AcDbLine
 10
-30.22
 20
11.55
 30
0.0
 11
-30.22
 21
0.0
 31
0.0
  0
MTEXT
  5
330
330
2FB
100
AcDbEntity
  8
41
  6
Continuous
 62
     2
370
    18
100
AcDbMText
 10
-39.445
 20
9.274999000000001
 30
0.0
 40
1.5
 41
0.0
 71
     4
 72
     5
  1
\W1.2469;\W0.6234;%%p\W1.2469;0.05\P\W0.6234;%%p\W1.2469;0.10\P\W0.6234;%%p\W1.2469;0.10\P\W0.6234;%%p\W1.2469;0.20\P\W0.6234;%%p\W1.2469;0.30\P\W0.6234;%%p\W1.2469;0.50\P\W0.6234;%%p\W1.2469;0.80
  7
blockfont
 73
     1
 44
0.9036139999999999
1001
ACAD
1000
MTEXTBEGIN
1070
    73
1070
     1
1070
    44
1040
0.9036139999999999
1070
    74
1070
     0
1000
MTEXTEND
  0
LINE
  5
331
330
2FB
100
AcDbEntity
  8
250
  6
Continuous
 62
     5
370
    18
100
AcDbLine
 10
-30.22
 20
0.0
 30
0.0
 11
-21.22
 21
0.0
 31
0.0
  0
MTEXT
  5
332
330
2FB
100
AcDbEntity
  8
41
  6
Continuous
 62
     2
370
    18
100
AcDbMText
 10
-29.488869
 20
5.774999
 30
0.0
 40
1.5
 41
0.0
 71
     4
 72
     5
  1
\W1.0000;\P(10)\P(50)\P(120)
  7
blockfont
 73
     1
 44
0.9036139999999999
1001
ACAD
1000
MTEXTBEGIN
1070
    73
1070
     1
1070
    44
1040
0.9036139999999999
1070
    74
1070
     0
1000
MTEXTEND
  0
LINE
  5
333
330
2FB
100
AcDbEntity
  8
250
  6
Continuous
 62
     5
370
    18
100
AcDbLine
 10
-21.22
 20
0.0
 30
0.0
 11
-18.22
 21
0.0
 31
0.0
  0
MTEXT
  5
334
330
2FB
100
AcDbEntity
  8
41
  6
Continuous
 62
     2
370
    18
100
AcDbMText
 10
-20.445
 20
5.774999
 30
0.0
 40
1.5
 41
0.0
 71
     4
 72
     5
  1
\W1.1484;-\P-\P-\P-
  7
blockfont
 73
     1
 44
0.9036139999999999
1001
ACAD
1000
MTEXTBEGIN
1070
    73
1070
     1
1070
    44
1040
0.9036139999999999
1070
    74
1070
     0
1000
MTEXTEND
  0
LINE
  5
335
330
2FB
100
AcDbEntity
  8
250
  6
Continuous
 62
     5
370
    18
100
AcDbLine
 10
-18.22
 20
0.0
 30
0.0
 11
-10.22
 21
0.0
 31
0.0
  0
MTEXT
  5
336
330
2FB
100
AcDbEntity
  8
41
  6
Continuous
 62
     2
370
    18
100
AcDbMText
 10
-17.445
 20
5.774999
 30
0.0
 40
1.5
 41
0.0
 71
     4
 72
     5
  1
\W1.4547;10\P50\P120 \P -
  7
blockfont
 73
     1
 44
0.9036139999999999
1001
ACAD
1000
MTEXTBEGIN
1070
    73
1070
     1
1070
    44
1040
0.9036139999999999
1070
    74
1070
     0
1000
MTEXTEND
  0
LINE
  5
337
330
2FB
100
AcDbEntity
  8
250
  6
Continuous
 62
     5
370
    18
100
AcDbLine
 10
-10.22
 20
0.0
 30
0.0
 11
0.0
 21
0.0
 31
0.0
  0
LINE
  5
338
330
2FB
100
AcDbEntity
  8
250
  6
Continuous
 62
     5
370
    18
100
AcDbLine
 10
0.0
 20
11.55
 30
0.0
 11
0.0
 21
0.0
 31
0.0
  0
MTEXT
  5
339
330
2FB
100
AcDbEntity
  8
41
  6
Continuous
 62
     2
370
    18
100
AcDbMText
 10
-9.445
 20
5.774999
 30
0.0
 40
1.5
 41
0.0
 71
     4
 72
     5
  1
\W1.4480;\W0.7240;%%p\W1.4480;1%%d\P\W0.7240;%%p\W1.4480;30'\P\W0.7240;%%p\W1.4480;20'\P\W0.7240;%%p\W1.4480;10'
  7
blockfont
 73
     1
 44
0.9036139999999999
1001
ACAD
1000
MTEXTBEGIN
1070
    73
1070
     1
1070
    44
1040
0.9036139999999999
1070
    74
1070
     0
1000
MTEXTEND
  0
ENDBLK
  5
33C
330
2FB
100
AcDbEntity
  8
0
100
AcDbBlockEnd
  0
BLOCK
  5
35F
330
33D
100
AcDbEntity
  8
0
100
AcDbBlockBegin
  2
MODIFICATION_TABLE
 70
     0
 10
0.0
 20
0.0
 30
0.0
  3
MODIFICATION_TABLE
  1

  0
LINE
  5
33E
330
33D
100
AcDbEntity
  8
250
  6
Continuous
 62
     5
370
    18
100
AcDbLine
 10
0.0
 20
14.35
 30
0.0
 11
5.08
 21
14.35
 31
0.0
  0
LINE
  5
33F
330
33D
100
AcDbEntity
  8
250
  6
Continuous
 62
     5
370
    18
100
AcDbLine
 10
0.0
 20
14.35
 30
0.0
 11
0.0
 21
6.349999999999999
 31
0.0
  0
LINE
  5
340
330
33D
100
AcDbEntity
  8
250
  6
Continuous
 62
     5
370
    18
100
AcDbLine
 10
5.08
 20
14.35
 30
0.0
 11
5.08
 21
6.349999999999999
 31
0.0
  0
LINE
  5
341
330
33D
100
AcDbEntity
  8
250
  6
Continuous
 62
     5
370
    18
100
AcDbLine
 10
0.0
 20
6.349999999999999
 30
0.0
 11
5.08
 21
6.349999999999999
 31
0.0
  0
LINE
  5
342
330
33D
100
AcDbEntity
  8
250
  6
Continuous
 62
     5
370
    18
100
AcDbLine
 10
5.08
 20
14.35
 30
0.0
 11
15.24
 21
14.35
 31
0.0
  0
LINE
  5
343
330
33D
100
AcDbEntity
  8
250
  6
Continuous
 62
     5
370
    18
100
AcDbLine
 10
15.24
 20
14.35
 30
0.0
 11
15.24
 21
6.349999999999999
 31
0.0
  0
LINE
  5
344
330
33D
100
AcDbEntity
  8
250
  6
Continuous
 62
     5
370
    18
100
AcDbLine
 10
5.08
 20
6.349999999999999
 30
0.0
 11
15.24
 21
6.349999999999999
 31
0.0
  0
LINE
  5
345
330
33D
100
AcDbEntity
  8
250
  6
Continuous
 62
     5
370
    18
100
AcDbLine
 10
15.24
 20
14.35
 30
0.0
 11
97.00000199999999
 21
14.35
 31
0.0
  0
LINE
  5
346
330
33D
100
AcDbEntity
  8
250
  6
Continuous
 62
     5
370
    18
100
AcDbLine
 10
97.00000199999999
 20
14.35
 30
0.0
 11
97.00000199999999
 21
6.349999999999999
 31
0.0
  0
LINE
  5
347
330
33D
100
AcDbEntity
  8
250
  6
Continuous
 62
     5
370
    18
100
AcDbLine
 10
15.24
 20
6.349999999999999
 30
0.0
 11
97.00000199999999
 21
6.349999999999999
 31
0.0
  0
LINE
  5
348
330
33D
100
AcDbEntity
  8
250
  6
Continuous
 62
     5
370
    18
100
AcDbLine
 10
97.00000199999999
 20
14.35
 30
0.0
 11
114.780003
 21
14.35
 31
0.0
  0
LINE
  5
349
330
33D
100
AcDbEntity
  8
250
  6
Continuous
 62
     5
370
    18
100
AcDbLine
 10
114.780003
 20
14.35
 30
0.0
 11
114.780003
 21
6.349999999999999
 31
0.0
  0
LINE
  5
34A
330
33D
100
AcDbEntity
  8
250
  6
Continuous
 62
     5
370
    18
100
AcDbLine
 10
97.00000199999999
 20
6.349999999999999
 30
0.0
 11
114.780003
 21
6.349999999999999
 31
0.0
  0
LINE
  5
34B
330
33D
100
AcDbEntity
  8
250
  6
Continuous
 62
     5
370
    18
100
AcDbLine
 10
114.780003
 20
14.35
 30
0.0
 11
144.780003
 21
14.35
 31
0.0
  0
LINE
  5
34C
330
33D
100
AcDbEntity
  8
250
  6
Continuous
 62
     5
370
    18
100
AcDbLine
 10
144.780003
 20
14.35
 30
0.0
 11
144.780003
 21
6.349999999999999
 31
0.0
  0
LINE
  5
34D
330
33D
100
AcDbEntity
  8
250
  6
Continuous
 62
     5
370
    18
100
AcDbLine
 10
114.780003
 20
6.349999999999999
 30
0.0
 11
144.780003
 21
6.349999999999999
 31
0.0
  0
LINE
  5
34E
330
33D
100
AcDbEntity
  8
250
  6
Continuous
 62
     5
370
    18
100
AcDbLine
 10
0.0
 20
6.349999999999999
 30
0.0
 11
0.0
 21
0.0
 31
0.0
  0
LINE
  5
34F
330
33D
100
AcDbEntity
  8
250
  6
Continuous
 62
     5
370
    18
100
AcDbLine
 10
5.08
 20
6.349999999999999
 30
0.0
 11
5.08
 21
0.0
 31
0.0
  0
LINE
  5
350
330
33D
100
AcDbEntity
  8
250
  6
Continuous
 62
     5
370
    18
100
AcDbLine
 10
0.0
 20
0.0
 30
0.0
 11
5.08
 21
0.0
 31
0.0
  0
MTEXT
  5
351
330
33D
100
AcDbEntity
  8
41
  6
Continuous
 62
     2
370
    18
100
AcDbMText
 10
2.54
 20
3.174999999999999
 30
0.0
 40
1.0
 41
0.0
 71
     5
 72
     5
  1
\W0.9003;VERS.
  7
iso_b_vert
 73
     2
 44
1.084337
1001
ACAD
1000
MTEXTBEGIN
1070
    73
1070
     2
1070
    44
1040
1.084337
1070
    74
1070
     0
1000
MTEXTEND
  0
LINE
  5
352
330
33D
100
AcDbEntity
  8
250
  6
Continuous
 62
     5
370
    18
100
AcDbLine
 10
15.24
 20
6.349999999999999
 30
0.0
 11
15.24
 21
0.0
 31
0.0
  0
LINE
  5
353
330
33D
100
AcDbEntity
  8
250
  6
Continuous
 62
     5
370
    18
100
AcDbLine
 10
5.08
 20
0.0
 30
0.0
 11
15.24
 21
0.0
 31
0.0
  0
MTEXT
  5
354
330
33D
100
AcDbEntity
  8
41
  6
Continuous
 62
     2
370
    18
100
AcDbMText
 10
10.16
 20
3.174999999999999
 30
0.0
 40
1.0
 41
0.0
 71
     5
 72
     5
  1
\W0.8190;CHANGE\PNUMBER
  7
iso_b_vert
 73
     1
 44
1.084337
1001
ACAD
1000
MTEXTBEGIN
1070
    73
1070
     1
1070
    44
1040
1.084337
1070
    74
1070
     0
1000
MTEXTEND
  0
LINE
  5
355
330
33D
100
AcDbEntity
  8
250
  6
Continuous
 62
     5
370
    18
100
AcDbLine
 10
97.00000199999999
 20
6.349999999999999
 30
0.0
 11
97.00000199999999
 21
0.0
 31
0.0
  0
LINE
  5
356
330
33D
100
AcDbEntity
  8
250
  6
Continuous
 62
     5
370
    18
100
AcDbLine
 10
15.24
 20
0.0
 30
0.0
 11
97.00000199999999
 21
0.0
 31
0.0
  0
MTEXT
  5
357
330
33D
100
AcDbEntity
  8
41
  6
Continuous
 62
     2
370
    18
100
AcDbMText
 10
56.120003
 20
3.174999999999999
 30
0.0
 40
1.0
 41
0.0
 71
     5
 72
     5
  1
\W0.8467;DESCRIPTION
  7
iso_b_vert
 73
     2
 44
1.084337
1001
ACAD
1000
MTEXTBEGIN
1070
    73
1070
     2
1070
    44
1040
1.084337
1070
    74
1070
     0
1000
MTEXTEND
  0
LINE
  5
358
330
33D
100
AcDbEntity
  8
250
  6
Continuous
 62
     5
370
    18
100
AcDbLine
 10
114.780003
 20
6.349999999999999
 30
0.0
 11
114.780003
 21
0.0
 31
0.0
  0
LINE
  5
359
330
33D
100
AcDbEntity
  8
250
  6
Continuous
 62
     5
370
    18
100
AcDbLine
 10
97.00000199999999
 20
0.0
 30
0.0
 11
114.780003
 21
0.0
 31
0.0
  0
MTEXT
  5
35A
330
33D
100
AcDbEntity
  8
41
  6
Continuous
 62
     2
370
    18
100
AcDbMText
 10
105.889999
 20
3.174999999999999
 30
0.0
 40
1.0
 41
0.0
 71
     5
 72
     5
  1
\W0.8824;DATE
  7
iso_b_vert
 73
     2
 44
1.084337
1001
ACAD
1000
MTEXTBEGIN
1070
    73
1070
     2
1070
    44
1040
1.084337
1070
    74
1070
     0
1000
MTEXTEND
  0
LINE
  5
35B
330
33D
100
AcDbEntity
  8
250
  6
Continuous
 62
     5
370
    18
100
AcDbLine
 10
144.780003
 20
6.349999999999999
 30
0.0
 11
144.780003
 21
0.0
 31
0.0
  0
LINE
  5
35C
330
33D
100
AcDbEntity
  8
250
  6
Continuous
 62
     5
370
    18
100
AcDbLine
 10
114.780003
 20
0.0
 30
0.0
 11
144.780003
 21
0.0
 31
0.0
  0
MTEXT
  5
35D
330
33D
100
AcDbEntity
  8
41
  6
Continuous
 62
     2
370
    18
100
AcDbMText
 10
129.779999
 20
3.174999999999999
 30
0.0
 40
1.0
 41
0.0
 71
     5
 72
     5
  1
\W0.8385;NAME
  7
iso_b_vert
 73
     2
 44
1.084337
1001
ACAD
1000
MTEXTBEGIN
1070
    73
1070
     2
1070
    44
1040
1.084337
1070
    74
1070
     0
1000
MTEXTEND
  0
ENDBLK
  5
360
330
33D
100
AcDbEntity
  8
0
100
AcDbBlockEnd
  0
BLOCK
  5
3B0
330
361
100
AcDbEntity
  8
0
100
AcDbBlockBegin
  2
BOM
 70
     0
 10
0.0
 20
0.0
 30
0.0
  3
BOM
  1

  0
LINE
  5
362
330
361
100
AcDbEntity
  8
250
  6
Continuous
 62
     5
370
    18
100
AcDbLine
 10
0.0
 20
36.233333
 30
0.0
 11
10.0
 21
36.233333
 31
0.0
  0
LINE
  5
363
330
361
100
AcDbEntity
  8
250
  6
Continuous
 62
     5
370
    18
100
AcDbLine
 10
0.0
 20
36.233333
 30
0.0
 11
0.0
 21
28.233333
 31
0.0
  0
LINE
  5
364
330
361
100
AcDbEntity
  8
250
  6
Continuous
 62
     5
370
    18
100
AcDbLine
 10
10.0
 20
36.233333
 30
0.0
 11
10.0
 21
28.233333
 31
0.0
  0
LINE
  5
365
330
361
100
AcDbEntity
  8
250
  6
Continuous
 62
     5
370
    18
100
AcDbLine
 10
0.0
 20
28.233333
 30
0.0
 11
10.0
 21
28.233333
 31
0.0
  0
MTEXT
  5
366
330
361
100
AcDbEntity
  8
41
  6
Continuous
 62
     2
370
    18
100
AcDbMText
 10
5.0
 20
32.233333
 30
0.0
 40
2.5
 41
0.0
 71
     5
 72
     5
  1
\W0.7656;4
  7
iso_b_vert
 73
     2
 44
0.8915659999999999
1001
ACAD
1000
MTEXTBEGIN
1070
    73
1070
     2
1070
    44
1040
0.8915659999999999
1070
    74
1070
     0
1000
MTEXTEND
  0
LINE
  5
367
330
361
100
AcDbEntity
  8
250
  6
Continuous
 62
     5
370
    18
100
AcDbLine
 10
10.0
 20
36.233333
 30
0.0
 11
20.0
 21
36.233333
 31
0.0
  0
LINE
  5
368
330
361
100
AcDbEntity
  8
250
  6
Continuous
 62
     5
370
    18
100
AcDbLine
 10
20.0
 20
36.233333
 30
0.0
 11
20.0
 21
28.233333
 31
0.0
  0
LINE
  5
369
330
361
100
AcDbEntity
  8
250
  6
Continuous
 62
     5
370
    18
100
AcDbLine
 10
10.0
 20
28.233333
 30
0.0
 11
20.0
 21
28.233333
 31
0.0
  0
MTEXT
  5
36A
330
361
100
AcDbEntity
  8
41
  6
Continuous
 62
     2
370
    18
100
AcDbMText
 10
15.0
 20
32.233333
 30
0.0
 40
2.5
 41
0.0
 71
     5
 72
     5
  1
\W0.7875;1
  7
iso_b_vert
 73
     2
 44
0.8915659999999999
1001
ACAD
1000
MTEXTBEGIN
1070
    73
1070
     2
1070
    44
1040
0.8915659999999999
1070
    74
1070
     0
1000
MTEXTEND
  0
LINE
  5
36B
330
361
100
AcDbEntity
  8
250
  6
Continuous
 62
     5
370
    18
100
AcDbLine
 10
20.0
 20
36.233333
 30
0.0
 11
70.0
 21
36.233333
 31
0.0
  0
LINE
  5
36C
330
361
100
AcDbEntity
  8
250
  6
Continuous
 62
     5
370
    18
100
AcDbLine
 10
70.0
 20
36.233333
 30
0.0
 11
70.0
 21
28.233333
 31
0.0
  0
LINE
  5
36D
330
361
100
AcDbEntity
  8
250
  6
Continuous
 62
     5
370
    18
100
AcDbLine
 10
20.0
 20
28.233333
 30
0.0
 11
70.0
 21
28.233333
 31
0.0
  0
MTEXT
  5
36E
330
361
100
AcDbEntity
  8
41
  6
Continuous
 62
     2
370
    18
100
AcDbMText
 10
21.325
 20
32.233333
 30
0.0
 40
2.5
 41
0.0
 71
     4
 72
     5
  1
\W0.8755;SCREWDRIVER
  7
iso_b_vert
 73
     2
 44
0.8915659999999999
1001
ACAD
1000
MTEXTBEGIN
1070
    73
1070
     2
1070
    44
1040
0.8915659999999999
1070
    74
1070
     0
1000
MTEXTEND
  0
LINE
  5
36F
330
361
100
AcDbEntity
  8
250
  6
Continuous
 62
     5
370
    18
100
AcDbLine
 10
70.0
 20
36.233333
 30
0.0
 11
127.0
 21
36.233333
 31
0.0
  0
LINE
  5
370
330
361
100
AcDbEntity
  8
250
  6
Continuous
 62
     5
370
    18
100
AcDbLine
 10
127.0
 20
36.233333
 30
0.0
 11
127.0
 21
28.233333
 31
0.0
  0
LINE
  5
371
330
361
100
AcDbEntity
  8
250
  6
Continuous
 62
     5
370
    18
100
AcDbLine
 10
70.0
 20
28.233333
 30
0.0
 11
127.0
 21
28.233333
 31
0.0
  0
LINE
  5
372
330
361
100
AcDbEntity
  8
250
  6
Continuous
 62
     5
370
    18
100
AcDbLine
 10
127.0
 20
36.233333
 30
0.0
 11
180.0
 21
36.233333
 31
0.0
  0
LINE
  5
373
330
361
100
AcDbEntity
  8
250
  6
Continuous
 62
     5
370
    18
100
AcDbLine
 10
180.0
 20
36.233333
 30
0.0
 11
180.0
 21
28.233333
 31
0.0
  0
LINE
  5
374
330
361
100
AcDbEntity
  8
250
  6
Continuous
 62
     5
370
    18
100
AcDbLine
 10
127.0
 20
28.233333
 30
0.0
 11
180.0
 21
28.233333
 31
0.0
  0
LINE
  5
375
330
361
100
AcDbEntity
  8
250
  6
Continuous
 62
     5
370
    18
100
AcDbLine
 10
0.0
 20
28.233333
 30
0.0
 11
0.0
 21
20.233333
 31
0.0
  0
LINE
  5
376
330
361
100
AcDbEntity
  8
250
  6
Continuous
 62
     5
370
    18
100
AcDbLine
 10
10.0
 20
28.233333
 30
0.0
 11
10.0
 21
20.233333
 31
0.0
  0
LINE
  5
377
330
361
100
AcDbEntity
  8
250
  6
Continuous
 62
     5
370
    18
100
AcDbLine
 10
0.0
 20
20.233333
 30
0.0
 11
10.0
 21
20.233333
 31
0.0
  0
MTEXT
  5
378
330
361
100
AcDbEntity
  8
41
  6
Continuous
 62
     2
370
    18
100
AcDbMText
 10
5.0
 20
24.233333
 30
0.0
 40
2.5
 41
0.0
 71
     5
 72
     5
  1
\W0.6563;3
  7
iso_b_vert
 73
     2
 44
0.8915659999999999
1001
ACAD
1000
MTEXTBEGIN
1070
    73
1070
     2
1070
    44
1040
0.8915659999999999
1070
    74
1070
     0
1000
MTEXTEND
  0
LINE
  5
379
330
361
100
AcDbEntity
  8
250
  6
Continuous
 62
     5
370
    18
100
AcDbLine
 10
20.0
 20
28.233333
 30
0.0
 11
20.0
 21
20.233333
 31
0.0
  0
LINE
  5
37A
330
361
100
AcDbEntity
  8
250
  6
Continuous
 62
     5
370
    18
100
AcDbLine
 10
10.0
 20
20.233333
 30
0.0
 11
20.0
 21
20.233333
 31
0.0
  0
MTEXT
  5
37B
330
361
100
AcDbEntity
  8
41
  6
Continuous
 62
     2
370
    18
100
AcDbMText
 10
15.0
 20
24.233333
 30
0.0
 40
2.5
 41
0.0
 71
     5
 72
     5
  1
\W0.7875;1
  7
iso_b_vert
 73
     2
 44
0.8915659999999999
1001
ACAD
1000
MTEXTBEGIN
1070
    73
1070
     2
1070
    44
1040
0.8915659999999999
1070
    74
1070
     0
1000
MTEXTEND
  0
LINE
  5
37C
330
361
100
AcDbEntity
  8
250
  6
Continuous
 62
     5
370
    18
100
AcDbLine
 10
70.0
 20
28.233333
 30
0.0
 11
70.0
 21
20.233333
 31
0.0
  0
LINE
  5
37D
330
361
100
AcDbEntity
  8
250
  6
Continuous
 62
     5
370
    18
100
AcDbLine
 10
20.0
 20
20.233333
 30
0.0
 11
70.0
 21
20.233333
 31
0.0
  0
MTEXT
  5
37E
330
361
100
AcDbEntity
  8
41
  6
Continuous
 62
     2
370
    18
100
AcDbMText
 10
21.325
 20
24.233333
 30
0.0
 40
2.5
 41
0.0
 71
     4
 72
     5
  1
\W0.8392;INSERT
  7
iso_b_vert
 73
     2
 44
0.8915659999999999
1001
ACAD
1000
MTEXTBEGIN
1070
    73
1070
     2
1070
    44
1040
0.8915659999999999
1070
    74
1070
     0
1000
MTEXTEND
  0
LINE
  5
37F
330
361
100
AcDbEntity
  8
250
  6
Continuous
 62
     5
370
    18
100
AcDbLine
 10
127.0
 20
28.233333
 30
0.0
 11
127.0
 21
20.233333
 31
0.0
  0
LINE
  5
380
330
361
100
AcDbEntity
  8
250
  6
Continuous
 62
     5
370
    18
100
AcDbLine
 10
70.0
 20
20.233333
 30
0.0
 11
127.0
 21
20.233333
 31
0.0
  0
LINE
  5
381
330
361
100
AcDbEntity
  8
250
  6
Continuous
 62
     5
370
    18
100
AcDbLine
 10
180.0
 20
28.233333
 30
0.0
 11
180.0
 21
20.233333
 31
0.0
  0
LINE
  5
382
330
361
100
AcDbEntity
  8
250
  6
Continuous
 62
     5
370
    18
100
AcDbLine
 10
127.0
 20
20.233333
 30
0.0
 11
180.0
 21
20.233333
 31
0.0
  0
LINE
  5
383
330
361
100
AcDbEntity
  8
250
  6
Continuous
 62
     5
370
    18
100
AcDbLine
 10
0.0
 20
20.233333
 30
0.0
 11
0.0
 21
12.233333
 31
0.0
  0
LINE
  5
384
330
361
100
AcDbEntity
  8
250
  6
Continuous
 62
     5
370
    18
100
AcDbLine
 10
10.0
 20
20.233333
 30
0.0
 11
10.0
 21
12.233333
 31
0.0
  0
LINE
  5
385
330
361
100
AcDbEntity
  8
250
  6
Continuous
 62
     5
370
    18
100
AcDbLine
 10
0.0
 20
12.233333
 30
0.0
 11
10.0
 21
12.233333
 31
0.0
  0
MTEXT
  5
386
330
361
100
AcDbEntity
  8
41
  6
Continuous
 62
     2
370
    18
100
AcDbMText
 10
5.0
 20
16.233333
 30
0.0
 40
2.5
 41
0.0
 71
     5
 72
     5
  1
\W0.6563;2
  7
iso_b_vert
 73
     2
 44
0.8915659999999999
1001
ACAD
1000
MTEXTBEGIN
1070
    73
1070
     2
1070
    44
1040
0.8915659999999999
1070
    74
1070
     0
1000
MTEXTEND
  0
LINE
  5
387
330
361
100
AcDbEntity
  8
250
  6
Continuous
 62
     5
370
    18
100
AcDbLine
 10
20.0
 20
20.233333
 30
0.0
 11
20.0
 21
12.233333
 31
0.0
  0
LINE
  5
388
330
361
100
AcDbEntity
  8
250
  6
Continuous
 62
     5
370
    18
100
AcDbLine
 10
10.0
 20
12.233333
 30
0.0
 11
20.0
 21
12.233333
 31
0.0
  0
MTEXT
  5
389
330
361
100
AcDbEntity
  8
41
  6
Continuous
 62
     2
370
    18
100
AcDbMText
 10
15.0
 20
16.233333
 30
0.0
 40
2.5
 41
0.0
 71
     5
 72
     5
  1
\W0.7875;1
  7
iso_b_vert
 73
     2
 44
0.8915659999999999
1001
ACAD
1000
MTEXTBEGIN
1070
    73
1070
     2
1070
    44
1040
0.8915659999999999
1070
    74
1070
     0
1000
MTEXTEND
  0
LINE
  5
38A
330
361
100
AcDbEntity
  8
250
  6
Continuous
 62
     5
370
    18
100
AcDbLine
 10
70.0
 20
20.233333
 30
0.0
 11
70.0
 21
12.233333
 31
0.0
  0
LINE
  5
38B
330
361
100
AcDbEntity
  8
250
  6
Continuous
 62
     5
370
    18
100
AcDbLine
 10
20.0
 20
12.233333
 30
0.0
 11
70.0
 21
12.233333
 31
0.0
  0
MTEXT
  5
38C
330
361
100
AcDbEntity
  8
41
  6
Continuous
 62
     2
370
    18
100
AcDbMText
 10
21.325
 20
16.233333
 30
0.0
 40
2.5
 41
0.0
 71
     4
 72
     5
  1
\W0.8512;SCREW
  7
iso_b_vert
 73
     2
 44
0.8915659999999999
1001
ACAD
1000
MTEXTBEGIN
1070
    73
1070
     2
1070
    44
1040
0.8915659999999999
1070
    74
1070
     0
1000
MTEXTEND
  0
LINE
  5
38D
330
361
100
AcDbEntity
  8
250
  6
Continuous
 62
     5
370
    18
100
AcDbLine
 10
127.0
 20
20.233333
 30
0.0
 11
127.0
 21
12.233333
 31
0.0
  0
LINE
  5
38E
330
361
100
AcDbEntity
  8
250
  6
Continuous
 62
     5
370
    18
100
AcDbLine
 10
70.0
 20
12.233333
 30
0.0
 11
127.0
 21
12.233333
 31
0.0
  0
LINE
  5
38F
330
361
100
AcDbEntity
  8
250
  6
Continuous
 62
     5
370
    18
100
AcDbLine
 10
180.0
 20
20.233333
 30
0.0
 11
180.0
 21
12.233333
 31
0.0
  0
LINE
  5
390
330
361
100
AcDbEntity
  8
250
  6
Continuous
 62
     5
370
    18
100
AcDbLine
 10
127.0
 20
12.233333
 30
0.0
 11
180.0
 21
12.233333
 31
0.0
  0
LINE
  5
391
330
361
100
AcDbEntity
  8
250
  6
Continuous
 62
     5
370
    18
100
AcDbLine
 10
0.0
 20
12.233333
 30
0.0
 11
0.0
 21
4.233333
 31
0.0
  0
LINE
  5
392
330
361
100
AcDbEntity
  8
250
  6
Continuous
 62
     5
370
    18
100
AcDbLine
 10
10.0
 20
12.233333
 30
0.0
 11
10.0
 21
4.233333
 31
0.0
  0
LINE
  5
393
330
361
100
AcDbEntity
  8
250
  6
Continuous
 62
     5
370
    18
100
AcDbLine
 10
0.0
 20
4.233333
 30
0.0
 11
10.0
 21
4.233333
 31
0.0
  0
MTEXT
  5
394
330
361
100
AcDbEntity
  8
41
  6
Continuous
 62
     2
370
    18
100
AcDbMText
 10
5.0
 20
8.233333
 30
0.0
 40
2.5
 41
0.0
 71
     5
 72
     5
  1
\W0.7875;1
  7
iso_b_vert
 73
     2
 44
0.8915659999999999
1001
ACAD
1000
MTEXTBEGIN
1070
    73
1070
     2
1070
    44
1040
0.8915659999999999
1070
    74
1070
     0
1000
MTEXTEND
  0
LINE
  5
395
330
361
100
AcDbEntity
  8
250
  6
Continuous
 62
     5
370
    18
100
AcDbLine
 10
20.0
 20
12.233333
 30
0.0
 11
20.0
 21
4.233333
 31
0.0
  0
LINE
  5
396
330
361
100
AcDbEntity
  8
250
  6
Continuous
 62
     5
370
    18
100
AcDbLine
 10
10.0
 20
4.233333
 30
0.0
 11
20.0
 21
4.233333
 31
0.0
  0
MTEXT
  5
397
330
361
100
AcDbEntity
  8
41
  6
Continuous
 62
     2
370
    18
100
AcDbMText
 10
15.0
 20
8.233333
 30
0.0
 40
2.5
 41
0.0
 71
     5
 72
     5
  1
\W0.7875;1
  7
iso_b_vert
 73
     2
 44
0.8915659999999999
1001
ACAD
1000
MTEXTBEGIN
1070
    73
1070
     2
1070
    44
1040
0.8915659999999999
1070
    74
1070
     0
1000
MTEXTEND
  0
LINE
  5
398
330
361
100
AcDbEntity
  8
250
  6
Continuous
 62
     5
370
    18
100
AcDbLine
 10
70.0
 20
12.233333
 30
0.0
 11
70.0
 21
4.233333
 31
0.0
  0
LINE
  5
399
330
361
100
AcDbEntity
  8
250
  6
Continuous
 62
     5
370
    18
100
AcDbLine
 10
20.0
 20
4.233333
 30
0.0
 11
70.0
 21
4.233333
 31
0.0
  0
MTEXT
  5
39A
330
361
100
AcDbEntity
  8
41
  6
Continuous
 62
     2
370
    18
100
AcDbMText
 10
21.325
 20
8.233333
 30
0.0
 40
2.5
 41
0.0
 71
     4
 72
     5
  1
\W0.8406;TOOL BODY
  7
iso_b_vert
 73
     2
 44
0.8915659999999999
1001
ACAD
1000
MTEXTBEGIN
1070
    73
1070
     2
1070
    44
1040
0.8915659999999999
1070
    74
1070
     0
1000
MTEXTEND
  0
LINE
  5
39B
330
361
100
AcDbEntity
  8
250
  6
Continuous
 62
     5
370
    18
100
AcDbLine
 10
127.0
 20
12.233333
 30
0.0
 11
127.0
 21
4.233333
 31
0.0
  0
LINE
  5
39C
330
361
100
AcDbEntity
  8
250
  6
Continuous
 62
     5
370
    18
100
AcDbLine
 10
70.0
 20
4.233333
 30
0.0
 11
127.0
 21
4.233333
 31
0.0
  0
LINE
  5
39D
330
361
100
AcDbEntity
  8
250
  6
Continuous
 62
     5
370
    18
100
AcDbLine
 10
180.0
 20
12.233333
 30
0.0
 11
180.0
 21
4.233333
 31
0.0
  0
LINE
  5
39E
330
361
100
AcDbEntity
  8
250
  6
Continuous
 62
     5
370
    18
100
AcDbLine
 10
127.0
 20
4.233333
 30
0.0
 11
180.0
 21
4.233333
 31
0.0
  0
LINE
  5
39F
330
361
100
AcDbEntity
  8
250
  6
Continuous
 62
     5
370
    18
100
AcDbLine
 10
0.0
 20
4.233333
 30
0.0
 11
0.0
 21
0.0
 31
0.0
  0
LINE
  5
3A0
330
361
100
AcDbEntity
  8
250
  6
Continuous
 62
     5
370
    18
100
AcDbLine
 10
10.0
 20
4.233333
 30
0.0
 11
10.0
 21
0.0
 31
0.0
  0
LINE
  5
3A1
330
361
100
AcDbEntity
  8
250
  6
Continuous
 62
     5
370
    18
100
AcDbLine
 10
0.0
 20
0.0
 30
0.0
 11
10.0
 21
0.0
 31
0.0
  0
MTEXT
  5
3A2
330
361
100
AcDbEntity
  8
41
  6
Continuous
 62
     2
370
    18
100
AcDbMText
 10
5.0
 20
2.116668
 30
0.0
 40
1.0
 41
0.0
 71
     5
 72
     5
  1
\W0.8876;ITEM
  7
iso_b_vert
 73
     2
 44
1.084337
1001
ACAD
1000
MTEXTBEGIN
1070
    73
1070
     2
1070
    44
1040
1.084337
1070
    74
1070
     0
1000
MTEXTEND
  0
LINE
  5
3A3
330
361
100
AcDbEntity
  8
250
  6
Continuous
 62
     5
370
    18
100
AcDbLine
 10
20.0
 20
4.233333
 30
0.0
 11
20.0
 21
0.0
 31
0.0
  0
LINE
  5
3A4
330
361
100
AcDbEntity
  8
250
  6
Continuous
 62
     5
370
    18
100
AcDbLine
 10
10.0
 20
0.0
 30
0.0
 11
20.0
 21
0.0
 31
0.0
  0
MTEXT
  5
3A5
330
361
100
AcDbEntity
  8
41
  6
Continuous
 62
     2
370
    18
100
AcDbMText
 10
15.0
 20
2.116668
 30
0.0
 40
1.0
 41
0.0
 71
     5
 72
     5
  1
\W0.8957;QUANTITY
  7
iso_b_vert
 73
     2
 44
1.084337
1001
ACAD
1000
MTEXTBEGIN
1070
    73
1070
     2
1070
    44
1040
1.084337
1070
    74
1070
     0
1000
MTEXTEND
  0
LINE
  5
3A6
330
361
100
AcDbEntity
  8
250
  6
Continuous
 62
     5
370
    18
100
AcDbLine
 10
70.0
 20
4.233333
 30
0.0
 11
70.0
 21
0.0
 31
0.0
  0
LINE
  5
3A7
330
361
100
AcDbEntity
  8
250
  6
Continuous
 62
     5
370
    18
100
AcDbLine
 10
20.0
 20
0.0
 30
0.0
 11
70.0
 21
0.0
 31
0.0
  0
MTEXT
  5
3A8
330
361
100
AcDbEntity
  8
41
  6
Continuous
 62
     2
370
    18
100
AcDbMText
 10
20.575
 20
2.116668
 30
0.0
 40
1.0
 41
0.0
 71
     4
 72
     5
  1
\W0.8467;DESCRIPTION
  7
iso_b_vert
 73
     2
 44
1.084337
1001
ACAD
1000
MTEXTBEGIN
1070
    73
1070
     2
1070
    44
1040
1.084337
1070
    74
1070
     0
1000
MTEXTEND
  0
LINE
  5
3A9
330
361
100
AcDbEntity
  8
250
  6
Continuous
 62
     5
370
    18
100
AcDbLine
 10
127.0
 20
4.233333
 30
0.0
 11
127.0
 21
0.0
 31
0.0
  0
LINE
  5
3AA
330
361
100
AcDbEntity
  8
250
  6
Continuous
 62
     5
370
    18
100
AcDbLine
 10
70.0
 20
0.0
 30
0.0
 11
127.0
 21
0.0
 31
0.0
  0
MTEXT
  5
3AB
330
361
100
AcDbEntity
  8
41
  6
Continuous
 62
     2
370
    18
100
AcDbMText
 10
70.575
 20
2.116668
 30
0.0
 40
1.0
 41
0.0
 71
     4
 72
     5
  1
\W0.8329;MATERIAL, PRODUCT CODE AND REMARK
  7
iso_b_vert
 73
     2
 44
1.084337
1001
ACAD
1000
MTEXTBEGIN
1070
    73
1070
     2
1070
    44
1040
1.084337
1070
    74
1070
     0
1000
MTEXTEND
  0
LINE
  5
3AC
330
361
100
AcDbEntity
  8
250
  6
Continuous
 62
     5
370
    18
100
AcDbLine
 10
180.0
 20
4.233333
 30
0.0
 11
180.0
 21
0.0
 31
0.0
  0
LINE
  5
3AD
330
361
100
AcDbEntity
  8
250
  6
Continuous
 62
     5
370
    18
100
AcDbLine
 10
127.0
 20
0.0
 30
0.0
 11
180.0
 21
0.0
 31
0.0
  0
MTEXT
  5
3AE
330
361
100
AcDbEntity
  8
41
  6
Continuous
 62
     2
370
    18
100
AcDbMText
 10
127.575
 20
2.116668
 30
0.0
 40
1.0
 41
0.0
 71
     4
 72
     5
  1
\W0.8808;DRAWING
  7
iso_b_vert
 73
     2
 44
1.084337
1001
ACAD
1000
MTEXTBEGIN
1070
    73
1070
     2
1070
    44
1040
1.084337
1070
    74
1070
     0
1000
MTEXTEND
  0
ENDBLK
  5
3B1
330
361
100
AcDbEntity
  8
0
100
AcDbBlockEnd
  0
BLOCK
  5
7DD
330
7DC
100
AcDbEntity
  8
0
370
    13
100
AcDbBlockBegin
  2
*D24
 70
     1
 10
0.0
 20
0.0
 30
0.0
  3
*D24
  1

  0
LINE
  5
7DF
330
7DC
100
AcDbEntity
  8
2
  6
Continuous
 62
     7
370
    13
100
AcDbLine
 10
31.94509882213139
 20
71.32053906969963
 30
0.0
 11
11.3438884749821
 21
71.32053906969963
 31
0.0
  0
LINE
  5
7E0
330
7DC
100
AcDbEntity
  8
2
  6
Continuous
 62
     7
370
    13
100
AcDbLine
 10
31.48054282997752
 20
55.32053906969961
 30
0.0
 11
11.34388847498211
 21
55.3205390696996
 31
0.0
  0
LINE
  5
7E1
330
7DC
100
AcDbEntity
  8
2
  6
Continuous
 62
     7
370
    13
100
AcDbLine
 10
13.34388847498211
 20
68.14553906969964
 30
0.0
 11
13.34388847498211
 21
58.4955390696996
 31
0.0
  0
SOLID
  5
7E2
330
7DC
100
AcDbEntity
  8
2
  6
Continuous
 62
     7
370
    13
100
AcDbTrace
 10
12.81472180831544
 20
68.14553906969964
 30
0.0
 11
13.87305514164877
 21
68.14553906969964
 31
0.0
 12
13.34388847498211
 22
71.32053906969963
 32
0.0
 13
13.34388847498211
 23
71.32053906969963
 33
0.0
  0
SOLID
  5
7E3
330
7DC
100
AcDbEntity
  8
2
  6
Continuous
 62
     7
370
    13
100
AcDbTrace
 10
12.81472180831544
 20
58.4955390696996
 30
0.0
 11
13.87305514164878
 21
58.4955390696996
 31
0.0
 12
13.34388847498211
 22
55.3205390696996
 32
0.0
 13
13.34388847498211
 23
55.3205390696996
 33
0.0
  0
MTEXT
  5
7E4
330
7DC
100
AcDbEntity
  8
2
  6
Continuous
 62
     7
370
    18
100
AcDbMText
 10
8.843888474982122
 20
61.63405699045005
 30
0.0
 40
3.0
 41
0.0
 71
     1
 72
     1
  1
\A1;16
  7
iso_b_vert
 11
0.0000000000000001
 21
1.0
 31
0.0
 73
     1
 44
1.0
1001
ACAD
1000
MTEXTBEGIN
1070
    73
1070
     1
1070
    44
1040
1.0
1070
    74
1070
     0
1000
MTEXTEND
  0
POINT
  5
7E5
330
7DC
100
AcDbEntity
  8
Defpoints
  6
Continuous
 62
     0
370
    13
100
AcDbPoint
 10
31.94509882213139
 20
71.32053906969963
 30
0.0
  0
POINT
  5
7E6
330
7DC
100
AcDbEntity
  8
Defpoints
  6
Continuous
 62
     0
370
    13
100
AcDbPoint
 10
31.48054282997752
 20
55.32053906969961
 30
0.0
  0
POINT
  5
7E7
330
7DC
100
AcDbEntity
  8
Defpoints
  6
Continuous
 62
     0
370
    13
100
AcDbPoint
 10
13.34388847498211
 20
55.3205390696996
 30
0.0
  0
ENDBLK
  5
7DE
330
7DC
100
AcDbEntity
  8
0
370
    13
100
AcDbBlockEnd
  0
BLOCK
  5
7E9
330
7E8
100
AcDbEntity
  8
0
370
    13
100
AcDbBlockBegin
  2
*D25
 70
     1
 10
0.0
 20
0.0
 30
0.0
  3
*D25
  1

  0
LINE
  5
7EB
330
7E8
100
AcDbEntity
  8
2
  6
Continuous
 62
     7
370
    13
100
AcDbLine
 10
31.16347007087139
 20
60.47491746091459
 30
0.0
 11
31.30245381350495
 21
68.4372809830516
 31
0.0
  0
LINE
  5
7EC
330
7E8
100
AcDbEntity
  8
2
  6
Continuous
 62
     7
370
    13
100
AcDbLine
 10
30.48054282213138
 20
55.3205390696996
 30
0.0
 11
17.95475998521031
 21
55.32053906969971
 31
0.0
  0
ARC
  5
7ED
330
7E8
100
AcDbEntity
  8
2
  6
Continuous
 62
     7
370
    13
100
AcDbCircle
 10
31.07349995109866
 20
55.32053906969959
 30
0.0
 40
11.11873996588835
100
AcDbArc
 50
105.4171378669233
 51
163.582860907478
  0
SOLID
  5
7EE
330
7E8
100
AcDbEntity
  8
2
  6
Continuous
 62
     7
370
    13
100
AcDbTrace
 10
28.05124364632765
 20
66.56416562409495
 30
0.0
 11
28.18404500459095
 21
65.51419741329624
 31
0.0
 12
31.26754895785547
 22
66.43758559348547
 32
0.0
 13
31.26754895785547
 23
66.43758559348547
 33
0.0
  0
SOLID
  5
7EF
330
7E8
100
AcDbEntity
  8
2
  6
Continuous
 62
     7
370
    13
100
AcDbTrace
 10
20.93182215875414
 20
58.38745802365672
 30
0.0
 11
19.88433156971166
 21
58.53856364999758
 31
0.0
 12
19.95475998521031
 22
55.32053906969969
 32
0.0
 13
19.95475998521031
 23
55.32053906969969
 33
0.0
  0
MTEXT
  5
7F0
330
7E8
100
AcDbEntity
  8
2
  6
Continuous
 62
     7
370
    18
100
AcDbMText
 10
16.7637137329632
 20
63.15632532949617
 30
0.0
 40
3.0
 41
9.428571428571428
 71
     1
 72
     1
  1
\A1;91°
  7
iso_b_vert
 11
0.713250424448286
 21
0.7009092894407522
 31
0.0
 73
     1
 44
1.0
1001
ACAD
1000
MTEXTBEGIN
1070
    73
1070
     1
1070
    44
1040
1.0
1070
    74
1070
     0
1000
MTEXTEND
  0
POINT
  5
7F1
330
7E8
100
AcDbEntity
  8
Defpoints
  6
Continuous
 62
     0
370
    13
100
AcDbPoint
 10
25.62654370027599
 20
65.01368334958456
 30
0.0
  0
POINT
  5
7F2
330
7E8
100
AcDbEntity
  8
Defpoints
  6
Continuous
 62
     0
370
    13
100
AcDbPoint
 10
31.48054282213138
 20
55.32053906969959
 30
0.0
  0
POINT
  5
7F3
330
7E8
100
AcDbEntity
  8
Defpoints
  6
Continuous
 62
     0
370
    13
100
AcDbPoint
 10
31.16347007087139
 20
60.47491746091459
 30
0.0
  0
POINT
  5
7F4
330
7E8
100
AcDbEntity
  8
Defpoints
  6
Continuous
 62
     0
370
    13
100
AcDbPoint
 10
31.0806038221314
 20
55.7275190696996
 30
0.0
  0
POINT
  5
7F5
330
7E8
100
AcDbEntity
  8
Defpoints
  6
Continuous
 62
     0
370
    13
100
AcDbPoint
 10
30.48054282213138
 20
55.3205390696996
 30
0.0
  0
ENDBLK
  5
7EA
330
7E8
100
AcDbEntity
  8
0
370
    13
100
AcDbBlockEnd
  0
ENDSEC
  0
SECTION
  2
ENTITIES
  0
POINT
  5
75
330
1F
100
AcDbEntity
  8
41
  6
Continuous
 62
     5
 60
     1
370
    13
100
AcDbPoint
 10
68.930398
 20
48.88699299999999
 30
0.0
  0
POINT
  5
77
330
1F
100
AcDbEntity
  8
41
  6
Continuous
 62
     5
 60
     1
370
    13
100
AcDbPoint
 10
155.123751
 20
98.27415100000001
 30
0.0
  0
LINE
  5
84
330
1F
100
AcDbEntity
  8
41
  6
Continuous
 62
    11
 60
     1
370
    13
100
AcDbLine
 10
0.0
 20
0.0
 30
0.0
 11
0.0
 21
297.0
 31
0.0
  0
LINE
  5
85
330
1F
100
AcDbEntity
  8
41
  6
Continuous
 62
    11
 60
     1
370
    13
100
AcDbLine
 10
420.0
 20
297.0
 30
0.0
 11
0.0
 21
297.0
 31
0.0
  0
LINE
  5
86
330
1F
100
AcDbEntity
  8
41
  6
Continuous
 62
    11
 60
     1
370
    13
100
AcDbLine
 10
420.0
 20
297.0
 30
0.0
 11
420.0
 21
0.0
 31
0.0
  0
LINE
  5
87
330
1F
100
AcDbEntity
  8
41
  6
Continuous
 62
    11
 60
     1
370
    13
100
AcDbLine
 10
0.0
 20
0.0
 30
0.0
 11
420.0
 21
0.0
 31
0.0
  0
LINE
  5
88
330
1F
100
AcDbEntity
  8
1
  6
Continuous
 62
     4
370
    50
100
AcDbLine
 10
31.70421982213139
 20
27.12215365163209
 30
0.0
 11
37.4081548221314
 21
30.96950665163209
 31
0.0
  0
LINE
  5
8A
330
1F
100
AcDbEntity
  8
1
  6
Continuous
 62
     4
370
    50
100
AcDbLine
 10
37.49562882213138
 20
31.1306136516321
 30
0.0
 11
37.61570482213139
 21
38.00975465163208
 31
0.0
  0
LINE
  5
8B
330
1F
100
AcDbEntity
  8
1
  6
Continuous
 62
     4
370
    50
100
AcDbLine
 10
36.99208882213139
 20
38.3483506516321
 30
0.0
 11
31.28815382213139
 21
34.50099765163211
 31
0.0
  0
LINE
  5
8C
330
1F
100
AcDbEntity
  8
1
  6
Continuous
 62
     4
370
    50
100
AcDbLine
 10
31.80185882213138
 20
34.84758365163208
 30
0.0
 11
31.94509882213137
 21
43.05376965163211
 31
0.0
  0
LINE
  5
8F
330
1F
100
AcDbEntity
  8
1
  6
Continuous
 62
     4
370
    50
100
AcDbLine
 10
39.08054282213141
 20
43.05376965163211
 30
0.0
 11
41.23460882213137
 21
43.05376965163211
 31
0.0
  0
LINE
  5
91
330
1F
100
AcDbEntity
  8
SK1
  6
Continuous
 62
     4
370
    50
100
AcDbLine
 10
41.23460882213137
 20
31.05376965163211
 30
0.0
 11
156.0805428221313
 21
31.05376965163211
 31
0.0
  0
LINE
  5
92
330
1F
100
AcDbEntity
  8
SK1
  6
Continuous
 62
     4
370
    50
100
AcDbLine
 10
41.23460882213137
 20
43.05376965163211
 30
0.0
 11
156.0805428221313
 21
43.05376965163211
 31
0.0
  0
LINE
  5
93
330
1F
100
AcDbEntity
  8
1
  6
Continuous
 62
     4
370
    50
100
AcDbLine
 10
41.23460882213137
 20
31.05376965163211
 30
0.0
 11
39.84064882213139
 21
31.05376965163211
 31
0.0
  0
LINE
  5
94
102
{ACAD_REACTORS
330
236
102
}
330
1F
100
AcDbEntity
  8
1
  6
Continuous
 62
     4
370
    50
100
AcDbLine
 10
31.20067982213138
 20
34.33989065163209
 30
0.0
 11
31.08060382213139
 21
27.46074965163212
 31
0.0
  0
LINE
  5
95
102
{ACAD_REACTORS
330
1B9
102
}
330
1F
100
AcDbEntity
  8
SK1
  6
Continuous
 62
     4
370
    50
100
AcDbLine
 10
156.0805428221313
 20
43.05376965163211
 30
0.0
 11
156.0805428221313
 21
31.05376965163211
 31
0.0
  0
LINE
  5
96
330
1F
100
AcDbEntity
  8
1
  6
Continuous
 62
     4
370
    50
100
AcDbLine
 10
31.94509882213137
 20
43.05376965163211
 30
0.0
 11
39.08054282213141
 21
43.05376965163211
 31
0.0
  0
ARC
  5
10C
330
1F
100
AcDbEntity
  8
1
  6
Continuous
 62
     4
370
    50
100
AcDbCircle
 10
37.21576582213141
 20
38.01673565163208
 30
0.0
 40
0.3999999999999976
100
AcDbArc
 50
358.9999999999998
 51
123.9999999999996
  0
ARC
  5
133
330
1F
100
AcDbEntity
  8
1
  6
Continuous
 62
     4
370
    50
100
AcDbCircle
 10
38.19892882213139
 20
29.4429446516321
 30
0.0
 40
2.300000000000002
100
AcDbArc
 50
67.46110500000002
 51
107.5743279999999
  0
ARC
  5
135
102
{ACAD_REACTORS
330
205
330
21D
102
}
330
1F
100
AcDbEntity
  8
1
  6
Continuous
 62
     4
370
    50
100
AcDbCircle
 10
31.48054282213138
 20
27.45376965163209
 30
0.0
 40
0.3999999999999976
100
AcDbArc
 50
178.9999999999999
 51
303.9999999999996
  0
ELLIPSE
  5
13B
330
1F
100
AcDbEntity
  8
1
  6
Continuous
 62
     4
370
    50
100
AcDbEllipse
 10
31.40212382213139
 20
34.33481665163208
 30
0.0
 11
-0.1774393782435341
 21
0.0963417217576273
 31
0.0000000000000001
210
0.0000000000000002
220
-0.0000000000000003
230
1.0
 40
0.9905549999999998
 41
5.807096089452706
 42
6.759274524906473
  0
ELLIPSE
  5
13C
330
1F
100
AcDbEntity
  8
1
  6
Continuous
 62
     4
370
    50
100
AcDbEllipse
 10
37.2941848221314
 20
31.13568865163208
 30
0.0
 11
0.1774393782435341
 21
-0.0963417217576273
 31
-0.0000000000000001
210
0.0000000000000002
220
-0.0000000000000003
230
1.0
 40
0.9905549999999998
 41
5.807096089452706
 42
6.759274524906473
  0
SPLINE
  5
179
330
1F
100
AcDbEntity
  8
1
  6
Continuous
 62
     4
370
    50
100
AcDbSpline
210
0.0
220
0.0
230
1.0
 70
     8
 71
     3
 72
    16
 73
    12
 74
     0
 42
0.000000001
 43
0.0000000001
 40
0.0
 40
0.0
 40
0.0
 40
0.0
 40
0.2500000000000019
 40
0.2500000000000019
 40
0.3750000000000014
 40
0.3750000000000014
 40
0.500000000000001
 40
0.500000000000001
 40
0.7500000000000005
 40
0.7500000000000005
 40
1.0
 40
1.0
 40
1.0
 40
1.0
 10
39.0805430101147
 20
31.56726923851099
 30
0.0
 10
39.1515138784462
 20
31.5378156818131
 30
0.0
 10
39.2210452898594
 20
31.50480105945908
 30
0.0
 10
39.32314316765397
 20
31.44984139749769
 30
0.0
 10
39.3568085681107
 20
31.43061353168619
 30
0.0
 10
39.42338947126507
 20
31.39030420464607
 30
0.0
 10
39.45602556189948
 20
31.36939121134992
 30
0.0
 10
39.55192688518699
 20
31.304490930703
 30
0.0
 10
39.61323435175629
 20
31.25832150652312
 30
0.0
 10
39.7307593067282
 20
31.16031144099927
 30
0.0
 10
39.78697646293401
 20
31.10847052731768
 30
0.0
 10
39.8406484147464
 20
31.0537691772424
 30
0.0
  0
MTEXT
  5
1B5
330
1F
100
AcDbEntity
  8
SK6
  6
Continuous
 62
     5
370
    18
100
AcDbMText
 10
79.79667482213139
 20
52.82692565163211
 30
0.0
 40
3.0
 41
0.0
 71
     7
 72
     5
  1
\W0.7808;SDFCR1212K07-S
  7
iso_b_vert
 73
     2
 44
1.084337
1001
ACAD
1000
MTEXTBEGIN
1070
    73
1070
     2
1070
    44
1040
1.084337
1070
    74
1070
     0
1000
MTEXTEND
  0
DIMENSION
  5
1B7
102
{ACAD_XDICTIONARY
360
1B8
102
}
102
{ACAD_REACTORS
330
1B9
102
}
330
1F
100
AcDbEntity
  8
SK2
  6
Continuous
 62
     7
370
    18
100
AcDbDimension
  2
_U0
 10
162.6272188221314
 20
31.05376965163213
 30
0.0
 11
162.6272188221314
 21
37.05376965163211
 31
0.0
 70
   160
 42
12.0
 52
90.0
  3
Standard
100
AcDbAlignedDimension
 13
156.0805428221313
 23
43.05376965163211
 33
0.0
 14
156.0805428221313
 24
31.05376965163211
 34
0.0
 50
90.0
100
AcDbRotatedDimension
1001
ACAD_DSTYLE_DIM_LINETYPE
1070
   380
1005
16
1001
ACAD_DSTYLE_DIM_EXT1_LINETYPE
1070
   381
1005
16
1001
ACAD_DSTYLE_DIM_EXT2_LINETYPE
1070
   382
1005
16
1001
ACAD
1000
DSTYLE
1002
{
1070
   371
1070
    13
1070
   372
1070
    13
1070
   170
1070
     0
1070
   144
1040
1.0
1070
   277
1070
     2
1070
   284
1070
     8
1070
   278
1070
    44
1070
   146
1040
1.0
1070
   345
1005
16
1070
   347
1005
16
1070
   346
1005
16
1070
   344
1005
0
1070
   343
1005
0
1070
   172
1070
     1
1070
    76
1070
     0
1070
    75
1070
     0
1070
   282
1070
     0
1070
   281
1070
     0
1070
    71
1070
     0
1070
    74
1070
     0
1070
   279
1070
     0
1070
   173
1070
     1
1070
   340
1005
18E
1070
   271
1070
     3
1070
   272
1070
     3
1070
    77
1070
     1
1070
    73
1070
     0
1070
   171
1070
     3
1070
   274
1070
     4
1070
   177
1070
     7
1070
   176
1070
     7
1070
   178
1070
     7
1070
    78
1070
     8
1070
    48
1040
-0.1
1070
    41
1040
3.174999999999999
1070
   147
1040
1.5
1070
    42
1040
0.0
1070
    44
1040
2.0
1070
   140
1040
3.0
1002
}
  0
DIMENSION
  5
203
102
{ACAD_XDICTIONARY
360
204
102
}
102
{ACAD_REACTORS
330
205
102
}
330
1F
100
AcDbEntity
  8
SK2
  6
Continuous
 62
     7
370
    18
100
AcDbDimension
  2
_U3
 10
31.08054282213141
 20
18.02949765163211
 30
0.0
 11
93.58054282213137
 21
18.02949765163211
 31
0.0
 70
   160
 42
124.9999999999999
 52
90.0
  3
Standard
100
AcDbAlignedDimension
 13
156.0805428221313
 23
33.1246706516321
 33
0.0
 14
31.08054282213141
 24
27.45376951306801
 34
0.0
100
AcDbRotatedDimension
1001
ACAD_DSTYLE_DIM_LINETYPE
1070
   380
1005
16
1001
ACAD_DSTYLE_DIM_EXT1_LINETYPE
1070
   381
1005
16
1001
ACAD_DSTYLE_DIM_EXT2_LINETYPE
1070
   382
1005
16
1001
ACAD
1000
DSTYLE
1002
{
1070
   371
1070
    13
1070
   372
1070
    13
1070
   170
1070
     0
1070
   144
1040
1.0
1070
   277
1070
     2
1070
   284
1070
     8
1070
   278
1070
    44
1070
   146
1040
1.0
1070
   345
1005
16
1070
   347
1005
16
1070
   346
1005
16
1070
   344
1005
0
1070
   343
1005
0
1070
   172
1070
     1
1070
    76
1070
     0
1070
    75
1070
     0
1070
   282
1070
     0
1070
   281
1070
     0
1070
    71
1070
     0
1070
    74
1070
     0
1070
   279
1070
     0
1070
   173
1070
     1
1070
   340
1005
18E
1070
   271
1070
     3
1070
   272
1070
     3
1070
    77
1070
     1
1070
    73
1070
     0
1070
   171
1070
     3
1070
   274
1070
     4
1070
   177
1070
     7
1070
   176
1070
     7
1070
   178
1070
     7
1070
    78
1070
     8
1070
    48
1040
-0.1
1070
    41
1040
3.174999999999999
1070
   147
1040
1.5
1070
    42
1040
0.0
1070
    44
1040
2.0
1070
   140
1040
3.0
1002
}
  0
DIMENSION
  5
21B
102
{ACAD_XDICTIONARY
360
21C
102
}
102
{ACAD_REACTORS
330
21D
102
}
330
1F
100
AcDbEntity
  8
2
  6
Continuous
 62
     7
370
    18
100
AcDbDimension
  2
_U4
 10
13.34388847498212
 20
27.0537696516321
 30
0.0
 11
13.34388847498212
 21
35.43871614381112
 31
0.0
 70
   160
 42
16.00000000000002
 52
90.0
  3
Standard
100
AcDbAlignedDimension
 13
31.94509882213137
 23
43.05376965163211
 33
0.0
 14
31.48054282997751
 24
27.05376965163209
 34
0.0
 50
90.0
100
AcDbRotatedDimension
1001
ACAD_DSTYLE_DIM_LINETYPE
1070
   380
1005
16
1001
ACAD_DSTYLE_DIM_EXT1_LINETYPE
1070
   381
1005
16
1001
ACAD_DSTYLE_DIM_EXT2_LINETYPE
1070
   382
1005
16
1001
ACAD
1000
DSTYLE
1002
{
1070
    41
1040
3.174999999999999
1070
    42
1040
0.0
1070
    44
1040
2.0
1070
    48
1040
-0.1
1070
    73
1070
     0
1070
    74
1070
     0
1070
    77
1070
     1
1070
    78
1070
     8
1070
   140
1040
3.0
1070
   147
1040
1.5
1070
   171
1070
     3
1070
   172
1070
     1
1070
   173
1070
     1
1070
   176
1070
     7
1070
   177
1070
     7
1070
   178
1070
     7
1070
   271
1070
     3
1070
   272
1070
     3
1070
   274
1070
     4
1070
   278
1070
    44
1070
   284
1070
     8
1070
   340
1005
18E
1070
   345
1005
16
1070
   346
1005
16
1070
   347
1005
16
1070
   371
1070
    13
1070
   372
1070
    13
1002
}
  0
DIMENSION
  5
233
102
{ACAD_XDICTIONARY
360
235
102
}
102
{ACAD_REACTORS
330
236
102
}
330
1F
100
AcDbEntity
  8
2
  6
Continuous
 62
     7
370
    18
100
AcDbDimension
  2
_U5
 10
30.48054282213139
 20
27.05376965163211
 30
0.0
 11
23.28027182213137
 21
34.9842156516321
 31
0.0
 70
   162
  1
91°
 42
1.588249640705564
  3
Standard
100
AcDb2LineAngularDimension
 13
31.16347007087139
 23
32.2081480428471
 33
0.0
 14
31.08060382213139
 24
27.46074965163212
 34
0.0
 15
31.48054282213138
 25
27.05376965163211
 35
0.0
 16
25.62654370027594
 26
36.74691393151705
 36
0.0
1001
ACAD_DSTYLE_DIMANGULAR_EXTENSION
1070
   387
1070
     1
1001
ACAD_DSTYLE_DIM_LINETYPE
1070
   380
1005
16
1001
ACAD_DSTYLE_DIM_EXT1_LINETYPE
1070
   381
1005
16
1001
ACAD_DSTYLE_DIM_EXT2_LINETYPE
1070
   382
1005
16
1001
ACAD
1000
DSTYLE
1002
{
1070
   371
1070
    13
1070
   372
1070
    13
1070
   170
1070
     0
1070
   179
1070
     1
1070
   275
1070
     1
1070
   144
1040
1.0
1070
   277
1070
     2
1070
    79
1070
     2
1070
   284
1070
     8
1070
   278
1070
    44
1070
   146
1040
1.0
1070
   345
1005
16
1070
   347
1005
16
1070
   346
1005
16
1070
   344
1005
0
1070
   343
1005
0
1070
   172
1070
     1
1070
    76
1070
     0
1070
    75
1070
     0
1070
   282
1070
     0
1070
   281
1070
     0
1070
    71
1070
     0
1070
   279
1070
     0
1070
   173
1070
     1
1070
   340
1005
18E
1070
   271
1070
     3
1070
   272
1070
     1
1070
    77
1070
     1
1070
    73
1070
     0
1070
   171
1070
     3
1070
   274
1070
     4
1070
   177
1070
     7
1070
   176
1070
     7
1070
   178
1070
     7
1070
    78
1070
     8
1070
    41
1040
3.174999999999999
1070
   147
1040
1.5
1070
    42
1040
0.0
1070
    44
1040
2.0
1070
   140
1040
3.0
1002
}
  0
LINE
  5
7CA
330
1F
100
AcDbEntity
  8
NOCUT
  6
Continuous
 62
     7
370
    50
100
AcDbLine
 10
31.6959472433431
 20
28.77993414667303
 30
0.0
 11
31.94509882213137
 21
43.05376965163211
 31
0.0
  0
LINE
  5
7CB
330
1F
100
AcDbEntity
  8
NOCUT
  6
Continuous
 62
     7
370
    50
100
AcDbLine
 10
41.23460882213137
 20
43.05376965163211
 30
0.0
 11
41.23460882213137
 21
31.05376965163211
 31
0.0
  0
LINE
  5
7CC
330
1F
100
AcDbEntity
  8
NOCUT
  6
Continuous
 62
     7
370
    50
100
AcDbLine
 10
39.08054282213141
 20
43.05376965163211
 30
0.0
 11
41.23460882213137
 21
43.05376965163211
 31
0.0
  0
LINE
  5
7CD
330
1F
100
AcDbEntity
  8
NOCUT
  6
Continuous
 62
     7
370
    50
100
AcDbLine
 10
41.23460882213137
 20
31.05376965163211
 30
0.0
 11
39.84064882213139
 21
31.05376965163211
 31
0.0
  0
LINE
  5
7CF
330
1F
100
AcDbEntity
  8
NOCUT
  6
Continuous
 62
     7
370
    50
100
AcDbLine
 10
31.94509882213137
 20
43.05376965163211
 30
0.0
 11
39.08054282213141
 21
43.05376965163211
 31
0.0
  0
ARC
  5
7D1
330
1F
100
AcDbEntity
  8
NOCUT
  6
Continuous
 62
     7
370
    50
100
AcDbCircle
 10
38.19892882213139
 20
29.4429446516321
 30
0.0
 40
2.300000000000002
100
AcDbArc
 50
67.46110500000004
 51
123.7196037740337
  0
SPLINE
  5
7D5
330
1F
100
AcDbEntity
  8
NOCUT
  6
Continuous
 62
     7
370
    50
100
AcDbSpline
210
0.0
220
0.0
230
1.0
 70
     8
 71
     3
 72
    16
 73
    12
 74
     0
 42
0.000000001
 43
0.0000000001
 40
0.0
 40
0.0
 40
0.0
 40
0.0
 40
0.2500000000000019
 40
0.2500000000000019
 40
0.3750000000000014
 40
0.3750000000000014
 40
0.500000000000001
 40
0.500000000000001
 40
0.7500000000000005
 40
0.7500000000000005
 40
1.0
 40
1.0
 40
1.0
 40
1.0
 10
39.0805430101147
 20
31.56726923851099
 30
0.0
 10
39.1515138784462
 20
31.5378156818131
 30
0.0
 10
39.2210452898594
 20
31.50480105945908
 30
0.0
 10
39.32314316765397
 20
31.44984139749769
 30
0.0
 10
39.3568085681107
 20
31.43061353168619
 30
0.0
 10
39.42338947126507
 20
31.39030420464607
 30
0.0
 10
39.45602556189948
 20
31.36939121134992
 30
0.0
 10
39.55192688518699
 20
31.304490930703
 30
0.0
 10
39.61323435175629
 20
31.25832150652312
 30
0.0
 10
39.7307593067282
 20
31.16031144099927
 30
0.0
 10
39.78697646293401
 20
31.10847052731768
 30
0.0
 10
39.8406484147464
 20
31.0537691772424
 30
0.0
  0
LINE
  5
7FC
330
1F
100
AcDbEntity
  8
NOCUT
  6
Continuous
 62
     7
370
    50
100
AcDbLine
 10
32.47546755527073
 20
28.35668913616109
 30
0.0
 11
36.92213201080526
 21
31.35600238797657
 31
0.0
  0
ARC
  5
7FF
330
1F
100
AcDbEntity
  8
NOCUT
  6
Continuous
 62
     7
370
    50
100
AcDbCircle
 10
32.19587109039981
 20
28.77120791357858
 30
0.0
 40
0.5
100
AcDbArc
 50
178.9999965759633
 51
304.0000018156263
  0
LINE
  5
800
330
1F
100
AcDbEntity
  8
CUT
  6
Continuous
 62
     1
370
    50
100
AcDbLine
 10
31.70421982213139
 20
27.12215365163209
 30
0.0
 11
37.4081548221314
 21
30.96950665163209
 31
0.0
  0
LINE
  5
801
330
1F
100
AcDbEntity
  8
CUT
  6
Continuous
 62
     1
370
    50
100
AcDbLine
 10
37.49562882213138
 20
31.1306136516321
 30
0.0
 11
37.61570482213139
 21
38.00975465163208
 31
0.0
  0
LINE
  5
802
330
1F
100
AcDbEntity
  8
CUT
  6
Continuous
 62
     1
370
    50
100
AcDbLine
 10
36.99208882213139
 20
38.3483506516321
 30
0.0
 11
31.28815382213139
 21
34.50099765163211
 31
0.0
  0
LINE
  5
803
330
1F
100
AcDbEntity
  8
CUT
  6
Continuous
 62
     1
370
    50
100
AcDbLine
 10
31.20067982213138
 20
34.33989065163209
 30
0.0
 11
31.08060382213139
 21
27.46074965163212
 31
0.0
  0
ARC
  5
804
330
1F
100
AcDbEntity
  8
CUT
  6
Continuous
 62
     1
370
    50
100
AcDbCircle
 10
37.21576582213141
 20
38.01673565163208
 30
0.0
 40
0.3999999999999976
100
AcDbArc
 50
358.9999999999998
 51
123.9999999999996
  0
ARC
  5
805
330
1F
100
AcDbEntity
  8
CUT
  6
Continuous
 62
     1
370
    50
100
AcDbCircle
 10
31.48054282213138
 20
27.45376965163209
 30
0.0
 40
0.3999999999999976
100
AcDbArc
 50
178.9999999999998
 51
303.9999999999996
  0
ELLIPSE
  5
806
330
1F
100
AcDbEntity
  8
CUT
  6
Continuous
 62
     1
370
    50
100
AcDbEllipse
 10
31.40212382213139
 20
34.33481665163208
 30
0.0
 11
-0.1774393782435341
 21
0.0963417217576273
 31
0.0000000000000001
210
0.0000000000000002
220
-0.0000000000000003
230
1.0
 40
0.9905549999999998
 41
5.807096089452706
 42
6.759274524906473
  0
ELLIPSE
  5
807
330
1F
100
AcDbEntity
  8
CUT
  6
Continuous
 62
     1
370
    50
100
AcDbEllipse
 10
37.2941848221314
 20
31.13568865163208
 30
0.0
 11
0.1774393782435341
 21
-0.0963417217576273
 31
-0.0000000000000001
210
0.0000000000000002
220
-0.0000000000000003
230
1.0
 40
0.9905549999999998
 41
5.807096089452706
 42
6.759274524906473
  0
ENDSEC
  0
SECTION
  2
OBJECTS
  0
DICTIONARY
  5
C
330
0
100
AcDbDictionary
281
     1
  3
ACAD_CIP_PREVIOUS_PRODUCT_INFO
350
41E
  3
ACAD_COLOR
350
419
  3
ACAD_DETAILVIEWSTYLE
350
415
  3
ACAD_GROUP
350
D
  3
ACAD_LAYOUT
350
1A
  3
ACAD_MATERIAL
350
43
  3
ACAD_MLEADERSTYLE
350
6B
  3
ACAD_MLINESTYLE
350
17
  3
ACAD_PLOTSETTINGS
350
19
  3
ACAD_PLOTSTYLENAME
350
E
  3
ACAD_SCALELIST
350
47
  3
ACAD_SECTIONVIEWSTYLE
350
416
  3
ACAD_TABLESTYLE
350
69
  3
ACAD_VISUALSTYLE
350
2A
  3
ACDB_RECOMPOSE_DATA
350
AC5
  3
AcDbVariableDictionary
350
3D2
  3
DWGPROPS
350
AC6
  0
DICTIONARY
  5
AA2
330
10
100
AcDbDictionary
280
     1
281
     1
  3
ADSK_XREC_LAYER_RECONCILED
360
AA3
  0
DICTIONARY
  5
AA4
330
74
100
AcDbDictionary
280
     1
281
     1
  3
ADSK_XREC_LAYER_RECONCILED
360
AA5
  0
DICTIONARY
  5
AA6
330
76
100
AcDbDictionary
280
     1
281
     1
  3
ADSK_XREC_LAYER_RECONCILED
360
AA7
  0
DICTIONARY
  5
AA8
330
89
100
AcDbDictionary
280
     1
281
     1
  3
ADSK_XREC_LAYER_RECONCILED
360
AA9
  0
DICTIONARY
  5
AAA
330
8D
100
AcDbDictionary
280
     1
281
     1
  3
ADSK_XREC_LAYER_RECONCILED
360
AAB
  0
DICTIONARY
  5
AAC
330
9A
100
AcDbDictionary
280
     1
281
     1
  3
ADSK_XREC_LAYER_RECONCILED
360
AAD
  0
DICTIONARY
  5
AAE
330
49E
100
AcDbDictionary
280
     1
281
     1
  3
ADSK_XREC_LAYER_RECONCILED
360
AAF
  0
DICTIONARY
  5
AB0
330
4A1
100
AcDbDictionary
280
     1
281
     1
  3
ADSK_XREC_LAYER_RECONCILED
360
AB1
  0
DICTIONARY
  5
AB2
330
4A2
100
AcDbDictionary
280
     1
281
     1
  3
ADSK_XREC_LAYER_RECONCILED
360
AB3
  0
DICTIONARY
  5
AB4
330
4A3
100
AcDbDictionary
280
     1
281
     1
  3
ADSK_XREC_LAYER_RECONCILED
360
AB5
  0
DICTIONARY
  5
AB6
330
4A4
100
AcDbDictionary
280
     1
281
     1
  3
ADSK_XREC_LAYER_RECONCILED
360
AB7
  0
DICTIONARY
  5
AB8
330
4A5
100
AcDbDictionary
280
     1
281
     1
  3
ADSK_XREC_LAYER_RECONCILED
360
AB9
  0
DICTIONARY
  5
ABA
330
4A6
100
AcDbDictionary
280
     1
281
     1
  3
ADSK_XREC_LAYER_RECONCILED
360
ABB
  0
DICTIONARY
  5
7FD
330
1F
100
AcDbDictionary
280
     1
281
     1
  3
ACAD_SORTENTS
360
7FE
  0
DICTIONARY
  5
1B8
330
1B7
100
AcDbDictionary
280
     1
281
     1
  3
ACAD_DIMASSOC
360
1B9
  0
DICTIONARY
  5
204
330
203
100
AcDbDictionary
280
     1
281
     1
  3
ACAD_DIMASSOC
360
205
  0
DICTIONARY
  5
21C
330
21B
100
AcDbDictionary
280
     1
281
     1
  3
ACAD_DIMASSOC
360
21D
  0
DICTIONARY
  5
235
330
233
100
AcDbDictionary
280
     1
281
     1
  3
ACAD_DIMASSOC
360
236
  0
XRECORD
  5
41E
102
{ACAD_REACTORS
330
C
102
}
330
C
100
AcDbXrecord
280
     1
300
AMECH_PP
300
2017
300
86627AMECH_PP_2017_0F
  0
DICTIONARY
  5
419
102
{ACAD_REACTORS
330
C
102
}
330
C
100
AcDbDictionary
281
     1
  0
DICTIONARY
  5
415
102
{ACAD_REACTORS
330
C
102
}
330
C
100
AcDbDictionary
281
     1
  3
Metric50
350
41B
  0
DICTIONARY
  5
D
102
{ACAD_REACTORS
330
C
102
}
330
C
100
AcDbDictionary
281
     1
  3
A3
350
3B2
  3
ASSORTED_PARTS
350
3B3
  3
ASSORTED_PARTS10
350
3BB
  3
ASSORTED_PARTS11
350
3BC
  3
ASSORTED_PARTS3
350
3B4
  3
ASSORTED_PARTS4
350
3B5
  3
ASSORTED_PARTS5
350
3B6
  3
ASSORTED_PARTS6
350
3B7
  3
ASSORTED_PARTS7
350
3B8
  3
ASSORTED_PARTS8
350
3B9
  3
ASSORTED_PARTS9
350
3BA
  3
SANDVIKBORDER_1ST_ANGLE_PROJECTION
350
3BD
  0
DICTIONARY
  5
1A
102
{ACAD_REACTORS
330
C
102
}
330
C
100
AcDbDictionary
281
     1
  3
Layout1
350
1E
  3
Layout2
350
26
  3
Model
350
22
  0
DICTIONARY
  5
43
102
{ACAD_REACTORS
330
C
102
}
330
C
100
AcDbDictionary
281
     1
  3
ByBlock
350
45
  3
ByLayer
350
44
  3
Global
350
46
  0
DICTIONARY
  5
6B
102
{ACAD_REACTORS
330
C
102
}
330
C
100
AcDbDictionary
281
     1
  3
Standard
350
6C
  0
DICTIONARY
  5
17
102
{ACAD_REACTORS
330
C
102
}
330
C
100
AcDbDictionary
281
     1
  3
Standard
350
18
  0
DICTIONARY
  5
19
102
{ACAD_REACTORS
330
C
102
}
330
C
100
AcDbDictionary
281
     1
  0
ACDBDICTIONARYWDFLT
  5
E
102
{ACAD_REACTORS
330
C
102
}
330
C
100
AcDbDictionary
281
     1
  3
Normal
350
F
100
AcDbDictionaryWithDefault
340
F
  0
DICTIONARY
  5
47
102
{ACAD_REACTORS
330
C
102
}
330
C
100
AcDbDictionary
281
     1
  3
A0
350
48
  3
A1
350
49
  3
A2
350
4A
  3
A3
350
4B
  3
A4
350
4C
  3
A5
350
4D
  3
A6
350
4E
  3
A7
350
4F
  3
A8
350
50
  3
A9
350
51
  3
B0
350
52
  3
B1
350
53
  3
B2
350
54
  3
B3
350
55
  3
B4
350
56
  3
B5
350
57
  3
B6
350
58
  3
B7
350
59
  3
B8
350
5A
  3
B9
350
5B
  3
C0
350
5C
  3
C1
350
5D
  3
C2
350
5E
  3
C3
350
5F
  3
C4
350
60
  3
C5
350
61
  3
C6
350
62
  3
C7
350
63
  3
C8
350
64
  3
C9
350
65
  3
D0
350
66
  3
D1
350
67
  3
D2
350
68
  0
DICTIONARY
  5
416
102
{ACAD_REACTORS
330
C
102
}
330
C
100
AcDbDictionary
281
     1
  3
Metric50
350
41A
  0
DICTIONARY
  5
69
102
{ACAD_REACTORS
330
C
102
}
330
C
100
AcDbDictionary
281
     1
  3
Standard
350
6A
  0
DICTIONARY
  5
2A
102
{ACAD_REACTORS
330
C
102
}
330
C
100
AcDbDictionary
281
     1
  3
2dWireframe
350
2F
  3
Basic
350
32
  3
Brighten
350
36
  3
ColorChange
350
3A
  3
Conceptual
350
34
  3
Dim
350
35
  3
EdgeColorOff
350
3D
  3
Facepattern
350
39
  3
Flat
350
2B
  3
FlatWithEdges
350
2C
  3
Gouraud
350
2D
  3
GouraudWithEdges
350
2E
  3
Hidden
350
31
  3
JitterOff
350
3B
  3
Linepattern
350
38
  3
OverhangOff
350
3C
  3
Realistic
350
33
  3
Shaded
350
42
  3
Shaded with edges
350
41
  3
Shades of Gray
350
3E
  3
Sketchy
350
3F
  3
Thicken
350
37
  3
Wireframe
350
30
  3
X-Ray
350
40
  0
XRECORD
  5
AC5
102
{ACAD_REACTORS
330
C
102
}
330
C
100
AcDbXrecord
280
     1
 90
        1
330
6A
  0
DICTIONARY
  5
3D2
102
{ACAD_REACTORS
330
C
102
}
330
C
100
AcDbDictionary
281
     1
  3
CANNOSCALE
350
3D3
  3
CMLEADERSTYLE
350
414
  3
CTABLESTYLE
350
413
  3
CVIEWDETAILSTYLE
350
ABC
  3
CVIEWSECTIONSTYLE
350
ABD
  3
DIMASSOC
350
AC1
  3
HIDETEXT
350
AC0
  3
INDEXCTL
350
ABF
  3
MSLTSCALE
350
3D4
  3
SORTENTS
350
ABE
  3
XCLIPFRAME
350
AC2
  0
XRECORD
  5
AC6
102
{ACAD_REACTORS
330
C
102
}
330
C
100
AcDbXrecord
280
     1
  1
DWGPROPS COOKIE
  2

  3

  4

  6

  7

  8
mp5448
  9

300
=
301
=
302
=
303
=
304
=
305
=
306
=
307
=
308
=
309
=
 40
0.0053125115740741
 41
2459325.30181713
 42
2459325.310243056
  1

 90
        0
  0
XRECORD
  5
AA3
102
{ACAD_REACTORS
330
AA2
102
}
330
AA2
100
AcDbXrecord
280
     1
290
     1
  0
XRECORD
  5
AA5
102
{ACAD_REACTORS
330
AA4
102
}
330
AA4
100
AcDbXrecord
280
     1
290
     1
  0
XRECORD
  5
AA7
102
{ACAD_REACTORS
330
AA6
102
}
330
AA6
100
AcDbXrecord
280
     1
290
     1
  0
XRECORD
  5
AA9
102
{ACAD_REACTORS
330
AA8
102
}
330
AA8
100
AcDbXrecord
280
     1
290
     1
  0
XRECORD
  5
AAB
102
{ACAD_REACTORS
330
AAA
102
}
330
AAA
100
AcDbXrecord
280
     1
290
     1
  0
XRECORD
  5
AAD
102
{ACAD_REACTORS
330
AAC
102
}
330
AAC
100
AcDbXrecord
280
     1
290
     1
  0
XRECORD
  5
AAF
102
{ACAD_REACTORS
330
AAE
102
}
330
AAE
100
AcDbXrecord
280
     1
290
     1
  0
XRECORD
  5
AB1
102
{ACAD_REACTORS
330
AB0
102
}
330
AB0
100
AcDbXrecord
280
     1
290
     1
  0
XRECORD
  5
AB3
102
{ACAD_REACTORS
330
AB2
102
}
330
AB2
100
AcDbXrecord
280
     1
290
     1
  0
XRECORD
  5
AB5
102
{ACAD_REACTORS
330
AB4
102
}
330
AB4
100
AcDbXrecord
280
     1
290
     1
  0
XRECORD
  5
AB7
102
{ACAD_REACTORS
330
AB6
102
}
330
AB6
100
AcDbXrecord
280
     1
290
     1
  0
XRECORD
  5
AB9
102
{ACAD_REACTORS
330
AB8
102
}
330
AB8
100
AcDbXrecord
280
     1
290
     1
  0
XRECORD
  5
ABB
102
{ACAD_REACTORS
330
ABA
102
}
330
ABA
100
AcDbXrecord
280
     1
290
     1
  0
SORTENTSTABLE
  5
7FE
102
{ACAD_REACTORS
330
7FD
102
}
330
7FD
100
AcDbSortentsTable
330
1F
331
86
  5
86
331
7D1
  5
7FC
331
1B5
  5
1B5
331
13B
  5
13B
331
87
  5
87
331
203
  5
203
331
84
  5
84
331
85
  5
85
331
77
  5
77
331
7CF
  5
7D2
331
7FF
  5
7CB
331
7FC
  5
7C8
331
7CC
  5
7CE
331
75
  5
75
331
7CD
  5
7D1
331
8F
  5
8F
331
7CA
  5
7CC
331
179
  5
179
331
8C
  5
8C
331
7CB
  5
7CD
331
135
  5
135
331
96
  5
96
331
8A
  5
8A
331
133
  5
133
331
10C
  5
10C
331
94
  5
94
331
8B
  5
8B
331
233
  5
233
331
95
  5
95
331
88
  5
88
331
92
  5
92
331
93
  5
93
331
7D5
  5
7FF
331
21B
  5
21B
331
13C
  5
13C
331
91
  5
91
331
1B7
  5
1B7
  0
DIMASSOC
  5
1B9
102
{ACAD_REACTORS
330
1B8
102
}
330
1B8
100
AcDbDimAssoc
330
1B7
 90
        3
 70
     0
 71
     1
  1
AcDbOsnapPointRef
 72
    13
331
95
 73
     2
 91
        1
 40
0.0
 10
288.760934
 20
184.834681
 30
0.0
 75
     0
  1
AcDbOsnapPointRef
 72
     1
331
95
 73
     2
 91
        2
 40
1.0
 10
288.760934
 20
172.834681
 30
0.0
 75
     0
  0
DIMASSOC
  5
205
102
{ACAD_REACTORS
330
204
102
}
330
204
100
AcDbDimAssoc
330
203
 90
        2
 70
     0
 71
     1
  1
AcDbOsnapPointRef
 72
     9
331
135
 73
     0
 91
        2
 40
3.141592999999999
 10
163.760934
 20
169.234681
 30
0.0
 75
     0
  0
DIMASSOC
  5
21D
102
{ACAD_REACTORS
330
21C
102
}
330
21C
100
AcDbDimAssoc
330
21B
 90
        2
 70
     0
 71
     1
  1
AcDbOsnapPointRef
 72
     9
331
135
 73
     0
 91
        2
 40
4.712388999999999
 10
164.160934
 20
168.834681
 30
0.0
 75
     0
  0
DIMASSOC
  5
236
102
{ACAD_REACTORS
330
235
102
}
330
235
100
AcDbDimAssoc
330
233
 90
        3
 70
     0
 71
     1
  1
AcDbOsnapPointRef
 72
    10
331
94
 73
     2
 91
        1
 40
0.309885
 10
163.875663
 20
175.8109639999999
 30
0.0
 75
     0
  1
AcDbOsnapPointRef
 72
     1
331
94
 73
     2
 91
        1
 40
1.0
 10
163.760995
 20
169.241661
 30
0.0
 75
     0
  0
ACDBDETAILVIEWSTYLE
  5
41B
102
{ACAD_XDICTIONARY
360
B00
102
}
102
{ACAD_REACTORS
330
415
102
}
330
415
100
AcDbModelDocViewStyle
 70
     0
  3
Metric50
290
     0
100
AcDbDetailViewStyle
 70
     0
 71
     0
 90
        3
 71
     1
340
11
 40
5.0
340
0
 40
5.0
300

 40
0.0
280
     1
 71
     2
340
16
 90
       25
 71
     3
340
11
 40
5.0
 90
        0
 40
15.0
 90
        1
300
%<\AcVar ViewDetailId>% (%<\AcVar ViewScale \f "%sn">%)
 71
     4
340
16
 90
       25
340
16
 90
       25
280
     0
  0
GROUP
  5
3B2
102
{ACAD_REACTORS
330
D
102
}
330
D
100
AcDbGroup
300

 70
     0
 71
     1
340
107
340
106
340
105
340
104
340
103
340
102
340
101
340
100
340
FF
340
FE
340
FD
340
FC
340
FB
340
FA
340
F9
340
F8
340
F7
340
1A5
340
1A7
340
1A8
340
1A9
340
1AA
340
1AB
340
1AC
340
1AD
340
1AE
340
1AF
  0
GROUP
  5
3B3
102
{ACAD_REACTORS
330
D
102
}
330
D
100
AcDbGroup
300

 70
     0
 71
     1
  0
GROUP
  5
3BB
102
{ACAD_REACTORS
330
D
102
}
330
D
100
AcDbGroup
300

 70
     0
 71
     1
  0
GROUP
  5
3BC
102
{ACAD_REACTORS
330
D
102
}
330
D
100
AcDbGroup
300

 70
     0
 71
     1
  0
GROUP
  5
3B4
102
{ACAD_REACTORS
330
D
102
}
330
D
100
AcDbGroup
300

 70
     0
 71
     1
  0
GROUP
  5
3B5
102
{ACAD_REACTORS
330
D
102
}
330
D
100
AcDbGroup
300

 70
     0
 71
     1
  0
GROUP
  5
3B6
102
{ACAD_REACTORS
330
D
102
}
330
D
100
AcDbGroup
300

 70
     0
 71
     1
  0
GROUP
  5
3B7
102
{ACAD_REACTORS
330
D
102
}
330
D
100
AcDbGroup
300

 70
     0
 71
     1
  0
GROUP
  5
3B8
102
{ACAD_REACTORS
330
D
102
}
330
D
100
AcDbGroup
300

 70
     0
 71
     1
  0
GROUP
  5
3B9
102
{ACAD_REACTORS
330
D
102
}
330
D
100
AcDbGroup
300

 70
     0
 71
     1
  0
GROUP
  5
3BA
102
{ACAD_REACTORS
330
D
102
}
330
D
100
AcDbGroup
300

 70
     0
 71
     1
  0
GROUP
  5
3BD
102
{ACAD_REACTORS
330
D
102
}
330
D
100
AcDbGroup
300

 70
     0
 71
     1
  0
LAYOUT
  5
1E
102
{ACAD_XDICTIONARY
360
AC7
102
}
102
{ACAD_REACTORS
330
1A
102
}
330
1A
100
AcDbPlotSettings
  1

  2
none_device
  4

  6

 40
0.0
 41
0.0
 42
0.0
 43
0.0
 44
0.0
 45
0.0
 46
0.0
 47
0.0
 48
0.0
 49
0.0
140
0.0
141
0.0
142
1.0
143
1.0
 70
   688
 72
     0
 73
     0
 74
     5
  7

 75
    16
147
1.0
148
0.0
149
0.0
100
AcDbLayout
  1
Layout1
 70
     1
 71
     1
 10
-0.5
 20
-0.5
 11
5.0
 21
5.0
 12
0.0
 22
0.0
 32
0.0
 14
-0.5
 24
-0.5
 34
-0.5
 15
5.0
 25
5.0
 35
5.0
146
0.0
 13
0.0
 23
0.0
 33
0.0
 16
1.0
 26
0.0
 36
0.0
 17
0.0
 27
1.0
 37
0.0
 76
     0
330
1B
  0
LAYOUT
  5
26
102
{ACAD_XDICTIONARY
360
ACB
102
}
102
{ACAD_REACTORS
330
1A
102
}
330
1A
100
AcDbPlotSettings
  1

  2
none_device
  4

  6

 40
0.0
 41
0.0
 42
0.0
 43
0.0
 44
0.0
 45
0.0
 46
0.0
 47
0.0
 48
0.0
 49
0.0
140
0.0
141
0.0
142
1.0
143
1.0
 70
   688
 72
     0
 73
     0
 74
     5
  7

 75
    16
147
1.0
148
0.0
149
0.0
100
AcDbLayout
  1
Layout2
 70
     1
 71
     2
 10
0.0
 20
0.0
 11
0.0
 21
0.0
 12
0.0
 22
0.0
 32
0.0
 14
0.0
 24
0.0
 34
0.0
 15
0.0
 25
0.0
 35
0.0
146
0.0
 13
0.0
 23
0.0
 33
0.0
 16
1.0
 26
0.0
 36
0.0
 17
0.0
 27
1.0
 37
0.0
 76
     0
330
23
  0
LAYOUT
  5
22
102
{ACAD_XDICTIONARY
360
AC9
102
}
102
{ACAD_REACTORS
330
1A
102
}
330
1A
100
AcDbPlotSettings
  1

  2
none_device
  4
Letter_(8.50_x_11.00_Inches)
  6

 40
6.349999999999999
 41
6.349999999999999
 42
6.350005
 43
6.350005
 44
215.9
 45
279.4
 46
0.0
 47
0.0
 48
0.0
 49
0.0
140
0.0
141
0.0
142
1.0
143
1.0
 70
  1712
 72
     0
 73
     0
 74
     0
  7

 75
     0
147
1.0
148
0.0
149
0.0
100
AcDbLayout
  1
Model
 70
     1
 71
     0
 10
-0.5
 20
-0.5
 11
5.0
 21
5.0
 12
0.0
 22
0.0
 32
0.0
 14
-0.5
 24
-0.5
 34
-0.5
 15
5.0
 25
5.0
 35
5.0
146
0.0
 13
0.0
 23
0.0
 33
0.0
 16
1.0
 26
0.0
 36
0.0
 17
0.0
 27
1.0
 37
0.0
 76
     0
330
1F
331
29
  0
MATERIAL
  5
45
102
{ACAD_XDICTIONARY
360
408
102
}
102
{ACAD_REACTORS
330
43
102
}
330
43
100
AcDbMaterial
  1
ByBlock
  0
MATERIAL
  5
44
102
{ACAD_XDICTIONARY
360
406
102
}
102
{ACAD_REACTORS
330
43
102
}
330
43
100
AcDbMaterial
  1
ByLayer
  0
MATERIAL
  5
46
102
{ACAD_XDICTIONARY
360
40A
102
}
102
{ACAD_REACTORS
330
43
102
}
330
43
100
AcDbMaterial
  1
Global
  0
MLEADERSTYLE
  5
6C
102
{ACAD_REACTORS
330
6B
102
}
330
6B
100
AcDbMLeaderStyle
170
     2
171
     1
172
     0
 90
        2
 40
0.0
 41
0.0
173
     1
 91
-1056964608
340
14
 92
       -2
290
     1
 42
0.09
291
     1
 43
0.36
  3
Standard
 44
0.18
300

342
11
174
     1
178
     6
175
     1
176
     0
 93
-1056964608
 45
0.18
292
     0
297
     0
 46
0.18
 94
-1056964608
 47
1.0
 49
1.0
140
1.0
293
     1
141
0.0
294
     1
177
     0
142
1.0
295
     0
296
     0
143
0.125
1001
ACAD_MLEADERVER
1070
     2
  0
MLINESTYLE
  5
18
102
{ACAD_REACTORS
330
17
102
}
330
17
100
AcDbMlineStyle
  2
STANDARD
 70
     0
  3

 62
   256
 51
90.0
 52
90.0
 71
     2
 49
0.5
 62
   256
  6
BYLAYER
 49
-0.5
 62
   256
  6
BYLAYER
  0
ACDBPLACEHOLDER
  5
F
102
{ACAD_REACTORS
330
E
102
}
330
E
  0
SCALE
  5
48
102
{ACAD_REACTORS
330
47
102
}
330
47
100
AcDbScale
 70
     0
300
1:1
140
1.0
141
1.0
290
     1
  0
SCALE
  5
49
102
{ACAD_REACTORS
330
47
102
}
330
47
100
AcDbScale
 70
     0
300
1:2
140
1.0
141
2.0
290
     0
  0
SCALE
  5
4A
102
{ACAD_REACTORS
330
47
102
}
330
47
100
AcDbScale
 70
     0
300
1:4
140
1.0
141
4.0
290
     0
  0
SCALE
  5
4B
102
{ACAD_REACTORS
330
47
102
}
330
47
100
AcDbScale
 70
     0
300
1:5
140
1.0
141
5.0
290
     0
  0
SCALE
  5
4C
102
{ACAD_REACTORS
330
47
102
}
330
47
100
AcDbScale
 70
     0
300
1:8
140
1.0
141
8.0
290
     0
  0
SCALE
  5
4D
102
{ACAD_REACTORS
330
47
102
}
330
47
100
AcDbScale
 70
     0
300
1:10
140
1.0
141
10.0
290
     0
  0
SCALE
  5
4E
102
{ACAD_REACTORS
330
47
102
}
330
47
100
AcDbScale
 70
     0
300
1:16
140
1.0
141
16.0
290
     0
  0
SCALE
  5
4F
102
{ACAD_REACTORS
330
47
102
}
330
47
100
AcDbScale
 70
     0
300
1:20
140
1.0
141
20.0
290
     0
  0
SCALE
  5
50
102
{ACAD_REACTORS
330
47
102
}
330
47
100
AcDbScale
 70
     0
300
1:30
140
1.0
141
30.0
290
     0
  0
SCALE
  5
51
102
{ACAD_REACTORS
330
47
102
}
330
47
100
AcDbScale
 70
     0
300
1:40
140
1.0
141
40.0
290
     0
  0
SCALE
  5
52
102
{ACAD_REACTORS
330
47
102
}
330
47
100
AcDbScale
 70
     0
300
1:50
140
1.0
141
50.0
290
     0
  0
SCALE
  5
53
102
{ACAD_REACTORS
330
47
102
}
330
47
100
AcDbScale
 70
     0
300
1:100
140
1.0
141
100.0
290
     0
  0
SCALE
  5
54
102
{ACAD_REACTORS
330
47
102
}
330
47
100
AcDbScale
 70
     0
300
2:1
140
2.0
141
1.0
290
     0
  0
SCALE
  5
55
102
{ACAD_REACTORS
330
47
102
}
330
47
100
AcDbScale
 70
     0
300
4:1
140
4.0
141
1.0
290
     0
  0
SCALE
  5
56
102
{ACAD_REACTORS
330
47
102
}
330
47
100
AcDbScale
 70
     0
300
8:1
140
8.0
141
1.0
290
     0
  0
SCALE
  5
57
102
{ACAD_REACTORS
330
47
102
}
330
47
100
AcDbScale
 70
     0
300
10:1
140
10.0
141
1.0
290
     0
  0
SCALE
  5
58
102
{ACAD_REACTORS
330
47
102
}
330
47
100
AcDbScale
 70
     0
300
100:1
140
100.0
141
1.0
290
     0
  0
SCALE
  5
59
102
{ACAD_REACTORS
330
47
102
}
330
47
100
AcDbScale
 70
     0
300
1/128" = 1'-0"
140
0.007812
141
12.0
290
     0
  0
SCALE
  5
5A
102
{ACAD_REACTORS
330
47
102
}
330
47
100
AcDbScale
 70
     0
300
1/64" = 1'-0"
140
0.015625
141
12.0
290
     0
  0
SCALE
  5
5B
102
{ACAD_REACTORS
330
47
102
}
330
47
100
AcDbScale
 70
     0
300
1/32" = 1'-0"
140
0.03125
141
12.0
290
     0
  0
SCALE
  5
5C
102
{ACAD_REACTORS
330
47
102
}
330
47
100
AcDbScale
 70
     0
300
1/16" = 1'-0"
140
0.0625
141
12.0
290
     0
  0
SCALE
  5
5D
102
{ACAD_REACTORS
330
47
102
}
330
47
100
AcDbScale
 70
     0
300
3/32" = 1'-0"
140
0.09375
141
12.0
290
     0
  0
SCALE
  5
5E
102
{ACAD_REACTORS
330
47
102
}
330
47
100
AcDbScale
 70
     0
300
1/8" = 1'-0"
140
0.125
141
12.0
290
     0
  0
SCALE
  5
5F
102
{ACAD_REACTORS
330
47
102
}
330
47
100
AcDbScale
 70
     0
300
3/16" = 1'-0"
140
0.1875
141
12.0
290
     0
  0
SCALE
  5
60
102
{ACAD_REACTORS
330
47
102
}
330
47
100
AcDbScale
 70
     0
300
1/4" = 1'-0"
140
0.25
141
12.0
290
     0
  0
SCALE
  5
61
102
{ACAD_REACTORS
330
47
102
}
330
47
100
AcDbScale
 70
     0
300
3/8" = 1'-0"
140
0.375
141
12.0
290
     0
  0
SCALE
  5
62
102
{ACAD_REACTORS
330
47
102
}
330
47
100
AcDbScale
 70
     0
300
1/2" = 1'-0"
140
0.5
141
12.0
290
     0
  0
SCALE
  5
63
102
{ACAD_REACTORS
330
47
102
}
330
47
100
AcDbScale
 70
     0
300
3/4" = 1'-0"
140
0.75
141
12.0
290
     0
  0
SCALE
  5
64
102
{ACAD_REACTORS
330
47
102
}
330
47
100
AcDbScale
 70
     0
300
1" = 1'-0"
140
1.0
141
12.0
290
     0
  0
SCALE
  5
65
102
{ACAD_REACTORS
330
47
102
}
330
47
100
AcDbScale
 70
     0
300
1-1/2" = 1'-0"
140
1.5
141
12.0
290
     0
  0
SCALE
  5
66
102
{ACAD_REACTORS
330
47
102
}
330
47
100
AcDbScale
 70
     0
300
3" = 1'-0"
140
3.0
141
12.0
290
     0
  0
SCALE
  5
67
102
{ACAD_REACTORS
330
47
102
}
330
47
100
AcDbScale
 70
     0
300
6" = 1'-0"
140
6.0
141
12.0
290
     0
  0
SCALE
  5
68
102
{ACAD_REACTORS
330
47
102
}
330
47
100
AcDbScale
 70
     0
300
1'-0" = 1'-0"
140
12.0
141
12.0
290
     0
  0
ACDBSECTIONVIEWSTYLE
  5
41A
102
{ACAD_XDICTIONARY
360
AFE
102
}
102
{ACAD_REACTORS
330
416
102
}
330
416
100
AcDbModelDocViewStyle
 70
     0
  3
Metric50
290
     0
100
AcDbSectionViewStyle
 70
     0
 71
     0
 90
      102
 71
     1
340
11
 40
5.0
340
0
340
0
 40
5.0
300
I, O, Q, S, X, Z
 40
10.0
 90
        0
 40
2.5
 90
        0
 71
     2
340
16
 90
       25
340
16
 90
       50
 40
5.0
 40
2.5
 40
5.0
 71
     3
340
11
 40
5.0
 90
        0
 40
15.0
 90
        1
300
%<\AcVar ViewSectionStartId>%-%<\AcVar ViewSectionEndId>% (%<\AcVar ViewScale \f "%sn">%)
 71
     4
300
ANSI31
 40
1.0
 90
        0
290
     0
290
     0
 90
        6
 40
0.0
 40
1.570796326794896
 40
0.2617993877991494
 40
1.308996938995747
 40
-0.2617993877991494
 40
1.832595714594046
  0
TABLESTYLE
  5
6A
102
{ACAD_XDICTIONARY
360
40C
102
}
102
{ACAD_REACTORS
330
69
102
}
330
69
100
AcDbTableStyle
  3
Standard
 70
     0
 71
     0
 40
0.06
 41
0.06
280
     0
281
     0
  7
Standard
140
0.18
170
     2
 62
     0
 63
     7
283
     0
274
    -2
284
     1
 64
     0
275
    -2
285
     1
 65
     0
276
    -2
286
     1
 66
     0
277
    -2
287
     1
 67
     0
278
    -2
288
     1
 68
     0
279
    -2
289
     1
 69
     0
  7
Standard
140
0.25
170
     5
 62
     0
 63
     7
283
     0
274
    -2
284
     1
 64
     0
275
    -2
285
     1
 65
     0
276
    -2
286
     1
 66
     0
277
    -2
287
     1
 67
     0
278
    -2
288
     1
 68
     0
279
    -2
289
     1
 69
     0
  7
Standard
140
0.18
170
     5
 62
     0
 63
     7
283
     0
274
    -2
284
     1
 64
     0
275
    -2
285
     1
 65
     0
276
    -2
286
     1
 66
     0
277
    -2
287
     1
 67
     0
278
    -2
288
     1
 68
     0
279
    -2
289
     1
 69
     0
  0
VISUALSTYLE
  5
2F
102
{ACAD_XDICTIONARY
360
AD5
102
}
102
{ACAD_REACTORS
330
2A
102
}
330
2A
100
AcDbVisualStyle
  2

 70
     4
 71
     0
 72
     2
 73
     0
 90
        0
 40
-0.6
 41
-30.0
 62
     5
 63
     7
 74
     1
 91
        4
 64
     7
 65
   257
 75
     1
175
     1
 42
1.0
 92
        0
 66
   257
 43
1.0
 76
     1
 77
     6
 78
     2
 67
     7
 79
     5
170
     0
171
     0
290
     0
174
     0
 93
        1
 44
0.0
173
     0
291
     0
 45
0.0
1001
ACAD
1000
AcDbSavedByObjectVersion
1070
     0
  0
VISUALSTYLE
  5
32
102
{ACAD_XDICTIONARY
360
ADB
102
}
102
{ACAD_REACTORS
330
2A
102
}
330
2A
100
AcDbVisualStyle
  2

 70
     7
 71
     1
 72
     0
 73
     1
 90
        0
 40
-0.6
 41
-30.0
 62
     5
 63
     7
 74
     0
 91
        4
 64
     7
 65
   257
 75
     1
175
     1
 42
1.0
 92
        8
 66
     7
 43
1.0
 76
     1
 77
     6
 78
     2
 67
     7
 79
     5
170
     0
171
     0
290
     0
174
     0
 93
        1
 44
0.0
173
     0
291
     1
 45
0.0
1001
ACAD
1000
AcDbSavedByObjectVersion
1070
     0
  0
VISUALSTYLE
  5
36
102
{ACAD_XDICTIONARY
360
AE3
102
}
102
{ACAD_REACTORS
330
2A
102
}
330
2A
100
AcDbVisualStyle
  2

 70
    12
 71
     2
 72
     2
 73
     0
 90
        0
 40
-0.6
 41
-30.0
 62
     5
 63
     7
 74
     1
 91
        4
 64
     7
 65
   257
 75
     1
175
     1
 42
1.0
 92
        8
 66
     7
 43
1.0
 76
     1
 77
     6
 78
     2
 67
     7
 79
     5
170
     0
171
     0
290
     0
174
     0
 93
        1
 44
50.0
173
     0
291
     1
 45
0.0
1001
ACAD
1000
AcDbSavedByObjectVersion
1070
     0
  0
VISUALSTYLE
  5
3A
102
{ACAD_XDICTIONARY
360
AEB
102
}
102
{ACAD_REACTORS
330
2A
102
}
330
2A
100
AcDbVisualStyle
  2

 70
    16
 71
     2
 72
     2
 73
     3
 90
        0
 40
-0.6
 41
-30.0
 62
     5
 63
     8
 74
     1
 91
        4
 64
     7
 65
   257
 75
     1
175
     1
 42
1.0
 92
        8
 66
     8
 43
1.0
 76
     1
 77
     6
 78
     2
 67
     7
 79
     5
170
     0
171
     0
290
     0
174
     0
 93
        1
 44
0.0
173
     0
291
     1
 45
0.0
1001
ACAD
1000
AcDbSavedByObjectVersion
1070
     0
  0
VISUALSTYLE
  5
34
102
{ACAD_XDICTIONARY
360
ADF
102
}
102
{ACAD_REACTORS
330
2A
102
}
330
2A
100
AcDbVisualStyle
  2

 70
     9
 71
     3
 72
     2
 73
     0
 90
        0
 40
-0.6
 41
-30.0
 62
     5
 63
     7
 74
     2
 91
        2
 64
     7
 65
   257
 75
     1
175
     1
 42
179.0
 92
        8
 66
     7
 43
1.0
 76
     1
 77
     6
 78
     2
 67
     7
 79
     3
170
     0
171
     0
290
     0
174
     0
 93
        1
 44
0.0
173
     0
291
     0
 45
0.0
1001
ACAD
1000
AcDbSavedByObjectVersion
1070
     0
  0
VISUALSTYLE
  5
35
102
{ACAD_XDICTIONARY
360
AE1
102
}
102
{ACAD_REACTORS
330
2A
102
}
330
2A
100
AcDbVisualStyle
  2

 70
    11
 71
     2
 72
     2
 73
     0
 90
        0
 40
-0.6
 41
-30.0
 62
     5
 63
     7
 74
     1
 91
        4
 64
     7
 65
   257
 75
     1
175
     1
 42
1.0
 92
        8
 66
     7
 43
1.0
 76
     1
 77
     6
 78
     2
 67
     7
 79
     5
170
     0
171
     0
290
     0
174
     0
 93
        1
 44
-50.0
173
     0
291
     1
 45
0.0
1001
ACAD
1000
AcDbSavedByObjectVersion
1070
     0
  0
VISUALSTYLE
  5
3D
102
{ACAD_XDICTIONARY
360
AF1
102
}
102
{ACAD_REACTORS
330
2A
102
}
330
2A
100
AcDbVisualStyle
  2

 70
    22
 71
     2
 72
     2
 73
     0
 90
        0
 40
-0.6
 41
-30.0
 62
     5
 63
     7
 74
     1
 91
        4
 64
     7
 65
   257
 75
     1
175
     1
 42
1.0
 92
        8
 66
     7
 43
1.0
 76
     1
 77
     6
 78
     2
 67
     7
 79
     5
170
     0
171
     0
290
     0
174
     0
 93
        1
 44
0.0
173
     0
291
     1
 45
0.0
1001
ACAD
1000
AcDbSavedByObjectVersion
1070
     0
  0
VISUALSTYLE
  5
39
102
{ACAD_XDICTIONARY
360
AE9
102
}
102
{ACAD_REACTORS
330
2A
102
}
330
2A
100
AcDbVisualStyle
  2

 70
    15
 71
     2
 72
     2
 73
     0
 90
        0
 40
-0.6
 41
-30.0
 62
     5
 63
     7
 74
     1
 91
        4
 64
     7
 65
   257
 75
     1
175
     1
 42
1.0
 92
        8
 66
     7
 43
1.0
 76
     1
 77
     6
 78
     2
 67
     7
 79
     5
170
     0
171
     0
290
     0
174
     0
 93
        1
 44
0.0
173
     0
291
     1
 45
0.0
1001
ACAD
1000
AcDbSavedByObjectVersion
1070
     0
  0
VISUALSTYLE
  5
2B
102
{ACAD_XDICTIONARY
360
ACD
102
}
102
{ACAD_REACTORS
330
2A
102
}
330
2A
100
AcDbVisualStyle
  2

 70
     0
 71
     2
 72
     1
 73
     1
 90
        2
 40
-0.6
 41
30.0
 62
     5
 63
     7
 74
     0
 91
        0
 64
     7
 65
   257
 75
     1
175
     1
 42
1.0
 92
        8
 66
     7
 43
1.0
 76
     1
 77
     6
 78
     2
 67
     7
 79
     5
170
     0
171
     0
290
     0
174
     0
 93
       13
 44
0.0
173
     0
291
     1
 45
0.0
1001
ACAD
1000
AcDbSavedByObjectVersion
1070
     0
  0
VISUALSTYLE
  5
2C
102
{ACAD_XDICTIONARY
360
ACF
102
}
102
{ACAD_REACTORS
330
2A
102
}
330
2A
100
AcDbVisualStyle
  2

 70
     1
 71
     2
 72
     1
 73
     1
 90
        2
 40
-0.6
 41
30.0
 62
     5
 63
     7
 74
     1
 91
        0
 64
     7
 65
   257
 75
     1
175
     1
 42
1.0
 92
        0
 66
   257
 43
1.0
 76
     1
 77
     6
 78
     2
 67
     7
 79
     5
170
     0
171
     0
290
     0
174
     0
 93
       13
 44
0.0
173
     0
291
     1
 45
0.0
1001
ACAD
1000
AcDbSavedByObjectVersion
1070
     0
  0
VISUALSTYLE
  5
2D
102
{ACAD_XDICTIONARY
360
AD1
102
}
102
{ACAD_REACTORS
330
2A
102
}
330
2A
100
AcDbVisualStyle
  2

 70
     2
 71
     2
 72
     2
 73
     1
 90
        2
 40
-0.6
 41
30.0
 62
     5
 63
     7
 74
     0
 91
        0
 64
     7
 65
   257
 75
     1
175
     1
 42
1.0
 92
        0
 66
     7
 43
1.0
 76
     1
 77
     6
 78
     2
 67
     7
 79
     5
170
     0
171
     0
290
     0
174
     0
 93
       13
 44
0.0
173
     0
291
     1
 45
0.0
1001
ACAD
1000
AcDbSavedByObjectVersion
1070
     0
  0
VISUALSTYLE
  5
2E
102
{ACAD_XDICTIONARY
360
AD3
102
}
102
{ACAD_REACTORS
330
2A
102
}
330
2A
100
AcDbVisualStyle
  2

 70
     3
 71
     2
 72
     2
 73
     1
 90
        2
 40
-0.6
 41
30.0
 62
     5
 63
     7
 74
     1
 91
        0
 64
     7
 65
   257
 75
     1
175
     1
 42
1.0
 92
        0
 66
   257
 43
1.0
 76
     1
 77
     6
 78
     2
 67
     7
 79
     5
170
     0
171
     0
290
     0
174
     0
 93
       13
 44
0.0
173
     0
291
     1
 45
0.0
1001
ACAD
1000
AcDbSavedByObjectVersion
1070
     0
  0
VISUALSTYLE
  5
31
102
{ACAD_XDICTIONARY
360
AD9
102
}
102
{ACAD_REACTORS
330
2A
102
}
330
2A
100
AcDbVisualStyle
  2

 70
     6
 71
     1
 72
     2
 73
     2
 90
        0
 40
-0.6
 41
-30.0
 62
     5
 63
     7
 74
     2
 91
        2
 64
     7
 65
   257
 75
     2
175
     1
 42
40.0
 92
        0
 66
   257
 43
1.0
 76
     1
 77
     6
 78
     2
 67
     7
 79
     3
170
     0
171
     0
290
     0
174
     0
 93
        1
 44
0.0
173
     0
291
     0
 45
0.0
1001
ACAD
1000
AcDbSavedByObjectVersion
1070
     0
  0
VISUALSTYLE
  5
3B
102
{ACAD_XDICTIONARY
360
AED
102
}
102
{ACAD_REACTORS
330
2A
102
}
330
2A
100
AcDbVisualStyle
  2

 70
    20
 71
     2
 72
     2
 73
     0
 90
        0
 40
-0.6
 41
-30.0
 62
     5
 63
     7
 74
     1
 91
        4
 64
     7
 65
   257
 75
     1
175
     1
 42
1.0
 92
       10
 66
     7
 43
1.0
 76
     1
 77
     6
 78
     2
 67
     7
 79
     5
170
     0
171
     0
290
     0
174
     0
 93
        1
 44
0.0
173
     0
291
     1
 45
0.0
1001
ACAD
1000
AcDbSavedByObjectVersion
1070
     0
  0
VISUALSTYLE
  5
38
102
{ACAD_XDICTIONARY
360
AE7
102
}
102
{ACAD_REACTORS
330
2A
102
}
330
2A
100
AcDbVisualStyle
  2

 70
    14
 71
     2
 72
     2
 73
     0
 90
        0
 40
-0.6
 41
-30.0
 62
     5
 63
     7
 74
     1
 91
        4
 64
     7
 65
   257
 75
     7
175
     7
 42
1.0
 92
        8
 66
     7
 43
1.0
 76
     1
 77
     6
 78
     2
 67
     7
 79
     5
170
     0
171
     0
290
     0
174
     0
 93
        1
 44
0.0
173
     0
291
     1
 45
0.0
1001
ACAD
1000
AcDbSavedByObjectVersion
1070
     0
  0
VISUALSTYLE
  5
3C
102
{ACAD_XDICTIONARY
360
AEF
102
}
102
{ACAD_REACTORS
330
2A
102
}
330
2A
100
AcDbVisualStyle
  2

 70
    21
 71
     2
 72
     2
 73
     0
 90
        0
 40
-0.6
 41
-30.0
 62
     5
 63
     7
 74
     1
 91
        4
 64
     7
 65
   257
 75
     1
175
     1
 42
1.0
 92
        9
 66
     7
 43
1.0
 76
     1
 77
     6
 78
     2
 67
     7
 79
     5
170
     0
171
     0
290
     0
174
     0
 93
        1
 44
0.0
173
     0
291
     1
 45
0.0
1001
ACAD
1000
AcDbSavedByObjectVersion
1070
     0
  0
VISUALSTYLE
  5
33
102
{ACAD_XDICTIONARY
360
ADD
102
}
102
{ACAD_REACTORS
330
2A
102
}
330
2A
100
AcDbVisualStyle
  2

 70
     8
 71
     2
 72
     3
 73
     0
 90
        2
 40
-0.6
 41
30.0
 62
     5
 63
     7
 74
     0
 91
        0
 64
     7
 65
   257
 75
     1
175
     1
 42
1.0
 92
        8
 66
   257
 43
1.0
 76
     1
 77
     6
 78
     2
 67
     7
 79
     3
170
     0
171
     0
290
     0
174
     0
 93
       13
 44
0.0
173
     0
291
     0
 45
0.0
1001
ACAD
1000
AcDbSavedByObjectVersion
1070
     0
  0
VISUALSTYLE
  5
42
102
{ACAD_XDICTIONARY
360
AFB
102
}
102
{ACAD_REACTORS
330
2A
102
}
330
2A
100
AcDbVisualStyle
  2

 70
    27
 71
     2
 72
     2
 73
     1
 90
        2
 40
-0.6
 41
30.0
 62
     5
 63
     7
 74
     0
 91
        4
 64
     7
 65
   257
 75
     1
175
     1
 42
1.0
 92
        8
 66
   257
 43
1.0
 76
     1
 77
     6
 78
     2
 67
     8
 79
     3
170
     0
171
     0
290
     0
174
     0
 93
        5
 44
0.0
173
     0
291
     0
 45
0.0
1001
ACAD
1000
AcDbSavedByObjectVersion
1070
     0
  0
VISUALSTYLE
  5
41
102
{ACAD_XDICTIONARY
360
AF9
102
}
102
{ACAD_REACTORS
330
2A
102
}
330
2A
100
AcDbVisualStyle
  2

 70
    26
 71
     2
 72
     2
 73
     1
 90
        2
 40
-0.6
 41
30.0
 62
     5
 63
     7
 74
     1
 91
       10
 64
     7
 65
   257
 75
     2
175
     1
 42
1.0
 92
        8
 66
   257
 43
1.0
 76
     1
 77
     6
 78
     2
 67
     7
 79
     3
170
     0
171
     0
290
     0
174
     0
 93
        5
 44
0.0
173
     0
291
     0
 45
0.0
1001
ACAD
1000
AcDbSavedByObjectVersion
1070
     0
  0
VISUALSTYLE
  5
3E
102
{ACAD_XDICTIONARY
360
AF3
102
}
102
{ACAD_REACTORS
330
2A
102
}
330
2A
100
AcDbVisualStyle
  2

 70
    23
 71
     2
 72
     2
 73
     3
 90
        0
 40
-0.6
 41
-30.0
 62
     5
 63
     7
 74
     2
 91
        2
 64
     7
 65
     7
 75
     1
175
     1
 42
40.0
 92
        8
 66
     7
 43
1.0
 76
     1
 77
     6
 78
     2
 67
     7
 79
     3
170
     0
171
     0
290
     0
174
     0
 93
        1
 44
0.0
173
     0
291
     0
 45
0.0
1001
ACAD
1000
AcDbSavedByObjectVersion
1070
     0
  0
VISUALSTYLE
  5
3F
102
{ACAD_XDICTIONARY
360
AF5
102
}
102
{ACAD_REACTORS
330
2A
102
}
330
2A
100
AcDbVisualStyle
  2

 70
    24
 71
     1
 72
     2
 73
     2
 90
        0
 40
-0.6
 41
-30.0
 62
     5
 63
     7
 74
     2
 91
        2
 64
     7
 65
     7
 75
     1
175
     1
 42
40.0
 92
       11
 66
     7
 43
1.0
 76
     1
 77
     6
 78
     2
 67
     7
 79
     6
170
     0
171
     0
290
     0
174
     0
 93
        1
 44
0.0
173
     0
291
     0
 45
0.0
1001
ACAD
1000
AcDbSavedByObjectVersion
1070
     0
  0
VISUALSTYLE
  5
37
102
{ACAD_XDICTIONARY
360
AE5
102
}
102
{ACAD_REACTORS
330
2A
102
}
330
2A
100
AcDbVisualStyle
  2

 70
    13
 71
     2
 72
     2
 73
     0
 90
        0
 40
-0.6
 41
-30.0
 62
     5
 63
     7
 74
     1
 91
        4
 64
     7
 65
   257
 75
     1
175
     1
 42
1.0
 92
       12
 66
     7
 43
1.0
 76
     1
 77
     6
 78
     2
 67
     7
 79
     5
170
     0
171
     0
290
     0
174
     0
 93
        1
 44
0.0
173
     0
291
     1
 45
0.0
1001
ACAD
1000
AcDbSavedByObjectVersion
1070
     0
  0
VISUALSTYLE
  5
30
102
{ACAD_XDICTIONARY
360
AD7
102
}
102
{ACAD_REACTORS
330
2A
102
}
330
2A
100
AcDbVisualStyle
  2

 70
     5
 71
     0
 72
     2
 73
     0
 90
        0
 40
-0.6
 41
-30.0
 62
     5
 63
     7
 74
     1
 91
        4
 64
     7
 65
   257
 75
     1
175
     1
 42
1.0
 92
        0
 66
   257
 43
1.0
 76
     1
 77
     6
 78
     2
 67
     7
 79
     3
170
     0
171
     0
290
     0
174
     0
 93
        1
 44
0.0
173
     0
291
     0
 45
0.0
1001
ACAD
1000
AcDbSavedByObjectVersion
1070
     0
  0
VISUALSTYLE
  5
40
102
{ACAD_XDICTIONARY
360
AF7
102
}
102
{ACAD_REACTORS
330
2A
102
}
330
2A
100
AcDbVisualStyle
  2

 70
    25
 71
     2
 72
     2
 73
     1
 90
        1
 40
0.5
 41
-30.0
 62
     5
 63
     7
 74
     1
 91
        0
 64
     7
 65
   257
 75
     1
175
     1
 42
1.0
 92
        8
 66
     7
 43
1.0
 76
     1
 77
     6
 78
     2
 67
     7
 79
     3
170
     0
171
     0
290
     0
174
     0
 93
       13
 44
0.0
173
     0
291
     0
 45
0.0
1001
ACAD
1000
AcDbSavedByObjectVersion
1070
     0
  0
DICTIONARYVAR
  5
3D3
102
{ACAD_REACTORS
330
3D2
102
}
330
3D2
100
DictionaryVariables
280
     0
  1
1:1
  0
DICTIONARYVAR
  5
414
102
{ACAD_REACTORS
330
3D2
102
}
330
3D2
100
DictionaryVariables
280
     0
  1
STANDARD
  0
DICTIONARYVAR
  5
413
102
{ACAD_REACTORS
330
3D2
102
}
330
3D2
100
DictionaryVariables
280
     0
  1
STANDARD
  0
DICTIONARYVAR
  5
ABC
102
{ACAD_REACTORS
330
3D2
102
}
330
3D2
100
DictionaryVariables
280
     0
  1
Metric50
  0
DICTIONARYVAR
  5
ABD
102
{ACAD_REACTORS
330
3D2
102
}
330
3D2
100
DictionaryVariables
280
     0
  1
Metric50
  0
DICTIONARYVAR
  5
AC1
102
{ACAD_REACTORS
330
3D2
102
}
330
3D2
100
DictionaryVariables
280
     0
  1
2
  0
DICTIONARYVAR
  5
AC0
102
{ACAD_REACTORS
330
3D2
102
}
330
3D2
100
DictionaryVariables
280
     0
  1
1
  0
DICTIONARYVAR
  5
ABF
102
{ACAD_REACTORS
330
3D2
102
}
330
3D2
100
DictionaryVariables
280
     0
  1
0
  0
DICTIONARYVAR
  5
3D4
102
{ACAD_REACTORS
330
3D2
102
}
330
3D2
100
DictionaryVariables
280
     0
  1
1
  0
DICTIONARYVAR
  5
ABE
102
{ACAD_REACTORS
330
3D2
102
}
330
3D2
100
DictionaryVariables
280
     0
  1
127
  0
DICTIONARYVAR
  5
AC2
102
{ACAD_REACTORS
330
3D2
102
}
330
3D2
100
DictionaryVariables
280
     0
  1
2
  0
DICTIONARY
  5
B00
330
41B
100
AcDbDictionary
280
     1
281
     1
  3
ACAD_XREC_ROUNDTRIP
360
B01
  0
DICTIONARY
  5
AC7
330
1E
100
AcDbDictionary
280
     1
281
     1
  3
ACAD_XREC_ROUNDTRIP
360
AC8
  0
DICTIONARY
  5
ACB
330
26
100
AcDbDictionary
280
     1
281
     1
  3
ACAD_XREC_ROUNDTRIP
360
ACC
  0
DICTIONARY
  5
AC9
330
22
100
AcDbDictionary
280
     1
281
     1
  3
ACAD_XREC_ROUNDTRIP
360
ACA
  0
DICTIONARY
  5
408
330
45
100
AcDbDictionary
280
     1
281
     1
  3
ACAD_XREC_ROUNDTRIP
360
409
  0
DICTIONARY
  5
406
330
44
100
AcDbDictionary
280
     1
281
     1
  3
ACAD_XREC_ROUNDTRIP
360
407
  0
DICTIONARY
  5
40A
330
46
100
AcDbDictionary
280
     1
281
     1
  3
ACAD_XREC_ROUNDTRIP
360
40B
  0
DICTIONARY
  5
AFE
330
41A
100
AcDbDictionary
280
     1
281
     1
  3
ACAD_XREC_ROUNDTRIP
360
AFF
  0
DICTIONARY
  5
40C
330
6A
100
AcDbDictionary
280
     1
281
     1
  3
ACAD_ROUNDTRIP_2008_TABLESTYLE_CELLSTYLEMAP
360
AC4
  3
ACAD_XREC_ROUNDTRIP
360
AFD
  0
DICTIONARY
  5
AD5
330
2F
100
AcDbDictionary
280
     1
281
     1
  3
ACAD_XREC_ROUNDTRIP
360
AD6
  0
DICTIONARY
  5
ADB
330
32
100
AcDbDictionary
280
     1
281
     1
  3
ACAD_XREC_ROUNDTRIP
360
ADC
  0
DICTIONARY
  5
AE3
330
36
100
AcDbDictionary
280
     1
281
     1
  3
ACAD_XREC_ROUNDTRIP
360
AE4
  0
DICTIONARY
  5
AEB
330
3A
100
AcDbDictionary
280
     1
281
     1
  3
ACAD_XREC_ROUNDTRIP
360
AEC
  0
DICTIONARY
  5
ADF
330
34
100
AcDbDictionary
280
     1
281
     1
  3
ACAD_XREC_ROUNDTRIP
360
AE0
  0
DICTIONARY
  5
AE1
330
35
100
AcDbDictionary
280
     1
281
     1
  3
ACAD_XREC_ROUNDTRIP
360
AE2
  0
DICTIONARY
  5
AF1
330
3D
100
AcDbDictionary
280
     1
281
     1
  3
ACAD_XREC_ROUNDTRIP
360
AF2
  0
DICTIONARY
  5
AE9
330
39
100
AcDbDictionary
280
     1
281
     1
  3
ACAD_XREC_ROUNDTRIP
360
AEA
  0
DICTIONARY
  5
ACD
330
2B
100
AcDbDictionary
280
     1
281
     1
  3
ACAD_XREC_ROUNDTRIP
360
ACE
  0
DICTIONARY
  5
ACF
330
2C
100
AcDbDictionary
280
     1
281
     1
  3
ACAD_XREC_ROUNDTRIP
360
AD0
  0
DICTIONARY
  5
AD1
330
2D
100
AcDbDictionary
280
     1
281
     1
  3
ACAD_XREC_ROUNDTRIP
360
AD2
  0
DICTIONARY
  5
AD3
330
2E
100
AcDbDictionary
280
     1
281
     1
  3
ACAD_XREC_ROUNDTRIP
360
AD4
  0
DICTIONARY
  5
AD9
330
31
100
AcDbDictionary
280
     1
281
     1
  3
ACAD_XREC_ROUNDTRIP
360
ADA
  0
DICTIONARY
  5
AED
330
3B
100
AcDbDictionary
280
     1
281
     1
  3
ACAD_XREC_ROUNDTRIP
360
AEE
  0
DICTIONARY
  5
AE7
330
38
100
AcDbDictionary
280
     1
281
     1
  3
ACAD_XREC_ROUNDTRIP
360
AE8
  0
DICTIONARY
  5
AEF
330
3C
100
AcDbDictionary
280
     1
281
     1
  3
ACAD_XREC_ROUNDTRIP
360
AF0
  0
DICTIONARY
  5
ADD
330
33
100
AcDbDictionary
280
     1
281
     1
  3
ACAD_XREC_ROUNDTRIP
360
ADE
  0
DICTIONARY
  5
AFB
330
42
100
AcDbDictionary
280
     1
281
     1
  3
ACAD_XREC_ROUNDTRIP
360
AFC
  0
DICTIONARY
  5
AF9
330
41
100
AcDbDictionary
280
     1
281
     1
  3
ACAD_XREC_ROUNDTRIP
360
AFA
  0
DICTIONARY
  5
AF3
330
3E
100
AcDbDictionary
280
     1
281
     1
  3
ACAD_XREC_ROUNDTRIP
360
AF4
  0
DICTIONARY
  5
AF5
330
3F
100
AcDbDictionary
280
     1
281
     1
  3
ACAD_XREC_ROUNDTRIP
360
AF6
  0
DICTIONARY
  5
AE5
330
37
100
AcDbDictionary
280
     1
281
     1
  3
ACAD_XREC_ROUNDTRIP
360
AE6
  0
DICTIONARY
  5
AD7
330
30
100
AcDbDictionary
280
     1
281
     1
  3
ACAD_XREC_ROUNDTRIP
360
AD8
  0
DICTIONARY
  5
AF7
330
40
100
AcDbDictionary
280
     1
281
     1
  3
ACAD_XREC_ROUNDTRIP
360
AF8
  0
XRECORD
  5
B01
102
{ACAD_REACTORS
330
B00
102
}
330
B00
100
AcDbXrecord
280
     1
102
DISPLAYNAME
  1
Metric50
102
FLAGS
 90
        0
  0
XRECORD
  5
AC8
102
{ACAD_REACTORS
330
AC7
102
}
330
AC7
100
AcDbXrecord
280
     1
102
SHADEPLOT
 70
     0
102
SHADEPLOTRESLEVEL
 70
     2
102
SHADEPLOTCUSTOMDPI
 70
   300
  0
XRECORD
  5
ACC
102
{ACAD_REACTORS
330
ACB
102
}
330
ACB
100
AcDbXrecord
280
     1
102
SHADEPLOT
 70
     0
102
SHADEPLOTRESLEVEL
 70
     2
102
SHADEPLOTCUSTOMDPI
 70
   300
  0
XRECORD
  5
ACA
102
{ACAD_REACTORS
330
AC9
102
}
330
AC9
100
AcDbXrecord
280
     1
102
SHADEPLOT
 70
     0
102
SHADEPLOTRESLEVEL
 70
     2
102
SHADEPLOTCUSTOMDPI
 70
   300
  0
XRECORD
  5
409
102
{ACAD_REACTORS
330
408
102
}
330
408
100
AcDbXrecord
280
     1
102
MATERIAL
148
0.0
149
0.0
149
0.0
 93
        0
 94
      127
282
     0
 72
     1
 77
     1
171
     1
175
     1
179
     1
273
     0
  0
XRECORD
  5
407
102
{ACAD_REACTORS
330
406
102
}
330
406
100
AcDbXrecord
280
     1
102
MATERIAL
148
0.0
149
0.0
149
0.0
 93
        0
 94
      127
282
     0
 72
     1
 77
     1
171
     1
175
     1
179
     1
273
     0
  0
XRECORD
  5
40B
102
{ACAD_REACTORS
330
40A
102
}
330
40A
100
AcDbXrecord
280
     1
102
MATERIAL
148
0.0
149
0.0
149
0.0
 93
        0
 94
      127
282
     0
 72
     1
 77
     1
171
     1
175
     1
179
     1
273
     0
  0
XRECORD
  5
AFF
102
{ACAD_REACTORS
330
AFE
102
}
330
AFE
100
AcDbXrecord
280
     1
102
DISPLAYNAME
  1
Metric50
102
FLAGS
 90
        0
  0
CELLSTYLEMAP
  5
AC4
102
{ACAD_REACTORS
330
40C
102
}
330
40C
100
AcDbCellStyleMap
 90
        3
300
CELLSTYLE
  1
TABLEFORMAT_BEGIN
 90
        5
170
     1
 91
        0
 92
    32768
 62
   257
 93
        1
300
CONTENTFORMAT
  1
CONTENTFORMAT_BEGIN
 90
        0
 91
        0
 92
        4
 93
        0
300

 40
0.0
140
1.0
 94
        5
 62
     0
340
11
144
0.25
309
CONTENTFORMAT_END
171
     1
301
MARGIN
  1
CELLMARGIN_BEGIN
 40
0.06
 40
0.06
 40
0.06
 40
0.06
 40
0.18
 40
0.18
309
CELLMARGIN_END
 94
        6
 95
        1
302
GRIDFORMAT
  1
GRIDFORMAT_BEGIN
 90
        0
 91
        1
 62
     0
 92
       -2
340
14
 93
        0
 40
0.045
309
GRIDFORMAT_END
 95
        2
302
GRIDFORMAT
  1
GRIDFORMAT_BEGIN
 90
        0
 91
        1
 62
     0
 92
       -2
340
14
 93
        0
 40
0.045
309
GRIDFORMAT_END
 95
        4
302
GRIDFORMAT
  1
GRIDFORMAT_BEGIN
 90
        0
 91
        1
 62
     0
 92
       -2
340
14
 93
        0
 40
0.045
309
GRIDFORMAT_END
 95
        8
302
GRIDFORMAT
  1
GRIDFORMAT_BEGIN
 90
        0
 91
        1
 62
     0
 92
       -2
340
14
 93
        0
 40
0.045
309
GRIDFORMAT_END
 95
       16
302
GRIDFORMAT
  1
GRIDFORMAT_BEGIN
 90
        0
 91
        1
 62
     0
 92
       -2
340
14
 93
        0
 40
0.045
309
GRIDFORMAT_END
 95
       32
302
GRIDFORMAT
  1
GRIDFORMAT_BEGIN
 90
        0
 91
        1
 62
     0
 92
       -2
340
14
 93
        0
 40
0.045
309
GRIDFORMAT_END
309
TABLEFORMAT_END
  1
CELLSTYLE_BEGIN
 90
        1
 91
        1
300
_TITLE
309
CELLSTYLE_END
300
CELLSTYLE
  1
TABLEFORMAT_BEGIN
 90
        5
170
     1
 91
        0
 92
        0
 62
   257
 93
        1
300
CONTENTFORMAT
  1
CONTENTFORMAT_BEGIN
 90
        0
 91
        0
 92
        4
 93
        0
300

 40
0.0
140
1.0
 94
        5
 62
     0
340
11
144
0.18
309
CONTENTFORMAT_END
171
     1
301
MARGIN
  1
CELLMARGIN_BEGIN
 40
0.06
 40
0.06
 40
0.06
 40
0.06
 40
0.18
 40
0.18
309
CELLMARGIN_END
 94
        6
 95
        1
302
GRIDFORMAT
  1
GRIDFORMAT_BEGIN
 90
        0
 91
        1
 62
     0
 92
       -2
340
14
 93
        0
 40
0.045
309
GRIDFORMAT_END
 95
        2
302
GRIDFORMAT
  1
GRIDFORMAT_BEGIN
 90
        0
 91
        1
 62
     0
 92
       -2
340
14
 93
        0
 40
0.045
309
GRIDFORMAT_END
 95
        4
302
GRIDFORMAT
  1
GRIDFORMAT_BEGIN
 90
        0
 91
        1
 62
     0
 92
       -2
340
14
 93
        0
 40
0.045
309
GRIDFORMAT_END
 95
        8
302
GRIDFORMAT
  1
GRIDFORMAT_BEGIN
 90
        0
 91
        1
 62
     0
 92
       -2
340
14
 93
        0
 40
0.045
309
GRIDFORMAT_END
 95
       16
302
GRIDFORMAT
  1
GRIDFORMAT_BEGIN
 90
        0
 91
        1
 62
     0
 92
       -2
340
14
 93
        0
 40
0.045
309
GRIDFORMAT_END
 95
       32
302
GRIDFORMAT
  1
GRIDFORMAT_BEGIN
 90
        0
 91
        1
 62
     0
 92
       -2
340
14
 93
        0
 40
0.045
309
GRIDFORMAT_END
309
TABLEFORMAT_END
  1
CELLSTYLE_BEGIN
 90
        2
 91
        1
300
_HEADER
309
CELLSTYLE_END
300
CELLSTYLE
  1
TABLEFORMAT_BEGIN
 90
        5
170
     1
 91
        0
 92
        0
 62
   257
 93
        1
300
CONTENTFORMAT
  1
CONTENTFORMAT_BEGIN
 90
        0
 91
        0
 92
        4
 93
        0
300

 40
0.0
140
1.0
 94
        2
 62
     0
340
11
144
0.18
309
CONTENTFORMAT_END
171
     1
301
MARGIN
  1
CELLMARGIN_BEGIN
 40
0.06
 40
0.06
 40
0.06
 40
0.06
 40
0.18
 40
0.18
309
CELLMARGIN_END
 94
        6
 95
        1
302
GRIDFORMAT
  1
GRIDFORMAT_BEGIN
 90
        0
 91
        1
 62
     0
 92
       -2
340
14
 93
        0
 40
0.045
309
GRIDFORMAT_END
 95
        2
302
GRIDFORMAT
  1
GRIDFORMAT_BEGIN
 90
        0
 91
        1
 62
     0
 92
       -2
340
14
 93
        0
 40
0.045
309
GRIDFORMAT_END
 95
        4
302
GRIDFORMAT
  1
GRIDFORMAT_BEGIN
 90
        0
 91
        1
 62
     0
 92
       -2
340
14
 93
        0
 40
0.045
309
GRIDFORMAT_END
 95
        8
302
GRIDFORMAT
  1
GRIDFORMAT_BEGIN
 90
        0
 91
        1
 62
     0
 92
       -2
340
14
 93
        0
 40
0.045
309
GRIDFORMAT_END
 95
       16
302
GRIDFORMAT
  1
GRIDFORMAT_BEGIN
 90
        0
 91
        1
 62
     0
 92
       -2
340
14
 93
        0
 40
0.045
309
GRIDFORMAT_END
 95
       32
302
GRIDFORMAT
  1
GRIDFORMAT_BEGIN
 90
        0
 91
        1
 62
     0
 92
       -2
340
14
 93
        0
 40
0.045
309
GRIDFORMAT_END
309
TABLEFORMAT_END
  1
CELLSTYLE_BEGIN
 90
        3
 91
        2
300
_DATA
309
CELLSTYLE_END
  0
XRECORD
  5
AFD
102
{ACAD_REACTORS
330
40C
102
}
330
40C
100
AcDbXrecord
280
     1
102
ACAD_ROUNDTRIP_PRE2007_TABLESTYLE
 90
        4
 91
        0
  1

 92
        4
 93
        0
  2

 94
        4
 95
        0
  3

  0
XRECORD
  5
AD6
102
{ACAD_REACTORS
330
AD5
102
}
330
AD5
100
AcDbXrecord
280
     1
102
RTVSPost2010Prop28
280
     1
102
RTVSPost2010PropOp28
 70
     1
102
RTVSPost2010Prop29
280
     1
102
RTVSPost2010PropOp29
 70
     1
102
RTVSPost2010Prop30
280
     0
102
RTVSPost2010PropOp30
 70
     1
102
RTVSPost2010Prop31
280
     0
102
RTVSPost2010PropOp31
 70
     1
102
RTVSPost2010Prop32
280
     0
102
RTVSPost2010PropOp32
 70
     1
102
RTVSPost2010Prop33
280
     0
102
RTVSPost2010PropOp33
 70
     1
102
RTVSPost2010Prop34
280
     0
102
RTVSPost2010PropOp34
 70
     1
102
RTVSPost2010Prop35
280
     0
102
RTVSPost2010PropOp35
 70
     1
102
RTVSPost2010Prop36
280
     0
102
RTVSPost2010PropOp36
 70
     1
102
RTVSPost2010Prop37
 90
       50
102
RTVSPost2010PropOp37
 70
     1
102
RTVSPost2010Prop38
140
0.0
102
RTVSPost2010PropOp38
 70
     1
102
RTVSPost2010Prop39
140
1.0
102
RTVSPost2010PropOp39
 70
     1
102
RTVSPost2010Prop40
 90
        0
102
RTVSPost2010PropOp40
 70
     1
102
RTVSPost2010Prop41ColorIndex
 90
       18
102
RTVSPost2010Prop41ColorRGB
 90
        0
102
RTVSPost2010PropOp41
 70
     1
102
RTVSPost2010Prop42
 90
       50
102
RTVSPost2010PropOp42
 70
     1
102
RTVSPost2010Prop43
 90
        3
102
RTVSPost2010PropOp43
 70
     1
102
RTVSPost2010Prop44ColorIndex
 90
        5
102
RTVSPost2010Prop44ColorRGB
 90
      255
102
RTVSPost2010PropOp44
 70
     1
102
RTVSPost2010Prop45
280
     0
102
RTVSPost2010PropOp45
 70
     1
102
RTVSPost2010Prop46
 90
       50
102
RTVSPost2010PropOp46
 70
     1
102
RTVSPost2010Prop47
 90
       50
102
RTVSPost2010PropOp47
 70
     1
102
RTVSPost2010Prop48
 90
       50
102
RTVSPost2010PropOp48
 70
     1
102
RTVSPost2010Prop49
280
     0
102
RTVSPost2010PropOp49
 70
     1
102
RTVSPost2010Prop50
 90
       50
102
RTVSPost2010PropOp50
 70
     1
102
RTVSPost2010Prop51ColorIndex
 90
      256
102
RTVSPost2010Prop51ColorRGB
 90
-16777216
102
RTVSPost2010PropOp51
 70
     0
102
RTVSPost2010Prop52
140
1.0
102
RTVSPost2010PropOp52
 70
     0
102
RTVSPost2010Prop53
 90
        2
102
RTVSPost2010PropOp53
 70
     1
102
RTVSPost2010Prop54
  1
strokes_ogs.tif
102
RTVSPost2010PropOp54
 70
     1
102
RTVSPost2010Prop55
280
     0
102
RTVSPost2010PropOp55
 70
     1
102
RTVSPost2010Prop56
140
1.0
102
RTVSPost2010PropOp56
 70
     1
102
RTVSPost2010Prop57
140
1.0
102
RTVSPost2010PropOp57
 70
     1
102
RTVSPropertyOp0
 70
     1
102
RTVSPropertyOp1
 70
     1
102
RTVSPropertyOp2
 70
     1
102
RTVSPropertyOp3
 70
     1
102
RTVSPropertyOp4
 70
     1
102
RTVSPropertyOp5
 70
     1
102
RTVSPropertyOp6
 70
     1
102
RTVSPropertyOp7
 70
     1
102
RTVSPropertyOp8
 70
     1
102
RTVSPropertyOp9
 70
     1
102
RTVSPropertyOp10
 70
     1
102
RTVSPropertyOp11
 70
     1
102
RTVSPropertyOp12
 70
     1
102
RTVSPropertyOp13
 70
     1
102
RTVSPropertyOp14
 70
     1
102
RTVSPropertyOp15
 70
     1
102
RTVSPropertyOp16
 70
     1
102
RTVSPropertyOp17
 70
     1
102
RTVSPropertyOp18
 70
     1
102
RTVSPropertyOp19
 70
     1
102
RTVSPropertyOp20
 70
     1
102
RTVSPropertyOp21
 70
     1
102
RTVSPropertyOp22
 70
     1
102
RTVSPropertyOp23
 70
     1
102
RTVSPropertyOp24
 70
     1
102
RTVSPropertyOp25
 70
     1
102
RTVSPropertyOp26
 70
     1
102
RTVSPropertyOp27
 70
     1
102
RTVSPropertyOp28
 70
     1
102
RTVSPropertyOp29
 70
     1
102
RTVSPropertyOp30
 70
     1
102
RTVSPropertyOp31
 70
     1
102
RTVSPropertyOp32
 70
     1
102
RTVSPropertyOp33
 70
     1
102
RTVSPropertyOp34
 70
     1
102
RTVSPropertyOp35
 70
     1
102
RTVSPropertyOp36
 70
     1
102
RTVSPropertyOp37
 70
     1
102
RTVSPropertyOp38
 70
     1
102
RTVSPropertyOp39
 70
     1
102
RTVSPropertyOp40
 70
     1
102
RTVSPropertyOp41
 70
     1
102
RTVSPropertyOp42
 70
     1
102
RTVSPropertyOp43
 70
     1
102
RTVSPropertyOp44
 70
     1
102
RTVSPropertyOp45
 70
     1
102
RTVSPropertyOp46
 70
     1
102
RTVSPropertyOp47
 70
     1
102
RTVSPropertyOp48
 70
     1
102
RTVSPropertyOp49
 70
     1
102
RTVSPropertyOp50
 70
     1
102
RTVSPropertyOp51
 70
     0
102
RTVSPropertyOp52
 70
     0
102
RTVSPropertyOp53
 70
     1
102
RTVSPropertyOp54
 70
     1
102
RTVSPropertyOp55
 70
     1
102
RTVSPropertyOp56
 70
     1
102
RTVSPropertyOp57
 70
     1
102
RTVSPropertyOp58
 70
     1
102
RTVSPropertyOp59
 70
     1
102
RTVSPropertyOp60
 70
     1
102
RTVSPropertyOp61
 70
     1
102
RTVSPropertyOp62
 70
     1
  0
XRECORD
  5
ADC
102
{ACAD_REACTORS
330
ADB
102
}
330
ADB
100
AcDbXrecord
280
     1
102
RTVSPost2010Prop28
280
     0
102
RTVSPost2010PropOp28
 70
     1
102
RTVSPost2010Prop29
280
     1
102
RTVSPost2010PropOp29
 70
     1
102
RTVSPost2010Prop30
280
     1
102
RTVSPost2010PropOp30
 70
     1
102
RTVSPost2010Prop31
280
     0
102
RTVSPost2010PropOp31
 70
     1
102
RTVSPost2010Prop32
280
     0
102
RTVSPost2010PropOp32
 70
     1
102
RTVSPost2010Prop33
280
     0
102
RTVSPost2010PropOp33
 70
     1
102
RTVSPost2010Prop34
280
     0
102
RTVSPost2010PropOp34
 70
     1
102
RTVSPost2010Prop35
280
     0
102
RTVSPost2010PropOp35
 70
     1
102
RTVSPost2010Prop36
280
     0
102
RTVSPost2010PropOp36
 70
     1
102
RTVSPost2010Prop37
 90
       50
102
RTVSPost2010PropOp37
 70
     1
102
RTVSPost2010Prop38
140
0.0
102
RTVSPost2010PropOp38
 70
     1
102
RTVSPost2010Prop39
140
1.0
102
RTVSPost2010PropOp39
 70
     1
102
RTVSPost2010Prop40
 90
        0
102
RTVSPost2010PropOp40
 70
     1
102
RTVSPost2010Prop41ColorIndex
 90
       18
102
RTVSPost2010Prop41ColorRGB
 90
        0
102
RTVSPost2010PropOp41
 70
     1
102
RTVSPost2010Prop42
 90
       50
102
RTVSPost2010PropOp42
 70
     1
102
RTVSPost2010Prop43
 90
        3
102
RTVSPost2010PropOp43
 70
     1
102
RTVSPost2010Prop44ColorIndex
 90
        5
102
RTVSPost2010Prop44ColorRGB
 90
      255
102
RTVSPost2010PropOp44
 70
     1
102
RTVSPost2010Prop45
280
     0
102
RTVSPost2010PropOp45
 70
     1
102
RTVSPost2010Prop46
 90
       50
102
RTVSPost2010PropOp46
 70
     1
102
RTVSPost2010Prop47
 90
       50
102
RTVSPost2010PropOp47
 70
     1
102
RTVSPost2010Prop48
 90
       50
102
RTVSPost2010PropOp48
 70
     1
102
RTVSPost2010Prop49
280
     0
102
RTVSPost2010PropOp49
 70
     1
102
RTVSPost2010Prop50
 90
       50
102
RTVSPost2010PropOp50
 70
     1
102
RTVSPost2010Prop51ColorIndex
 90
      256
102
RTVSPost2010Prop51ColorRGB
 90
-16777216
102
RTVSPost2010PropOp51
 70
     0
102
RTVSPost2010Prop52
140
1.0
102
RTVSPost2010PropOp52
 70
     0
102
RTVSPost2010Prop53
 90
        2
102
RTVSPost2010PropOp53
 70
     1
102
RTVSPost2010Prop54
  1
strokes_ogs.tif
102
RTVSPost2010PropOp54
 70
     1
102
RTVSPost2010Prop55
280
     0
102
RTVSPost2010PropOp55
 70
     1
102
RTVSPost2010Prop56
140
1.0
102
RTVSPost2010PropOp56
 70
     1
102
RTVSPost2010Prop57
140
1.0
102
RTVSPost2010PropOp57
 70
     1
102
RTVSPropertyOp0
 70
     1
102
RTVSPropertyOp1
 70
     1
102
RTVSPropertyOp2
 70
     1
102
RTVSPropertyOp3
 70
     1
102
RTVSPropertyOp4
 70
     1
102
RTVSPropertyOp5
 70
     1
102
RTVSPropertyOp6
 70
     1
102
RTVSPropertyOp7
 70
     1
102
RTVSPropertyOp8
 70
     1
102
RTVSPropertyOp9
 70
     1
102
RTVSPropertyOp10
 70
     1
102
RTVSPropertyOp11
 70
     1
102
RTVSPropertyOp12
 70
     1
102
RTVSPropertyOp13
 70
     1
102
RTVSPropertyOp14
 70
     1
102
RTVSPropertyOp15
 70
     1
102
RTVSPropertyOp16
 70
     1
102
RTVSPropertyOp17
 70
     1
102
RTVSPropertyOp18
 70
     1
102
RTVSPropertyOp19
 70
     1
102
RTVSPropertyOp20
 70
     1
102
RTVSPropertyOp21
 70
     1
102
RTVSPropertyOp22
 70
     1
102
RTVSPropertyOp23
 70
     1
102
RTVSPropertyOp24
 70
     1
102
RTVSPropertyOp25
 70
     1
102
RTVSPropertyOp26
 70
     1
102
RTVSPropertyOp27
 70
     1
102
RTVSPropertyOp28
 70
     1
102
RTVSPropertyOp29
 70
     1
102
RTVSPropertyOp30
 70
     1
102
RTVSPropertyOp31
 70
     1
102
RTVSPropertyOp32
 70
     1
102
RTVSPropertyOp33
 70
     1
102
RTVSPropertyOp34
 70
     1
102
RTVSPropertyOp35
 70
     1
102
RTVSPropertyOp36
 70
     1
102
RTVSPropertyOp37
 70
     1
102
RTVSPropertyOp38
 70
     1
102
RTVSPropertyOp39
 70
     1
102
RTVSPropertyOp40
 70
     1
102
RTVSPropertyOp41
 70
     1
102
RTVSPropertyOp42
 70
     1
102
RTVSPropertyOp43
 70
     1
102
RTVSPropertyOp44
 70
     1
102
RTVSPropertyOp45
 70
     1
102
RTVSPropertyOp46
 70
     1
102
RTVSPropertyOp47
 70
     1
102
RTVSPropertyOp48
 70
     1
102
RTVSPropertyOp49
 70
     1
102
RTVSPropertyOp50
 70
     1
102
RTVSPropertyOp51
 70
     0
102
RTVSPropertyOp52
 70
     0
102
RTVSPropertyOp53
 70
     1
102
RTVSPropertyOp54
 70
     1
102
RTVSPropertyOp55
 70
     1
102
RTVSPropertyOp56
 70
     1
102
RTVSPropertyOp57
 70
     1
102
RTVSPropertyOp58
 70
     1
102
RTVSPropertyOp59
 70
     1
102
RTVSPropertyOp60
 70
     1
102
RTVSPropertyOp61
 70
     1
102
RTVSPropertyOp62
 70
     1
  0
XRECORD
  5
AE4
102
{ACAD_REACTORS
330
AE3
102
}
330
AE3
100
AcDbXrecord
280
     1
102
RTVSPost2010Prop28
280
     0
102
RTVSPost2010PropOp28
 70
     1
102
RTVSPost2010Prop29
280
     1
102
RTVSPost2010PropOp29
 70
     1
102
RTVSPost2010Prop30
280
     1
102
RTVSPost2010PropOp30
 70
     1
102
RTVSPost2010Prop31
280
     0
102
RTVSPost2010PropOp31
 70
     1
102
RTVSPost2010Prop32
280
     0
102
RTVSPost2010PropOp32
 70
     1
102
RTVSPost2010Prop33
280
     0
102
RTVSPost2010PropOp33
 70
     1
102
RTVSPost2010Prop34
280
     0
102
RTVSPost2010PropOp34
 70
     1
102
RTVSPost2010Prop35
280
     0
102
RTVSPost2010PropOp35
 70
     1
102
RTVSPost2010Prop36
280
     0
102
RTVSPost2010PropOp36
 70
     1
102
RTVSPost2010Prop37
 90
       50
102
RTVSPost2010PropOp37
 70
     1
102
RTVSPost2010Prop38
140
0.0
102
RTVSPost2010PropOp38
 70
     1
102
RTVSPost2010Prop39
140
1.0
102
RTVSPost2010PropOp39
 70
     1
102
RTVSPost2010Prop40
 90
        0
102
RTVSPost2010PropOp40
 70
     1
102
RTVSPost2010Prop41ColorIndex
 90
       18
102
RTVSPost2010Prop41ColorRGB
 90
        0
102
RTVSPost2010PropOp41
 70
     1
102
RTVSPost2010Prop42
 90
       50
102
RTVSPost2010PropOp42
 70
     1
102
RTVSPost2010Prop43
 90
        3
102
RTVSPost2010PropOp43
 70
     1
102
RTVSPost2010Prop44ColorIndex
 90
        5
102
RTVSPost2010Prop44ColorRGB
 90
      255
102
RTVSPost2010PropOp44
 70
     1
102
RTVSPost2010Prop45
280
     0
102
RTVSPost2010PropOp45
 70
     1
102
RTVSPost2010Prop46
 90
       50
102
RTVSPost2010PropOp46
 70
     1
102
RTVSPost2010Prop47
 90
       50
102
RTVSPost2010PropOp47
 70
     1
102
RTVSPost2010Prop48
 90
       50
102
RTVSPost2010PropOp48
 70
     1
102
RTVSPost2010Prop49
280
     0
102
RTVSPost2010PropOp49
 70
     1
102
RTVSPost2010Prop50
 90
       50
102
RTVSPost2010PropOp50
 70
     1
102
RTVSPost2010Prop51ColorIndex
 90
      256
102
RTVSPost2010Prop51ColorRGB
 90
-16777216
102
RTVSPost2010PropOp51
 70
     0
102
RTVSPost2010Prop52
140
1.0
102
RTVSPost2010PropOp52
 70
     0
102
RTVSPost2010Prop53
 90
        2
102
RTVSPost2010PropOp53
 70
     1
102
RTVSPost2010Prop54
  1
strokes_ogs.tif
102
RTVSPost2010PropOp54
 70
     1
102
RTVSPost2010Prop55
280
     0
102
RTVSPost2010PropOp55
 70
     1
102
RTVSPost2010Prop56
140
1.0
102
RTVSPost2010PropOp56
 70
     1
102
RTVSPost2010Prop57
140
1.0
102
RTVSPost2010PropOp57
 70
     1
102
RTVSPropertyOp0
 70
     1
102
RTVSPropertyOp1
 70
     1
102
RTVSPropertyOp2
 70
     1
102
RTVSPropertyOp3
 70
     1
102
RTVSPropertyOp4
 70
     1
102
RTVSPropertyOp5
 70
     1
102
RTVSPropertyOp6
 70
     1
102
RTVSPropertyOp7
 70
     1
102
RTVSPropertyOp8
 70
     1
102
RTVSPropertyOp9
 70
     1
102
RTVSPropertyOp10
 70
     1
102
RTVSPropertyOp11
 70
     1
102
RTVSPropertyOp12
 70
     1
102
RTVSPropertyOp13
 70
     1
102
RTVSPropertyOp14
 70
     1
102
RTVSPropertyOp15
 70
     1
102
RTVSPropertyOp16
 70
     1
102
RTVSPropertyOp17
 70
     1
102
RTVSPropertyOp18
 70
     1
102
RTVSPropertyOp19
 70
     1
102
RTVSPropertyOp20
 70
     1
102
RTVSPropertyOp21
 70
     1
102
RTVSPropertyOp22
 70
     1
102
RTVSPropertyOp23
 70
     1
102
RTVSPropertyOp24
 70
     1
102
RTVSPropertyOp25
 70
     1
102
RTVSPropertyOp26
 70
     1
102
RTVSPropertyOp27
 70
     1
102
RTVSPropertyOp28
 70
     1
102
RTVSPropertyOp29
 70
     1
102
RTVSPropertyOp30
 70
     1
102
RTVSPropertyOp31
 70
     1
102
RTVSPropertyOp32
 70
     1
102
RTVSPropertyOp33
 70
     1
102
RTVSPropertyOp34
 70
     1
102
RTVSPropertyOp35
 70
     1
102
RTVSPropertyOp36
 70
     1
102
RTVSPropertyOp37
 70
     1
102
RTVSPropertyOp38
 70
     1
102
RTVSPropertyOp39
 70
     1
102
RTVSPropertyOp40
 70
     1
102
RTVSPropertyOp41
 70
     1
102
RTVSPropertyOp42
 70
     1
102
RTVSPropertyOp43
 70
     1
102
RTVSPropertyOp44
 70
     1
102
RTVSPropertyOp45
 70
     1
102
RTVSPropertyOp46
 70
     1
102
RTVSPropertyOp47
 70
     1
102
RTVSPropertyOp48
 70
     1
102
RTVSPropertyOp49
 70
     1
102
RTVSPropertyOp50
 70
     1
102
RTVSPropertyOp51
 70
     0
102
RTVSPropertyOp52
 70
     0
102
RTVSPropertyOp53
 70
     1
102
RTVSPropertyOp54
 70
     1
102
RTVSPropertyOp55
 70
     1
102
RTVSPropertyOp56
 70
     1
102
RTVSPropertyOp57
 70
     1
102
RTVSPropertyOp58
 70
     1
102
RTVSPropertyOp59
 70
     1
102
RTVSPropertyOp60
 70
     1
102
RTVSPropertyOp61
 70
     1
102
RTVSPropertyOp62
 70
     1
  0
XRECORD
  5
AEC
102
{ACAD_REACTORS
330
AEB
102
}
330
AEB
100
AcDbXrecord
280
     1
102
RTVSPost2010Prop28
280
     0
102
RTVSPost2010PropOp28
 70
     1
102
RTVSPost2010Prop29
280
     1
102
RTVSPost2010PropOp29
 70
     1
102
RTVSPost2010Prop30
280
     1
102
RTVSPost2010PropOp30
 70
     1
102
RTVSPost2010Prop31
280
     0
102
RTVSPost2010PropOp31
 70
     1
102
RTVSPost2010Prop32
280
     0
102
RTVSPost2010PropOp32
 70
     1
102
RTVSPost2010Prop33
280
     0
102
RTVSPost2010PropOp33
 70
     1
102
RTVSPost2010Prop34
280
     0
102
RTVSPost2010PropOp34
 70
     1
102
RTVSPost2010Prop35
280
     0
102
RTVSPost2010PropOp35
 70
     1
102
RTVSPost2010Prop36
280
     0
102
RTVSPost2010PropOp36
 70
     1
102
RTVSPost2010Prop37
 90
       50
102
RTVSPost2010PropOp37
 70
     1
102
RTVSPost2010Prop38
140
0.0
102
RTVSPost2010PropOp38
 70
     1
102
RTVSPost2010Prop39
140
1.0
102
RTVSPost2010PropOp39
 70
     1
102
RTVSPost2010Prop40
 90
        0
102
RTVSPost2010PropOp40
 70
     1
102
RTVSPost2010Prop41ColorIndex
 90
       18
102
RTVSPost2010Prop41ColorRGB
 90
        0
102
RTVSPost2010PropOp41
 70
     1
102
RTVSPost2010Prop42
 90
       50
102
RTVSPost2010PropOp42
 70
     1
102
RTVSPost2010Prop43
 90
        3
102
RTVSPost2010PropOp43
 70
     1
102
RTVSPost2010Prop44ColorIndex
 90
        5
102
RTVSPost2010Prop44ColorRGB
 90
      255
102
RTVSPost2010PropOp44
 70
     1
102
RTVSPost2010Prop45
280
     0
102
RTVSPost2010PropOp45
 70
     1
102
RTVSPost2010Prop46
 90
       50
102
RTVSPost2010PropOp46
 70
     1
102
RTVSPost2010Prop47
 90
       50
102
RTVSPost2010PropOp47
 70
     1
102
RTVSPost2010Prop48
 90
       50
102
RTVSPost2010PropOp48
 70
     1
102
RTVSPost2010Prop49
280
     0
102
RTVSPost2010PropOp49
 70
     1
102
RTVSPost2010Prop50
 90
       50
102
RTVSPost2010PropOp50
 70
     1
102
RTVSPost2010Prop51ColorIndex
 90
      256
102
RTVSPost2010Prop51ColorRGB
 90
-16777216
102
RTVSPost2010PropOp51
 70
     0
102
RTVSPost2010Prop52
140
1.0
102
RTVSPost2010PropOp52
 70
     0
102
RTVSPost2010Prop53
 90
        2
102
RTVSPost2010PropOp53
 70
     1
102
RTVSPost2010Prop54
  1
strokes_ogs.tif
102
RTVSPost2010PropOp54
 70
     1
102
RTVSPost2010Prop55
280
     0
102
RTVSPost2010PropOp55
 70
     1
102
RTVSPost2010Prop56
140
1.0
102
RTVSPost2010PropOp56
 70
     1
102
RTVSPost2010Prop57
140
1.0
102
RTVSPost2010PropOp57
 70
     1
102
RTVSPropertyOp0
 70
     1
102
RTVSPropertyOp1
 70
     1
102
RTVSPropertyOp2
 70
     1
102
RTVSPropertyOp3
 70
     1
102
RTVSPropertyOp4
 70
     1
102
RTVSPropertyOp5
 70
     1
102
RTVSPropertyOp6
 70
     1
102
RTVSPropertyOp7
 70
     1
102
RTVSPropertyOp8
 70
     1
102
RTVSPropertyOp9
 70
     1
102
RTVSPropertyOp10
 70
     1
102
RTVSPropertyOp11
 70
     1
102
RTVSPropertyOp12
 70
     1
102
RTVSPropertyOp13
 70
     1
102
RTVSPropertyOp14
 70
     1
102
RTVSPropertyOp15
 70
     1
102
RTVSPropertyOp16
 70
     1
102
RTVSPropertyOp17
 70
     1
102
RTVSPropertyOp18
 70
     1
102
RTVSPropertyOp19
 70
     1
102
RTVSPropertyOp20
 70
     1
102
RTVSPropertyOp21
 70
     1
102
RTVSPropertyOp22
 70
     1
102
RTVSPropertyOp23
 70
     1
102
RTVSPropertyOp24
 70
     1
102
RTVSPropertyOp25
 70
     1
102
RTVSPropertyOp26
 70
     1
102
RTVSPropertyOp27
 70
     1
102
RTVSPropertyOp28
 70
     1
102
RTVSPropertyOp29
 70
     1
102
RTVSPropertyOp30
 70
     1
102
RTVSPropertyOp31
 70
     1
102
RTVSPropertyOp32
 70
     1
102
RTVSPropertyOp33
 70
     1
102
RTVSPropertyOp34
 70
     1
102
RTVSPropertyOp35
 70
     1
102
RTVSPropertyOp36
 70
     1
102
RTVSPropertyOp37
 70
     1
102
RTVSPropertyOp38
 70
     1
102
RTVSPropertyOp39
 70
     1
102
RTVSPropertyOp40
 70
     1
102
RTVSPropertyOp41
 70
     1
102
RTVSPropertyOp42
 70
     1
102
RTVSPropertyOp43
 70
     1
102
RTVSPropertyOp44
 70
     1
102
RTVSPropertyOp45
 70
     1
102
RTVSPropertyOp46
 70
     1
102
RTVSPropertyOp47
 70
     1
102
RTVSPropertyOp48
 70
     1
102
RTVSPropertyOp49
 70
     1
102
RTVSPropertyOp50
 70
     1
102
RTVSPropertyOp51
 70
     0
102
RTVSPropertyOp52
 70
     0
102
RTVSPropertyOp53
 70
     1
102
RTVSPropertyOp54
 70
     1
102
RTVSPropertyOp55
 70
     1
102
RTVSPropertyOp56
 70
     1
102
RTVSPropertyOp57
 70
     1
102
RTVSPropertyOp58
 70
     1
102
RTVSPropertyOp59
 70
     1
102
RTVSPropertyOp60
 70
     1
102
RTVSPropertyOp61
 70
     1
102
RTVSPropertyOp62
 70
     1
  0
XRECORD
  5
AE0
102
{ACAD_REACTORS
330
ADF
102
}
330
ADF
100
AcDbXrecord
280
     1
102
RTVSPost2010Prop28
280
     0
102
RTVSPost2010PropOp28
 70
     1
102
RTVSPost2010Prop29
280
     1
102
RTVSPost2010PropOp29
 70
     1
102
RTVSPost2010Prop30
280
     1
102
RTVSPost2010PropOp30
 70
     1
102
RTVSPost2010Prop31
280
     0
102
RTVSPost2010PropOp31
 70
     1
102
RTVSPost2010Prop32
280
     0
102
RTVSPost2010PropOp32
 70
     1
102
RTVSPost2010Prop33
280
     0
102
RTVSPost2010PropOp33
 70
     1
102
RTVSPost2010Prop34
280
     0
102
RTVSPost2010PropOp34
 70
     1
102
RTVSPost2010Prop35
280
     0
102
RTVSPost2010PropOp35
 70
     1
102
RTVSPost2010Prop36
280
     0
102
RTVSPost2010PropOp36
 70
     1
102
RTVSPost2010Prop37
 90
       50
102
RTVSPost2010PropOp37
 70
     1
102
RTVSPost2010Prop38
140
0.0
102
RTVSPost2010PropOp38
 70
     1
102
RTVSPost2010Prop39
140
1.0
102
RTVSPost2010PropOp39
 70
     1
102
RTVSPost2010Prop40
 90
        0
102
RTVSPost2010PropOp40
 70
     1
102
RTVSPost2010Prop41ColorIndex
 90
       18
102
RTVSPost2010Prop41ColorRGB
 90
        0
102
RTVSPost2010PropOp41
 70
     1
102
RTVSPost2010Prop42
 90
       50
102
RTVSPost2010PropOp42
 70
     1
102
RTVSPost2010Prop43
 90
        3
102
RTVSPost2010PropOp43
 70
     1
102
RTVSPost2010Prop44ColorIndex
 90
        5
102
RTVSPost2010Prop44ColorRGB
 90
      255
102
RTVSPost2010PropOp44
 70
     1
102
RTVSPost2010Prop45
280
     0
102
RTVSPost2010PropOp45
 70
     1
102
RTVSPost2010Prop46
 90
       50
102
RTVSPost2010PropOp46
 70
     1
102
RTVSPost2010Prop47
 90
       50
102
RTVSPost2010PropOp47
 70
     1
102
RTVSPost2010Prop48
 90
       50
102
RTVSPost2010PropOp48
 70
     1
102
RTVSPost2010Prop49
280
     0
102
RTVSPost2010PropOp49
 70
     1
102
RTVSPost2010Prop50
 90
       50
102
RTVSPost2010PropOp50
 70
     1
102
RTVSPost2010Prop51ColorIndex
 90
      256
102
RTVSPost2010Prop51ColorRGB
 90
-16777216
102
RTVSPost2010PropOp51
 70
     0
102
RTVSPost2010Prop52
140
1.0
102
RTVSPost2010PropOp52
 70
     0
102
RTVSPost2010Prop53
 90
        2
102
RTVSPost2010PropOp53
 70
     1
102
RTVSPost2010Prop54
  1
strokes_ogs.tif
102
RTVSPost2010PropOp54
 70
     1
102
RTVSPost2010Prop55
280
     0
102
RTVSPost2010PropOp55
 70
     1
102
RTVSPost2010Prop56
140
1.0
102
RTVSPost2010PropOp56
 70
     1
102
RTVSPost2010Prop57
140
1.0
102
RTVSPost2010PropOp57
 70
     1
102
RTVSPropertyOp0
 70
     1
102
RTVSPropertyOp1
 70
     1
102
RTVSPropertyOp2
 70
     1
102
RTVSPropertyOp3
 70
     1
102
RTVSPropertyOp4
 70
     1
102
RTVSPropertyOp5
 70
     1
102
RTVSPropertyOp6
 70
     1
102
RTVSPropertyOp7
 70
     1
102
RTVSPropertyOp8
 70
     1
102
RTVSPropertyOp9
 70
     1
102
RTVSPropertyOp10
 70
     1
102
RTVSPropertyOp11
 70
     1
102
RTVSPropertyOp12
 70
     1
102
RTVSPropertyOp13
 70
     1
102
RTVSPropertyOp14
 70
     1
102
RTVSPropertyOp15
 70
     1
102
RTVSPropertyOp16
 70
     1
102
RTVSPropertyOp17
 70
     1
102
RTVSPropertyOp18
 70
     1
102
RTVSPropertyOp19
 70
     1
102
RTVSPropertyOp20
 70
     1
102
RTVSPropertyOp21
 70
     1
102
RTVSPropertyOp22
 70
     1
102
RTVSPropertyOp23
 70
     1
102
RTVSPropertyOp24
 70
     1
102
RTVSPropertyOp25
 70
     1
102
RTVSPropertyOp26
 70
     1
102
RTVSPropertyOp27
 70
     1
102
RTVSPropertyOp28
 70
     1
102
RTVSPropertyOp29
 70
     1
102
RTVSPropertyOp30
 70
     1
102
RTVSPropertyOp31
 70
     1
102
RTVSPropertyOp32
 70
     1
102
RTVSPropertyOp33
 70
     1
102
RTVSPropertyOp34
 70
     1
102
RTVSPropertyOp35
 70
     1
102
RTVSPropertyOp36
 70
     1
102
RTVSPropertyOp37
 70
     1
102
RTVSPropertyOp38
 70
     1
102
RTVSPropertyOp39
 70
     1
102
RTVSPropertyOp40
 70
     1
102
RTVSPropertyOp41
 70
     1
102
RTVSPropertyOp42
 70
     1
102
RTVSPropertyOp43
 70
     1
102
RTVSPropertyOp44
 70
     1
102
RTVSPropertyOp45
 70
     1
102
RTVSPropertyOp46
 70
     1
102
RTVSPropertyOp47
 70
     1
102
RTVSPropertyOp48
 70
     1
102
RTVSPropertyOp49
 70
     1
102
RTVSPropertyOp50
 70
     1
102
RTVSPropertyOp51
 70
     0
102
RTVSPropertyOp52
 70
     0
102
RTVSPropertyOp53
 70
     1
102
RTVSPropertyOp54
 70
     1
102
RTVSPropertyOp55
 70
     1
102
RTVSPropertyOp56
 70
     1
102
RTVSPropertyOp57
 70
     1
102
RTVSPropertyOp58
 70
     1
102
RTVSPropertyOp59
 70
     1
102
RTVSPropertyOp60
 70
     1
102
RTVSPropertyOp61
 70
     1
102
RTVSPropertyOp62
 70
     1
  0
XRECORD
  5
AE2
102
{ACAD_REACTORS
330
AE1
102
}
330
AE1
100
AcDbXrecord
280
     1
102
RTVSPost2010Prop28
280
     0
102
RTVSPost2010PropOp28
 70
     1
102
RTVSPost2010Prop29
280
     1
102
RTVSPost2010PropOp29
 70
     1
102
RTVSPost2010Prop30
280
     1
102
RTVSPost2010PropOp30
 70
     1
102
RTVSPost2010Prop31
280
     0
102
RTVSPost2010PropOp31
 70
     1
102
RTVSPost2010Prop32
280
     0
102
RTVSPost2010PropOp32
 70
     1
102
RTVSPost2010Prop33
280
     0
102
RTVSPost2010PropOp33
 70
     1
102
RTVSPost2010Prop34
280
     0
102
RTVSPost2010PropOp34
 70
     1
102
RTVSPost2010Prop35
280
     0
102
RTVSPost2010PropOp35
 70
     1
102
RTVSPost2010Prop36
280
     0
102
RTVSPost2010PropOp36
 70
     1
102
RTVSPost2010Prop37
 90
       50
102
RTVSPost2010PropOp37
 70
     1
102
RTVSPost2010Prop38
140
0.0
102
RTVSPost2010PropOp38
 70
     1
102
RTVSPost2010Prop39
140
1.0
102
RTVSPost2010PropOp39
 70
     1
102
RTVSPost2010Prop40
 90
        0
102
RTVSPost2010PropOp40
 70
     1
102
RTVSPost2010Prop41ColorIndex
 90
       18
102
RTVSPost2010Prop41ColorRGB
 90
        0
102
RTVSPost2010PropOp41
 70
     1
102
RTVSPost2010Prop42
 90
       50
102
RTVSPost2010PropOp42
 70
     1
102
RTVSPost2010Prop43
 90
        3
102
RTVSPost2010PropOp43
 70
     1
102
RTVSPost2010Prop44ColorIndex
 90
        5
102
RTVSPost2010Prop44ColorRGB
 90
      255
102
RTVSPost2010PropOp44
 70
     1
102
RTVSPost2010Prop45
280
     0
102
RTVSPost2010PropOp45
 70
     1
102
RTVSPost2010Prop46
 90
       50
102
RTVSPost2010PropOp46
 70
     1
102
RTVSPost2010Prop47
 90
       50
102
RTVSPost2010PropOp47
 70
     1
102
RTVSPost2010Prop48
 90
       50
102
RTVSPost2010PropOp48
 70
     1
102
RTVSPost2010Prop49
280
     0
102
RTVSPost2010PropOp49
 70
     1
102
RTVSPost2010Prop50
 90
       50
102
RTVSPost2010PropOp50
 70
     1
102
RTVSPost2010Prop51ColorIndex
 90
      256
102
RTVSPost2010Prop51ColorRGB
 90
-16777216
102
RTVSPost2010PropOp51
 70
     0
102
RTVSPost2010Prop52
140
1.0
102
RTVSPost2010PropOp52
 70
     0
102
RTVSPost2010Prop53
 90
        2
102
RTVSPost2010PropOp53
 70
     1
102
RTVSPost2010Prop54
  1
strokes_ogs.tif
102
RTVSPost2010PropOp54
 70
     1
102
RTVSPost2010Prop55
280
     0
102
RTVSPost2010PropOp55
 70
     1
102
RTVSPost2010Prop56
140
1.0
102
RTVSPost2010PropOp56
 70
     1
102
RTVSPost2010Prop57
140
1.0
102
RTVSPost2010PropOp57
 70
     1
102
RTVSPropertyOp0
 70
     1
102
RTVSPropertyOp1
 70
     1
102
RTVSPropertyOp2
 70
     1
102
RTVSPropertyOp3
 70
     1
102
RTVSPropertyOp4
 70
     1
102
RTVSPropertyOp5
 70
     1
102
RTVSPropertyOp6
 70
     1
102
RTVSPropertyOp7
 70
     1
102
RTVSPropertyOp8
 70
     1
102
RTVSPropertyOp9
 70
     1
102
RTVSPropertyOp10
 70
     1
102
RTVSPropertyOp11
 70
     1
102
RTVSPropertyOp12
 70
     1
102
RTVSPropertyOp13
 70
     1
102
RTVSPropertyOp14
 70
     1
102
RTVSPropertyOp15
 70
     1
102
RTVSPropertyOp16
 70
     1
102
RTVSPropertyOp17
 70
     1
102
RTVSPropertyOp18
 70
     1
102
RTVSPropertyOp19
 70
     1
102
RTVSPropertyOp20
 70
     1
102
RTVSPropertyOp21
 70
     1
102
RTVSPropertyOp22
 70
     1
102
RTVSPropertyOp23
 70
     1
102
RTVSPropertyOp24
 70
     1
102
RTVSPropertyOp25
 70
     1
102
RTVSPropertyOp26
 70
     1
102
RTVSPropertyOp27
 70
     1
102
RTVSPropertyOp28
 70
     1
102
RTVSPropertyOp29
 70
     1
102
RTVSPropertyOp30
 70
     1
102
RTVSPropertyOp31
 70
     1
102
RTVSPropertyOp32
 70
     1
102
RTVSPropertyOp33
 70
     1
102
RTVSPropertyOp34
 70
     1
102
RTVSPropertyOp35
 70
     1
102
RTVSPropertyOp36
 70
     1
102
RTVSPropertyOp37
 70
     1
102
RTVSPropertyOp38
 70
     1
102
RTVSPropertyOp39
 70
     1
102
RTVSPropertyOp40
 70
     1
102
RTVSPropertyOp41
 70
     1
102
RTVSPropertyOp42
 70
     1
102
RTVSPropertyOp43
 70
     1
102
RTVSPropertyOp44
 70
     1
102
RTVSPropertyOp45
 70
     1
102
RTVSPropertyOp46
 70
     1
102
RTVSPropertyOp47
 70
     1
102
RTVSPropertyOp48
 70
     1
102
RTVSPropertyOp49
 70
     1
102
RTVSPropertyOp50
 70
     1
102
RTVSPropertyOp51
 70
     0
102
RTVSPropertyOp52
 70
     0
102
RTVSPropertyOp53
 70
     1
102
RTVSPropertyOp54
 70
     1
102
RTVSPropertyOp55
 70
     1
102
RTVSPropertyOp56
 70
     1
102
RTVSPropertyOp57
 70
     1
102
RTVSPropertyOp58
 70
     1
102
RTVSPropertyOp59
 70
     1
102
RTVSPropertyOp60
 70
     1
102
RTVSPropertyOp61
 70
     1
102
RTVSPropertyOp62
 70
     1
  0
XRECORD
  5
AF2
102
{ACAD_REACTORS
330
AF1
102
}
330
AF1
100
AcDbXrecord
280
     1
102
RTVSPost2010Prop28
280
     0
102
RTVSPost2010PropOp28
 70
     0
102
RTVSPost2010Prop29
280
     1
102
RTVSPost2010PropOp29
 70
     0
102
RTVSPost2010Prop30
280
     1
102
RTVSPost2010PropOp30
 70
     0
102
RTVSPost2010Prop31
280
     0
102
RTVSPost2010PropOp31
 70
     0
102
RTVSPost2010Prop32
280
     0
102
RTVSPost2010PropOp32
 70
     0
102
RTVSPost2010Prop33
280
     0
102
RTVSPost2010PropOp33
 70
     0
102
RTVSPost2010Prop34
280
     0
102
RTVSPost2010PropOp34
 70
     0
102
RTVSPost2010Prop35
280
     0
102
RTVSPost2010PropOp35
 70
     0
102
RTVSPost2010Prop36
280
     0
102
RTVSPost2010PropOp36
 70
     0
102
RTVSPost2010Prop37
 90
       50
102
RTVSPost2010PropOp37
 70
     0
102
RTVSPost2010Prop38
140
0.0
102
RTVSPost2010PropOp38
 70
     0
102
RTVSPost2010Prop39
140
1.0
102
RTVSPost2010PropOp39
 70
     0
102
RTVSPost2010Prop40
 90
        0
102
RTVSPost2010PropOp40
 70
     0
102
RTVSPost2010Prop41ColorIndex
 90
       18
102
RTVSPost2010Prop41ColorRGB
 90
        0
102
RTVSPost2010PropOp41
 70
     0
102
RTVSPost2010Prop42
 90
       50
102
RTVSPost2010PropOp42
 70
     0
102
RTVSPost2010Prop43
 90
        3
102
RTVSPost2010PropOp43
 70
     0
102
RTVSPost2010Prop44ColorIndex
 90
        5
102
RTVSPost2010Prop44ColorRGB
 90
      255
102
RTVSPost2010PropOp44
 70
     0
102
RTVSPost2010Prop45
280
     0
102
RTVSPost2010PropOp45
 70
     0
102
RTVSPost2010Prop46
 90
       50
102
RTVSPost2010PropOp46
 70
     0
102
RTVSPost2010Prop47
 90
       50
102
RTVSPost2010PropOp47
 70
     0
102
RTVSPost2010Prop48
 90
       50
102
RTVSPost2010PropOp48
 70
     0
102
RTVSPost2010Prop49
280
     0
102
RTVSPost2010PropOp49
 70
     0
102
RTVSPost2010Prop50
 90
       50
102
RTVSPost2010PropOp50
 70
     0
102
RTVSPost2010Prop51ColorIndex
 90
      256
102
RTVSPost2010Prop51ColorRGB
 90
-16777216
102
RTVSPost2010PropOp51
 70
     0
102
RTVSPost2010Prop52
140
1.0
102
RTVSPost2010PropOp52
 70
     0
102
RTVSPost2010Prop53
 90
        2
102
RTVSPost2010PropOp53
 70
     0
102
RTVSPost2010Prop54
  1
strokes_ogs.tif
102
RTVSPost2010PropOp54
 70
     0
102
RTVSPost2010Prop55
280
     0
102
RTVSPost2010PropOp55
 70
     0
102
RTVSPost2010Prop56
140
1.0
102
RTVSPost2010PropOp56
 70
     0
102
RTVSPost2010Prop57
140
1.0
102
RTVSPost2010PropOp57
 70
     0
102
RTVSPropertyOp0
 70
     0
102
RTVSPropertyOp1
 70
     0
102
RTVSPropertyOp2
 70
     0
102
RTVSPropertyOp3
 70
     0
102
RTVSPropertyOp4
 70
     0
102
RTVSPropertyOp5
 70
     0
102
RTVSPropertyOp6
 70
     0
102
RTVSPropertyOp7
 70
     0
102
RTVSPropertyOp8
 70
     0
102
RTVSPropertyOp9
 70
     0
102
RTVSPropertyOp10
 70
     0
102
RTVSPropertyOp11
 70
     0
102
RTVSPropertyOp12
 70
     0
102
RTVSPropertyOp13
 70
     0
102
RTVSPropertyOp14
 70
     2
102
RTVSPropertyOp15
 70
     0
102
RTVSPropertyOp16
 70
     0
102
RTVSPropertyOp17
 70
     0
102
RTVSPropertyOp18
 70
     0
102
RTVSPropertyOp19
 70
     0
102
RTVSPropertyOp20
 70
     0
102
RTVSPropertyOp21
 70
     0
102
RTVSPropertyOp22
 70
     0
102
RTVSPropertyOp23
 70
     0
102
RTVSPropertyOp24
 70
     0
102
RTVSPropertyOp25
 70
     0
102
RTVSPropertyOp26
 70
     0
102
RTVSPropertyOp27
 70
     0
102
RTVSPropertyOp28
 70
     0
102
RTVSPropertyOp29
 70
     0
102
RTVSPropertyOp30
 70
     0
102
RTVSPropertyOp31
 70
     0
102
RTVSPropertyOp32
 70
     0
102
RTVSPropertyOp33
 70
     0
102
RTVSPropertyOp34
 70
     0
102
RTVSPropertyOp35
 70
     0
102
RTVSPropertyOp36
 70
     0
102
RTVSPropertyOp37
 70
     0
102
RTVSPropertyOp38
 70
     0
102
RTVSPropertyOp39
 70
     0
102
RTVSPropertyOp40
 70
     0
102
RTVSPropertyOp41
 70
     0
102
RTVSPropertyOp42
 70
     0
102
RTVSPropertyOp43
 70
     0
102
RTVSPropertyOp44
 70
     0
102
RTVSPropertyOp45
 70
     0
102
RTVSPropertyOp46
 70
     0
102
RTVSPropertyOp47
 70
     0
102
RTVSPropertyOp48
 70
     0
102
RTVSPropertyOp49
 70
     0
102
RTVSPropertyOp50
 70
     0
102
RTVSPropertyOp51
 70
     0
102
RTVSPropertyOp52
 70
     0
102
RTVSPropertyOp53
 70
     0
102
RTVSPropertyOp54
 70
     0
102
RTVSPropertyOp55
 70
     0
102
RTVSPropertyOp56
 70
     0
102
RTVSPropertyOp57
 70
     0
102
RTVSPropertyOp58
 70
     1
102
RTVSPropertyOp59
 70
     1
102
RTVSPropertyOp60
 70
     1
102
RTVSPropertyOp61
 70
     1
102
RTVSPropertyOp62
 70
     1
  0
XRECORD
  5
AEA
102
{ACAD_REACTORS
330
AE9
102
}
330
AE9
100
AcDbXrecord
280
     1
102
RTVSPost2010Prop28
280
     0
102
RTVSPost2010PropOp28
 70
     1
102
RTVSPost2010Prop29
280
     1
102
RTVSPost2010PropOp29
 70
     1
102
RTVSPost2010Prop30
280
     1
102
RTVSPost2010PropOp30
 70
     1
102
RTVSPost2010Prop31
280
     0
102
RTVSPost2010PropOp31
 70
     1
102
RTVSPost2010Prop32
280
     0
102
RTVSPost2010PropOp32
 70
     1
102
RTVSPost2010Prop33
280
     0
102
RTVSPost2010PropOp33
 70
     1
102
RTVSPost2010Prop34
280
     0
102
RTVSPost2010PropOp34
 70
     1
102
RTVSPost2010Prop35
280
     0
102
RTVSPost2010PropOp35
 70
     1
102
RTVSPost2010Prop36
280
     0
102
RTVSPost2010PropOp36
 70
     1
102
RTVSPost2010Prop37
 90
       50
102
RTVSPost2010PropOp37
 70
     1
102
RTVSPost2010Prop38
140
0.0
102
RTVSPost2010PropOp38
 70
     1
102
RTVSPost2010Prop39
140
1.0
102
RTVSPost2010PropOp39
 70
     1
102
RTVSPost2010Prop40
 90
        0
102
RTVSPost2010PropOp40
 70
     1
102
RTVSPost2010Prop41ColorIndex
 90
       18
102
RTVSPost2010Prop41ColorRGB
 90
        0
102
RTVSPost2010PropOp41
 70
     1
102
RTVSPost2010Prop42
 90
       50
102
RTVSPost2010PropOp42
 70
     1
102
RTVSPost2010Prop43
 90
        3
102
RTVSPost2010PropOp43
 70
     1
102
RTVSPost2010Prop44ColorIndex
 90
        5
102
RTVSPost2010Prop44ColorRGB
 90
      255
102
RTVSPost2010PropOp44
 70
     1
102
RTVSPost2010Prop45
280
     0
102
RTVSPost2010PropOp45
 70
     1
102
RTVSPost2010Prop46
 90
       50
102
RTVSPost2010PropOp46
 70
     1
102
RTVSPost2010Prop47
 90
       50
102
RTVSPost2010PropOp47
 70
     1
102
RTVSPost2010Prop48
 90
       50
102
RTVSPost2010PropOp48
 70
     1
102
RTVSPost2010Prop49
280
     0
102
RTVSPost2010PropOp49
 70
     1
102
RTVSPost2010Prop50
 90
       50
102
RTVSPost2010PropOp50
 70
     1
102
RTVSPost2010Prop51ColorIndex
 90
      256
102
RTVSPost2010Prop51ColorRGB
 90
-16777216
102
RTVSPost2010PropOp51
 70
     0
102
RTVSPost2010Prop52
140
1.0
102
RTVSPost2010PropOp52
 70
     0
102
RTVSPost2010Prop53
 90
        2
102
RTVSPost2010PropOp53
 70
     1
102
RTVSPost2010Prop54
  1
strokes_ogs.tif
102
RTVSPost2010PropOp54
 70
     1
102
RTVSPost2010Prop55
280
     0
102
RTVSPost2010PropOp55
 70
     1
102
RTVSPost2010Prop56
140
1.0
102
RTVSPost2010PropOp56
 70
     1
102
RTVSPost2010Prop57
140
1.0
102
RTVSPost2010PropOp57
 70
     1
102
RTVSPropertyOp0
 70
     1
102
RTVSPropertyOp1
 70
     1
102
RTVSPropertyOp2
 70
     1
102
RTVSPropertyOp3
 70
     1
102
RTVSPropertyOp4
 70
     1
102
RTVSPropertyOp5
 70
     1
102
RTVSPropertyOp6
 70
     1
102
RTVSPropertyOp7
 70
     1
102
RTVSPropertyOp8
 70
     1
102
RTVSPropertyOp9
 70
     1
102
RTVSPropertyOp10
 70
     1
102
RTVSPropertyOp11
 70
     1
102
RTVSPropertyOp12
 70
     1
102
RTVSPropertyOp13
 70
     1
102
RTVSPropertyOp14
 70
     1
102
RTVSPropertyOp15
 70
     1
102
RTVSPropertyOp16
 70
     1
102
RTVSPropertyOp17
 70
     1
102
RTVSPropertyOp18
 70
     1
102
RTVSPropertyOp19
 70
     1
102
RTVSPropertyOp20
 70
     1
102
RTVSPropertyOp21
 70
     1
102
RTVSPropertyOp22
 70
     1
102
RTVSPropertyOp23
 70
     1
102
RTVSPropertyOp24
 70
     1
102
RTVSPropertyOp25
 70
     1
102
RTVSPropertyOp26
 70
     1
102
RTVSPropertyOp27
 70
     1
102
RTVSPropertyOp28
 70
     1
102
RTVSPropertyOp29
 70
     1
102
RTVSPropertyOp30
 70
     1
102
RTVSPropertyOp31
 70
     1
102
RTVSPropertyOp32
 70
     1
102
RTVSPropertyOp33
 70
     1
102
RTVSPropertyOp34
 70
     1
102
RTVSPropertyOp35
 70
     1
102
RTVSPropertyOp36
 70
     1
102
RTVSPropertyOp37
 70
     1
102
RTVSPropertyOp38
 70
     1
102
RTVSPropertyOp39
 70
     1
102
RTVSPropertyOp40
 70
     1
102
RTVSPropertyOp41
 70
     1
102
RTVSPropertyOp42
 70
     1
102
RTVSPropertyOp43
 70
     1
102
RTVSPropertyOp44
 70
     1
102
RTVSPropertyOp45
 70
     1
102
RTVSPropertyOp46
 70
     1
102
RTVSPropertyOp47
 70
     1
102
RTVSPropertyOp48
 70
     1
102
RTVSPropertyOp49
 70
     1
102
RTVSPropertyOp50
 70
     1
102
RTVSPropertyOp51
 70
     0
102
RTVSPropertyOp52
 70
     0
102
RTVSPropertyOp53
 70
     1
102
RTVSPropertyOp54
 70
     1
102
RTVSPropertyOp55
 70
     1
102
RTVSPropertyOp56
 70
     1
102
RTVSPropertyOp57
 70
     1
102
RTVSPropertyOp58
 70
     1
102
RTVSPropertyOp59
 70
     1
102
RTVSPropertyOp60
 70
     1
102
RTVSPropertyOp61
 70
     1
102
RTVSPropertyOp62
 70
     1
  0
XRECORD
  5
ACE
102
{ACAD_REACTORS
330
ACD
102
}
330
ACD
100
AcDbXrecord
280
     1
102
RTVSPost2010Prop28
280
     0
102
RTVSPost2010PropOp28
 70
     1
102
RTVSPost2010Prop29
280
     1
102
RTVSPost2010PropOp29
 70
     1
102
RTVSPost2010Prop30
280
     1
102
RTVSPost2010PropOp30
 70
     1
102
RTVSPost2010Prop31
280
     0
102
RTVSPost2010PropOp31
 70
     1
102
RTVSPost2010Prop32
280
     0
102
RTVSPost2010PropOp32
 70
     1
102
RTVSPost2010Prop33
280
     0
102
RTVSPost2010PropOp33
 70
     1
102
RTVSPost2010Prop34
280
     0
102
RTVSPost2010PropOp34
 70
     1
102
RTVSPost2010Prop35
280
     0
102
RTVSPost2010PropOp35
 70
     1
102
RTVSPost2010Prop36
280
     0
102
RTVSPost2010PropOp36
 70
     1
102
RTVSPost2010Prop37
 90
       50
102
RTVSPost2010PropOp37
 70
     1
102
RTVSPost2010Prop38
140
0.0
102
RTVSPost2010PropOp38
 70
     1
102
RTVSPost2010Prop39
140
1.0
102
RTVSPost2010PropOp39
 70
     1
102
RTVSPost2010Prop40
 90
        0
102
RTVSPost2010PropOp40
 70
     1
102
RTVSPost2010Prop41ColorIndex
 90
       18
102
RTVSPost2010Prop41ColorRGB
 90
        0
102
RTVSPost2010PropOp41
 70
     1
102
RTVSPost2010Prop42
 90
       50
102
RTVSPost2010PropOp42
 70
     1
102
RTVSPost2010Prop43
 90
        3
102
RTVSPost2010PropOp43
 70
     1
102
RTVSPost2010Prop44ColorIndex
 90
        5
102
RTVSPost2010Prop44ColorRGB
 90
      255
102
RTVSPost2010PropOp44
 70
     1
102
RTVSPost2010Prop45
280
     0
102
RTVSPost2010PropOp45
 70
     1
102
RTVSPost2010Prop46
 90
       50
102
RTVSPost2010PropOp46
 70
     1
102
RTVSPost2010Prop47
 90
       50
102
RTVSPost2010PropOp47
 70
     1
102
RTVSPost2010Prop48
 90
       50
102
RTVSPost2010PropOp48
 70
     1
102
RTVSPost2010Prop49
280
     0
102
RTVSPost2010PropOp49
 70
     1
102
RTVSPost2010Prop50
 90
       50
102
RTVSPost2010PropOp50
 70
     1
102
RTVSPost2010Prop51ColorIndex
 90
      256
102
RTVSPost2010Prop51ColorRGB
 90
-16777216
102
RTVSPost2010PropOp51
 70
     0
102
RTVSPost2010Prop52
140
1.0
102
RTVSPost2010PropOp52
 70
     0
102
RTVSPost2010Prop53
 90
        2
102
RTVSPost2010PropOp53
 70
     1
102
RTVSPost2010Prop54
  1
strokes_ogs.tif
102
RTVSPost2010PropOp54
 70
     1
102
RTVSPost2010Prop55
280
     0
102
RTVSPost2010PropOp55
 70
     1
102
RTVSPost2010Prop56
140
1.0
102
RTVSPost2010PropOp56
 70
     1
102
RTVSPost2010Prop57
140
1.0
102
RTVSPost2010PropOp57
 70
     1
102
RTVSPropertyOp0
 70
     1
102
RTVSPropertyOp1
 70
     1
102
RTVSPropertyOp2
 70
     1
102
RTVSPropertyOp3
 70
     1
102
RTVSPropertyOp4
 70
     1
102
RTVSPropertyOp5
 70
     1
102
RTVSPropertyOp6
 70
     1
102
RTVSPropertyOp7
 70
     1
102
RTVSPropertyOp8
 70
     1
102
RTVSPropertyOp9
 70
     1
102
RTVSPropertyOp10
 70
     1
102
RTVSPropertyOp11
 70
     1
102
RTVSPropertyOp12
 70
     1
102
RTVSPropertyOp13
 70
     1
102
RTVSPropertyOp14
 70
     1
102
RTVSPropertyOp15
 70
     1
102
RTVSPropertyOp16
 70
     1
102
RTVSPropertyOp17
 70
     1
102
RTVSPropertyOp18
 70
     1
102
RTVSPropertyOp19
 70
     1
102
RTVSPropertyOp20
 70
     1
102
RTVSPropertyOp21
 70
     1
102
RTVSPropertyOp22
 70
     1
102
RTVSPropertyOp23
 70
     1
102
RTVSPropertyOp24
 70
     1
102
RTVSPropertyOp25
 70
     1
102
RTVSPropertyOp26
 70
     1
102
RTVSPropertyOp27
 70
     1
102
RTVSPropertyOp28
 70
     1
102
RTVSPropertyOp29
 70
     1
102
RTVSPropertyOp30
 70
     1
102
RTVSPropertyOp31
 70
     1
102
RTVSPropertyOp32
 70
     1
102
RTVSPropertyOp33
 70
     1
102
RTVSPropertyOp34
 70
     1
102
RTVSPropertyOp35
 70
     1
102
RTVSPropertyOp36
 70
     1
102
RTVSPropertyOp37
 70
     1
102
RTVSPropertyOp38
 70
     1
102
RTVSPropertyOp39
 70
     1
102
RTVSPropertyOp40
 70
     1
102
RTVSPropertyOp41
 70
     1
102
RTVSPropertyOp42
 70
     1
102
RTVSPropertyOp43
 70
     1
102
RTVSPropertyOp44
 70
     1
102
RTVSPropertyOp45
 70
     1
102
RTVSPropertyOp46
 70
     1
102
RTVSPropertyOp47
 70
     1
102
RTVSPropertyOp48
 70
     1
102
RTVSPropertyOp49
 70
     1
102
RTVSPropertyOp50
 70
     1
102
RTVSPropertyOp51
 70
     0
102
RTVSPropertyOp52
 70
     0
102
RTVSPropertyOp53
 70
     1
102
RTVSPropertyOp54
 70
     1
102
RTVSPropertyOp55
 70
     1
102
RTVSPropertyOp56
 70
     1
102
RTVSPropertyOp57
 70
     1
102
RTVSPropertyOp58
 70
     1
102
RTVSPropertyOp59
 70
     1
102
RTVSPropertyOp60
 70
     1
102
RTVSPropertyOp61
 70
     1
102
RTVSPropertyOp62
 70
     1
  0
XRECORD
  5
AD0
102
{ACAD_REACTORS
330
ACF
102
}
330
ACF
100
AcDbXrecord
280
     1
102
RTVSPost2010Prop28
280
     0
102
RTVSPost2010PropOp28
 70
     1
102
RTVSPost2010Prop29
280
     1
102
RTVSPost2010PropOp29
 70
     1
102
RTVSPost2010Prop30
280
     1
102
RTVSPost2010PropOp30
 70
     1
102
RTVSPost2010Prop31
280
     0
102
RTVSPost2010PropOp31
 70
     1
102
RTVSPost2010Prop32
280
     0
102
RTVSPost2010PropOp32
 70
     1
102
RTVSPost2010Prop33
280
     0
102
RTVSPost2010PropOp33
 70
     1
102
RTVSPost2010Prop34
280
     0
102
RTVSPost2010PropOp34
 70
     1
102
RTVSPost2010Prop35
280
     0
102
RTVSPost2010PropOp35
 70
     1
102
RTVSPost2010Prop36
280
     0
102
RTVSPost2010PropOp36
 70
     1
102
RTVSPost2010Prop37
 90
       50
102
RTVSPost2010PropOp37
 70
     1
102
RTVSPost2010Prop38
140
0.0
102
RTVSPost2010PropOp38
 70
     1
102
RTVSPost2010Prop39
140
1.0
102
RTVSPost2010PropOp39
 70
     1
102
RTVSPost2010Prop40
 90
        0
102
RTVSPost2010PropOp40
 70
     1
102
RTVSPost2010Prop41ColorIndex
 90
       18
102
RTVSPost2010Prop41ColorRGB
 90
        0
102
RTVSPost2010PropOp41
 70
     1
102
RTVSPost2010Prop42
 90
       50
102
RTVSPost2010PropOp42
 70
     1
102
RTVSPost2010Prop43
 90
        3
102
RTVSPost2010PropOp43
 70
     1
102
RTVSPost2010Prop44ColorIndex
 90
        5
102
RTVSPost2010Prop44ColorRGB
 90
      255
102
RTVSPost2010PropOp44
 70
     1
102
RTVSPost2010Prop45
280
     0
102
RTVSPost2010PropOp45
 70
     1
102
RTVSPost2010Prop46
 90
       50
102
RTVSPost2010PropOp46
 70
     1
102
RTVSPost2010Prop47
 90
       50
102
RTVSPost2010PropOp47
 70
     1
102
RTVSPost2010Prop48
 90
       50
102
RTVSPost2010PropOp48
 70
     1
102
RTVSPost2010Prop49
280
     0
102
RTVSPost2010PropOp49
 70
     1
102
RTVSPost2010Prop50
 90
       50
102
RTVSPost2010PropOp50
 70
     1
102
RTVSPost2010Prop51ColorIndex
 90
      256
102
RTVSPost2010Prop51ColorRGB
 90
-16777216
102
RTVSPost2010PropOp51
 70
     0
102
RTVSPost2010Prop52
140
1.0
102
RTVSPost2010PropOp52
 70
     0
102
RTVSPost2010Prop53
 90
        2
102
RTVSPost2010PropOp53
 70
     1
102
RTVSPost2010Prop54
  1
strokes_ogs.tif
102
RTVSPost2010PropOp54
 70
     1
102
RTVSPost2010Prop55
280
     0
102
RTVSPost2010PropOp55
 70
     1
102
RTVSPost2010Prop56
140
1.0
102
RTVSPost2010PropOp56
 70
     1
102
RTVSPost2010Prop57
140
1.0
102
RTVSPost2010PropOp57
 70
     1
102
RTVSPropertyOp0
 70
     1
102
RTVSPropertyOp1
 70
     1
102
RTVSPropertyOp2
 70
     1
102
RTVSPropertyOp3
 70
     1
102
RTVSPropertyOp4
 70
     1
102
RTVSPropertyOp5
 70
     1
102
RTVSPropertyOp6
 70
     1
102
RTVSPropertyOp7
 70
     1
102
RTVSPropertyOp8
 70
     1
102
RTVSPropertyOp9
 70
     1
102
RTVSPropertyOp10
 70
     1
102
RTVSPropertyOp11
 70
     1
102
RTVSPropertyOp12
 70
     1
102
RTVSPropertyOp13
 70
     1
102
RTVSPropertyOp14
 70
     1
102
RTVSPropertyOp15
 70
     1
102
RTVSPropertyOp16
 70
     1
102
RTVSPropertyOp17
 70
     1
102
RTVSPropertyOp18
 70
     1
102
RTVSPropertyOp19
 70
     1
102
RTVSPropertyOp20
 70
     1
102
RTVSPropertyOp21
 70
     1
102
RTVSPropertyOp22
 70
     1
102
RTVSPropertyOp23
 70
     1
102
RTVSPropertyOp24
 70
     1
102
RTVSPropertyOp25
 70
     1
102
RTVSPropertyOp26
 70
     1
102
RTVSPropertyOp27
 70
     1
102
RTVSPropertyOp28
 70
     1
102
RTVSPropertyOp29
 70
     1
102
RTVSPropertyOp30
 70
     1
102
RTVSPropertyOp31
 70
     1
102
RTVSPropertyOp32
 70
     1
102
RTVSPropertyOp33
 70
     1
102
RTVSPropertyOp34
 70
     1
102
RTVSPropertyOp35
 70
     1
102
RTVSPropertyOp36
 70
     1
102
RTVSPropertyOp37
 70
     1
102
RTVSPropertyOp38
 70
     1
102
RTVSPropertyOp39
 70
     1
102
RTVSPropertyOp40
 70
     1
102
RTVSPropertyOp41
 70
     1
102
RTVSPropertyOp42
 70
     1
102
RTVSPropertyOp43
 70
     1
102
RTVSPropertyOp44
 70
     1
102
RTVSPropertyOp45
 70
     1
102
RTVSPropertyOp46
 70
     1
102
RTVSPropertyOp47
 70
     1
102
RTVSPropertyOp48
 70
     1
102
RTVSPropertyOp49
 70
     1
102
RTVSPropertyOp50
 70
     1
102
RTVSPropertyOp51
 70
     0
102
RTVSPropertyOp52
 70
     0
102
RTVSPropertyOp53
 70
     1
102
RTVSPropertyOp54
 70
     1
102
RTVSPropertyOp55
 70
     1
102
RTVSPropertyOp56
 70
     1
102
RTVSPropertyOp57
 70
     1
102
RTVSPropertyOp58
 70
     1
102
RTVSPropertyOp59
 70
     1
102
RTVSPropertyOp60
 70
     1
102
RTVSPropertyOp61
 70
     1
102
RTVSPropertyOp62
 70
     1
  0
XRECORD
  5
AD2
102
{ACAD_REACTORS
330
AD1
102
}
330
AD1
100
AcDbXrecord
280
     1
102
RTVSPost2010Prop28
280
     0
102
RTVSPost2010PropOp28
 70
     1
102
RTVSPost2010Prop29
280
     1
102
RTVSPost2010PropOp29
 70
     1
102
RTVSPost2010Prop30
280
     1
102
RTVSPost2010PropOp30
 70
     1
102
RTVSPost2010Prop31
280
     0
102
RTVSPost2010PropOp31
 70
     1
102
RTVSPost2010Prop32
280
     0
102
RTVSPost2010PropOp32
 70
     1
102
RTVSPost2010Prop33
280
     0
102
RTVSPost2010PropOp33
 70
     1
102
RTVSPost2010Prop34
280
     0
102
RTVSPost2010PropOp34
 70
     1
102
RTVSPost2010Prop35
280
     0
102
RTVSPost2010PropOp35
 70
     1
102
RTVSPost2010Prop36
280
     0
102
RTVSPost2010PropOp36
 70
     1
102
RTVSPost2010Prop37
 90
       50
102
RTVSPost2010PropOp37
 70
     1
102
RTVSPost2010Prop38
140
0.0
102
RTVSPost2010PropOp38
 70
     1
102
RTVSPost2010Prop39
140
1.0
102
RTVSPost2010PropOp39
 70
     1
102
RTVSPost2010Prop40
 90
        0
102
RTVSPost2010PropOp40
 70
     1
102
RTVSPost2010Prop41ColorIndex
 90
       18
102
RTVSPost2010Prop41ColorRGB
 90
        0
102
RTVSPost2010PropOp41
 70
     1
102
RTVSPost2010Prop42
 90
       50
102
RTVSPost2010PropOp42
 70
     1
102
RTVSPost2010Prop43
 90
        3
102
RTVSPost2010PropOp43
 70
     1
102
RTVSPost2010Prop44ColorIndex
 90
        5
102
RTVSPost2010Prop44ColorRGB
 90
      255
102
RTVSPost2010PropOp44
 70
     1
102
RTVSPost2010Prop45
280
     0
102
RTVSPost2010PropOp45
 70
     1
102
RTVSPost2010Prop46
 90
       50
102
RTVSPost2010PropOp46
 70
     1
102
RTVSPost2010Prop47
 90
       50
102
RTVSPost2010PropOp47
 70
     1
102
RTVSPost2010Prop48
 90
       50
102
RTVSPost2010PropOp48
 70
     1
102
RTVSPost2010Prop49
280
     0
102
RTVSPost2010PropOp49
 70
     1
102
RTVSPost2010Prop50
 90
       50
102
RTVSPost2010PropOp50
 70
     1
102
RTVSPost2010Prop51ColorIndex
 90
      256
102
RTVSPost2010Prop51ColorRGB
 90
-16777216
102
RTVSPost2010PropOp51
 70
     0
102
RTVSPost2010Prop52
140
1.0
102
RTVSPost2010PropOp52
 70
     0
102
RTVSPost2010Prop53
 90
        2
102
RTVSPost2010PropOp53
 70
     1
102
RTVSPost2010Prop54
  1
strokes_ogs.tif
102
RTVSPost2010PropOp54
 70
     1
102
RTVSPost2010Prop55
280
     0
102
RTVSPost2010PropOp55
 70
     1
102
RTVSPost2010Prop56
140
1.0
102
RTVSPost2010PropOp56
 70
     1
102
RTVSPost2010Prop57
140
1.0
102
RTVSPost2010PropOp57
 70
     1
102
RTVSPropertyOp0
 70
     1
102
RTVSPropertyOp1
 70
     1
102
RTVSPropertyOp2
 70
     1
102
RTVSPropertyOp3
 70
     1
102
RTVSPropertyOp4
 70
     1
102
RTVSPropertyOp5
 70
     1
102
RTVSPropertyOp6
 70
     1
102
RTVSPropertyOp7
 70
     1
102
RTVSPropertyOp8
 70
     1
102
RTVSPropertyOp9
 70
     1
102
RTVSPropertyOp10
 70
     1
102
RTVSPropertyOp11
 70
     1
102
RTVSPropertyOp12
 70
     1
102
RTVSPropertyOp13
 70
     1
102
RTVSPropertyOp14
 70
     1
102
RTVSPropertyOp15
 70
     1
102
RTVSPropertyOp16
 70
     1
102
RTVSPropertyOp17
 70
     1
102
RTVSPropertyOp18
 70
     1
102
RTVSPropertyOp19
 70
     1
102
RTVSPropertyOp20
 70
     1
102
RTVSPropertyOp21
 70
     1
102
RTVSPropertyOp22
 70
     1
102
RTVSPropertyOp23
 70
     1
102
RTVSPropertyOp24
 70
     1
102
RTVSPropertyOp25
 70
     1
102
RTVSPropertyOp26
 70
     1
102
RTVSPropertyOp27
 70
     1
102
RTVSPropertyOp28
 70
     1
102
RTVSPropertyOp29
 70
     1
102
RTVSPropertyOp30
 70
     1
102
RTVSPropertyOp31
 70
     1
102
RTVSPropertyOp32
 70
     1
102
RTVSPropertyOp33
 70
     1
102
RTVSPropertyOp34
 70
     1
102
RTVSPropertyOp35
 70
     1
102
RTVSPropertyOp36
 70
     1
102
RTVSPropertyOp37
 70
     1
102
RTVSPropertyOp38
 70
     1
102
RTVSPropertyOp39
 70
     1
102
RTVSPropertyOp40
 70
     1
102
RTVSPropertyOp41
 70
     1
102
RTVSPropertyOp42
 70
     1
102
RTVSPropertyOp43
 70
     1
102
RTVSPropertyOp44
 70
     1
102
RTVSPropertyOp45
 70
     1
102
RTVSPropertyOp46
 70
     1
102
RTVSPropertyOp47
 70
     1
102
RTVSPropertyOp48
 70
     1
102
RTVSPropertyOp49
 70
     1
102
RTVSPropertyOp50
 70
     1
102
RTVSPropertyOp51
 70
     0
102
RTVSPropertyOp52
 70
     0
102
RTVSPropertyOp53
 70
     1
102
RTVSPropertyOp54
 70
     1
102
RTVSPropertyOp55
 70
     1
102
RTVSPropertyOp56
 70
     1
102
RTVSPropertyOp57
 70
     1
102
RTVSPropertyOp58
 70
     1
102
RTVSPropertyOp59
 70
     1
102
RTVSPropertyOp60
 70
     1
102
RTVSPropertyOp61
 70
     1
102
RTVSPropertyOp62
 70
     1
  0
XRECORD
  5
AD4
102
{ACAD_REACTORS
330
AD3
102
}
330
AD3
100
AcDbXrecord
280
     1
102
RTVSPost2010Prop28
280
     0
102
RTVSPost2010PropOp28
 70
     1
102
RTVSPost2010Prop29
280
     1
102
RTVSPost2010PropOp29
 70
     1
102
RTVSPost2010Prop30
280
     1
102
RTVSPost2010PropOp30
 70
     1
102
RTVSPost2010Prop31
280
     0
102
RTVSPost2010PropOp31
 70
     1
102
RTVSPost2010Prop32
280
     0
102
RTVSPost2010PropOp32
 70
     1
102
RTVSPost2010Prop33
280
     0
102
RTVSPost2010PropOp33
 70
     1
102
RTVSPost2010Prop34
280
     0
102
RTVSPost2010PropOp34
 70
     1
102
RTVSPost2010Prop35
280
     0
102
RTVSPost2010PropOp35
 70
     1
102
RTVSPost2010Prop36
280
     0
102
RTVSPost2010PropOp36
 70
     1
102
RTVSPost2010Prop37
 90
       50
102
RTVSPost2010PropOp37
 70
     1
102
RTVSPost2010Prop38
140
0.0
102
RTVSPost2010PropOp38
 70
     1
102
RTVSPost2010Prop39
140
1.0
102
RTVSPost2010PropOp39
 70
     1
102
RTVSPost2010Prop40
 90
        0
102
RTVSPost2010PropOp40
 70
     1
102
RTVSPost2010Prop41ColorIndex
 90
       18
102
RTVSPost2010Prop41ColorRGB
 90
        0
102
RTVSPost2010PropOp41
 70
     1
102
RTVSPost2010Prop42
 90
       50
102
RTVSPost2010PropOp42
 70
     1
102
RTVSPost2010Prop43
 90
        3
102
RTVSPost2010PropOp43
 70
     1
102
RTVSPost2010Prop44ColorIndex
 90
        5
102
RTVSPost2010Prop44ColorRGB
 90
      255
102
RTVSPost2010PropOp44
 70
     1
102
RTVSPost2010Prop45
280
     0
102
RTVSPost2010PropOp45
 70
     1
102
RTVSPost2010Prop46
 90
       50
102
RTVSPost2010PropOp46
 70
     1
102
RTVSPost2010Prop47
 90
       50
102
RTVSPost2010PropOp47
 70
     1
102
RTVSPost2010Prop48
 90
       50
102
RTVSPost2010PropOp48
 70
     1
102
RTVSPost2010Prop49
280
     0
102
RTVSPost2010PropOp49
 70
     1
102
RTVSPost2010Prop50
 90
       50
102
RTVSPost2010PropOp50
 70
     1
102
RTVSPost2010Prop51ColorIndex
 90
      256
102
RTVSPost2010Prop51ColorRGB
 90
-16777216
102
RTVSPost2010PropOp51
 70
     0
102
RTVSPost2010Prop52
140
1.0
102
RTVSPost2010PropOp52
 70
     0
102
RTVSPost2010Prop53
 90
        2
102
RTVSPost2010PropOp53
 70
     1
102
RTVSPost2010Prop54
  1
strokes_ogs.tif
102
RTVSPost2010PropOp54
 70
     1
102
RTVSPost2010Prop55
280
     0
102
RTVSPost2010PropOp55
 70
     1
102
RTVSPost2010Prop56
140
1.0
102
RTVSPost2010PropOp56
 70
     1
102
RTVSPost2010Prop57
140
1.0
102
RTVSPost2010PropOp57
 70
     1
102
RTVSPropertyOp0
 70
     1
102
RTVSPropertyOp1
 70
     1
102
RTVSPropertyOp2
 70
     1
102
RTVSPropertyOp3
 70
     1
102
RTVSPropertyOp4
 70
     1
102
RTVSPropertyOp5
 70
     1
102
RTVSPropertyOp6
 70
     1
102
RTVSPropertyOp7
 70
     1
102
RTVSPropertyOp8
 70
     1
102
RTVSPropertyOp9
 70
     1
102
RTVSPropertyOp10
 70
     1
102
RTVSPropertyOp11
 70
     1
102
RTVSPropertyOp12
 70
     1
102
RTVSPropertyOp13
 70
     1
102
RTVSPropertyOp14
 70
     1
102
RTVSPropertyOp15
 70
     1
102
RTVSPropertyOp16
 70
     1
102
RTVSPropertyOp17
 70
     1
102
RTVSPropertyOp18
 70
     1
102
RTVSPropertyOp19
 70
     1
102
RTVSPropertyOp20
 70
     1
102
RTVSPropertyOp21
 70
     1
102
RTVSPropertyOp22
 70
     1
102
RTVSPropertyOp23
 70
     1
102
RTVSPropertyOp24
 70
     1
102
RTVSPropertyOp25
 70
     1
102
RTVSPropertyOp26
 70
     1
102
RTVSPropertyOp27
 70
     1
102
RTVSPropertyOp28
 70
     1
102
RTVSPropertyOp29
 70
     1
102
RTVSPropertyOp30
 70
     1
102
RTVSPropertyOp31
 70
     1
102
RTVSPropertyOp32
 70
     1
102
RTVSPropertyOp33
 70
     1
102
RTVSPropertyOp34
 70
     1
102
RTVSPropertyOp35
 70
     1
102
RTVSPropertyOp36
 70
     1
102
RTVSPropertyOp37
 70
     1
102
RTVSPropertyOp38
 70
     1
102
RTVSPropertyOp39
 70
     1
102
RTVSPropertyOp40
 70
     1
102
RTVSPropertyOp41
 70
     1
102
RTVSPropertyOp42
 70
     1
102
RTVSPropertyOp43
 70
     1
102
RTVSPropertyOp44
 70
     1
102
RTVSPropertyOp45
 70
     1
102
RTVSPropertyOp46
 70
     1
102
RTVSPropertyOp47
 70
     1
102
RTVSPropertyOp48
 70
     1
102
RTVSPropertyOp49
 70
     1
102
RTVSPropertyOp50
 70
     1
102
RTVSPropertyOp51
 70
     0
102
RTVSPropertyOp52
 70
     0
102
RTVSPropertyOp53
 70
     1
102
RTVSPropertyOp54
 70
     1
102
RTVSPropertyOp55
 70
     1
102
RTVSPropertyOp56
 70
     1
102
RTVSPropertyOp57
 70
     1
102
RTVSPropertyOp58
 70
     1
102
RTVSPropertyOp59
 70
     1
102
RTVSPropertyOp60
 70
     1
102
RTVSPropertyOp61
 70
     1
102
RTVSPropertyOp62
 70
     1
  0
XRECORD
  5
ADA
102
{ACAD_REACTORS
330
AD9
102
}
330
AD9
100
AcDbXrecord
280
     1
102
RTVSPost2010Prop28
280
     0
102
RTVSPost2010PropOp28
 70
     1
102
RTVSPost2010Prop29
280
     1
102
RTVSPost2010PropOp29
 70
     1
102
RTVSPost2010Prop30
280
     1
102
RTVSPost2010PropOp30
 70
     1
102
RTVSPost2010Prop31
280
     0
102
RTVSPost2010PropOp31
 70
     1
102
RTVSPost2010Prop32
280
     0
102
RTVSPost2010PropOp32
 70
     1
102
RTVSPost2010Prop33
280
     0
102
RTVSPost2010PropOp33
 70
     1
102
RTVSPost2010Prop34
280
     0
102
RTVSPost2010PropOp34
 70
     1
102
RTVSPost2010Prop35
280
     0
102
RTVSPost2010PropOp35
 70
     1
102
RTVSPost2010Prop36
280
     0
102
RTVSPost2010PropOp36
 70
     1
102
RTVSPost2010Prop37
 90
       50
102
RTVSPost2010PropOp37
 70
     1
102
RTVSPost2010Prop38
140
0.0
102
RTVSPost2010PropOp38
 70
     1
102
RTVSPost2010Prop39
140
1.0
102
RTVSPost2010PropOp39
 70
     1
102
RTVSPost2010Prop40
 90
        0
102
RTVSPost2010PropOp40
 70
     1
102
RTVSPost2010Prop41ColorIndex
 90
       18
102
RTVSPost2010Prop41ColorRGB
 90
        0
102
RTVSPost2010PropOp41
 70
     1
102
RTVSPost2010Prop42
 90
       50
102
RTVSPost2010PropOp42
 70
     1
102
RTVSPost2010Prop43
 90
        3
102
RTVSPost2010PropOp43
 70
     1
102
RTVSPost2010Prop44ColorIndex
 90
        5
102
RTVSPost2010Prop44ColorRGB
 90
      255
102
RTVSPost2010PropOp44
 70
     1
102
RTVSPost2010Prop45
280
     0
102
RTVSPost2010PropOp45
 70
     1
102
RTVSPost2010Prop46
 90
       50
102
RTVSPost2010PropOp46
 70
     1
102
RTVSPost2010Prop47
 90
       50
102
RTVSPost2010PropOp47
 70
     1
102
RTVSPost2010Prop48
 90
       50
102
RTVSPost2010PropOp48
 70
     1
102
RTVSPost2010Prop49
280
     0
102
RTVSPost2010PropOp49
 70
     1
102
RTVSPost2010Prop50
 90
       50
102
RTVSPost2010PropOp50
 70
     1
102
RTVSPost2010Prop51ColorIndex
 90
      256
102
RTVSPost2010Prop51ColorRGB
 90
-16777216
102
RTVSPost2010PropOp51
 70
     0
102
RTVSPost2010Prop52
140
1.0
102
RTVSPost2010PropOp52
 70
     0
102
RTVSPost2010Prop53
 90
        2
102
RTVSPost2010PropOp53
 70
     1
102
RTVSPost2010Prop54
  1
strokes_ogs.tif
102
RTVSPost2010PropOp54
 70
     1
102
RTVSPost2010Prop55
280
     0
102
RTVSPost2010PropOp55
 70
     1
102
RTVSPost2010Prop56
140
1.0
102
RTVSPost2010PropOp56
 70
     1
102
RTVSPost2010Prop57
140
1.0
102
RTVSPost2010PropOp57
 70
     1
102
RTVSPropertyOp0
 70
     1
102
RTVSPropertyOp1
 70
     1
102
RTVSPropertyOp2
 70
     1
102
RTVSPropertyOp3
 70
     1
102
RTVSPropertyOp4
 70
     1
102
RTVSPropertyOp5
 70
     1
102
RTVSPropertyOp6
 70
     1
102
RTVSPropertyOp7
 70
     1
102
RTVSPropertyOp8
 70
     1
102
RTVSPropertyOp9
 70
     1
102
RTVSPropertyOp10
 70
     1
102
RTVSPropertyOp11
 70
     1
102
RTVSPropertyOp12
 70
     1
102
RTVSPropertyOp13
 70
     1
102
RTVSPropertyOp14
 70
     1
102
RTVSPropertyOp15
 70
     1
102
RTVSPropertyOp16
 70
     1
102
RTVSPropertyOp17
 70
     1
102
RTVSPropertyOp18
 70
     1
102
RTVSPropertyOp19
 70
     1
102
RTVSPropertyOp20
 70
     1
102
RTVSPropertyOp21
 70
     1
102
RTVSPropertyOp22
 70
     1
102
RTVSPropertyOp23
 70
     1
102
RTVSPropertyOp24
 70
     1
102
RTVSPropertyOp25
 70
     1
102
RTVSPropertyOp26
 70
     1
102
RTVSPropertyOp27
 70
     1
102
RTVSPropertyOp28
 70
     1
102
RTVSPropertyOp29
 70
     1
102
RTVSPropertyOp30
 70
     1
102
RTVSPropertyOp31
 70
     1
102
RTVSPropertyOp32
 70
     1
102
RTVSPropertyOp33
 70
     1
102
RTVSPropertyOp34
 70
     1
102
RTVSPropertyOp35
 70
     1
102
RTVSPropertyOp36
 70
     1
102
RTVSPropertyOp37
 70
     1
102
RTVSPropertyOp38
 70
     1
102
RTVSPropertyOp39
 70
     1
102
RTVSPropertyOp40
 70
     1
102
RTVSPropertyOp41
 70
     1
102
RTVSPropertyOp42
 70
     1
102
RTVSPropertyOp43
 70
     1
102
RTVSPropertyOp44
 70
     1
102
RTVSPropertyOp45
 70
     1
102
RTVSPropertyOp46
 70
     1
102
RTVSPropertyOp47
 70
     1
102
RTVSPropertyOp48
 70
     1
102
RTVSPropertyOp49
 70
     1
102
RTVSPropertyOp50
 70
     1
102
RTVSPropertyOp51
 70
     0
102
RTVSPropertyOp52
 70
     0
102
RTVSPropertyOp53
 70
     1
102
RTVSPropertyOp54
 70
     1
102
RTVSPropertyOp55
 70
     1
102
RTVSPropertyOp56
 70
     1
102
RTVSPropertyOp57
 70
     1
102
RTVSPropertyOp58
 70
     1
102
RTVSPropertyOp59
 70
     1
102
RTVSPropertyOp60
 70
     1
102
RTVSPropertyOp61
 70
     1
102
RTVSPropertyOp62
 70
     1
  0
XRECORD
  5
AEE
102
{ACAD_REACTORS
330
AED
102
}
330
AED
100
AcDbXrecord
280
     1
102
RTVSPost2010Prop28
280
     0
102
RTVSPost2010PropOp28
 70
     0
102
RTVSPost2010Prop29
280
     1
102
RTVSPost2010PropOp29
 70
     0
102
RTVSPost2010Prop30
280
     1
102
RTVSPost2010PropOp30
 70
     0
102
RTVSPost2010Prop31
280
     0
102
RTVSPost2010PropOp31
 70
     0
102
RTVSPost2010Prop32
280
     0
102
RTVSPost2010PropOp32
 70
     0
102
RTVSPost2010Prop33
280
     0
102
RTVSPost2010PropOp33
 70
     0
102
RTVSPost2010Prop34
280
     0
102
RTVSPost2010PropOp34
 70
     0
102
RTVSPost2010Prop35
280
     0
102
RTVSPost2010PropOp35
 70
     0
102
RTVSPost2010Prop36
280
     0
102
RTVSPost2010PropOp36
 70
     0
102
RTVSPost2010Prop37
 90
       50
102
RTVSPost2010PropOp37
 70
     0
102
RTVSPost2010Prop38
140
0.0
102
RTVSPost2010PropOp38
 70
     0
102
RTVSPost2010Prop39
140
1.0
102
RTVSPost2010PropOp39
 70
     0
102
RTVSPost2010Prop40
 90
        0
102
RTVSPost2010PropOp40
 70
     0
102
RTVSPost2010Prop41ColorIndex
 90
       18
102
RTVSPost2010Prop41ColorRGB
 90
        0
102
RTVSPost2010PropOp41
 70
     0
102
RTVSPost2010Prop42
 90
       50
102
RTVSPost2010PropOp42
 70
     0
102
RTVSPost2010Prop43
 90
        3
102
RTVSPost2010PropOp43
 70
     0
102
RTVSPost2010Prop44ColorIndex
 90
        5
102
RTVSPost2010Prop44ColorRGB
 90
      255
102
RTVSPost2010PropOp44
 70
     0
102
RTVSPost2010Prop45
280
     0
102
RTVSPost2010PropOp45
 70
     0
102
RTVSPost2010Prop46
 90
       50
102
RTVSPost2010PropOp46
 70
     0
102
RTVSPost2010Prop47
 90
       50
102
RTVSPost2010PropOp47
 70
     0
102
RTVSPost2010Prop48
 90
       50
102
RTVSPost2010PropOp48
 70
     0
102
RTVSPost2010Prop49
280
     0
102
RTVSPost2010PropOp49
 70
     0
102
RTVSPost2010Prop50
 90
       50
102
RTVSPost2010PropOp50
 70
     0
102
RTVSPost2010Prop51ColorIndex
 90
      256
102
RTVSPost2010Prop51ColorRGB
 90
-16777216
102
RTVSPost2010PropOp51
 70
     0
102
RTVSPost2010Prop52
140
1.0
102
RTVSPost2010PropOp52
 70
     0
102
RTVSPost2010Prop53
 90
        2
102
RTVSPost2010PropOp53
 70
     0
102
RTVSPost2010Prop54
  1
strokes_ogs.tif
102
RTVSPost2010PropOp54
 70
     0
102
RTVSPost2010Prop55
280
     0
102
RTVSPost2010PropOp55
 70
     0
102
RTVSPost2010Prop56
140
1.0
102
RTVSPost2010PropOp56
 70
     0
102
RTVSPost2010Prop57
140
1.0
102
RTVSPost2010PropOp57
 70
     0
102
RTVSPropertyOp0
 70
     0
102
RTVSPropertyOp1
 70
     0
102
RTVSPropertyOp2
 70
     0
102
RTVSPropertyOp3
 70
     0
102
RTVSPropertyOp4
 70
     0
102
RTVSPropertyOp5
 70
     0
102
RTVSPropertyOp6
 70
     0
102
RTVSPropertyOp7
 70
     0
102
RTVSPropertyOp8
 70
     0
102
RTVSPropertyOp9
 70
     0
102
RTVSPropertyOp10
 70
     0
102
RTVSPropertyOp11
 70
     0
102
RTVSPropertyOp12
 70
     0
102
RTVSPropertyOp13
 70
     0
102
RTVSPropertyOp14
 70
     2
102
RTVSPropertyOp15
 70
     0
102
RTVSPropertyOp16
 70
     0
102
RTVSPropertyOp17
 70
     0
102
RTVSPropertyOp18
 70
     0
102
RTVSPropertyOp19
 70
     0
102
RTVSPropertyOp20
 70
     0
102
RTVSPropertyOp21
 70
     0
102
RTVSPropertyOp22
 70
     0
102
RTVSPropertyOp23
 70
     0
102
RTVSPropertyOp24
 70
     0
102
RTVSPropertyOp25
 70
     0
102
RTVSPropertyOp26
 70
     0
102
RTVSPropertyOp27
 70
     0
102
RTVSPropertyOp28
 70
     0
102
RTVSPropertyOp29
 70
     0
102
RTVSPropertyOp30
 70
     0
102
RTVSPropertyOp31
 70
     0
102
RTVSPropertyOp32
 70
     0
102
RTVSPropertyOp33
 70
     0
102
RTVSPropertyOp34
 70
     0
102
RTVSPropertyOp35
 70
     0
102
RTVSPropertyOp36
 70
     0
102
RTVSPropertyOp37
 70
     0
102
RTVSPropertyOp38
 70
     0
102
RTVSPropertyOp39
 70
     0
102
RTVSPropertyOp40
 70
     0
102
RTVSPropertyOp41
 70
     0
102
RTVSPropertyOp42
 70
     0
102
RTVSPropertyOp43
 70
     0
102
RTVSPropertyOp44
 70
     0
102
RTVSPropertyOp45
 70
     0
102
RTVSPropertyOp46
 70
     0
102
RTVSPropertyOp47
 70
     0
102
RTVSPropertyOp48
 70
     0
102
RTVSPropertyOp49
 70
     0
102
RTVSPropertyOp50
 70
     0
102
RTVSPropertyOp51
 70
     0
102
RTVSPropertyOp52
 70
     0
102
RTVSPropertyOp53
 70
     0
102
RTVSPropertyOp54
 70
     0
102
RTVSPropertyOp55
 70
     0
102
RTVSPropertyOp56
 70
     0
102
RTVSPropertyOp57
 70
     0
102
RTVSPropertyOp58
 70
     1
102
RTVSPropertyOp59
 70
     1
102
RTVSPropertyOp60
 70
     1
102
RTVSPropertyOp61
 70
     1
102
RTVSPropertyOp62
 70
     1
  0
XRECORD
  5
AE8
102
{ACAD_REACTORS
330
AE7
102
}
330
AE7
100
AcDbXrecord
280
     1
102
RTVSPost2010Prop28
280
     0
102
RTVSPost2010PropOp28
 70
     1
102
RTVSPost2010Prop29
280
     1
102
RTVSPost2010PropOp29
 70
     1
102
RTVSPost2010Prop30
280
     1
102
RTVSPost2010PropOp30
 70
     1
102
RTVSPost2010Prop31
280
     0
102
RTVSPost2010PropOp31
 70
     1
102
RTVSPost2010Prop32
280
     0
102
RTVSPost2010PropOp32
 70
     1
102
RTVSPost2010Prop33
280
     0
102
RTVSPost2010PropOp33
 70
     1
102
RTVSPost2010Prop34
280
     0
102
RTVSPost2010PropOp34
 70
     1
102
RTVSPost2010Prop35
280
     0
102
RTVSPost2010PropOp35
 70
     1
102
RTVSPost2010Prop36
280
     0
102
RTVSPost2010PropOp36
 70
     1
102
RTVSPost2010Prop37
 90
       50
102
RTVSPost2010PropOp37
 70
     1
102
RTVSPost2010Prop38
140
0.0
102
RTVSPost2010PropOp38
 70
     1
102
RTVSPost2010Prop39
140
1.0
102
RTVSPost2010PropOp39
 70
     1
102
RTVSPost2010Prop40
 90
        0
102
RTVSPost2010PropOp40
 70
     1
102
RTVSPost2010Prop41ColorIndex
 90
       18
102
RTVSPost2010Prop41ColorRGB
 90
        0
102
RTVSPost2010PropOp41
 70
     1
102
RTVSPost2010Prop42
 90
       50
102
RTVSPost2010PropOp42
 70
     1
102
RTVSPost2010Prop43
 90
        3
102
RTVSPost2010PropOp43
 70
     1
102
RTVSPost2010Prop44ColorIndex
 90
        5
102
RTVSPost2010Prop44ColorRGB
 90
      255
102
RTVSPost2010PropOp44
 70
     1
102
RTVSPost2010Prop45
280
     0
102
RTVSPost2010PropOp45
 70
     1
102
RTVSPost2010Prop46
 90
       50
102
RTVSPost2010PropOp46
 70
     1
102
RTVSPost2010Prop47
 90
       50
102
RTVSPost2010PropOp47
 70
     1
102
RTVSPost2010Prop48
 90
       50
102
RTVSPost2010PropOp48
 70
     1
102
RTVSPost2010Prop49
280
     0
102
RTVSPost2010PropOp49
 70
     1
102
RTVSPost2010Prop50
 90
       50
102
RTVSPost2010PropOp50
 70
     1
102
RTVSPost2010Prop51ColorIndex
 90
      256
102
RTVSPost2010Prop51ColorRGB
 90
-16777216
102
RTVSPost2010PropOp51
 70
     0
102
RTVSPost2010Prop52
140
1.0
102
RTVSPost2010PropOp52
 70
     0
102
RTVSPost2010Prop53
 90
        2
102
RTVSPost2010PropOp53
 70
     1
102
RTVSPost2010Prop54
  1
strokes_ogs.tif
102
RTVSPost2010PropOp54
 70
     1
102
RTVSPost2010Prop55
280
     0
102
RTVSPost2010PropOp55
 70
     1
102
RTVSPost2010Prop56
140
1.0
102
RTVSPost2010PropOp56
 70
     1
102
RTVSPost2010Prop57
140
1.0
102
RTVSPost2010PropOp57
 70
     1
102
RTVSPropertyOp0
 70
     1
102
RTVSPropertyOp1
 70
     1
102
RTVSPropertyOp2
 70
     1
102
RTVSPropertyOp3
 70
     1
102
RTVSPropertyOp4
 70
     1
102
RTVSPropertyOp5
 70
     1
102
RTVSPropertyOp6
 70
     1
102
RTVSPropertyOp7
 70
     1
102
RTVSPropertyOp8
 70
     1
102
RTVSPropertyOp9
 70
     1
102
RTVSPropertyOp10
 70
     1
102
RTVSPropertyOp11
 70
     1
102
RTVSPropertyOp12
 70
     1
102
RTVSPropertyOp13
 70
     1
102
RTVSPropertyOp14
 70
     1
102
RTVSPropertyOp15
 70
     1
102
RTVSPropertyOp16
 70
     1
102
RTVSPropertyOp17
 70
     1
102
RTVSPropertyOp18
 70
     1
102
RTVSPropertyOp19
 70
     1
102
RTVSPropertyOp20
 70
     1
102
RTVSPropertyOp21
 70
     1
102
RTVSPropertyOp22
 70
     1
102
RTVSPropertyOp23
 70
     1
102
RTVSPropertyOp24
 70
     1
102
RTVSPropertyOp25
 70
     1
102
RTVSPropertyOp26
 70
     1
102
RTVSPropertyOp27
 70
     1
102
RTVSPropertyOp28
 70
     1
102
RTVSPropertyOp29
 70
     1
102
RTVSPropertyOp30
 70
     1
102
RTVSPropertyOp31
 70
     1
102
RTVSPropertyOp32
 70
     1
102
RTVSPropertyOp33
 70
     1
102
RTVSPropertyOp34
 70
     1
102
RTVSPropertyOp35
 70
     1
102
RTVSPropertyOp36
 70
     1
102
RTVSPropertyOp37
 70
     1
102
RTVSPropertyOp38
 70
     1
102
RTVSPropertyOp39
 70
     1
102
RTVSPropertyOp40
 70
     1
102
RTVSPropertyOp41
 70
     1
102
RTVSPropertyOp42
 70
     1
102
RTVSPropertyOp43
 70
     1
102
RTVSPropertyOp44
 70
     1
102
RTVSPropertyOp45
 70
     1
102
RTVSPropertyOp46
 70
     1
102
RTVSPropertyOp47
 70
     1
102
RTVSPropertyOp48
 70
     1
102
RTVSPropertyOp49
 70
     1
102
RTVSPropertyOp50
 70
     1
102
RTVSPropertyOp51
 70
     0
102
RTVSPropertyOp52
 70
     0
102
RTVSPropertyOp53
 70
     1
102
RTVSPropertyOp54
 70
     1
102
RTVSPropertyOp55
 70
     1
102
RTVSPropertyOp56
 70
     1
102
RTVSPropertyOp57
 70
     1
102
RTVSPropertyOp58
 70
     1
102
RTVSPropertyOp59
 70
     1
102
RTVSPropertyOp60
 70
     1
102
RTVSPropertyOp61
 70
     1
102
RTVSPropertyOp62
 70
     1
  0
XRECORD
  5
AF0
102
{ACAD_REACTORS
330
AEF
102
}
330
AEF
100
AcDbXrecord
280
     1
102
RTVSPost2010Prop28
280
     0
102
RTVSPost2010PropOp28
 70
     0
102
RTVSPost2010Prop29
280
     1
102
RTVSPost2010PropOp29
 70
     0
102
RTVSPost2010Prop30
280
     1
102
RTVSPost2010PropOp30
 70
     0
102
RTVSPost2010Prop31
280
     0
102
RTVSPost2010PropOp31
 70
     0
102
RTVSPost2010Prop32
280
     0
102
RTVSPost2010PropOp32
 70
     0
102
RTVSPost2010Prop33
280
     0
102
RTVSPost2010PropOp33
 70
     0
102
RTVSPost2010Prop34
280
     0
102
RTVSPost2010PropOp34
 70
     0
102
RTVSPost2010Prop35
280
     0
102
RTVSPost2010PropOp35
 70
     0
102
RTVSPost2010Prop36
280
     0
102
RTVSPost2010PropOp36
 70
     0
102
RTVSPost2010Prop37
 90
       50
102
RTVSPost2010PropOp37
 70
     0
102
RTVSPost2010Prop38
140
0.0
102
RTVSPost2010PropOp38
 70
     0
102
RTVSPost2010Prop39
140
1.0
102
RTVSPost2010PropOp39
 70
     0
102
RTVSPost2010Prop40
 90
        0
102
RTVSPost2010PropOp40
 70
     0
102
RTVSPost2010Prop41ColorIndex
 90
       18
102
RTVSPost2010Prop41ColorRGB
 90
        0
102
RTVSPost2010PropOp41
 70
     0
102
RTVSPost2010Prop42
 90
       50
102
RTVSPost2010PropOp42
 70
     0
102
RTVSPost2010Prop43
 90
        3
102
RTVSPost2010PropOp43
 70
     0
102
RTVSPost2010Prop44ColorIndex
 90
        5
102
RTVSPost2010Prop44ColorRGB
 90
      255
102
RTVSPost2010PropOp44
 70
     0
102
RTVSPost2010Prop45
280
     0
102
RTVSPost2010PropOp45
 70
     0
102
RTVSPost2010Prop46
 90
       50
102
RTVSPost2010PropOp46
 70
     0
102
RTVSPost2010Prop47
 90
       50
102
RTVSPost2010PropOp47
 70
     0
102
RTVSPost2010Prop48
 90
       50
102
RTVSPost2010PropOp48
 70
     0
102
RTVSPost2010Prop49
280
     0
102
RTVSPost2010PropOp49
 70
     0
102
RTVSPost2010Prop50
 90
       50
102
RTVSPost2010PropOp50
 70
     0
102
RTVSPost2010Prop51ColorIndex
 90
      256
102
RTVSPost2010Prop51ColorRGB
 90
-16777216
102
RTVSPost2010PropOp51
 70
     0
102
RTVSPost2010Prop52
140
1.0
102
RTVSPost2010PropOp52
 70
     0
102
RTVSPost2010Prop53
 90
        2
102
RTVSPost2010PropOp53
 70
     0
102
RTVSPost2010Prop54
  1
strokes_ogs.tif
102
RTVSPost2010PropOp54
 70
     0
102
RTVSPost2010Prop55
280
     0
102
RTVSPost2010PropOp55
 70
     0
102
RTVSPost2010Prop56
140
1.0
102
RTVSPost2010PropOp56
 70
     0
102
RTVSPost2010Prop57
140
1.0
102
RTVSPost2010PropOp57
 70
     0
102
RTVSPropertyOp0
 70
     0
102
RTVSPropertyOp1
 70
     0
102
RTVSPropertyOp2
 70
     0
102
RTVSPropertyOp3
 70
     0
102
RTVSPropertyOp4
 70
     0
102
RTVSPropertyOp5
 70
     0
102
RTVSPropertyOp6
 70
     0
102
RTVSPropertyOp7
 70
     0
102
RTVSPropertyOp8
 70
     0
102
RTVSPropertyOp9
 70
     0
102
RTVSPropertyOp10
 70
     0
102
RTVSPropertyOp11
 70
     0
102
RTVSPropertyOp12
 70
     0
102
RTVSPropertyOp13
 70
     0
102
RTVSPropertyOp14
 70
     2
102
RTVSPropertyOp15
 70
     0
102
RTVSPropertyOp16
 70
     0
102
RTVSPropertyOp17
 70
     0
102
RTVSPropertyOp18
 70
     0
102
RTVSPropertyOp19
 70
     0
102
RTVSPropertyOp20
 70
     0
102
RTVSPropertyOp21
 70
     0
102
RTVSPropertyOp22
 70
     0
102
RTVSPropertyOp23
 70
     0
102
RTVSPropertyOp24
 70
     0
102
RTVSPropertyOp25
 70
     0
102
RTVSPropertyOp26
 70
     0
102
RTVSPropertyOp27
 70
     0
102
RTVSPropertyOp28
 70
     0
102
RTVSPropertyOp29
 70
     0
102
RTVSPropertyOp30
 70
     0
102
RTVSPropertyOp31
 70
     0
102
RTVSPropertyOp32
 70
     0
102
RTVSPropertyOp33
 70
     0
102
RTVSPropertyOp34
 70
     0
102
RTVSPropertyOp35
 70
     0
102
RTVSPropertyOp36
 70
     0
102
RTVSPropertyOp37
 70
     0
102
RTVSPropertyOp38
 70
     0
102
RTVSPropertyOp39
 70
     0
102
RTVSPropertyOp40
 70
     0
102
RTVSPropertyOp41
 70
     0
102
RTVSPropertyOp42
 70
     0
102
RTVSPropertyOp43
 70
     0
102
RTVSPropertyOp44
 70
     0
102
RTVSPropertyOp45
 70
     0
102
RTVSPropertyOp46
 70
     0
102
RTVSPropertyOp47
 70
     0
102
RTVSPropertyOp48
 70
     0
102
RTVSPropertyOp49
 70
     0
102
RTVSPropertyOp50
 70
     0
102
RTVSPropertyOp51
 70
     0
102
RTVSPropertyOp52
 70
     0
102
RTVSPropertyOp53
 70
     0
102
RTVSPropertyOp54
 70
     0
102
RTVSPropertyOp55
 70
     0
102
RTVSPropertyOp56
 70
     0
102
RTVSPropertyOp57
 70
     0
102
RTVSPropertyOp58
 70
     1
102
RTVSPropertyOp59
 70
     1
102
RTVSPropertyOp60
 70
     1
102
RTVSPropertyOp61
 70
     1
102
RTVSPropertyOp62
 70
     1
  0
XRECORD
  5
ADE
102
{ACAD_REACTORS
330
ADD
102
}
330
ADD
100
AcDbXrecord
280
     1
102
RTVSPost2010Prop28
280
     0
102
RTVSPost2010PropOp28
 70
     1
102
RTVSPost2010Prop29
280
     1
102
RTVSPost2010PropOp29
 70
     1
102
RTVSPost2010Prop30
280
     1
102
RTVSPost2010PropOp30
 70
     1
102
RTVSPost2010Prop31
280
     0
102
RTVSPost2010PropOp31
 70
     1
102
RTVSPost2010Prop32
280
     0
102
RTVSPost2010PropOp32
 70
     1
102
RTVSPost2010Prop33
280
     0
102
RTVSPost2010PropOp33
 70
     1
102
RTVSPost2010Prop34
280
     0
102
RTVSPost2010PropOp34
 70
     1
102
RTVSPost2010Prop35
280
     0
102
RTVSPost2010PropOp35
 70
     1
102
RTVSPost2010Prop36
280
     0
102
RTVSPost2010PropOp36
 70
     1
102
RTVSPost2010Prop37
 90
       50
102
RTVSPost2010PropOp37
 70
     1
102
RTVSPost2010Prop38
140
0.0
102
RTVSPost2010PropOp38
 70
     1
102
RTVSPost2010Prop39
140
1.0
102
RTVSPost2010PropOp39
 70
     1
102
RTVSPost2010Prop40
 90
        0
102
RTVSPost2010PropOp40
 70
     1
102
RTVSPost2010Prop41ColorIndex
 90
       18
102
RTVSPost2010Prop41ColorRGB
 90
        0
102
RTVSPost2010PropOp41
 70
     1
102
RTVSPost2010Prop42
 90
       50
102
RTVSPost2010PropOp42
 70
     1
102
RTVSPost2010Prop43
 90
        3
102
RTVSPost2010PropOp43
 70
     1
102
RTVSPost2010Prop44ColorIndex
 90
        5
102
RTVSPost2010Prop44ColorRGB
 90
      255
102
RTVSPost2010PropOp44
 70
     1
102
RTVSPost2010Prop45
280
     0
102
RTVSPost2010PropOp45
 70
     1
102
RTVSPost2010Prop46
 90
       50
102
RTVSPost2010PropOp46
 70
     1
102
RTVSPost2010Prop47
 90
       50
102
RTVSPost2010PropOp47
 70
     1
102
RTVSPost2010Prop48
 90
       50
102
RTVSPost2010PropOp48
 70
     1
102
RTVSPost2010Prop49
280
     0
102
RTVSPost2010PropOp49
 70
     1
102
RTVSPost2010Prop50
 90
       50
102
RTVSPost2010PropOp50
 70
     1
102
RTVSPost2010Prop51ColorIndex
 90
      256
102
RTVSPost2010Prop51ColorRGB
 90
-16777216
102
RTVSPost2010PropOp51
 70
     0
102
RTVSPost2010Prop52
140
1.0
102
RTVSPost2010PropOp52
 70
     0
102
RTVSPost2010Prop53
 90
        2
102
RTVSPost2010PropOp53
 70
     1
102
RTVSPost2010Prop54
  1
strokes_ogs.tif
102
RTVSPost2010PropOp54
 70
     1
102
RTVSPost2010Prop55
280
     0
102
RTVSPost2010PropOp55
 70
     1
102
RTVSPost2010Prop56
140
1.0
102
RTVSPost2010PropOp56
 70
     1
102
RTVSPost2010Prop57
140
1.0
102
RTVSPost2010PropOp57
 70
     1
102
RTVSPropertyOp0
 70
     1
102
RTVSPropertyOp1
 70
     1
102
RTVSPropertyOp2
 70
     1
102
RTVSPropertyOp3
 70
     1
102
RTVSPropertyOp4
 70
     1
102
RTVSPropertyOp5
 70
     1
102
RTVSPropertyOp6
 70
     1
102
RTVSPropertyOp7
 70
     1
102
RTVSPropertyOp8
 70
     1
102
RTVSPropertyOp9
 70
     1
102
RTVSPropertyOp10
 70
     1
102
RTVSPropertyOp11
 70
     1
102
RTVSPropertyOp12
 70
     1
102
RTVSPropertyOp13
 70
     1
102
RTVSPropertyOp14
 70
     1
102
RTVSPropertyOp15
 70
     1
102
RTVSPropertyOp16
 70
     1
102
RTVSPropertyOp17
 70
     1
102
RTVSPropertyOp18
 70
     1
102
RTVSPropertyOp19
 70
     1
102
RTVSPropertyOp20
 70
     1
102
RTVSPropertyOp21
 70
     1
102
RTVSPropertyOp22
 70
     1
102
RTVSPropertyOp23
 70
     1
102
RTVSPropertyOp24
 70
     1
102
RTVSPropertyOp25
 70
     1
102
RTVSPropertyOp26
 70
     1
102
RTVSPropertyOp27
 70
     1
102
RTVSPropertyOp28
 70
     1
102
RTVSPropertyOp29
 70
     1
102
RTVSPropertyOp30
 70
     1
102
RTVSPropertyOp31
 70
     1
102
RTVSPropertyOp32
 70
     1
102
RTVSPropertyOp33
 70
     1
102
RTVSPropertyOp34
 70
     1
102
RTVSPropertyOp35
 70
     1
102
RTVSPropertyOp36
 70
     1
102
RTVSPropertyOp37
 70
     1
102
RTVSPropertyOp38
 70
     1
102
RTVSPropertyOp39
 70
     1
102
RTVSPropertyOp40
 70
     1
102
RTVSPropertyOp41
 70
     1
102
RTVSPropertyOp42
 70
     1
102
RTVSPropertyOp43
 70
     1
102
RTVSPropertyOp44
 70
     1
102
RTVSPropertyOp45
 70
     1
102
RTVSPropertyOp46
 70
     1
102
RTVSPropertyOp47
 70
     1
102
RTVSPropertyOp48
 70
     1
102
RTVSPropertyOp49
 70
     1
102
RTVSPropertyOp50
 70
     1
102
RTVSPropertyOp51
 70
     0
102
RTVSPropertyOp52
 70
     0
102
RTVSPropertyOp53
 70
     1
102
RTVSPropertyOp54
 70
     1
102
RTVSPropertyOp55
 70
     1
102
RTVSPropertyOp56
 70
     1
102
RTVSPropertyOp57
 70
     1
102
RTVSPropertyOp58
 70
     1
102
RTVSPropertyOp59
 70
     1
102
RTVSPropertyOp60
 70
     1
102
RTVSPropertyOp61
 70
     1
102
RTVSPropertyOp62
 70
     1
  0
XRECORD
  5
AFC
102
{ACAD_REACTORS
330
AFB
102
}
330
AFB
100
AcDbXrecord
280
     1
102
RTVSPost2010Prop28
280
     0
102
RTVSPost2010PropOp28
 70
     1
102
RTVSPost2010Prop29
280
     1
102
RTVSPost2010PropOp29
 70
     1
102
RTVSPost2010Prop30
280
     1
102
RTVSPost2010PropOp30
 70
     1
102
RTVSPost2010Prop31
280
     0
102
RTVSPost2010PropOp31
 70
     1
102
RTVSPost2010Prop32
280
     0
102
RTVSPost2010PropOp32
 70
     1
102
RTVSPost2010Prop33
280
     0
102
RTVSPost2010PropOp33
 70
     1
102
RTVSPost2010Prop34
280
     0
102
RTVSPost2010PropOp34
 70
     1
102
RTVSPost2010Prop35
280
     0
102
RTVSPost2010PropOp35
 70
     1
102
RTVSPost2010Prop36
280
     0
102
RTVSPost2010PropOp36
 70
     1
102
RTVSPost2010Prop37
 90
       50
102
RTVSPost2010PropOp37
 70
     1
102
RTVSPost2010Prop38
140
0.0
102
RTVSPost2010PropOp38
 70
     1
102
RTVSPost2010Prop39
140
1.0
102
RTVSPost2010PropOp39
 70
     1
102
RTVSPost2010Prop40
 90
        0
102
RTVSPost2010PropOp40
 70
     1
102
RTVSPost2010Prop41ColorIndex
 90
       18
102
RTVSPost2010Prop41ColorRGB
 90
        0
102
RTVSPost2010PropOp41
 70
     1
102
RTVSPost2010Prop42
 90
       50
102
RTVSPost2010PropOp42
 70
     1
102
RTVSPost2010Prop43
 90
        3
102
RTVSPost2010PropOp43
 70
     1
102
RTVSPost2010Prop44ColorIndex
 90
        5
102
RTVSPost2010Prop44ColorRGB
 90
      255
102
RTVSPost2010PropOp44
 70
     1
102
RTVSPost2010Prop45
280
     0
102
RTVSPost2010PropOp45
 70
     1
102
RTVSPost2010Prop46
 90
       50
102
RTVSPost2010PropOp46
 70
     1
102
RTVSPost2010Prop47
 90
       50
102
RTVSPost2010PropOp47
 70
     1
102
RTVSPost2010Prop48
 90
       50
102
RTVSPost2010PropOp48
 70
     1
102
RTVSPost2010Prop49
280
     0
102
RTVSPost2010PropOp49
 70
     1
102
RTVSPost2010Prop50
 90
       50
102
RTVSPost2010PropOp50
 70
     1
102
RTVSPost2010Prop51ColorIndex
 90
      256
102
RTVSPost2010Prop51ColorRGB
 90
-16777216
102
RTVSPost2010PropOp51
 70
     0
102
RTVSPost2010Prop52
140
1.0
102
RTVSPost2010PropOp52
 70
     0
102
RTVSPost2010Prop53
 90
        2
102
RTVSPost2010PropOp53
 70
     1
102
RTVSPost2010Prop54
  1
strokes_ogs.tif
102
RTVSPost2010PropOp54
 70
     1
102
RTVSPost2010Prop55
280
     0
102
RTVSPost2010PropOp55
 70
     1
102
RTVSPost2010Prop56
140
1.0
102
RTVSPost2010PropOp56
 70
     1
102
RTVSPost2010Prop57
140
1.0
102
RTVSPost2010PropOp57
 70
     1
102
RTVSPropertyOp0
 70
     1
102
RTVSPropertyOp1
 70
     1
102
RTVSPropertyOp2
 70
     1
102
RTVSPropertyOp3
 70
     1
102
RTVSPropertyOp4
 70
     1
102
RTVSPropertyOp5
 70
     1
102
RTVSPropertyOp6
 70
     1
102
RTVSPropertyOp7
 70
     1
102
RTVSPropertyOp8
 70
     1
102
RTVSPropertyOp9
 70
     1
102
RTVSPropertyOp10
 70
     1
102
RTVSPropertyOp11
 70
     1
102
RTVSPropertyOp12
 70
     1
102
RTVSPropertyOp13
 70
     1
102
RTVSPropertyOp14
 70
     1
102
RTVSPropertyOp15
 70
     1
102
RTVSPropertyOp16
 70
     1
102
RTVSPropertyOp17
 70
     1
102
RTVSPropertyOp18
 70
     1
102
RTVSPropertyOp19
 70
     1
102
RTVSPropertyOp20
 70
     1
102
RTVSPropertyOp21
 70
     1
102
RTVSPropertyOp22
 70
     1
102
RTVSPropertyOp23
 70
     1
102
RTVSPropertyOp24
 70
     1
102
RTVSPropertyOp25
 70
     1
102
RTVSPropertyOp26
 70
     1
102
RTVSPropertyOp27
 70
     1
102
RTVSPropertyOp28
 70
     1
102
RTVSPropertyOp29
 70
     1
102
RTVSPropertyOp30
 70
     1
102
RTVSPropertyOp31
 70
     1
102
RTVSPropertyOp32
 70
     1
102
RTVSPropertyOp33
 70
     1
102
RTVSPropertyOp34
 70
     1
102
RTVSPropertyOp35
 70
     1
102
RTVSPropertyOp36
 70
     1
102
RTVSPropertyOp37
 70
     1
102
RTVSPropertyOp38
 70
     1
102
RTVSPropertyOp39
 70
     1
102
RTVSPropertyOp40
 70
     1
102
RTVSPropertyOp41
 70
     1
102
RTVSPropertyOp42
 70
     1
102
RTVSPropertyOp43
 70
     1
102
RTVSPropertyOp44
 70
     1
102
RTVSPropertyOp45
 70
     1
102
RTVSPropertyOp46
 70
     1
102
RTVSPropertyOp47
 70
     1
102
RTVSPropertyOp48
 70
     1
102
RTVSPropertyOp49
 70
     1
102
RTVSPropertyOp50
 70
     1
102
RTVSPropertyOp51
 70
     0
102
RTVSPropertyOp52
 70
     0
102
RTVSPropertyOp53
 70
     1
102
RTVSPropertyOp54
 70
     1
102
RTVSPropertyOp55
 70
     1
102
RTVSPropertyOp56
 70
     1
102
RTVSPropertyOp57
 70
     1
102
RTVSPropertyOp58
 70
     1
102
RTVSPropertyOp59
 70
     1
102
RTVSPropertyOp60
 70
     1
102
RTVSPropertyOp61
 70
     1
102
RTVSPropertyOp62
 70
     1
  0
XRECORD
  5
AFA
102
{ACAD_REACTORS
330
AF9
102
}
330
AF9
100
AcDbXrecord
280
     1
102
RTVSPost2010Prop28
280
     0
102
RTVSPost2010PropOp28
 70
     1
102
RTVSPost2010Prop29
280
     1
102
RTVSPost2010PropOp29
 70
     1
102
RTVSPost2010Prop30
280
     1
102
RTVSPost2010PropOp30
 70
     1
102
RTVSPost2010Prop31
280
     0
102
RTVSPost2010PropOp31
 70
     1
102
RTVSPost2010Prop32
280
     0
102
RTVSPost2010PropOp32
 70
     1
102
RTVSPost2010Prop33
280
     0
102
RTVSPost2010PropOp33
 70
     1
102
RTVSPost2010Prop34
280
     0
102
RTVSPost2010PropOp34
 70
     1
102
RTVSPost2010Prop35
280
     0
102
RTVSPost2010PropOp35
 70
     1
102
RTVSPost2010Prop36
280
     0
102
RTVSPost2010PropOp36
 70
     1
102
RTVSPost2010Prop37
 90
       50
102
RTVSPost2010PropOp37
 70
     1
102
RTVSPost2010Prop38
140
0.0
102
RTVSPost2010PropOp38
 70
     1
102
RTVSPost2010Prop39
140
1.0
102
RTVSPost2010PropOp39
 70
     1
102
RTVSPost2010Prop40
 90
        0
102
RTVSPost2010PropOp40
 70
     1
102
RTVSPost2010Prop41ColorIndex
 90
       18
102
RTVSPost2010Prop41ColorRGB
 90
        0
102
RTVSPost2010PropOp41
 70
     1
102
RTVSPost2010Prop42
 90
       50
102
RTVSPost2010PropOp42
 70
     1
102
RTVSPost2010Prop43
 90
        3
102
RTVSPost2010PropOp43
 70
     1
102
RTVSPost2010Prop44ColorIndex
 90
        5
102
RTVSPost2010Prop44ColorRGB
 90
      255
102
RTVSPost2010PropOp44
 70
     1
102
RTVSPost2010Prop45
280
     0
102
RTVSPost2010PropOp45
 70
     1
102
RTVSPost2010Prop46
 90
       50
102
RTVSPost2010PropOp46
 70
     1
102
RTVSPost2010Prop47
 90
       50
102
RTVSPost2010PropOp47
 70
     1
102
RTVSPost2010Prop48
 90
       50
102
RTVSPost2010PropOp48
 70
     1
102
RTVSPost2010Prop49
280
     0
102
RTVSPost2010PropOp49
 70
     1
102
RTVSPost2010Prop50
 90
       50
102
RTVSPost2010PropOp50
 70
     1
102
RTVSPost2010Prop51ColorIndex
 90
      256
102
RTVSPost2010Prop51ColorRGB
 90
-16777216
102
RTVSPost2010PropOp51
 70
     0
102
RTVSPost2010Prop52
140
1.0
102
RTVSPost2010PropOp52
 70
     0
102
RTVSPost2010Prop53
 90
        2
102
RTVSPost2010PropOp53
 70
     1
102
RTVSPost2010Prop54
  1
strokes_ogs.tif
102
RTVSPost2010PropOp54
 70
     1
102
RTVSPost2010Prop55
280
     0
102
RTVSPost2010PropOp55
 70
     1
102
RTVSPost2010Prop56
140
1.0
102
RTVSPost2010PropOp56
 70
     1
102
RTVSPost2010Prop57
140
1.0
102
RTVSPost2010PropOp57
 70
     1
102
RTVSPropertyOp0
 70
     1
102
RTVSPropertyOp1
 70
     1
102
RTVSPropertyOp2
 70
     1
102
RTVSPropertyOp3
 70
     1
102
RTVSPropertyOp4
 70
     1
102
RTVSPropertyOp5
 70
     1
102
RTVSPropertyOp6
 70
     1
102
RTVSPropertyOp7
 70
     1
102
RTVSPropertyOp8
 70
     1
102
RTVSPropertyOp9
 70
     1
102
RTVSPropertyOp10
 70
     1
102
RTVSPropertyOp11
 70
     1
102
RTVSPropertyOp12
 70
     1
102
RTVSPropertyOp13
 70
     1
102
RTVSPropertyOp14
 70
     1
102
RTVSPropertyOp15
 70
     1
102
RTVSPropertyOp16
 70
     1
102
RTVSPropertyOp17
 70
     1
102
RTVSPropertyOp18
 70
     1
102
RTVSPropertyOp19
 70
     1
102
RTVSPropertyOp20
 70
     1
102
RTVSPropertyOp21
 70
     1
102
RTVSPropertyOp22
 70
     1
102
RTVSPropertyOp23
 70
     1
102
RTVSPropertyOp24
 70
     1
102
RTVSPropertyOp25
 70
     1
102
RTVSPropertyOp26
 70
     1
102
RTVSPropertyOp27
 70
     1
102
RTVSPropertyOp28
 70
     1
102
RTVSPropertyOp29
 70
     1
102
RTVSPropertyOp30
 70
     1
102
RTVSPropertyOp31
 70
     1
102
RTVSPropertyOp32
 70
     1
102
RTVSPropertyOp33
 70
     1
102
RTVSPropertyOp34
 70
     1
102
RTVSPropertyOp35
 70
     1
102
RTVSPropertyOp36
 70
     1
102
RTVSPropertyOp37
 70
     1
102
RTVSPropertyOp38
 70
     1
102
RTVSPropertyOp39
 70
     1
102
RTVSPropertyOp40
 70
     1
102
RTVSPropertyOp41
 70
     1
102
RTVSPropertyOp42
 70
     1
102
RTVSPropertyOp43
 70
     1
102
RTVSPropertyOp44
 70
     1
102
RTVSPropertyOp45
 70
     1
102
RTVSPropertyOp46
 70
     1
102
RTVSPropertyOp47
 70
     1
102
RTVSPropertyOp48
 70
     1
102
RTVSPropertyOp49
 70
     1
102
RTVSPropertyOp50
 70
     1
102
RTVSPropertyOp51
 70
     0
102
RTVSPropertyOp52
 70
     0
102
RTVSPropertyOp53
 70
     1
102
RTVSPropertyOp54
 70
     1
102
RTVSPropertyOp55
 70
     1
102
RTVSPropertyOp56
 70
     1
102
RTVSPropertyOp57
 70
     1
102
RTVSPropertyOp58
 70
     1
102
RTVSPropertyOp59
 70
     1
102
RTVSPropertyOp60
 70
     1
102
RTVSPropertyOp61
 70
     1
102
RTVSPropertyOp62
 70
     1
  0
XRECORD
  5
AF4
102
{ACAD_REACTORS
330
AF3
102
}
330
AF3
100
AcDbXrecord
280
     1
102
RTVSPost2010Prop28
280
     0
102
RTVSPost2010PropOp28
 70
     1
102
RTVSPost2010Prop29
280
     1
102
RTVSPost2010PropOp29
 70
     1
102
RTVSPost2010Prop30
280
     1
102
RTVSPost2010PropOp30
 70
     1
102
RTVSPost2010Prop31
280
     0
102
RTVSPost2010PropOp31
 70
     1
102
RTVSPost2010Prop32
280
     0
102
RTVSPost2010PropOp32
 70
     1
102
RTVSPost2010Prop33
280
     0
102
RTVSPost2010PropOp33
 70
     1
102
RTVSPost2010Prop34
280
     0
102
RTVSPost2010PropOp34
 70
     1
102
RTVSPost2010Prop35
280
     0
102
RTVSPost2010PropOp35
 70
     1
102
RTVSPost2010Prop36
280
     0
102
RTVSPost2010PropOp36
 70
     1
102
RTVSPost2010Prop37
 90
       50
102
RTVSPost2010PropOp37
 70
     1
102
RTVSPost2010Prop38
140
0.0
102
RTVSPost2010PropOp38
 70
     1
102
RTVSPost2010Prop39
140
1.0
102
RTVSPost2010PropOp39
 70
     1
102
RTVSPost2010Prop40
 90
        0
102
RTVSPost2010PropOp40
 70
     1
102
RTVSPost2010Prop41ColorIndex
 90
       18
102
RTVSPost2010Prop41ColorRGB
 90
        0
102
RTVSPost2010PropOp41
 70
     1
102
RTVSPost2010Prop42
 90
       50
102
RTVSPost2010PropOp42
 70
     1
102
RTVSPost2010Prop43
 90
        3
102
RTVSPost2010PropOp43
 70
     1
102
RTVSPost2010Prop44ColorIndex
 90
        5
102
RTVSPost2010Prop44ColorRGB
 90
      255
102
RTVSPost2010PropOp44
 70
     1
102
RTVSPost2010Prop45
280
     0
102
RTVSPost2010PropOp45
 70
     1
102
RTVSPost2010Prop46
 90
       50
102
RTVSPost2010PropOp46
 70
     1
102
RTVSPost2010Prop47
 90
       50
102
RTVSPost2010PropOp47
 70
     1
102
RTVSPost2010Prop48
 90
       50
102
RTVSPost2010PropOp48
 70
     1
102
RTVSPost2010Prop49
280
     0
102
RTVSPost2010PropOp49
 70
     1
102
RTVSPost2010Prop50
 90
       50
102
RTVSPost2010PropOp50
 70
     1
102
RTVSPost2010Prop51ColorIndex
 90
      256
102
RTVSPost2010Prop51ColorRGB
 90
-16777216
102
RTVSPost2010PropOp51
 70
     0
102
RTVSPost2010Prop52
140
1.0
102
RTVSPost2010PropOp52
 70
     0
102
RTVSPost2010Prop53
 90
        2
102
RTVSPost2010PropOp53
 70
     1
102
RTVSPost2010Prop54
  1
strokes_ogs.tif
102
RTVSPost2010PropOp54
 70
     1
102
RTVSPost2010Prop55
280
     0
102
RTVSPost2010PropOp55
 70
     1
102
RTVSPost2010Prop56
140
1.0
102
RTVSPost2010PropOp56
 70
     1
102
RTVSPost2010Prop57
140
1.0
102
RTVSPost2010PropOp57
 70
     1
102
RTVSPropertyOp0
 70
     1
102
RTVSPropertyOp1
 70
     1
102
RTVSPropertyOp2
 70
     1
102
RTVSPropertyOp3
 70
     1
102
RTVSPropertyOp4
 70
     1
102
RTVSPropertyOp5
 70
     1
102
RTVSPropertyOp6
 70
     1
102
RTVSPropertyOp7
 70
     1
102
RTVSPropertyOp8
 70
     1
102
RTVSPropertyOp9
 70
     1
102
RTVSPropertyOp10
 70
     1
102
RTVSPropertyOp11
 70
     1
102
RTVSPropertyOp12
 70
     1
102
RTVSPropertyOp13
 70
     1
102
RTVSPropertyOp14
 70
     1
102
RTVSPropertyOp15
 70
     1
102
RTVSPropertyOp16
 70
     1
102
RTVSPropertyOp17
 70
     1
102
RTVSPropertyOp18
 70
     1
102
RTVSPropertyOp19
 70
     1
102
RTVSPropertyOp20
 70
     1
102
RTVSPropertyOp21
 70
     1
102
RTVSPropertyOp22
 70
     1
102
RTVSPropertyOp23
 70
     1
102
RTVSPropertyOp24
 70
     1
102
RTVSPropertyOp25
 70
     1
102
RTVSPropertyOp26
 70
     1
102
RTVSPropertyOp27
 70
     1
102
RTVSPropertyOp28
 70
     1
102
RTVSPropertyOp29
 70
     1
102
RTVSPropertyOp30
 70
     1
102
RTVSPropertyOp31
 70
     1
102
RTVSPropertyOp32
 70
     1
102
RTVSPropertyOp33
 70
     1
102
RTVSPropertyOp34
 70
     1
102
RTVSPropertyOp35
 70
     1
102
RTVSPropertyOp36
 70
     1
102
RTVSPropertyOp37
 70
     1
102
RTVSPropertyOp38
 70
     1
102
RTVSPropertyOp39
 70
     1
102
RTVSPropertyOp40
 70
     1
102
RTVSPropertyOp41
 70
     1
102
RTVSPropertyOp42
 70
     1
102
RTVSPropertyOp43
 70
     1
102
RTVSPropertyOp44
 70
     1
102
RTVSPropertyOp45
 70
     1
102
RTVSPropertyOp46
 70
     1
102
RTVSPropertyOp47
 70
     1
102
RTVSPropertyOp48
 70
     1
102
RTVSPropertyOp49
 70
     1
102
RTVSPropertyOp50
 70
     1
102
RTVSPropertyOp51
 70
     0
102
RTVSPropertyOp52
 70
     0
102
RTVSPropertyOp53
 70
     1
102
RTVSPropertyOp54
 70
     1
102
RTVSPropertyOp55
 70
     1
102
RTVSPropertyOp56
 70
     1
102
RTVSPropertyOp57
 70
     1
102
RTVSPropertyOp58
 70
     1
102
RTVSPropertyOp59
 70
     1
102
RTVSPropertyOp60
 70
     1
102
RTVSPropertyOp61
 70
     1
102
RTVSPropertyOp62
 70
     1
  0
XRECORD
  5
AF6
102
{ACAD_REACTORS
330
AF5
102
}
330
AF5
100
AcDbXrecord
280
     1
102
RTVSPost2010Prop28
280
     0
102
RTVSPost2010PropOp28
 70
     1
102
RTVSPost2010Prop29
280
     1
102
RTVSPost2010PropOp29
 70
     1
102
RTVSPost2010Prop30
280
     1
102
RTVSPost2010PropOp30
 70
     1
102
RTVSPost2010Prop31
280
     0
102
RTVSPost2010PropOp31
 70
     1
102
RTVSPost2010Prop32
280
     0
102
RTVSPost2010PropOp32
 70
     1
102
RTVSPost2010Prop33
280
     0
102
RTVSPost2010PropOp33
 70
     1
102
RTVSPost2010Prop34
280
     0
102
RTVSPost2010PropOp34
 70
     1
102
RTVSPost2010Prop35
280
     0
102
RTVSPost2010PropOp35
 70
     1
102
RTVSPost2010Prop36
280
     0
102
RTVSPost2010PropOp36
 70
     1
102
RTVSPost2010Prop37
 90
       50
102
RTVSPost2010PropOp37
 70
     1
102
RTVSPost2010Prop38
140
0.0
102
RTVSPost2010PropOp38
 70
     1
102
RTVSPost2010Prop39
140
1.0
102
RTVSPost2010PropOp39
 70
     1
102
RTVSPost2010Prop40
 90
        0
102
RTVSPost2010PropOp40
 70
     1
102
RTVSPost2010Prop41ColorIndex
 90
       18
102
RTVSPost2010Prop41ColorRGB
 90
        0
102
RTVSPost2010PropOp41
 70
     1
102
RTVSPost2010Prop42
 90
       50
102
RTVSPost2010PropOp42
 70
     1
102
RTVSPost2010Prop43
 90
        3
102
RTVSPost2010PropOp43
 70
     1
102
RTVSPost2010Prop44ColorIndex
 90
        5
102
RTVSPost2010Prop44ColorRGB
 90
      255
102
RTVSPost2010PropOp44
 70
     1
102
RTVSPost2010Prop45
280
     0
102
RTVSPost2010PropOp45
 70
     1
102
RTVSPost2010Prop46
 90
       50
102
RTVSPost2010PropOp46
 70
     1
102
RTVSPost2010Prop47
 90
       50
102
RTVSPost2010PropOp47
 70
     1
102
RTVSPost2010Prop48
 90
       50
102
RTVSPost2010PropOp48
 70
     1
102
RTVSPost2010Prop49
280
     0
102
RTVSPost2010PropOp49
 70
     1
102
RTVSPost2010Prop50
 90
       50
102
RTVSPost2010PropOp50
 70
     1
102
RTVSPost2010Prop51ColorIndex
 90
      256
102
RTVSPost2010Prop51ColorRGB
 90
-16777216
102
RTVSPost2010PropOp51
 70
     0
102
RTVSPost2010Prop52
140
1.0
102
RTVSPost2010PropOp52
 70
     0
102
RTVSPost2010Prop53
 90
        2
102
RTVSPost2010PropOp53
 70
     1
102
RTVSPost2010Prop54
  1
strokes_ogs.tif
102
RTVSPost2010PropOp54
 70
     1
102
RTVSPost2010Prop55
280
     0
102
RTVSPost2010PropOp55
 70
     1
102
RTVSPost2010Prop56
140
1.0
102
RTVSPost2010PropOp56
 70
     1
102
RTVSPost2010Prop57
140
1.0
102
RTVSPost2010PropOp57
 70
     1
102
RTVSPropertyOp0
 70
     1
102
RTVSPropertyOp1
 70
     1
102
RTVSPropertyOp2
 70
     1
102
RTVSPropertyOp3
 70
     1
102
RTVSPropertyOp4
 70
     1
102
RTVSPropertyOp5
 70
     1
102
RTVSPropertyOp6
 70
     1
102
RTVSPropertyOp7
 70
     1
102
RTVSPropertyOp8
 70
     1
102
RTVSPropertyOp9
 70
     1
102
RTVSPropertyOp10
 70
     1
102
RTVSPropertyOp11
 70
     1
102
RTVSPropertyOp12
 70
     1
102
RTVSPropertyOp13
 70
     1
102
RTVSPropertyOp14
 70
     1
102
RTVSPropertyOp15
 70
     1
102
RTVSPropertyOp16
 70
     1
102
RTVSPropertyOp17
 70
     1
102
RTVSPropertyOp18
 70
     1
102
RTVSPropertyOp19
 70
     1
102
RTVSPropertyOp20
 70
     1
102
RTVSPropertyOp21
 70
     1
102
RTVSPropertyOp22
 70
     1
102
RTVSPropertyOp23
 70
     1
102
RTVSPropertyOp24
 70
     1
102
RTVSPropertyOp25
 70
     1
102
RTVSPropertyOp26
 70
     1
102
RTVSPropertyOp27
 70
     1
102
RTVSPropertyOp28
 70
     1
102
RTVSPropertyOp29
 70
     1
102
RTVSPropertyOp30
 70
     1
102
RTVSPropertyOp31
 70
     1
102
RTVSPropertyOp32
 70
     1
102
RTVSPropertyOp33
 70
     1
102
RTVSPropertyOp34
 70
     1
102
RTVSPropertyOp35
 70
     1
102
RTVSPropertyOp36
 70
     1
102
RTVSPropertyOp37
 70
     1
102
RTVSPropertyOp38
 70
     1
102
RTVSPropertyOp39
 70
     1
102
RTVSPropertyOp40
 70
     1
102
RTVSPropertyOp41
 70
     1
102
RTVSPropertyOp42
 70
     1
102
RTVSPropertyOp43
 70
     1
102
RTVSPropertyOp44
 70
     1
102
RTVSPropertyOp45
 70
     1
102
RTVSPropertyOp46
 70
     1
102
RTVSPropertyOp47
 70
     1
102
RTVSPropertyOp48
 70
     1
102
RTVSPropertyOp49
 70
     1
102
RTVSPropertyOp50
 70
     1
102
RTVSPropertyOp51
 70
     0
102
RTVSPropertyOp52
 70
     0
102
RTVSPropertyOp53
 70
     1
102
RTVSPropertyOp54
 70
     1
102
RTVSPropertyOp55
 70
     1
102
RTVSPropertyOp56
 70
     1
102
RTVSPropertyOp57
 70
     1
102
RTVSPropertyOp58
 70
     1
102
RTVSPropertyOp59
 70
     1
102
RTVSPropertyOp60
 70
     1
102
RTVSPropertyOp61
 70
     1
102
RTVSPropertyOp62
 70
     1
  0
XRECORD
  5
AE6
102
{ACAD_REACTORS
330
AE5
102
}
330
AE5
100
AcDbXrecord
280
     1
102
RTVSPost2010Prop28
280
     0
102
RTVSPost2010PropOp28
 70
     1
102
RTVSPost2010Prop29
280
     1
102
RTVSPost2010PropOp29
 70
     1
102
RTVSPost2010Prop30
280
     1
102
RTVSPost2010PropOp30
 70
     1
102
RTVSPost2010Prop31
280
     0
102
RTVSPost2010PropOp31
 70
     1
102
RTVSPost2010Prop32
280
     0
102
RTVSPost2010PropOp32
 70
     1
102
RTVSPost2010Prop33
280
     0
102
RTVSPost2010PropOp33
 70
     1
102
RTVSPost2010Prop34
280
     0
102
RTVSPost2010PropOp34
 70
     1
102
RTVSPost2010Prop35
280
     0
102
RTVSPost2010PropOp35
 70
     1
102
RTVSPost2010Prop36
280
     0
102
RTVSPost2010PropOp36
 70
     1
102
RTVSPost2010Prop37
 90
       50
102
RTVSPost2010PropOp37
 70
     1
102
RTVSPost2010Prop38
140
0.0
102
RTVSPost2010PropOp38
 70
     1
102
RTVSPost2010Prop39
140
1.0
102
RTVSPost2010PropOp39
 70
     1
102
RTVSPost2010Prop40
 90
        0
102
RTVSPost2010PropOp40
 70
     1
102
RTVSPost2010Prop41ColorIndex
 90
       18
102
RTVSPost2010Prop41ColorRGB
 90
        0
102
RTVSPost2010PropOp41
 70
     1
102
RTVSPost2010Prop42
 90
       50
102
RTVSPost2010PropOp42
 70
     1
102
RTVSPost2010Prop43
 90
        3
102
RTVSPost2010PropOp43
 70
     1
102
RTVSPost2010Prop44ColorIndex
 90
        5
102
RTVSPost2010Prop44ColorRGB
 90
      255
102
RTVSPost2010PropOp44
 70
     1
102
RTVSPost2010Prop45
280
     0
102
RTVSPost2010PropOp45
 70
     1
102
RTVSPost2010Prop46
 90
       50
102
RTVSPost2010PropOp46
 70
     1
102
RTVSPost2010Prop47
 90
       50
102
RTVSPost2010PropOp47
 70
     1
102
RTVSPost2010Prop48
 90
       50
102
RTVSPost2010PropOp48
 70
     1
102
RTVSPost2010Prop49
280
     0
102
RTVSPost2010PropOp49
 70
     1
102
RTVSPost2010Prop50
 90
       50
102
RTVSPost2010PropOp50
 70
     1
102
RTVSPost2010Prop51ColorIndex
 90
      256
102
RTVSPost2010Prop51ColorRGB
 90
-16777216
102
RTVSPost2010PropOp51
 70
     0
102
RTVSPost2010Prop52
140
1.0
102
RTVSPost2010PropOp52
 70
     0
102
RTVSPost2010Prop53
 90
        2
102
RTVSPost2010PropOp53
 70
     1
102
RTVSPost2010Prop54
  1
strokes_ogs.tif
102
RTVSPost2010PropOp54
 70
     1
102
RTVSPost2010Prop55
280
     0
102
RTVSPost2010PropOp55
 70
     1
102
RTVSPost2010Prop56
140
1.0
102
RTVSPost2010PropOp56
 70
     1
102
RTVSPost2010Prop57
140
1.0
102
RTVSPost2010PropOp57
 70
     1
102
RTVSPropertyOp0
 70
     1
102
RTVSPropertyOp1
 70
     1
102
RTVSPropertyOp2
 70
     1
102
RTVSPropertyOp3
 70
     1
102
RTVSPropertyOp4
 70
     1
102
RTVSPropertyOp5
 70
     1
102
RTVSPropertyOp6
 70
     1
102
RTVSPropertyOp7
 70
     1
102
RTVSPropertyOp8
 70
     1
102
RTVSPropertyOp9
 70
     1
102
RTVSPropertyOp10
 70
     1
102
RTVSPropertyOp11
 70
     1
102
RTVSPropertyOp12
 70
     1
102
RTVSPropertyOp13
 70
     1
102
RTVSPropertyOp14
 70
     1
102
RTVSPropertyOp15
 70
     1
102
RTVSPropertyOp16
 70
     1
102
RTVSPropertyOp17
 70
     1
102
RTVSPropertyOp18
 70
     1
102
RTVSPropertyOp19
 70
     1
102
RTVSPropertyOp20
 70
     1
102
RTVSPropertyOp21
 70
     1
102
RTVSPropertyOp22
 70
     1
102
RTVSPropertyOp23
 70
     1
102
RTVSPropertyOp24
 70
     1
102
RTVSPropertyOp25
 70
     1
102
RTVSPropertyOp26
 70
     1
102
RTVSPropertyOp27
 70
     1
102
RTVSPropertyOp28
 70
     1
102
RTVSPropertyOp29
 70
     1
102
RTVSPropertyOp30
 70
     1
102
RTVSPropertyOp31
 70
     1
102
RTVSPropertyOp32
 70
     1
102
RTVSPropertyOp33
 70
     1
102
RTVSPropertyOp34
 70
     1
102
RTVSPropertyOp35
 70
     1
102
RTVSPropertyOp36
 70
     1
102
RTVSPropertyOp37
 70
     1
102
RTVSPropertyOp38
 70
     1
102
RTVSPropertyOp39
 70
     1
102
RTVSPropertyOp40
 70
     1
102
RTVSPropertyOp41
 70
     1
102
RTVSPropertyOp42
 70
     1
102
RTVSPropertyOp43
 70
     1
102
RTVSPropertyOp44
 70
     1
102
RTVSPropertyOp45
 70
     1
102
RTVSPropertyOp46
 70
     1
102
RTVSPropertyOp47
 70
     1
102
RTVSPropertyOp48
 70
     1
102
RTVSPropertyOp49
 70
     1
102
RTVSPropertyOp50
 70
     1
102
RTVSPropertyOp51
 70
     0
102
RTVSPropertyOp52
 70
     0
102
RTVSPropertyOp53
 70
     1
102
RTVSPropertyOp54
 70
     1
102
RTVSPropertyOp55
 70
     1
102
RTVSPropertyOp56
 70
     1
102
RTVSPropertyOp57
 70
     1
102
RTVSPropertyOp58
 70
     1
102
RTVSPropertyOp59
 70
     1
102
RTVSPropertyOp60
 70
     1
102
RTVSPropertyOp61
 70
     1
102
RTVSPropertyOp62
 70
     1
  0
XRECORD
  5
AD8
102
{ACAD_REACTORS
330
AD7
102
}
330
AD7
100
AcDbXrecord
280
     1
102
RTVSPost2010Prop28
280
     0
102
RTVSPost2010PropOp28
 70
     1
102
RTVSPost2010Prop29
280
     1
102
RTVSPost2010PropOp29
 70
     1
102
RTVSPost2010Prop30
280
     1
102
RTVSPost2010PropOp30
 70
     1
102
RTVSPost2010Prop31
280
     0
102
RTVSPost2010PropOp31
 70
     1
102
RTVSPost2010Prop32
280
     0
102
RTVSPost2010PropOp32
 70
     1
102
RTVSPost2010Prop33
280
     0
102
RTVSPost2010PropOp33
 70
     1
102
RTVSPost2010Prop34
280
     0
102
RTVSPost2010PropOp34
 70
     1
102
RTVSPost2010Prop35
280
     0
102
RTVSPost2010PropOp35
 70
     1
102
RTVSPost2010Prop36
280
     0
102
RTVSPost2010PropOp36
 70
     1
102
RTVSPost2010Prop37
 90
       50
102
RTVSPost2010PropOp37
 70
     1
102
RTVSPost2010Prop38
140
0.0
102
RTVSPost2010PropOp38
 70
     1
102
RTVSPost2010Prop39
140
1.0
102
RTVSPost2010PropOp39
 70
     1
102
RTVSPost2010Prop40
 90
        0
102
RTVSPost2010PropOp40
 70
     1
102
RTVSPost2010Prop41ColorIndex
 90
       18
102
RTVSPost2010Prop41ColorRGB
 90
        0
102
RTVSPost2010PropOp41
 70
     1
102
RTVSPost2010Prop42
 90
       50
102
RTVSPost2010PropOp42
 70
     1
102
RTVSPost2010Prop43
 90
        3
102
RTVSPost2010PropOp43
 70
     1
102
RTVSPost2010Prop44ColorIndex
 90
        5
102
RTVSPost2010Prop44ColorRGB
 90
      255
102
RTVSPost2010PropOp44
 70
     1
102
RTVSPost2010Prop45
280
     0
102
RTVSPost2010PropOp45
 70
     1
102
RTVSPost2010Prop46
 90
       50
102
RTVSPost2010PropOp46
 70
     1
102
RTVSPost2010Prop47
 90
       50
102
RTVSPost2010PropOp47
 70
     1
102
RTVSPost2010Prop48
 90
       50
102
RTVSPost2010PropOp48
 70
     1
102
RTVSPost2010Prop49
280
     0
102
RTVSPost2010PropOp49
 70
     1
102
RTVSPost2010Prop50
 90
       50
102
RTVSPost2010PropOp50
 70
     1
102
RTVSPost2010Prop51ColorIndex
 90
      256
102
RTVSPost2010Prop51ColorRGB
 90
-16777216
102
RTVSPost2010PropOp51
 70
     0
102
RTVSPost2010Prop52
140
1.0
102
RTVSPost2010PropOp52
 70
     0
102
RTVSPost2010Prop53
 90
        2
102
RTVSPost2010PropOp53
 70
     1
102
RTVSPost2010Prop54
  1
strokes_ogs.tif
102
RTVSPost2010PropOp54
 70
     1
102
RTVSPost2010Prop55
280
     0
102
RTVSPost2010PropOp55
 70
     1
102
RTVSPost2010Prop56
140
1.0
102
RTVSPost2010PropOp56
 70
     1
102
RTVSPost2010Prop57
140
1.0
102
RTVSPost2010PropOp57
 70
     1
102
RTVSPropertyOp0
 70
     1
102
RTVSPropertyOp1
 70
     1
102
RTVSPropertyOp2
 70
     1
102
RTVSPropertyOp3
 70
     1
102
RTVSPropertyOp4
 70
     1
102
RTVSPropertyOp5
 70
     1
102
RTVSPropertyOp6
 70
     1
102
RTVSPropertyOp7
 70
     1
102
RTVSPropertyOp8
 70
     1
102
RTVSPropertyOp9
 70
     1
102
RTVSPropertyOp10
 70
     1
102
RTVSPropertyOp11
 70
     1
102
RTVSPropertyOp12
 70
     1
102
RTVSPropertyOp13
 70
     1
102
RTVSPropertyOp14
 70
     1
102
RTVSPropertyOp15
 70
     1
102
RTVSPropertyOp16
 70
     1
102
RTVSPropertyOp17
 70
     1
102
RTVSPropertyOp18
 70
     1
102
RTVSPropertyOp19
 70
     1
102
RTVSPropertyOp20
 70
     1
102
RTVSPropertyOp21
 70
     1
102
RTVSPropertyOp22
 70
     1
102
RTVSPropertyOp23
 70
     1
102
RTVSPropertyOp24
 70
     1
102
RTVSPropertyOp25
 70
     1
102
RTVSPropertyOp26
 70
     1
102
RTVSPropertyOp27
 70
     1
102
RTVSPropertyOp28
 70
     1
102
RTVSPropertyOp29
 70
     1
102
RTVSPropertyOp30
 70
     1
102
RTVSPropertyOp31
 70
     1
102
RTVSPropertyOp32
 70
     1
102
RTVSPropertyOp33
 70
     1
102
RTVSPropertyOp34
 70
     1
102
RTVSPropertyOp35
 70
     1
102
RTVSPropertyOp36
 70
     1
102
RTVSPropertyOp37
 70
     1
102
RTVSPropertyOp38
 70
     1
102
RTVSPropertyOp39
 70
     1
102
RTVSPropertyOp40
 70
     1
102
RTVSPropertyOp41
 70
     1
102
RTVSPropertyOp42
 70
     1
102
RTVSPropertyOp43
 70
     1
102
RTVSPropertyOp44
 70
     1
102
RTVSPropertyOp45
 70
     1
102
RTVSPropertyOp46
 70
     1
102
RTVSPropertyOp47
 70
     1
102
RTVSPropertyOp48
 70
     1
102
RTVSPropertyOp49
 70
     1
102
RTVSPropertyOp50
 70
     1
102
RTVSPropertyOp51
 70
     0
102
RTVSPropertyOp52
 70
     0
102
RTVSPropertyOp53
 70
     1
102
RTVSPropertyOp54
 70
     1
102
RTVSPropertyOp55
 70
     1
102
RTVSPropertyOp56
 70
     1
102
RTVSPropertyOp57
 70
     1
102
RTVSPropertyOp58
 70
     1
102
RTVSPropertyOp59
 70
     1
102
RTVSPropertyOp60
 70
     1
102
RTVSPropertyOp61
 70
     1
102
RTVSPropertyOp62
 70
     1
  0
XRECORD
  5
AF8
102
{ACAD_REACTORS
330
AF7
102
}
330
AF7
100
AcDbXrecord
280
     1
102
RTVSPost2010Prop28
280
     0
102
RTVSPost2010PropOp28
 70
     1
102
RTVSPost2010Prop29
280
     1
102
RTVSPost2010PropOp29
 70
     1
102
RTVSPost2010Prop30
280
     1
102
RTVSPost2010PropOp30
 70
     1
102
RTVSPost2010Prop31
280
     0
102
RTVSPost2010PropOp31
 70
     1
102
RTVSPost2010Prop32
280
     0
102
RTVSPost2010PropOp32
 70
     1
102
RTVSPost2010Prop33
280
     0
102
RTVSPost2010PropOp33
 70
     1
102
RTVSPost2010Prop34
280
     0
102
RTVSPost2010PropOp34
 70
     1
102
RTVSPost2010Prop35
280
     0
102
RTVSPost2010PropOp35
 70
     1
102
RTVSPost2010Prop36
280
     0
102
RTVSPost2010PropOp36
 70
     1
102
RTVSPost2010Prop37
 90
       50
102
RTVSPost2010PropOp37
 70
     1
102
RTVSPost2010Prop38
140
0.0
102
RTVSPost2010PropOp38
 70
     1
102
RTVSPost2010Prop39
140
1.0
102
RTVSPost2010PropOp39
 70
     1
102
RTVSPost2010Prop40
 90
        0
102
RTVSPost2010PropOp40
 70
     1
102
RTVSPost2010Prop41ColorIndex
 90
       18
102
RTVSPost2010Prop41ColorRGB
 90
        0
102
RTVSPost2010PropOp41
 70
     1
102
RTVSPost2010Prop42
 90
       50
102
RTVSPost2010PropOp42
 70
     1
102
RTVSPost2010Prop43
 90
        3
102
RTVSPost2010PropOp43
 70
     1
102
RTVSPost2010Prop44ColorIndex
 90
        5
102
RTVSPost2010Prop44ColorRGB
 90
      255
102
RTVSPost2010PropOp44
 70
     1
102
RTVSPost2010Prop45
280
     0
102
RTVSPost2010PropOp45
 70
     1
102
RTVSPost2010Prop46
 90
       50
102
RTVSPost2010PropOp46
 70
     1
102
RTVSPost2010Prop47
 90
       50
102
RTVSPost2010PropOp47
 70
     1
102
RTVSPost2010Prop48
 90
       50
102
RTVSPost2010PropOp48
 70
     1
102
RTVSPost2010Prop49
280
     0
102
RTVSPost2010PropOp49
 70
     1
102
RTVSPost2010Prop50
 90
       50
102
RTVSPost2010PropOp50
 70
     1
102
RTVSPost2010Prop51ColorIndex
 90
      256
102
RTVSPost2010Prop51ColorRGB
 90
-16777216
102
RTVSPost2010PropOp51
 70
     0
102
RTVSPost2010Prop52
140
1.0
102
RTVSPost2010PropOp52
 70
     0
102
RTVSPost2010Prop53
 90
        2
102
RTVSPost2010PropOp53
 70
     1
102
RTVSPost2010Prop54
  1
strokes_ogs.tif
102
RTVSPost2010PropOp54
 70
     1
102
RTVSPost2010Prop55
280
     0
102
RTVSPost2010PropOp55
 70
     1
102
RTVSPost2010Prop56
140
1.0
102
RTVSPost2010PropOp56
 70
     1
102
RTVSPost2010Prop57
140
1.0
102
RTVSPost2010PropOp57
 70
     1
102
RTVSPropertyOp0
 70
     1
102
RTVSPropertyOp1
 70
     1
102
RTVSPropertyOp2
 70
     1
102
RTVSPropertyOp3
 70
     1
102
RTVSPropertyOp4
 70
     1
102
RTVSPropertyOp5
 70
     1
102
RTVSPropertyOp6
 70
     1
102
RTVSPropertyOp7
 70
     1
102
RTVSPropertyOp8
 70
     1
102
RTVSPropertyOp9
 70
     1
102
RTVSPropertyOp10
 70
     1
102
RTVSPropertyOp11
 70
     1
102
RTVSPropertyOp12
 70
     1
102
RTVSPropertyOp13
 70
     1
102
RTVSPropertyOp14
 70
     1
102
RTVSPropertyOp15
 70
     1
102
RTVSPropertyOp16
 70
     1
102
RTVSPropertyOp17
 70
     1
102
RTVSPropertyOp18
 70
     1
102
RTVSPropertyOp19
 70
     1
102
RTVSPropertyOp20
 70
     1
102
RTVSPropertyOp21
 70
     1
102
RTVSPropertyOp22
 70
     1
102
RTVSPropertyOp23
 70
     1
102
RTVSPropertyOp24
 70
     1
102
RTVSPropertyOp25
 70
     1
102
RTVSPropertyOp26
 70
     1
102
RTVSPropertyOp27
 70
     1
102
RTVSPropertyOp28
 70
     1
102
RTVSPropertyOp29
 70
     1
102
RTVSPropertyOp30
 70
     1
102
RTVSPropertyOp31
 70
     1
102
RTVSPropertyOp32
 70
     1
102
RTVSPropertyOp33
 70
     1
102
RTVSPropertyOp34
 70
     1
102
RTVSPropertyOp35
 70
     1
102
RTVSPropertyOp36
 70
     1
102
RTVSPropertyOp37
 70
     1
102
RTVSPropertyOp38
 70
     1
102
RTVSPropertyOp39
 70
     1
102
RTVSPropertyOp40
 70
     1
102
RTVSPropertyOp41
 70
     1
102
RTVSPropertyOp42
 70
     1
102
RTVSPropertyOp43
 70
     1
102
RTVSPropertyOp44
 70
     1
102
RTVSPropertyOp45
 70
     1
102
RTVSPropertyOp46
 70
     1
102
RTVSPropertyOp47
 70
     1
102
RTVSPropertyOp48
 70
     1
102
RTVSPropertyOp49
 70
     1
102
RTVSPropertyOp50
 70
     1
102
RTVSPropertyOp51
 70
     0
102
RTVSPropertyOp52
 70
     0
102
RTVSPropertyOp53
 70
     1
102
RTVSPropertyOp54
 70
     1
102
RTVSPropertyOp55
 70
     1
102
RTVSPropertyOp56
 70
     1
102
RTVSPropertyOp57
 70
     1
102
RTVSPropertyOp58
 70
     1
102
RTVSPropertyOp59
 70
     1
102
RTVSPropertyOp60
 70
     1
102
RTVSPropertyOp61
 70
     1
102
RTVSPropertyOp62
 70
     1
  0
ENDSEC
  0
EOF
