  0
SECTION
  2
HEADER
  9
$ACADVER
  1
AC1015
  9
$ACADMAINTVER
 70
    20
  9
$DWGCODEPAGE
  3
ANSI_1250
  9
$INSBASE
 10
0.0
 20
0.0
 30
0.0
  9
$EXTMIN
 10
15.3547816898984
 20
11.55999368240154
 30
-0.0000000000000001
  9
$EXTMAX
 10
168.2269666898984
 20
76.40984675155505
 30
0.0000000000000001
  9
$LIMMIN
 10
-0.5
 20
-0.5
  9
$LIMMAX
 10
5.0
 20
5.0
  9
$ORTHOMODE
 70
     1
  9
$REGENMODE
 70
     1
  9
$FILLMODE
 70
     1
  9
$QTEXTMODE
 70
     0
  9
$MIRRTEXT
 70
     1
  9
$LTSCALE
 40
1.0
  9
$ATTMODE
 70
     1
  9
$TEXTSIZE
 40
0.2
  9
$TRACEWID
 40
0.05
  9
$TEXTSTYLE
  7
Standard
  9
$CLAYER
  8
0
  9
$CELTYPE
  6
ByLayer
  9
$CECOLOR
 62
   256
  9
$CELTSCALE
 40
1.0
  9
$DISPSILH
 70
     0
  9
$DIMSCALE
 40
1.0
  9
$DIMASZ
 40
0.18
  9
$DIMEXO
 40
0.0625
  9
$DIMDLI
 40
0.38
  9
$DIMRND
 40
0.0
  9
$DIMDLE
 40
0.0
  9
$DIMEXE
 40
0.18
  9
$DIMTP
 40
0.0
  9
$DIMTM
 40
0.0
  9
$DIMTXT
 40
0.18
  9
$DIMCEN
 40
0.09
  9
$DIMTSZ
 40
0.0
  9
$DIMTOL
 70
     0
  9
$DIMLIM
 70
     0
  9
$DIMTIH
 70
     1
  9
$DIMTOH
 70
     1
  9
$DIMSE1
 70
     0
  9
$DIMSE2
 70
     0
  9
$DIMTAD
 70
     0
  9
$DIMZIN
 70
     0
  9
$DIMBLK
  1

  9
$DIMASO
 70
     1
  9
$DIMSHO
 70
     1
  9
$DIMPOST
  1

  9
$DIMAPOST
  1

  9
$DIMALT
 70
     0
  9
$DIMALTD
 70
     2
  9
$DIMALTF
 40
25.4
  9
$DIMLFAC
 40
1.0
  9
$DIMTOFL
 70
     0
  9
$DIMTVP
 40
0.0
  9
$DIMTIX
 70
     0
  9
$DIMSOXD
 70
     0
  9
$DIMSAH
 70
     0
  9
$DIMBLK1
  1

  9
$DIMBLK2
  1

  9
$DIMSTYLE
  2
Standard
  9
$DIMCLRD
 70
     0
  9
$DIMCLRE
 70
     0
  9
$DIMCLRT
 70
     0
  9
$DIMTFAC
 40
1.0
  9
$DIMGAP
 40
0.09
  9
$DIMJUST
 70
     0
  9
$DIMSD1
 70
     0
  9
$DIMSD2
 70
     0
  9
$DIMTOLJ
 70
     1
  9
$DIMTZIN
 70
     0
  9
$DIMALTZ
 70
     0
  9
$DIMALTTZ
 70
     0
  9
$DIMUPT
 70
     0
  9
$DIMDEC
 70
     4
  9
$DIMTDEC
 70
     4
  9
$DIMALTU
 70
     2
  9
$DIMALTTD
 70
     2
  9
$DIMTXSTY
  7
Standard
  9
$DIMAUNIT
 70
     0
  9
$DIMADEC
 70
     0
  9
$DIMALTRND
 40
0.0
  9
$DIMAZIN
 70
     0
  9
$DIMDSEP
 70
    46
  9
$DIMATFIT
 70
     3
  9
$DIMFRAC
 70
     0
  9
$DIMLDRBLK
  1

  9
$DIMLUNIT
 70
     2
  9
$DIMLWD
 70
    -2
  9
$DIMLWE
 70
    -2
  9
$DIMTMOVE
 70
     0
  9
$LUNITS
 70
     2
  9
$LUPREC
 70
     4
  9
$SKETCHINC
 40
0.1
  9
$FILLETRAD
 40
0.5
  9
$AUNITS
 70
     0
  9
$AUPREC
 70
     0
  9
$MENU
  1
.
  9
$ELEVATION
 40
0.0
  9
$PELEVATION
 40
0.0
  9
$THICKNESS
 40
0.0
  9
$LIMCHECK
 70
     0
  9
$CHAMFERA
 40
0.0
  9
$CHAMFERB
 40
0.0
  9
$CHAMFERC
 40
0.0
  9
$CHAMFERD
 40
0.0
  9
$SKPOLY
 70
     0
  9
$TDCREATE
 40
2459324.567442130
  9
$TDUCREATE
 40
2459324.484119931
  9
$TDUPDATE
 40
2459324.572638889
  9
$TDUUPDATE
 40
2459324.489305556
  9
$TDINDWG
 40
0.0048842708
  9
$TDUSRTIMER
 40
0.0048842708
  9
$USRTIMER
 70
     1
  9
$ANGBASE
 50
0.0
  9
$ANGDIR
 70
     0
  9
$PDMODE
 70
     0
  9
$PDSIZE
 40
0.0
  9
$PLINEWID
 40
0.0
  9
$SPLFRAME
 70
     0
  9
$SPLINETYPE
 70
     6
  9
$SPLINESEGS
 70
     8
  9
$HANDSEED
  5
61C
  9
$SURFTAB1
 70
     6
  9
$SURFTAB2
 70
     6
  9
$SURFTYPE
 70
     6
  9
$SURFU
 70
     6
  9
$SURFV
 70
     6
  9
$UCSBASE
  2

  9
$UCSNAME
  2

  9
$UCSORG
 10
0.0
 20
0.0
 30
0.0
  9
$UCSXDIR
 10
1.0
 20
0.0
 30
0.0
  9
$UCSYDIR
 10
0.0
 20
1.0
 30
0.0
  9
$UCSORTHOREF
  2

  9
$UCSORTHOVIEW
 70
     0
  9
$UCSORGTOP
 10
0.0
 20
0.0
 30
0.0
  9
$UCSORGBOTTOM
 10
0.0
 20
0.0
 30
0.0
  9
$UCSORGLEFT
 10
0.0
 20
0.0
 30
0.0
  9
$UCSORGRIGHT
 10
0.0
 20
0.0
 30
0.0
  9
$UCSORGFRONT
 10
0.0
 20
0.0
 30
0.0
  9
$UCSORGBACK
 10
0.0
 20
0.0
 30
0.0
  9
$PUCSBASE
  2

  9
$PUCSNAME
  2

  9
$PUCSORG
 10
0.0
 20
0.0
 30
0.0
  9
$PUCSXDIR
 10
1.0
 20
0.0
 30
0.0
  9
$PUCSYDIR
 10
0.0
 20
1.0
 30
0.0
  9
$PUCSORTHOREF
  2

  9
$PUCSORTHOVIEW
 70
     0
  9
$PUCSORGTOP
 10
0.0
 20
0.0
 30
0.0
  9
$PUCSORGBOTTOM
 10
0.0
 20
0.0
 30
0.0
  9
$PUCSORGLEFT
 10
0.0
 20
0.0
 30
0.0
  9
$PUCSORGRIGHT
 10
0.0
 20
0.0
 30
0.0
  9
$PUCSORGFRONT
 10
0.0
 20
0.0
 30
0.0
  9
$PUCSORGBACK
 10
0.0
 20
0.0
 30
0.0
  9
$USERI1
 70
     0
  9
$USERI2
 70
     0
  9
$USERI3
 70
     0
  9
$USERI4
 70
     0
  9
$USERI5
 70
     0
  9
$USERR1
 40
0.0
  9
$USERR2
 40
0.0
  9
$USERR3
 40
0.0
  9
$USERR4
 40
0.0
  9
$USERR5
 40
0.0
  9
$WORLDVIEW
 70
     1
  9
$SHADEDGE
 70
     3
  9
$SHADEDIF
 70
    70
  9
$TILEMODE
 70
     1
  9
$MAXACTVP
 70
    64
  9
$PINSBASE
 10
0.0
 20
0.0
 30
0.0
  9
$PLIMCHECK
 70
     0
  9
$PEXTMIN
 10
-0.5
 20
-0.5
 30
-0.5
  9
$PEXTMAX
 10
5.0
 20
5.0
 30
5.0
  9
$PLIMMIN
 10
-0.5
 20
-0.5
  9
$PLIMMAX
 10
5.0
 20
5.0
  9
$UNITMODE
 70
     0
  9
$VISRETAIN
 70
     1
  9
$PLINEGEN
 70
     0
  9
$PSLTSCALE
 70
     1
  9
$TREEDEPTH
 70
  3020
  9
$CMLSTYLE
  2
Standard
  9
$CMLJUST
 70
     0
  9
$CMLSCALE
 40
1.0
  9
$PROXYGRAPHICS
 70
     1
  9
$MEASUREMENT
 70
     1
  9
$CELWEIGHT
370
    13
  9
$ENDCAPS
280
     0
  9
$JOINSTYLE
280
     0
  9
$LWDISPLAY
290
     0
  9
$INSUNITS
 70
     4
  9
$HYPERLINKBASE
  1

  9
$STYLESHEET
  1

  9
$XEDIT
290
     1
  9
$CEPSNTYPE
380
     0
  9
$PSTYLEMODE
290
     1
  9
$FINGERPRINTGUID
  2
{35A6171F-C8F5-486B-8844-B52B9EFCF284}
  9
$VERSIONGUID
  2
{6BF5D2BF-E2CF-4848-AA6E-7A66ABBD62B5}
  9
$EXTNAMES
290
     1
  9
$PSVPSCALE
 40
0.0
  9
$OLESTARTUP
290
     0
  0
ENDSEC
  0
SECTION
  2
CLASSES
  0
CLASS
  1
ACDBDICTIONARYWDFLT
  2
AcDbDictionaryWithDefault
  3
ObjectDBX Classes
 90
        0
280
     0
281
     0
  0
CLASS
  1
VISUALSTYLE
  2
AcDbVisualStyle
  3
ObjectDBX Classes
 90
     4095
280
     0
281
     0
  0
CLASS
  1
MATERIAL
  2
AcDbMaterial
  3
ObjectDBX Classes
 90
     1153
280
     0
281
     0
  0
CLASS
  1
SCALE
  2
AcDbScale
  3
ObjectDBX Classes
 90
     1153
280
     0
281
     0
  0
CLASS
  1
TABLESTYLE
  2
AcDbTableStyle
  3
ObjectDBX Classes
 90
     4095
280
     0
281
     0
  0
CLASS
  1
MLEADERSTYLE
  2
AcDbMLeaderStyle
  3
ACDB_MLEADERSTYLE_CLASS
 90
     4095
280
     0
281
     0
  0
CLASS
  1
SUN
  2
AcDbSun
  3
SCENEOE
 90
    33921
280
     0
281
     0
  0
CLASS
  1
DIMASSOC
  2
AcDbDimAssoc
  3
"AcDbDimAssoc|Product Desc:     AcDim ARX App For Dimension|Company:          Autodesk, Inc.|WEB Address:      www.autodesk.com"
 90
        0
280
     0
281
     0
  0
CLASS
  1
DICTIONARYVAR
  2
AcDbDictionaryVar
  3
ObjectDBX Classes
 90
        0
280
     0
281
     0
  0
CLASS
  1
CELLSTYLEMAP
  2
AcDbCellStyleMap
  3
ObjectDBX Classes
 90
     1152
280
     0
281
     0
  0
CLASS
  1
ACDBSECTIONVIEWSTYLE
  2
AcDbSectionViewStyle
  3
ObjectDBX Classes
 90
     1025
280
     0
281
     0
  0
CLASS
  1
ACDBDETAILVIEWSTYLE
  2
AcDbDetailViewStyle
  3
ObjectDBX Classes
 90
     1025
280
     0
281
     0
  0
CLASS
  1
SORTENTSTABLE
  2
AcDbSortentsTable
  3
ObjectDBX Classes
 90
        0
280
     0
281
     0
  0
CLASS
  1
ACDBPLACEHOLDER
  2
AcDbPlaceHolder
  3
ObjectDBX Classes
 90
        0
280
     0
281
     0
  0
CLASS
  1
LAYOUT
  2
AcDbLayout
  3
ObjectDBX Classes
 90
        0
280
     0
281
     0
  0
ENDSEC
  0
SECTION
  2
TABLES
  0
TABLE
  2
VPORT
  5
8
330
0
100
AcDbSymbolTable
 70
    16
  0
VPORT
  5
29
330
8
100
AcDbSymbolTableRecord
100
AcDbViewportTableRecord
  2
*Active
 70
     0
 10
0.0
 20
0.0
 11
1.0
 21
1.0
 12
289.9721115847509
 22
16.23546829332008
 13
0.0
 23
0.0
 14
0.5
 24
0.5
 15
0.5
 25
0.5
 16
0.0
 26
0.0
 36
1.0
 17
0.0
 27
0.0
 37
0.0
 40
948.347151732791
 41
2.283154121863799
 42
50.0
 43
788.88564
 44
-788.88564
 50
0.0
 51
0.0
 71
     0
 72
   100
 73
     1
 74
     3
 75
     0
 76
     0
 77
     0
 78
     0
281
     0
 65
     1
110
0.0
120
0.0
130
0.0
111
1.0
121
0.0
131
0.0
112
0.0
122
1.0
132
0.0
 79
     0
146
0.0
1001
ACAD_NAV_VCDISPLAY
1070
     3
  0
VPORT
  5
39A
330
8
100
AcDbSymbolTableRecord
100
AcDbViewportTableRecord
  2
L1
 70
     0
 10
0.0
 20
0.0
 11
1.0
 21
1.0
 12
210.0
 22
148.401476
 13
0.0
 23
0.0
 14
0.5
 24
0.5
 15
0.5
 25
0.5
 16
0.0
 26
0.0
 36
1.0
 17
0.0
 27
0.0
 37
0.0
 40
219.339583
 41
0.080956
 42
50.0
 43
788.88564
 44
-788.88564
 50
0.0
 51
0.0
 71
     0
 72
   100
 73
     1
 74
     3
 75
     0
 76
     0
 77
     0
 78
     0
281
     0
 65
     1
110
0.0
120
0.0
130
0.0
111
1.0
121
0.0
131
0.0
112
0.0
122
1.0
132
0.0
 79
     0
146
0.0
  0
VPORT
  5
39B
330
8
100
AcDbSymbolTableRecord
100
AcDbViewportTableRecord
  2
L2
 70
     0
 10
0.0
 20
0.0
 11
0.5
 21
1.0
 12
0.0
 22
0.0
 13
0.0
 23
0.0
 14
0.5
 24
0.5
 15
0.5
 25
0.5
 16
0.0
 26
-1.0
 36
0.0
 17
0.0
 27
0.0
 37
0.0
 40
1561.030612
 41
0.011375
 42
50.0
 43
807.984261
 44
-807.984261
 50
0.0
 51
0.0
 71
     0
 72
   100
 73
     1
 74
     3
 75
     0
 76
     0
 77
     0
 78
     0
281
     0
 65
     1
110
0.0
120
0.0
130
0.0
111
1.0
121
0.0
131
0.0
112
0.0
122
1.0
132
0.0
 79
     0
146
0.0
  0
VPORT
  5
39C
330
8
100
AcDbSymbolTableRecord
100
AcDbViewportTableRecord
  2
L2
 70
     0
 10
0.5
 20
0.0
 11
1.0
 21
1.0
 12
0.0
 22
0.0
 13
0.0
 23
0.0
 14
0.5
 24
0.5
 15
0.5
 25
0.5
 16
1.0
 26
0.0
 36
0.0
 17
0.0
 27
0.0
 37
0.0
 40
1561.030612
 41
0.011375
 42
50.0
 43
788.18247
 44
-788.18247
 50
0.0
 51
0.0
 71
     0
 72
   100
 73
     1
 74
     3
 75
     0
 76
     0
 77
     0
 78
     0
281
     0
 65
     1
110
0.0
120
0.0
130
0.0
111
1.0
121
0.0
131
0.0
112
0.0
122
1.0
132
0.0
 79
     0
146
0.0
  0
VPORT
  5
39D
330
8
100
AcDbSymbolTableRecord
100
AcDbViewportTableRecord
  2
L3
 70
     0
 10
0.0
 20
0.5
 11
1.0
 21
1.0
 12
210.0
 22
148.401476
 13
0.0
 23
0.0
 14
0.5
 24
0.5
 15
0.5
 25
0.5
 16
0.0
 26
0.0
 36
1.0
 17
0.0
 27
0.0
 37
0.0
 40
219.339583
 41
0.080956
 42
50.0
 43
788.88564
 44
-788.88564
 50
0.0
 51
0.0
 71
     0
 72
   100
 73
     1
 74
     3
 75
     0
 76
     0
 77
     0
 78
     0
281
     0
 65
     1
110
0.0
120
0.0
130
0.0
111
1.0
121
0.0
131
0.0
112
0.0
122
1.0
132
0.0
 79
     0
146
0.0
  0
VPORT
  5
39E
330
8
100
AcDbSymbolTableRecord
100
AcDbViewportTableRecord
  2
L3
 70
     0
 10
0.0
 20
0.0
 11
1.0
 21
0.5
 12
0.0
 22
0.0
 13
0.0
 23
0.0
 14
0.5
 24
0.5
 15
0.5
 25
0.5
 16
0.0
 26
-1.0
 36
0.0
 17
0.0
 27
0.0
 37
0.0
 40
1561.030612
 41
0.011375
 42
50.0
 43
807.984261
 44
-807.984261
 50
0.0
 51
0.0
 71
     0
 72
   100
 73
     1
 74
     3
 75
     0
 76
     0
 77
     0
 78
     0
281
     0
 65
     1
110
0.0
120
0.0
130
0.0
111
1.0
121
0.0
131
0.0
112
0.0
122
1.0
132
0.0
 79
     0
146
0.0
  0
VPORT
  5
39F
330
8
100
AcDbSymbolTableRecord
100
AcDbViewportTableRecord
  2
L4
 70
     0
 10
0.0
 20
0.5
 11
0.5
 21
1.0
 12
210.0
 22
148.401476
 13
0.0
 23
0.0
 14
0.5
 24
0.5
 15
0.5
 25
0.5
 16
0.0
 26
0.0
 36
1.0
 17
0.0
 27
0.0
 37
0.0
 40
219.339583
 41
0.080956
 42
50.0
 43
788.88564
 44
-788.88564
 50
0.0
 51
0.0
 71
     0
 72
   100
 73
     1
 74
     3
 75
     0
 76
     0
 77
     0
 78
     0
281
     0
 65
     1
110
0.0
120
0.0
130
0.0
111
1.0
121
0.0
131
0.0
112
0.0
122
1.0
132
0.0
 79
     0
146
0.0
  0
VPORT
  5
3A0
330
8
100
AcDbSymbolTableRecord
100
AcDbViewportTableRecord
  2
L4
 70
     0
 10
0.0
 20
0.0
 11
0.5
 21
0.5
 12
0.0
 22
0.0
 13
0.0
 23
0.0
 14
0.5
 24
0.5
 15
0.5
 25
0.5
 16
0.0
 26
-1.0
 36
0.0
 17
0.0
 27
0.0
 37
0.0
 40
1561.030612
 41
0.011375
 42
50.0
 43
807.984261
 44
-807.984261
 50
0.0
 51
0.0
 71
     0
 72
   100
 73
     1
 74
     3
 75
     0
 76
     0
 77
     0
 78
     0
281
     0
 65
     1
110
0.0
120
0.0
130
0.0
111
1.0
121
0.0
131
0.0
112
0.0
122
1.0
132
0.0
 79
     0
146
0.0
  0
VPORT
  5
3A1
330
8
100
AcDbSymbolTableRecord
100
AcDbViewportTableRecord
  2
L4
 70
     0
 10
0.5
 20
0.0
 11
1.0
 21
0.5
 12
0.0
 22
0.0
 13
0.0
 23
0.0
 14
0.5
 24
0.5
 15
0.5
 25
0.5
 16
1.0
 26
0.0
 36
0.0
 17
0.0
 27
0.0
 37
0.0
 40
1561.030612
 41
0.011375
 42
50.0
 43
788.18247
 44
-788.18247
 50
0.0
 51
0.0
 71
     0
 72
   100
 73
     1
 74
     3
 75
     0
 76
     0
 77
     0
 78
     0
281
     0
 65
     1
110
0.0
120
0.0
130
0.0
111
1.0
121
0.0
131
0.0
112
0.0
122
1.0
132
0.0
 79
     0
146
0.0
  0
VPORT
  5
3A2
330
8
100
AcDbSymbolTableRecord
100
AcDbViewportTableRecord
  2
L4
 70
     0
 10
0.5
 20
0.5
 11
1.0
 21
1.0
 12
0.0
 22
0.0
 13
0.0
 23
0.0
 14
0.5
 24
0.5
 15
0.5
 25
0.5
 16
0.5773502691896259
 26
-0.5773502691896259
 36
0.5773502691896259
 17
0.0
 27
0.0
 37
0.0
 40
1534.677948
 41
0.01157
 42
50.0
 43
799.7179539999999
 44
-799.7179539999999
 50
0.0
 51
0.0
 71
     0
 72
   100
 73
     1
 74
     3
 75
     0
 76
     0
 77
     0
 78
     0
281
     0
 65
     1
110
0.0
120
0.0
130
0.0
111
1.0
121
0.0
131
0.0
112
0.0
122
1.0
132
0.0
 79
     0
146
0.0
  0
VPORT
  5
3A3
330
8
100
AcDbSymbolTableRecord
100
AcDbViewportTableRecord
  2
L6
 70
     0
 10
0.0
 20
0.5
 11
0.333333
 21
1.0
 12
0.0
 22
0.0
 13
0.0
 23
0.0
 14
0.5
 24
0.5
 15
0.5
 25
0.5
 16
0.7188730927569434
 26
-0.5850486126764433
 36
0.3754192287502549
 17
0.0
 27
0.0
 37
0.0
 40
1620.473525
 41
0.010958
 42
50.0
 43
838.7703209999999
 44
-838.7703209999999
 50
0.0
 51
0.0
 71
     0
 72
   100
 73
     1
 74
     3
 75
     0
 76
     0
 77
     0
 78
     0
281
     0
 65
     1
110
0.0
120
0.0
130
0.0
111
1.0
121
0.0
131
0.0
112
0.0
122
1.0
132
0.0
 79
     0
146
0.0
  0
VPORT
  5
3A4
330
8
100
AcDbSymbolTableRecord
100
AcDbViewportTableRecord
  2
L6
 70
     0
 10
0.0
 20
0.0
 11
0.333333
 21
0.5
 12
0.0
 22
0.0
 13
0.0
 23
0.0
 14
0.5
 24
0.5
 15
0.5
 25
0.5
 16
-1.0
 26
0.0
 36
0.0
 17
0.0
 27
0.0
 37
0.0
 40
1561.030612
 41
0.011375
 42
50.0
 43
788.18247
 44
-788.18247
 50
0.0
 51
0.0
 71
     0
 72
   100
 73
     1
 74
     3
 75
     0
 76
     0
 77
     0
 78
     0
281
     0
 65
     1
110
0.0
120
0.0
130
0.0
111
1.0
121
0.0
131
0.0
112
0.0
122
1.0
132
0.0
 79
     0
146
0.0
  0
VPORT
  5
3A5
330
8
100
AcDbSymbolTableRecord
100
AcDbViewportTableRecord
  2
L6
 70
     0
 10
0.333333
 20
0.5
 11
0.666667
 21
1.0
 12
210.0
 22
148.401476
 13
0.0
 23
0.0
 14
0.5
 24
0.5
 15
0.5
 25
0.5
 16
0.0
 26
0.0
 36
1.0
 17
0.0
 27
0.0
 37
0.0
 40
219.339583
 41
0.080956
 42
50.0
 43
788.88564
 44
-788.88564
 50
0.0
 51
0.0
 71
     0
 72
   100
 73
     1
 74
     3
 75
     0
 76
     0
 77
     0
 78
     0
281
     0
 65
     1
110
0.0
120
0.0
130
0.0
111
1.0
121
0.0
131
0.0
112
0.0
122
1.0
132
0.0
 79
     0
146
0.0
  0
VPORT
  5
3A6
330
8
100
AcDbSymbolTableRecord
100
AcDbViewportTableRecord
  2
L6
 70
     0
 10
0.333333
 20
0.0
 11
0.666667
 21
0.5
 12
0.0
 22
0.0
 13
0.0
 23
0.0
 14
0.5
 24
0.5
 15
0.5
 25
0.5
 16
0.0
 26
-1.0
 36
0.0
 17
0.0
 27
0.0
 37
0.0
 40
1561.030612
 41
0.011375
 42
50.0
 43
807.984261
 44
-807.984261
 50
0.0
 51
0.0
 71
     0
 72
   100
 73
     1
 74
     3
 75
     0
 76
     0
 77
     0
 78
     0
281
     0
 65
     1
110
0.0
120
0.0
130
0.0
111
1.0
121
0.0
131
0.0
112
0.0
122
1.0
132
0.0
 79
     0
146
0.0
  0
VPORT
  5
3A7
330
8
100
AcDbSymbolTableRecord
100
AcDbViewportTableRecord
  2
L6
 70
     0
 10
0.666667
 20
0.5
 11
1.0
 21
1.0
 12
0.0
 22
0.0
 13
0.0
 23
0.0
 14
0.5
 24
0.5
 15
0.5
 25
0.5
 16
0.5773502691896259
 26
-0.5773502691896259
 36
0.5773502691896259
 17
0.0
 27
0.0
 37
0.0
 40
1534.677948
 41
0.01157
 42
50.0
 43
799.7179539999999
 44
-799.7179539999999
 50
0.0
 51
0.0
 71
     0
 72
   100
 73
     1
 74
     3
 75
     0
 76
     0
 77
     0
 78
     0
281
     0
 65
     1
110
0.0
120
0.0
130
0.0
111
1.0
121
0.0
131
0.0
112
0.0
122
1.0
132
0.0
 79
     0
146
0.0
  0
VPORT
  5
3A8
330
8
100
AcDbSymbolTableRecord
100
AcDbViewportTableRecord
  2
L6
 70
     0
 10
0.666667
 20
0.0
 11
1.0
 21
0.5
 12
0.0
 22
0.0
 13
0.0
 23
0.0
 14
0.5
 24
0.5
 15
0.5
 25
0.5
 16
1.0
 26
0.0
 36
0.0
 17
0.0
 27
0.0
 37
0.0
 40
1561.030612
 41
0.011375
 42
50.0
 43
788.18247
 44
-788.18247
 50
0.0
 51
0.0
 71
     0
 72
   100
 73
     1
 74
     3
 75
     0
 76
     0
 77
     0
 78
     0
281
     0
 65
     1
110
0.0
120
0.0
130
0.0
111
1.0
121
0.0
131
0.0
112
0.0
122
1.0
132
0.0
 79
     0
146
0.0
  0
ENDTAB
  0
TABLE
  2
LTYPE
  5
5
330
0
100
AcDbSymbolTable
 70
     7
  0
LTYPE
  5
14
330
5
100
AcDbSymbolTableRecord
100
AcDbLinetypeTableRecord
  2
ByBlock
 70
     0
  3

 72
    65
 73
     0
 40
0.0
  0
LTYPE
  5
15
330
5
100
AcDbSymbolTableRecord
100
AcDbLinetypeTableRecord
  2
ByLayer
 70
     0
  3

 72
    65
 73
     0
 40
0.0
  0
LTYPE
  5
16
330
5
100
AcDbSymbolTableRecord
100
AcDbLinetypeTableRecord
  2
Continuous
 70
     0
  3
Solid line
 72
    65
 73
     0
 40
0.0
  0
LTYPE
  5
6E
330
5
100
AcDbSymbolTableRecord
100
AcDbLinetypeTableRecord
  2
CENTER
 70
     0
  3
____ _ ____ _ ____ _ ____
 72
    65
 73
     4
 40
47.4
 49
22.0
 74
     4
 75
     0
340
0
 46
0.0
 50
0.0
 44
0.0
 45
0.0
 49
-8.5
 74
     4
 75
     0
340
0
 46
0.0
 50
0.0
 44
0.0
 45
0.0
 49
8.5
 74
     4
 75
     0
340
0
 46
0.0
 50
0.0
 44
0.0
 45
0.0
 49
-8.5
 74
     4
 75
     0
340
0
 46
0.0
 50
0.0
 44
0.0
 45
0.0
  0
LTYPE
  5
6F
330
5
100
AcDbSymbolTableRecord
100
AcDbLinetypeTableRecord
  2
DASHDOT
 70
     0
  3
_._._._._._._._._._._._._._._._.
 72
    65
 73
     4
 40
70.0
 49
31.0
 74
     4
 75
     0
340
0
 46
0.0
 50
0.0
 44
0.0
 45
0.0
 49
-13.0
 74
     4
 75
     0
340
0
 46
0.0
 50
0.0
 44
0.0
 45
0.0
 49
13.0
 74
     4
 75
     0
340
0
 46
0.0
 50
0.0
 44
0.0
 45
0.0
 49
-13.0
 74
     4
 75
     0
340
0
 46
0.0
 50
0.0
 44
0.0
 45
0.0
  0
LTYPE
  5
70
330
5
100
AcDbSymbolTableRecord
100
AcDbLinetypeTableRecord
  2
DASHED
 70
     0
  3
__ __ __ __ __ __ __ __ __
 72
    65
 73
     2
 40
25.72
 49
12.86
 74
     4
 75
     0
340
0
 46
0.0
 50
0.0
 44
0.0
 45
0.0
 49
-12.86
 74
     4
 75
     0
340
0
 46
0.0
 50
0.0
 44
0.0
 45
0.0
  0
LTYPE
  5
71
330
5
100
AcDbSymbolTableRecord
100
AcDbLinetypeTableRecord
  2
DOT
 70
     0
  3
.........................
 72
    65
 73
     2
 40
10.0
 49
0.0
 74
     4
 75
     0
340
0
 46
0.0
 50
0.0
 44
0.0
 45
0.0
 49
-10.0
 74
     4
 75
     0
340
0
 46
0.0
 50
0.0
 44
0.0
 45
0.0
  0
LTYPE
  5
72
330
5
100
AcDbSymbolTableRecord
100
AcDbLinetypeTableRecord
  2
PHANTOM
 70
     0
  3
____ _ _ ____ _ _ _____ _ _ ____
 72
    65
 73
     6
 40
50.5
 49
18.0
 74
     4
 75
     0
340
0
 46
0.0
 50
0.0
 44
0.0
 45
0.0
 49
-6.5
 74
     4
 75
     0
340
0
 46
0.0
 50
0.0
 44
0.0
 45
0.0
 49
6.5
 74
     4
 75
     0
340
0
 46
0.0
 50
0.0
 44
0.0
 45
0.0
 49
-6.5
 74
     4
 75
     0
340
0
 46
0.0
 50
0.0
 44
0.0
 45
0.0
 49
6.5
 74
     4
 75
     0
340
0
 46
0.0
 50
0.0
 44
0.0
 45
0.0
 49
-6.5
 74
     4
 75
     0
340
0
 46
0.0
 50
0.0
 44
0.0
 45
0.0
  0
ENDTAB
  0
TABLE
  2
LAYER
  5
2
330
0
100
AcDbSymbolTable
 70
    14
  0
LAYER
  5
10
102
{ACAD_XDICTIONARY
360
5BC
102
}
330
2
100
AcDbSymbolTableRecord
100
AcDbLayerTableRecord
  2
0
 70
     0
 62
     7
  6
Continuous
370
    -3
390
F
  0
LAYER
  5
74
102
{ACAD_XDICTIONARY
360
5BE
102
}
330
2
100
AcDbSymbolTableRecord
100
AcDbLayerTableRecord
  2
250
 70
     0
 62
     7
  6
Continuous
370
    -3
390
F
  0
LAYER
  5
76
102
{ACAD_XDICTIONARY
360
5C0
102
}
330
2
100
AcDbSymbolTableRecord
100
AcDbLayerTableRecord
  2
41
 70
     0
 62
     7
  6
Continuous
370
    -3
390
F
  0
LAYER
  5
89
102
{ACAD_XDICTIONARY
360
5C2
102
}
330
2
100
AcDbSymbolTableRecord
100
AcDbLayerTableRecord
  2
15
 70
     0
 62
     7
  6
Continuous
370
    -3
390
F
  0
LAYER
  5
8B
102
{ACAD_XDICTIONARY
360
5C4
102
}
330
2
100
AcDbSymbolTableRecord
100
AcDbLayerTableRecord
  2
10
 70
     0
 62
     7
  6
Continuous
370
    -3
390
F
  0
LAYER
  5
98
102
{ACAD_XDICTIONARY
360
5C6
102
}
330
2
100
AcDbSymbolTableRecord
100
AcDbLayerTableRecord
  2
16
 70
     0
 62
     7
  6
Continuous
370
    -3
390
F
  0
LAYER
  5
1E0
330
2
100
AcDbSymbolTableRecord
100
AcDbLayerTableRecord
  2
Defpoints
 70
     0
 62
     7
  6
Continuous
290
     0
370
    -3
390
F
  0
LAYER
  5
404
102
{ACAD_XDICTIONARY
360
5C8
102
}
330
2
100
AcDbSymbolTableRecord
100
AcDbLayerTableRecord
  2
1
 70
     0
 62
     4
  6
Continuous
370
    -3
390
F
1001
AcAecLayerStandard
1000

1000

1001
AcCmTransparency
1071
        0
  0
LAYER
  5
407
102
{ACAD_XDICTIONARY
360
5CA
102
}
330
2
100
AcDbSymbolTableRecord
100
AcDbLayerTableRecord
  2
2
 70
     0
 62
     7
  6
Continuous
370
    -3
390
F
1001
AcAecLayerStandard
1000

1000

1001
AcCmTransparency
1071
        0
  0
LAYER
  5
408
102
{ACAD_XDICTIONARY
360
5CC
102
}
330
2
100
AcDbSymbolTableRecord
100
AcDbLayerTableRecord
  2
SK1
 70
     0
 62
     4
  6
Continuous
370
    -3
390
F
1001
AcAecLayerStandard
1000

1000

1001
AcCmTransparency
1071
        0
  0
LAYER
  5
409
102
{ACAD_XDICTIONARY
360
5CE
102
}
330
2
100
AcDbSymbolTableRecord
100
AcDbLayerTableRecord
  2
SK2
 70
     0
 62
     7
  6
Continuous
370
    -3
390
F
1001
AcAecLayerStandard
1000

1000

1001
AcCmTransparency
1071
        0
  0
LAYER
  5
40A
102
{ACAD_XDICTIONARY
360
5D0
102
}
330
2
100
AcDbSymbolTableRecord
100
AcDbLayerTableRecord
  2
SK6
 70
     0
 62
     5
  6
Continuous
370
    -3
390
F
1001
AcAecLayerStandard
1000

1000

1001
AcCmTransparency
1071
        0
  0
LAYER
  5
40B
102
{ACAD_XDICTIONARY
360
5D2
102
}
330
2
100
AcDbSymbolTableRecord
100
AcDbLayerTableRecord
  2
CUT
 70
     0
 62
     1
  6
Continuous
370
    -3
390
F
1001
AcAecLayerStandard
1000

1000

1001
AcCmTransparency
1071
        0
  0
LAYER
  5
40C
102
{ACAD_XDICTIONARY
360
5D4
102
}
330
2
100
AcDbSymbolTableRecord
100
AcDbLayerTableRecord
  2
NOCUT
 70
     0
 62
     7
  6
Continuous
370
    -3
390
F
1001
AcAecLayerStandard
1000

1000

1001
AcCmTransparency
1071
        0
  0
ENDTAB
  0
TABLE
  2
STYLE
  5
3
330
0
100
AcDbSymbolTable
 70
     4
  0
STYLE
  5
11
330
3
100
AcDbSymbolTableRecord
100
AcDbTextStyleTableRecord
  2
Standard
 70
     0
 40
0.0
 41
1.0
 50
0.0
 71
     0
 42
0.2
  3
txt
  4

  0
STYLE
  5
194
330
3
100
AcDbSymbolTableRecord
100
AcDbTextStyleTableRecord
  2
iso_b_vert
 70
     0
 40
0.0
 41
1.0
 50
0.0
 71
     0
 42
0.2
  3
simplex.shx
  4

  0
STYLE
  5
195
330
3
100
AcDbSymbolTableRecord
100
AcDbTextStyleTableRecord
  2
DWGDirectTextStyle
 70
     0
 40
0.0
 41
1.0
 50
0.0
 71
     0
 42
0.2
  3
simplex
  4

  0
STYLE
  5
1B2
330
3
100
AcDbSymbolTableRecord
100
AcDbTextStyleTableRecord
  2
blockfont
 70
     0
 40
0.0
 41
1.0
 50
0.0
 71
     0
 42
0.2
  3
simplex.shx
  4

  0
ENDTAB
  0
TABLE
  2
VIEW
  5
6
330
0
100
AcDbSymbolTable
 70
     0
  0
ENDTAB
  0
TABLE
  2
UCS
  5
7
330
0
100
AcDbSymbolTable
 70
     0
  0
ENDTAB
  0
TABLE
  2
APPID
  5
9
330
0
100
AcDbSymbolTable
 70
    10
  0
APPID
  5
12
330
9
100
AcDbSymbolTableRecord
100
AcDbRegAppTableRecord
  2
ACAD
 70
     0
  0
APPID
  5
1DC
330
9
100
AcDbSymbolTableRecord
100
AcDbRegAppTableRecord
  2
ACAD_DSTYLE_DIMBREAK
 70
     0
  0
APPID
  5
3A9
330
9
100
AcDbSymbolTableRecord
100
AcDbRegAppTableRecord
  2
ACAD_DSTYLE_DIM_LINETYPE
 70
     0
  0
APPID
  5
3AA
330
9
100
AcDbSymbolTableRecord
100
AcDbRegAppTableRecord
  2
ACAD_DSTYLE_DIM_EXT1_LINETYPE
 70
     0
  0
APPID
  5
3AB
330
9
100
AcDbSymbolTableRecord
100
AcDbRegAppTableRecord
  2
ACAD_DSTYLE_DIM_EXT2_LINETYPE
 70
     0
  0
APPID
  5
3EB
330
9
100
AcDbSymbolTableRecord
100
AcDbRegAppTableRecord
  2
ACAD_MLEADERVER
 70
     0
  0
APPID
  5
405
330
9
100
AcDbSymbolTableRecord
100
AcDbRegAppTableRecord
  2
AcAecLayerStandard
 70
     0
  0
APPID
  5
406
330
9
100
AcDbSymbolTableRecord
100
AcDbRegAppTableRecord
  2
AcCmTransparency
 70
     0
  0
APPID
  5
423
330
9
100
AcDbSymbolTableRecord
100
AcDbRegAppTableRecord
  2
ACAD_EXEMPT_FROM_CAD_STANDARDS
 70
     0
  0
APPID
  5
5DD
330
9
100
AcDbSymbolTableRecord
100
AcDbRegAppTableRecord
  2
ACAD_NAV_VCDISPLAY
 70
     0
  0
ENDTAB
  0
TABLE
  2
DIMSTYLE
  5
A
330
0
100
AcDbSymbolTable
 70
     2
100
AcDbDimStyleTable
 71
     1
340
27
  0
DIMSTYLE
105
27
102
{ACAD_REACTORS
330
210
102
}
330
A
100
AcDbSymbolTableRecord
100
AcDbDimStyleTableRecord
  2
Standard
 70
     0
340
11
1001
ACAD_DSTYLE_DIMBREAK
1070
   391
1040
6.349999999999999
  0
ENDTAB
  0
TABLE
  2
BLOCK_RECORD
  5
1
330
0
100
AcDbSymbolTable
 70
    19
  0
BLOCK_RECORD
  5
1F
102
{ACAD_XDICTIONARY
360
42B
102
}
330
1
100
AcDbSymbolTableRecord
100
AcDbBlockTableRecord
  2
*Model_Space
340
22
  0
BLOCK_RECORD
  5
1B
330
1
100
AcDbSymbolTableRecord
100
AcDbBlockTableRecord
  2
*Paper_Space
340
1E
  0
BLOCK_RECORD
  5
23
330
1
100
AcDbSymbolTableRecord
100
AcDbBlockTableRecord
  2
*Paper_Space0
340
26
  0
BLOCK_RECORD
  5
1BB
330
1
100
AcDbSymbolTableRecord
100
AcDbBlockTableRecord
  2
LABLE3D_1
340
0
  0
BLOCK_RECORD
  5
1CA
330
1
100
AcDbSymbolTableRecord
100
AcDbBlockTableRecord
  2
LABLE3D_2
340
0
  0
BLOCK_RECORD
  5
1D3
330
1
100
AcDbSymbolTableRecord
100
AcDbBlockTableRecord
  2
LABLE3D_3
340
0
  0
BLOCK_RECORD
  5
1E1
330
1
100
AcDbSymbolTableRecord
100
AcDbBlockTableRecord
  2
*D4
340
0
  0
BLOCK_RECORD
  5
1ED
330
1
100
AcDbSymbolTableRecord
100
AcDbBlockTableRecord
  2
_U0
340
0
  0
BLOCK_RECORD
  5
1FB
330
1
100
AcDbSymbolTableRecord
100
AcDbBlockTableRecord
  2
*D6
340
0
  0
BLOCK_RECORD
  5
207
330
1
100
AcDbSymbolTableRecord
100
AcDbBlockTableRecord
  2
_U1
340
0
  0
BLOCK_RECORD
  5
213
330
1
100
AcDbSymbolTableRecord
100
AcDbBlockTableRecord
  2
*D8
340
0
  0
BLOCK_RECORD
  5
21F
330
1
100
AcDbSymbolTableRecord
100
AcDbBlockTableRecord
  2
_U2
340
0
  0
BLOCK_RECORD
  5
22B
330
1
100
AcDbSymbolTableRecord
100
AcDbBlockTableRecord
  2
*D10
340
0
  0
BLOCK_RECORD
  5
237
330
1
100
AcDbSymbolTableRecord
100
AcDbBlockTableRecord
  2
_U3
340
0
  0
BLOCK_RECORD
  5
241
330
1
100
AcDbSymbolTableRecord
100
AcDbBlockTableRecord
  2
TabularNote1
340
0
  0
BLOCK_RECORD
  5
262
330
1
100
AcDbSymbolTableRecord
100
AcDbBlockTableRecord
  2
TabularNote2
340
0
  0
BLOCK_RECORD
  5
2A4
330
1
100
AcDbSymbolTableRecord
100
AcDbBlockTableRecord
  2
TabularNote3
340
0
  0
BLOCK_RECORD
  5
2D4
330
1
100
AcDbSymbolTableRecord
100
AcDbBlockTableRecord
  2
TOL_TABLE
340
0
  0
BLOCK_RECORD
  5
316
330
1
100
AcDbSymbolTableRecord
100
AcDbBlockTableRecord
  2
MODIFICATION_TABLE
340
0
  0
BLOCK_RECORD
  5
33A
330
1
100
AcDbSymbolTableRecord
100
AcDbBlockTableRecord
  2
BOM
340
0
  0
ENDTAB
  0
ENDSEC
  0
SECTION
  2
BLOCKS
  0
BLOCK
  5
20
330
1F
100
AcDbEntity
  8
0
100
AcDbBlockBegin
  2
*Model_Space
 70
     0
 10
0.0
 20
0.0
 30
0.0
  3
*Model_Space
  1

  0
ENDBLK
  5
21
330
1F
100
AcDbEntity
  8
0
100
AcDbBlockEnd
  0
BLOCK
  5
1C
330
1B
100
AcDbEntity
 67
     1
  8
0
100
AcDbBlockBegin
  2
*Paper_Space
 70
     0
 10
0.0
 20
0.0
 30
0.0
  3
*Paper_Space
  1

  0
ENDBLK
  5
1D
330
1B
100
AcDbEntity
 67
     1
  8
0
100
AcDbBlockEnd
  0
BLOCK
  5
24
330
23
100
AcDbEntity
 67
     1
  8
0
100
AcDbBlockBegin
  2
*Paper_Space0
 70
     0
 10
0.0
 20
0.0
 30
0.0
  3
*Paper_Space0
  1

  0
ENDBLK
  5
25
330
23
100
AcDbEntity
 67
     1
  8
0
100
AcDbBlockEnd
  0
BLOCK
  5
1C2
330
1BB
100
AcDbEntity
  8
0
100
AcDbBlockBegin
  2
LABLE3D_1
 70
     0
 10
139.229827
 20
113.907766
 30
0.0
  3
LABLE3D_1
  1

  0
MTEXT
  5
1C0
330
1BB
100
AcDbEntity
  8
41
  6
Continuous
 62
     3
370
    18
100
AcDbMText
 10
137.296884
 20
111.79288
 30
0.0
 40
3.0
 41
0.0
 71
     7
 72
     5
  1
\W0.7875;1
  7
iso_b_vert
 73
     2
 44
1.084337
1001
ACAD
1000
MTEXTBEGIN
1070
    73
1070
     2
1070
    44
1040
1.084337
1070
    74
1070
     0
1000
MTEXTEND
  0
ENDBLK
  5
1C3
330
1BB
100
AcDbEntity
  8
0
100
AcDbBlockEnd
  0
BLOCK
  5
1D1
330
1CA
100
AcDbEntity
  8
0
100
AcDbBlockBegin
  2
LABLE3D_2
 70
     0
 10
43.031345
 20
81.14660800000001
 30
0.0
  3
LABLE3D_2
  1

  0
MTEXT
  5
1CF
330
1CA
100
AcDbEntity
  8
41
  6
Continuous
 62
     3
370
    18
100
AcDbMText
 10
40.34851699999999
 20
79.031722
 30
0.0
 40
3.0
 41
0.0
 71
     7
 72
     5
  1
\W0.6563;2
  7
iso_b_vert
 73
     2
 44
1.084337
1001
ACAD
1000
MTEXTBEGIN
1070
    73
1070
     2
1070
    44
1040
1.084337
1070
    74
1070
     0
1000
MTEXTEND
  0
ENDBLK
  5
1D2
330
1CA
100
AcDbEntity
  8
0
100
AcDbBlockEnd
  0
BLOCK
  5
1DA
330
1D3
100
AcDbEntity
  8
0
100
AcDbBlockBegin
  2
LABLE3D_3
 70
     0
 10
43.192972
 20
71.287379
 30
0.0
  3
LABLE3D_3
  1

  0
MTEXT
  5
1D8
330
1D3
100
AcDbEntity
  8
41
  6
Continuous
 62
     3
370
    18
100
AcDbMText
 10
40.510143
 20
69.172493
 30
0.0
 40
3.0
 41
0.0
 71
     7
 72
     5
  1
\W0.6563;3
  7
iso_b_vert
 73
     2
 44
1.084337
1001
ACAD
1000
MTEXTBEGIN
1070
    73
1070
     2
1070
    44
1040
1.084337
1070
    74
1070
     0
1000
MTEXTEND
  0
ENDBLK
  5
1DB
330
1D3
100
AcDbEntity
  8
0
100
AcDbBlockEnd
  0
BLOCK
  5
1E2
330
1E1
100
AcDbEntity
  8
0
100
AcDbBlockBegin
  2
*D4
 70
     1
 10
0.0
 20
0.0
 30
0.0
  3
*D4
  1

  0
LINE
  5
1E4
330
1E1
100
AcDbEntity
  8
0
  6
Continuous
 62
     4
370
    -2
100
AcDbLine
 10
127.158945
 20
269.241663
 30
0.0
 11
127.158945
 21
279.407733
 31
0.0
  0
LINE
  5
1E5
330
1E1
100
AcDbEntity
  8
0
  6
Continuous
 62
     4
370
    -2
100
AcDbLine
 10
100.850813
 20
269.241663
 30
0.0
 11
100.850813
 21
279.407733
 31
0.0
  0
LINE
  5
1E6
330
1E1
100
AcDbEntity
  8
0
  6
Continuous
 62
     4
370
    -2
100
AcDbLine
 10
123.983945
 20
277.407733
 30
0.0
 11
104.025813
 21
277.407733
 31
0.0
  0
SOLID
  5
1E7
330
1E1
100
AcDbEntity
  8
0
 62
     4
100
AcDbTrace
 10
123.983945
 20
276.878567
 30
0.0
 11
123.983945
 21
277.9369
 31
0.0
 12
127.158945
 22
277.407733
 32
0.0
 13
127.158945
 23
277.407733
 33
0.0
  0
SOLID
  5
1E8
330
1E1
100
AcDbEntity
  8
0
 62
     4
100
AcDbTrace
 10
104.025813
 20
277.9369
 30
0.0
 11
104.025813
 21
276.878567
 31
0.0
 12
100.850813
 22
277.407733
 32
0.0
 13
100.850813
 23
277.407733
 33
0.0
  0
MTEXT
  5
1E9
330
1E1
100
AcDbEntity
  8
0
 62
     3
370
    13
100
AcDbMText
 10
107.790593
 20
283.479162
 30
0.0
 40
3.0
 41
0.0
 71
     1
 72
     1
  1
\A1;(13,2)
  7
iso_b_vert
 73
     1
 44
1.0
1001
ACAD
1000
MTEXTBEGIN
1070
    73
1070
     1
1070
    44
1040
1.0
1070
    74
1070
     0
1000
MTEXTEND
  0
POINT
  5
1EA
330
1E1
100
AcDbEntity
  8
Defpoints
 62
     0
100
AcDbPoint
 10
127.158945
 20
269.241663
 30
0.0
  0
POINT
  5
1EB
330
1E1
100
AcDbEntity
  8
Defpoints
 62
     0
100
AcDbPoint
 10
100.850813
 20
269.241663
 30
0.0
  0
POINT
  5
1EC
330
1E1
100
AcDbEntity
  8
Defpoints
 62
     0
100
AcDbPoint
 10
100.850813
 20
277.407733
 30
0.0
  0
ENDBLK
  5
1E3
330
1E1
100
AcDbEntity
  8
0
100
AcDbBlockEnd
  0
BLOCK
  5
1F6
330
1ED
100
AcDbEntity
  8
0
100
AcDbBlockBegin
  2
_U0
 70
     0
 10
0.0
 20
0.0
 30
0.0
  3
_U0
  1

  0
MTEXT
  5
1EE
330
1ED
100
AcDbEntity
  8
41
  6
Continuous
 62
     3
370
    18
100
AcDbMText
 10
111.097337
 20
279.605348
 30
0.0
 40
3.0
 41
0.0
 71
     7
 72
     5
  1
\W0.7109;13,2
  7
iso_b_vert
 73
     2
 44
0.9879520000000001
1001
ACAD
1000
MTEXTBEGIN
1070
    73
1070
     2
1070
    44
1040
0.9879520000000001
1070
    74
1070
     0
1000
MTEXTEND
  0
MTEXT
  5
1EF
330
1ED
100
AcDbEntity
  8
41
  6
Continuous
 62
     3
370
    18
100
AcDbMText
 10
108.997337
 20
279.605348
 30
0.0
 40
3.0
 41
0.0
 71
     7
 72
     5
  1
\W1.3868;{\H1.88x;(}
  7
iso_b_vert
 73
     2
 44
0.9879520000000001
1001
ACAD
1000
MTEXTBEGIN
1070
    73
1070
     2
1070
    44
1040
0.9879520000000001
1070
    74
1070
     0
1000
MTEXTEND
  0
MTEXT
  5
1F0
330
1ED
100
AcDbEntity
  8
41
  6
Continuous
 62
     3
370
    18
100
AcDbMText
 10
117.230421
 20
279.605348
 30
0.0
 40
3.0
 41
0.0
 71
     7
 72
     5
  1
\W1.3868;{\H1.88x;)}
  7
iso_b_vert
 73
     2
 44
0.9879520000000001
1001
ACAD
1000
MTEXTBEGIN
1070
    73
1070
     2
1070
    44
1040
0.9879520000000001
1070
    74
1070
     0
1000
MTEXTEND
  0
LINE
  5
1F1
330
1ED
100
AcDbEntity
  8
41
 62
     4
370
    13
100
AcDbLine
 10
127.158945
 20
269.241663
 30
0.0
 11
127.158945
 21
279.407733
 31
0.0
  0
LINE
  5
1F2
330
1ED
100
AcDbEntity
  8
41
 62
     4
370
    13
100
AcDbLine
 10
100.850813
 20
269.241663
 30
0.0
 11
100.850813
 21
279.407733
 31
0.0
  0
LINE
  5
1F3
330
1ED
100
AcDbEntity
  8
41
 62
     4
370
    13
100
AcDbLine
 10
127.158945
 20
277.407733
 30
0.0
 11
100.850813
 21
277.407733
 31
0.0
  0
SOLID
  5
1F4
330
1ED
100
AcDbEntity
  8
41
 62
     4
370
    13
100
AcDbTrace
 10
127.158945
 20
277.407733
 30
0.0
 11
123.983946
 21
276.989737
 31
0.0
 12
123.983943
 22
277.8257299999999
 32
0.0
 13
123.983943
 23
277.8257299999999
 33
0.0
  0
SOLID
  5
1F5
330
1ED
100
AcDbEntity
  8
41
 62
     4
370
    13
100
AcDbTrace
 10
100.850813
 20
277.407733
 30
0.0
 11
104.025811
 21
277.8257299999999
 31
0.0
 12
104.025814
 22
276.989737
 32
0.0
 13
104.025814
 23
276.989737
 33
0.0
  0
ENDBLK
  5
1F7
330
1ED
100
AcDbEntity
  8
0
100
AcDbBlockEnd
  0
BLOCK
  5
1FC
330
1FB
100
AcDbEntity
  8
0
100
AcDbBlockBegin
  2
*D6
 70
     1
 10
0.0
 20
0.0
 30
0.0
  3
*D6
  1

  0
LINE
  5
1FE
330
1FB
100
AcDbEntity
  8
0
  6
Continuous
 62
     4
370
    -2
100
AcDbLine
 10
350.850813
 20
269.241663
 30
0.0
 11
293.633698
 21
269.241663
 31
0.0
  0
LINE
  5
1FF
330
1FB
100
AcDbEntity
  8
0
  6
Continuous
 62
     4
370
    -2
100
AcDbLine
 10
350.850813
 20
237.241663
 30
0.0
 11
293.633698
 21
237.241663
 31
0.0
  0
LINE
  5
200
330
1FB
100
AcDbEntity
  8
0
  6
Continuous
 62
     4
370
    -2
100
AcDbLine
 10
295.633698
 20
266.066663
 30
0.0
 11
295.633698
 21
240.416663
 31
0.0
  0
SOLID
  5
201
330
1FB
100
AcDbEntity
  8
0
 62
     4
100
AcDbTrace
 10
296.162865
 20
266.066663
 30
0.0
 11
295.104532
 21
266.066663
 31
0.0
 12
295.633698
 22
269.241663
 32
0.0
 13
295.633698
 23
269.241663
 33
0.0
  0
SOLID
  5
202
330
1FB
100
AcDbEntity
  8
0
 62
     4
100
AcDbTrace
 10
295.104532
 20
240.416663
 30
0.0
 11
296.162865
 21
240.416663
 31
0.0
 12
295.633698
 22
237.241663
 32
0.0
 13
295.633698
 23
237.241663
 33
0.0
  0
MTEXT
  5
203
330
1FB
100
AcDbEntity
  8
0
 62
     3
370
    13
100
AcDbMText
 10
291.133698
 20
244.455949
 30
0.0
 40
3.0
 41
0.0
 71
     1
 72
     1
  1
\A1; 16 \C3;\H3.00;\Fsimplex.shx;h10\Fsimplex.shx;\H3.00;\C3;
  7
iso_b_vert
 11
0.0
 21
1.0
 31
0.0
 73
     1
 44
1.0
1001
ACAD
1000
MTEXTBEGIN
1070
    73
1070
     1
1070
    44
1040
1.0
1070
    74
1070
     0
1000
MTEXTEND
  0
POINT
  5
204
330
1FB
100
AcDbEntity
  8
Defpoints
 62
     0
100
AcDbPoint
 10
350.850813
 20
269.241663
 30
0.0
  0
POINT
  5
205
330
1FB
100
AcDbEntity
  8
Defpoints
 62
     0
100
AcDbPoint
 10
350.850813
 20
237.241663
 30
0.0
  0
POINT
  5
206
330
1FB
100
AcDbEntity
  8
Defpoints
 62
     0
100
AcDbPoint
 10
295.633698
 20
237.241663
 30
0.0
  0
ENDBLK
  5
1FD
330
1FB
100
AcDbEntity
  8
0
100
AcDbBlockEnd
  0
BLOCK
  5
20E
330
207
100
AcDbEntity
  8
0
100
AcDbBlockBegin
  2
_U1
 70
     0
 10
0.0
 20
0.0
 30
0.0
  3
_U1
  1

  0
MTEXT
  5
208
330
207
100
AcDbEntity
  8
41
  6
Continuous
 62
     3
370
    18
100
AcDbMText
 10
295.042584
 20
247.921979
 30
0.0
 40
3.0
 41
0.0
 71
     7
 72
     5
  1
\W0.6789;16
  7
iso_b_vert
 11
0.0000000000000001
 21
1.0
 31
0.0
 73
     2
 44
0.9879520000000001
1001
ACAD
1000
MTEXTBEGIN
1070
    73
1070
     2
1070
    44
1040
0.9879520000000001
1070
    74
1070
     0
1000
MTEXTEND
  0
MTEXT
  5
209
330
207
100
AcDbEntity
  8
41
  6
Continuous
 62
     3
370
    18
100
AcDbMText
 10
295.042584
 20
253.755749
 30
0.0
 40
3.0
 41
0.0
 71
     7
 72
     5
  1
\W0.7232;h10
  7
iso_b_vert
 11
0.0000000000000001
 21
1.0
 31
0.0
 73
     2
 44
0.9879520000000001
1001
ACAD
1000
MTEXTBEGIN
1070
    73
1070
     2
1070
    44
1040
0.9879520000000001
1070
    74
1070
     0
1000
MTEXTEND
  0
LINE
  5
20A
330
207
100
AcDbEntity
  8
41
 62
     4
370
    13
100
AcDbLine
 10
350.850813
 20
269.241663
 30
0.0
 11
293.633698
 21
269.241663
 31
0.0
  0
LINE
  5
20B
330
207
100
AcDbEntity
  8
41
 62
     4
370
    13
100
AcDbLine
 10
295.633698
 20
269.241663
 30
0.0
 11
295.633698
 21
237.241663
 31
0.0
  0
SOLID
  5
20C
330
207
100
AcDbEntity
  8
41
 62
     4
370
    13
100
AcDbTrace
 10
295.633698
 20
269.241663
 30
0.0
 11
296.051695
 21
266.066665
 31
0.0
 12
295.215702
 22
266.066662
 32
0.0
 13
295.215702
 23
266.066662
 33
0.0
  0
SOLID
  5
20D
330
207
100
AcDbEntity
  8
41
 62
     4
370
    13
100
AcDbTrace
 10
295.633698
 20
237.241663
 30
0.0
 11
295.215702
 21
240.416662
 31
0.0
 12
296.051695
 22
240.416665
 32
0.0
 13
296.051695
 23
240.416665
 33
0.0
  0
ENDBLK
  5
20F
330
207
100
AcDbEntity
  8
0
100
AcDbBlockEnd
  0
BLOCK
  5
214
330
213
100
AcDbEntity
  8
0
100
AcDbBlockBegin
  2
*D8
 70
     1
 10
0.0
 20
0.0
 30
0.0
  3
*D8
  1

  0
LINE
  5
216
330
213
100
AcDbEntity
  8
0
 62
     4
370
    -2
100
AcDbLine
 10
288.355522
 20
168.153985
 30
0.0
 11
297.633698
 21
168.153985
 31
0.0
  0
LINE
  5
217
330
213
100
AcDbEntity
  8
0
 62
     4
370
    -2
100
AcDbLine
 10
288.355522
 20
152.153985
 30
0.0
 11
297.633698
 21
152.153985
 31
0.0
  0
LINE
  5
218
330
213
100
AcDbEntity
  8
0
 62
     4
370
    -2
100
AcDbLine
 10
295.633698
 20
164.978985
 30
0.0
 11
295.633698
 21
155.328985
 31
0.0
  0
SOLID
  5
219
330
213
100
AcDbEntity
  8
0
 62
     4
100
AcDbTrace
 10
296.162865
 20
164.978985
 30
0.0
 11
295.104532
 21
164.978985
 31
0.0
 12
295.633698
 22
168.153985
 32
0.0
 13
295.633698
 23
168.153985
 33
0.0
  0
SOLID
  5
21A
330
213
100
AcDbEntity
  8
0
 62
     4
100
AcDbTrace
 10
295.104532
 20
155.328985
 30
0.0
 11
296.162865
 21
155.328985
 31
0.0
 12
295.633698
 22
152.153985
 32
0.0
 13
295.633698
 23
152.153985
 33
0.0
  0
MTEXT
  5
21B
330
213
100
AcDbEntity
  8
0
 62
     3
370
    13
100
AcDbMText
 10
289.633698
 20
160.153985
 30
0.0
 40
3.0
 41
0.0
 71
     5
 72
     1
  1
\A1;16
  7
iso_b_vert
 11
0.0
 21
1.0
 31
0.0
 73
     1
 44
1.0
1001
ACAD
1000
MTEXTBEGIN
1070
    73
1070
     1
1070
    44
1040
1.0
1070
    74
1070
     0
1000
MTEXTEND
  0
POINT
  5
21C
330
213
100
AcDbEntity
  8
Defpoints
 62
     0
100
AcDbPoint
 10
288.355522
 20
168.153985
 30
0.0
  0
POINT
  5
21D
330
213
100
AcDbEntity
  8
Defpoints
 62
     0
100
AcDbPoint
 10
288.355522
 20
152.153985
 30
0.0
  0
POINT
  5
21E
330
213
100
AcDbEntity
  8
Defpoints
 62
     0
100
AcDbPoint
 10
295.633698
 20
152.153985
 30
0.0
  0
ENDBLK
  5
215
330
213
100
AcDbEntity
  8
0
100
AcDbBlockEnd
  0
BLOCK
  5
226
330
21F
100
AcDbEntity
  8
0
100
AcDbBlockBegin
  2
_U2
 70
     0
 10
0.0
 20
0.0
 30
0.0
  3
_U2
  1

  0
LINE
  5
5B3
330
21F
100
AcDbEntity
  8
SK2
  6
Continuous
 62
     7
370
    13
100
AcDbLine
 10
158.9487906898985
 20
27.55999368240156
 30
0.0
 11
168.2269666898984
 21
27.55999368240156
 31
0.0
  0
LINE
  5
5B4
330
21F
100
AcDbEntity
  8
SK2
  6
Continuous
 62
     7
370
    13
100
AcDbLine
 10
158.9487906898985
 20
11.55999368240154
 30
0.0
 11
168.2269666898984
 21
11.55999368240154
 31
0.0
  0
LINE
  5
5B5
330
21F
100
AcDbEntity
  8
SK2
  6
Continuous
 62
     7
370
    13
100
AcDbLine
 10
166.2269666898984
 20
24.38499368240155
 30
0.0
 11
166.2269666898984
 21
14.73499368240154
 31
0.0
  0
SOLID
  5
5B6
330
21F
100
AcDbEntity
  8
SK2
  6
Continuous
 62
     7
370
    13
100
AcDbTrace
 10
165.6978000232317
 20
24.38499368240155
 30
0.0
 11
166.7561333565651
 21
24.38499368240155
 31
0.0
 12
166.2269666898984
 22
27.55999368240156
 32
0.0
 13
166.2269666898984
 23
27.55999368240156
 33
0.0
  0
SOLID
  5
5B7
330
21F
100
AcDbEntity
  8
SK2
  6
Continuous
 62
     7
370
    13
100
AcDbTrace
 10
165.6978000232317
 20
14.73499368240154
 30
0.0
 11
166.7561333565651
 21
14.73499368240154
 31
0.0
 12
166.2269666898984
 22
11.55999368240154
 32
0.0
 13
166.2269666898984
 23
11.55999368240154
 33
0.0
  0
MTEXT
  5
5B8
330
21F
100
AcDbEntity
  8
SK2
  6
Continuous
 62
     7
370
    18
100
AcDbMText
 10
161.7269666898984
 20
17.48856511097297
 30
0.0
 40
3.0
 41
0.0
 71
     1
 72
     1
  1
\A1;16
  7
iso_b_vert
 11
0.0000000000000001
 21
1.0
 31
0.0
 73
     1
 44
1.0
1001
ACAD
1000
MTEXTBEGIN
1070
    73
1070
     1
1070
    44
1040
1.0
1070
    74
1070
     0
1000
MTEXTEND
  0
POINT
  5
5B9
330
21F
100
AcDbEntity
  8
Defpoints
  6
Continuous
 62
     0
370
    13
100
AcDbPoint
 10
158.9487906898985
 20
27.55999368240156
 30
0.0
  0
POINT
  5
5BA
330
21F
100
AcDbEntity
  8
Defpoints
  6
Continuous
 62
     0
370
    13
100
AcDbPoint
 10
158.9487906898985
 20
11.55999368240154
 30
0.0
  0
POINT
  5
5BB
330
21F
100
AcDbEntity
  8
Defpoints
  6
Continuous
 62
     0
370
    13
100
AcDbPoint
 10
166.2269666898984
 20
11.55999368240154
 30
0.0
  0
ENDBLK
  5
227
330
21F
100
AcDbEntity
  8
0
100
AcDbBlockEnd
  0
BLOCK
  5
22C
330
22B
100
AcDbEntity
  8
0
100
AcDbBlockBegin
  2
*D10
 70
     1
 10
0.0
 20
0.0
 30
0.0
  3
*D10
  1

  0
LINE
  5
22E
330
22B
100
AcDbEntity
  8
0
  6
Continuous
 62
     4
370
    -2
100
AcDbLine
 10
101.752354
 20
269.241663
 30
0.0
 11
88.142548
 21
269.241663
 31
0.0
  0
LINE
  5
22F
330
22B
100
AcDbEntity
  8
0
  6
Continuous
 62
     4
370
    -2
100
AcDbLine
 10
103.165871
 20
237.241663
 30
0.0
 11
88.142548
 21
237.241663
 31
0.0
  0
LINE
  5
230
330
22B
100
AcDbEntity
  8
0
  6
Continuous
 62
     4
370
    -2
100
AcDbLine
 10
90.14254800000001
 20
266.066663
 30
0.0
 11
90.14254800000001
 21
240.416663
 31
0.0
  0
SOLID
  5
231
330
22B
100
AcDbEntity
  8
0
 62
     4
100
AcDbTrace
 10
90.67171399999999
 20
266.066663
 30
0.0
 11
89.613381
 21
266.066663
 31
0.0
 12
90.14254800000001
 22
269.241663
 32
0.0
 13
90.14254800000001
 23
269.241663
 33
0.0
  0
SOLID
  5
232
330
22B
100
AcDbEntity
  8
0
 62
     4
100
AcDbTrace
 10
89.613381
 20
240.416663
 30
0.0
 11
90.67171399999999
 21
240.416663
 31
0.0
 12
90.14254800000001
 22
237.241663
 32
0.0
 13
90.14254800000001
 23
237.241663
 33
0.0
  0
MTEXT
  5
233
330
22B
100
AcDbEntity
  8
0
 62
     3
370
    13
100
AcDbMText
 10
85.07111899999999
 20
244.241663
 30
0.0
 40
3.0
 41
0.0
 71
     1
 72
     1
  1
\A1;16%%p0,05
  7
iso_b_vert
 11
0.0
 21
1.0
 31
0.0
 73
     1
 44
1.0
1001
ACAD
1000
MTEXTBEGIN
1070
    73
1070
     1
1070
    44
1040
1.0
1070
    74
1070
     0
1000
MTEXTEND
  0
POINT
  5
234
330
22B
100
AcDbEntity
  8
Defpoints
 62
     0
100
AcDbPoint
 10
101.752354
 20
269.241663
 30
0.0
  0
POINT
  5
235
330
22B
100
AcDbEntity
  8
Defpoints
 62
     0
100
AcDbPoint
 10
103.165871
 20
237.241663
 30
0.0
  0
POINT
  5
236
330
22B
100
AcDbEntity
  8
Defpoints
 62
     0
100
AcDbPoint
 10
90.14254800000001
 20
237.241663
 30
0.0
  0
ENDBLK
  5
22D
330
22B
100
AcDbEntity
  8
0
100
AcDbBlockEnd
  0
BLOCK
  5
23F
330
237
100
AcDbEntity
  8
0
100
AcDbBlockBegin
  2
_U3
 70
     0
 10
0.0
 20
0.0
 30
0.0
  3
_U3
  1

  0
MTEXT
  5
238
330
237
100
AcDbEntity
  8
41
  6
Continuous
 62
     3
370
    18
100
AcDbMText
 10
89.55143299999999
 20
245.068293
 30
0.0
 40
3.0
 41
0.0
 71
     7
 72
     5
  1
\W0.6789;16
  7
iso_b_vert
 11
0.0000000000000001
 21
1.0
 31
0.0
 73
     2
 44
0.9879520000000001
1001
ACAD
1000
MTEXTBEGIN
1070
    73
1070
     2
1070
    44
1040
0.9879520000000001
1070
    74
1070
     0
1000
MTEXTEND
  0
MTEXT
  5
239
330
237
100
AcDbEntity
  8
41
  6
Continuous
 62
     3
370
    18
100
AcDbMText
 10
89.55143299999999
 20
250.902064
 30
0.0
 40
3.0
 41
0.0
 71
     7
 72
     5
  1
\W0.8385;\W0.4193;%%p\W0.8385;0,05
  7
iso_b_vert
 11
0.0000000000000001
 21
1.0
 31
0.0
 73
     2
 44
0.9879520000000001
1001
ACAD
1000
MTEXTBEGIN
1070
    73
1070
     2
1070
    44
1040
0.9879520000000001
1070
    74
1070
     0
1000
MTEXTEND
  0
LINE
  5
23A
330
237
100
AcDbEntity
  8
41
 62
     4
370
    13
100
AcDbLine
 10
103.165871
 20
237.241663
 30
0.0
 11
88.142548
 21
237.241663
 31
0.0
  0
LINE
  5
23B
330
237
100
AcDbEntity
  8
41
 62
     4
370
    13
100
AcDbLine
 10
101.375036
 20
269.241663
 30
0.0
 11
88.142548
 21
269.241663
 31
0.0
  0
LINE
  5
23C
330
237
100
AcDbEntity
  8
41
 62
     4
370
    13
100
AcDbLine
 10
90.14254800000001
 20
237.241663
 30
0.0
 11
90.14254800000001
 21
269.241663
 31
0.0
  0
SOLID
  5
23D
330
237
100
AcDbEntity
  8
41
 62
     4
370
    13
100
AcDbTrace
 10
90.14254800000001
 20
237.241663
 30
0.0
 11
89.72455100000001
 21
240.416662
 31
0.0
 12
90.56054399999998
 22
240.416665
 32
0.0
 13
90.56054399999998
 23
240.416665
 33
0.0
  0
SOLID
  5
23E
330
237
100
AcDbEntity
  8
41
 62
     4
370
    13
100
AcDbTrace
 10
90.14254800000001
 20
269.241663
 30
0.0
 11
90.56054399999998
 21
266.066665
 31
0.0
 12
89.72455100000001
 22
266.066662
 32
0.0
 13
89.72455100000001
 23
266.066662
 33
0.0
  0
ENDBLK
  5
240
330
237
100
AcDbEntity
  8
0
100
AcDbBlockEnd
  0
BLOCK
  5
260
330
241
100
AcDbEntity
  8
0
100
AcDbBlockBegin
  2
TabularNote1
 70
     0
 10
0.0
 20
0.0
 30
0.0
  3
TabularNote1
  1

  0
LINE
  5
242
330
241
100
AcDbEntity
  8
250
  6
Continuous
 62
     5
370
    18
100
AcDbLine
 10
0.0
 20
0.0
 30
0.0
 11
72.0
 21
0.0
 31
0.0
  0
LINE
  5
243
330
241
100
AcDbEntity
  8
250
  6
Continuous
 62
     5
370
    18
100
AcDbLine
 10
0.0
 20
0.0
 30
0.0
 11
0.0
 21
-1.9
 31
0.0
  0
LINE
  5
244
330
241
100
AcDbEntity
  8
250
  6
Continuous
 62
     5
370
    18
100
AcDbLine
 10
72.0
 20
0.0
 30
0.0
 11
72.0
 21
-1.9
 31
0.0
  0
MTEXT
  5
245
330
241
100
AcDbEntity
  8
41
  6
Continuous
 62
     2
370
    18
100
AcDbMText
 10
0.575
 20
-0.95
 30
0.0
 40
1.0
 41
0.0
 71
     4
 72
     5
  1
\W0.8122;PRODUCT CODE
  7
iso_b_vert
 73
     2
 44
1.084337
1001
ACAD
1000
MTEXTBEGIN
1070
    73
1070
     2
1070
    44
1040
1.084337
1070
    74
1070
     0
1000
MTEXTEND
  0
LINE
  5
246
330
241
100
AcDbEntity
  8
250
  6
Continuous
 62
     5
370
    18
100
AcDbLine
 10
72.0
 20
0.0
 30
0.0
 11
127.0
 21
0.0
 31
0.0
  0
LINE
  5
247
330
241
100
AcDbEntity
  8
250
  6
Continuous
 62
     5
370
    18
100
AcDbLine
 10
127.0
 20
0.0
 30
0.0
 11
127.0
 21
-1.9
 31
0.0
  0
MTEXT
  5
248
330
241
100
AcDbEntity
  8
41
  6
Continuous
 62
     2
370
    18
100
AcDbMText
 10
72.575
 20
-0.95
 30
0.0
 40
1.0
 41
0.0
 71
     4
 72
     5
  1
\W0.8810;MATERIAL
  7
iso_b_vert
 73
     2
 44
1.084337
1001
ACAD
1000
MTEXTBEGIN
1070
    73
1070
     2
1070
    44
1040
1.084337
1070
    74
1070
     0
1000
MTEXTEND
  0
LINE
  5
249
330
241
100
AcDbEntity
  8
250
  6
Continuous
 62
     5
370
    18
100
AcDbLine
 10
127.0
 20
0.0
 30
0.0
 11
180.0
 21
0.0
 31
0.0
  0
LINE
  5
24A
330
241
100
AcDbEntity
  8
250
  6
Continuous
 62
     5
370
    18
100
AcDbLine
 10
180.0
 20
0.0
 30
0.0
 11
180.0
 21
-1.9
 31
0.0
  0
LINE
  5
24B
330
241
100
AcDbEntity
  8
250
  6
Continuous
 62
     5
370
    18
100
AcDbLine
 10
0.0
 20
-1.9
 30
0.0
 11
0.0
 21
-8.9
 31
0.0
  0
LINE
  5
24C
330
241
100
AcDbEntity
  8
250
  6
Continuous
 62
     5
370
    18
100
AcDbLine
 10
0.0
 20
-8.9
 30
0.0
 11
72.0
 21
-8.9
 31
0.0
  0
LINE
  5
24D
330
241
100
AcDbEntity
  8
250
  6
Continuous
 62
     5
370
    18
100
AcDbLine
 10
72.0
 20
-1.9
 30
0.0
 11
72.0
 21
-8.9
 31
0.0
  0
MTEXT
  5
24E
330
241
100
AcDbEntity
  8
41
  6
Continuous
 62
     2
370
    25
100
AcDbMText
 10
1.825
 20
-5.4
 30
0.0
 40
3.5
 41
0.0
 71
     4
 72
     5
  1
\W0.7677;SDFCL1616K11-S
  7
iso_b_vert
 73
     2
 44
1.084337
1001
ACAD
1000
MTEXTBEGIN
1070
    73
1070
     2
1070
    44
1040
1.084337
1070
    74
1070
     0
1000
MTEXTEND
  0
LINE
  5
24F
330
241
100
AcDbEntity
  8
250
  6
Continuous
 62
     5
370
    18
100
AcDbLine
 10
72.0
 20
-8.9
 30
0.0
 11
127.0
 21
-8.9
 31
0.0
  0
LINE
  5
250
330
241
100
AcDbEntity
  8
250
  6
Continuous
 62
     5
370
    18
100
AcDbLine
 10
127.0
 20
-1.9
 30
0.0
 11
127.0
 21
-8.9
 31
0.0
  0
LINE
  5
251
330
241
100
AcDbEntity
  8
250
  6
Continuous
 62
     5
370
    18
100
AcDbLine
 10
180.0
 20
-1.9
 30
0.0
 11
180.0
 21
-8.9
 31
0.0
  0
LINE
  5
252
330
241
100
AcDbEntity
  8
250
  6
Continuous
 62
     5
370
    18
100
AcDbLine
 10
0.0
 20
-8.9
 30
0.0
 11
0.0
 21
-10.8
 31
0.0
  0
MTEXT
  5
253
330
241
100
AcDbEntity
  8
41
  6
Continuous
 62
     2
370
    18
100
AcDbMText
 10
0.575
 20
-9.849999
 30
0.0
 40
1.0
 41
0.0
 71
     4
 72
     5
  1
\W0.9090;TITLE
  7
iso_b_vert
 73
     2
 44
1.084337
1001
ACAD
1000
MTEXTBEGIN
1070
    73
1070
     2
1070
    44
1040
1.084337
1070
    74
1070
     0
1000
MTEXTEND
  0
LINE
  5
254
330
241
100
AcDbEntity
  8
250
  6
Continuous
 62
     5
370
    18
100
AcDbLine
 10
127.0
 20
-8.9
 30
0.0
 11
127.0
 21
-10.8
 31
0.0
  0
LINE
  5
255
330
241
100
AcDbEntity
  8
250
  6
Continuous
 62
     5
370
    18
100
AcDbLine
 10
180.0
 20
-8.9
 30
0.0
 11
180.0
 21
-10.8
 31
0.0
  0
LINE
  5
256
330
241
100
AcDbEntity
  8
250
  6
Continuous
 62
     5
370
    18
100
AcDbLine
 10
0.0
 20
-10.8
 30
0.0
 11
0.0
 21
-18.725
 31
0.0
  0
LINE
  5
257
330
241
100
AcDbEntity
  8
250
  6
Continuous
 62
     5
370
    18
100
AcDbLine
 10
127.0
 20
-10.8
 30
0.0
 11
127.0
 21
-18.725
 31
0.0
  0
LINE
  5
258
330
241
100
AcDbEntity
  8
250
  6
Continuous
 62
     5
370
    18
100
AcDbLine
 10
180.0
 20
-10.8
 30
0.0
 11
180.0
 21
-18.725
 31
0.0
  0
LINE
  5
259
330
241
100
AcDbEntity
  8
250
  6
Continuous
 62
     5
370
    18
100
AcDbLine
 10
0.0
 20
-18.725
 30
0.0
 11
0.0
 21
-26.65
 31
0.0
  0
LINE
  5
25A
330
241
100
AcDbEntity
  8
250
  6
Continuous
 62
     5
370
    18
100
AcDbLine
 10
0.0
 20
-26.65
 30
0.0
 11
72.0
 21
-26.65
 31
0.0
  0
LINE
  5
25B
330
241
100
AcDbEntity
  8
250
  6
Continuous
 62
     5
370
    18
100
AcDbLine
 10
72.0
 20
-26.65
 30
0.0
 11
127.0
 21
-26.65
 31
0.0
  0
LINE
  5
25C
330
241
100
AcDbEntity
  8
250
  6
Continuous
 62
     5
370
    18
100
AcDbLine
 10
127.0
 20
-18.725
 30
0.0
 11
127.0
 21
-26.65
 31
0.0
  0
LINE
  5
25D
330
241
100
AcDbEntity
  8
250
  6
Continuous
 62
     5
370
    18
100
AcDbLine
 10
127.0
 20
-26.65
 30
0.0
 11
180.0
 21
-26.65
 31
0.0
  0
LINE
  5
25E
330
241
100
AcDbEntity
  8
250
  6
Continuous
 62
     5
370
    18
100
AcDbLine
 10
180.0
 20
-18.725
 30
0.0
 11
180.0
 21
-26.65
 31
0.0
  0
ENDBLK
  5
261
330
241
100
AcDbEntity
  8
0
100
AcDbBlockEnd
  0
BLOCK
  5
2A2
330
262
100
AcDbEntity
  8
0
100
AcDbBlockBegin
  2
TabularNote2
 70
     0
 10
0.0
 20
0.0
 30
0.0
  3
TabularNote2
  1

  0
LINE
  5
263
330
262
100
AcDbEntity
  8
250
  6
Continuous
 62
     5
370
    18
100
AcDbLine
 10
0.0
 20
0.0
 30
0.0
 11
12.0
 21
0.0
 31
0.0
  0
LINE
  5
264
330
262
100
AcDbEntity
  8
250
  6
Continuous
 62
     5
370
    18
100
AcDbLine
 10
0.0
 20
0.0
 30
0.0
 11
0.0
 21
-1.9
 31
0.0
  0
LINE
  5
265
330
262
100
AcDbEntity
  8
250
  6
Continuous
 62
     5
370
    18
100
AcDbLine
 10
12.0
 20
0.0
 30
0.0
 11
12.0
 21
-1.9
 31
0.0
  0
MTEXT
  5
266
330
262
100
AcDbEntity
  8
41
  6
Continuous
 62
     2
370
    18
100
AcDbMText
 10
0.575
 20
-0.95
 30
0.0
 40
1.0
 41
0.0
 71
     4
 72
     5
  1
\W0.9067;STATUS
  7
iso_b_vert
 73
     2
 44
1.084337
1001
ACAD
1000
MTEXTBEGIN
1070
    73
1070
     2
1070
    44
1040
1.084337
1070
    74
1070
     0
1000
MTEXTEND
  0
LINE
  5
267
330
262
100
AcDbEntity
  8
250
  6
Continuous
 62
     5
370
    18
100
AcDbLine
 10
12.0
 20
0.0
 30
0.0
 11
26.0
 21
0.0
 31
0.0
  0
LINE
  5
268
330
262
100
AcDbEntity
  8
250
  6
Continuous
 62
     5
370
    18
100
AcDbLine
 10
12.0
 20
-1.9
 30
0.0
 11
26.0
 21
-1.9
 31
0.0
  0
LINE
  5
269
330
262
100
AcDbEntity
  8
250
  6
Continuous
 62
     5
370
    18
100
AcDbLine
 10
26.0
 20
0.0
 30
0.0
 11
26.0
 21
-1.9
 31
0.0
  0
LINE
  5
26A
330
262
100
AcDbEntity
  8
250
  6
Continuous
 62
     5
370
    18
100
AcDbLine
 10
26.0
 20
0.0
 30
0.0
 11
50.0
 21
0.0
 31
0.0
  0
LINE
  5
26B
330
262
100
AcDbEntity
  8
250
  6
Continuous
 62
     5
370
    18
100
AcDbLine
 10
26.0
 20
-1.9
 30
0.0
 11
50.0
 21
-1.9
 31
0.0
  0
LINE
  5
26C
330
262
100
AcDbEntity
  8
250
  6
Continuous
 62
     5
370
    18
100
AcDbLine
 10
50.0
 20
0.0
 30
0.0
 11
50.0
 21
-1.9
 31
0.0
  0
MTEXT
  5
26D
330
262
100
AcDbEntity
  8
41
  6
Continuous
 62
     2
370
    18
100
AcDbMText
 10
26.575
 20
-0.95
 30
0.0
 40
1.0
 41
0.0
 71
     4
 72
     5
  1
\W0.8824;DATE
  7
iso_b_vert
 73
     2
 44
1.084337
1001
ACAD
1000
MTEXTBEGIN
1070
    73
1070
     2
1070
    44
1040
1.084337
1070
    74
1070
     0
1000
MTEXTEND
  0
LINE
  5
26E
330
262
100
AcDbEntity
  8
250
  6
Continuous
 62
     5
370
    18
100
AcDbLine
 10
50.0
 20
0.0
 30
0.0
 11
88.0
 21
0.0
 31
0.0
  0
LINE
  5
26F
330
262
100
AcDbEntity
  8
250
  6
Continuous
 62
     5
370
    18
100
AcDbLine
 10
50.0
 20
-1.9
 30
0.0
 11
88.0
 21
-1.9
 31
0.0
  0
LINE
  5
270
330
262
100
AcDbEntity
  8
250
  6
Continuous
 62
     5
370
    18
100
AcDbLine
 10
88.0
 20
0.0
 30
0.0
 11
88.0
 21
-1.9
 31
0.0
  0
MTEXT
  5
271
330
262
100
AcDbEntity
  8
41
  6
Continuous
 62
     2
370
    18
100
AcDbMText
 10
50.575
 20
-0.95
 30
0.0
 40
1.0
 41
0.0
 71
     4
 72
     5
  1
\W0.8385;NAME
  7
iso_b_vert
 73
     2
 44
1.084337
1001
ACAD
1000
MTEXTBEGIN
1070
    73
1070
     2
1070
    44
1040
1.084337
1070
    74
1070
     0
1000
MTEXTEND
  0
LINE
  5
272
330
262
100
AcDbEntity
  8
250
  6
Continuous
 62
     5
370
    18
100
AcDbLine
 10
88.0
 20
0.0
 30
0.0
 11
112.0
 21
0.0
 31
0.0
  0
LINE
  5
273
330
262
100
AcDbEntity
  8
250
  6
Continuous
 62
     5
370
    18
100
AcDbLine
 10
88.0
 20
-1.9
 30
0.0
 11
112.0
 21
-1.9
 31
0.0
  0
LINE
  5
274
330
262
100
AcDbEntity
  8
250
  6
Continuous
 62
     5
370
    18
100
AcDbLine
 10
112.0
 20
0.0
 30
0.0
 11
112.0
 21
-1.9
 31
0.0
  0
MTEXT
  5
275
330
262
100
AcDbEntity
  8
41
  6
Continuous
 62
     2
370
    18
100
AcDbMText
 10
88.57499999999999
 20
-0.95
 30
0.0
 40
1.0
 41
0.0
 71
     4
 72
     5
  1
\W0.8136;USER ID
  7
iso_b_vert
 73
     2
 44
1.084337
1001
ACAD
1000
MTEXTBEGIN
1070
    73
1070
     2
1070
    44
1040
1.084337
1070
    74
1070
     0
1000
MTEXTEND
  0
LINE
  5
276
330
262
100
AcDbEntity
  8
250
  6
Continuous
 62
     5
370
    18
100
AcDbLine
 10
112.0
 20
0.0
 30
0.0
 11
124.0
 21
0.0
 31
0.0
  0
LINE
  5
277
330
262
100
AcDbEntity
  8
250
  6
Continuous
 62
     5
370
    18
100
AcDbLine
 10
124.0
 20
0.0
 30
0.0
 11
124.0
 21
-1.9
 31
0.0
  0
MTEXT
  5
278
330
262
100
AcDbEntity
  8
41
  6
Continuous
 62
     2
370
    18
100
AcDbMText
 10
112.575
 20
-0.95
 30
0.0
 40
1.0
 41
0.0
 71
     4
 72
     5
  1
\W0.8468;SCALE
  7
iso_b_vert
 73
     2
 44
1.084337
1001
ACAD
1000
MTEXTBEGIN
1070
    73
1070
     2
1070
    44
1040
1.084337
1070
    74
1070
     0
1000
MTEXTEND
  0
LINE
  5
279
330
262
100
AcDbEntity
  8
250
  6
Continuous
 62
     5
370
    18
100
AcDbLine
 10
124.0
 20
0.0
 30
0.0
 11
180.0
 21
0.0
 31
0.0
  0
LINE
  5
27A
330
262
100
AcDbEntity
  8
250
  6
Continuous
 62
     5
370
    18
100
AcDbLine
 10
180.0
 20
0.0
 30
0.0
 11
180.0
 21
-1.9
 31
0.0
  0
MTEXT
  5
27B
330
262
100
AcDbEntity
  8
41
  6
Continuous
 62
     2
370
    18
100
AcDbMText
 10
124.575
 20
-0.95
 30
0.0
 40
1.0
 41
0.0
 71
     4
 72
     5
  1
\W0.8471;SUPERSEDES
  7
iso_b_vert
 73
     2
 44
1.084337
1001
ACAD
1000
MTEXTBEGIN
1070
    73
1070
     2
1070
    44
1040
1.084337
1070
    74
1070
     0
1000
MTEXTEND
  0
LINE
  5
27C
330
262
100
AcDbEntity
  8
250
  6
Continuous
 62
     5
370
    18
100
AcDbLine
 10
0.0
 20
-1.9
 30
0.0
 11
0.0
 21
-5.4
 31
0.0
  0
LINE
  5
27D
330
262
100
AcDbEntity
  8
250
  6
Continuous
 62
     5
370
    18
100
AcDbLine
 10
12.0
 20
-1.9
 30
0.0
 11
12.0
 21
-5.4
 31
0.0
  0
LINE
  5
27E
330
262
100
AcDbEntity
  8
250
  6
Continuous
 62
     5
370
    18
100
AcDbLine
 10
12.0
 20
-5.4
 30
0.0
 11
26.0
 21
-5.4
 31
0.0
  0
LINE
  5
27F
330
262
100
AcDbEntity
  8
250
  6
Continuous
 62
     5
370
    18
100
AcDbLine
 10
26.0
 20
-1.9
 30
0.0
 11
26.0
 21
-5.4
 31
0.0
  0
MTEXT
  5
280
330
262
100
AcDbEntity
  8
41
  6
Continuous
 62
     2
370
    18
100
AcDbMText
 10
12.575
 20
-3.649999999999999
 30
0.0
 40
1.0
 41
0.0
 71
     4
 72
     5
  1
\W0.8408;DESIGNED
  7
iso_b_vert
 73
     2
 44
1.084337
1001
ACAD
1000
MTEXTBEGIN
1070
    73
1070
     2
1070
    44
1040
1.084337
1070
    74
1070
     0
1000
MTEXTEND
  0
LINE
  5
281
330
262
100
AcDbEntity
  8
250
  6
Continuous
 62
     5
370
    18
100
AcDbLine
 10
26.0
 20
-5.4
 30
0.0
 11
50.0
 21
-5.4
 31
0.0
  0
LINE
  5
282
330
262
100
AcDbEntity
  8
250
  6
Continuous
 62
     5
370
    18
100
AcDbLine
 10
50.0
 20
-1.9
 30
0.0
 11
50.0
 21
-5.4
 31
0.0
  0
MTEXT
  5
283
330
262
100
AcDbEntity
  8
41
  6
Continuous
 62
     2
370
    18
100
AcDbMText
 10
27.075
 20
-3.649999999999999
 30
0.0
 40
2.0
 41
0.0
 71
     4
 72
     5
  1
\W0.7112;2021-03-19
  7
iso_b_vert
 73
     2
 44
1.084337
1001
ACAD
1000
MTEXTBEGIN
1070
    73
1070
     2
1070
    44
1040
1.084337
1070
    74
1070
     0
1000
MTEXTEND
  0
LINE
  5
284
330
262
100
AcDbEntity
  8
250
  6
Continuous
 62
     5
370
    18
100
AcDbLine
 10
50.0
 20
-5.4
 30
0.0
 11
88.0
 21
-5.4
 31
0.0
  0
LINE
  5
285
330
262
100
AcDbEntity
  8
250
  6
Continuous
 62
     5
370
    18
100
AcDbLine
 10
88.0
 20
-1.9
 30
0.0
 11
88.0
 21
-5.4
 31
0.0
  0
MTEXT
  5
286
330
262
100
AcDbEntity
  8
41
  6
Continuous
 62
     2
370
    18
100
AcDbMText
 10
51.075
 20
-3.649999999999999
 30
0.0
 40
2.0
 41
0.0
 71
     4
 72
     5
  1
\W0.8822;R.Vlcek
  7
iso_b_vert
 73
     2
 44
1.084337
1001
ACAD
1000
MTEXTBEGIN
1070
    73
1070
     2
1070
    44
1040
1.084337
1070
    74
1070
     0
1000
MTEXTEND
  0
LINE
  5
287
330
262
100
AcDbEntity
  8
250
  6
Continuous
 62
     5
370
    18
100
AcDbLine
 10
88.0
 20
-5.4
 30
0.0
 11
112.0
 21
-5.4
 31
0.0
  0
LINE
  5
288
330
262
100
AcDbEntity
  8
250
  6
Continuous
 62
     5
370
    18
100
AcDbLine
 10
112.0
 20
-1.9
 30
0.0
 11
112.0
 21
-5.4
 31
0.0
  0
MTEXT
  5
289
330
262
100
AcDbEntity
  8
41
  6
Continuous
 62
     2
370
    18
100
AcDbMText
 10
89.075
 20
-3.649999999999999
 30
0.0
 40
2.0
 41
0.0
 71
     4
 72
     5
  1
\W0.8327;MP5448
  7
iso_b_vert
 73
     2
 44
1.084337
1001
ACAD
1000
MTEXTBEGIN
1070
    73
1070
     2
1070
    44
1040
1.084337
1070
    74
1070
     0
1000
MTEXTEND
  0
LINE
  5
28A
330
262
100
AcDbEntity
  8
250
  6
Continuous
 62
     5
370
    18
100
AcDbLine
 10
124.0
 20
-1.9
 30
0.0
 11
124.0
 21
-5.4
 31
0.0
  0
LINE
  5
28B
330
262
100
AcDbEntity
  8
250
  6
Continuous
 62
     5
370
    18
100
AcDbLine
 10
180.0
 20
-1.9
 30
0.0
 11
180.0
 21
-5.4
 31
0.0
  0
LINE
  5
28C
330
262
100
AcDbEntity
  8
250
  6
Continuous
 62
     5
370
    18
100
AcDbLine
 10
0.0
 20
-5.4
 30
0.0
 11
0.0
 21
-8.9
 31
0.0
  0
LINE
  5
28D
330
262
100
AcDbEntity
  8
250
  6
Continuous
 62
     5
370
    18
100
AcDbLine
 10
0.0
 20
-8.9
 30
0.0
 11
12.0
 21
-8.9
 31
0.0
  0
LINE
  5
28E
330
262
100
AcDbEntity
  8
250
  6
Continuous
 62
     5
370
    18
100
AcDbLine
 10
12.0
 20
-5.4
 30
0.0
 11
12.0
 21
-8.9
 31
0.0
  0
MTEXT
  5
28F
330
262
100
AcDbEntity
  8
41
  6
Continuous
 62
     2
370
    18
100
AcDbMText
 10
6.0
 20
-5.4
 30
0.0
 40
3.5
 41
0.0
 71
     5
 72
     5
  1
\W0.8511;FR
  7
iso_b_vert
 73
     2
 44
1.084337
1001
ACAD
1000
MTEXTBEGIN
1070
    73
1070
     2
1070
    44
1040
1.084337
1070
    74
1070
     0
1000
MTEXTEND
  0
LINE
  5
290
330
262
100
AcDbEntity
  8
250
  6
Continuous
 62
     5
370
    18
100
AcDbLine
 10
12.0
 20
-8.9
 30
0.0
 11
26.0
 21
-8.9
 31
0.0
  0
LINE
  5
291
330
262
100
AcDbEntity
  8
250
  6
Continuous
 62
     5
370
    18
100
AcDbLine
 10
26.0
 20
-5.4
 30
0.0
 11
26.0
 21
-8.9
 31
0.0
  0
MTEXT
  5
292
330
262
100
AcDbEntity
  8
41
  6
Continuous
 62
     2
370
    18
100
AcDbMText
 10
12.575
 20
-7.15
 30
0.0
 40
1.0
 41
0.0
 71
     4
 72
     5
  1
\W0.8716;APPROVED
  7
iso_b_vert
 73
     2
 44
1.084337
1001
ACAD
1000
MTEXTBEGIN
1070
    73
1070
     2
1070
    44
1040
1.084337
1070
    74
1070
     0
1000
MTEXTEND
  0
LINE
  5
293
330
262
100
AcDbEntity
  8
250
  6
Continuous
 62
     5
370
    18
100
AcDbLine
 10
26.0
 20
-8.9
 30
0.0
 11
50.0
 21
-8.9
 31
0.0
  0
LINE
  5
294
330
262
100
AcDbEntity
  8
250
  6
Continuous
 62
     5
370
    18
100
AcDbLine
 10
50.0
 20
-5.4
 30
0.0
 11
50.0
 21
-8.9
 31
0.0
  0
MTEXT
  5
295
330
262
100
AcDbEntity
  8
41
  6
Continuous
 62
     2
370
    18
100
AcDbMText
 10
27.075
 20
-7.15
 30
0.0
 40
2.0
 41
0.0
 71
     4
 72
     5
  1
\W0.7112;2021-03-19
  7
iso_b_vert
 73
     2
 44
1.084337
1001
ACAD
1000
MTEXTBEGIN
1070
    73
1070
     2
1070
    44
1040
1.084337
1070
    74
1070
     0
1000
MTEXTEND
  0
LINE
  5
296
330
262
100
AcDbEntity
  8
250
  6
Continuous
 62
     5
370
    18
100
AcDbLine
 10
50.0
 20
-8.9
 30
0.0
 11
88.0
 21
-8.9
 31
0.0
  0
LINE
  5
297
330
262
100
AcDbEntity
  8
250
  6
Continuous
 62
     5
370
    18
100
AcDbLine
 10
88.0
 20
-5.4
 30
0.0
 11
88.0
 21
-8.9
 31
0.0
  0
MTEXT
  5
298
330
262
100
AcDbEntity
  8
41
  6
Continuous
 62
     2
370
    18
100
AcDbMText
 10
51.075
 20
-7.15
 30
0.0
 40
2.0
 41
0.0
 71
     4
 72
     5
  1
\W0.9012;T.Sebesta
  7
iso_b_vert
 73
     2
 44
1.084337
1001
ACAD
1000
MTEXTBEGIN
1070
    73
1070
     2
1070
    44
1040
1.084337
1070
    74
1070
     0
1000
MTEXTEND
  0
LINE
  5
299
330
262
100
AcDbEntity
  8
250
  6
Continuous
 62
     5
370
    18
100
AcDbLine
 10
88.0
 20
-8.9
 30
0.0
 11
112.0
 21
-8.9
 31
0.0
  0
LINE
  5
29A
330
262
100
AcDbEntity
  8
250
  6
Continuous
 62
     5
370
    18
100
AcDbLine
 10
112.0
 20
-5.4
 30
0.0
 11
112.0
 21
-8.9
 31
0.0
  0
MTEXT
  5
29B
330
262
100
AcDbEntity
  8
41
  6
Continuous
 62
     2
370
    18
100
AcDbMText
 10
89.075
 20
-7.15
 30
0.0
 40
2.0
 41
0.0
 71
     4
 72
     5
  1
\W0.7837;PI2597
  7
iso_b_vert
 73
     2
 44
1.084337
1001
ACAD
1000
MTEXTBEGIN
1070
    73
1070
     2
1070
    44
1040
1.084337
1070
    74
1070
     0
1000
MTEXTEND
  0
LINE
  5
29C
330
262
100
AcDbEntity
  8
250
  6
Continuous
 62
     5
370
    18
100
AcDbLine
 10
112.0
 20
-8.9
 30
0.0
 11
124.0
 21
-8.9
 31
0.0
  0
LINE
  5
29D
330
262
100
AcDbEntity
  8
250
  6
Continuous
 62
     5
370
    18
100
AcDbLine
 10
124.0
 20
-5.4
 30
0.0
 11
124.0
 21
-8.9
 31
0.0
  0
MTEXT
  5
29E
330
262
100
AcDbEntity
  8
41
  6
Continuous
 62
     2
370
    18
100
AcDbMText
 10
118.0
 20
-5.4
 30
0.0
 40
3.5
 41
0.0
 71
     5
 72
     5
  1
\W0.6016;1:1
  7
iso_b_vert
 73
     2
 44
1.084337
1001
ACAD
1000
MTEXTBEGIN
1070
    73
1070
     2
1070
    44
1040
1.084337
1070
    74
1070
     0
1000
MTEXTEND
  0
LINE
  5
29F
330
262
100
AcDbEntity
  8
250
  6
Continuous
 62
     5
370
    18
100
AcDbLine
 10
124.0
 20
-8.9
 30
0.0
 11
180.0
 21
-8.9
 31
0.0
  0
LINE
  5
2A0
330
262
100
AcDbEntity
  8
250
  6
Continuous
 62
     5
370
    18
100
AcDbLine
 10
180.0
 20
-5.4
 30
0.0
 11
180.0
 21
-8.9
 31
0.0
  0
ENDBLK
  5
2A3
330
262
100
AcDbEntity
  8
0
100
AcDbBlockEnd
  0
BLOCK
  5
2D2
330
2A4
100
AcDbEntity
  8
0
100
AcDbBlockBegin
  2
TabularNote3
 70
     0
 10
0.0
 20
0.0
 30
0.0
  3
TabularNote3
  1

  0
LINE
  5
2A5
330
2A4
100
AcDbEntity
  8
250
  6
Continuous
 62
     5
370
    18
100
AcDbLine
 10
0.0
 20
0.0
 30
0.0
 11
10.0
 21
0.0
 31
0.0
  0
LINE
  5
2A6
330
2A4
100
AcDbEntity
  8
250
  6
Continuous
 62
     5
370
    18
100
AcDbLine
 10
0.0
 20
0.0
 30
0.0
 11
0.0
 21
-1.9
 31
0.0
  0
LINE
  5
2A7
330
2A4
100
AcDbEntity
  8
250
  6
Continuous
 62
     5
370
    18
100
AcDbLine
 10
10.0
 20
0.0
 30
0.0
 11
10.0
 21
-1.9
 31
0.0
  0
MTEXT
  5
2A8
330
2A4
100
AcDbEntity
  8
41
  6
Continuous
 62
     2
370
    18
100
AcDbMText
 10
0.575
 20
-0.95
 30
0.0
 40
1.0
 41
0.0
 71
     4
 72
     5
  1
\W0.8569;FORMAT
  7
iso_b_vert
 73
     2
 44
1.084337
1001
ACAD
1000
MTEXTBEGIN
1070
    73
1070
     2
1070
    44
1040
1.084337
1070
    74
1070
     0
1000
MTEXTEND
  0
LINE
  5
2A9
330
2A4
100
AcDbEntity
  8
250
  6
Continuous
 62
     5
370
    18
100
AcDbLine
 10
10.0
 20
0.0
 30
0.0
 11
33.0
 21
0.0
 31
0.0
  0
LINE
  5
2AA
330
2A4
100
AcDbEntity
  8
250
  6
Continuous
 62
     5
370
    18
100
AcDbLine
 10
33.0
 20
0.0
 30
0.0
 11
33.0
 21
-1.9
 31
0.0
  0
LINE
  5
2AB
330
2A4
100
AcDbEntity
  8
250
  6
Continuous
 62
     5
370
    18
100
AcDbLine
 10
33.0
 20
0.0
 30
0.0
 11
94.0
 21
0.0
 31
0.0
  0
LINE
  5
2AC
330
2A4
100
AcDbEntity
  8
250
  6
Continuous
 62
     5
370
    18
100
AcDbLine
 10
94.0
 20
0.0
 30
0.0
 11
94.0
 21
-1.9
 31
0.0
  0
MTEXT
  5
2AD
330
2A4
100
AcDbEntity
  8
41
  6
Continuous
 62
     2
370
    18
100
AcDbMText
 10
33.575
 20
-0.95
 30
0.0
 40
1.0
 41
0.0
 71
     4
 72
     5
  1
\W0.8199;SUB-KIND DESCRIPTION
  7
iso_b_vert
 73
     2
 44
1.084337
1001
ACAD
1000
MTEXTBEGIN
1070
    73
1070
     2
1070
    44
1040
1.084337
1070
    74
1070
     0
1000
MTEXTEND
  0
LINE
  5
2AE
330
2A4
100
AcDbEntity
  8
250
  6
Continuous
 62
     5
370
    18
100
AcDbLine
 10
94.0
 20
0.0
 30
0.0
 11
116.0
 21
0.0
 31
0.0
  0
LINE
  5
2AF
330
2A4
100
AcDbEntity
  8
250
  6
Continuous
 62
     5
370
    18
100
AcDbLine
 10
116.0
 20
0.0
 30
0.0
 11
116.0
 21
-1.9
 31
0.0
  0
MTEXT
  5
2B0
330
2A4
100
AcDbEntity
  8
41
  6
Continuous
 62
     2
370
    18
100
AcDbMText
 10
94.57500000000001
 20
-0.95
 30
0.0
 40
1.0
 41
0.0
 71
     4
 72
     5
  1
\W0.8011;SUB-KIND
  7
iso_b_vert
 73
     2
 44
1.084337
1001
ACAD
1000
MTEXTBEGIN
1070
    73
1070
     2
1070
    44
1040
1.084337
1070
    74
1070
     0
1000
MTEXTEND
  0
LINE
  5
2B1
330
2A4
100
AcDbEntity
  8
250
  6
Continuous
 62
     5
370
    18
100
AcDbLine
 10
116.0
 20
0.0
 30
0.0
 11
148.0
 21
0.0
 31
0.0
  0
LINE
  5
2B2
330
2A4
100
AcDbEntity
  8
250
  6
Continuous
 62
     5
370
    18
100
AcDbLine
 10
148.0
 20
0.0
 30
0.0
 11
148.0
 21
-1.9
 31
0.0
  0
MTEXT
  5
2B3
330
2A4
100
AcDbEntity
  8
41
  6
Continuous
 62
     2
370
    18
100
AcDbMText
 10
116.575
 20
-0.95
 30
0.0
 40
1.0
 41
0.0
 71
     4
 72
     5
  1
\W0.8484;DRAWING NUMBER
  7
iso_b_vert
 73
     2
 44
1.084337
1001
ACAD
1000
MTEXTBEGIN
1070
    73
1070
     2
1070
    44
1040
1.084337
1070
    74
1070
     0
1000
MTEXTEND
  0
LINE
  5
2B4
330
2A4
100
AcDbEntity
  8
250
  6
Continuous
 62
     5
370
    18
100
AcDbLine
 10
148.0
 20
0.0
 30
0.0
 11
159.0
 21
0.0
 31
0.0
  0
LINE
  5
2B5
330
2A4
100
AcDbEntity
  8
250
  6
Continuous
 62
     5
370
    18
100
AcDbLine
 10
159.0
 20
0.0
 30
0.0
 11
159.0
 21
-1.9
 31
0.0
  0
LINE
  5
2B6
330
2A4
100
AcDbEntity
  8
250
  6
Continuous
 62
     5
370
    18
100
AcDbLine
 10
159.0
 20
0.0
 30
0.0
 11
170.0
 21
0.0
 31
0.0
  0
LINE
  5
2B7
330
2A4
100
AcDbEntity
  8
250
  6
Continuous
 62
     5
370
    18
100
AcDbLine
 10
170.0
 20
0.0
 30
0.0
 11
170.0
 21
-1.9
 31
0.0
  0
LINE
  5
2B8
330
2A4
100
AcDbEntity
  8
250
  6
Continuous
 62
     5
370
    18
100
AcDbLine
 10
170.0
 20
0.0
 30
0.0
 11
180.0
 21
0.0
 31
0.0
  0
LINE
  5
2B9
330
2A4
100
AcDbEntity
  8
250
  6
Continuous
 62
     5
370
    18
100
AcDbLine
 10
180.0
 20
0.0
 30
0.0
 11
180.0
 21
-1.9
 31
0.0
  0
MTEXT
  5
2BA
330
2A4
100
AcDbEntity
  8
41
  6
Continuous
 62
     2
370
    18
100
AcDbMText
 10
170.575
 20
-0.95
 30
0.0
 40
1.0
 41
0.0
 71
     4
 72
     5
  1
\W0.8706;VERSION
  7
iso_b_vert
 73
     2
 44
1.084337
1001
ACAD
1000
MTEXTBEGIN
1070
    73
1070
     2
1070
    44
1040
1.084337
1070
    74
1070
     0
1000
MTEXTEND
  0
LINE
  5
2BB
330
2A4
100
AcDbEntity
  8
250
  6
Continuous
 62
     5
370
    18
100
AcDbLine
 10
0.0
 20
-1.9
 30
0.0
 11
0.0
 21
-8.9
 31
0.0
  0
LINE
  5
2BC
330
2A4
100
AcDbEntity
  8
250
  6
Continuous
 62
     5
370
    18
100
AcDbLine
 10
10.0
 20
-1.9
 30
0.0
 11
10.0
 21
-8.9
 31
0.0
  0
LINE
  5
2BD
330
2A4
100
AcDbEntity
  8
250
  6
Continuous
 62
     5
370
    18
100
AcDbLine
 10
0.0
 20
-8.9
 30
0.0
 11
10.0
 21
-8.9
 31
0.0
  0
MTEXT
  5
2BE
330
2A4
100
AcDbEntity
  8
41
  6
Continuous
 62
     2
370
    18
100
AcDbMText
 10
1.825
 20
-5.4
 30
0.0
 40
3.5
 41
0.0
 71
     4
 72
     5
  1
\W0.8203;A3
  7
iso_b_vert
 73
     2
 44
1.084337
1001
ACAD
1000
MTEXTBEGIN
1070
    73
1070
     2
1070
    44
1040
1.084337
1070
    74
1070
     0
1000
MTEXTEND
  0
LINE
  5
2BF
330
2A4
100
AcDbEntity
  8
250
  6
Continuous
 62
     5
370
    18
100
AcDbLine
 10
33.0
 20
-1.9
 30
0.0
 11
33.0
 21
-8.9
 31
0.0
  0
LINE
  5
2C0
330
2A4
100
AcDbEntity
  8
250
  6
Continuous
 62
     5
370
    18
100
AcDbLine
 10
10.0
 20
-8.9
 30
0.0
 11
33.0
 21
-8.9
 31
0.0
  0
LINE
  5
2C1
330
2A4
100
AcDbEntity
  8
250
  6
Continuous
 62
     5
370
    18
100
AcDbLine
 10
94.0
 20
-1.9
 30
0.0
 11
94.0
 21
-8.9
 31
0.0
  0
LINE
  5
2C2
330
2A4
100
AcDbEntity
  8
250
  6
Continuous
 62
     5
370
    18
100
AcDbLine
 10
33.0
 20
-8.9
 30
0.0
 11
94.0
 21
-8.9
 31
0.0
  0
MTEXT
  5
2C3
330
2A4
100
AcDbEntity
  8
41
  6
Continuous
 62
     2
370
    18
100
AcDbMText
 10
34.825
 20
-5.4
 30
0.0
 40
3.5
 41
0.0
 71
     4
 72
     5
  1
\W0.8564;Assembling Directives
  7
iso_b_vert
 73
     2
 44
1.084337
1001
ACAD
1000
MTEXTBEGIN
1070
    73
1070
     2
1070
    44
1040
1.084337
1070
    74
1070
     0
1000
MTEXTEND
  0
LINE
  5
2C4
330
2A4
100
AcDbEntity
  8
250
  6
Continuous
 62
     5
370
    18
100
AcDbLine
 10
116.0
 20
-1.9
 30
0.0
 11
116.0
 21
-8.9
 31
0.0
  0
LINE
  5
2C5
330
2A4
100
AcDbEntity
  8
250
  6
Continuous
 62
     5
370
    18
100
AcDbLine
 10
94.0
 20
-8.9
 30
0.0
 11
116.0
 21
-8.9
 31
0.0
  0
MTEXT
  5
2C6
330
2A4
100
AcDbEntity
  8
41
  6
Continuous
 62
     2
370
    18
100
AcDbMText
 10
95.82500000000001
 20
-5.4
 30
0.0
 40
3.5
 41
0.0
 71
     4
 72
     5
  1
\W0.7880;TB07_00
  7
iso_b_vert
 73
     2
 44
1.084337
1001
ACAD
1000
MTEXTBEGIN
1070
    73
1070
     2
1070
    44
1040
1.084337
1070
    74
1070
     0
1000
MTEXTEND
  0
LINE
  5
2C7
330
2A4
100
AcDbEntity
  8
250
  6
Continuous
 62
     5
370
    18
100
AcDbLine
 10
116.0
 20
-8.9
 30
0.0
 11
148.0
 21
-8.9
 31
0.0
  0
MTEXT
  5
2C8
330
2A4
100
AcDbEntity
  8
41
  6
Continuous
 62
     2
370
    18
100
AcDbMText
 10
146.25
 20
-5.4
 30
0.0
 40
3.5
 41
0.0
 71
     6
 72
     5
  1
\W0.7864;203439555
  7
iso_b_vert
 73
     2
 44
1.084337
1001
ACAD
1000
MTEXTBEGIN
1070
    73
1070
     2
1070
    44
1040
1.084337
1070
    74
1070
     0
1000
MTEXTEND
  0
LINE
  5
2C9
330
2A4
100
AcDbEntity
  8
250
  6
Continuous
 62
     5
370
    18
100
AcDbLine
 10
148.0
 20
-8.9
 30
0.0
 11
159.0
 21
-8.9
 31
0.0
  0
MTEXT
  5
2CA
330
2A4
100
AcDbEntity
  8
41
  6
Continuous
 62
     2
370
    18
100
AcDbMText
 10
149.748828
 20
-5.4
 30
0.0
 40
3.5
 41
0.0
 71
     4
 72
     5
  1
\W0.7517;D20
  7
iso_b_vert
 73
     2
 44
1.084337
1001
ACAD
1000
MTEXTBEGIN
1070
    73
1070
     2
1070
    44
1040
1.084337
1070
    74
1070
     0
1000
MTEXTEND
  0
LINE
  5
2CB
330
2A4
100
AcDbEntity
  8
250
  6
Continuous
 62
     5
370
    18
100
AcDbLine
 10
170.0
 20
-1.9
 30
0.0
 11
170.0
 21
-8.9
 31
0.0
  0
LINE
  5
2CC
330
2A4
100
AcDbEntity
  8
250
  6
Continuous
 62
     5
370
    18
100
AcDbLine
 10
159.0
 20
-8.9
 30
0.0
 11
170.0
 21
-8.9
 31
0.0
  0
MTEXT
  5
2CD
330
2A4
100
AcDbEntity
  8
41
  6
Continuous
 62
     2
370
    18
100
AcDbMText
 10
160.825
 20
-5.4
 30
0.0
 40
3.5
 41
0.0
 71
     4
 72
     5
  1
\W0.7535;002
  7
iso_b_vert
 73
     2
 44
1.084337
1001
ACAD
1000
MTEXTBEGIN
1070
    73
1070
     2
1070
    44
1040
1.084337
1070
    74
1070
     0
1000
MTEXTEND
  0
LINE
  5
2CE
330
2A4
100
AcDbEntity
  8
250
  6
Continuous
 62
     5
370
    18
100
AcDbLine
 10
180.0
 20
-1.9
 30
0.0
 11
180.0
 21
-8.9
 31
0.0
  0
LINE
  5
2CF
330
2A4
100
AcDbEntity
  8
250
  6
Continuous
 62
     5
370
    18
100
AcDbLine
 10
170.0
 20
-8.9
 30
0.0
 11
180.0
 21
-8.9
 31
0.0
  0
MTEXT
  5
2D0
330
2A4
100
AcDbEntity
  8
41
  6
Continuous
 62
     2
370
    18
100
AcDbMText
 10
171.825
 20
-5.4
 30
0.0
 40
3.5
 41
0.0
 71
     4
 72
     5
  1
\W0.7335;00
  7
iso_b_vert
 73
     2
 44
1.084337
1001
ACAD
1000
MTEXTBEGIN
1070
    73
1070
     2
1070
    44
1040
1.084337
1070
    74
1070
     0
1000
MTEXTEND
  0
ENDBLK
  5
2D3
330
2A4
100
AcDbEntity
  8
0
100
AcDbBlockEnd
  0
BLOCK
  5
314
330
2D4
100
AcDbEntity
  8
0
100
AcDbBlockBegin
  2
TOL_TABLE
 70
     0
 10
0.0
 20
0.0
 30
0.0
  3
TOL_TABLE
  1

  0
LINE
  5
2D5
330
2D4
100
AcDbEntity
  8
250
  6
Continuous
 62
     5
370
    18
100
AcDbLine
 10
-65.22
 20
44.43999999999999
 30
0.0
 11
-53.22
 21
44.43999999999999
 31
0.0
  0
LINE
  5
2D6
330
2D4
100
AcDbEntity
  8
250
  6
Continuous
 62
     5
370
    18
100
AcDbLine
 10
-65.22
 20
44.43999999999999
 30
0.0
 11
-65.22
 21
36.97
 31
0.0
  0
LINE
  5
2D7
330
2D4
100
AcDbEntity
  8
250
  6
Continuous
 62
     5
370
    18
100
AcDbLine
 10
-65.22
 20
36.97
 30
0.0
 11
-53.22
 21
36.97
 31
0.0
  0
LINE
  5
2D8
330
2D4
100
AcDbEntity
  8
250
  6
Continuous
 62
     5
370
    18
100
AcDbLine
 10
-53.22
 20
44.43999999999999
 30
0.0
 11
-50.22
 21
44.43999999999999
 31
0.0
  0
LINE
  5
2D9
330
2D4
100
AcDbEntity
  8
250
  6
Continuous
 62
     5
370
    18
100
AcDbLine
 10
-53.22
 20
36.97
 30
0.0
 11
-50.22
 21
36.97
 31
0.0
  0
LINE
  5
2DA
330
2D4
100
AcDbEntity
  8
250
  6
Continuous
 62
     5
370
    18
100
AcDbLine
 10
-50.22
 20
44.43999999999999
 30
0.0
 11
-40.22
 21
44.43999999999999
 31
0.0
  0
LINE
  5
2DB
330
2D4
100
AcDbEntity
  8
250
  6
Continuous
 62
     5
370
    18
100
AcDbLine
 10
-50.22
 20
36.97
 30
0.0
 11
-40.22
 21
36.97
 31
0.0
  0
LINE
  5
2DC
330
2D4
100
AcDbEntity
  8
250
  6
Continuous
 62
     5
370
    18
100
AcDbLine
 10
-40.22
 20
44.43999999999999
 30
0.0
 11
-30.22
 21
44.43999999999999
 31
0.0
  0
LINE
  5
2DD
330
2D4
100
AcDbEntity
  8
250
  6
Continuous
 62
     5
370
    18
100
AcDbLine
 10
-40.22
 20
36.97
 30
0.0
 11
-30.22
 21
36.97
 31
0.0
  0
MTEXT
  5
2DE
330
2D4
100
AcDbEntity
  8
41
  6
Continuous
 62
     2
370
    18
100
AcDbMText
 10
-64.19499999999999
 20
40.705
 30
0.0
 40
2.0
 41
0.0
 71
     4
 72
     5
  1
\W1.3303;Tolerance systems acc. to ISO\PSurface roughness Ra {\fArial Unicode MS;µ}m
  7
blockfont
 73
     1
 44
0.9036139999999999
1001
ACAD
1000
MTEXTBEGIN
1070
    73
1070
     1
1070
    44
1040
0.9036139999999999
1070
    74
1070
     0
1000
MTEXTEND
  0
LINE
  5
2DF
330
2D4
100
AcDbEntity
  8
250
  6
Continuous
 62
     5
370
    18
100
AcDbLine
 10
-30.22
 20
44.43999999999999
 30
0.0
 11
-21.22
 21
44.43999999999999
 31
0.0
  0
LINE
  5
2E0
330
2D4
100
AcDbEntity
  8
250
  6
Continuous
 62
     5
370
    18
100
AcDbLine
 10
-30.22
 20
36.97
 30
0.0
 11
-21.22
 21
36.97
 31
0.0
  0
LINE
  5
2E1
330
2D4
100
AcDbEntity
  8
250
  6
Continuous
 62
     5
370
    18
100
AcDbLine
 10
-21.22
 20
44.43999999999999
 30
0.0
 11
-18.22
 21
44.43999999999999
 31
0.0
  0
LINE
  5
2E2
330
2D4
100
AcDbEntity
  8
250
  6
Continuous
 62
     5
370
    18
100
AcDbLine
 10
-21.22
 20
36.97
 30
0.0
 11
-18.22
 21
36.97
 31
0.0
  0
LINE
  5
2E3
330
2D4
100
AcDbEntity
  8
250
  6
Continuous
 62
     5
370
    18
100
AcDbLine
 10
-18.22
 20
44.43999999999999
 30
0.0
 11
-10.22
 21
44.43999999999999
 31
0.0
  0
LINE
  5
2E4
330
2D4
100
AcDbEntity
  8
250
  6
Continuous
 62
     5
370
    18
100
AcDbLine
 10
-18.22
 20
36.97
 30
0.0
 11
-10.22
 21
36.97
 31
0.0
  0
LINE
  5
2E5
330
2D4
100
AcDbEntity
  8
250
  6
Continuous
 62
     5
370
    18
100
AcDbLine
 10
-10.22
 20
44.43999999999999
 30
0.0
 11
0.0
 21
44.43999999999999
 31
0.0
  0
LINE
  5
2E6
330
2D4
100
AcDbEntity
  8
250
  6
Continuous
 62
     5
370
    18
100
AcDbLine
 10
-10.22
 20
36.97
 30
0.0
 11
0.0
 21
36.97
 31
0.0
  0
LINE
  5
2E7
330
2D4
100
AcDbEntity
  8
250
  6
Continuous
 62
     5
370
    18
100
AcDbLine
 10
0.0
 20
44.43999999999999
 30
0.0
 11
0.0
 21
36.97
 31
0.0
  0
LINE
  5
2E8
330
2D4
100
AcDbEntity
  8
250
  6
Continuous
 62
     5
370
    18
100
AcDbLine
 10
-65.22
 20
36.97
 30
0.0
 11
-65.22
 21
23.55
 31
0.0
  0
LINE
  5
2E9
330
2D4
100
AcDbEntity
  8
250
  6
Continuous
 62
     5
370
    18
100
AcDbLine
 10
-65.22
 20
23.55
 30
0.0
 11
-53.22
 21
23.55
 31
0.0
  0
LINE
  5
2EA
330
2D4
100
AcDbEntity
  8
250
  6
Continuous
 62
     5
370
    18
100
AcDbLine
 10
-53.22
 20
23.55
 30
0.0
 11
-50.22
 21
23.55
 31
0.0
  0
LINE
  5
2EB
330
2D4
100
AcDbEntity
  8
250
  6
Continuous
 62
     5
370
    18
100
AcDbLine
 10
-50.22
 20
23.55
 30
0.0
 11
-40.22
 21
23.55
 31
0.0
  0
LINE
  5
2EC
330
2D4
100
AcDbEntity
  8
250
  6
Continuous
 62
     5
370
    18
100
AcDbLine
 10
-40.22
 20
23.55
 30
0.0
 11
-30.22
 21
23.55
 31
0.0
  0
MTEXT
  5
2ED
330
2D4
100
AcDbEntity
  8
41
  6
Continuous
 62
     2
370
    18
100
AcDbMText
 10
-64.19499999999999
 20
30.26
 30
0.0
 40
2.0
 41
0.0
 71
     4
 72
     5
  1
\W1.3679;Where tolerance not stated:\PThreads: ISO 965/2\PDimensions: ISO 2768-1 Medium\P\Q20.000000;* = Company standard\Q0;
  7
blockfont
 73
     1
 44
0.9036139999999999
1001
ACAD
1000
MTEXTBEGIN
1070
    73
1070
     1
1070
    44
1040
0.9036139999999999
1070
    74
1070
     0
1000
MTEXTEND
  0
LINE
  5
2EE
330
2D4
100
AcDbEntity
  8
250
  6
Continuous
 62
     5
370
    18
100
AcDbLine
 10
-30.22
 20
23.55
 30
0.0
 11
-21.22
 21
23.55
 31
0.0
  0
LINE
  5
2EF
330
2D4
100
AcDbEntity
  8
250
  6
Continuous
 62
     5
370
    18
100
AcDbLine
 10
-21.22
 20
23.55
 30
0.0
 11
-18.22
 21
23.55
 31
0.0
  0
LINE
  5
2F0
330
2D4
100
AcDbEntity
  8
250
  6
Continuous
 62
     5
370
    18
100
AcDbLine
 10
-18.22
 20
23.55
 30
0.0
 11
-10.22
 21
23.55
 31
0.0
  0
LINE
  5
2F1
330
2D4
100
AcDbEntity
  8
250
  6
Continuous
 62
     5
370
    18
100
AcDbLine
 10
-10.22
 20
23.55
 30
0.0
 11
0.0
 21
23.55
 31
0.0
  0
LINE
  5
2F2
330
2D4
100
AcDbEntity
  8
250
  6
Continuous
 62
     5
370
    18
100
AcDbLine
 10
0.0
 20
36.97
 30
0.0
 11
0.0
 21
23.55
 31
0.0
  0
LINE
  5
2F3
330
2D4
100
AcDbEntity
  8
250
  6
Continuous
 62
     5
370
    18
100
AcDbLine
 10
-65.22
 20
23.55
 30
0.0
 11
-65.22
 21
18.55
 31
0.0
  0
MTEXT
  5
2F4
330
2D4
100
AcDbEntity
  8
41
  6
Continuous
 62
     2
370
    18
100
AcDbMText
 10
-64.19499999999999
 20
21.050001
 30
0.0
 40
2.0
 41
0.0
 71
     4
 72
     5
  1
\W1.3318;Dimensions
  7
blockfont
 73
     2
 44
0.9036139999999999
1001
ACAD
1000
MTEXTBEGIN
1070
    73
1070
     2
1070
    44
1040
0.9036139999999999
1070
    74
1070
     0
1000
MTEXTEND
  0
LINE
  5
2F5
330
2D4
100
AcDbEntity
  8
250
  6
Continuous
 62
     5
370
    18
100
AcDbLine
 10
-40.22
 20
23.55
 30
0.0
 11
-40.22
 21
18.55
 31
0.0
  0
LINE
  5
2F6
330
2D4
100
AcDbEntity
  8
250
  6
Continuous
 62
     5
370
    18
100
AcDbLine
 10
-30.22
 20
23.55
 30
0.0
 11
-30.22
 21
18.55
 31
0.0
  0
MTEXT
  5
2F7
330
2D4
100
AcDbEntity
  8
41
  6
Continuous
 62
     2
370
    18
100
AcDbMText
 10
-39.247101
 20
21.050001
 30
0.0
 40
2.0
 41
0.0
 71
     4
 72
     5
  1
\W1.8082;Tol.
  7
blockfont
 73
     2
 44
0.9036139999999999
1001
ACAD
1000
MTEXTBEGIN
1070
    73
1070
     2
1070
    44
1040
0.9036139999999999
1070
    74
1070
     0
1000
MTEXTEND
  0
MTEXT
  5
2F8
330
2D4
100
AcDbEntity
  8
41
  6
Continuous
 62
     2
370
    18
100
AcDbMText
 10
-29.195
 20
21.050001
 30
0.0
 40
2.0
 41
0.0
 71
     4
 72
     5
  1
\W1.4027;Angle
  7
blockfont
 73
     2
 44
0.9036139999999999
1001
ACAD
1000
MTEXTBEGIN
1070
    73
1070
     2
1070
    44
1040
0.9036139999999999
1070
    74
1070
     0
1000
MTEXTEND
  0
LINE
  5
2F9
330
2D4
100
AcDbEntity
  8
250
  6
Continuous
 62
     5
370
    18
100
AcDbLine
 10
-10.22
 20
23.55
 30
0.0
 11
-10.22
 21
18.55
 31
0.0
  0
LINE
  5
2FA
330
2D4
100
AcDbEntity
  8
250
  6
Continuous
 62
     5
370
    18
100
AcDbLine
 10
0.0
 20
23.55
 30
0.0
 11
0.0
 21
18.55
 31
0.0
  0
MTEXT
  5
2FB
330
2D4
100
AcDbEntity
  8
41
  6
Continuous
 62
     2
370
    18
100
AcDbMText
 10
-9.224914999999999
 20
21.050001
 30
0.0
 40
2.0
 41
0.0
 71
     4
 72
     5
  1
\W1.8431;Tol.
  7
blockfont
 73
     2
 44
0.9036139999999999
1001
ACAD
1000
MTEXTBEGIN
1070
    73
1070
     2
1070
    44
1040
0.9036139999999999
1070
    74
1070
     0
1000
MTEXTEND
  0
LINE
  5
2FC
330
2D4
100
AcDbEntity
  8
250
  6
Continuous
 62
     5
370
    18
100
AcDbLine
 10
-65.22
 20
18.55
 30
0.0
 11
-65.22
 21
11.55
 31
0.0
  0
LINE
  5
2FD
330
2D4
100
AcDbEntity
  8
250
  6
Continuous
 62
     5
370
    18
100
AcDbLine
 10
-30.22
 20
18.55
 30
0.0
 11
-30.22
 21
11.55
 31
0.0
  0
MTEXT
  5
2FE
330
2D4
100
AcDbEntity
  8
41
  6
Continuous
 62
     2
370
    18
100
AcDbMText
 10
-29.482174
 20
15.050001
 30
0.0
 40
2.0
 41
0.0
 71
     4
 72
     5
  1
\W1.0175;(Shortest adjacent\Pside in mm)
  7
blockfont
 73
     1
 44
0.9036139999999999
1001
ACAD
1000
MTEXTBEGIN
1070
    73
1070
     1
1070
    44
1040
0.9036139999999999
1070
    74
1070
     0
1000
MTEXTEND
  0
LINE
  5
2FF
330
2D4
100
AcDbEntity
  8
250
  6
Continuous
 62
     5
370
    18
100
AcDbLine
 10
0.0
 20
18.55
 30
0.0
 11
0.0
 21
11.55
 31
0.0
  0
LINE
  5
300
330
2D4
100
AcDbEntity
  8
250
  6
Continuous
 62
     5
370
    18
100
AcDbLine
 10
-65.22
 20
11.55
 30
0.0
 11
-65.22
 21
0.0
 31
0.0
  0
LINE
  5
301
330
2D4
100
AcDbEntity
  8
250
  6
Continuous
 62
     5
370
    18
100
AcDbLine
 10
-65.22
 20
0.0
 30
0.0
 11
-53.22
 21
0.0
 31
0.0
  0
MTEXT
  5
302
330
2D4
100
AcDbEntity
  8
41
  6
Continuous
 62
     2
370
    18
100
AcDbMText
 10
-64.494869
 20
9.274999000000001
 30
0.0
 40
1.5
 41
0.0
 71
     4
 72
     5
  1
\W1.9399;\Q20.000000;* \Q0; \P\Q20.000000;* \Q0;(0.2)\P0.5\P(6)\P(30)\P(120)\P(400)
  7
blockfont
 73
     1
 44
0.9036139999999999
1001
ACAD
1000
MTEXTBEGIN
1070
    73
1070
     1
1070
    44
1040
0.9036139999999999
1070
    74
1070
     0
1000
MTEXTEND
  0
LINE
  5
303
330
2D4
100
AcDbEntity
  8
250
  6
Continuous
 62
     5
370
    18
100
AcDbLine
 10
-53.22
 20
0.0
 30
0.0
 11
-50.22
 21
0.0
 31
0.0
  0
MTEXT
  5
304
330
2D4
100
AcDbEntity
  8
41
  6
Continuous
 62
     2
370
    18
100
AcDbMText
 10
-52.445
 20
9.274999000000001
 30
0.0
 40
1.5
 41
0.0
 71
     4
 72
     5
  1
\W1.1484;-\P-\P-\P-\P-\P-
  7
blockfont
 73
     1
 44
0.9036139999999999
1001
ACAD
1000
MTEXTBEGIN
1070
    73
1070
     1
1070
    44
1040
0.9036139999999999
1070
    74
1070
     0
1000
MTEXTEND
  0
LINE
  5
305
330
2D4
100
AcDbEntity
  8
250
  6
Continuous
 62
     5
370
    18
100
AcDbLine
 10
-50.22
 20
0.0
 30
0.0
 11
-40.22
 21
0.0
 31
0.0
  0
MTEXT
  5
306
330
2D4
100
AcDbEntity
  8
41
  6
Continuous
 62
     2
370
    18
100
AcDbMText
 10
-49.445
 20
9.274999000000001
 30
0.0
 40
1.5
 41
0.0
 71
     4
 72
     5
  1
\W1.5064;0.2\P0.499\P6\P30\P120\P400\P1000
  7
blockfont
 73
     1
 44
0.9036139999999999
1001
ACAD
1000
MTEXTBEGIN
1070
    73
1070
     1
1070
    44
1040
0.9036139999999999
1070
    74
1070
     0
1000
MTEXTEND
  0
LINE
  5
307
330
2D4
100
AcDbEntity
  8
250
  6
Continuous
 62
     5
370
    18
100
AcDbLine
 10
-40.22
 20
0.0
 30
0.0
 11
-30.22
 21
0.0
 31
0.0
  0
LINE
  5
308
330
2D4
100
AcDbEntity
  8
250
  6
Continuous
 62
     5
370
    18
100
AcDbLine
 10
-30.22
 20
11.55
 30
0.0
 11
-30.22
 21
0.0
 31
0.0
  0
MTEXT
  5
309
330
2D4
100
AcDbEntity
  8
41
  6
Continuous
 62
     2
370
    18
100
AcDbMText
 10
-39.445
 20
9.274999000000001
 30
0.0
 40
1.5
 41
0.0
 71
     4
 72
     5
  1
\W1.2469;\W0.6234;%%p\W1.2469;0.05\P\W0.6234;%%p\W1.2469;0.10\P\W0.6234;%%p\W1.2469;0.10\P\W0.6234;%%p\W1.2469;0.20\P\W0.6234;%%p\W1.2469;0.30\P\W0.6234;%%p\W1.2469;0.50\P\W0.6234;%%p\W1.2469;0.80
  7
blockfont
 73
     1
 44
0.9036139999999999
1001
ACAD
1000
MTEXTBEGIN
1070
    73
1070
     1
1070
    44
1040
0.9036139999999999
1070
    74
1070
     0
1000
MTEXTEND
  0
LINE
  5
30A
330
2D4
100
AcDbEntity
  8
250
  6
Continuous
 62
     5
370
    18
100
AcDbLine
 10
-30.22
 20
0.0
 30
0.0
 11
-21.22
 21
0.0
 31
0.0
  0
MTEXT
  5
30B
330
2D4
100
AcDbEntity
  8
41
  6
Continuous
 62
     2
370
    18
100
AcDbMText
 10
-29.488869
 20
5.774999
 30
0.0
 40
1.5
 41
0.0
 71
     4
 72
     5
  1
\W1.0000;\P(10)\P(50)\P(120)
  7
blockfont
 73
     1
 44
0.9036139999999999
1001
ACAD
1000
MTEXTBEGIN
1070
    73
1070
     1
1070
    44
1040
0.9036139999999999
1070
    74
1070
     0
1000
MTEXTEND
  0
LINE
  5
30C
330
2D4
100
AcDbEntity
  8
250
  6
Continuous
 62
     5
370
    18
100
AcDbLine
 10
-21.22
 20
0.0
 30
0.0
 11
-18.22
 21
0.0
 31
0.0
  0
MTEXT
  5
30D
330
2D4
100
AcDbEntity
  8
41
  6
Continuous
 62
     2
370
    18
100
AcDbMText
 10
-20.445
 20
5.774999
 30
0.0
 40
1.5
 41
0.0
 71
     4
 72
     5
  1
\W1.1484;-\P-\P-\P-
  7
blockfont
 73
     1
 44
0.9036139999999999
1001
ACAD
1000
MTEXTBEGIN
1070
    73
1070
     1
1070
    44
1040
0.9036139999999999
1070
    74
1070
     0
1000
MTEXTEND
  0
LINE
  5
30E
330
2D4
100
AcDbEntity
  8
250
  6
Continuous
 62
     5
370
    18
100
AcDbLine
 10
-18.22
 20
0.0
 30
0.0
 11
-10.22
 21
0.0
 31
0.0
  0
MTEXT
  5
30F
330
2D4
100
AcDbEntity
  8
41
  6
Continuous
 62
     2
370
    18
100
AcDbMText
 10
-17.445
 20
5.774999
 30
0.0
 40
1.5
 41
0.0
 71
     4
 72
     5
  1
\W1.4547;10\P50\P120 \P -
  7
blockfont
 73
     1
 44
0.9036139999999999
1001
ACAD
1000
MTEXTBEGIN
1070
    73
1070
     1
1070
    44
1040
0.9036139999999999
1070
    74
1070
     0
1000
MTEXTEND
  0
LINE
  5
310
330
2D4
100
AcDbEntity
  8
250
  6
Continuous
 62
     5
370
    18
100
AcDbLine
 10
-10.22
 20
0.0
 30
0.0
 11
0.0
 21
0.0
 31
0.0
  0
LINE
  5
311
330
2D4
100
AcDbEntity
  8
250
  6
Continuous
 62
     5
370
    18
100
AcDbLine
 10
0.0
 20
11.55
 30
0.0
 11
0.0
 21
0.0
 31
0.0
  0
MTEXT
  5
312
330
2D4
100
AcDbEntity
  8
41
  6
Continuous
 62
     2
370
    18
100
AcDbMText
 10
-9.445
 20
5.774999
 30
0.0
 40
1.5
 41
0.0
 71
     4
 72
     5
  1
\W1.4480;\W0.7240;%%p\W1.4480;1%%d\P\W0.7240;%%p\W1.4480;30'\P\W0.7240;%%p\W1.4480;20'\P\W0.7240;%%p\W1.4480;10'
  7
blockfont
 73
     1
 44
0.9036139999999999
1001
ACAD
1000
MTEXTBEGIN
1070
    73
1070
     1
1070
    44
1040
0.9036139999999999
1070
    74
1070
     0
1000
MTEXTEND
  0
ENDBLK
  5
315
330
2D4
100
AcDbEntity
  8
0
100
AcDbBlockEnd
  0
BLOCK
  5
338
330
316
100
AcDbEntity
  8
0
100
AcDbBlockBegin
  2
MODIFICATION_TABLE
 70
     0
 10
0.0
 20
0.0
 30
0.0
  3
MODIFICATION_TABLE
  1

  0
LINE
  5
317
330
316
100
AcDbEntity
  8
250
  6
Continuous
 62
     5
370
    18
100
AcDbLine
 10
0.0
 20
14.35
 30
0.0
 11
5.08
 21
14.35
 31
0.0
  0
LINE
  5
318
330
316
100
AcDbEntity
  8
250
  6
Continuous
 62
     5
370
    18
100
AcDbLine
 10
0.0
 20
14.35
 30
0.0
 11
0.0
 21
6.349999999999999
 31
0.0
  0
LINE
  5
319
330
316
100
AcDbEntity
  8
250
  6
Continuous
 62
     5
370
    18
100
AcDbLine
 10
5.08
 20
14.35
 30
0.0
 11
5.08
 21
6.349999999999999
 31
0.0
  0
LINE
  5
31A
330
316
100
AcDbEntity
  8
250
  6
Continuous
 62
     5
370
    18
100
AcDbLine
 10
0.0
 20
6.349999999999999
 30
0.0
 11
5.08
 21
6.349999999999999
 31
0.0
  0
LINE
  5
31B
330
316
100
AcDbEntity
  8
250
  6
Continuous
 62
     5
370
    18
100
AcDbLine
 10
5.08
 20
14.35
 30
0.0
 11
15.24
 21
14.35
 31
0.0
  0
LINE
  5
31C
330
316
100
AcDbEntity
  8
250
  6
Continuous
 62
     5
370
    18
100
AcDbLine
 10
15.24
 20
14.35
 30
0.0
 11
15.24
 21
6.349999999999999
 31
0.0
  0
LINE
  5
31D
330
316
100
AcDbEntity
  8
250
  6
Continuous
 62
     5
370
    18
100
AcDbLine
 10
5.08
 20
6.349999999999999
 30
0.0
 11
15.24
 21
6.349999999999999
 31
0.0
  0
LINE
  5
31E
330
316
100
AcDbEntity
  8
250
  6
Continuous
 62
     5
370
    18
100
AcDbLine
 10
15.24
 20
14.35
 30
0.0
 11
97.00000199999999
 21
14.35
 31
0.0
  0
LINE
  5
31F
330
316
100
AcDbEntity
  8
250
  6
Continuous
 62
     5
370
    18
100
AcDbLine
 10
97.00000199999999
 20
14.35
 30
0.0
 11
97.00000199999999
 21
6.349999999999999
 31
0.0
  0
LINE
  5
320
330
316
100
AcDbEntity
  8
250
  6
Continuous
 62
     5
370
    18
100
AcDbLine
 10
15.24
 20
6.349999999999999
 30
0.0
 11
97.00000199999999
 21
6.349999999999999
 31
0.0
  0
LINE
  5
321
330
316
100
AcDbEntity
  8
250
  6
Continuous
 62
     5
370
    18
100
AcDbLine
 10
97.00000199999999
 20
14.35
 30
0.0
 11
114.780003
 21
14.35
 31
0.0
  0
LINE
  5
322
330
316
100
AcDbEntity
  8
250
  6
Continuous
 62
     5
370
    18
100
AcDbLine
 10
114.780003
 20
14.35
 30
0.0
 11
114.780003
 21
6.349999999999999
 31
0.0
  0
LINE
  5
323
330
316
100
AcDbEntity
  8
250
  6
Continuous
 62
     5
370
    18
100
AcDbLine
 10
97.00000199999999
 20
6.349999999999999
 30
0.0
 11
114.780003
 21
6.349999999999999
 31
0.0
  0
LINE
  5
324
330
316
100
AcDbEntity
  8
250
  6
Continuous
 62
     5
370
    18
100
AcDbLine
 10
114.780003
 20
14.35
 30
0.0
 11
144.780003
 21
14.35
 31
0.0
  0
LINE
  5
325
330
316
100
AcDbEntity
  8
250
  6
Continuous
 62
     5
370
    18
100
AcDbLine
 10
144.780003
 20
14.35
 30
0.0
 11
144.780003
 21
6.349999999999999
 31
0.0
  0
LINE
  5
326
330
316
100
AcDbEntity
  8
250
  6
Continuous
 62
     5
370
    18
100
AcDbLine
 10
114.780003
 20
6.349999999999999
 30
0.0
 11
144.780003
 21
6.349999999999999
 31
0.0
  0
LINE
  5
327
330
316
100
AcDbEntity
  8
250
  6
Continuous
 62
     5
370
    18
100
AcDbLine
 10
0.0
 20
6.349999999999999
 30
0.0
 11
0.0
 21
0.0
 31
0.0
  0
LINE
  5
328
330
316
100
AcDbEntity
  8
250
  6
Continuous
 62
     5
370
    18
100
AcDbLine
 10
5.08
 20
6.349999999999999
 30
0.0
 11
5.08
 21
0.0
 31
0.0
  0
LINE
  5
329
330
316
100
AcDbEntity
  8
250
  6
Continuous
 62
     5
370
    18
100
AcDbLine
 10
0.0
 20
0.0
 30
0.0
 11
5.08
 21
0.0
 31
0.0
  0
MTEXT
  5
32A
330
316
100
AcDbEntity
  8
41
  6
Continuous
 62
     2
370
    18
100
AcDbMText
 10
2.54
 20
3.174999999999999
 30
0.0
 40
1.0
 41
0.0
 71
     5
 72
     5
  1
\W0.9003;VERS.
  7
iso_b_vert
 73
     2
 44
1.084337
1001
ACAD
1000
MTEXTBEGIN
1070
    73
1070
     2
1070
    44
1040
1.084337
1070
    74
1070
     0
1000
MTEXTEND
  0
LINE
  5
32B
330
316
100
AcDbEntity
  8
250
  6
Continuous
 62
     5
370
    18
100
AcDbLine
 10
15.24
 20
6.349999999999999
 30
0.0
 11
15.24
 21
0.0
 31
0.0
  0
LINE
  5
32C
330
316
100
AcDbEntity
  8
250
  6
Continuous
 62
     5
370
    18
100
AcDbLine
 10
5.08
 20
0.0
 30
0.0
 11
15.24
 21
0.0
 31
0.0
  0
MTEXT
  5
32D
330
316
100
AcDbEntity
  8
41
  6
Continuous
 62
     2
370
    18
100
AcDbMText
 10
10.16
 20
3.174999999999999
 30
0.0
 40
1.0
 41
0.0
 71
     5
 72
     5
  1
\W0.8190;CHANGE\PNUMBER
  7
iso_b_vert
 73
     1
 44
1.084337
1001
ACAD
1000
MTEXTBEGIN
1070
    73
1070
     1
1070
    44
1040
1.084337
1070
    74
1070
     0
1000
MTEXTEND
  0
LINE
  5
32E
330
316
100
AcDbEntity
  8
250
  6
Continuous
 62
     5
370
    18
100
AcDbLine
 10
97.00000199999999
 20
6.349999999999999
 30
0.0
 11
97.00000199999999
 21
0.0
 31
0.0
  0
LINE
  5
32F
330
316
100
AcDbEntity
  8
250
  6
Continuous
 62
     5
370
    18
100
AcDbLine
 10
15.24
 20
0.0
 30
0.0
 11
97.00000199999999
 21
0.0
 31
0.0
  0
MTEXT
  5
330
330
316
100
AcDbEntity
  8
41
  6
Continuous
 62
     2
370
    18
100
AcDbMText
 10
56.120003
 20
3.174999999999999
 30
0.0
 40
1.0
 41
0.0
 71
     5
 72
     5
  1
\W0.8467;DESCRIPTION
  7
iso_b_vert
 73
     2
 44
1.084337
1001
ACAD
1000
MTEXTBEGIN
1070
    73
1070
     2
1070
    44
1040
1.084337
1070
    74
1070
     0
1000
MTEXTEND
  0
LINE
  5
331
330
316
100
AcDbEntity
  8
250
  6
Continuous
 62
     5
370
    18
100
AcDbLine
 10
114.780003
 20
6.349999999999999
 30
0.0
 11
114.780003
 21
0.0
 31
0.0
  0
LINE
  5
332
330
316
100
AcDbEntity
  8
250
  6
Continuous
 62
     5
370
    18
100
AcDbLine
 10
97.00000199999999
 20
0.0
 30
0.0
 11
114.780003
 21
0.0
 31
0.0
  0
MTEXT
  5
333
330
316
100
AcDbEntity
  8
41
  6
Continuous
 62
     2
370
    18
100
AcDbMText
 10
105.889999
 20
3.174999999999999
 30
0.0
 40
1.0
 41
0.0
 71
     5
 72
     5
  1
\W0.8824;DATE
  7
iso_b_vert
 73
     2
 44
1.084337
1001
ACAD
1000
MTEXTBEGIN
1070
    73
1070
     2
1070
    44
1040
1.084337
1070
    74
1070
     0
1000
MTEXTEND
  0
LINE
  5
334
330
316
100
AcDbEntity
  8
250
  6
Continuous
 62
     5
370
    18
100
AcDbLine
 10
144.780003
 20
6.349999999999999
 30
0.0
 11
144.780003
 21
0.0
 31
0.0
  0
LINE
  5
335
330
316
100
AcDbEntity
  8
250
  6
Continuous
 62
     5
370
    18
100
AcDbLine
 10
114.780003
 20
0.0
 30
0.0
 11
144.780003
 21
0.0
 31
0.0
  0
MTEXT
  5
336
330
316
100
AcDbEntity
  8
41
  6
Continuous
 62
     2
370
    18
100
AcDbMText
 10
129.779999
 20
3.174999999999999
 30
0.0
 40
1.0
 41
0.0
 71
     5
 72
     5
  1
\W0.8385;NAME
  7
iso_b_vert
 73
     2
 44
1.084337
1001
ACAD
1000
MTEXTBEGIN
1070
    73
1070
     2
1070
    44
1040
1.084337
1070
    74
1070
     0
1000
MTEXTEND
  0
ENDBLK
  5
339
330
316
100
AcDbEntity
  8
0
100
AcDbBlockEnd
  0
BLOCK
  5
389
330
33A
100
AcDbEntity
  8
0
100
AcDbBlockBegin
  2
BOM
 70
     0
 10
0.0
 20
0.0
 30
0.0
  3
BOM
  1

  0
LINE
  5
33B
330
33A
100
AcDbEntity
  8
250
  6
Continuous
 62
     5
370
    18
100
AcDbLine
 10
0.0
 20
36.233333
 30
0.0
 11
10.0
 21
36.233333
 31
0.0
  0
LINE
  5
33C
330
33A
100
AcDbEntity
  8
250
  6
Continuous
 62
     5
370
    18
100
AcDbLine
 10
0.0
 20
36.233333
 30
0.0
 11
0.0
 21
28.233333
 31
0.0
  0
LINE
  5
33D
330
33A
100
AcDbEntity
  8
250
  6
Continuous
 62
     5
370
    18
100
AcDbLine
 10
10.0
 20
36.233333
 30
0.0
 11
10.0
 21
28.233333
 31
0.0
  0
LINE
  5
33E
330
33A
100
AcDbEntity
  8
250
  6
Continuous
 62
     5
370
    18
100
AcDbLine
 10
0.0
 20
28.233333
 30
0.0
 11
10.0
 21
28.233333
 31
0.0
  0
MTEXT
  5
33F
330
33A
100
AcDbEntity
  8
41
  6
Continuous
 62
     2
370
    18
100
AcDbMText
 10
5.0
 20
32.233333
 30
0.0
 40
2.5
 41
0.0
 71
     5
 72
     5
  1
\W0.7656;4
  7
iso_b_vert
 73
     2
 44
0.8915659999999999
1001
ACAD
1000
MTEXTBEGIN
1070
    73
1070
     2
1070
    44
1040
0.8915659999999999
1070
    74
1070
     0
1000
MTEXTEND
  0
LINE
  5
340
330
33A
100
AcDbEntity
  8
250
  6
Continuous
 62
     5
370
    18
100
AcDbLine
 10
10.0
 20
36.233333
 30
0.0
 11
20.0
 21
36.233333
 31
0.0
  0
LINE
  5
341
330
33A
100
AcDbEntity
  8
250
  6
Continuous
 62
     5
370
    18
100
AcDbLine
 10
20.0
 20
36.233333
 30
0.0
 11
20.0
 21
28.233333
 31
0.0
  0
LINE
  5
342
330
33A
100
AcDbEntity
  8
250
  6
Continuous
 62
     5
370
    18
100
AcDbLine
 10
10.0
 20
28.233333
 30
0.0
 11
20.0
 21
28.233333
 31
0.0
  0
MTEXT
  5
343
330
33A
100
AcDbEntity
  8
41
  6
Continuous
 62
     2
370
    18
100
AcDbMText
 10
15.0
 20
32.233333
 30
0.0
 40
2.5
 41
0.0
 71
     5
 72
     5
  1
\W0.7875;1
  7
iso_b_vert
 73
     2
 44
0.8915659999999999
1001
ACAD
1000
MTEXTBEGIN
1070
    73
1070
     2
1070
    44
1040
0.8915659999999999
1070
    74
1070
     0
1000
MTEXTEND
  0
LINE
  5
344
330
33A
100
AcDbEntity
  8
250
  6
Continuous
 62
     5
370
    18
100
AcDbLine
 10
20.0
 20
36.233333
 30
0.0
 11
70.0
 21
36.233333
 31
0.0
  0
LINE
  5
345
330
33A
100
AcDbEntity
  8
250
  6
Continuous
 62
     5
370
    18
100
AcDbLine
 10
70.0
 20
36.233333
 30
0.0
 11
70.0
 21
28.233333
 31
0.0
  0
LINE
  5
346
330
33A
100
AcDbEntity
  8
250
  6
Continuous
 62
     5
370
    18
100
AcDbLine
 10
20.0
 20
28.233333
 30
0.0
 11
70.0
 21
28.233333
 31
0.0
  0
MTEXT
  5
347
330
33A
100
AcDbEntity
  8
41
  6
Continuous
 62
     2
370
    18
100
AcDbMText
 10
21.325
 20
32.233333
 30
0.0
 40
2.5
 41
0.0
 71
     4
 72
     5
  1
\W0.8755;SCREWDRIVER
  7
iso_b_vert
 73
     2
 44
0.8915659999999999
1001
ACAD
1000
MTEXTBEGIN
1070
    73
1070
     2
1070
    44
1040
0.8915659999999999
1070
    74
1070
     0
1000
MTEXTEND
  0
LINE
  5
348
330
33A
100
AcDbEntity
  8
250
  6
Continuous
 62
     5
370
    18
100
AcDbLine
 10
70.0
 20
36.233333
 30
0.0
 11
127.0
 21
36.233333
 31
0.0
  0
LINE
  5
349
330
33A
100
AcDbEntity
  8
250
  6
Continuous
 62
     5
370
    18
100
AcDbLine
 10
127.0
 20
36.233333
 30
0.0
 11
127.0
 21
28.233333
 31
0.0
  0
LINE
  5
34A
330
33A
100
AcDbEntity
  8
250
  6
Continuous
 62
     5
370
    18
100
AcDbLine
 10
70.0
 20
28.233333
 30
0.0
 11
127.0
 21
28.233333
 31
0.0
  0
LINE
  5
34B
330
33A
100
AcDbEntity
  8
250
  6
Continuous
 62
     5
370
    18
100
AcDbLine
 10
127.0
 20
36.233333
 30
0.0
 11
180.0
 21
36.233333
 31
0.0
  0
LINE
  5
34C
330
33A
100
AcDbEntity
  8
250
  6
Continuous
 62
     5
370
    18
100
AcDbLine
 10
180.0
 20
36.233333
 30
0.0
 11
180.0
 21
28.233333
 31
0.0
  0
LINE
  5
34D
330
33A
100
AcDbEntity
  8
250
  6
Continuous
 62
     5
370
    18
100
AcDbLine
 10
127.0
 20
28.233333
 30
0.0
 11
180.0
 21
28.233333
 31
0.0
  0
LINE
  5
34E
330
33A
100
AcDbEntity
  8
250
  6
Continuous
 62
     5
370
    18
100
AcDbLine
 10
0.0
 20
28.233333
 30
0.0
 11
0.0
 21
20.233333
 31
0.0
  0
LINE
  5
34F
330
33A
100
AcDbEntity
  8
250
  6
Continuous
 62
     5
370
    18
100
AcDbLine
 10
10.0
 20
28.233333
 30
0.0
 11
10.0
 21
20.233333
 31
0.0
  0
LINE
  5
350
330
33A
100
AcDbEntity
  8
250
  6
Continuous
 62
     5
370
    18
100
AcDbLine
 10
0.0
 20
20.233333
 30
0.0
 11
10.0
 21
20.233333
 31
0.0
  0
MTEXT
  5
351
330
33A
100
AcDbEntity
  8
41
  6
Continuous
 62
     2
370
    18
100
AcDbMText
 10
5.0
 20
24.233333
 30
0.0
 40
2.5
 41
0.0
 71
     5
 72
     5
  1
\W0.6563;3
  7
iso_b_vert
 73
     2
 44
0.8915659999999999
1001
ACAD
1000
MTEXTBEGIN
1070
    73
1070
     2
1070
    44
1040
0.8915659999999999
1070
    74
1070
     0
1000
MTEXTEND
  0
LINE
  5
352
330
33A
100
AcDbEntity
  8
250
  6
Continuous
 62
     5
370
    18
100
AcDbLine
 10
20.0
 20
28.233333
 30
0.0
 11
20.0
 21
20.233333
 31
0.0
  0
LINE
  5
353
330
33A
100
AcDbEntity
  8
250
  6
Continuous
 62
     5
370
    18
100
AcDbLine
 10
10.0
 20
20.233333
 30
0.0
 11
20.0
 21
20.233333
 31
0.0
  0
MTEXT
  5
354
330
33A
100
AcDbEntity
  8
41
  6
Continuous
 62
     2
370
    18
100
AcDbMText
 10
15.0
 20
24.233333
 30
0.0
 40
2.5
 41
0.0
 71
     5
 72
     5
  1
\W0.7875;1
  7
iso_b_vert
 73
     2
 44
0.8915659999999999
1001
ACAD
1000
MTEXTBEGIN
1070
    73
1070
     2
1070
    44
1040
0.8915659999999999
1070
    74
1070
     0
1000
MTEXTEND
  0
LINE
  5
355
330
33A
100
AcDbEntity
  8
250
  6
Continuous
 62
     5
370
    18
100
AcDbLine
 10
70.0
 20
28.233333
 30
0.0
 11
70.0
 21
20.233333
 31
0.0
  0
LINE
  5
356
330
33A
100
AcDbEntity
  8
250
  6
Continuous
 62
     5
370
    18
100
AcDbLine
 10
20.0
 20
20.233333
 30
0.0
 11
70.0
 21
20.233333
 31
0.0
  0
MTEXT
  5
357
330
33A
100
AcDbEntity
  8
41
  6
Continuous
 62
     2
370
    18
100
AcDbMText
 10
21.325
 20
24.233333
 30
0.0
 40
2.5
 41
0.0
 71
     4
 72
     5
  1
\W0.8392;INSERT
  7
iso_b_vert
 73
     2
 44
0.8915659999999999
1001
ACAD
1000
MTEXTBEGIN
1070
    73
1070
     2
1070
    44
1040
0.8915659999999999
1070
    74
1070
     0
1000
MTEXTEND
  0
LINE
  5
358
330
33A
100
AcDbEntity
  8
250
  6
Continuous
 62
     5
370
    18
100
AcDbLine
 10
127.0
 20
28.233333
 30
0.0
 11
127.0
 21
20.233333
 31
0.0
  0
LINE
  5
359
330
33A
100
AcDbEntity
  8
250
  6
Continuous
 62
     5
370
    18
100
AcDbLine
 10
70.0
 20
20.233333
 30
0.0
 11
127.0
 21
20.233333
 31
0.0
  0
LINE
  5
35A
330
33A
100
AcDbEntity
  8
250
  6
Continuous
 62
     5
370
    18
100
AcDbLine
 10
180.0
 20
28.233333
 30
0.0
 11
180.0
 21
20.233333
 31
0.0
  0
LINE
  5
35B
330
33A
100
AcDbEntity
  8
250
  6
Continuous
 62
     5
370
    18
100
AcDbLine
 10
127.0
 20
20.233333
 30
0.0
 11
180.0
 21
20.233333
 31
0.0
  0
LINE
  5
35C
330
33A
100
AcDbEntity
  8
250
  6
Continuous
 62
     5
370
    18
100
AcDbLine
 10
0.0
 20
20.233333
 30
0.0
 11
0.0
 21
12.233333
 31
0.0
  0
LINE
  5
35D
330
33A
100
AcDbEntity
  8
250
  6
Continuous
 62
     5
370
    18
100
AcDbLine
 10
10.0
 20
20.233333
 30
0.0
 11
10.0
 21
12.233333
 31
0.0
  0
LINE
  5
35E
330
33A
100
AcDbEntity
  8
250
  6
Continuous
 62
     5
370
    18
100
AcDbLine
 10
0.0
 20
12.233333
 30
0.0
 11
10.0
 21
12.233333
 31
0.0
  0
MTEXT
  5
35F
330
33A
100
AcDbEntity
  8
41
  6
Continuous
 62
     2
370
    18
100
AcDbMText
 10
5.0
 20
16.233333
 30
0.0
 40
2.5
 41
0.0
 71
     5
 72
     5
  1
\W0.6563;2
  7
iso_b_vert
 73
     2
 44
0.8915659999999999
1001
ACAD
1000
MTEXTBEGIN
1070
    73
1070
     2
1070
    44
1040
0.8915659999999999
1070
    74
1070
     0
1000
MTEXTEND
  0
LINE
  5
360
330
33A
100
AcDbEntity
  8
250
  6
Continuous
 62
     5
370
    18
100
AcDbLine
 10
20.0
 20
20.233333
 30
0.0
 11
20.0
 21
12.233333
 31
0.0
  0
LINE
  5
361
330
33A
100
AcDbEntity
  8
250
  6
Continuous
 62
     5
370
    18
100
AcDbLine
 10
10.0
 20
12.233333
 30
0.0
 11
20.0
 21
12.233333
 31
0.0
  0
MTEXT
  5
362
330
33A
100
AcDbEntity
  8
41
  6
Continuous
 62
     2
370
    18
100
AcDbMText
 10
15.0
 20
16.233333
 30
0.0
 40
2.5
 41
0.0
 71
     5
 72
     5
  1
\W0.7875;1
  7
iso_b_vert
 73
     2
 44
0.8915659999999999
1001
ACAD
1000
MTEXTBEGIN
1070
    73
1070
     2
1070
    44
1040
0.8915659999999999
1070
    74
1070
     0
1000
MTEXTEND
  0
LINE
  5
363
330
33A
100
AcDbEntity
  8
250
  6
Continuous
 62
     5
370
    18
100
AcDbLine
 10
70.0
 20
20.233333
 30
0.0
 11
70.0
 21
12.233333
 31
0.0
  0
LINE
  5
364
330
33A
100
AcDbEntity
  8
250
  6
Continuous
 62
     5
370
    18
100
AcDbLine
 10
20.0
 20
12.233333
 30
0.0
 11
70.0
 21
12.233333
 31
0.0
  0
MTEXT
  5
365
330
33A
100
AcDbEntity
  8
41
  6
Continuous
 62
     2
370
    18
100
AcDbMText
 10
21.325
 20
16.233333
 30
0.0
 40
2.5
 41
0.0
 71
     4
 72
     5
  1
\W0.8512;SCREW
  7
iso_b_vert
 73
     2
 44
0.8915659999999999
1001
ACAD
1000
MTEXTBEGIN
1070
    73
1070
     2
1070
    44
1040
0.8915659999999999
1070
    74
1070
     0
1000
MTEXTEND
  0
LINE
  5
366
330
33A
100
AcDbEntity
  8
250
  6
Continuous
 62
     5
370
    18
100
AcDbLine
 10
127.0
 20
20.233333
 30
0.0
 11
127.0
 21
12.233333
 31
0.0
  0
LINE
  5
367
330
33A
100
AcDbEntity
  8
250
  6
Continuous
 62
     5
370
    18
100
AcDbLine
 10
70.0
 20
12.233333
 30
0.0
 11
127.0
 21
12.233333
 31
0.0
  0
LINE
  5
368
330
33A
100
AcDbEntity
  8
250
  6
Continuous
 62
     5
370
    18
100
AcDbLine
 10
180.0
 20
20.233333
 30
0.0
 11
180.0
 21
12.233333
 31
0.0
  0
LINE
  5
369
330
33A
100
AcDbEntity
  8
250
  6
Continuous
 62
     5
370
    18
100
AcDbLine
 10
127.0
 20
12.233333
 30
0.0
 11
180.0
 21
12.233333
 31
0.0
  0
LINE
  5
36A
330
33A
100
AcDbEntity
  8
250
  6
Continuous
 62
     5
370
    18
100
AcDbLine
 10
0.0
 20
12.233333
 30
0.0
 11
0.0
 21
4.233333
 31
0.0
  0
LINE
  5
36B
330
33A
100
AcDbEntity
  8
250
  6
Continuous
 62
     5
370
    18
100
AcDbLine
 10
10.0
 20
12.233333
 30
0.0
 11
10.0
 21
4.233333
 31
0.0
  0
LINE
  5
36C
330
33A
100
AcDbEntity
  8
250
  6
Continuous
 62
     5
370
    18
100
AcDbLine
 10
0.0
 20
4.233333
 30
0.0
 11
10.0
 21
4.233333
 31
0.0
  0
MTEXT
  5
36D
330
33A
100
AcDbEntity
  8
41
  6
Continuous
 62
     2
370
    18
100
AcDbMText
 10
5.0
 20
8.233333
 30
0.0
 40
2.5
 41
0.0
 71
     5
 72
     5
  1
\W0.7875;1
  7
iso_b_vert
 73
     2
 44
0.8915659999999999
1001
ACAD
1000
MTEXTBEGIN
1070
    73
1070
     2
1070
    44
1040
0.8915659999999999
1070
    74
1070
     0
1000
MTEXTEND
  0
LINE
  5
36E
330
33A
100
AcDbEntity
  8
250
  6
Continuous
 62
     5
370
    18
100
AcDbLine
 10
20.0
 20
12.233333
 30
0.0
 11
20.0
 21
4.233333
 31
0.0
  0
LINE
  5
36F
330
33A
100
AcDbEntity
  8
250
  6
Continuous
 62
     5
370
    18
100
AcDbLine
 10
10.0
 20
4.233333
 30
0.0
 11
20.0
 21
4.233333
 31
0.0
  0
MTEXT
  5
370
330
33A
100
AcDbEntity
  8
41
  6
Continuous
 62
     2
370
    18
100
AcDbMText
 10
15.0
 20
8.233333
 30
0.0
 40
2.5
 41
0.0
 71
     5
 72
     5
  1
\W0.7875;1
  7
iso_b_vert
 73
     2
 44
0.8915659999999999
1001
ACAD
1000
MTEXTBEGIN
1070
    73
1070
     2
1070
    44
1040
0.8915659999999999
1070
    74
1070
     0
1000
MTEXTEND
  0
LINE
  5
371
330
33A
100
AcDbEntity
  8
250
  6
Continuous
 62
     5
370
    18
100
AcDbLine
 10
70.0
 20
12.233333
 30
0.0
 11
70.0
 21
4.233333
 31
0.0
  0
LINE
  5
372
330
33A
100
AcDbEntity
  8
250
  6
Continuous
 62
     5
370
    18
100
AcDbLine
 10
20.0
 20
4.233333
 30
0.0
 11
70.0
 21
4.233333
 31
0.0
  0
MTEXT
  5
373
330
33A
100
AcDbEntity
  8
41
  6
Continuous
 62
     2
370
    18
100
AcDbMText
 10
21.325
 20
8.233333
 30
0.0
 40
2.5
 41
0.0
 71
     4
 72
     5
  1
\W0.8406;TOOL BODY
  7
iso_b_vert
 73
     2
 44
0.8915659999999999
1001
ACAD
1000
MTEXTBEGIN
1070
    73
1070
     2
1070
    44
1040
0.8915659999999999
1070
    74
1070
     0
1000
MTEXTEND
  0
LINE
  5
374
330
33A
100
AcDbEntity
  8
250
  6
Continuous
 62
     5
370
    18
100
AcDbLine
 10
127.0
 20
12.233333
 30
0.0
 11
127.0
 21
4.233333
 31
0.0
  0
LINE
  5
375
330
33A
100
AcDbEntity
  8
250
  6
Continuous
 62
     5
370
    18
100
AcDbLine
 10
70.0
 20
4.233333
 30
0.0
 11
127.0
 21
4.233333
 31
0.0
  0
LINE
  5
376
330
33A
100
AcDbEntity
  8
250
  6
Continuous
 62
     5
370
    18
100
AcDbLine
 10
180.0
 20
12.233333
 30
0.0
 11
180.0
 21
4.233333
 31
0.0
  0
LINE
  5
377
330
33A
100
AcDbEntity
  8
250
  6
Continuous
 62
     5
370
    18
100
AcDbLine
 10
127.0
 20
4.233333
 30
0.0
 11
180.0
 21
4.233333
 31
0.0
  0
LINE
  5
378
330
33A
100
AcDbEntity
  8
250
  6
Continuous
 62
     5
370
    18
100
AcDbLine
 10
0.0
 20
4.233333
 30
0.0
 11
0.0
 21
0.0
 31
0.0
  0
LINE
  5
379
330
33A
100
AcDbEntity
  8
250
  6
Continuous
 62
     5
370
    18
100
AcDbLine
 10
10.0
 20
4.233333
 30
0.0
 11
10.0
 21
0.0
 31
0.0
  0
LINE
  5
37A
330
33A
100
AcDbEntity
  8
250
  6
Continuous
 62
     5
370
    18
100
AcDbLine
 10
0.0
 20
0.0
 30
0.0
 11
10.0
 21
0.0
 31
0.0
  0
MTEXT
  5
37B
330
33A
100
AcDbEntity
  8
41
  6
Continuous
 62
     2
370
    18
100
AcDbMText
 10
5.0
 20
2.116668
 30
0.0
 40
1.0
 41
0.0
 71
     5
 72
     5
  1
\W0.8876;ITEM
  7
iso_b_vert
 73
     2
 44
1.084337
1001
ACAD
1000
MTEXTBEGIN
1070
    73
1070
     2
1070
    44
1040
1.084337
1070
    74
1070
     0
1000
MTEXTEND
  0
LINE
  5
37C
330
33A
100
AcDbEntity
  8
250
  6
Continuous
 62
     5
370
    18
100
AcDbLine
 10
20.0
 20
4.233333
 30
0.0
 11
20.0
 21
0.0
 31
0.0
  0
LINE
  5
37D
330
33A
100
AcDbEntity
  8
250
  6
Continuous
 62
     5
370
    18
100
AcDbLine
 10
10.0
 20
0.0
 30
0.0
 11
20.0
 21
0.0
 31
0.0
  0
MTEXT
  5
37E
330
33A
100
AcDbEntity
  8
41
  6
Continuous
 62
     2
370
    18
100
AcDbMText
 10
15.0
 20
2.116668
 30
0.0
 40
1.0
 41
0.0
 71
     5
 72
     5
  1
\W0.8957;QUANTITY
  7
iso_b_vert
 73
     2
 44
1.084337
1001
ACAD
1000
MTEXTBEGIN
1070
    73
1070
     2
1070
    44
1040
1.084337
1070
    74
1070
     0
1000
MTEXTEND
  0
LINE
  5
37F
330
33A
100
AcDbEntity
  8
250
  6
Continuous
 62
     5
370
    18
100
AcDbLine
 10
70.0
 20
4.233333
 30
0.0
 11
70.0
 21
0.0
 31
0.0
  0
LINE
  5
380
330
33A
100
AcDbEntity
  8
250
  6
Continuous
 62
     5
370
    18
100
AcDbLine
 10
20.0
 20
0.0
 30
0.0
 11
70.0
 21
0.0
 31
0.0
  0
MTEXT
  5
381
330
33A
100
AcDbEntity
  8
41
  6
Continuous
 62
     2
370
    18
100
AcDbMText
 10
20.575
 20
2.116668
 30
0.0
 40
1.0
 41
0.0
 71
     4
 72
     5
  1
\W0.8467;DESCRIPTION
  7
iso_b_vert
 73
     2
 44
1.084337
1001
ACAD
1000
MTEXTBEGIN
1070
    73
1070
     2
1070
    44
1040
1.084337
1070
    74
1070
     0
1000
MTEXTEND
  0
LINE
  5
382
330
33A
100
AcDbEntity
  8
250
  6
Continuous
 62
     5
370
    18
100
AcDbLine
 10
127.0
 20
4.233333
 30
0.0
 11
127.0
 21
0.0
 31
0.0
  0
LINE
  5
383
330
33A
100
AcDbEntity
  8
250
  6
Continuous
 62
     5
370
    18
100
AcDbLine
 10
70.0
 20
0.0
 30
0.0
 11
127.0
 21
0.0
 31
0.0
  0
MTEXT
  5
384
330
33A
100
AcDbEntity
  8
41
  6
Continuous
 62
     2
370
    18
100
AcDbMText
 10
70.575
 20
2.116668
 30
0.0
 40
1.0
 41
0.0
 71
     4
 72
     5
  1
\W0.8329;MATERIAL, PRODUCT CODE AND REMARK
  7
iso_b_vert
 73
     2
 44
1.084337
1001
ACAD
1000
MTEXTBEGIN
1070
    73
1070
     2
1070
    44
1040
1.084337
1070
    74
1070
     0
1000
MTEXTEND
  0
LINE
  5
385
330
33A
100
AcDbEntity
  8
250
  6
Continuous
 62
     5
370
    18
100
AcDbLine
 10
180.0
 20
4.233333
 30
0.0
 11
180.0
 21
0.0
 31
0.0
  0
LINE
  5
386
330
33A
100
AcDbEntity
  8
250
  6
Continuous
 62
     5
370
    18
100
AcDbLine
 10
127.0
 20
0.0
 30
0.0
 11
180.0
 21
0.0
 31
0.0
  0
MTEXT
  5
387
330
33A
100
AcDbEntity
  8
41
  6
Continuous
 62
     2
370
    18
100
AcDbMText
 10
127.575
 20
2.116668
 30
0.0
 40
1.0
 41
0.0
 71
     4
 72
     5
  1
\W0.8808;DRAWING
  7
iso_b_vert
 73
     2
 44
1.084337
1001
ACAD
1000
MTEXTBEGIN
1070
    73
1070
     2
1070
    44
1040
1.084337
1070
    74
1070
     0
1000
MTEXTEND
  0
ENDBLK
  5
38A
330
33A
100
AcDbEntity
  8
0
100
AcDbBlockEnd
  0
ENDSEC
  0
SECTION
  2
ENTITIES
  0
POINT
  5
75
330
1F
100
AcDbEntity
  8
41
  6
Continuous
 62
     5
 60
     1
370
    13
100
AcDbPoint
 10
157.561333
 20
96.60849300000002
 30
0.0
  0
POINT
  5
77
330
1F
100
AcDbEntity
  8
41
  6
Continuous
 62
     5
 60
     1
370
    13
100
AcDbPoint
 10
54.816734
 20
61.948483
 30
0.0
  0
LINE
  5
84
330
1F
100
AcDbEntity
  8
41
  6
Continuous
 62
    11
 60
     1
370
    13
100
AcDbLine
 10
0.0
 20
0.0
 30
0.0
 11
0.0
 21
297.0
 31
0.0
  0
LINE
  5
85
330
1F
100
AcDbEntity
  8
41
  6
Continuous
 62
    11
 60
     1
370
    13
100
AcDbLine
 10
420.0
 20
297.0
 30
0.0
 11
0.0
 21
297.0
 31
0.0
  0
LINE
  5
86
330
1F
100
AcDbEntity
  8
41
  6
Continuous
 62
    11
 60
     1
370
    13
100
AcDbLine
 10
420.0
 20
297.0
 30
0.0
 11
420.0
 21
0.0
 31
0.0
  0
LINE
  5
87
330
1F
100
AcDbEntity
  8
41
  6
Continuous
 62
    11
 60
     1
370
    13
100
AcDbLine
 10
0.0
 20
0.0
 30
0.0
 11
420.0
 21
0.0
 31
0.0
  0
LINE
  5
88
330
1F
100
AcDbEntity
  8
1
  6
Continuous
 62
     4
370
    50
100
AcDbLine
 10
47.1028566898984
 20
27.55999368240154
 30
0.0
 11
45.89239768989841
 21
27.55999368240154
 31
0.0
  0
LINE
  5
8A
330
1F
100
AcDbEntity
  8
1
  6
Continuous
 62
     4
370
    50
100
AcDbLine
 10
43.47657468989843
 20
27.82802268240152
 30
0.0
 11
35.18685368989844
 21
33.41951068240152
 31
0.0
  0
LINE
  5
8C
330
1F
100
AcDbEntity
  8
1
  6
Continuous
 62
     4
370
    50
100
AcDbLine
 10
34.21090268989843
 20
22.58857168240152
 30
0.0
 11
42.50062268989842
 21
16.99708468240152
 31
0.0
  0
LINE
  5
8D
330
1F
100
AcDbEntity
  8
1
  6
Continuous
 62
     4
370
    50
100
AcDbLine
 10
47.1028566898984
 20
11.55999368240154
 30
0.0
 11
44.94879068989843
 21
11.55999368240154
 31
0.0
  0
LINE
  5
90
330
1F
100
AcDbEntity
  8
1
  6
Continuous
 62
     4
370
    50
100
AcDbLine
 10
35.10631968989841
 20
11.55999368240154
 30
0.0
 11
34.92219068989843
 21
22.10872068240155
 31
0.0
  0
LINE
  5
91
330
1F
100
AcDbEntity
  8
SK1
  6
Continuous
 62
     4
370
    50
100
AcDbLine
 10
158.9487906898984
 20
27.55999368240154
 30
0.0
 11
47.1028566898984
 21
27.55999368240154
 31
0.0
  0
LINE
  5
92
330
1F
100
AcDbEntity
  8
SK1
  6
Continuous
 62
     4
370
    50
100
AcDbLine
 10
158.9487906898984
 20
11.55999368240154
 30
0.0
 11
47.1028566898984
 21
11.55999368240154
 31
0.0
  0
LINE
  5
93
102
{ACAD_REACTORS
330
212
102
}
330
1F
100
AcDbEntity
  8
SK1
  6
Continuous
 62
     4
370
    50
100
AcDbLine
 10
158.9487906898984
 20
27.55999368240154
 30
0.0
 11
158.9487906898984
 21
11.55999368240154
 31
0.0
  0
LINE
  5
94
330
1F
100
AcDbEntity
  8
1
  6
Continuous
 62
     4
370
    50
100
AcDbLine
 10
33.94891768989842
 20
32.74736568240155
 30
0.0
 11
34.12342868989845
 21
22.74967868240154
 31
0.0
  0
LINE
  5
95
330
1F
100
AcDbEntity
  8
1
  6
Continuous
 62
     4
370
    50
100
AcDbLine
 10
44.94879068989843
 20
11.55999368240154
 30
0.0
 11
35.10631968989841
 21
11.55999368240154
 31
0.0
  0
LINE
  5
96
330
1F
100
AcDbEntity
  8
1
  6
Continuous
 62
     4
370
    50
100
AcDbLine
 10
43.73855868989841
 20
17.66922868240152
 30
0.0
 11
43.56404868989841
 21
27.66691568240154
 31
0.0
  0
LINE
  5
104
102
{ACAD_REACTORS
330
38B
102
}
330
1F
100
AcDbEntity
  8
SK2
  6
Continuous
 62
     7
370
    13
100
AcDbLine
 10
33.94879068989843
 20
41.67557068240154
 30
0.0
 11
158.9487906898984
 21
41.67557068240154
 31
0.0
  0
LINE
  5
105
102
{ACAD_REACTORS
330
38B
102
}
330
1F
100
AcDbEntity
  8
SK2
  6
Continuous
 62
     7
370
    13
100
AcDbLine
 10
158.9487906898984
 20
27.55999368240154
 30
0.0
 11
158.9487906898984
 21
43.67557068240154
 31
0.0
  0
LINE
  5
106
102
{ACAD_REACTORS
330
38B
102
}
330
1F
100
AcDbEntity
  8
SK2
  6
Continuous
 62
     7
370
    13
100
AcDbLine
 10
33.94879068989843
 20
32.76197268240153
 30
0.0
 11
33.94879068989843
 21
43.67557068240154
 31
0.0
  0
LINE
  5
107
330
1F
100
AcDbEntity
  8
41
  6
Continuous
 62
     4
 60
     1
370
    13
100
AcDbLine
 10
288.355522
 20
182.269562
 30
0.0
 11
285.180523
 21
181.851565
 31
0.0
  0
LINE
  5
108
330
1F
100
AcDbEntity
  8
41
  6
Continuous
 62
     4
 60
     1
370
    13
100
AcDbLine
 10
285.180523
 20
181.851565
 30
0.0
 11
285.18052
 21
182.687558
 31
0.0
  0
LINE
  5
109
330
1F
100
AcDbEntity
  8
41
  6
Continuous
 62
     4
 60
     1
370
    13
100
AcDbLine
 10
285.18052
 20
182.687558
 30
0.0
 11
288.355522
 21
182.269562
 31
0.0
  0
LINE
  5
10A
330
1F
100
AcDbEntity
  8
41
  6
Continuous
 62
     4
 60
     1
370
    13
100
AcDbLine
 10
163.355522
 20
182.269562
 30
0.0
 11
166.53052
 21
182.687558
 31
0.0
  0
LINE
  5
10B
330
1F
100
AcDbEntity
  8
41
  6
Continuous
 62
     4
 60
     1
370
    13
100
AcDbLine
 10
166.53052
 20
182.687558
 30
0.0
 11
166.530523
 21
181.851565
 31
0.0
  0
LINE
  5
10C
330
1F
100
AcDbEntity
  8
41
  6
Continuous
 62
     4
 60
     1
370
    13
100
AcDbLine
 10
166.530523
 20
181.851565
 30
0.0
 11
163.355522
 21
182.269562
 31
0.0
  0
LINE
  5
10D
102
{ACAD_REACTORS
330
38C
102
}
330
1F
100
AcDbEntity
  8
2
  6
Continuous
 62
     7
370
    13
100
AcDbLine
 10
19.94589668989843
 20
33.55999368240154
 30
0.0
 11
19.94589668989843
 21
11.55999368240154
 31
0.0
  0
LINE
  5
10E
102
{ACAD_REACTORS
330
38C
102
}
330
1F
100
AcDbEntity
  8
2
  6
Continuous
 62
     7
370
    13
100
AcDbLine
 10
35.10631968989841
 20
11.55999368240154
 30
0.0
 11
17.94589668989843
 21
11.55999368240154
 31
0.0
  0
LINE
  5
10F
102
{ACAD_REACTORS
330
38C
102
}
330
1F
100
AcDbEntity
  8
2
  6
Continuous
 62
     7
370
    13
100
AcDbLine
 10
34.73210568989845
 20
33.55999368240154
 30
0.0
 11
17.94589668989843
 21
33.55999368240154
 31
0.0
  0
LINE
  5
110
330
1F
100
AcDbEntity
  8
41
  6
Continuous
 62
     4
 60
     1
370
    13
100
AcDbLine
 10
149.352628
 20
152.153985
 30
0.0
 11
148.934631
 21
155.328984
 31
0.0
  0
LINE
  5
111
330
1F
100
AcDbEntity
  8
41
  6
Continuous
 62
     4
 60
     1
370
    13
100
AcDbLine
 10
148.934631
 20
155.328984
 30
0.0
 11
149.770624
 21
155.328987
 31
0.0
  0
LINE
  5
112
330
1F
100
AcDbEntity
  8
41
  6
Continuous
 62
     4
 60
     1
370
    13
100
AcDbLine
 10
149.770624
 20
155.328987
 30
0.0
 11
149.352628
 21
152.153985
 31
0.0
  0
LINE
  5
113
330
1F
100
AcDbEntity
  8
41
  6
Continuous
 62
     4
 60
     1
370
    13
100
AcDbLine
 10
149.352628
 20
174.153985
 30
0.0
 11
149.770624
 21
170.978987
 31
0.0
  0
LINE
  5
114
330
1F
100
AcDbEntity
  8
41
  6
Continuous
 62
     4
 60
     1
370
    13
100
AcDbLine
 10
149.770624
 20
170.978987
 30
0.0
 11
148.934631
 21
170.978984
 31
0.0
  0
LINE
  5
115
330
1F
100
AcDbEntity
  8
41
  6
Continuous
 62
     4
 60
     1
370
    13
100
AcDbLine
 10
148.934631
 20
170.978984
 30
0.0
 11
149.352628
 21
174.153985
 31
0.0
  0
LINE
  5
116
102
{ACAD_REACTORS
330
38D
102
}
330
1F
100
AcDbEntity
  8
2
  6
Continuous
 62
     7
370
    13
100
AcDbLine
 10
34.73210568989845
 20
33.55999368240154
 30
0.0
 11
22.49807268989844
 21
33.55999368240154
 31
0.0
  0
LINE
  5
117
102
{ACAD_REACTORS
330
38D
102
}
330
1F
100
AcDbEntity
  8
2
  6
Continuous
 62
     7
370
    13
100
AcDbLine
 10
34.12342868989845
 20
22.74967868240154
 30
0.0
 11
34.13433068989843
 21
22.12507468240153
 31
0.0
  0
LINE
  5
118
330
1F
100
AcDbEntity
  8
41
  6
Continuous
 62
     4
 60
     1
370
    13
100
AcDbLine
 10
153.904804
 20
174.153985
 30
0.0
 11
154.585626
 21
171.024797
 31
0.0
  0
LINE
  5
119
330
1F
100
AcDbEntity
  8
41
  6
Continuous
 62
     4
 60
     1
370
    13
100
AcDbLine
 10
154.585626
 20
171.024797
 30
0.0
 11
153.752534
 21
170.955209
 31
0.0
  0
LINE
  5
11A
330
1F
100
AcDbEntity
  8
41
  6
Continuous
 62
     4
 60
     1
370
    13
100
AcDbLine
 10
153.752534
 20
170.955209
 30
0.0
 11
153.904804
 21
174.153985
 31
0.0
  0
LINE
  5
11B
330
1F
100
AcDbEntity
  8
41
  6
Continuous
 62
     4
 60
     1
370
    13
100
AcDbLine
 10
163.506157
 20
164.718761
 30
0.0
 11
160.310529
 21
164.510689
 31
0.0
  0
LINE
  5
11C
330
1F
100
AcDbEntity
  8
41
  6
Continuous
 62
     4
 60
     1
370
    13
100
AcDbLine
 10
160.310529
 20
164.510689
 30
0.0
 11
160.365561
 21
165.344869
 31
0.0
  0
LINE
  5
11D
330
1F
100
AcDbEntity
  8
41
  6
Continuous
 62
     4
 60
     1
370
    13
100
AcDbLine
 10
160.365561
 20
165.344869
 30
0.0
 11
163.506157
 21
164.718761
 31
0.0
  0
ARC
  5
144
330
1F
100
AcDbEntity
  8
1
  6
Continuous
 62
     4
370
    50
100
AcDbCircle
 10
44.22699268989842
 20
29.14631868240156
 30
0.0
 40
2.299999999999997
100
AcDbArc
 50
253.5774239999993
 51
288.2898980000001
  0
ARC
  5
14D
102
{ACAD_REACTORS
330
38D
102
}
330
1F
100
AcDbEntity
  8
2
  6
Continuous
 62
     7
370
    13
100
AcDbCircle
 10
33.93473368989842
 20
33.55999368240154
 30
0.0
 40
9.436661249564606
100
AcDbArc
 50
180.0
 51
271.0000000000001
  0
ELLIPSE
  5
14E
330
1F
100
AcDbEntity
  8
1
  6
Continuous
 62
     4
370
    50
100
AcDbEllipse
 10
34.32487268989843
 20
22.75475368240154
 30
0.0
 11
-0.1774393782435342
 21
-0.0963417217576271
 31
0.0
210
-0.0000000000000001
220
0.0000000000000003
230
1.0
 40
0.9905549999999998
 41
5.8070960894527
 42
6.759274524906473
  0
ELLIPSE
  5
14F
330
1F
100
AcDbEntity
  8
1
  6
Continuous
 62
     4
370
    50
100
AcDbEllipse
 10
42.93227268989844
 20
17.67815468240153
 30
0.0
 11
0.3949923357873506
 21
-0.7274853842594963
 31
0.0000000000000002
210
-0.0000000000000001
220
0.0000000000000003
230
1.0
 40
0.9664159999999998
 41
5.206482006947486
 42
7.359888607411686
  0
ELLIPSE
  5
150
330
1F
100
AcDbEntity
  8
1
  6
Continuous
 62
     4
370
    50
100
AcDbEllipse
 10
34.75520468989842
 20
32.73844068240155
 30
0.0
 11
-0.3949923357873506
 21
0.7274853842594963
 31
-0.0000000000000002
210
-0.0000000000000001
220
0.0000000000000003
230
1.0
 40
0.9664159999999998
 41
5.206482006947487
 42
7.359888607411688
  0
ELLIPSE
  5
151
330
1F
100
AcDbEntity
  8
1
  6
Continuous
 62
     4
370
    50
100
AcDbEllipse
 10
43.36260468989843
 20
27.66184168240153
 30
0.0
 11
0.1774393782435343
 21
0.0963417217576271
 31
0.0
210
-0.0000000000000001
220
0.0000000000000003
230
1.0
 40
0.9905549999999999
 41
5.807096089452701
 42
6.75927452490641
  0
SPLINE
  5
189
330
1F
100
AcDbEntity
  8
1
  6
Continuous
 62
     4
370
    50
100
AcDbSpline
210
0.0
220
0.0
230
1.0
 70
     8
 71
     3
 72
    18
 73
    14
 74
     0
 42
0.000000001
 43
0.0000000001
 40
0.0
 40
0.0
 40
0.0
 40
0.0
 40
0.2500000000000074
 40
0.2500000000000074
 40
0.5000000000000148
 40
0.5000000000000148
 40
0.5625000000000165
 40
0.5625000000000165
 40
0.625000000000018
 40
0.625000000000018
 40
0.7500000000000232
 40
0.7500000000000232
 40
1.0
 40
1.0
 40
1.0
 40
1.0
 10
45.892397934352
 20
27.55999403199485
 30
0.0
 10
45.82766503921411
 20
27.49203412236105
 30
0.0
 10
45.75922093890134
 20
27.42847415461322
 30
0.0
 10
45.6149784853645
 20
27.30996126521643
 30
0.0
 10
45.53918066077392
 20
27.25500805917835
 30
0.0
 10
45.43965892776142
 20
27.19183751813685
 30
0.0
 10
45.41951495056011
 20
27.17948052058896
 30
0.0
 10
45.37873946747853
 20
27.15532871963814
 30
0.0
 10
45.35807027559383
 20
27.14351346340013
 30
0.0
 10
45.29561518629484
 20
27.10908860007874
 30
0.0
 10
45.25346103099411
 20
27.08753497944434
 30
0.0
 10
45.12547892856952
 20
27.02697150843773
 30
0.0
 10
45.03813692772084
 20
26.99204389559123
 30
0.0
 10
44.94879056835176
 20
26.96251288727314
 30
0.0
  0
MTEXT
  5
193
102
{ACAD_REACTORS
330
38B
102
}
330
1F
100
AcDbEntity
  8
SK2
  6
Continuous
 62
     7
370
    18
100
AcDbMText
 10
94.06999068989845
 20
42.56068468240153
 30
0.0
 40
3.0
 41
0.0
 71
     7
 72
     5
  1
\W0.7088;125
  7
iso_b_vert
 73
     2
 44
0.9879520000000001
1001
ACAD
1000
MTEXTBEGIN
1070
    73
1070
     2
1070
    44
1040
0.9879520000000001
1070
    74
1070
     0
1000
MTEXTEND
  0
LINE
  5
196
330
1F
100
AcDbEntity
  8
41
  6
Continuous
 62
     4
 60
     1
370
    13
100
AcDbLine
 10
288.355522
 20
182.269562
 30
0.0
 11
285.180523
 21
181.851565
 31
0.0
  0
LINE
  5
197
330
1F
100
AcDbEntity
  8
41
  6
Continuous
 62
     4
 60
     1
370
    13
100
AcDbLine
 10
285.180523
 20
181.851565
 30
0.0
 11
285.18052
 21
182.687558
 31
0.0
  0
LINE
  5
198
330
1F
100
AcDbEntity
  8
41
  6
Continuous
 62
     4
 60
     1
370
    13
100
AcDbLine
 10
285.18052
 20
182.687558
 30
0.0
 11
288.355522
 21
182.269562
 31
0.0
  0
HATCH
  5
199
102
{ACAD_REACTORS
330
38B
102
}
330
1F
100
AcDbEntity
  8
SK2
  6
Continuous
 62
     7
370
    13
100
AcDbHatch
 10
0.0
 20
0.0
 30
0.0
210
0.0
220
0.0
230
1.0
  2
ANSI31
 70
     0
 71
     0
 91
        1
 92
        0
 93
        3
 72
     1
 10
158.9487905683517
 20
41.67557020295345
 11
155.7737921037392
 21
41.2575735231162
 72
     1
 10
155.7737921037392
 20
41.2575735231162
 11
155.7737890329642
 21
42.09356688279052
 72
     1
 10
155.7737890329642
 20
42.09356688279052
 11
158.9487905683517
 21
41.67557020295345
 97
        0
 75
     0
 76
     1
 52
0.0
 41
0.0062
 77
     0
 78
     1
 53
44.99999999999957
 43
-129.4067313101016
 44
-140.5939913175984
 45
-0.0139193969876571
 46
0.0139193969876573
 79
     0
 98
        0
  0
LINE
  5
19A
330
1F
100
AcDbEntity
  8
41
  6
Continuous
 62
     4
 60
     1
370
    13
100
AcDbLine
 10
163.355522
 20
182.269562
 30
0.0
 11
166.53052
 21
182.687558
 31
0.0
  0
LINE
  5
19B
330
1F
100
AcDbEntity
  8
41
  6
Continuous
 62
     4
 60
     1
370
    13
100
AcDbLine
 10
166.53052
 20
182.687558
 30
0.0
 11
166.530523
 21
181.851565
 31
0.0
  0
LINE
  5
19C
330
1F
100
AcDbEntity
  8
41
  6
Continuous
 62
     4
 60
     1
370
    13
100
AcDbLine
 10
166.530523
 20
181.851565
 30
0.0
 11
163.355522
 21
182.269562
 31
0.0
  0
HATCH
  5
19D
102
{ACAD_REACTORS
330
38B
102
}
330
1F
100
AcDbEntity
  8
SK2
  6
Continuous
 62
     7
370
    13
100
AcDbHatch
 10
0.0
 20
0.0
 30
0.0
210
0.0
220
0.0
230
1.0
  2
ANSI31
 70
     0
 71
     0
 91
        1
 92
        0
 93
        3
 72
     1
 10
33.94879056835174
 20
41.67557020295345
 11
37.12378903296411
 21
42.09356688279052
 72
     1
 10
37.12378903296411
 20
42.09356688279052
 11
37.12379210373922
 21
41.2575735231162
 72
     1
 10
37.12379210373922
 20
41.2575735231162
 11
33.94879056835174
 21
41.67557020295345
 97
        0
 75
     0
 76
     1
 52
0.0
 41
0.0062
 77
     0
 78
     1
 53
44.99999999999954
 43
-129.4067313101016
 44
-140.5939913175984
 45
-0.0139193969876571
 46
0.0139193969876573
 79
     0
 98
        0
  0
MTEXT
  5
19E
102
{ACAD_REACTORS
330
38C
102
}
330
1F
100
AcDbEntity
  8
2
  6
Continuous
 62
     7
370
    18
100
AcDbMText
 10
19.3547816898984
 20
20.90316568240155
 30
0.0
 40
3.0
 41
0.0
 71
     7
 72
     5
  1
\W0.7335;22
  7
iso_b_vert
 11
0.0000000000000007
 21
1.0
 31
0.0
 73
     2
 44
0.9879520000000001
1001
ACAD
1000
MTEXTBEGIN
1070
    73
1070
     2
1070
    44
1040
0.9879520000000001
1070
    74
1070
     0
1000
MTEXTEND
  0
LINE
  5
19F
330
1F
100
AcDbEntity
  8
41
  6
Continuous
 62
     4
 60
     1
370
    13
100
AcDbLine
 10
149.352628
 20
152.153985
 30
0.0
 11
148.934631
 21
155.328984
 31
0.0
  0
LINE
  5
1A0
330
1F
100
AcDbEntity
  8
41
  6
Continuous
 62
     4
 60
     1
370
    13
100
AcDbLine
 10
148.934631
 20
155.328984
 30
0.0
 11
149.770624
 21
155.328987
 31
0.0
  0
LINE
  5
1A1
330
1F
100
AcDbEntity
  8
41
  6
Continuous
 62
     4
 60
     1
370
    13
100
AcDbLine
 10
149.770624
 20
155.328987
 30
0.0
 11
149.352628
 21
152.153985
 31
0.0
  0
HATCH
  5
1A2
102
{ACAD_REACTORS
330
38C
102
}
330
1F
100
AcDbEntity
  8
2
  6
Continuous
 62
     7
370
    13
100
AcDbHatch
 10
0.0
 20
0.0
 30
0.0
210
0.0
220
0.0
230
1.0
  2
ANSI31
 70
     0
 71
     0
 91
        1
 92
        0
 93
        3
 72
     1
 10
19.94589641004302
 20
11.55999403199484
 11
19.52789973020583
 21
14.73499249660736
 72
     1
 10
19.52789973020583
 20
14.73499249660736
 11
20.36389308988024
 21
14.73499556738244
 72
     1
 10
20.36389308988024
 20
14.73499556738244
 11
19.94589641004302
 21
11.55999403199484
 97
        0
 75
     0
 76
     1
 52
0.0
 41
0.0062
 77
     0
 78
     1
 53
44.99999999999957
 43
-129.4067313101016
 44
-140.5939913175984
 45
-0.0139193969876571
 46
0.0139193969876573
 79
     0
 98
        0
  0
LINE
  5
1A3
330
1F
100
AcDbEntity
  8
41
  6
Continuous
 62
     4
 60
     1
370
    13
100
AcDbLine
 10
149.352628
 20
174.153985
 30
0.0
 11
149.770624
 21
170.978987
 31
0.0
  0
LINE
  5
1A4
330
1F
100
AcDbEntity
  8
41
  6
Continuous
 62
     4
 60
     1
370
    13
100
AcDbLine
 10
149.770624
 20
170.978987
 30
0.0
 11
148.934631
 21
170.978984
 31
0.0
  0
LINE
  5
1A5
330
1F
100
AcDbEntity
  8
41
  6
Continuous
 62
     4
 60
     1
370
    13
100
AcDbLine
 10
148.934631
 20
170.978984
 30
0.0
 11
149.352628
 21
174.153985
 31
0.0
  0
HATCH
  5
1A6
102
{ACAD_REACTORS
330
38C
102
}
330
1F
100
AcDbEntity
  8
2
  6
Continuous
 62
     7
370
    13
100
AcDbHatch
 10
0.0
 20
0.0
 30
0.0
210
0.0
220
0.0
230
1.0
  2
ANSI31
 70
     0
 71
     0
 91
        1
 92
        0
 93
        3
 72
     1
 10
19.94589641004302
 20
33.55999403199485
 11
20.36389308988024
 21
30.38499556738234
 72
     1
 10
20.36389308988024
 20
30.38499556738234
 11
19.52789973020583
 21
30.38499249660723
 72
     1
 10
19.52789973020583
 20
30.38499249660723
 11
19.94589641004302
 21
33.55999403199485
 97
        0
 75
     0
 76
     1
 52
0.0
 41
0.0062
 77
     0
 78
     1
 53
44.99999999999954
 43
-129.4067313101016
 44
-140.5939913175984
 45
-0.0139193969876571
 46
0.0139193969876573
 79
     0
 98
        0
  0
MTEXT
  5
1A7
102
{ACAD_REACTORS
330
38D
102
}
330
1F
100
AcDbEntity
  8
2
  6
Continuous
 62
     7
370
    18
100
AcDbMText
 10
26.31475768989842
 20
29.16055568240154
 30
0.0
 40
3.0
 41
0.0
 71
     7
 72
     5
  1
\W0.8285;91%%d
  7
iso_b_vert
 11
0.7132504491541793
 21
-0.7009092642998534
 31
0.0
 73
     2
 44
0.9879520000000001
1001
ACAD
1000
MTEXTBEGIN
1070
    73
1070
     2
1070
    44
1040
0.9879520000000001
1070
    74
1070
     0
1000
MTEXTEND
  0
LINE
  5
1A8
330
1F
100
AcDbEntity
  8
41
  6
Continuous
 62
     4
 60
     1
370
    13
100
AcDbLine
 10
153.904804
 20
174.153985
 30
0.0
 11
154.585626
 21
171.024797
 31
0.0
  0
LINE
  5
1A9
330
1F
100
AcDbEntity
  8
41
  6
Continuous
 62
     4
 60
     1
370
    13
100
AcDbLine
 10
154.585626
 20
171.024797
 30
0.0
 11
153.752534
 21
170.955209
 31
0.0
  0
LINE
  5
1AA
330
1F
100
AcDbEntity
  8
41
  6
Continuous
 62
     4
 60
     1
370
    13
100
AcDbLine
 10
153.752534
 20
170.955209
 30
0.0
 11
153.904804
 21
174.153985
 31
0.0
  0
HATCH
  5
1AB
102
{ACAD_REACTORS
330
38D
102
}
330
1F
100
AcDbEntity
  8
2
  6
Continuous
 62
     7
370
    13
100
AcDbHatch
 10
0.0
 20
0.0
 30
0.0
210
0.0
220
0.0
230
1.0
  2
ANSI31
 70
     0
 71
     0
 91
        1
 92
        0
 93
        3
 72
     1
 10
24.49807234374921
 20
33.55999403199485
 11
25.17889503950602
 21
30.43080612910555
 72
     1
 10
25.17889503950602
 20
30.43080612910555
 11
24.34580299897601
 21
30.36121770022194
 72
     1
 10
24.34580299897601
 20
30.36121770022194
 11
24.49807234374921
 21
33.55999403199485
 97
        0
 75
     0
 76
     1
 52
0.0
 41
0.0062
 77
     0
 78
     1
 53
44.99999999999957
 43
-129.4067313101016
 44
-140.5939913175984
 45
-0.0139193969876571
 46
0.0139193969876573
 79
     0
 98
        0
  0
LINE
  5
1AC
330
1F
100
AcDbEntity
  8
41
  6
Continuous
 62
     4
 60
     1
370
    13
100
AcDbLine
 10
163.506157
 20
164.718761
 30
0.0
 11
160.310529
 21
164.510689
 31
0.0
  0
LINE
  5
1AD
330
1F
100
AcDbEntity
  8
41
  6
Continuous
 62
     4
 60
     1
370
    13
100
AcDbLine
 10
160.310529
 20
164.510689
 30
0.0
 11
160.365561
 21
165.344869
 31
0.0
  0
LINE
  5
1AE
330
1F
100
AcDbEntity
  8
41
  6
Continuous
 62
     4
 60
     1
370
    13
100
AcDbLine
 10
160.365561
 20
165.344869
 30
0.0
 11
163.506157
 21
164.718761
 31
0.0
  0
HATCH
  5
1AF
102
{ACAD_REACTORS
330
38D
102
}
330
1F
100
AcDbEntity
  8
2
  6
Continuous
 62
     7
370
    13
100
AcDbHatch
 10
0.0
 20
0.0
 30
0.0
210
0.0
220
0.0
230
1.0
  2
ANSI31
 70
     0
 71
     0
 91
        1
 92
        0
 93
        3
 72
     1
 10
34.09942604085211
 20
24.12477003164602
 11
30.90379742881481
 21
23.91669733143164
 72
     1
 10
30.90379742881481
 20
23.91669733143164
 11
30.95882966992534
 21
24.75087737786484
 72
     1
 10
30.95882966992534
 20
24.75087737786484
 11
34.09942604085211
 21
24.12477003164602
 97
        0
 75
     0
 76
     1
 52
0.0
 41
0.0062
 77
     0
 78
     1
 53
44.99999999999954
 43
-129.4067313101016
 44
-140.5939913175984
 45
-0.0139193969876571
 46
0.0139193969876573
 79
     0
 98
        0
  0
MTEXT
  5
1B0
330
1F
100
AcDbEntity
  8
SK6
  6
Continuous
 62
     5
370
    18
100
AcDbMText
 10
82.41944568989842
 20
51.54107768240152
 30
0.0
 40
3.0
 41
0.0
 71
     7
 72
     5
  1
\W0.7677;SDFCL1616K11-S
  7
iso_b_vert
 73
     2
 44
1.084337
1001
ACAD
1000
MTEXTBEGIN
1070
    73
1070
     2
1070
    44
1040
1.084337
1070
    74
1070
     0
1000
MTEXTEND
  0
DIMENSION
  5
210
102
{ACAD_XDICTIONARY
360
211
102
}
102
{ACAD_REACTORS
330
212
102
}
330
1F
100
AcDbEntity
  8
SK2
  6
Continuous
 62
     7
370
    18
100
AcDbDimension
  2
_U2
 10
166.2269666898984
 20
11.55999368240154
 30
0.0
 11
166.2269666898984
 21
19.55999368240154
 31
0.0
 70
   160
 42
16.0
 52
90.0
  3
Standard
100
AcDbAlignedDimension
 13
158.9487906898984
 23
27.55999368240154
 33
0.0
 14
158.9487906898984
 24
11.55999368240154
 34
0.0
 50
90.0
100
AcDbRotatedDimension
1001
ACAD_DSTYLE_DIM_LINETYPE
1070
   380
1005
16
1001
ACAD_DSTYLE_DIM_EXT1_LINETYPE
1070
   381
1005
16
1001
ACAD_DSTYLE_DIM_EXT2_LINETYPE
1070
   382
1005
16
1001
ACAD
1000
DSTYLE
1002
{
1070
   371
1070
    13
1070
   372
1070
    13
1070
   170
1070
     0
1070
   144
1040
1.0
1070
   277
1070
     2
1070
   284
1070
     8
1070
   278
1070
    44
1070
   146
1040
1.0
1070
   345
1005
16
1070
   347
1005
16
1070
   346
1005
16
1070
   344
1005
0
1070
   343
1005
0
1070
   172
1070
     1
1070
    76
1070
     0
1070
    75
1070
     0
1070
   282
1070
     0
1070
   281
1070
     0
1070
    71
1070
     0
1070
    74
1070
     0
1070
   279
1070
     0
1070
   173
1070
     1
1070
   340
1005
194
1070
   271
1070
     3
1070
   272
1070
     3
1070
    77
1070
     1
1070
    73
1070
     0
1070
   171
1070
     3
1070
   274
1070
     4
1070
   177
1070
     7
1070
   176
1070
     7
1070
   178
1070
     7
1070
    78
1070
     8
1070
    48
1040
-0.1
1070
    41
1040
3.174999999999999
1070
   147
1040
1.5
1070
    42
1040
0.0
1070
    44
1040
2.0
1070
   140
1040
3.0
1002
}
  0
LINE
  5
40D
330
1F
100
AcDbEntity
  8
NOCUT
  6
Continuous
 62
     7
370
    50
100
AcDbLine
 10
47.1028566898984
 20
27.55999368240154
 30
0.0
 11
45.89239768989841
 21
27.55999368240154
 31
0.0
  0
LINE
  5
410
330
1F
100
AcDbEntity
  8
NOCUT
  6
Continuous
 62
     7
370
    50
100
AcDbLine
 10
47.1028566898984
 20
11.55999368240154
 30
0.0
 11
44.94879068989843
 21
11.55999368240154
 31
0.0
  0
LINE
  5
411
330
1F
100
AcDbEntity
  8
NOCUT
  6
Continuous
 62
     7
370
    50
100
AcDbLine
 10
47.1028566898984
 20
11.55999368240154
 30
0.0
 11
47.1028566898984
 21
27.55999368240154
 31
0.0
  0
LINE
  5
412
330
1F
100
AcDbEntity
  8
NOCUT
  6
Continuous
 62
     7
370
    50
100
AcDbLine
 10
35.10631968989841
 20
11.55999368240154
 30
0.0
 11
34.96165837050035
 21
31.67756032004556
 31
0.0
  0
LINE
  5
414
330
1F
100
AcDbEntity
  8
NOCUT
  6
Continuous
 62
     7
370
    50
100
AcDbLine
 10
44.94879068989843
 20
11.55999368240154
 30
0.0
 11
35.10631968989841
 21
11.55999368240154
 31
0.0
  0
ARC
  5
418
330
1F
100
AcDbEntity
  8
NOCUT
  6
Continuous
 62
     7
370
    50
100
AcDbCircle
 10
44.22487058009283
 20
29.1588496809086
 30
0.0
 40
2.312564709090855
100
AcDbArc
 50
239.0693031381201
 51
288.2423868458766
  0
SPLINE
  5
41E
330
1F
100
AcDbEntity
  8
NOCUT
  6
Continuous
 62
     7
370
    50
100
AcDbSpline
210
0.0
220
0.0
230
1.0
 70
     8
 71
     3
 72
    18
 73
    14
 74
     0
 42
0.000000001
 43
0.0000000001
 40
0.0
 40
0.0
 40
0.0
 40
0.0
 40
0.2500000000000074
 40
0.2500000000000074
 40
0.5000000000000148
 40
0.5000000000000148
 40
0.5625000000000165
 40
0.5625000000000165
 40
0.625000000000018
 40
0.625000000000018
 40
0.7500000000000232
 40
0.7500000000000232
 40
1.0
 40
1.0
 40
1.0
 40
1.0
 10
45.892397934352
 20
27.55999403199485
 30
0.0
 10
45.82766503921411
 20
27.49203412236105
 30
0.0
 10
45.75922093890134
 20
27.42847415461322
 30
0.0
 10
45.6149784853645
 20
27.30996126521643
 30
0.0
 10
45.53918066077392
 20
27.25500805917835
 30
0.0
 10
45.43965892776142
 20
27.19183751813685
 30
0.0
 10
45.41951495056011
 20
27.17948052058896
 30
0.0
 10
45.37873946747853
 20
27.15532871963814
 30
0.0
 10
45.35807027559383
 20
27.14351346340013
 30
0.0
 10
45.29561518629484
 20
27.10908860007874
 30
0.0
 10
45.25346103099411
 20
27.08753497944434
 30
0.0
 10
45.12547892856952
 20
27.02697150843773
 30
0.0
 10
45.03813692772084
 20
26.99204389559123
 30
0.0
 10
44.94879056835176
 20
26.96251288727314
 30
0.0
  0
LINE
  5
42A
330
1F
100
AcDbEntity
  8
NOCUT
  6
Continuous
 62
     7
370
    50
100
AcDbLine
 10
43.03621024684409
 20
27.17515561530941
 30
0.0
 11
35.74124191589509
 21
32.09567439789346
 31
0.0
  0
ARC
  5
42D
330
1F
100
AcDbEntity
  8
NOCUT
  6
Continuous
 62
     7
370
    50
100
AcDbCircle
 10
35.46164544411457
 20
31.68115562513657
 30
0.0
 40
0.5
100
AcDbArc
 50
55.99999722931133
 51
180.4119951659649
  0
LINE
  5
42E
330
1F
100
AcDbEntity
  8
CUT
  6
Continuous
 62
     1
370
    50
100
AcDbLine
 10
43.47657468989843
 20
27.82802268240152
 30
0.0
 11
35.18685368989844
 21
33.41951068240152
 31
0.0
  0
LINE
  5
42F
330
1F
100
AcDbEntity
  8
CUT
  6
Continuous
 62
     1
370
    50
100
AcDbLine
 10
34.21090268989843
 20
22.58857168240152
 30
0.0
 11
42.50062268989842
 21
16.99708468240152
 31
0.0
  0
LINE
  5
430
330
1F
100
AcDbEntity
  8
CUT
  6
Continuous
 62
     1
370
    50
100
AcDbLine
 10
33.94891768989842
 20
32.74736568240155
 30
0.0
 11
34.12342868989845
 21
22.74967868240154
 31
0.0
  0
LINE
  5
431
330
1F
100
AcDbEntity
  8
CUT
  6
Continuous
 62
     1
370
    50
100
AcDbLine
 10
43.73855868989841
 20
17.66922868240152
 30
0.0
 11
43.56404868989841
 21
27.66691568240154
 31
0.0
  0
ELLIPSE
  5
43B
330
1F
100
AcDbEntity
  8
CUT
  6
Continuous
 62
     1
370
    50
100
AcDbEllipse
 10
34.32487268989843
 20
22.75475368240154
 30
0.0
 11
-0.1774393782435342
 21
-0.0963417217576271
 31
0.0
210
-0.0000000000000001
220
0.0000000000000003
230
1.0
 40
0.9905549999999998
 41
5.8070960894527
 42
6.759274524906473
  0
ELLIPSE
  5
43C
330
1F
100
AcDbEntity
  8
CUT
  6
Continuous
 62
     1
370
    50
100
AcDbEllipse
 10
42.93227268989844
 20
17.67815468240153
 30
0.0
 11
0.3949923357873506
 21
-0.7274853842594963
 31
0.0000000000000002
210
-0.0000000000000001
220
0.0000000000000003
230
1.0
 40
0.9664159999999998
 41
5.206482006947486
 42
7.359888607411686
  0
ELLIPSE
  5
43D
330
1F
100
AcDbEntity
  8
CUT
  6
Continuous
 62
     1
370
    50
100
AcDbEllipse
 10
34.75520468989842
 20
32.73844068240155
 30
0.0
 11
-0.3949923357873506
 21
0.7274853842594963
 31
-0.0000000000000002
210
-0.0000000000000001
220
0.0000000000000003
230
1.0
 40
0.9664159999999998
 41
5.206482006947487
 42
7.359888607411688
  0
ELLIPSE
  5
43E
330
1F
100
AcDbEntity
  8
CUT
  6
Continuous
 62
     1
370
    50
100
AcDbEllipse
 10
43.36260468989843
 20
27.66184168240153
 30
0.0
 11
0.1774393782435343
 21
0.0963417217576271
 31
0.0
210
-0.0000000000000001
220
0.0000000000000003
230
1.0
 40
0.9905549999999999
 41
5.807096089452701
 42
6.75927452490641
  0
ENDSEC
  0
SECTION
  2
OBJECTS
  0
DICTIONARY
  5
C
330
0
100
AcDbDictionary
281
     1
  3
ACAD_CIP_PREVIOUS_PRODUCT_INFO
350
3FA
  3
ACAD_COLOR
350
3F5
  3
ACAD_DETAILVIEWSTYLE
350
3F1
  3
ACAD_GROUP
350
D
  3
ACAD_LAYOUT
350
1A
  3
ACAD_MATERIAL
350
43
  3
ACAD_MLEADERSTYLE
350
6B
  3
ACAD_MLINESTYLE
350
17
  3
ACAD_PLOTSETTINGS
350
19
  3
ACAD_PLOTSTYLENAME
350
E
  3
ACAD_SCALELIST
350
47
  3
ACAD_SECTIONVIEWSTYLE
350
3F2
  3
ACAD_TABLESTYLE
350
69
  3
ACAD_VISUALSTYLE
350
2A
  3
ACDB_RECOMPOSE_DATA
350
5DF
  3
AcDbVariableDictionary
350
3AE
  3
DWGPROPS
350
5E0
  0
DICTIONARY
  5
5BC
330
10
100
AcDbDictionary
280
     1
281
     1
  3
ADSK_XREC_LAYER_RECONCILED
360
5BD
  0
DICTIONARY
  5
5BE
330
74
100
AcDbDictionary
280
     1
281
     1
  3
ADSK_XREC_LAYER_RECONCILED
360
5BF
  0
DICTIONARY
  5
5C0
330
76
100
AcDbDictionary
280
     1
281
     1
  3
ADSK_XREC_LAYER_RECONCILED
360
5C1
  0
DICTIONARY
  5
5C2
330
89
100
AcDbDictionary
280
     1
281
     1
  3
ADSK_XREC_LAYER_RECONCILED
360
5C3
  0
DICTIONARY
  5
5C4
330
8B
100
AcDbDictionary
280
     1
281
     1
  3
ADSK_XREC_LAYER_RECONCILED
360
5C5
  0
DICTIONARY
  5
5C6
330
98
100
AcDbDictionary
280
     1
281
     1
  3
ADSK_XREC_LAYER_RECONCILED
360
5C7
  0
DICTIONARY
  5
5C8
330
404
100
AcDbDictionary
280
     1
281
     1
  3
ADSK_XREC_LAYER_RECONCILED
360
5C9
  0
DICTIONARY
  5
5CA
330
407
100
AcDbDictionary
280
     1
281
     1
  3
ADSK_XREC_LAYER_RECONCILED
360
5CB
  0
DICTIONARY
  5
5CC
330
408
100
AcDbDictionary
280
     1
281
     1
  3
ADSK_XREC_LAYER_RECONCILED
360
5CD
  0
DICTIONARY
  5
5CE
330
409
100
AcDbDictionary
280
     1
281
     1
  3
ADSK_XREC_LAYER_RECONCILED
360
5CF
  0
DICTIONARY
  5
5D0
330
40A
100
AcDbDictionary
280
     1
281
     1
  3
ADSK_XREC_LAYER_RECONCILED
360
5D1
  0
DICTIONARY
  5
5D2
330
40B
100
AcDbDictionary
280
     1
281
     1
  3
ADSK_XREC_LAYER_RECONCILED
360
5D3
  0
DICTIONARY
  5
5D4
330
40C
100
AcDbDictionary
280
     1
281
     1
  3
ADSK_XREC_LAYER_RECONCILED
360
5D5
  0
DICTIONARY
  5
42B
330
1F
100
AcDbDictionary
280
     1
281
     1
  3
ACAD_SORTENTS
360
42C
  0
DICTIONARY
  5
211
330
210
100
AcDbDictionary
280
     1
281
     1
  3
ACAD_DIMASSOC
360
212
  0
XRECORD
  5
3FA
102
{ACAD_REACTORS
330
C
102
}
330
C
100
AcDbXrecord
280
     1
300
AMECH_PP
300
2017
300
86627AMECH_PP_2017_0F
  0
DICTIONARY
  5
3F5
102
{ACAD_REACTORS
330
C
102
}
330
C
100
AcDbDictionary
281
     1
  0
DICTIONARY
  5
3F1
102
{ACAD_REACTORS
330
C
102
}
330
C
100
AcDbDictionary
281
     1
  3
Metric50
350
3F7
  0
DICTIONARY
  5
D
102
{ACAD_REACTORS
330
C
102
}
330
C
100
AcDbDictionary
281
     1
  3
*A1
350
422
  3
*A2
350
448
  3
*A3
350
449
  3
*A4
350
44A
  3
A3
350
38E
  3
ANNOTATION
350
38B
  3
ANNOTATION2
350
38C
  3
ANNOTATION3
350
38D
  3
ASSORTED_PARTS
350
38F
  3
ASSORTED_PARTS10
350
394
  3
ASSORTED_PARTS11
350
395
  3
ASSORTED_PARTS12
350
396
  3
ASSORTED_PARTS13
350
397
  3
ASSORTED_PARTS14
350
398
  3
ASSORTED_PARTS6
350
390
  3
ASSORTED_PARTS7
350
391
  3
ASSORTED_PARTS8
350
392
  3
ASSORTED_PARTS9
350
393
  3
SANDVIKBORDER_1ST_ANGLE_PROJECTION
350
399
  0
DICTIONARY
  5
1A
102
{ACAD_REACTORS
330
C
102
}
330
C
100
AcDbDictionary
281
     1
  3
Layout1
350
1E
  3
Layout2
350
26
  3
Model
350
22
  0
DICTIONARY
  5
43
102
{ACAD_REACTORS
330
C
102
}
330
C
100
AcDbDictionary
281
     1
  3
ByBlock
350
45
  3
ByLayer
350
44
  3
Global
350
46
  0
DICTIONARY
  5
6B
102
{ACAD_REACTORS
330
C
102
}
330
C
100
AcDbDictionary
281
     1
  3
Standard
350
6C
  0
DICTIONARY
  5
17
102
{ACAD_REACTORS
330
C
102
}
330
C
100
AcDbDictionary
281
     1
  3
Standard
350
18
  0
DICTIONARY
  5
19
102
{ACAD_REACTORS
330
C
102
}
330
C
100
AcDbDictionary
281
     1
  0
ACDBDICTIONARYWDFLT
  5
E
102
{ACAD_REACTORS
330
C
102
}
330
C
100
AcDbDictionary
281
     1
  3
Normal
350
F
100
AcDbDictionaryWithDefault
340
F
  0
DICTIONARY
  5
47
102
{ACAD_REACTORS
330
C
102
}
330
C
100
AcDbDictionary
281
     1
  3
A0
350
48
  3
A1
350
49
  3
A2
350
4A
  3
A3
350
4B
  3
A4
350
4C
  3
A5
350
4D
  3
A6
350
4E
  3
A7
350
4F
  3
A8
350
50
  3
A9
350
51
  3
B0
350
52
  3
B1
350
53
  3
B2
350
54
  3
B3
350
55
  3
B4
350
56
  3
B5
350
57
  3
B6
350
58
  3
B7
350
59
  3
B8
350
5A
  3
B9
350
5B
  3
C0
350
5C
  3
C1
350
5D
  3
C2
350
5E
  3
C3
350
5F
  3
C4
350
60
  3
C5
350
61
  3
C6
350
62
  3
C7
350
63
  3
C8
350
64
  3
C9
350
65
  3
D0
350
66
  3
D1
350
67
  3
D2
350
68
  0
DICTIONARY
  5
3F2
102
{ACAD_REACTORS
330
C
102
}
330
C
100
AcDbDictionary
281
     1
  3
Metric50
350
3F6
  0
DICTIONARY
  5
69
102
{ACAD_REACTORS
330
C
102
}
330
C
100
AcDbDictionary
281
     1
  3
Standard
350
6A
  0
DICTIONARY
  5
2A
102
{ACAD_REACTORS
330
C
102
}
330
C
100
AcDbDictionary
281
     1
  3
2dWireframe
350
2F
  3
Basic
350
32
  3
Brighten
350
36
  3
ColorChange
350
3A
  3
Conceptual
350
34
  3
Dim
350
35
  3
EdgeColorOff
350
3D
  3
Facepattern
350
39
  3
Flat
350
2B
  3
FlatWithEdges
350
2C
  3
Gouraud
350
2D
  3
GouraudWithEdges
350
2E
  3
Hidden
350
31
  3
JitterOff
350
3B
  3
Linepattern
350
38
  3
OverhangOff
350
3C
  3
Realistic
350
33
  3
Shaded
350
42
  3
Shaded with edges
350
41
  3
Shades of Gray
350
3E
  3
Sketchy
350
3F
  3
Thicken
350
37
  3
Wireframe
350
30
  3
X-Ray
350
40
  0
XRECORD
  5
5DF
102
{ACAD_REACTORS
330
C
102
}
330
C
100
AcDbXrecord
280
     1
 90
        1
330
6A
  0
DICTIONARY
  5
3AE
102
{ACAD_REACTORS
330
C
102
}
330
C
100
AcDbDictionary
281
     1
  3
CANNOSCALE
350
3AF
  3
CMLEADERSTYLE
350
3F0
  3
CTABLESTYLE
350
3EF
  3
CVIEWDETAILSTYLE
350
5D6
  3
CVIEWSECTIONSTYLE
350
5D7
  3
DIMASSOC
350
5DB
  3
HIDETEXT
350
5DA
  3
INDEXCTL
350
5D9
  3
MSLTSCALE
350
3B0
  3
SORTENTS
350
5D8
  3
XCLIPFRAME
350
5DC
  0
XRECORD
  5
5E0
102
{ACAD_REACTORS
330
C
102
}
330
C
100
AcDbXrecord
280
     1
  1
DWGPROPS COOKIE
  2

  3

  4

  6

  7

  8
mp5448
  9

300
=
301
=
302
=
303
=
304
=
305
=
306
=
307
=
308
=
309
=
 40
0.0048842708333333
 41
2459324.56744213
 42
2459324.572638889
  1

 90
        0
  0
XRECORD
  5
5BD
102
{ACAD_REACTORS
330
5BC
102
}
330
5BC
100
AcDbXrecord
280
     1
290
     1
  0
XRECORD
  5
5BF
102
{ACAD_REACTORS
330
5BE
102
}
330
5BE
100
AcDbXrecord
280
     1
290
     1
  0
XRECORD
  5
5C1
102
{ACAD_REACTORS
330
5C0
102
}
330
5C0
100
AcDbXrecord
280
     1
290
     1
  0
XRECORD
  5
5C3
102
{ACAD_REACTORS
330
5C2
102
}
330
5C2
100
AcDbXrecord
280
     1
290
     1
  0
XRECORD
  5
5C5
102
{ACAD_REACTORS
330
5C4
102
}
330
5C4
100
AcDbXrecord
280
     1
290
     1
  0
XRECORD
  5
5C7
102
{ACAD_REACTORS
330
5C6
102
}
330
5C6
100
AcDbXrecord
280
     1
290
     1
  0
XRECORD
  5
5C9
102
{ACAD_REACTORS
330
5C8
102
}
330
5C8
100
AcDbXrecord
280
     1
290
     1
  0
XRECORD
  5
5CB
102
{ACAD_REACTORS
330
5CA
102
}
330
5CA
100
AcDbXrecord
280
     1
290
     1
  0
XRECORD
  5
5CD
102
{ACAD_REACTORS
330
5CC
102
}
330
5CC
100
AcDbXrecord
280
     1
290
     1
  0
XRECORD
  5
5CF
102
{ACAD_REACTORS
330
5CE
102
}
330
5CE
100
AcDbXrecord
280
     1
290
     1
  0
XRECORD
  5
5D1
102
{ACAD_REACTORS
330
5D0
102
}
330
5D0
100
AcDbXrecord
280
     1
290
     1
  0
XRECORD
  5
5D3
102
{ACAD_REACTORS
330
5D2
102
}
330
5D2
100
AcDbXrecord
280
     1
290
     1
  0
XRECORD
  5
5D5
102
{ACAD_REACTORS
330
5D4
102
}
330
5D4
100
AcDbXrecord
280
     1
290
     1
  0
SORTENTSTABLE
  5
42C
102
{ACAD_REACTORS
330
42B
102
}
330
42B
100
AcDbSortentsTable
330
1F
331
1A9
  5
1A9
331
198
  5
198
331
196
  5
196
331
113
  5
113
331
40D
  5
40D
331
94
  5
94
331
199
  5
199
331
197
  5
197
331
110
  5
110
331
95
  5
95
331
418
  5
41C
331
111
  5
111
331
42D
  5
414
331
144
  5
144
331
92
  5
92
331
42A
  5
410
331
10E
  5
10E
331
1A6
  5
1A6
331
93
  5
93
331
10F
  5
10F
331
1A7
  5
1A7
331
90
  5
90
331
193
  5
193
331
150
  5
150
331
10C
  5
10C
331
1A4
  5
1A4
331
91
  5
91
331
414
  5
41A
331
10D
  5
10D
331
1A5
  5
1A5
331
151
  5
151
331
86
  5
86
331
10A
  5
10A
331
14E
  5
14E
331
8C
  5
8C
331
1A2
  5
1A2
331
189
  5
189
331
87
  5
87
331
412
  5
413
331
10B
  5
10B
331
11C
  5
11C
331
1A3
  5
1A3
331
14F
  5
14F
331
8D
  5
8D
331
84
  5
84
331
108
  5
108
331
8A
  5
8A
331
1A0
  5
1A0
331
11D
  5
11D
331
85
  5
85
331
410
  5
411
331
1AE
  5
1AE
331
1A1
  5
1A1
331
14D
  5
14D
331
11A
  5
11A
331
109
  5
109
331
411
  5
412
331
1AF
  5
1AF
331
19E
  5
19E
331
11B
  5
11B
331
88
  5
88
331
1AC
  5
1AC
331
19F
  5
19F
331
118
  5
118
331
116
  5
116
331
77
  5
77
331
41E
  5
42D
331
1AD
  5
1AD
331
19C
  5
19C
331
119
  5
119
331
117
  5
117
331
106
  5
106
331
1AA
  5
1AA
331
210
  5
210
331
19D
  5
19D
331
114
  5
114
331
107
  5
107
331
75
  5
75
331
1B0
  5
1B0
331
1AB
  5
1AB
331
19A
  5
19A
331
115
  5
115
331
104
  5
104
331
96
  5
96
331
1A8
  5
1A8
331
19B
  5
19B
331
112
  5
112
331
105
  5
105
  0
DIMASSOC
  5
212
102
{ACAD_REACTORS
330
211
102
}
330
211
100
AcDbDimAssoc
330
210
 90
        3
 70
     0
 71
     1
  1
AcDbOsnapPointRef
 72
    13
331
93
 73
     2
 91
        1
 40
0.0
 10
288.355522
 20
168.153985
 30
0.0
 75
     0
  1
AcDbOsnapPointRef
 72
     1
331
93
 73
     2
 91
        2
 40
1.0
 10
288.355522
 20
152.153985
 30
0.0
 75
     0
  0
ACDBDETAILVIEWSTYLE
  5
3F7
102
{ACAD_XDICTIONARY
360
61A
102
}
102
{ACAD_REACTORS
330
3F1
102
}
330
3F1
100
AcDbModelDocViewStyle
 70
     0
  3
Metric50
290
     0
100
AcDbDetailViewStyle
 70
     0
 71
     0
 90
        3
 71
     1
340
11
 40
5.0
340
0
 40
5.0
300

 40
0.0
280
     1
 71
     2
340
16
 90
       25
 71
     3
340
11
 40
5.0
 90
        0
 40
15.0
 90
        1
300
%<\AcVar ViewDetailId>% (%<\AcVar ViewScale \f "%sn">%)
 71
     4
340
16
 90
       25
340
16
 90
       25
280
     0
  0
GROUP
  5
422
102
{ACAD_REACTORS
330
D
102
}
330
D
100
AcDbGroup
300

 70
     1
 71
     1
  0
GROUP
  5
448
102
{ACAD_REACTORS
330
D
102
}
330
D
100
AcDbGroup
300

 70
     1
 71
     1
  0
GROUP
  5
449
102
{ACAD_REACTORS
330
D
102
}
330
D
100
AcDbGroup
300

 70
     1
 71
     1
  0
GROUP
  5
44A
102
{ACAD_REACTORS
330
D
102
}
330
D
100
AcDbGroup
300

 70
     1
 71
     1
  0
GROUP
  5
38E
102
{ACAD_REACTORS
330
D
102
}
330
D
100
AcDbGroup
300

 70
     0
 71
     1
340
FD
340
FC
340
FB
340
FA
340
F9
340
F8
340
F7
340
F6
340
F5
340
F4
340
F3
340
F2
340
F1
340
F0
340
EF
340
EE
340
ED
340
1B1
340
1B3
340
1B4
340
1B5
340
1B6
340
1B7
340
1B8
340
1B9
340
1BA
340
1C4
  0
GROUP
  5
38B
102
{ACAD_REACTORS
330
D
102
}
330
D
100
AcDbGroup
300

 70
     0
 71
     1
340
193
340
104
340
105
340
106
340
199
340
19D
  0
GROUP
  5
38C
102
{ACAD_REACTORS
330
D
102
}
330
D
100
AcDbGroup
300

 70
     0
 71
     1
340
19E
340
10D
340
10E
340
10F
340
1A2
340
1A6
  0
GROUP
  5
38D
102
{ACAD_REACTORS
330
D
102
}
330
D
100
AcDbGroup
300

 70
     0
 71
     1
340
1A7
340
116
340
117
340
14D
340
1AB
340
1AF
  0
GROUP
  5
38F
102
{ACAD_REACTORS
330
D
102
}
330
D
100
AcDbGroup
300

 70
     0
 71
     1
  0
GROUP
  5
394
102
{ACAD_REACTORS
330
D
102
}
330
D
100
AcDbGroup
300

 70
     0
 71
     1
  0
GROUP
  5
395
102
{ACAD_REACTORS
330
D
102
}
330
D
100
AcDbGroup
300

 70
     0
 71
     1
  0
GROUP
  5
396
102
{ACAD_REACTORS
330
D
102
}
330
D
100
AcDbGroup
300

 70
     0
 71
     1
  0
GROUP
  5
397
102
{ACAD_REACTORS
330
D
102
}
330
D
100
AcDbGroup
300

 70
     0
 71
     1
  0
GROUP
  5
398
102
{ACAD_REACTORS
330
D
102
}
330
D
100
AcDbGroup
300

 70
     0
 71
     1
  0
GROUP
  5
390
102
{ACAD_REACTORS
330
D
102
}
330
D
100
AcDbGroup
300

 70
     0
 71
     1
  0
GROUP
  5
391
102
{ACAD_REACTORS
330
D
102
}
330
D
100
AcDbGroup
300

 70
     0
 71
     1
  0
GROUP
  5
392
102
{ACAD_REACTORS
330
D
102
}
330
D
100
AcDbGroup
300

 70
     0
 71
     1
  0
GROUP
  5
393
102
{ACAD_REACTORS
330
D
102
}
330
D
100
AcDbGroup
300

 70
     0
 71
     1
  0
GROUP
  5
399
102
{ACAD_REACTORS
330
D
102
}
330
D
100
AcDbGroup
300

 70
     0
 71
     1
  0
LAYOUT
  5
1E
102
{ACAD_XDICTIONARY
360
5E1
102
}
102
{ACAD_REACTORS
330
1A
102
}
330
1A
100
AcDbPlotSettings
  1

  2
none_device
  4

  6

 40
0.0
 41
0.0
 42
0.0
 43
0.0
 44
0.0
 45
0.0
 46
0.0
 47
0.0
 48
0.0
 49
0.0
140
0.0
141
0.0
142
1.0
143
1.0
 70
   688
 72
     0
 73
     0
 74
     5
  7

 75
    16
147
1.0
148
0.0
149
0.0
100
AcDbLayout
  1
Layout1
 70
     1
 71
     1
 10
-0.5
 20
-0.5
 11
5.0
 21
5.0
 12
0.0
 22
0.0
 32
0.0
 14
-0.5
 24
-0.5
 34
-0.5
 15
5.0
 25
5.0
 35
5.0
146
0.0
 13
0.0
 23
0.0
 33
0.0
 16
1.0
 26
0.0
 36
0.0
 17
0.0
 27
1.0
 37
0.0
 76
     0
330
1B
  0
LAYOUT
  5
26
102
{ACAD_XDICTIONARY
360
5E5
102
}
102
{ACAD_REACTORS
330
1A
102
}
330
1A
100
AcDbPlotSettings
  1

  2
none_device
  4

  6

 40
0.0
 41
0.0
 42
0.0
 43
0.0
 44
0.0
 45
0.0
 46
0.0
 47
0.0
 48
0.0
 49
0.0
140
0.0
141
0.0
142
1.0
143
1.0
 70
   688
 72
     0
 73
     0
 74
     5
  7

 75
    16
147
1.0
148
0.0
149
0.0
100
AcDbLayout
  1
Layout2
 70
     1
 71
     2
 10
0.0
 20
0.0
 11
0.0
 21
0.0
 12
0.0
 22
0.0
 32
0.0
 14
0.0
 24
0.0
 34
0.0
 15
0.0
 25
0.0
 35
0.0
146
0.0
 13
0.0
 23
0.0
 33
0.0
 16
1.0
 26
0.0
 36
0.0
 17
0.0
 27
1.0
 37
0.0
 76
     0
330
23
  0
LAYOUT
  5
22
102
{ACAD_XDICTIONARY
360
5E3
102
}
102
{ACAD_REACTORS
330
1A
102
}
330
1A
100
AcDbPlotSettings
  1

  2
none_device
  4
Letter_(8.50_x_11.00_Inches)
  6

 40
6.349999999999999
 41
6.349999999999999
 42
6.350005
 43
6.350005
 44
215.9
 45
279.4
 46
0.0
 47
0.0
 48
0.0
 49
0.0
140
0.0
141
0.0
142
1.0
143
1.0
 70
  1712
 72
     0
 73
     0
 74
     0
  7

 75
     0
147
1.0
148
0.0
149
0.0
100
AcDbLayout
  1
Model
 70
     1
 71
     0
 10
-0.5
 20
-0.5
 11
5.0
 21
5.0
 12
0.0
 22
0.0
 32
0.0
 14
-0.5
 24
-0.5
 34
-0.5
 15
5.0
 25
5.0
 35
5.0
146
0.0
 13
0.0
 23
0.0
 33
0.0
 16
1.0
 26
0.0
 36
0.0
 17
0.0
 27
1.0
 37
0.0
 76
     0
330
1F
331
29
  0
MATERIAL
  5
45
102
{ACAD_XDICTIONARY
360
3E4
102
}
102
{ACAD_REACTORS
330
43
102
}
330
43
100
AcDbMaterial
  1
ByBlock
  0
MATERIAL
  5
44
102
{ACAD_XDICTIONARY
360
3E2
102
}
102
{ACAD_REACTORS
330
43
102
}
330
43
100
AcDbMaterial
  1
ByLayer
  0
MATERIAL
  5
46
102
{ACAD_XDICTIONARY
360
3E6
102
}
102
{ACAD_REACTORS
330
43
102
}
330
43
100
AcDbMaterial
  1
Global
  0
MLEADERSTYLE
  5
6C
102
{ACAD_REACTORS
330
6B
102
}
330
6B
100
AcDbMLeaderStyle
170
     2
171
     1
172
     0
 90
        2
 40
0.0
 41
0.0
173
     1
 91
-1056964608
340
14
 92
       -2
290
     1
 42
0.09
291
     1
 43
0.36
  3
Standard
 44
0.18
300

342
11
174
     1
178
     6
175
     1
176
     0
 93
-1056964608
 45
0.18
292
     0
297
     0
 46
0.18
 94
-1056964608
 47
1.0
 49
1.0
140
1.0
293
     1
141
0.0
294
     1
177
     0
142
1.0
295
     0
296
     0
143
0.125
1001
ACAD_MLEADERVER
1070
     2
  0
MLINESTYLE
  5
18
102
{ACAD_REACTORS
330
17
102
}
330
17
100
AcDbMlineStyle
  2
STANDARD
 70
     0
  3

 62
   256
 51
90.0
 52
90.0
 71
     2
 49
0.5
 62
   256
  6
BYLAYER
 49
-0.5
 62
   256
  6
BYLAYER
  0
ACDBPLACEHOLDER
  5
F
102
{ACAD_REACTORS
330
E
102
}
330
E
  0
SCALE
  5
48
102
{ACAD_REACTORS
330
47
102
}
330
47
100
AcDbScale
 70
     0
300
1:1
140
1.0
141
1.0
290
     1
  0
SCALE
  5
49
102
{ACAD_REACTORS
330
47
102
}
330
47
100
AcDbScale
 70
     0
300
1:2
140
1.0
141
2.0
290
     0
  0
SCALE
  5
4A
102
{ACAD_REACTORS
330
47
102
}
330
47
100
AcDbScale
 70
     0
300
1:4
140
1.0
141
4.0
290
     0
  0
SCALE
  5
4B
102
{ACAD_REACTORS
330
47
102
}
330
47
100
AcDbScale
 70
     0
300
1:5
140
1.0
141
5.0
290
     0
  0
SCALE
  5
4C
102
{ACAD_REACTORS
330
47
102
}
330
47
100
AcDbScale
 70
     0
300
1:8
140
1.0
141
8.0
290
     0
  0
SCALE
  5
4D
102
{ACAD_REACTORS
330
47
102
}
330
47
100
AcDbScale
 70
     0
300
1:10
140
1.0
141
10.0
290
     0
  0
SCALE
  5
4E
102
{ACAD_REACTORS
330
47
102
}
330
47
100
AcDbScale
 70
     0
300
1:16
140
1.0
141
16.0
290
     0
  0
SCALE
  5
4F
102
{ACAD_REACTORS
330
47
102
}
330
47
100
AcDbScale
 70
     0
300
1:20
140
1.0
141
20.0
290
     0
  0
SCALE
  5
50
102
{ACAD_REACTORS
330
47
102
}
330
47
100
AcDbScale
 70
     0
300
1:30
140
1.0
141
30.0
290
     0
  0
SCALE
  5
51
102
{ACAD_REACTORS
330
47
102
}
330
47
100
AcDbScale
 70
     0
300
1:40
140
1.0
141
40.0
290
     0
  0
SCALE
  5
52
102
{ACAD_REACTORS
330
47
102
}
330
47
100
AcDbScale
 70
     0
300
1:50
140
1.0
141
50.0
290
     0
  0
SCALE
  5
53
102
{ACAD_REACTORS
330
47
102
}
330
47
100
AcDbScale
 70
     0
300
1:100
140
1.0
141
100.0
290
     0
  0
SCALE
  5
54
102
{ACAD_REACTORS
330
47
102
}
330
47
100
AcDbScale
 70
     0
300
2:1
140
2.0
141
1.0
290
     0
  0
SCALE
  5
55
102
{ACAD_REACTORS
330
47
102
}
330
47
100
AcDbScale
 70
     0
300
4:1
140
4.0
141
1.0
290
     0
  0
SCALE
  5
56
102
{ACAD_REACTORS
330
47
102
}
330
47
100
AcDbScale
 70
     0
300
8:1
140
8.0
141
1.0
290
     0
  0
SCALE
  5
57
102
{ACAD_REACTORS
330
47
102
}
330
47
100
AcDbScale
 70
     0
300
10:1
140
10.0
141
1.0
290
     0
  0
SCALE
  5
58
102
{ACAD_REACTORS
330
47
102
}
330
47
100
AcDbScale
 70
     0
300
100:1
140
100.0
141
1.0
290
     0
  0
SCALE
  5
59
102
{ACAD_REACTORS
330
47
102
}
330
47
100
AcDbScale
 70
     0
300
1/128" = 1'-0"
140
0.007812
141
12.0
290
     0
  0
SCALE
  5
5A
102
{ACAD_REACTORS
330
47
102
}
330
47
100
AcDbScale
 70
     0
300
1/64" = 1'-0"
140
0.015625
141
12.0
290
     0
  0
SCALE
  5
5B
102
{ACAD_REACTORS
330
47
102
}
330
47
100
AcDbScale
 70
     0
300
1/32" = 1'-0"
140
0.03125
141
12.0
290
     0
  0
SCALE
  5
5C
102
{ACAD_REACTORS
330
47
102
}
330
47
100
AcDbScale
 70
     0
300
1/16" = 1'-0"
140
0.0625
141
12.0
290
     0
  0
SCALE
  5
5D
102
{ACAD_REACTORS
330
47
102
}
330
47
100
AcDbScale
 70
     0
300
3/32" = 1'-0"
140
0.09375
141
12.0
290
     0
  0
SCALE
  5
5E
102
{ACAD_REACTORS
330
47
102
}
330
47
100
AcDbScale
 70
     0
300
1/8" = 1'-0"
140
0.125
141
12.0
290
     0
  0
SCALE
  5
5F
102
{ACAD_REACTORS
330
47
102
}
330
47
100
AcDbScale
 70
     0
300
3/16" = 1'-0"
140
0.1875
141
12.0
290
     0
  0
SCALE
  5
60
102
{ACAD_REACTORS
330
47
102
}
330
47
100
AcDbScale
 70
     0
300
1/4" = 1'-0"
140
0.25
141
12.0
290
     0
  0
SCALE
  5
61
102
{ACAD_REACTORS
330
47
102
}
330
47
100
AcDbScale
 70
     0
300
3/8" = 1'-0"
140
0.375
141
12.0
290
     0
  0
SCALE
  5
62
102
{ACAD_REACTORS
330
47
102
}
330
47
100
AcDbScale
 70
     0
300
1/2" = 1'-0"
140
0.5
141
12.0
290
     0
  0
SCALE
  5
63
102
{ACAD_REACTORS
330
47
102
}
330
47
100
AcDbScale
 70
     0
300
3/4" = 1'-0"
140
0.75
141
12.0
290
     0
  0
SCALE
  5
64
102
{ACAD_REACTORS
330
47
102
}
330
47
100
AcDbScale
 70
     0
300
1" = 1'-0"
140
1.0
141
12.0
290
     0
  0
SCALE
  5
65
102
{ACAD_REACTORS
330
47
102
}
330
47
100
AcDbScale
 70
     0
300
1-1/2" = 1'-0"
140
1.5
141
12.0
290
     0
  0
SCALE
  5
66
102
{ACAD_REACTORS
330
47
102
}
330
47
100
AcDbScale
 70
     0
300
3" = 1'-0"
140
3.0
141
12.0
290
     0
  0
SCALE
  5
67
102
{ACAD_REACTORS
330
47
102
}
330
47
100
AcDbScale
 70
     0
300
6" = 1'-0"
140
6.0
141
12.0
290
     0
  0
SCALE
  5
68
102
{ACAD_REACTORS
330
47
102
}
330
47
100
AcDbScale
 70
     0
300
1'-0" = 1'-0"
140
12.0
141
12.0
290
     0
  0
ACDBSECTIONVIEWSTYLE
  5
3F6
102
{ACAD_XDICTIONARY
360
618
102
}
102
{ACAD_REACTORS
330
3F2
102
}
330
3F2
100
AcDbModelDocViewStyle
 70
     0
  3
Metric50
290
     0
100
AcDbSectionViewStyle
 70
     0
 71
     0
 90
      102
 71
     1
340
11
 40
5.0
340
0
340
0
 40
5.0
300
I, O, Q, S, X, Z
 40
10.0
 90
        0
 40
2.5
 90
        0
 71
     2
340
16
 90
       25
340
16
 90
       50
 40
5.0
 40
2.5
 40
5.0
 71
     3
340
11
 40
5.0
 90
        0
 40
15.0
 90
        1
300
%<\AcVar ViewSectionStartId>%-%<\AcVar ViewSectionEndId>% (%<\AcVar ViewScale \f "%sn">%)
 71
     4
300
ANSI31
 40
1.0
 90
        0
290
     0
290
     0
 90
        6
 40
0.0
 40
1.570796326794896
 40
0.2617993877991494
 40
1.308996938995747
 40
-0.2617993877991494
 40
1.832595714594046
  0
TABLESTYLE
  5
6A
102
{ACAD_XDICTIONARY
360
3E8
102
}
102
{ACAD_REACTORS
330
69
102
}
330
69
100
AcDbTableStyle
  3
Standard
 70
     0
 71
     0
 40
0.06
 41
0.06
280
     0
281
     0
  7
Standard
140
0.18
170
     2
 62
     0
 63
     7
283
     0
274
    -2
284
     1
 64
     0
275
    -2
285
     1
 65
     0
276
    -2
286
     1
 66
     0
277
    -2
287
     1
 67
     0
278
    -2
288
     1
 68
     0
279
    -2
289
     1
 69
     0
  7
Standard
140
0.25
170
     5
 62
     0
 63
     7
283
     0
274
    -2
284
     1
 64
     0
275
    -2
285
     1
 65
     0
276
    -2
286
     1
 66
     0
277
    -2
287
     1
 67
     0
278
    -2
288
     1
 68
     0
279
    -2
289
     1
 69
     0
  7
Standard
140
0.18
170
     5
 62
     0
 63
     7
283
     0
274
    -2
284
     1
 64
     0
275
    -2
285
     1
 65
     0
276
    -2
286
     1
 66
     0
277
    -2
287
     1
 67
     0
278
    -2
288
     1
 68
     0
279
    -2
289
     1
 69
     0
  0
VISUALSTYLE
  5
2F
102
{ACAD_XDICTIONARY
360
5EF
102
}
102
{ACAD_REACTORS
330
2A
102
}
330
2A
100
AcDbVisualStyle
  2

 70
     4
 71
     0
 72
     2
 73
     0
 90
        0
 40
-0.6
 41
-30.0
 62
     5
 63
     7
 74
     1
 91
        4
 64
     7
 65
   257
 75
     1
175
     1
 42
1.0
 92
        0
 66
   257
 43
1.0
 76
     1
 77
     6
 78
     2
 67
     7
 79
     5
170
     0
171
     0
290
     0
174
     0
 93
        1
 44
0.0
173
     0
291
     0
 45
0.0
1001
ACAD
1000
AcDbSavedByObjectVersion
1070
     0
  0
VISUALSTYLE
  5
32
102
{ACAD_XDICTIONARY
360
5F5
102
}
102
{ACAD_REACTORS
330
2A
102
}
330
2A
100
AcDbVisualStyle
  2

 70
     7
 71
     1
 72
     0
 73
     1
 90
        0
 40
-0.6
 41
-30.0
 62
     5
 63
     7
 74
     0
 91
        4
 64
     7
 65
   257
 75
     1
175
     1
 42
1.0
 92
        8
 66
     7
 43
1.0
 76
     1
 77
     6
 78
     2
 67
     7
 79
     5
170
     0
171
     0
290
     0
174
     0
 93
        1
 44
0.0
173
     0
291
     1
 45
0.0
1001
ACAD
1000
AcDbSavedByObjectVersion
1070
     0
  0
VISUALSTYLE
  5
36
102
{ACAD_XDICTIONARY
360
5FD
102
}
102
{ACAD_REACTORS
330
2A
102
}
330
2A
100
AcDbVisualStyle
  2

 70
    12
 71
     2
 72
     2
 73
     0
 90
        0
 40
-0.6
 41
-30.0
 62
     5
 63
     7
 74
     1
 91
        4
 64
     7
 65
   257
 75
     1
175
     1
 42
1.0
 92
        8
 66
     7
 43
1.0
 76
     1
 77
     6
 78
     2
 67
     7
 79
     5
170
     0
171
     0
290
     0
174
     0
 93
        1
 44
50.0
173
     0
291
     1
 45
0.0
1001
ACAD
1000
AcDbSavedByObjectVersion
1070
     0
  0
VISUALSTYLE
  5
3A
102
{ACAD_XDICTIONARY
360
605
102
}
102
{ACAD_REACTORS
330
2A
102
}
330
2A
100
AcDbVisualStyle
  2

 70
    16
 71
     2
 72
     2
 73
     3
 90
        0
 40
-0.6
 41
-30.0
 62
     5
 63
     8
 74
     1
 91
        4
 64
     7
 65
   257
 75
     1
175
     1
 42
1.0
 92
        8
 66
     8
 43
1.0
 76
     1
 77
     6
 78
     2
 67
     7
 79
     5
170
     0
171
     0
290
     0
174
     0
 93
        1
 44
0.0
173
     0
291
     1
 45
0.0
1001
ACAD
1000
AcDbSavedByObjectVersion
1070
     0
  0
VISUALSTYLE
  5
34
102
{ACAD_XDICTIONARY
360
5F9
102
}
102
{ACAD_REACTORS
330
2A
102
}
330
2A
100
AcDbVisualStyle
  2

 70
     9
 71
     3
 72
     2
 73
     0
 90
        0
 40
-0.6
 41
-30.0
 62
     5
 63
     7
 74
     2
 91
        2
 64
     7
 65
   257
 75
     1
175
     1
 42
179.0
 92
        8
 66
     7
 43
1.0
 76
     1
 77
     6
 78
     2
 67
     7
 79
     3
170
     0
171
     0
290
     0
174
     0
 93
        1
 44
0.0
173
     0
291
     0
 45
0.0
1001
ACAD
1000
AcDbSavedByObjectVersion
1070
     0
  0
VISUALSTYLE
  5
35
102
{ACAD_XDICTIONARY
360
5FB
102
}
102
{ACAD_REACTORS
330
2A
102
}
330
2A
100
AcDbVisualStyle
  2

 70
    11
 71
     2
 72
     2
 73
     0
 90
        0
 40
-0.6
 41
-30.0
 62
     5
 63
     7
 74
     1
 91
        4
 64
     7
 65
   257
 75
     1
175
     1
 42
1.0
 92
        8
 66
     7
 43
1.0
 76
     1
 77
     6
 78
     2
 67
     7
 79
     5
170
     0
171
     0
290
     0
174
     0
 93
        1
 44
-50.0
173
     0
291
     1
 45
0.0
1001
ACAD
1000
AcDbSavedByObjectVersion
1070
     0
  0
VISUALSTYLE
  5
3D
102
{ACAD_XDICTIONARY
360
60B
102
}
102
{ACAD_REACTORS
330
2A
102
}
330
2A
100
AcDbVisualStyle
  2

 70
    22
 71
     2
 72
     2
 73
     0
 90
        0
 40
-0.6
 41
-30.0
 62
     5
 63
     7
 74
     1
 91
        4
 64
     7
 65
   257
 75
     1
175
     1
 42
1.0
 92
        8
 66
     7
 43
1.0
 76
     1
 77
     6
 78
     2
 67
     7
 79
     5
170
     0
171
     0
290
     0
174
     0
 93
        1
 44
0.0
173
     0
291
     1
 45
0.0
1001
ACAD
1000
AcDbSavedByObjectVersion
1070
     0
  0
VISUALSTYLE
  5
39
102
{ACAD_XDICTIONARY
360
603
102
}
102
{ACAD_REACTORS
330
2A
102
}
330
2A
100
AcDbVisualStyle
  2

 70
    15
 71
     2
 72
     2
 73
     0
 90
        0
 40
-0.6
 41
-30.0
 62
     5
 63
     7
 74
     1
 91
        4
 64
     7
 65
   257
 75
     1
175
     1
 42
1.0
 92
        8
 66
     7
 43
1.0
 76
     1
 77
     6
 78
     2
 67
     7
 79
     5
170
     0
171
     0
290
     0
174
     0
 93
        1
 44
0.0
173
     0
291
     1
 45
0.0
1001
ACAD
1000
AcDbSavedByObjectVersion
1070
     0
  0
VISUALSTYLE
  5
2B
102
{ACAD_XDICTIONARY
360
5E7
102
}
102
{ACAD_REACTORS
330
2A
102
}
330
2A
100
AcDbVisualStyle
  2

 70
     0
 71
     2
 72
     1
 73
     1
 90
        2
 40
-0.6
 41
30.0
 62
     5
 63
     7
 74
     0
 91
        0
 64
     7
 65
   257
 75
     1
175
     1
 42
1.0
 92
        8
 66
     7
 43
1.0
 76
     1
 77
     6
 78
     2
 67
     7
 79
     5
170
     0
171
     0
290
     0
174
     0
 93
       13
 44
0.0
173
     0
291
     1
 45
0.0
1001
ACAD
1000
AcDbSavedByObjectVersion
1070
     0
  0
VISUALSTYLE
  5
2C
102
{ACAD_XDICTIONARY
360
5E9
102
}
102
{ACAD_REACTORS
330
2A
102
}
330
2A
100
AcDbVisualStyle
  2

 70
     1
 71
     2
 72
     1
 73
     1
 90
        2
 40
-0.6
 41
30.0
 62
     5
 63
     7
 74
     1
 91
        0
 64
     7
 65
   257
 75
     1
175
     1
 42
1.0
 92
        0
 66
   257
 43
1.0
 76
     1
 77
     6
 78
     2
 67
     7
 79
     5
170
     0
171
     0
290
     0
174
     0
 93
       13
 44
0.0
173
     0
291
     1
 45
0.0
1001
ACAD
1000
AcDbSavedByObjectVersion
1070
     0
  0
VISUALSTYLE
  5
2D
102
{ACAD_XDICTIONARY
360
5EB
102
}
102
{ACAD_REACTORS
330
2A
102
}
330
2A
100
AcDbVisualStyle
  2

 70
     2
 71
     2
 72
     2
 73
     1
 90
        2
 40
-0.6
 41
30.0
 62
     5
 63
     7
 74
     0
 91
        0
 64
     7
 65
   257
 75
     1
175
     1
 42
1.0
 92
        0
 66
     7
 43
1.0
 76
     1
 77
     6
 78
     2
 67
     7
 79
     5
170
     0
171
     0
290
     0
174
     0
 93
       13
 44
0.0
173
     0
291
     1
 45
0.0
1001
ACAD
1000
AcDbSavedByObjectVersion
1070
     0
  0
VISUALSTYLE
  5
2E
102
{ACAD_XDICTIONARY
360
5ED
102
}
102
{ACAD_REACTORS
330
2A
102
}
330
2A
100
AcDbVisualStyle
  2

 70
     3
 71
     2
 72
     2
 73
     1
 90
        2
 40
-0.6
 41
30.0
 62
     5
 63
     7
 74
     1
 91
        0
 64
     7
 65
   257
 75
     1
175
     1
 42
1.0
 92
        0
 66
   257
 43
1.0
 76
     1
 77
     6
 78
     2
 67
     7
 79
     5
170
     0
171
     0
290
     0
174
     0
 93
       13
 44
0.0
173
     0
291
     1
 45
0.0
1001
ACAD
1000
AcDbSavedByObjectVersion
1070
     0
  0
VISUALSTYLE
  5
31
102
{ACAD_XDICTIONARY
360
5F3
102
}
102
{ACAD_REACTORS
330
2A
102
}
330
2A
100
AcDbVisualStyle
  2

 70
     6
 71
     1
 72
     2
 73
     2
 90
        0
 40
-0.6
 41
-30.0
 62
     5
 63
     7
 74
     2
 91
        2
 64
     7
 65
   257
 75
     2
175
     1
 42
40.0
 92
        0
 66
   257
 43
1.0
 76
     1
 77
     6
 78
     2
 67
     7
 79
     3
170
     0
171
     0
290
     0
174
     0
 93
        1
 44
0.0
173
     0
291
     0
 45
0.0
1001
ACAD
1000
AcDbSavedByObjectVersion
1070
     0
  0
VISUALSTYLE
  5
3B
102
{ACAD_XDICTIONARY
360
607
102
}
102
{ACAD_REACTORS
330
2A
102
}
330
2A
100
AcDbVisualStyle
  2

 70
    20
 71
     2
 72
     2
 73
     0
 90
        0
 40
-0.6
 41
-30.0
 62
     5
 63
     7
 74
     1
 91
        4
 64
     7
 65
   257
 75
     1
175
     1
 42
1.0
 92
       10
 66
     7
 43
1.0
 76
     1
 77
     6
 78
     2
 67
     7
 79
     5
170
     0
171
     0
290
     0
174
     0
 93
        1
 44
0.0
173
     0
291
     1
 45
0.0
1001
ACAD
1000
AcDbSavedByObjectVersion
1070
     0
  0
VISUALSTYLE
  5
38
102
{ACAD_XDICTIONARY
360
601
102
}
102
{ACAD_REACTORS
330
2A
102
}
330
2A
100
AcDbVisualStyle
  2

 70
    14
 71
     2
 72
     2
 73
     0
 90
        0
 40
-0.6
 41
-30.0
 62
     5
 63
     7
 74
     1
 91
        4
 64
     7
 65
   257
 75
     7
175
     7
 42
1.0
 92
        8
 66
     7
 43
1.0
 76
     1
 77
     6
 78
     2
 67
     7
 79
     5
170
     0
171
     0
290
     0
174
     0
 93
        1
 44
0.0
173
     0
291
     1
 45
0.0
1001
ACAD
1000
AcDbSavedByObjectVersion
1070
     0
  0
VISUALSTYLE
  5
3C
102
{ACAD_XDICTIONARY
360
609
102
}
102
{ACAD_REACTORS
330
2A
102
}
330
2A
100
AcDbVisualStyle
  2

 70
    21
 71
     2
 72
     2
 73
     0
 90
        0
 40
-0.6
 41
-30.0
 62
     5
 63
     7
 74
     1
 91
        4
 64
     7
 65
   257
 75
     1
175
     1
 42
1.0
 92
        9
 66
     7
 43
1.0
 76
     1
 77
     6
 78
     2
 67
     7
 79
     5
170
     0
171
     0
290
     0
174
     0
 93
        1
 44
0.0
173
     0
291
     1
 45
0.0
1001
ACAD
1000
AcDbSavedByObjectVersion
1070
     0
  0
VISUALSTYLE
  5
33
102
{ACAD_XDICTIONARY
360
5F7
102
}
102
{ACAD_REACTORS
330
2A
102
}
330
2A
100
AcDbVisualStyle
  2

 70
     8
 71
     2
 72
     3
 73
     0
 90
        2
 40
-0.6
 41
30.0
 62
     5
 63
     7
 74
     0
 91
        0
 64
     7
 65
   257
 75
     1
175
     1
 42
1.0
 92
        8
 66
   257
 43
1.0
 76
     1
 77
     6
 78
     2
 67
     7
 79
     3
170
     0
171
     0
290
     0
174
     0
 93
       13
 44
0.0
173
     0
291
     0
 45
0.0
1001
ACAD
1000
AcDbSavedByObjectVersion
1070
     0
  0
VISUALSTYLE
  5
42
102
{ACAD_XDICTIONARY
360
615
102
}
102
{ACAD_REACTORS
330
2A
102
}
330
2A
100
AcDbVisualStyle
  2

 70
    27
 71
     2
 72
     2
 73
     1
 90
        2
 40
-0.6
 41
30.0
 62
     5
 63
     7
 74
     0
 91
        4
 64
     7
 65
   257
 75
     1
175
     1
 42
1.0
 92
        8
 66
   257
 43
1.0
 76
     1
 77
     6
 78
     2
 67
     8
 79
     3
170
     0
171
     0
290
     0
174
     0
 93
        5
 44
0.0
173
     0
291
     0
 45
0.0
1001
ACAD
1000
AcDbSavedByObjectVersion
1070
     0
  0
VISUALSTYLE
  5
41
102
{ACAD_XDICTIONARY
360
613
102
}
102
{ACAD_REACTORS
330
2A
102
}
330
2A
100
AcDbVisualStyle
  2

 70
    26
 71
     2
 72
     2
 73
     1
 90
        2
 40
-0.6
 41
30.0
 62
     5
 63
     7
 74
     1
 91
       10
 64
     7
 65
   257
 75
     2
175
     1
 42
1.0
 92
        8
 66
   257
 43
1.0
 76
     1
 77
     6
 78
     2
 67
     7
 79
     3
170
     0
171
     0
290
     0
174
     0
 93
        5
 44
0.0
173
     0
291
     0
 45
0.0
1001
ACAD
1000
AcDbSavedByObjectVersion
1070
     0
  0
VISUALSTYLE
  5
3E
102
{ACAD_XDICTIONARY
360
60D
102
}
102
{ACAD_REACTORS
330
2A
102
}
330
2A
100
AcDbVisualStyle
  2

 70
    23
 71
     2
 72
     2
 73
     3
 90
        0
 40
-0.6
 41
-30.0
 62
     5
 63
     7
 74
     2
 91
        2
 64
     7
 65
     7
 75
     1
175
     1
 42
40.0
 92
        8
 66
     7
 43
1.0
 76
     1
 77
     6
 78
     2
 67
     7
 79
     3
170
     0
171
     0
290
     0
174
     0
 93
        1
 44
0.0
173
     0
291
     0
 45
0.0
1001
ACAD
1000
AcDbSavedByObjectVersion
1070
     0
  0
VISUALSTYLE
  5
3F
102
{ACAD_XDICTIONARY
360
60F
102
}
102
{ACAD_REACTORS
330
2A
102
}
330
2A
100
AcDbVisualStyle
  2

 70
    24
 71
     1
 72
     2
 73
     2
 90
        0
 40
-0.6
 41
-30.0
 62
     5
 63
     7
 74
     2
 91
        2
 64
     7
 65
     7
 75
     1
175
     1
 42
40.0
 92
       11
 66
     7
 43
1.0
 76
     1
 77
     6
 78
     2
 67
     7
 79
     6
170
     0
171
     0
290
     0
174
     0
 93
        1
 44
0.0
173
     0
291
     0
 45
0.0
1001
ACAD
1000
AcDbSavedByObjectVersion
1070
     0
  0
VISUALSTYLE
  5
37
102
{ACAD_XDICTIONARY
360
5FF
102
}
102
{ACAD_REACTORS
330
2A
102
}
330
2A
100
AcDbVisualStyle
  2

 70
    13
 71
     2
 72
     2
 73
     0
 90
        0
 40
-0.6
 41
-30.0
 62
     5
 63
     7
 74
     1
 91
        4
 64
     7
 65
   257
 75
     1
175
     1
 42
1.0
 92
       12
 66
     7
 43
1.0
 76
     1
 77
     6
 78
     2
 67
     7
 79
     5
170
     0
171
     0
290
     0
174
     0
 93
        1
 44
0.0
173
     0
291
     1
 45
0.0
1001
ACAD
1000
AcDbSavedByObjectVersion
1070
     0
  0
VISUALSTYLE
  5
30
102
{ACAD_XDICTIONARY
360
5F1
102
}
102
{ACAD_REACTORS
330
2A
102
}
330
2A
100
AcDbVisualStyle
  2

 70
     5
 71
     0
 72
     2
 73
     0
 90
        0
 40
-0.6
 41
-30.0
 62
     5
 63
     7
 74
     1
 91
        4
 64
     7
 65
   257
 75
     1
175
     1
 42
1.0
 92
        0
 66
   257
 43
1.0
 76
     1
 77
     6
 78
     2
 67
     7
 79
     3
170
     0
171
     0
290
     0
174
     0
 93
        1
 44
0.0
173
     0
291
     0
 45
0.0
1001
ACAD
1000
AcDbSavedByObjectVersion
1070
     0
  0
VISUALSTYLE
  5
40
102
{ACAD_XDICTIONARY
360
611
102
}
102
{ACAD_REACTORS
330
2A
102
}
330
2A
100
AcDbVisualStyle
  2

 70
    25
 71
     2
 72
     2
 73
     1
 90
        1
 40
0.5
 41
-30.0
 62
     5
 63
     7
 74
     1
 91
        0
 64
     7
 65
   257
 75
     1
175
     1
 42
1.0
 92
        8
 66
     7
 43
1.0
 76
     1
 77
     6
 78
     2
 67
     7
 79
     3
170
     0
171
     0
290
     0
174
     0
 93
       13
 44
0.0
173
     0
291
     0
 45
0.0
1001
ACAD
1000
AcDbSavedByObjectVersion
1070
     0
  0
DICTIONARYVAR
  5
3AF
102
{ACAD_REACTORS
330
3AE
102
}
330
3AE
100
DictionaryVariables
280
     0
  1
1:1
  0
DICTIONARYVAR
  5
3F0
102
{ACAD_REACTORS
330
3AE
102
}
330
3AE
100
DictionaryVariables
280
     0
  1
STANDARD
  0
DICTIONARYVAR
  5
3EF
102
{ACAD_REACTORS
330
3AE
102
}
330
3AE
100
DictionaryVariables
280
     0
  1
STANDARD
  0
DICTIONARYVAR
  5
5D6
102
{ACAD_REACTORS
330
3AE
102
}
330
3AE
100
DictionaryVariables
280
     0
  1
Metric50
  0
DICTIONARYVAR
  5
5D7
102
{ACAD_REACTORS
330
3AE
102
}
330
3AE
100
DictionaryVariables
280
     0
  1
Metric50
  0
DICTIONARYVAR
  5
5DB
102
{ACAD_REACTORS
330
3AE
102
}
330
3AE
100
DictionaryVariables
280
     0
  1
2
  0
DICTIONARYVAR
  5
5DA
102
{ACAD_REACTORS
330
3AE
102
}
330
3AE
100
DictionaryVariables
280
     0
  1
1
  0
DICTIONARYVAR
  5
5D9
102
{ACAD_REACTORS
330
3AE
102
}
330
3AE
100
DictionaryVariables
280
     0
  1
0
  0
DICTIONARYVAR
  5
3B0
102
{ACAD_REACTORS
330
3AE
102
}
330
3AE
100
DictionaryVariables
280
     0
  1
1
  0
DICTIONARYVAR
  5
5D8
102
{ACAD_REACTORS
330
3AE
102
}
330
3AE
100
DictionaryVariables
280
     0
  1
127
  0
DICTIONARYVAR
  5
5DC
102
{ACAD_REACTORS
330
3AE
102
}
330
3AE
100
DictionaryVariables
280
     0
  1
2
  0
DICTIONARY
  5
61A
330
3F7
100
AcDbDictionary
280
     1
281
     1
  3
ACAD_XREC_ROUNDTRIP
360
61B
  0
DICTIONARY
  5
5E1
330
1E
100
AcDbDictionary
280
     1
281
     1
  3
ACAD_XREC_ROUNDTRIP
360
5E2
  0
DICTIONARY
  5
5E5
330
26
100
AcDbDictionary
280
     1
281
     1
  3
ACAD_XREC_ROUNDTRIP
360
5E6
  0
DICTIONARY
  5
5E3
330
22
100
AcDbDictionary
280
     1
281
     1
  3
ACAD_XREC_ROUNDTRIP
360
5E4
  0
DICTIONARY
  5
3E4
330
45
100
AcDbDictionary
280
     1
281
     1
  3
ACAD_XREC_ROUNDTRIP
360
3E5
  0
DICTIONARY
  5
3E2
330
44
100
AcDbDictionary
280
     1
281
     1
  3
ACAD_XREC_ROUNDTRIP
360
3E3
  0
DICTIONARY
  5
3E6
330
46
100
AcDbDictionary
280
     1
281
     1
  3
ACAD_XREC_ROUNDTRIP
360
3E7
  0
DICTIONARY
  5
618
330
3F6
100
AcDbDictionary
280
     1
281
     1
  3
ACAD_XREC_ROUNDTRIP
360
619
  0
DICTIONARY
  5
3E8
330
6A
100
AcDbDictionary
280
     1
281
     1
  3
ACAD_ROUNDTRIP_2008_TABLESTYLE_CELLSTYLEMAP
360
5DE
  3
ACAD_XREC_ROUNDTRIP
360
617
  0
DICTIONARY
  5
5EF
330
2F
100
AcDbDictionary
280
     1
281
     1
  3
ACAD_XREC_ROUNDTRIP
360
5F0
  0
DICTIONARY
  5
5F5
330
32
100
AcDbDictionary
280
     1
281
     1
  3
ACAD_XREC_ROUNDTRIP
360
5F6
  0
DICTIONARY
  5
5FD
330
36
100
AcDbDictionary
280
     1
281
     1
  3
ACAD_XREC_ROUNDTRIP
360
5FE
  0
DICTIONARY
  5
605
330
3A
100
AcDbDictionary
280
     1
281
     1
  3
ACAD_XREC_ROUNDTRIP
360
606
  0
DICTIONARY
  5
5F9
330
34
100
AcDbDictionary
280
     1
281
     1
  3
ACAD_XREC_ROUNDTRIP
360
5FA
  0
DICTIONARY
  5
5FB
330
35
100
AcDbDictionary
280
     1
281
     1
  3
ACAD_XREC_ROUNDTRIP
360
5FC
  0
DICTIONARY
  5
60B
330
3D
100
AcDbDictionary
280
     1
281
     1
  3
ACAD_XREC_ROUNDTRIP
360
60C
  0
DICTIONARY
  5
603
330
39
100
AcDbDictionary
280
     1
281
     1
  3
ACAD_XREC_ROUNDTRIP
360
604
  0
DICTIONARY
  5
5E7
330
2B
100
AcDbDictionary
280
     1
281
     1
  3
ACAD_XREC_ROUNDTRIP
360
5E8
  0
DICTIONARY
  5
5E9
330
2C
100
AcDbDictionary
280
     1
281
     1
  3
ACAD_XREC_ROUNDTRIP
360
5EA
  0
DICTIONARY
  5
5EB
330
2D
100
AcDbDictionary
280
     1
281
     1
  3
ACAD_XREC_ROUNDTRIP
360
5EC
  0
DICTIONARY
  5
5ED
330
2E
100
AcDbDictionary
280
     1
281
     1
  3
ACAD_XREC_ROUNDTRIP
360
5EE
  0
DICTIONARY
  5
5F3
330
31
100
AcDbDictionary
280
     1
281
     1
  3
ACAD_XREC_ROUNDTRIP
360
5F4
  0
DICTIONARY
  5
607
330
3B
100
AcDbDictionary
280
     1
281
     1
  3
ACAD_XREC_ROUNDTRIP
360
608
  0
DICTIONARY
  5
601
330
38
100
AcDbDictionary
280
     1
281
     1
  3
ACAD_XREC_ROUNDTRIP
360
602
  0
DICTIONARY
  5
609
330
3C
100
AcDbDictionary
280
     1
281
     1
  3
ACAD_XREC_ROUNDTRIP
360
60A
  0
DICTIONARY
  5
5F7
330
33
100
AcDbDictionary
280
     1
281
     1
  3
ACAD_XREC_ROUNDTRIP
360
5F8
  0
DICTIONARY
  5
615
330
42
100
AcDbDictionary
280
     1
281
     1
  3
ACAD_XREC_ROUNDTRIP
360
616
  0
DICTIONARY
  5
613
330
41
100
AcDbDictionary
280
     1
281
     1
  3
ACAD_XREC_ROUNDTRIP
360
614
  0
DICTIONARY
  5
60D
330
3E
100
AcDbDictionary
280
     1
281
     1
  3
ACAD_XREC_ROUNDTRIP
360
60E
  0
DICTIONARY
  5
60F
330
3F
100
AcDbDictionary
280
     1
281
     1
  3
ACAD_XREC_ROUNDTRIP
360
610
  0
DICTIONARY
  5
5FF
330
37
100
AcDbDictionary
280
     1
281
     1
  3
ACAD_XREC_ROUNDTRIP
360
600
  0
DICTIONARY
  5
5F1
330
30
100
AcDbDictionary
280
     1
281
     1
  3
ACAD_XREC_ROUNDTRIP
360
5F2
  0
DICTIONARY
  5
611
330
40
100
AcDbDictionary
280
     1
281
     1
  3
ACAD_XREC_ROUNDTRIP
360
612
  0
XRECORD
  5
61B
102
{ACAD_REACTORS
330
61A
102
}
330
61A
100
AcDbXrecord
280
     1
102
DISPLAYNAME
  1
Metric50
102
FLAGS
 90
        0
  0
XRECORD
  5
5E2
102
{ACAD_REACTORS
330
5E1
102
}
330
5E1
100
AcDbXrecord
280
     1
102
SHADEPLOT
 70
     0
102
SHADEPLOTRESLEVEL
 70
     2
102
SHADEPLOTCUSTOMDPI
 70
   300
  0
XRECORD
  5
5E6
102
{ACAD_REACTORS
330
5E5
102
}
330
5E5
100
AcDbXrecord
280
     1
102
SHADEPLOT
 70
     0
102
SHADEPLOTRESLEVEL
 70
     2
102
SHADEPLOTCUSTOMDPI
 70
   300
  0
XRECORD
  5
5E4
102
{ACAD_REACTORS
330
5E3
102
}
330
5E3
100
AcDbXrecord
280
     1
102
SHADEPLOT
 70
     0
102
SHADEPLOTRESLEVEL
 70
     2
102
SHADEPLOTCUSTOMDPI
 70
   300
  0
XRECORD
  5
3E5
102
{ACAD_REACTORS
330
3E4
102
}
330
3E4
100
AcDbXrecord
280
     1
102
MATERIAL
148
0.0
149
0.0
149
0.0
 93
        0
 94
      127
282
     0
 72
     1
 77
     1
171
     1
175
     1
179
     1
273
     0
  0
XRECORD
  5
3E3
102
{ACAD_REACTORS
330
3E2
102
}
330
3E2
100
AcDbXrecord
280
     1
102
MATERIAL
148
0.0
149
0.0
149
0.0
 93
        0
 94
      127
282
     0
 72
     1
 77
     1
171
     1
175
     1
179
     1
273
     0
  0
XRECORD
  5
3E7
102
{ACAD_REACTORS
330
3E6
102
}
330
3E6
100
AcDbXrecord
280
     1
102
MATERIAL
148
0.0
149
0.0
149
0.0
 93
        0
 94
      127
282
     0
 72
     1
 77
     1
171
     1
175
     1
179
     1
273
     0
  0
XRECORD
  5
619
102
{ACAD_REACTORS
330
618
102
}
330
618
100
AcDbXrecord
280
     1
102
DISPLAYNAME
  1
Metric50
102
FLAGS
 90
        0
  0
CELLSTYLEMAP
  5
5DE
102
{ACAD_REACTORS
330
3E8
102
}
330
3E8
100
AcDbCellStyleMap
 90
        3
300
CELLSTYLE
  1
TABLEFORMAT_BEGIN
 90
        5
170
     1
 91
        0
 92
    32768
 62
   257
 93
        1
300
CONTENTFORMAT
  1
CONTENTFORMAT_BEGIN
 90
        0
 91
        0
 92
        4
 93
        0
300

 40
0.0
140
1.0
 94
        5
 62
     0
340
11
144
0.25
309
CONTENTFORMAT_END
171
     1
301
MARGIN
  1
CELLMARGIN_BEGIN
 40
0.06
 40
0.06
 40
0.06
 40
0.06
 40
0.18
 40
0.18
309
CELLMARGIN_END
 94
        6
 95
        1
302
GRIDFORMAT
  1
GRIDFORMAT_BEGIN
 90
        0
 91
        1
 62
     0
 92
       -2
340
14
 93
        0
 40
0.045
309
GRIDFORMAT_END
 95
        2
302
GRIDFORMAT
  1
GRIDFORMAT_BEGIN
 90
        0
 91
        1
 62
     0
 92
       -2
340
14
 93
        0
 40
0.045
309
GRIDFORMAT_END
 95
        4
302
GRIDFORMAT
  1
GRIDFORMAT_BEGIN
 90
        0
 91
        1
 62
     0
 92
       -2
340
14
 93
        0
 40
0.045
309
GRIDFORMAT_END
 95
        8
302
GRIDFORMAT
  1
GRIDFORMAT_BEGIN
 90
        0
 91
        1
 62
     0
 92
       -2
340
14
 93
        0
 40
0.045
309
GRIDFORMAT_END
 95
       16
302
GRIDFORMAT
  1
GRIDFORMAT_BEGIN
 90
        0
 91
        1
 62
     0
 92
       -2
340
14
 93
        0
 40
0.045
309
GRIDFORMAT_END
 95
       32
302
GRIDFORMAT
  1
GRIDFORMAT_BEGIN
 90
        0
 91
        1
 62
     0
 92
       -2
340
14
 93
        0
 40
0.045
309
GRIDFORMAT_END
309
TABLEFORMAT_END
  1
CELLSTYLE_BEGIN
 90
        1
 91
        1
300
_TITLE
309
CELLSTYLE_END
300
CELLSTYLE
  1
TABLEFORMAT_BEGIN
 90
        5
170
     1
 91
        0
 92
        0
 62
   257
 93
        1
300
CONTENTFORMAT
  1
CONTENTFORMAT_BEGIN
 90
        0
 91
        0
 92
        4
 93
        0
300

 40
0.0
140
1.0
 94
        5
 62
     0
340
11
144
0.18
309
CONTENTFORMAT_END
171
     1
301
MARGIN
  1
CELLMARGIN_BEGIN
 40
0.06
 40
0.06
 40
0.06
 40
0.06
 40
0.18
 40
0.18
309
CELLMARGIN_END
 94
        6
 95
        1
302
GRIDFORMAT
  1
GRIDFORMAT_BEGIN
 90
        0
 91
        1
 62
     0
 92
       -2
340
14
 93
        0
 40
0.045
309
GRIDFORMAT_END
 95
        2
302
GRIDFORMAT
  1
GRIDFORMAT_BEGIN
 90
        0
 91
        1
 62
     0
 92
       -2
340
14
 93
        0
 40
0.045
309
GRIDFORMAT_END
 95
        4
302
GRIDFORMAT
  1
GRIDFORMAT_BEGIN
 90
        0
 91
        1
 62
     0
 92
       -2
340
14
 93
        0
 40
0.045
309
GRIDFORMAT_END
 95
        8
302
GRIDFORMAT
  1
GRIDFORMAT_BEGIN
 90
        0
 91
        1
 62
     0
 92
       -2
340
14
 93
        0
 40
0.045
309
GRIDFORMAT_END
 95
       16
302
GRIDFORMAT
  1
GRIDFORMAT_BEGIN
 90
        0
 91
        1
 62
     0
 92
       -2
340
14
 93
        0
 40
0.045
309
GRIDFORMAT_END
 95
       32
302
GRIDFORMAT
  1
GRIDFORMAT_BEGIN
 90
        0
 91
        1
 62
     0
 92
       -2
340
14
 93
        0
 40
0.045
309
GRIDFORMAT_END
309
TABLEFORMAT_END
  1
CELLSTYLE_BEGIN
 90
        2
 91
        1
300
_HEADER
309
CELLSTYLE_END
300
CELLSTYLE
  1
TABLEFORMAT_BEGIN
 90
        5
170
     1
 91
        0
 92
        0
 62
   257
 93
        1
300
CONTENTFORMAT
  1
CONTENTFORMAT_BEGIN
 90
        0
 91
        0
 92
        4
 93
        0
300

 40
0.0
140
1.0
 94
        2
 62
     0
340
11
144
0.18
309
CONTENTFORMAT_END
171
     1
301
MARGIN
  1
CELLMARGIN_BEGIN
 40
0.06
 40
0.06
 40
0.06
 40
0.06
 40
0.18
 40
0.18
309
CELLMARGIN_END
 94
        6
 95
        1
302
GRIDFORMAT
  1
GRIDFORMAT_BEGIN
 90
        0
 91
        1
 62
     0
 92
       -2
340
14
 93
        0
 40
0.045
309
GRIDFORMAT_END
 95
        2
302
GRIDFORMAT
  1
GRIDFORMAT_BEGIN
 90
        0
 91
        1
 62
     0
 92
       -2
340
14
 93
        0
 40
0.045
309
GRIDFORMAT_END
 95
        4
302
GRIDFORMAT
  1
GRIDFORMAT_BEGIN
 90
        0
 91
        1
 62
     0
 92
       -2
340
14
 93
        0
 40
0.045
309
GRIDFORMAT_END
 95
        8
302
GRIDFORMAT
  1
GRIDFORMAT_BEGIN
 90
        0
 91
        1
 62
     0
 92
       -2
340
14
 93
        0
 40
0.045
309
GRIDFORMAT_END
 95
       16
302
GRIDFORMAT
  1
GRIDFORMAT_BEGIN
 90
        0
 91
        1
 62
     0
 92
       -2
340
14
 93
        0
 40
0.045
309
GRIDFORMAT_END
 95
       32
302
GRIDFORMAT
  1
GRIDFORMAT_BEGIN
 90
        0
 91
        1
 62
     0
 92
       -2
340
14
 93
        0
 40
0.045
309
GRIDFORMAT_END
309
TABLEFORMAT_END
  1
CELLSTYLE_BEGIN
 90
        3
 91
        2
300
_DATA
309
CELLSTYLE_END
  0
XRECORD
  5
617
102
{ACAD_REACTORS
330
3E8
102
}
330
3E8
100
AcDbXrecord
280
     1
102
ACAD_ROUNDTRIP_PRE2007_TABLESTYLE
 90
        4
 91
        0
  1

 92
        4
 93
        0
  2

 94
        4
 95
        0
  3

  0
XRECORD
  5
5F0
102
{ACAD_REACTORS
330
5EF
102
}
330
5EF
100
AcDbXrecord
280
     1
102
RTVSPost2010Prop28
280
     1
102
RTVSPost2010PropOp28
 70
     1
102
RTVSPost2010Prop29
280
     1
102
RTVSPost2010PropOp29
 70
     1
102
RTVSPost2010Prop30
280
     0
102
RTVSPost2010PropOp30
 70
     1
102
RTVSPost2010Prop31
280
     0
102
RTVSPost2010PropOp31
 70
     1
102
RTVSPost2010Prop32
280
     0
102
RTVSPost2010PropOp32
 70
     1
102
RTVSPost2010Prop33
280
     0
102
RTVSPost2010PropOp33
 70
     1
102
RTVSPost2010Prop34
280
     0
102
RTVSPost2010PropOp34
 70
     1
102
RTVSPost2010Prop35
280
     0
102
RTVSPost2010PropOp35
 70
     1
102
RTVSPost2010Prop36
280
     0
102
RTVSPost2010PropOp36
 70
     1
102
RTVSPost2010Prop37
 90
       50
102
RTVSPost2010PropOp37
 70
     1
102
RTVSPost2010Prop38
140
0.0
102
RTVSPost2010PropOp38
 70
     1
102
RTVSPost2010Prop39
140
1.0
102
RTVSPost2010PropOp39
 70
     1
102
RTVSPost2010Prop40
 90
        0
102
RTVSPost2010PropOp40
 70
     1
102
RTVSPost2010Prop41ColorIndex
 90
       18
102
RTVSPost2010Prop41ColorRGB
 90
        0
102
RTVSPost2010PropOp41
 70
     1
102
RTVSPost2010Prop42
 90
       50
102
RTVSPost2010PropOp42
 70
     1
102
RTVSPost2010Prop43
 90
        3
102
RTVSPost2010PropOp43
 70
     1
102
RTVSPost2010Prop44ColorIndex
 90
        5
102
RTVSPost2010Prop44ColorRGB
 90
      255
102
RTVSPost2010PropOp44
 70
     1
102
RTVSPost2010Prop45
280
     0
102
RTVSPost2010PropOp45
 70
     1
102
RTVSPost2010Prop46
 90
       50
102
RTVSPost2010PropOp46
 70
     1
102
RTVSPost2010Prop47
 90
       50
102
RTVSPost2010PropOp47
 70
     1
102
RTVSPost2010Prop48
 90
       50
102
RTVSPost2010PropOp48
 70
     1
102
RTVSPost2010Prop49
280
     0
102
RTVSPost2010PropOp49
 70
     1
102
RTVSPost2010Prop50
 90
       50
102
RTVSPost2010PropOp50
 70
     1
102
RTVSPost2010Prop51ColorIndex
 90
      256
102
RTVSPost2010Prop51ColorRGB
 90
-16777216
102
RTVSPost2010PropOp51
 70
     0
102
RTVSPost2010Prop52
140
1.0
102
RTVSPost2010PropOp52
 70
     0
102
RTVSPost2010Prop53
 90
        2
102
RTVSPost2010PropOp53
 70
     1
102
RTVSPost2010Prop54
  1
strokes_ogs.tif
102
RTVSPost2010PropOp54
 70
     1
102
RTVSPost2010Prop55
280
     0
102
RTVSPost2010PropOp55
 70
     1
102
RTVSPost2010Prop56
140
1.0
102
RTVSPost2010PropOp56
 70
     1
102
RTVSPost2010Prop57
140
1.0
102
RTVSPost2010PropOp57
 70
     1
102
RTVSPropertyOp0
 70
     1
102
RTVSPropertyOp1
 70
     1
102
RTVSPropertyOp2
 70
     1
102
RTVSPropertyOp3
 70
     1
102
RTVSPropertyOp4
 70
     1
102
RTVSPropertyOp5
 70
     1
102
RTVSPropertyOp6
 70
     1
102
RTVSPropertyOp7
 70
     1
102
RTVSPropertyOp8
 70
     1
102
RTVSPropertyOp9
 70
     1
102
RTVSPropertyOp10
 70
     1
102
RTVSPropertyOp11
 70
     1
102
RTVSPropertyOp12
 70
     1
102
RTVSPropertyOp13
 70
     1
102
RTVSPropertyOp14
 70
     1
102
RTVSPropertyOp15
 70
     1
102
RTVSPropertyOp16
 70
     1
102
RTVSPropertyOp17
 70
     1
102
RTVSPropertyOp18
 70
     1
102
RTVSPropertyOp19
 70
     1
102
RTVSPropertyOp20
 70
     1
102
RTVSPropertyOp21
 70
     1
102
RTVSPropertyOp22
 70
     1
102
RTVSPropertyOp23
 70
     1
102
RTVSPropertyOp24
 70
     1
102
RTVSPropertyOp25
 70
     1
102
RTVSPropertyOp26
 70
     1
102
RTVSPropertyOp27
 70
     1
102
RTVSPropertyOp28
 70
     1
102
RTVSPropertyOp29
 70
     1
102
RTVSPropertyOp30
 70
     1
102
RTVSPropertyOp31
 70
     1
102
RTVSPropertyOp32
 70
     1
102
RTVSPropertyOp33
 70
     1
102
RTVSPropertyOp34
 70
     1
102
RTVSPropertyOp35
 70
     1
102
RTVSPropertyOp36
 70
     1
102
RTVSPropertyOp37
 70
     1
102
RTVSPropertyOp38
 70
     1
102
RTVSPropertyOp39
 70
     1
102
RTVSPropertyOp40
 70
     1
102
RTVSPropertyOp41
 70
     1
102
RTVSPropertyOp42
 70
     1
102
RTVSPropertyOp43
 70
     1
102
RTVSPropertyOp44
 70
     1
102
RTVSPropertyOp45
 70
     1
102
RTVSPropertyOp46
 70
     1
102
RTVSPropertyOp47
 70
     1
102
RTVSPropertyOp48
 70
     1
102
RTVSPropertyOp49
 70
     1
102
RTVSPropertyOp50
 70
     1
102
RTVSPropertyOp51
 70
     0
102
RTVSPropertyOp52
 70
     0
102
RTVSPropertyOp53
 70
     1
102
RTVSPropertyOp54
 70
     1
102
RTVSPropertyOp55
 70
     1
102
RTVSPropertyOp56
 70
     1
102
RTVSPropertyOp57
 70
     1
102
RTVSPropertyOp58
 70
     1
102
RTVSPropertyOp59
 70
     1
102
RTVSPropertyOp60
 70
     1
102
RTVSPropertyOp61
 70
     1
102
RTVSPropertyOp62
 70
     1
  0
XRECORD
  5
5F6
102
{ACAD_REACTORS
330
5F5
102
}
330
5F5
100
AcDbXrecord
280
     1
102
RTVSPost2010Prop28
280
     0
102
RTVSPost2010PropOp28
 70
     1
102
RTVSPost2010Prop29
280
     1
102
RTVSPost2010PropOp29
 70
     1
102
RTVSPost2010Prop30
280
     1
102
RTVSPost2010PropOp30
 70
     1
102
RTVSPost2010Prop31
280
     0
102
RTVSPost2010PropOp31
 70
     1
102
RTVSPost2010Prop32
280
     0
102
RTVSPost2010PropOp32
 70
     1
102
RTVSPost2010Prop33
280
     0
102
RTVSPost2010PropOp33
 70
     1
102
RTVSPost2010Prop34
280
     0
102
RTVSPost2010PropOp34
 70
     1
102
RTVSPost2010Prop35
280
     0
102
RTVSPost2010PropOp35
 70
     1
102
RTVSPost2010Prop36
280
     0
102
RTVSPost2010PropOp36
 70
     1
102
RTVSPost2010Prop37
 90
       50
102
RTVSPost2010PropOp37
 70
     1
102
RTVSPost2010Prop38
140
0.0
102
RTVSPost2010PropOp38
 70
     1
102
RTVSPost2010Prop39
140
1.0
102
RTVSPost2010PropOp39
 70
     1
102
RTVSPost2010Prop40
 90
        0
102
RTVSPost2010PropOp40
 70
     1
102
RTVSPost2010Prop41ColorIndex
 90
       18
102
RTVSPost2010Prop41ColorRGB
 90
        0
102
RTVSPost2010PropOp41
 70
     1
102
RTVSPost2010Prop42
 90
       50
102
RTVSPost2010PropOp42
 70
     1
102
RTVSPost2010Prop43
 90
        3
102
RTVSPost2010PropOp43
 70
     1
102
RTVSPost2010Prop44ColorIndex
 90
        5
102
RTVSPost2010Prop44ColorRGB
 90
      255
102
RTVSPost2010PropOp44
 70
     1
102
RTVSPost2010Prop45
280
     0
102
RTVSPost2010PropOp45
 70
     1
102
RTVSPost2010Prop46
 90
       50
102
RTVSPost2010PropOp46
 70
     1
102
RTVSPost2010Prop47
 90
       50
102
RTVSPost2010PropOp47
 70
     1
102
RTVSPost2010Prop48
 90
       50
102
RTVSPost2010PropOp48
 70
     1
102
RTVSPost2010Prop49
280
     0
102
RTVSPost2010PropOp49
 70
     1
102
RTVSPost2010Prop50
 90
       50
102
RTVSPost2010PropOp50
 70
     1
102
RTVSPost2010Prop51ColorIndex
 90
      256
102
RTVSPost2010Prop51ColorRGB
 90
-16777216
102
RTVSPost2010PropOp51
 70
     0
102
RTVSPost2010Prop52
140
1.0
102
RTVSPost2010PropOp52
 70
     0
102
RTVSPost2010Prop53
 90
        2
102
RTVSPost2010PropOp53
 70
     1
102
RTVSPost2010Prop54
  1
strokes_ogs.tif
102
RTVSPost2010PropOp54
 70
     1
102
RTVSPost2010Prop55
280
     0
102
RTVSPost2010PropOp55
 70
     1
102
RTVSPost2010Prop56
140
1.0
102
RTVSPost2010PropOp56
 70
     1
102
RTVSPost2010Prop57
140
1.0
102
RTVSPost2010PropOp57
 70
     1
102
RTVSPropertyOp0
 70
     1
102
RTVSPropertyOp1
 70
     1
102
RTVSPropertyOp2
 70
     1
102
RTVSPropertyOp3
 70
     1
102
RTVSPropertyOp4
 70
     1
102
RTVSPropertyOp5
 70
     1
102
RTVSPropertyOp6
 70
     1
102
RTVSPropertyOp7
 70
     1
102
RTVSPropertyOp8
 70
     1
102
RTVSPropertyOp9
 70
     1
102
RTVSPropertyOp10
 70
     1
102
RTVSPropertyOp11
 70
     1
102
RTVSPropertyOp12
 70
     1
102
RTVSPropertyOp13
 70
     1
102
RTVSPropertyOp14
 70
     1
102
RTVSPropertyOp15
 70
     1
102
RTVSPropertyOp16
 70
     1
102
RTVSPropertyOp17
 70
     1
102
RTVSPropertyOp18
 70
     1
102
RTVSPropertyOp19
 70
     1
102
RTVSPropertyOp20
 70
     1
102
RTVSPropertyOp21
 70
     1
102
RTVSPropertyOp22
 70
     1
102
RTVSPropertyOp23
 70
     1
102
RTVSPropertyOp24
 70
     1
102
RTVSPropertyOp25
 70
     1
102
RTVSPropertyOp26
 70
     1
102
RTVSPropertyOp27
 70
     1
102
RTVSPropertyOp28
 70
     1
102
RTVSPropertyOp29
 70
     1
102
RTVSPropertyOp30
 70
     1
102
RTVSPropertyOp31
 70
     1
102
RTVSPropertyOp32
 70
     1
102
RTVSPropertyOp33
 70
     1
102
RTVSPropertyOp34
 70
     1
102
RTVSPropertyOp35
 70
     1
102
RTVSPropertyOp36
 70
     1
102
RTVSPropertyOp37
 70
     1
102
RTVSPropertyOp38
 70
     1
102
RTVSPropertyOp39
 70
     1
102
RTVSPropertyOp40
 70
     1
102
RTVSPropertyOp41
 70
     1
102
RTVSPropertyOp42
 70
     1
102
RTVSPropertyOp43
 70
     1
102
RTVSPropertyOp44
 70
     1
102
RTVSPropertyOp45
 70
     1
102
RTVSPropertyOp46
 70
     1
102
RTVSPropertyOp47
 70
     1
102
RTVSPropertyOp48
 70
     1
102
RTVSPropertyOp49
 70
     1
102
RTVSPropertyOp50
 70
     1
102
RTVSPropertyOp51
 70
     0
102
RTVSPropertyOp52
 70
     0
102
RTVSPropertyOp53
 70
     1
102
RTVSPropertyOp54
 70
     1
102
RTVSPropertyOp55
 70
     1
102
RTVSPropertyOp56
 70
     1
102
RTVSPropertyOp57
 70
     1
102
RTVSPropertyOp58
 70
     1
102
RTVSPropertyOp59
 70
     1
102
RTVSPropertyOp60
 70
     1
102
RTVSPropertyOp61
 70
     1
102
RTVSPropertyOp62
 70
     1
  0
XRECORD
  5
5FE
102
{ACAD_REACTORS
330
5FD
102
}
330
5FD
100
AcDbXrecord
280
     1
102
RTVSPost2010Prop28
280
     0
102
RTVSPost2010PropOp28
 70
     1
102
RTVSPost2010Prop29
280
     1
102
RTVSPost2010PropOp29
 70
     1
102
RTVSPost2010Prop30
280
     1
102
RTVSPost2010PropOp30
 70
     1
102
RTVSPost2010Prop31
280
     0
102
RTVSPost2010PropOp31
 70
     1
102
RTVSPost2010Prop32
280
     0
102
RTVSPost2010PropOp32
 70
     1
102
RTVSPost2010Prop33
280
     0
102
RTVSPost2010PropOp33
 70
     1
102
RTVSPost2010Prop34
280
     0
102
RTVSPost2010PropOp34
 70
     1
102
RTVSPost2010Prop35
280
     0
102
RTVSPost2010PropOp35
 70
     1
102
RTVSPost2010Prop36
280
     0
102
RTVSPost2010PropOp36
 70
     1
102
RTVSPost2010Prop37
 90
       50
102
RTVSPost2010PropOp37
 70
     1
102
RTVSPost2010Prop38
140
0.0
102
RTVSPost2010PropOp38
 70
     1
102
RTVSPost2010Prop39
140
1.0
102
RTVSPost2010PropOp39
 70
     1
102
RTVSPost2010Prop40
 90
        0
102
RTVSPost2010PropOp40
 70
     1
102
RTVSPost2010Prop41ColorIndex
 90
       18
102
RTVSPost2010Prop41ColorRGB
 90
        0
102
RTVSPost2010PropOp41
 70
     1
102
RTVSPost2010Prop42
 90
       50
102
RTVSPost2010PropOp42
 70
     1
102
RTVSPost2010Prop43
 90
        3
102
RTVSPost2010PropOp43
 70
     1
102
RTVSPost2010Prop44ColorIndex
 90
        5
102
RTVSPost2010Prop44ColorRGB
 90
      255
102
RTVSPost2010PropOp44
 70
     1
102
RTVSPost2010Prop45
280
     0
102
RTVSPost2010PropOp45
 70
     1
102
RTVSPost2010Prop46
 90
       50
102
RTVSPost2010PropOp46
 70
     1
102
RTVSPost2010Prop47
 90
       50
102
RTVSPost2010PropOp47
 70
     1
102
RTVSPost2010Prop48
 90
       50
102
RTVSPost2010PropOp48
 70
     1
102
RTVSPost2010Prop49
280
     0
102
RTVSPost2010PropOp49
 70
     1
102
RTVSPost2010Prop50
 90
       50
102
RTVSPost2010PropOp50
 70
     1
102
RTVSPost2010Prop51ColorIndex
 90
      256
102
RTVSPost2010Prop51ColorRGB
 90
-16777216
102
RTVSPost2010PropOp51
 70
     0
102
RTVSPost2010Prop52
140
1.0
102
RTVSPost2010PropOp52
 70
     0
102
RTVSPost2010Prop53
 90
        2
102
RTVSPost2010PropOp53
 70
     1
102
RTVSPost2010Prop54
  1
strokes_ogs.tif
102
RTVSPost2010PropOp54
 70
     1
102
RTVSPost2010Prop55
280
     0
102
RTVSPost2010PropOp55
 70
     1
102
RTVSPost2010Prop56
140
1.0
102
RTVSPost2010PropOp56
 70
     1
102
RTVSPost2010Prop57
140
1.0
102
RTVSPost2010PropOp57
 70
     1
102
RTVSPropertyOp0
 70
     1
102
RTVSPropertyOp1
 70
     1
102
RTVSPropertyOp2
 70
     1
102
RTVSPropertyOp3
 70
     1
102
RTVSPropertyOp4
 70
     1
102
RTVSPropertyOp5
 70
     1
102
RTVSPropertyOp6
 70
     1
102
RTVSPropertyOp7
 70
     1
102
RTVSPropertyOp8
 70
     1
102
RTVSPropertyOp9
 70
     1
102
RTVSPropertyOp10
 70
     1
102
RTVSPropertyOp11
 70
     1
102
RTVSPropertyOp12
 70
     1
102
RTVSPropertyOp13
 70
     1
102
RTVSPropertyOp14
 70
     1
102
RTVSPropertyOp15
 70
     1
102
RTVSPropertyOp16
 70
     1
102
RTVSPropertyOp17
 70
     1
102
RTVSPropertyOp18
 70
     1
102
RTVSPropertyOp19
 70
     1
102
RTVSPropertyOp20
 70
     1
102
RTVSPropertyOp21
 70
     1
102
RTVSPropertyOp22
 70
     1
102
RTVSPropertyOp23
 70
     1
102
RTVSPropertyOp24
 70
     1
102
RTVSPropertyOp25
 70
     1
102
RTVSPropertyOp26
 70
     1
102
RTVSPropertyOp27
 70
     1
102
RTVSPropertyOp28
 70
     1
102
RTVSPropertyOp29
 70
     1
102
RTVSPropertyOp30
 70
     1
102
RTVSPropertyOp31
 70
     1
102
RTVSPropertyOp32
 70
     1
102
RTVSPropertyOp33
 70
     1
102
RTVSPropertyOp34
 70
     1
102
RTVSPropertyOp35
 70
     1
102
RTVSPropertyOp36
 70
     1
102
RTVSPropertyOp37
 70
     1
102
RTVSPropertyOp38
 70
     1
102
RTVSPropertyOp39
 70
     1
102
RTVSPropertyOp40
 70
     1
102
RTVSPropertyOp41
 70
     1
102
RTVSPropertyOp42
 70
     1
102
RTVSPropertyOp43
 70
     1
102
RTVSPropertyOp44
 70
     1
102
RTVSPropertyOp45
 70
     1
102
RTVSPropertyOp46
 70
     1
102
RTVSPropertyOp47
 70
     1
102
RTVSPropertyOp48
 70
     1
102
RTVSPropertyOp49
 70
     1
102
RTVSPropertyOp50
 70
     1
102
RTVSPropertyOp51
 70
     0
102
RTVSPropertyOp52
 70
     0
102
RTVSPropertyOp53
 70
     1
102
RTVSPropertyOp54
 70
     1
102
RTVSPropertyOp55
 70
     1
102
RTVSPropertyOp56
 70
     1
102
RTVSPropertyOp57
 70
     1
102
RTVSPropertyOp58
 70
     1
102
RTVSPropertyOp59
 70
     1
102
RTVSPropertyOp60
 70
     1
102
RTVSPropertyOp61
 70
     1
102
RTVSPropertyOp62
 70
     1
  0
XRECORD
  5
606
102
{ACAD_REACTORS
330
605
102
}
330
605
100
AcDbXrecord
280
     1
102
RTVSPost2010Prop28
280
     0
102
RTVSPost2010PropOp28
 70
     1
102
RTVSPost2010Prop29
280
     1
102
RTVSPost2010PropOp29
 70
     1
102
RTVSPost2010Prop30
280
     1
102
RTVSPost2010PropOp30
 70
     1
102
RTVSPost2010Prop31
280
     0
102
RTVSPost2010PropOp31
 70
     1
102
RTVSPost2010Prop32
280
     0
102
RTVSPost2010PropOp32
 70
     1
102
RTVSPost2010Prop33
280
     0
102
RTVSPost2010PropOp33
 70
     1
102
RTVSPost2010Prop34
280
     0
102
RTVSPost2010PropOp34
 70
     1
102
RTVSPost2010Prop35
280
     0
102
RTVSPost2010PropOp35
 70
     1
102
RTVSPost2010Prop36
280
     0
102
RTVSPost2010PropOp36
 70
     1
102
RTVSPost2010Prop37
 90
       50
102
RTVSPost2010PropOp37
 70
     1
102
RTVSPost2010Prop38
140
0.0
102
RTVSPost2010PropOp38
 70
     1
102
RTVSPost2010Prop39
140
1.0
102
RTVSPost2010PropOp39
 70
     1
102
RTVSPost2010Prop40
 90
        0
102
RTVSPost2010PropOp40
 70
     1
102
RTVSPost2010Prop41ColorIndex
 90
       18
102
RTVSPost2010Prop41ColorRGB
 90
        0
102
RTVSPost2010PropOp41
 70
     1
102
RTVSPost2010Prop42
 90
       50
102
RTVSPost2010PropOp42
 70
     1
102
RTVSPost2010Prop43
 90
        3
102
RTVSPost2010PropOp43
 70
     1
102
RTVSPost2010Prop44ColorIndex
 90
        5
102
RTVSPost2010Prop44ColorRGB
 90
      255
102
RTVSPost2010PropOp44
 70
     1
102
RTVSPost2010Prop45
280
     0
102
RTVSPost2010PropOp45
 70
     1
102
RTVSPost2010Prop46
 90
       50
102
RTVSPost2010PropOp46
 70
     1
102
RTVSPost2010Prop47
 90
       50
102
RTVSPost2010PropOp47
 70
     1
102
RTVSPost2010Prop48
 90
       50
102
RTVSPost2010PropOp48
 70
     1
102
RTVSPost2010Prop49
280
     0
102
RTVSPost2010PropOp49
 70
     1
102
RTVSPost2010Prop50
 90
       50
102
RTVSPost2010PropOp50
 70
     1
102
RTVSPost2010Prop51ColorIndex
 90
      256
102
RTVSPost2010Prop51ColorRGB
 90
-16777216
102
RTVSPost2010PropOp51
 70
     0
102
RTVSPost2010Prop52
140
1.0
102
RTVSPost2010PropOp52
 70
     0
102
RTVSPost2010Prop53
 90
        2
102
RTVSPost2010PropOp53
 70
     1
102
RTVSPost2010Prop54
  1
strokes_ogs.tif
102
RTVSPost2010PropOp54
 70
     1
102
RTVSPost2010Prop55
280
     0
102
RTVSPost2010PropOp55
 70
     1
102
RTVSPost2010Prop56
140
1.0
102
RTVSPost2010PropOp56
 70
     1
102
RTVSPost2010Prop57
140
1.0
102
RTVSPost2010PropOp57
 70
     1
102
RTVSPropertyOp0
 70
     1
102
RTVSPropertyOp1
 70
     1
102
RTVSPropertyOp2
 70
     1
102
RTVSPropertyOp3
 70
     1
102
RTVSPropertyOp4
 70
     1
102
RTVSPropertyOp5
 70
     1
102
RTVSPropertyOp6
 70
     1
102
RTVSPropertyOp7
 70
     1
102
RTVSPropertyOp8
 70
     1
102
RTVSPropertyOp9
 70
     1
102
RTVSPropertyOp10
 70
     1
102
RTVSPropertyOp11
 70
     1
102
RTVSPropertyOp12
 70
     1
102
RTVSPropertyOp13
 70
     1
102
RTVSPropertyOp14
 70
     1
102
RTVSPropertyOp15
 70
     1
102
RTVSPropertyOp16
 70
     1
102
RTVSPropertyOp17
 70
     1
102
RTVSPropertyOp18
 70
     1
102
RTVSPropertyOp19
 70
     1
102
RTVSPropertyOp20
 70
     1
102
RTVSPropertyOp21
 70
     1
102
RTVSPropertyOp22
 70
     1
102
RTVSPropertyOp23
 70
     1
102
RTVSPropertyOp24
 70
     1
102
RTVSPropertyOp25
 70
     1
102
RTVSPropertyOp26
 70
     1
102
RTVSPropertyOp27
 70
     1
102
RTVSPropertyOp28
 70
     1
102
RTVSPropertyOp29
 70
     1
102
RTVSPropertyOp30
 70
     1
102
RTVSPropertyOp31
 70
     1
102
RTVSPropertyOp32
 70
     1
102
RTVSPropertyOp33
 70
     1
102
RTVSPropertyOp34
 70
     1
102
RTVSPropertyOp35
 70
     1
102
RTVSPropertyOp36
 70
     1
102
RTVSPropertyOp37
 70
     1
102
RTVSPropertyOp38
 70
     1
102
RTVSPropertyOp39
 70
     1
102
RTVSPropertyOp40
 70
     1
102
RTVSPropertyOp41
 70
     1
102
RTVSPropertyOp42
 70
     1
102
RTVSPropertyOp43
 70
     1
102
RTVSPropertyOp44
 70
     1
102
RTVSPropertyOp45
 70
     1
102
RTVSPropertyOp46
 70
     1
102
RTVSPropertyOp47
 70
     1
102
RTVSPropertyOp48
 70
     1
102
RTVSPropertyOp49
 70
     1
102
RTVSPropertyOp50
 70
     1
102
RTVSPropertyOp51
 70
     0
102
RTVSPropertyOp52
 70
     0
102
RTVSPropertyOp53
 70
     1
102
RTVSPropertyOp54
 70
     1
102
RTVSPropertyOp55
 70
     1
102
RTVSPropertyOp56
 70
     1
102
RTVSPropertyOp57
 70
     1
102
RTVSPropertyOp58
 70
     1
102
RTVSPropertyOp59
 70
     1
102
RTVSPropertyOp60
 70
     1
102
RTVSPropertyOp61
 70
     1
102
RTVSPropertyOp62
 70
     1
  0
XRECORD
  5
5FA
102
{ACAD_REACTORS
330
5F9
102
}
330
5F9
100
AcDbXrecord
280
     1
102
RTVSPost2010Prop28
280
     0
102
RTVSPost2010PropOp28
 70
     1
102
RTVSPost2010Prop29
280
     1
102
RTVSPost2010PropOp29
 70
     1
102
RTVSPost2010Prop30
280
     1
102
RTVSPost2010PropOp30
 70
     1
102
RTVSPost2010Prop31
280
     0
102
RTVSPost2010PropOp31
 70
     1
102
RTVSPost2010Prop32
280
     0
102
RTVSPost2010PropOp32
 70
     1
102
RTVSPost2010Prop33
280
     0
102
RTVSPost2010PropOp33
 70
     1
102
RTVSPost2010Prop34
280
     0
102
RTVSPost2010PropOp34
 70
     1
102
RTVSPost2010Prop35
280
     0
102
RTVSPost2010PropOp35
 70
     1
102
RTVSPost2010Prop36
280
     0
102
RTVSPost2010PropOp36
 70
     1
102
RTVSPost2010Prop37
 90
       50
102
RTVSPost2010PropOp37
 70
     1
102
RTVSPost2010Prop38
140
0.0
102
RTVSPost2010PropOp38
 70
     1
102
RTVSPost2010Prop39
140
1.0
102
RTVSPost2010PropOp39
 70
     1
102
RTVSPost2010Prop40
 90
        0
102
RTVSPost2010PropOp40
 70
     1
102
RTVSPost2010Prop41ColorIndex
 90
       18
102
RTVSPost2010Prop41ColorRGB
 90
        0
102
RTVSPost2010PropOp41
 70
     1
102
RTVSPost2010Prop42
 90
       50
102
RTVSPost2010PropOp42
 70
     1
102
RTVSPost2010Prop43
 90
        3
102
RTVSPost2010PropOp43
 70
     1
102
RTVSPost2010Prop44ColorIndex
 90
        5
102
RTVSPost2010Prop44ColorRGB
 90
      255
102
RTVSPost2010PropOp44
 70
     1
102
RTVSPost2010Prop45
280
     0
102
RTVSPost2010PropOp45
 70
     1
102
RTVSPost2010Prop46
 90
       50
102
RTVSPost2010PropOp46
 70
     1
102
RTVSPost2010Prop47
 90
       50
102
RTVSPost2010PropOp47
 70
     1
102
RTVSPost2010Prop48
 90
       50
102
RTVSPost2010PropOp48
 70
     1
102
RTVSPost2010Prop49
280
     0
102
RTVSPost2010PropOp49
 70
     1
102
RTVSPost2010Prop50
 90
       50
102
RTVSPost2010PropOp50
 70
     1
102
RTVSPost2010Prop51ColorIndex
 90
      256
102
RTVSPost2010Prop51ColorRGB
 90
-16777216
102
RTVSPost2010PropOp51
 70
     0
102
RTVSPost2010Prop52
140
1.0
102
RTVSPost2010PropOp52
 70
     0
102
RTVSPost2010Prop53
 90
        2
102
RTVSPost2010PropOp53
 70
     1
102
RTVSPost2010Prop54
  1
strokes_ogs.tif
102
RTVSPost2010PropOp54
 70
     1
102
RTVSPost2010Prop55
280
     0
102
RTVSPost2010PropOp55
 70
     1
102
RTVSPost2010Prop56
140
1.0
102
RTVSPost2010PropOp56
 70
     1
102
RTVSPost2010Prop57
140
1.0
102
RTVSPost2010PropOp57
 70
     1
102
RTVSPropertyOp0
 70
     1
102
RTVSPropertyOp1
 70
     1
102
RTVSPropertyOp2
 70
     1
102
RTVSPropertyOp3
 70
     1
102
RTVSPropertyOp4
 70
     1
102
RTVSPropertyOp5
 70
     1
102
RTVSPropertyOp6
 70
     1
102
RTVSPropertyOp7
 70
     1
102
RTVSPropertyOp8
 70
     1
102
RTVSPropertyOp9
 70
     1
102
RTVSPropertyOp10
 70
     1
102
RTVSPropertyOp11
 70
     1
102
RTVSPropertyOp12
 70
     1
102
RTVSPropertyOp13
 70
     1
102
RTVSPropertyOp14
 70
     1
102
RTVSPropertyOp15
 70
     1
102
RTVSPropertyOp16
 70
     1
102
RTVSPropertyOp17
 70
     1
102
RTVSPropertyOp18
 70
     1
102
RTVSPropertyOp19
 70
     1
102
RTVSPropertyOp20
 70
     1
102
RTVSPropertyOp21
 70
     1
102
RTVSPropertyOp22
 70
     1
102
RTVSPropertyOp23
 70
     1
102
RTVSPropertyOp24
 70
     1
102
RTVSPropertyOp25
 70
     1
102
RTVSPropertyOp26
 70
     1
102
RTVSPropertyOp27
 70
     1
102
RTVSPropertyOp28
 70
     1
102
RTVSPropertyOp29
 70
     1
102
RTVSPropertyOp30
 70
     1
102
RTVSPropertyOp31
 70
     1
102
RTVSPropertyOp32
 70
     1
102
RTVSPropertyOp33
 70
     1
102
RTVSPropertyOp34
 70
     1
102
RTVSPropertyOp35
 70
     1
102
RTVSPropertyOp36
 70
     1
102
RTVSPropertyOp37
 70
     1
102
RTVSPropertyOp38
 70
     1
102
RTVSPropertyOp39
 70
     1
102
RTVSPropertyOp40
 70
     1
102
RTVSPropertyOp41
 70
     1
102
RTVSPropertyOp42
 70
     1
102
RTVSPropertyOp43
 70
     1
102
RTVSPropertyOp44
 70
     1
102
RTVSPropertyOp45
 70
     1
102
RTVSPropertyOp46
 70
     1
102
RTVSPropertyOp47
 70
     1
102
RTVSPropertyOp48
 70
     1
102
RTVSPropertyOp49
 70
     1
102
RTVSPropertyOp50
 70
     1
102
RTVSPropertyOp51
 70
     0
102
RTVSPropertyOp52
 70
     0
102
RTVSPropertyOp53
 70
     1
102
RTVSPropertyOp54
 70
     1
102
RTVSPropertyOp55
 70
     1
102
RTVSPropertyOp56
 70
     1
102
RTVSPropertyOp57
 70
     1
102
RTVSPropertyOp58
 70
     1
102
RTVSPropertyOp59
 70
     1
102
RTVSPropertyOp60
 70
     1
102
RTVSPropertyOp61
 70
     1
102
RTVSPropertyOp62
 70
     1
  0
XRECORD
  5
5FC
102
{ACAD_REACTORS
330
5FB
102
}
330
5FB
100
AcDbXrecord
280
     1
102
RTVSPost2010Prop28
280
     0
102
RTVSPost2010PropOp28
 70
     1
102
RTVSPost2010Prop29
280
     1
102
RTVSPost2010PropOp29
 70
     1
102
RTVSPost2010Prop30
280
     1
102
RTVSPost2010PropOp30
 70
     1
102
RTVSPost2010Prop31
280
     0
102
RTVSPost2010PropOp31
 70
     1
102
RTVSPost2010Prop32
280
     0
102
RTVSPost2010PropOp32
 70
     1
102
RTVSPost2010Prop33
280
     0
102
RTVSPost2010PropOp33
 70
     1
102
RTVSPost2010Prop34
280
     0
102
RTVSPost2010PropOp34
 70
     1
102
RTVSPost2010Prop35
280
     0
102
RTVSPost2010PropOp35
 70
     1
102
RTVSPost2010Prop36
280
     0
102
RTVSPost2010PropOp36
 70
     1
102
RTVSPost2010Prop37
 90
       50
102
RTVSPost2010PropOp37
 70
     1
102
RTVSPost2010Prop38
140
0.0
102
RTVSPost2010PropOp38
 70
     1
102
RTVSPost2010Prop39
140
1.0
102
RTVSPost2010PropOp39
 70
     1
102
RTVSPost2010Prop40
 90
        0
102
RTVSPost2010PropOp40
 70
     1
102
RTVSPost2010Prop41ColorIndex
 90
       18
102
RTVSPost2010Prop41ColorRGB
 90
        0
102
RTVSPost2010PropOp41
 70
     1
102
RTVSPost2010Prop42
 90
       50
102
RTVSPost2010PropOp42
 70
     1
102
RTVSPost2010Prop43
 90
        3
102
RTVSPost2010PropOp43
 70
     1
102
RTVSPost2010Prop44ColorIndex
 90
        5
102
RTVSPost2010Prop44ColorRGB
 90
      255
102
RTVSPost2010PropOp44
 70
     1
102
RTVSPost2010Prop45
280
     0
102
RTVSPost2010PropOp45
 70
     1
102
RTVSPost2010Prop46
 90
       50
102
RTVSPost2010PropOp46
 70
     1
102
RTVSPost2010Prop47
 90
       50
102
RTVSPost2010PropOp47
 70
     1
102
RTVSPost2010Prop48
 90
       50
102
RTVSPost2010PropOp48
 70
     1
102
RTVSPost2010Prop49
280
     0
102
RTVSPost2010PropOp49
 70
     1
102
RTVSPost2010Prop50
 90
       50
102
RTVSPost2010PropOp50
 70
     1
102
RTVSPost2010Prop51ColorIndex
 90
      256
102
RTVSPost2010Prop51ColorRGB
 90
-16777216
102
RTVSPost2010PropOp51
 70
     0
102
RTVSPost2010Prop52
140
1.0
102
RTVSPost2010PropOp52
 70
     0
102
RTVSPost2010Prop53
 90
        2
102
RTVSPost2010PropOp53
 70
     1
102
RTVSPost2010Prop54
  1
strokes_ogs.tif
102
RTVSPost2010PropOp54
 70
     1
102
RTVSPost2010Prop55
280
     0
102
RTVSPost2010PropOp55
 70
     1
102
RTVSPost2010Prop56
140
1.0
102
RTVSPost2010PropOp56
 70
     1
102
RTVSPost2010Prop57
140
1.0
102
RTVSPost2010PropOp57
 70
     1
102
RTVSPropertyOp0
 70
     1
102
RTVSPropertyOp1
 70
     1
102
RTVSPropertyOp2
 70
     1
102
RTVSPropertyOp3
 70
     1
102
RTVSPropertyOp4
 70
     1
102
RTVSPropertyOp5
 70
     1
102
RTVSPropertyOp6
 70
     1
102
RTVSPropertyOp7
 70
     1
102
RTVSPropertyOp8
 70
     1
102
RTVSPropertyOp9
 70
     1
102
RTVSPropertyOp10
 70
     1
102
RTVSPropertyOp11
 70
     1
102
RTVSPropertyOp12
 70
     1
102
RTVSPropertyOp13
 70
     1
102
RTVSPropertyOp14
 70
     1
102
RTVSPropertyOp15
 70
     1
102
RTVSPropertyOp16
 70
     1
102
RTVSPropertyOp17
 70
     1
102
RTVSPropertyOp18
 70
     1
102
RTVSPropertyOp19
 70
     1
102
RTVSPropertyOp20
 70
     1
102
RTVSPropertyOp21
 70
     1
102
RTVSPropertyOp22
 70
     1
102
RTVSPropertyOp23
 70
     1
102
RTVSPropertyOp24
 70
     1
102
RTVSPropertyOp25
 70
     1
102
RTVSPropertyOp26
 70
     1
102
RTVSPropertyOp27
 70
     1
102
RTVSPropertyOp28
 70
     1
102
RTVSPropertyOp29
 70
     1
102
RTVSPropertyOp30
 70
     1
102
RTVSPropertyOp31
 70
     1
102
RTVSPropertyOp32
 70
     1
102
RTVSPropertyOp33
 70
     1
102
RTVSPropertyOp34
 70
     1
102
RTVSPropertyOp35
 70
     1
102
RTVSPropertyOp36
 70
     1
102
RTVSPropertyOp37
 70
     1
102
RTVSPropertyOp38
 70
     1
102
RTVSPropertyOp39
 70
     1
102
RTVSPropertyOp40
 70
     1
102
RTVSPropertyOp41
 70
     1
102
RTVSPropertyOp42
 70
     1
102
RTVSPropertyOp43
 70
     1
102
RTVSPropertyOp44
 70
     1
102
RTVSPropertyOp45
 70
     1
102
RTVSPropertyOp46
 70
     1
102
RTVSPropertyOp47
 70
     1
102
RTVSPropertyOp48
 70
     1
102
RTVSPropertyOp49
 70
     1
102
RTVSPropertyOp50
 70
     1
102
RTVSPropertyOp51
 70
     0
102
RTVSPropertyOp52
 70
     0
102
RTVSPropertyOp53
 70
     1
102
RTVSPropertyOp54
 70
     1
102
RTVSPropertyOp55
 70
     1
102
RTVSPropertyOp56
 70
     1
102
RTVSPropertyOp57
 70
     1
102
RTVSPropertyOp58
 70
     1
102
RTVSPropertyOp59
 70
     1
102
RTVSPropertyOp60
 70
     1
102
RTVSPropertyOp61
 70
     1
102
RTVSPropertyOp62
 70
     1
  0
XRECORD
  5
60C
102
{ACAD_REACTORS
330
60B
102
}
330
60B
100
AcDbXrecord
280
     1
102
RTVSPost2010Prop28
280
     0
102
RTVSPost2010PropOp28
 70
     0
102
RTVSPost2010Prop29
280
     1
102
RTVSPost2010PropOp29
 70
     0
102
RTVSPost2010Prop30
280
     1
102
RTVSPost2010PropOp30
 70
     0
102
RTVSPost2010Prop31
280
     0
102
RTVSPost2010PropOp31
 70
     0
102
RTVSPost2010Prop32
280
     0
102
RTVSPost2010PropOp32
 70
     0
102
RTVSPost2010Prop33
280
     0
102
RTVSPost2010PropOp33
 70
     0
102
RTVSPost2010Prop34
280
     0
102
RTVSPost2010PropOp34
 70
     0
102
RTVSPost2010Prop35
280
     0
102
RTVSPost2010PropOp35
 70
     0
102
RTVSPost2010Prop36
280
     0
102
RTVSPost2010PropOp36
 70
     0
102
RTVSPost2010Prop37
 90
       50
102
RTVSPost2010PropOp37
 70
     0
102
RTVSPost2010Prop38
140
0.0
102
RTVSPost2010PropOp38
 70
     0
102
RTVSPost2010Prop39
140
1.0
102
RTVSPost2010PropOp39
 70
     0
102
RTVSPost2010Prop40
 90
        0
102
RTVSPost2010PropOp40
 70
     0
102
RTVSPost2010Prop41ColorIndex
 90
       18
102
RTVSPost2010Prop41ColorRGB
 90
        0
102
RTVSPost2010PropOp41
 70
     0
102
RTVSPost2010Prop42
 90
       50
102
RTVSPost2010PropOp42
 70
     0
102
RTVSPost2010Prop43
 90
        3
102
RTVSPost2010PropOp43
 70
     0
102
RTVSPost2010Prop44ColorIndex
 90
        5
102
RTVSPost2010Prop44ColorRGB
 90
      255
102
RTVSPost2010PropOp44
 70
     0
102
RTVSPost2010Prop45
280
     0
102
RTVSPost2010PropOp45
 70
     0
102
RTVSPost2010Prop46
 90
       50
102
RTVSPost2010PropOp46
 70
     0
102
RTVSPost2010Prop47
 90
       50
102
RTVSPost2010PropOp47
 70
     0
102
RTVSPost2010Prop48
 90
       50
102
RTVSPost2010PropOp48
 70
     0
102
RTVSPost2010Prop49
280
     0
102
RTVSPost2010PropOp49
 70
     0
102
RTVSPost2010Prop50
 90
       50
102
RTVSPost2010PropOp50
 70
     0
102
RTVSPost2010Prop51ColorIndex
 90
      256
102
RTVSPost2010Prop51ColorRGB
 90
-16777216
102
RTVSPost2010PropOp51
 70
     0
102
RTVSPost2010Prop52
140
1.0
102
RTVSPost2010PropOp52
 70
     0
102
RTVSPost2010Prop53
 90
        2
102
RTVSPost2010PropOp53
 70
     0
102
RTVSPost2010Prop54
  1
strokes_ogs.tif
102
RTVSPost2010PropOp54
 70
     0
102
RTVSPost2010Prop55
280
     0
102
RTVSPost2010PropOp55
 70
     0
102
RTVSPost2010Prop56
140
1.0
102
RTVSPost2010PropOp56
 70
     0
102
RTVSPost2010Prop57
140
1.0
102
RTVSPost2010PropOp57
 70
     0
102
RTVSPropertyOp0
 70
     0
102
RTVSPropertyOp1
 70
     0
102
RTVSPropertyOp2
 70
     0
102
RTVSPropertyOp3
 70
     0
102
RTVSPropertyOp4
 70
     0
102
RTVSPropertyOp5
 70
     0
102
RTVSPropertyOp6
 70
     0
102
RTVSPropertyOp7
 70
     0
102
RTVSPropertyOp8
 70
     0
102
RTVSPropertyOp9
 70
     0
102
RTVSPropertyOp10
 70
     0
102
RTVSPropertyOp11
 70
     0
102
RTVSPropertyOp12
 70
     0
102
RTVSPropertyOp13
 70
     0
102
RTVSPropertyOp14
 70
     2
102
RTVSPropertyOp15
 70
     0
102
RTVSPropertyOp16
 70
     0
102
RTVSPropertyOp17
 70
     0
102
RTVSPropertyOp18
 70
     0
102
RTVSPropertyOp19
 70
     0
102
RTVSPropertyOp20
 70
     0
102
RTVSPropertyOp21
 70
     0
102
RTVSPropertyOp22
 70
     0
102
RTVSPropertyOp23
 70
     0
102
RTVSPropertyOp24
 70
     0
102
RTVSPropertyOp25
 70
     0
102
RTVSPropertyOp26
 70
     0
102
RTVSPropertyOp27
 70
     0
102
RTVSPropertyOp28
 70
     0
102
RTVSPropertyOp29
 70
     0
102
RTVSPropertyOp30
 70
     0
102
RTVSPropertyOp31
 70
     0
102
RTVSPropertyOp32
 70
     0
102
RTVSPropertyOp33
 70
     0
102
RTVSPropertyOp34
 70
     0
102
RTVSPropertyOp35
 70
     0
102
RTVSPropertyOp36
 70
     0
102
RTVSPropertyOp37
 70
     0
102
RTVSPropertyOp38
 70
     0
102
RTVSPropertyOp39
 70
     0
102
RTVSPropertyOp40
 70
     0
102
RTVSPropertyOp41
 70
     0
102
RTVSPropertyOp42
 70
     0
102
RTVSPropertyOp43
 70
     0
102
RTVSPropertyOp44
 70
     0
102
RTVSPropertyOp45
 70
     0
102
RTVSPropertyOp46
 70
     0
102
RTVSPropertyOp47
 70
     0
102
RTVSPropertyOp48
 70
     0
102
RTVSPropertyOp49
 70
     0
102
RTVSPropertyOp50
 70
     0
102
RTVSPropertyOp51
 70
     0
102
RTVSPropertyOp52
 70
     0
102
RTVSPropertyOp53
 70
     0
102
RTVSPropertyOp54
 70
     0
102
RTVSPropertyOp55
 70
     0
102
RTVSPropertyOp56
 70
     0
102
RTVSPropertyOp57
 70
     0
102
RTVSPropertyOp58
 70
     1
102
RTVSPropertyOp59
 70
     1
102
RTVSPropertyOp60
 70
     1
102
RTVSPropertyOp61
 70
     1
102
RTVSPropertyOp62
 70
     1
  0
XRECORD
  5
604
102
{ACAD_REACTORS
330
603
102
}
330
603
100
AcDbXrecord
280
     1
102
RTVSPost2010Prop28
280
     0
102
RTVSPost2010PropOp28
 70
     1
102
RTVSPost2010Prop29
280
     1
102
RTVSPost2010PropOp29
 70
     1
102
RTVSPost2010Prop30
280
     1
102
RTVSPost2010PropOp30
 70
     1
102
RTVSPost2010Prop31
280
     0
102
RTVSPost2010PropOp31
 70
     1
102
RTVSPost2010Prop32
280
     0
102
RTVSPost2010PropOp32
 70
     1
102
RTVSPost2010Prop33
280
     0
102
RTVSPost2010PropOp33
 70
     1
102
RTVSPost2010Prop34
280
     0
102
RTVSPost2010PropOp34
 70
     1
102
RTVSPost2010Prop35
280
     0
102
RTVSPost2010PropOp35
 70
     1
102
RTVSPost2010Prop36
280
     0
102
RTVSPost2010PropOp36
 70
     1
102
RTVSPost2010Prop37
 90
       50
102
RTVSPost2010PropOp37
 70
     1
102
RTVSPost2010Prop38
140
0.0
102
RTVSPost2010PropOp38
 70
     1
102
RTVSPost2010Prop39
140
1.0
102
RTVSPost2010PropOp39
 70
     1
102
RTVSPost2010Prop40
 90
        0
102
RTVSPost2010PropOp40
 70
     1
102
RTVSPost2010Prop41ColorIndex
 90
       18
102
RTVSPost2010Prop41ColorRGB
 90
        0
102
RTVSPost2010PropOp41
 70
     1
102
RTVSPost2010Prop42
 90
       50
102
RTVSPost2010PropOp42
 70
     1
102
RTVSPost2010Prop43
 90
        3
102
RTVSPost2010PropOp43
 70
     1
102
RTVSPost2010Prop44ColorIndex
 90
        5
102
RTVSPost2010Prop44ColorRGB
 90
      255
102
RTVSPost2010PropOp44
 70
     1
102
RTVSPost2010Prop45
280
     0
102
RTVSPost2010PropOp45
 70
     1
102
RTVSPost2010Prop46
 90
       50
102
RTVSPost2010PropOp46
 70
     1
102
RTVSPost2010Prop47
 90
       50
102
RTVSPost2010PropOp47
 70
     1
102
RTVSPost2010Prop48
 90
       50
102
RTVSPost2010PropOp48
 70
     1
102
RTVSPost2010Prop49
280
     0
102
RTVSPost2010PropOp49
 70
     1
102
RTVSPost2010Prop50
 90
       50
102
RTVSPost2010PropOp50
 70
     1
102
RTVSPost2010Prop51ColorIndex
 90
      256
102
RTVSPost2010Prop51ColorRGB
 90
-16777216
102
RTVSPost2010PropOp51
 70
     0
102
RTVSPost2010Prop52
140
1.0
102
RTVSPost2010PropOp52
 70
     0
102
RTVSPost2010Prop53
 90
        2
102
RTVSPost2010PropOp53
 70
     1
102
RTVSPost2010Prop54
  1
strokes_ogs.tif
102
RTVSPost2010PropOp54
 70
     1
102
RTVSPost2010Prop55
280
     0
102
RTVSPost2010PropOp55
 70
     1
102
RTVSPost2010Prop56
140
1.0
102
RTVSPost2010PropOp56
 70
     1
102
RTVSPost2010Prop57
140
1.0
102
RTVSPost2010PropOp57
 70
     1
102
RTVSPropertyOp0
 70
     1
102
RTVSPropertyOp1
 70
     1
102
RTVSPropertyOp2
 70
     1
102
RTVSPropertyOp3
 70
     1
102
RTVSPropertyOp4
 70
     1
102
RTVSPropertyOp5
 70
     1
102
RTVSPropertyOp6
 70
     1
102
RTVSPropertyOp7
 70
     1
102
RTVSPropertyOp8
 70
     1
102
RTVSPropertyOp9
 70
     1
102
RTVSPropertyOp10
 70
     1
102
RTVSPropertyOp11
 70
     1
102
RTVSPropertyOp12
 70
     1
102
RTVSPropertyOp13
 70
     1
102
RTVSPropertyOp14
 70
     1
102
RTVSPropertyOp15
 70
     1
102
RTVSPropertyOp16
 70
     1
102
RTVSPropertyOp17
 70
     1
102
RTVSPropertyOp18
 70
     1
102
RTVSPropertyOp19
 70
     1
102
RTVSPropertyOp20
 70
     1
102
RTVSPropertyOp21
 70
     1
102
RTVSPropertyOp22
 70
     1
102
RTVSPropertyOp23
 70
     1
102
RTVSPropertyOp24
 70
     1
102
RTVSPropertyOp25
 70
     1
102
RTVSPropertyOp26
 70
     1
102
RTVSPropertyOp27
 70
     1
102
RTVSPropertyOp28
 70
     1
102
RTVSPropertyOp29
 70
     1
102
RTVSPropertyOp30
 70
     1
102
RTVSPropertyOp31
 70
     1
102
RTVSPropertyOp32
 70
     1
102
RTVSPropertyOp33
 70
     1
102
RTVSPropertyOp34
 70
     1
102
RTVSPropertyOp35
 70
     1
102
RTVSPropertyOp36
 70
     1
102
RTVSPropertyOp37
 70
     1
102
RTVSPropertyOp38
 70
     1
102
RTVSPropertyOp39
 70
     1
102
RTVSPropertyOp40
 70
     1
102
RTVSPropertyOp41
 70
     1
102
RTVSPropertyOp42
 70
     1
102
RTVSPropertyOp43
 70
     1
102
RTVSPropertyOp44
 70
     1
102
RTVSPropertyOp45
 70
     1
102
RTVSPropertyOp46
 70
     1
102
RTVSPropertyOp47
 70
     1
102
RTVSPropertyOp48
 70
     1
102
RTVSPropertyOp49
 70
     1
102
RTVSPropertyOp50
 70
     1
102
RTVSPropertyOp51
 70
     0
102
RTVSPropertyOp52
 70
     0
102
RTVSPropertyOp53
 70
     1
102
RTVSPropertyOp54
 70
     1
102
RTVSPropertyOp55
 70
     1
102
RTVSPropertyOp56
 70
     1
102
RTVSPropertyOp57
 70
     1
102
RTVSPropertyOp58
 70
     1
102
RTVSPropertyOp59
 70
     1
102
RTVSPropertyOp60
 70
     1
102
RTVSPropertyOp61
 70
     1
102
RTVSPropertyOp62
 70
     1
  0
XRECORD
  5
5E8
102
{ACAD_REACTORS
330
5E7
102
}
330
5E7
100
AcDbXrecord
280
     1
102
RTVSPost2010Prop28
280
     0
102
RTVSPost2010PropOp28
 70
     1
102
RTVSPost2010Prop29
280
     1
102
RTVSPost2010PropOp29
 70
     1
102
RTVSPost2010Prop30
280
     1
102
RTVSPost2010PropOp30
 70
     1
102
RTVSPost2010Prop31
280
     0
102
RTVSPost2010PropOp31
 70
     1
102
RTVSPost2010Prop32
280
     0
102
RTVSPost2010PropOp32
 70
     1
102
RTVSPost2010Prop33
280
     0
102
RTVSPost2010PropOp33
 70
     1
102
RTVSPost2010Prop34
280
     0
102
RTVSPost2010PropOp34
 70
     1
102
RTVSPost2010Prop35
280
     0
102
RTVSPost2010PropOp35
 70
     1
102
RTVSPost2010Prop36
280
     0
102
RTVSPost2010PropOp36
 70
     1
102
RTVSPost2010Prop37
 90
       50
102
RTVSPost2010PropOp37
 70
     1
102
RTVSPost2010Prop38
140
0.0
102
RTVSPost2010PropOp38
 70
     1
102
RTVSPost2010Prop39
140
1.0
102
RTVSPost2010PropOp39
 70
     1
102
RTVSPost2010Prop40
 90
        0
102
RTVSPost2010PropOp40
 70
     1
102
RTVSPost2010Prop41ColorIndex
 90
       18
102
RTVSPost2010Prop41ColorRGB
 90
        0
102
RTVSPost2010PropOp41
 70
     1
102
RTVSPost2010Prop42
 90
       50
102
RTVSPost2010PropOp42
 70
     1
102
RTVSPost2010Prop43
 90
        3
102
RTVSPost2010PropOp43
 70
     1
102
RTVSPost2010Prop44ColorIndex
 90
        5
102
RTVSPost2010Prop44ColorRGB
 90
      255
102
RTVSPost2010PropOp44
 70
     1
102
RTVSPost2010Prop45
280
     0
102
RTVSPost2010PropOp45
 70
     1
102
RTVSPost2010Prop46
 90
       50
102
RTVSPost2010PropOp46
 70
     1
102
RTVSPost2010Prop47
 90
       50
102
RTVSPost2010PropOp47
 70
     1
102
RTVSPost2010Prop48
 90
       50
102
RTVSPost2010PropOp48
 70
     1
102
RTVSPost2010Prop49
280
     0
102
RTVSPost2010PropOp49
 70
     1
102
RTVSPost2010Prop50
 90
       50
102
RTVSPost2010PropOp50
 70
     1
102
RTVSPost2010Prop51ColorIndex
 90
      256
102
RTVSPost2010Prop51ColorRGB
 90
-16777216
102
RTVSPost2010PropOp51
 70
     0
102
RTVSPost2010Prop52
140
1.0
102
RTVSPost2010PropOp52
 70
     0
102
RTVSPost2010Prop53
 90
        2
102
RTVSPost2010PropOp53
 70
     1
102
RTVSPost2010Prop54
  1
strokes_ogs.tif
102
RTVSPost2010PropOp54
 70
     1
102
RTVSPost2010Prop55
280
     0
102
RTVSPost2010PropOp55
 70
     1
102
RTVSPost2010Prop56
140
1.0
102
RTVSPost2010PropOp56
 70
     1
102
RTVSPost2010Prop57
140
1.0
102
RTVSPost2010PropOp57
 70
     1
102
RTVSPropertyOp0
 70
     1
102
RTVSPropertyOp1
 70
     1
102
RTVSPropertyOp2
 70
     1
102
RTVSPropertyOp3
 70
     1
102
RTVSPropertyOp4
 70
     1
102
RTVSPropertyOp5
 70
     1
102
RTVSPropertyOp6
 70
     1
102
RTVSPropertyOp7
 70
     1
102
RTVSPropertyOp8
 70
     1
102
RTVSPropertyOp9
 70
     1
102
RTVSPropertyOp10
 70
     1
102
RTVSPropertyOp11
 70
     1
102
RTVSPropertyOp12
 70
     1
102
RTVSPropertyOp13
 70
     1
102
RTVSPropertyOp14
 70
     1
102
RTVSPropertyOp15
 70
     1
102
RTVSPropertyOp16
 70
     1
102
RTVSPropertyOp17
 70
     1
102
RTVSPropertyOp18
 70
     1
102
RTVSPropertyOp19
 70
     1
102
RTVSPropertyOp20
 70
     1
102
RTVSPropertyOp21
 70
     1
102
RTVSPropertyOp22
 70
     1
102
RTVSPropertyOp23
 70
     1
102
RTVSPropertyOp24
 70
     1
102
RTVSPropertyOp25
 70
     1
102
RTVSPropertyOp26
 70
     1
102
RTVSPropertyOp27
 70
     1
102
RTVSPropertyOp28
 70
     1
102
RTVSPropertyOp29
 70
     1
102
RTVSPropertyOp30
 70
     1
102
RTVSPropertyOp31
 70
     1
102
RTVSPropertyOp32
 70
     1
102
RTVSPropertyOp33
 70
     1
102
RTVSPropertyOp34
 70
     1
102
RTVSPropertyOp35
 70
     1
102
RTVSPropertyOp36
 70
     1
102
RTVSPropertyOp37
 70
     1
102
RTVSPropertyOp38
 70
     1
102
RTVSPropertyOp39
 70
     1
102
RTVSPropertyOp40
 70
     1
102
RTVSPropertyOp41
 70
     1
102
RTVSPropertyOp42
 70
     1
102
RTVSPropertyOp43
 70
     1
102
RTVSPropertyOp44
 70
     1
102
RTVSPropertyOp45
 70
     1
102
RTVSPropertyOp46
 70
     1
102
RTVSPropertyOp47
 70
     1
102
RTVSPropertyOp48
 70
     1
102
RTVSPropertyOp49
 70
     1
102
RTVSPropertyOp50
 70
     1
102
RTVSPropertyOp51
 70
     0
102
RTVSPropertyOp52
 70
     0
102
RTVSPropertyOp53
 70
     1
102
RTVSPropertyOp54
 70
     1
102
RTVSPropertyOp55
 70
     1
102
RTVSPropertyOp56
 70
     1
102
RTVSPropertyOp57
 70
     1
102
RTVSPropertyOp58
 70
     1
102
RTVSPropertyOp59
 70
     1
102
RTVSPropertyOp60
 70
     1
102
RTVSPropertyOp61
 70
     1
102
RTVSPropertyOp62
 70
     1
  0
XRECORD
  5
5EA
102
{ACAD_REACTORS
330
5E9
102
}
330
5E9
100
AcDbXrecord
280
     1
102
RTVSPost2010Prop28
280
     0
102
RTVSPost2010PropOp28
 70
     1
102
RTVSPost2010Prop29
280
     1
102
RTVSPost2010PropOp29
 70
     1
102
RTVSPost2010Prop30
280
     1
102
RTVSPost2010PropOp30
 70
     1
102
RTVSPost2010Prop31
280
     0
102
RTVSPost2010PropOp31
 70
     1
102
RTVSPost2010Prop32
280
     0
102
RTVSPost2010PropOp32
 70
     1
102
RTVSPost2010Prop33
280
     0
102
RTVSPost2010PropOp33
 70
     1
102
RTVSPost2010Prop34
280
     0
102
RTVSPost2010PropOp34
 70
     1
102
RTVSPost2010Prop35
280
     0
102
RTVSPost2010PropOp35
 70
     1
102
RTVSPost2010Prop36
280
     0
102
RTVSPost2010PropOp36
 70
     1
102
RTVSPost2010Prop37
 90
       50
102
RTVSPost2010PropOp37
 70
     1
102
RTVSPost2010Prop38
140
0.0
102
RTVSPost2010PropOp38
 70
     1
102
RTVSPost2010Prop39
140
1.0
102
RTVSPost2010PropOp39
 70
     1
102
RTVSPost2010Prop40
 90
        0
102
RTVSPost2010PropOp40
 70
     1
102
RTVSPost2010Prop41ColorIndex
 90
       18
102
RTVSPost2010Prop41ColorRGB
 90
        0
102
RTVSPost2010PropOp41
 70
     1
102
RTVSPost2010Prop42
 90
       50
102
RTVSPost2010PropOp42
 70
     1
102
RTVSPost2010Prop43
 90
        3
102
RTVSPost2010PropOp43
 70
     1
102
RTVSPost2010Prop44ColorIndex
 90
        5
102
RTVSPost2010Prop44ColorRGB
 90
      255
102
RTVSPost2010PropOp44
 70
     1
102
RTVSPost2010Prop45
280
     0
102
RTVSPost2010PropOp45
 70
     1
102
RTVSPost2010Prop46
 90
       50
102
RTVSPost2010PropOp46
 70
     1
102
RTVSPost2010Prop47
 90
       50
102
RTVSPost2010PropOp47
 70
     1
102
RTVSPost2010Prop48
 90
       50
102
RTVSPost2010PropOp48
 70
     1
102
RTVSPost2010Prop49
280
     0
102
RTVSPost2010PropOp49
 70
     1
102
RTVSPost2010Prop50
 90
       50
102
RTVSPost2010PropOp50
 70
     1
102
RTVSPost2010Prop51ColorIndex
 90
      256
102
RTVSPost2010Prop51ColorRGB
 90
-16777216
102
RTVSPost2010PropOp51
 70
     0
102
RTVSPost2010Prop52
140
1.0
102
RTVSPost2010PropOp52
 70
     0
102
RTVSPost2010Prop53
 90
        2
102
RTVSPost2010PropOp53
 70
     1
102
RTVSPost2010Prop54
  1
strokes_ogs.tif
102
RTVSPost2010PropOp54
 70
     1
102
RTVSPost2010Prop55
280
     0
102
RTVSPost2010PropOp55
 70
     1
102
RTVSPost2010Prop56
140
1.0
102
RTVSPost2010PropOp56
 70
     1
102
RTVSPost2010Prop57
140
1.0
102
RTVSPost2010PropOp57
 70
     1
102
RTVSPropertyOp0
 70
     1
102
RTVSPropertyOp1
 70
     1
102
RTVSPropertyOp2
 70
     1
102
RTVSPropertyOp3
 70
     1
102
RTVSPropertyOp4
 70
     1
102
RTVSPropertyOp5
 70
     1
102
RTVSPropertyOp6
 70
     1
102
RTVSPropertyOp7
 70
     1
102
RTVSPropertyOp8
 70
     1
102
RTVSPropertyOp9
 70
     1
102
RTVSPropertyOp10
 70
     1
102
RTVSPropertyOp11
 70
     1
102
RTVSPropertyOp12
 70
     1
102
RTVSPropertyOp13
 70
     1
102
RTVSPropertyOp14
 70
     1
102
RTVSPropertyOp15
 70
     1
102
RTVSPropertyOp16
 70
     1
102
RTVSPropertyOp17
 70
     1
102
RTVSPropertyOp18
 70
     1
102
RTVSPropertyOp19
 70
     1
102
RTVSPropertyOp20
 70
     1
102
RTVSPropertyOp21
 70
     1
102
RTVSPropertyOp22
 70
     1
102
RTVSPropertyOp23
 70
     1
102
RTVSPropertyOp24
 70
     1
102
RTVSPropertyOp25
 70
     1
102
RTVSPropertyOp26
 70
     1
102
RTVSPropertyOp27
 70
     1
102
RTVSPropertyOp28
 70
     1
102
RTVSPropertyOp29
 70
     1
102
RTVSPropertyOp30
 70
     1
102
RTVSPropertyOp31
 70
     1
102
RTVSPropertyOp32
 70
     1
102
RTVSPropertyOp33
 70
     1
102
RTVSPropertyOp34
 70
     1
102
RTVSPropertyOp35
 70
     1
102
RTVSPropertyOp36
 70
     1
102
RTVSPropertyOp37
 70
     1
102
RTVSPropertyOp38
 70
     1
102
RTVSPropertyOp39
 70
     1
102
RTVSPropertyOp40
 70
     1
102
RTVSPropertyOp41
 70
     1
102
RTVSPropertyOp42
 70
     1
102
RTVSPropertyOp43
 70
     1
102
RTVSPropertyOp44
 70
     1
102
RTVSPropertyOp45
 70
     1
102
RTVSPropertyOp46
 70
     1
102
RTVSPropertyOp47
 70
     1
102
RTVSPropertyOp48
 70
     1
102
RTVSPropertyOp49
 70
     1
102
RTVSPropertyOp50
 70
     1
102
RTVSPropertyOp51
 70
     0
102
RTVSPropertyOp52
 70
     0
102
RTVSPropertyOp53
 70
     1
102
RTVSPropertyOp54
 70
     1
102
RTVSPropertyOp55
 70
     1
102
RTVSPropertyOp56
 70
     1
102
RTVSPropertyOp57
 70
     1
102
RTVSPropertyOp58
 70
     1
102
RTVSPropertyOp59
 70
     1
102
RTVSPropertyOp60
 70
     1
102
RTVSPropertyOp61
 70
     1
102
RTVSPropertyOp62
 70
     1
  0
XRECORD
  5
5EC
102
{ACAD_REACTORS
330
5EB
102
}
330
5EB
100
AcDbXrecord
280
     1
102
RTVSPost2010Prop28
280
     0
102
RTVSPost2010PropOp28
 70
     1
102
RTVSPost2010Prop29
280
     1
102
RTVSPost2010PropOp29
 70
     1
102
RTVSPost2010Prop30
280
     1
102
RTVSPost2010PropOp30
 70
     1
102
RTVSPost2010Prop31
280
     0
102
RTVSPost2010PropOp31
 70
     1
102
RTVSPost2010Prop32
280
     0
102
RTVSPost2010PropOp32
 70
     1
102
RTVSPost2010Prop33
280
     0
102
RTVSPost2010PropOp33
 70
     1
102
RTVSPost2010Prop34
280
     0
102
RTVSPost2010PropOp34
 70
     1
102
RTVSPost2010Prop35
280
     0
102
RTVSPost2010PropOp35
 70
     1
102
RTVSPost2010Prop36
280
     0
102
RTVSPost2010PropOp36
 70
     1
102
RTVSPost2010Prop37
 90
       50
102
RTVSPost2010PropOp37
 70
     1
102
RTVSPost2010Prop38
140
0.0
102
RTVSPost2010PropOp38
 70
     1
102
RTVSPost2010Prop39
140
1.0
102
RTVSPost2010PropOp39
 70
     1
102
RTVSPost2010Prop40
 90
        0
102
RTVSPost2010PropOp40
 70
     1
102
RTVSPost2010Prop41ColorIndex
 90
       18
102
RTVSPost2010Prop41ColorRGB
 90
        0
102
RTVSPost2010PropOp41
 70
     1
102
RTVSPost2010Prop42
 90
       50
102
RTVSPost2010PropOp42
 70
     1
102
RTVSPost2010Prop43
 90
        3
102
RTVSPost2010PropOp43
 70
     1
102
RTVSPost2010Prop44ColorIndex
 90
        5
102
RTVSPost2010Prop44ColorRGB
 90
      255
102
RTVSPost2010PropOp44
 70
     1
102
RTVSPost2010Prop45
280
     0
102
RTVSPost2010PropOp45
 70
     1
102
RTVSPost2010Prop46
 90
       50
102
RTVSPost2010PropOp46
 70
     1
102
RTVSPost2010Prop47
 90
       50
102
RTVSPost2010PropOp47
 70
     1
102
RTVSPost2010Prop48
 90
       50
102
RTVSPost2010PropOp48
 70
     1
102
RTVSPost2010Prop49
280
     0
102
RTVSPost2010PropOp49
 70
     1
102
RTVSPost2010Prop50
 90
       50
102
RTVSPost2010PropOp50
 70
     1
102
RTVSPost2010Prop51ColorIndex
 90
      256
102
RTVSPost2010Prop51ColorRGB
 90
-16777216
102
RTVSPost2010PropOp51
 70
     0
102
RTVSPost2010Prop52
140
1.0
102
RTVSPost2010PropOp52
 70
     0
102
RTVSPost2010Prop53
 90
        2
102
RTVSPost2010PropOp53
 70
     1
102
RTVSPost2010Prop54
  1
strokes_ogs.tif
102
RTVSPost2010PropOp54
 70
     1
102
RTVSPost2010Prop55
280
     0
102
RTVSPost2010PropOp55
 70
     1
102
RTVSPost2010Prop56
140
1.0
102
RTVSPost2010PropOp56
 70
     1
102
RTVSPost2010Prop57
140
1.0
102
RTVSPost2010PropOp57
 70
     1
102
RTVSPropertyOp0
 70
     1
102
RTVSPropertyOp1
 70
     1
102
RTVSPropertyOp2
 70
     1
102
RTVSPropertyOp3
 70
     1
102
RTVSPropertyOp4
 70
     1
102
RTVSPropertyOp5
 70
     1
102
RTVSPropertyOp6
 70
     1
102
RTVSPropertyOp7
 70
     1
102
RTVSPropertyOp8
 70
     1
102
RTVSPropertyOp9
 70
     1
102
RTVSPropertyOp10
 70
     1
102
RTVSPropertyOp11
 70
     1
102
RTVSPropertyOp12
 70
     1
102
RTVSPropertyOp13
 70
     1
102
RTVSPropertyOp14
 70
     1
102
RTVSPropertyOp15
 70
     1
102
RTVSPropertyOp16
 70
     1
102
RTVSPropertyOp17
 70
     1
102
RTVSPropertyOp18
 70
     1
102
RTVSPropertyOp19
 70
     1
102
RTVSPropertyOp20
 70
     1
102
RTVSPropertyOp21
 70
     1
102
RTVSPropertyOp22
 70
     1
102
RTVSPropertyOp23
 70
     1
102
RTVSPropertyOp24
 70
     1
102
RTVSPropertyOp25
 70
     1
102
RTVSPropertyOp26
 70
     1
102
RTVSPropertyOp27
 70
     1
102
RTVSPropertyOp28
 70
     1
102
RTVSPropertyOp29
 70
     1
102
RTVSPropertyOp30
 70
     1
102
RTVSPropertyOp31
 70
     1
102
RTVSPropertyOp32
 70
     1
102
RTVSPropertyOp33
 70
     1
102
RTVSPropertyOp34
 70
     1
102
RTVSPropertyOp35
 70
     1
102
RTVSPropertyOp36
 70
     1
102
RTVSPropertyOp37
 70
     1
102
RTVSPropertyOp38
 70
     1
102
RTVSPropertyOp39
 70
     1
102
RTVSPropertyOp40
 70
     1
102
RTVSPropertyOp41
 70
     1
102
RTVSPropertyOp42
 70
     1
102
RTVSPropertyOp43
 70
     1
102
RTVSPropertyOp44
 70
     1
102
RTVSPropertyOp45
 70
     1
102
RTVSPropertyOp46
 70
     1
102
RTVSPropertyOp47
 70
     1
102
RTVSPropertyOp48
 70
     1
102
RTVSPropertyOp49
 70
     1
102
RTVSPropertyOp50
 70
     1
102
RTVSPropertyOp51
 70
     0
102
RTVSPropertyOp52
 70
     0
102
RTVSPropertyOp53
 70
     1
102
RTVSPropertyOp54
 70
     1
102
RTVSPropertyOp55
 70
     1
102
RTVSPropertyOp56
 70
     1
102
RTVSPropertyOp57
 70
     1
102
RTVSPropertyOp58
 70
     1
102
RTVSPropertyOp59
 70
     1
102
RTVSPropertyOp60
 70
     1
102
RTVSPropertyOp61
 70
     1
102
RTVSPropertyOp62
 70
     1
  0
XRECORD
  5
5EE
102
{ACAD_REACTORS
330
5ED
102
}
330
5ED
100
AcDbXrecord
280
     1
102
RTVSPost2010Prop28
280
     0
102
RTVSPost2010PropOp28
 70
     1
102
RTVSPost2010Prop29
280
     1
102
RTVSPost2010PropOp29
 70
     1
102
RTVSPost2010Prop30
280
     1
102
RTVSPost2010PropOp30
 70
     1
102
RTVSPost2010Prop31
280
     0
102
RTVSPost2010PropOp31
 70
     1
102
RTVSPost2010Prop32
280
     0
102
RTVSPost2010PropOp32
 70
     1
102
RTVSPost2010Prop33
280
     0
102
RTVSPost2010PropOp33
 70
     1
102
RTVSPost2010Prop34
280
     0
102
RTVSPost2010PropOp34
 70
     1
102
RTVSPost2010Prop35
280
     0
102
RTVSPost2010PropOp35
 70
     1
102
RTVSPost2010Prop36
280
     0
102
RTVSPost2010PropOp36
 70
     1
102
RTVSPost2010Prop37
 90
       50
102
RTVSPost2010PropOp37
 70
     1
102
RTVSPost2010Prop38
140
0.0
102
RTVSPost2010PropOp38
 70
     1
102
RTVSPost2010Prop39
140
1.0
102
RTVSPost2010PropOp39
 70
     1
102
RTVSPost2010Prop40
 90
        0
102
RTVSPost2010PropOp40
 70
     1
102
RTVSPost2010Prop41ColorIndex
 90
       18
102
RTVSPost2010Prop41ColorRGB
 90
        0
102
RTVSPost2010PropOp41
 70
     1
102
RTVSPost2010Prop42
 90
       50
102
RTVSPost2010PropOp42
 70
     1
102
RTVSPost2010Prop43
 90
        3
102
RTVSPost2010PropOp43
 70
     1
102
RTVSPost2010Prop44ColorIndex
 90
        5
102
RTVSPost2010Prop44ColorRGB
 90
      255
102
RTVSPost2010PropOp44
 70
     1
102
RTVSPost2010Prop45
280
     0
102
RTVSPost2010PropOp45
 70
     1
102
RTVSPost2010Prop46
 90
       50
102
RTVSPost2010PropOp46
 70
     1
102
RTVSPost2010Prop47
 90
       50
102
RTVSPost2010PropOp47
 70
     1
102
RTVSPost2010Prop48
 90
       50
102
RTVSPost2010PropOp48
 70
     1
102
RTVSPost2010Prop49
280
     0
102
RTVSPost2010PropOp49
 70
     1
102
RTVSPost2010Prop50
 90
       50
102
RTVSPost2010PropOp50
 70
     1
102
RTVSPost2010Prop51ColorIndex
 90
      256
102
RTVSPost2010Prop51ColorRGB
 90
-16777216
102
RTVSPost2010PropOp51
 70
     0
102
RTVSPost2010Prop52
140
1.0
102
RTVSPost2010PropOp52
 70
     0
102
RTVSPost2010Prop53
 90
        2
102
RTVSPost2010PropOp53
 70
     1
102
RTVSPost2010Prop54
  1
strokes_ogs.tif
102
RTVSPost2010PropOp54
 70
     1
102
RTVSPost2010Prop55
280
     0
102
RTVSPost2010PropOp55
 70
     1
102
RTVSPost2010Prop56
140
1.0
102
RTVSPost2010PropOp56
 70
     1
102
RTVSPost2010Prop57
140
1.0
102
RTVSPost2010PropOp57
 70
     1
102
RTVSPropertyOp0
 70
     1
102
RTVSPropertyOp1
 70
     1
102
RTVSPropertyOp2
 70
     1
102
RTVSPropertyOp3
 70
     1
102
RTVSPropertyOp4
 70
     1
102
RTVSPropertyOp5
 70
     1
102
RTVSPropertyOp6
 70
     1
102
RTVSPropertyOp7
 70
     1
102
RTVSPropertyOp8
 70
     1
102
RTVSPropertyOp9
 70
     1
102
RTVSPropertyOp10
 70
     1
102
RTVSPropertyOp11
 70
     1
102
RTVSPropertyOp12
 70
     1
102
RTVSPropertyOp13
 70
     1
102
RTVSPropertyOp14
 70
     1
102
RTVSPropertyOp15
 70
     1
102
RTVSPropertyOp16
 70
     1
102
RTVSPropertyOp17
 70
     1
102
RTVSPropertyOp18
 70
     1
102
RTVSPropertyOp19
 70
     1
102
RTVSPropertyOp20
 70
     1
102
RTVSPropertyOp21
 70
     1
102
RTVSPropertyOp22
 70
     1
102
RTVSPropertyOp23
 70
     1
102
RTVSPropertyOp24
 70
     1
102
RTVSPropertyOp25
 70
     1
102
RTVSPropertyOp26
 70
     1
102
RTVSPropertyOp27
 70
     1
102
RTVSPropertyOp28
 70
     1
102
RTVSPropertyOp29
 70
     1
102
RTVSPropertyOp30
 70
     1
102
RTVSPropertyOp31
 70
     1
102
RTVSPropertyOp32
 70
     1
102
RTVSPropertyOp33
 70
     1
102
RTVSPropertyOp34
 70
     1
102
RTVSPropertyOp35
 70
     1
102
RTVSPropertyOp36
 70
     1
102
RTVSPropertyOp37
 70
     1
102
RTVSPropertyOp38
 70
     1
102
RTVSPropertyOp39
 70
     1
102
RTVSPropertyOp40
 70
     1
102
RTVSPropertyOp41
 70
     1
102
RTVSPropertyOp42
 70
     1
102
RTVSPropertyOp43
 70
     1
102
RTVSPropertyOp44
 70
     1
102
RTVSPropertyOp45
 70
     1
102
RTVSPropertyOp46
 70
     1
102
RTVSPropertyOp47
 70
     1
102
RTVSPropertyOp48
 70
     1
102
RTVSPropertyOp49
 70
     1
102
RTVSPropertyOp50
 70
     1
102
RTVSPropertyOp51
 70
     0
102
RTVSPropertyOp52
 70
     0
102
RTVSPropertyOp53
 70
     1
102
RTVSPropertyOp54
 70
     1
102
RTVSPropertyOp55
 70
     1
102
RTVSPropertyOp56
 70
     1
102
RTVSPropertyOp57
 70
     1
102
RTVSPropertyOp58
 70
     1
102
RTVSPropertyOp59
 70
     1
102
RTVSPropertyOp60
 70
     1
102
RTVSPropertyOp61
 70
     1
102
RTVSPropertyOp62
 70
     1
  0
XRECORD
  5
5F4
102
{ACAD_REACTORS
330
5F3
102
}
330
5F3
100
AcDbXrecord
280
     1
102
RTVSPost2010Prop28
280
     0
102
RTVSPost2010PropOp28
 70
     1
102
RTVSPost2010Prop29
280
     1
102
RTVSPost2010PropOp29
 70
     1
102
RTVSPost2010Prop30
280
     1
102
RTVSPost2010PropOp30
 70
     1
102
RTVSPost2010Prop31
280
     0
102
RTVSPost2010PropOp31
 70
     1
102
RTVSPost2010Prop32
280
     0
102
RTVSPost2010PropOp32
 70
     1
102
RTVSPost2010Prop33
280
     0
102
RTVSPost2010PropOp33
 70
     1
102
RTVSPost2010Prop34
280
     0
102
RTVSPost2010PropOp34
 70
     1
102
RTVSPost2010Prop35
280
     0
102
RTVSPost2010PropOp35
 70
     1
102
RTVSPost2010Prop36
280
     0
102
RTVSPost2010PropOp36
 70
     1
102
RTVSPost2010Prop37
 90
       50
102
RTVSPost2010PropOp37
 70
     1
102
RTVSPost2010Prop38
140
0.0
102
RTVSPost2010PropOp38
 70
     1
102
RTVSPost2010Prop39
140
1.0
102
RTVSPost2010PropOp39
 70
     1
102
RTVSPost2010Prop40
 90
        0
102
RTVSPost2010PropOp40
 70
     1
102
RTVSPost2010Prop41ColorIndex
 90
       18
102
RTVSPost2010Prop41ColorRGB
 90
        0
102
RTVSPost2010PropOp41
 70
     1
102
RTVSPost2010Prop42
 90
       50
102
RTVSPost2010PropOp42
 70
     1
102
RTVSPost2010Prop43
 90
        3
102
RTVSPost2010PropOp43
 70
     1
102
RTVSPost2010Prop44ColorIndex
 90
        5
102
RTVSPost2010Prop44ColorRGB
 90
      255
102
RTVSPost2010PropOp44
 70
     1
102
RTVSPost2010Prop45
280
     0
102
RTVSPost2010PropOp45
 70
     1
102
RTVSPost2010Prop46
 90
       50
102
RTVSPost2010PropOp46
 70
     1
102
RTVSPost2010Prop47
 90
       50
102
RTVSPost2010PropOp47
 70
     1
102
RTVSPost2010Prop48
 90
       50
102
RTVSPost2010PropOp48
 70
     1
102
RTVSPost2010Prop49
280
     0
102
RTVSPost2010PropOp49
 70
     1
102
RTVSPost2010Prop50
 90
       50
102
RTVSPost2010PropOp50
 70
     1
102
RTVSPost2010Prop51ColorIndex
 90
      256
102
RTVSPost2010Prop51ColorRGB
 90
-16777216
102
RTVSPost2010PropOp51
 70
     0
102
RTVSPost2010Prop52
140
1.0
102
RTVSPost2010PropOp52
 70
     0
102
RTVSPost2010Prop53
 90
        2
102
RTVSPost2010PropOp53
 70
     1
102
RTVSPost2010Prop54
  1
strokes_ogs.tif
102
RTVSPost2010PropOp54
 70
     1
102
RTVSPost2010Prop55
280
     0
102
RTVSPost2010PropOp55
 70
     1
102
RTVSPost2010Prop56
140
1.0
102
RTVSPost2010PropOp56
 70
     1
102
RTVSPost2010Prop57
140
1.0
102
RTVSPost2010PropOp57
 70
     1
102
RTVSPropertyOp0
 70
     1
102
RTVSPropertyOp1
 70
     1
102
RTVSPropertyOp2
 70
     1
102
RTVSPropertyOp3
 70
     1
102
RTVSPropertyOp4
 70
     1
102
RTVSPropertyOp5
 70
     1
102
RTVSPropertyOp6
 70
     1
102
RTVSPropertyOp7
 70
     1
102
RTVSPropertyOp8
 70
     1
102
RTVSPropertyOp9
 70
     1
102
RTVSPropertyOp10
 70
     1
102
RTVSPropertyOp11
 70
     1
102
RTVSPropertyOp12
 70
     1
102
RTVSPropertyOp13
 70
     1
102
RTVSPropertyOp14
 70
     1
102
RTVSPropertyOp15
 70
     1
102
RTVSPropertyOp16
 70
     1
102
RTVSPropertyOp17
 70
     1
102
RTVSPropertyOp18
 70
     1
102
RTVSPropertyOp19
 70
     1
102
RTVSPropertyOp20
 70
     1
102
RTVSPropertyOp21
 70
     1
102
RTVSPropertyOp22
 70
     1
102
RTVSPropertyOp23
 70
     1
102
RTVSPropertyOp24
 70
     1
102
RTVSPropertyOp25
 70
     1
102
RTVSPropertyOp26
 70
     1
102
RTVSPropertyOp27
 70
     1
102
RTVSPropertyOp28
 70
     1
102
RTVSPropertyOp29
 70
     1
102
RTVSPropertyOp30
 70
     1
102
RTVSPropertyOp31
 70
     1
102
RTVSPropertyOp32
 70
     1
102
RTVSPropertyOp33
 70
     1
102
RTVSPropertyOp34
 70
     1
102
RTVSPropertyOp35
 70
     1
102
RTVSPropertyOp36
 70
     1
102
RTVSPropertyOp37
 70
     1
102
RTVSPropertyOp38
 70
     1
102
RTVSPropertyOp39
 70
     1
102
RTVSPropertyOp40
 70
     1
102
RTVSPropertyOp41
 70
     1
102
RTVSPropertyOp42
 70
     1
102
RTVSPropertyOp43
 70
     1
102
RTVSPropertyOp44
 70
     1
102
RTVSPropertyOp45
 70
     1
102
RTVSPropertyOp46
 70
     1
102
RTVSPropertyOp47
 70
     1
102
RTVSPropertyOp48
 70
     1
102
RTVSPropertyOp49
 70
     1
102
RTVSPropertyOp50
 70
     1
102
RTVSPropertyOp51
 70
     0
102
RTVSPropertyOp52
 70
     0
102
RTVSPropertyOp53
 70
     1
102
RTVSPropertyOp54
 70
     1
102
RTVSPropertyOp55
 70
     1
102
RTVSPropertyOp56
 70
     1
102
RTVSPropertyOp57
 70
     1
102
RTVSPropertyOp58
 70
     1
102
RTVSPropertyOp59
 70
     1
102
RTVSPropertyOp60
 70
     1
102
RTVSPropertyOp61
 70
     1
102
RTVSPropertyOp62
 70
     1
  0
XRECORD
  5
608
102
{ACAD_REACTORS
330
607
102
}
330
607
100
AcDbXrecord
280
     1
102
RTVSPost2010Prop28
280
     0
102
RTVSPost2010PropOp28
 70
     0
102
RTVSPost2010Prop29
280
     1
102
RTVSPost2010PropOp29
 70
     0
102
RTVSPost2010Prop30
280
     1
102
RTVSPost2010PropOp30
 70
     0
102
RTVSPost2010Prop31
280
     0
102
RTVSPost2010PropOp31
 70
     0
102
RTVSPost2010Prop32
280
     0
102
RTVSPost2010PropOp32
 70
     0
102
RTVSPost2010Prop33
280
     0
102
RTVSPost2010PropOp33
 70
     0
102
RTVSPost2010Prop34
280
     0
102
RTVSPost2010PropOp34
 70
     0
102
RTVSPost2010Prop35
280
     0
102
RTVSPost2010PropOp35
 70
     0
102
RTVSPost2010Prop36
280
     0
102
RTVSPost2010PropOp36
 70
     0
102
RTVSPost2010Prop37
 90
       50
102
RTVSPost2010PropOp37
 70
     0
102
RTVSPost2010Prop38
140
0.0
102
RTVSPost2010PropOp38
 70
     0
102
RTVSPost2010Prop39
140
1.0
102
RTVSPost2010PropOp39
 70
     0
102
RTVSPost2010Prop40
 90
        0
102
RTVSPost2010PropOp40
 70
     0
102
RTVSPost2010Prop41ColorIndex
 90
       18
102
RTVSPost2010Prop41ColorRGB
 90
        0
102
RTVSPost2010PropOp41
 70
     0
102
RTVSPost2010Prop42
 90
       50
102
RTVSPost2010PropOp42
 70
     0
102
RTVSPost2010Prop43
 90
        3
102
RTVSPost2010PropOp43
 70
     0
102
RTVSPost2010Prop44ColorIndex
 90
        5
102
RTVSPost2010Prop44ColorRGB
 90
      255
102
RTVSPost2010PropOp44
 70
     0
102
RTVSPost2010Prop45
280
     0
102
RTVSPost2010PropOp45
 70
     0
102
RTVSPost2010Prop46
 90
       50
102
RTVSPost2010PropOp46
 70
     0
102
RTVSPost2010Prop47
 90
       50
102
RTVSPost2010PropOp47
 70
     0
102
RTVSPost2010Prop48
 90
       50
102
RTVSPost2010PropOp48
 70
     0
102
RTVSPost2010Prop49
280
     0
102
RTVSPost2010PropOp49
 70
     0
102
RTVSPost2010Prop50
 90
       50
102
RTVSPost2010PropOp50
 70
     0
102
RTVSPost2010Prop51ColorIndex
 90
      256
102
RTVSPost2010Prop51ColorRGB
 90
-16777216
102
RTVSPost2010PropOp51
 70
     0
102
RTVSPost2010Prop52
140
1.0
102
RTVSPost2010PropOp52
 70
     0
102
RTVSPost2010Prop53
 90
        2
102
RTVSPost2010PropOp53
 70
     0
102
RTVSPost2010Prop54
  1
strokes_ogs.tif
102
RTVSPost2010PropOp54
 70
     0
102
RTVSPost2010Prop55
280
     0
102
RTVSPost2010PropOp55
 70
     0
102
RTVSPost2010Prop56
140
1.0
102
RTVSPost2010PropOp56
 70
     0
102
RTVSPost2010Prop57
140
1.0
102
RTVSPost2010PropOp57
 70
     0
102
RTVSPropertyOp0
 70
     0
102
RTVSPropertyOp1
 70
     0
102
RTVSPropertyOp2
 70
     0
102
RTVSPropertyOp3
 70
     0
102
RTVSPropertyOp4
 70
     0
102
RTVSPropertyOp5
 70
     0
102
RTVSPropertyOp6
 70
     0
102
RTVSPropertyOp7
 70
     0
102
RTVSPropertyOp8
 70
     0
102
RTVSPropertyOp9
 70
     0
102
RTVSPropertyOp10
 70
     0
102
RTVSPropertyOp11
 70
     0
102
RTVSPropertyOp12
 70
     0
102
RTVSPropertyOp13
 70
     0
102
RTVSPropertyOp14
 70
     2
102
RTVSPropertyOp15
 70
     0
102
RTVSPropertyOp16
 70
     0
102
RTVSPropertyOp17
 70
     0
102
RTVSPropertyOp18
 70
     0
102
RTVSPropertyOp19
 70
     0
102
RTVSPropertyOp20
 70
     0
102
RTVSPropertyOp21
 70
     0
102
RTVSPropertyOp22
 70
     0
102
RTVSPropertyOp23
 70
     0
102
RTVSPropertyOp24
 70
     0
102
RTVSPropertyOp25
 70
     0
102
RTVSPropertyOp26
 70
     0
102
RTVSPropertyOp27
 70
     0
102
RTVSPropertyOp28
 70
     0
102
RTVSPropertyOp29
 70
     0
102
RTVSPropertyOp30
 70
     0
102
RTVSPropertyOp31
 70
     0
102
RTVSPropertyOp32
 70
     0
102
RTVSPropertyOp33
 70
     0
102
RTVSPropertyOp34
 70
     0
102
RTVSPropertyOp35
 70
     0
102
RTVSPropertyOp36
 70
     0
102
RTVSPropertyOp37
 70
     0
102
RTVSPropertyOp38
 70
     0
102
RTVSPropertyOp39
 70
     0
102
RTVSPropertyOp40
 70
     0
102
RTVSPropertyOp41
 70
     0
102
RTVSPropertyOp42
 70
     0
102
RTVSPropertyOp43
 70
     0
102
RTVSPropertyOp44
 70
     0
102
RTVSPropertyOp45
 70
     0
102
RTVSPropertyOp46
 70
     0
102
RTVSPropertyOp47
 70
     0
102
RTVSPropertyOp48
 70
     0
102
RTVSPropertyOp49
 70
     0
102
RTVSPropertyOp50
 70
     0
102
RTVSPropertyOp51
 70
     0
102
RTVSPropertyOp52
 70
     0
102
RTVSPropertyOp53
 70
     0
102
RTVSPropertyOp54
 70
     0
102
RTVSPropertyOp55
 70
     0
102
RTVSPropertyOp56
 70
     0
102
RTVSPropertyOp57
 70
     0
102
RTVSPropertyOp58
 70
     1
102
RTVSPropertyOp59
 70
     1
102
RTVSPropertyOp60
 70
     1
102
RTVSPropertyOp61
 70
     1
102
RTVSPropertyOp62
 70
     1
  0
XRECORD
  5
602
102
{ACAD_REACTORS
330
601
102
}
330
601
100
AcDbXrecord
280
     1
102
RTVSPost2010Prop28
280
     0
102
RTVSPost2010PropOp28
 70
     1
102
RTVSPost2010Prop29
280
     1
102
RTVSPost2010PropOp29
 70
     1
102
RTVSPost2010Prop30
280
     1
102
RTVSPost2010PropOp30
 70
     1
102
RTVSPost2010Prop31
280
     0
102
RTVSPost2010PropOp31
 70
     1
102
RTVSPost2010Prop32
280
     0
102
RTVSPost2010PropOp32
 70
     1
102
RTVSPost2010Prop33
280
     0
102
RTVSPost2010PropOp33
 70
     1
102
RTVSPost2010Prop34
280
     0
102
RTVSPost2010PropOp34
 70
     1
102
RTVSPost2010Prop35
280
     0
102
RTVSPost2010PropOp35
 70
     1
102
RTVSPost2010Prop36
280
     0
102
RTVSPost2010PropOp36
 70
     1
102
RTVSPost2010Prop37
 90
       50
102
RTVSPost2010PropOp37
 70
     1
102
RTVSPost2010Prop38
140
0.0
102
RTVSPost2010PropOp38
 70
     1
102
RTVSPost2010Prop39
140
1.0
102
RTVSPost2010PropOp39
 70
     1
102
RTVSPost2010Prop40
 90
        0
102
RTVSPost2010PropOp40
 70
     1
102
RTVSPost2010Prop41ColorIndex
 90
       18
102
RTVSPost2010Prop41ColorRGB
 90
        0
102
RTVSPost2010PropOp41
 70
     1
102
RTVSPost2010Prop42
 90
       50
102
RTVSPost2010PropOp42
 70
     1
102
RTVSPost2010Prop43
 90
        3
102
RTVSPost2010PropOp43
 70
     1
102
RTVSPost2010Prop44ColorIndex
 90
        5
102
RTVSPost2010Prop44ColorRGB
 90
      255
102
RTVSPost2010PropOp44
 70
     1
102
RTVSPost2010Prop45
280
     0
102
RTVSPost2010PropOp45
 70
     1
102
RTVSPost2010Prop46
 90
       50
102
RTVSPost2010PropOp46
 70
     1
102
RTVSPost2010Prop47
 90
       50
102
RTVSPost2010PropOp47
 70
     1
102
RTVSPost2010Prop48
 90
       50
102
RTVSPost2010PropOp48
 70
     1
102
RTVSPost2010Prop49
280
     0
102
RTVSPost2010PropOp49
 70
     1
102
RTVSPost2010Prop50
 90
       50
102
RTVSPost2010PropOp50
 70
     1
102
RTVSPost2010Prop51ColorIndex
 90
      256
102
RTVSPost2010Prop51ColorRGB
 90
-16777216
102
RTVSPost2010PropOp51
 70
     0
102
RTVSPost2010Prop52
140
1.0
102
RTVSPost2010PropOp52
 70
     0
102
RTVSPost2010Prop53
 90
        2
102
RTVSPost2010PropOp53
 70
     1
102
RTVSPost2010Prop54
  1
strokes_ogs.tif
102
RTVSPost2010PropOp54
 70
     1
102
RTVSPost2010Prop55
280
     0
102
RTVSPost2010PropOp55
 70
     1
102
RTVSPost2010Prop56
140
1.0
102
RTVSPost2010PropOp56
 70
     1
102
RTVSPost2010Prop57
140
1.0
102
RTVSPost2010PropOp57
 70
     1
102
RTVSPropertyOp0
 70
     1
102
RTVSPropertyOp1
 70
     1
102
RTVSPropertyOp2
 70
     1
102
RTVSPropertyOp3
 70
     1
102
RTVSPropertyOp4
 70
     1
102
RTVSPropertyOp5
 70
     1
102
RTVSPropertyOp6
 70
     1
102
RTVSPropertyOp7
 70
     1
102
RTVSPropertyOp8
 70
     1
102
RTVSPropertyOp9
 70
     1
102
RTVSPropertyOp10
 70
     1
102
RTVSPropertyOp11
 70
     1
102
RTVSPropertyOp12
 70
     1
102
RTVSPropertyOp13
 70
     1
102
RTVSPropertyOp14
 70
     1
102
RTVSPropertyOp15
 70
     1
102
RTVSPropertyOp16
 70
     1
102
RTVSPropertyOp17
 70
     1
102
RTVSPropertyOp18
 70
     1
102
RTVSPropertyOp19
 70
     1
102
RTVSPropertyOp20
 70
     1
102
RTVSPropertyOp21
 70
     1
102
RTVSPropertyOp22
 70
     1
102
RTVSPropertyOp23
 70
     1
102
RTVSPropertyOp24
 70
     1
102
RTVSPropertyOp25
 70
     1
102
RTVSPropertyOp26
 70
     1
102
RTVSPropertyOp27
 70
     1
102
RTVSPropertyOp28
 70
     1
102
RTVSPropertyOp29
 70
     1
102
RTVSPropertyOp30
 70
     1
102
RTVSPropertyOp31
 70
     1
102
RTVSPropertyOp32
 70
     1
102
RTVSPropertyOp33
 70
     1
102
RTVSPropertyOp34
 70
     1
102
RTVSPropertyOp35
 70
     1
102
RTVSPropertyOp36
 70
     1
102
RTVSPropertyOp37
 70
     1
102
RTVSPropertyOp38
 70
     1
102
RTVSPropertyOp39
 70
     1
102
RTVSPropertyOp40
 70
     1
102
RTVSPropertyOp41
 70
     1
102
RTVSPropertyOp42
 70
     1
102
RTVSPropertyOp43
 70
     1
102
RTVSPropertyOp44
 70
     1
102
RTVSPropertyOp45
 70
     1
102
RTVSPropertyOp46
 70
     1
102
RTVSPropertyOp47
 70
     1
102
RTVSPropertyOp48
 70
     1
102
RTVSPropertyOp49
 70
     1
102
RTVSPropertyOp50
 70
     1
102
RTVSPropertyOp51
 70
     0
102
RTVSPropertyOp52
 70
     0
102
RTVSPropertyOp53
 70
     1
102
RTVSPropertyOp54
 70
     1
102
RTVSPropertyOp55
 70
     1
102
RTVSPropertyOp56
 70
     1
102
RTVSPropertyOp57
 70
     1
102
RTVSPropertyOp58
 70
     1
102
RTVSPropertyOp59
 70
     1
102
RTVSPropertyOp60
 70
     1
102
RTVSPropertyOp61
 70
     1
102
RTVSPropertyOp62
 70
     1
  0
XRECORD
  5
60A
102
{ACAD_REACTORS
330
609
102
}
330
609
100
AcDbXrecord
280
     1
102
RTVSPost2010Prop28
280
     0
102
RTVSPost2010PropOp28
 70
     0
102
RTVSPost2010Prop29
280
     1
102
RTVSPost2010PropOp29
 70
     0
102
RTVSPost2010Prop30
280
     1
102
RTVSPost2010PropOp30
 70
     0
102
RTVSPost2010Prop31
280
     0
102
RTVSPost2010PropOp31
 70
     0
102
RTVSPost2010Prop32
280
     0
102
RTVSPost2010PropOp32
 70
     0
102
RTVSPost2010Prop33
280
     0
102
RTVSPost2010PropOp33
 70
     0
102
RTVSPost2010Prop34
280
     0
102
RTVSPost2010PropOp34
 70
     0
102
RTVSPost2010Prop35
280
     0
102
RTVSPost2010PropOp35
 70
     0
102
RTVSPost2010Prop36
280
     0
102
RTVSPost2010PropOp36
 70
     0
102
RTVSPost2010Prop37
 90
       50
102
RTVSPost2010PropOp37
 70
     0
102
RTVSPost2010Prop38
140
0.0
102
RTVSPost2010PropOp38
 70
     0
102
RTVSPost2010Prop39
140
1.0
102
RTVSPost2010PropOp39
 70
     0
102
RTVSPost2010Prop40
 90
        0
102
RTVSPost2010PropOp40
 70
     0
102
RTVSPost2010Prop41ColorIndex
 90
       18
102
RTVSPost2010Prop41ColorRGB
 90
        0
102
RTVSPost2010PropOp41
 70
     0
102
RTVSPost2010Prop42
 90
       50
102
RTVSPost2010PropOp42
 70
     0
102
RTVSPost2010Prop43
 90
        3
102
RTVSPost2010PropOp43
 70
     0
102
RTVSPost2010Prop44ColorIndex
 90
        5
102
RTVSPost2010Prop44ColorRGB
 90
      255
102
RTVSPost2010PropOp44
 70
     0
102
RTVSPost2010Prop45
280
     0
102
RTVSPost2010PropOp45
 70
     0
102
RTVSPost2010Prop46
 90
       50
102
RTVSPost2010PropOp46
 70
     0
102
RTVSPost2010Prop47
 90
       50
102
RTVSPost2010PropOp47
 70
     0
102
RTVSPost2010Prop48
 90
       50
102
RTVSPost2010PropOp48
 70
     0
102
RTVSPost2010Prop49
280
     0
102
RTVSPost2010PropOp49
 70
     0
102
RTVSPost2010Prop50
 90
       50
102
RTVSPost2010PropOp50
 70
     0
102
RTVSPost2010Prop51ColorIndex
 90
      256
102
RTVSPost2010Prop51ColorRGB
 90
-16777216
102
RTVSPost2010PropOp51
 70
     0
102
RTVSPost2010Prop52
140
1.0
102
RTVSPost2010PropOp52
 70
     0
102
RTVSPost2010Prop53
 90
        2
102
RTVSPost2010PropOp53
 70
     0
102
RTVSPost2010Prop54
  1
strokes_ogs.tif
102
RTVSPost2010PropOp54
 70
     0
102
RTVSPost2010Prop55
280
     0
102
RTVSPost2010PropOp55
 70
     0
102
RTVSPost2010Prop56
140
1.0
102
RTVSPost2010PropOp56
 70
     0
102
RTVSPost2010Prop57
140
1.0
102
RTVSPost2010PropOp57
 70
     0
102
RTVSPropertyOp0
 70
     0
102
RTVSPropertyOp1
 70
     0
102
RTVSPropertyOp2
 70
     0
102
RTVSPropertyOp3
 70
     0
102
RTVSPropertyOp4
 70
     0
102
RTVSPropertyOp5
 70
     0
102
RTVSPropertyOp6
 70
     0
102
RTVSPropertyOp7
 70
     0
102
RTVSPropertyOp8
 70
     0
102
RTVSPropertyOp9
 70
     0
102
RTVSPropertyOp10
 70
     0
102
RTVSPropertyOp11
 70
     0
102
RTVSPropertyOp12
 70
     0
102
RTVSPropertyOp13
 70
     0
102
RTVSPropertyOp14
 70
     2
102
RTVSPropertyOp15
 70
     0
102
RTVSPropertyOp16
 70
     0
102
RTVSPropertyOp17
 70
     0
102
RTVSPropertyOp18
 70
     0
102
RTVSPropertyOp19
 70
     0
102
RTVSPropertyOp20
 70
     0
102
RTVSPropertyOp21
 70
     0
102
RTVSPropertyOp22
 70
     0
102
RTVSPropertyOp23
 70
     0
102
RTVSPropertyOp24
 70
     0
102
RTVSPropertyOp25
 70
     0
102
RTVSPropertyOp26
 70
     0
102
RTVSPropertyOp27
 70
     0
102
RTVSPropertyOp28
 70
     0
102
RTVSPropertyOp29
 70
     0
102
RTVSPropertyOp30
 70
     0
102
RTVSPropertyOp31
 70
     0
102
RTVSPropertyOp32
 70
     0
102
RTVSPropertyOp33
 70
     0
102
RTVSPropertyOp34
 70
     0
102
RTVSPropertyOp35
 70
     0
102
RTVSPropertyOp36
 70
     0
102
RTVSPropertyOp37
 70
     0
102
RTVSPropertyOp38
 70
     0
102
RTVSPropertyOp39
 70
     0
102
RTVSPropertyOp40
 70
     0
102
RTVSPropertyOp41
 70
     0
102
RTVSPropertyOp42
 70
     0
102
RTVSPropertyOp43
 70
     0
102
RTVSPropertyOp44
 70
     0
102
RTVSPropertyOp45
 70
     0
102
RTVSPropertyOp46
 70
     0
102
RTVSPropertyOp47
 70
     0
102
RTVSPropertyOp48
 70
     0
102
RTVSPropertyOp49
 70
     0
102
RTVSPropertyOp50
 70
     0
102
RTVSPropertyOp51
 70
     0
102
RTVSPropertyOp52
 70
     0
102
RTVSPropertyOp53
 70
     0
102
RTVSPropertyOp54
 70
     0
102
RTVSPropertyOp55
 70
     0
102
RTVSPropertyOp56
 70
     0
102
RTVSPropertyOp57
 70
     0
102
RTVSPropertyOp58
 70
     1
102
RTVSPropertyOp59
 70
     1
102
RTVSPropertyOp60
 70
     1
102
RTVSPropertyOp61
 70
     1
102
RTVSPropertyOp62
 70
     1
  0
XRECORD
  5
5F8
102
{ACAD_REACTORS
330
5F7
102
}
330
5F7
100
AcDbXrecord
280
     1
102
RTVSPost2010Prop28
280
     0
102
RTVSPost2010PropOp28
 70
     1
102
RTVSPost2010Prop29
280
     1
102
RTVSPost2010PropOp29
 70
     1
102
RTVSPost2010Prop30
280
     1
102
RTVSPost2010PropOp30
 70
     1
102
RTVSPost2010Prop31
280
     0
102
RTVSPost2010PropOp31
 70
     1
102
RTVSPost2010Prop32
280
     0
102
RTVSPost2010PropOp32
 70
     1
102
RTVSPost2010Prop33
280
     0
102
RTVSPost2010PropOp33
 70
     1
102
RTVSPost2010Prop34
280
     0
102
RTVSPost2010PropOp34
 70
     1
102
RTVSPost2010Prop35
280
     0
102
RTVSPost2010PropOp35
 70
     1
102
RTVSPost2010Prop36
280
     0
102
RTVSPost2010PropOp36
 70
     1
102
RTVSPost2010Prop37
 90
       50
102
RTVSPost2010PropOp37
 70
     1
102
RTVSPost2010Prop38
140
0.0
102
RTVSPost2010PropOp38
 70
     1
102
RTVSPost2010Prop39
140
1.0
102
RTVSPost2010PropOp39
 70
     1
102
RTVSPost2010Prop40
 90
        0
102
RTVSPost2010PropOp40
 70
     1
102
RTVSPost2010Prop41ColorIndex
 90
       18
102
RTVSPost2010Prop41ColorRGB
 90
        0
102
RTVSPost2010PropOp41
 70
     1
102
RTVSPost2010Prop42
 90
       50
102
RTVSPost2010PropOp42
 70
     1
102
RTVSPost2010Prop43
 90
        3
102
RTVSPost2010PropOp43
 70
     1
102
RTVSPost2010Prop44ColorIndex
 90
        5
102
RTVSPost2010Prop44ColorRGB
 90
      255
102
RTVSPost2010PropOp44
 70
     1
102
RTVSPost2010Prop45
280
     0
102
RTVSPost2010PropOp45
 70
     1
102
RTVSPost2010Prop46
 90
       50
102
RTVSPost2010PropOp46
 70
     1
102
RTVSPost2010Prop47
 90
       50
102
RTVSPost2010PropOp47
 70
     1
102
RTVSPost2010Prop48
 90
       50
102
RTVSPost2010PropOp48
 70
     1
102
RTVSPost2010Prop49
280
     0
102
RTVSPost2010PropOp49
 70
     1
102
RTVSPost2010Prop50
 90
       50
102
RTVSPost2010PropOp50
 70
     1
102
RTVSPost2010Prop51ColorIndex
 90
      256
102
RTVSPost2010Prop51ColorRGB
 90
-16777216
102
RTVSPost2010PropOp51
 70
     0
102
RTVSPost2010Prop52
140
1.0
102
RTVSPost2010PropOp52
 70
     0
102
RTVSPost2010Prop53
 90
        2
102
RTVSPost2010PropOp53
 70
     1
102
RTVSPost2010Prop54
  1
strokes_ogs.tif
102
RTVSPost2010PropOp54
 70
     1
102
RTVSPost2010Prop55
280
     0
102
RTVSPost2010PropOp55
 70
     1
102
RTVSPost2010Prop56
140
1.0
102
RTVSPost2010PropOp56
 70
     1
102
RTVSPost2010Prop57
140
1.0
102
RTVSPost2010PropOp57
 70
     1
102
RTVSPropertyOp0
 70
     1
102
RTVSPropertyOp1
 70
     1
102
RTVSPropertyOp2
 70
     1
102
RTVSPropertyOp3
 70
     1
102
RTVSPropertyOp4
 70
     1
102
RTVSPropertyOp5
 70
     1
102
RTVSPropertyOp6
 70
     1
102
RTVSPropertyOp7
 70
     1
102
RTVSPropertyOp8
 70
     1
102
RTVSPropertyOp9
 70
     1
102
RTVSPropertyOp10
 70
     1
102
RTVSPropertyOp11
 70
     1
102
RTVSPropertyOp12
 70
     1
102
RTVSPropertyOp13
 70
     1
102
RTVSPropertyOp14
 70
     1
102
RTVSPropertyOp15
 70
     1
102
RTVSPropertyOp16
 70
     1
102
RTVSPropertyOp17
 70
     1
102
RTVSPropertyOp18
 70
     1
102
RTVSPropertyOp19
 70
     1
102
RTVSPropertyOp20
 70
     1
102
RTVSPropertyOp21
 70
     1
102
RTVSPropertyOp22
 70
     1
102
RTVSPropertyOp23
 70
     1
102
RTVSPropertyOp24
 70
     1
102
RTVSPropertyOp25
 70
     1
102
RTVSPropertyOp26
 70
     1
102
RTVSPropertyOp27
 70
     1
102
RTVSPropertyOp28
 70
     1
102
RTVSPropertyOp29
 70
     1
102
RTVSPropertyOp30
 70
     1
102
RTVSPropertyOp31
 70
     1
102
RTVSPropertyOp32
 70
     1
102
RTVSPropertyOp33
 70
     1
102
RTVSPropertyOp34
 70
     1
102
RTVSPropertyOp35
 70
     1
102
RTVSPropertyOp36
 70
     1
102
RTVSPropertyOp37
 70
     1
102
RTVSPropertyOp38
 70
     1
102
RTVSPropertyOp39
 70
     1
102
RTVSPropertyOp40
 70
     1
102
RTVSPropertyOp41
 70
     1
102
RTVSPropertyOp42
 70
     1
102
RTVSPropertyOp43
 70
     1
102
RTVSPropertyOp44
 70
     1
102
RTVSPropertyOp45
 70
     1
102
RTVSPropertyOp46
 70
     1
102
RTVSPropertyOp47
 70
     1
102
RTVSPropertyOp48
 70
     1
102
RTVSPropertyOp49
 70
     1
102
RTVSPropertyOp50
 70
     1
102
RTVSPropertyOp51
 70
     0
102
RTVSPropertyOp52
 70
     0
102
RTVSPropertyOp53
 70
     1
102
RTVSPropertyOp54
 70
     1
102
RTVSPropertyOp55
 70
     1
102
RTVSPropertyOp56
 70
     1
102
RTVSPropertyOp57
 70
     1
102
RTVSPropertyOp58
 70
     1
102
RTVSPropertyOp59
 70
     1
102
RTVSPropertyOp60
 70
     1
102
RTVSPropertyOp61
 70
     1
102
RTVSPropertyOp62
 70
     1
  0
XRECORD
  5
616
102
{ACAD_REACTORS
330
615
102
}
330
615
100
AcDbXrecord
280
     1
102
RTVSPost2010Prop28
280
     0
102
RTVSPost2010PropOp28
 70
     1
102
RTVSPost2010Prop29
280
     1
102
RTVSPost2010PropOp29
 70
     1
102
RTVSPost2010Prop30
280
     1
102
RTVSPost2010PropOp30
 70
     1
102
RTVSPost2010Prop31
280
     0
102
RTVSPost2010PropOp31
 70
     1
102
RTVSPost2010Prop32
280
     0
102
RTVSPost2010PropOp32
 70
     1
102
RTVSPost2010Prop33
280
     0
102
RTVSPost2010PropOp33
 70
     1
102
RTVSPost2010Prop34
280
     0
102
RTVSPost2010PropOp34
 70
     1
102
RTVSPost2010Prop35
280
     0
102
RTVSPost2010PropOp35
 70
     1
102
RTVSPost2010Prop36
280
     0
102
RTVSPost2010PropOp36
 70
     1
102
RTVSPost2010Prop37
 90
       50
102
RTVSPost2010PropOp37
 70
     1
102
RTVSPost2010Prop38
140
0.0
102
RTVSPost2010PropOp38
 70
     1
102
RTVSPost2010Prop39
140
1.0
102
RTVSPost2010PropOp39
 70
     1
102
RTVSPost2010Prop40
 90
        0
102
RTVSPost2010PropOp40
 70
     1
102
RTVSPost2010Prop41ColorIndex
 90
       18
102
RTVSPost2010Prop41ColorRGB
 90
        0
102
RTVSPost2010PropOp41
 70
     1
102
RTVSPost2010Prop42
 90
       50
102
RTVSPost2010PropOp42
 70
     1
102
RTVSPost2010Prop43
 90
        3
102
RTVSPost2010PropOp43
 70
     1
102
RTVSPost2010Prop44ColorIndex
 90
        5
102
RTVSPost2010Prop44ColorRGB
 90
      255
102
RTVSPost2010PropOp44
 70
     1
102
RTVSPost2010Prop45
280
     0
102
RTVSPost2010PropOp45
 70
     1
102
RTVSPost2010Prop46
 90
       50
102
RTVSPost2010PropOp46
 70
     1
102
RTVSPost2010Prop47
 90
       50
102
RTVSPost2010PropOp47
 70
     1
102
RTVSPost2010Prop48
 90
       50
102
RTVSPost2010PropOp48
 70
     1
102
RTVSPost2010Prop49
280
     0
102
RTVSPost2010PropOp49
 70
     1
102
RTVSPost2010Prop50
 90
       50
102
RTVSPost2010PropOp50
 70
     1
102
RTVSPost2010Prop51ColorIndex
 90
      256
102
RTVSPost2010Prop51ColorRGB
 90
-16777216
102
RTVSPost2010PropOp51
 70
     0
102
RTVSPost2010Prop52
140
1.0
102
RTVSPost2010PropOp52
 70
     0
102
RTVSPost2010Prop53
 90
        2
102
RTVSPost2010PropOp53
 70
     1
102
RTVSPost2010Prop54
  1
strokes_ogs.tif
102
RTVSPost2010PropOp54
 70
     1
102
RTVSPost2010Prop55
280
     0
102
RTVSPost2010PropOp55
 70
     1
102
RTVSPost2010Prop56
140
1.0
102
RTVSPost2010PropOp56
 70
     1
102
RTVSPost2010Prop57
140
1.0
102
RTVSPost2010PropOp57
 70
     1
102
RTVSPropertyOp0
 70
     1
102
RTVSPropertyOp1
 70
     1
102
RTVSPropertyOp2
 70
     1
102
RTVSPropertyOp3
 70
     1
102
RTVSPropertyOp4
 70
     1
102
RTVSPropertyOp5
 70
     1
102
RTVSPropertyOp6
 70
     1
102
RTVSPropertyOp7
 70
     1
102
RTVSPropertyOp8
 70
     1
102
RTVSPropertyOp9
 70
     1
102
RTVSPropertyOp10
 70
     1
102
RTVSPropertyOp11
 70
     1
102
RTVSPropertyOp12
 70
     1
102
RTVSPropertyOp13
 70
     1
102
RTVSPropertyOp14
 70
     1
102
RTVSPropertyOp15
 70
     1
102
RTVSPropertyOp16
 70
     1
102
RTVSPropertyOp17
 70
     1
102
RTVSPropertyOp18
 70
     1
102
RTVSPropertyOp19
 70
     1
102
RTVSPropertyOp20
 70
     1
102
RTVSPropertyOp21
 70
     1
102
RTVSPropertyOp22
 70
     1
102
RTVSPropertyOp23
 70
     1
102
RTVSPropertyOp24
 70
     1
102
RTVSPropertyOp25
 70
     1
102
RTVSPropertyOp26
 70
     1
102
RTVSPropertyOp27
 70
     1
102
RTVSPropertyOp28
 70
     1
102
RTVSPropertyOp29
 70
     1
102
RTVSPropertyOp30
 70
     1
102
RTVSPropertyOp31
 70
     1
102
RTVSPropertyOp32
 70
     1
102
RTVSPropertyOp33
 70
     1
102
RTVSPropertyOp34
 70
     1
102
RTVSPropertyOp35
 70
     1
102
RTVSPropertyOp36
 70
     1
102
RTVSPropertyOp37
 70
     1
102
RTVSPropertyOp38
 70
     1
102
RTVSPropertyOp39
 70
     1
102
RTVSPropertyOp40
 70
     1
102
RTVSPropertyOp41
 70
     1
102
RTVSPropertyOp42
 70
     1
102
RTVSPropertyOp43
 70
     1
102
RTVSPropertyOp44
 70
     1
102
RTVSPropertyOp45
 70
     1
102
RTVSPropertyOp46
 70
     1
102
RTVSPropertyOp47
 70
     1
102
RTVSPropertyOp48
 70
     1
102
RTVSPropertyOp49
 70
     1
102
RTVSPropertyOp50
 70
     1
102
RTVSPropertyOp51
 70
     0
102
RTVSPropertyOp52
 70
     0
102
RTVSPropertyOp53
 70
     1
102
RTVSPropertyOp54
 70
     1
102
RTVSPropertyOp55
 70
     1
102
RTVSPropertyOp56
 70
     1
102
RTVSPropertyOp57
 70
     1
102
RTVSPropertyOp58
 70
     1
102
RTVSPropertyOp59
 70
     1
102
RTVSPropertyOp60
 70
     1
102
RTVSPropertyOp61
 70
     1
102
RTVSPropertyOp62
 70
     1
  0
XRECORD
  5
614
102
{ACAD_REACTORS
330
613
102
}
330
613
100
AcDbXrecord
280
     1
102
RTVSPost2010Prop28
280
     0
102
RTVSPost2010PropOp28
 70
     1
102
RTVSPost2010Prop29
280
     1
102
RTVSPost2010PropOp29
 70
     1
102
RTVSPost2010Prop30
280
     1
102
RTVSPost2010PropOp30
 70
     1
102
RTVSPost2010Prop31
280
     0
102
RTVSPost2010PropOp31
 70
     1
102
RTVSPost2010Prop32
280
     0
102
RTVSPost2010PropOp32
 70
     1
102
RTVSPost2010Prop33
280
     0
102
RTVSPost2010PropOp33
 70
     1
102
RTVSPost2010Prop34
280
     0
102
RTVSPost2010PropOp34
 70
     1
102
RTVSPost2010Prop35
280
     0
102
RTVSPost2010PropOp35
 70
     1
102
RTVSPost2010Prop36
280
     0
102
RTVSPost2010PropOp36
 70
     1
102
RTVSPost2010Prop37
 90
       50
102
RTVSPost2010PropOp37
 70
     1
102
RTVSPost2010Prop38
140
0.0
102
RTVSPost2010PropOp38
 70
     1
102
RTVSPost2010Prop39
140
1.0
102
RTVSPost2010PropOp39
 70
     1
102
RTVSPost2010Prop40
 90
        0
102
RTVSPost2010PropOp40
 70
     1
102
RTVSPost2010Prop41ColorIndex
 90
       18
102
RTVSPost2010Prop41ColorRGB
 90
        0
102
RTVSPost2010PropOp41
 70
     1
102
RTVSPost2010Prop42
 90
       50
102
RTVSPost2010PropOp42
 70
     1
102
RTVSPost2010Prop43
 90
        3
102
RTVSPost2010PropOp43
 70
     1
102
RTVSPost2010Prop44ColorIndex
 90
        5
102
RTVSPost2010Prop44ColorRGB
 90
      255
102
RTVSPost2010PropOp44
 70
     1
102
RTVSPost2010Prop45
280
     0
102
RTVSPost2010PropOp45
 70
     1
102
RTVSPost2010Prop46
 90
       50
102
RTVSPost2010PropOp46
 70
     1
102
RTVSPost2010Prop47
 90
       50
102
RTVSPost2010PropOp47
 70
     1
102
RTVSPost2010Prop48
 90
       50
102
RTVSPost2010PropOp48
 70
     1
102
RTVSPost2010Prop49
280
     0
102
RTVSPost2010PropOp49
 70
     1
102
RTVSPost2010Prop50
 90
       50
102
RTVSPost2010PropOp50
 70
     1
102
RTVSPost2010Prop51ColorIndex
 90
      256
102
RTVSPost2010Prop51ColorRGB
 90
-16777216
102
RTVSPost2010PropOp51
 70
     0
102
RTVSPost2010Prop52
140
1.0
102
RTVSPost2010PropOp52
 70
     0
102
RTVSPost2010Prop53
 90
        2
102
RTVSPost2010PropOp53
 70
     1
102
RTVSPost2010Prop54
  1
strokes_ogs.tif
102
RTVSPost2010PropOp54
 70
     1
102
RTVSPost2010Prop55
280
     0
102
RTVSPost2010PropOp55
 70
     1
102
RTVSPost2010Prop56
140
1.0
102
RTVSPost2010PropOp56
 70
     1
102
RTVSPost2010Prop57
140
1.0
102
RTVSPost2010PropOp57
 70
     1
102
RTVSPropertyOp0
 70
     1
102
RTVSPropertyOp1
 70
     1
102
RTVSPropertyOp2
 70
     1
102
RTVSPropertyOp3
 70
     1
102
RTVSPropertyOp4
 70
     1
102
RTVSPropertyOp5
 70
     1
102
RTVSPropertyOp6
 70
     1
102
RTVSPropertyOp7
 70
     1
102
RTVSPropertyOp8
 70
     1
102
RTVSPropertyOp9
 70
     1
102
RTVSPropertyOp10
 70
     1
102
RTVSPropertyOp11
 70
     1
102
RTVSPropertyOp12
 70
     1
102
RTVSPropertyOp13
 70
     1
102
RTVSPropertyOp14
 70
     1
102
RTVSPropertyOp15
 70
     1
102
RTVSPropertyOp16
 70
     1
102
RTVSPropertyOp17
 70
     1
102
RTVSPropertyOp18
 70
     1
102
RTVSPropertyOp19
 70
     1
102
RTVSPropertyOp20
 70
     1
102
RTVSPropertyOp21
 70
     1
102
RTVSPropertyOp22
 70
     1
102
RTVSPropertyOp23
 70
     1
102
RTVSPropertyOp24
 70
     1
102
RTVSPropertyOp25
 70
     1
102
RTVSPropertyOp26
 70
     1
102
RTVSPropertyOp27
 70
     1
102
RTVSPropertyOp28
 70
     1
102
RTVSPropertyOp29
 70
     1
102
RTVSPropertyOp30
 70
     1
102
RTVSPropertyOp31
 70
     1
102
RTVSPropertyOp32
 70
     1
102
RTVSPropertyOp33
 70
     1
102
RTVSPropertyOp34
 70
     1
102
RTVSPropertyOp35
 70
     1
102
RTVSPropertyOp36
 70
     1
102
RTVSPropertyOp37
 70
     1
102
RTVSPropertyOp38
 70
     1
102
RTVSPropertyOp39
 70
     1
102
RTVSPropertyOp40
 70
     1
102
RTVSPropertyOp41
 70
     1
102
RTVSPropertyOp42
 70
     1
102
RTVSPropertyOp43
 70
     1
102
RTVSPropertyOp44
 70
     1
102
RTVSPropertyOp45
 70
     1
102
RTVSPropertyOp46
 70
     1
102
RTVSPropertyOp47
 70
     1
102
RTVSPropertyOp48
 70
     1
102
RTVSPropertyOp49
 70
     1
102
RTVSPropertyOp50
 70
     1
102
RTVSPropertyOp51
 70
     0
102
RTVSPropertyOp52
 70
     0
102
RTVSPropertyOp53
 70
     1
102
RTVSPropertyOp54
 70
     1
102
RTVSPropertyOp55
 70
     1
102
RTVSPropertyOp56
 70
     1
102
RTVSPropertyOp57
 70
     1
102
RTVSPropertyOp58
 70
     1
102
RTVSPropertyOp59
 70
     1
102
RTVSPropertyOp60
 70
     1
102
RTVSPropertyOp61
 70
     1
102
RTVSPropertyOp62
 70
     1
  0
XRECORD
  5
60E
102
{ACAD_REACTORS
330
60D
102
}
330
60D
100
AcDbXrecord
280
     1
102
RTVSPost2010Prop28
280
     0
102
RTVSPost2010PropOp28
 70
     1
102
RTVSPost2010Prop29
280
     1
102
RTVSPost2010PropOp29
 70
     1
102
RTVSPost2010Prop30
280
     1
102
RTVSPost2010PropOp30
 70
     1
102
RTVSPost2010Prop31
280
     0
102
RTVSPost2010PropOp31
 70
     1
102
RTVSPost2010Prop32
280
     0
102
RTVSPost2010PropOp32
 70
     1
102
RTVSPost2010Prop33
280
     0
102
RTVSPost2010PropOp33
 70
     1
102
RTVSPost2010Prop34
280
     0
102
RTVSPost2010PropOp34
 70
     1
102
RTVSPost2010Prop35
280
     0
102
RTVSPost2010PropOp35
 70
     1
102
RTVSPost2010Prop36
280
     0
102
RTVSPost2010PropOp36
 70
     1
102
RTVSPost2010Prop37
 90
       50
102
RTVSPost2010PropOp37
 70
     1
102
RTVSPost2010Prop38
140
0.0
102
RTVSPost2010PropOp38
 70
     1
102
RTVSPost2010Prop39
140
1.0
102
RTVSPost2010PropOp39
 70
     1
102
RTVSPost2010Prop40
 90
        0
102
RTVSPost2010PropOp40
 70
     1
102
RTVSPost2010Prop41ColorIndex
 90
       18
102
RTVSPost2010Prop41ColorRGB
 90
        0
102
RTVSPost2010PropOp41
 70
     1
102
RTVSPost2010Prop42
 90
       50
102
RTVSPost2010PropOp42
 70
     1
102
RTVSPost2010Prop43
 90
        3
102
RTVSPost2010PropOp43
 70
     1
102
RTVSPost2010Prop44ColorIndex
 90
        5
102
RTVSPost2010Prop44ColorRGB
 90
      255
102
RTVSPost2010PropOp44
 70
     1
102
RTVSPost2010Prop45
280
     0
102
RTVSPost2010PropOp45
 70
     1
102
RTVSPost2010Prop46
 90
       50
102
RTVSPost2010PropOp46
 70
     1
102
RTVSPost2010Prop47
 90
       50
102
RTVSPost2010PropOp47
 70
     1
102
RTVSPost2010Prop48
 90
       50
102
RTVSPost2010PropOp48
 70
     1
102
RTVSPost2010Prop49
280
     0
102
RTVSPost2010PropOp49
 70
     1
102
RTVSPost2010Prop50
 90
       50
102
RTVSPost2010PropOp50
 70
     1
102
RTVSPost2010Prop51ColorIndex
 90
      256
102
RTVSPost2010Prop51ColorRGB
 90
-16777216
102
RTVSPost2010PropOp51
 70
     0
102
RTVSPost2010Prop52
140
1.0
102
RTVSPost2010PropOp52
 70
     0
102
RTVSPost2010Prop53
 90
        2
102
RTVSPost2010PropOp53
 70
     1
102
RTVSPost2010Prop54
  1
strokes_ogs.tif
102
RTVSPost2010PropOp54
 70
     1
102
RTVSPost2010Prop55
280
     0
102
RTVSPost2010PropOp55
 70
     1
102
RTVSPost2010Prop56
140
1.0
102
RTVSPost2010PropOp56
 70
     1
102
RTVSPost2010Prop57
140
1.0
102
RTVSPost2010PropOp57
 70
     1
102
RTVSPropertyOp0
 70
     1
102
RTVSPropertyOp1
 70
     1
102
RTVSPropertyOp2
 70
     1
102
RTVSPropertyOp3
 70
     1
102
RTVSPropertyOp4
 70
     1
102
RTVSPropertyOp5
 70
     1
102
RTVSPropertyOp6
 70
     1
102
RTVSPropertyOp7
 70
     1
102
RTVSPropertyOp8
 70
     1
102
RTVSPropertyOp9
 70
     1
102
RTVSPropertyOp10
 70
     1
102
RTVSPropertyOp11
 70
     1
102
RTVSPropertyOp12
 70
     1
102
RTVSPropertyOp13
 70
     1
102
RTVSPropertyOp14
 70
     1
102
RTVSPropertyOp15
 70
     1
102
RTVSPropertyOp16
 70
     1
102
RTVSPropertyOp17
 70
     1
102
RTVSPropertyOp18
 70
     1
102
RTVSPropertyOp19
 70
     1
102
RTVSPropertyOp20
 70
     1
102
RTVSPropertyOp21
 70
     1
102
RTVSPropertyOp22
 70
     1
102
RTVSPropertyOp23
 70
     1
102
RTVSPropertyOp24
 70
     1
102
RTVSPropertyOp25
 70
     1
102
RTVSPropertyOp26
 70
     1
102
RTVSPropertyOp27
 70
     1
102
RTVSPropertyOp28
 70
     1
102
RTVSPropertyOp29
 70
     1
102
RTVSPropertyOp30
 70
     1
102
RTVSPropertyOp31
 70
     1
102
RTVSPropertyOp32
 70
     1
102
RTVSPropertyOp33
 70
     1
102
RTVSPropertyOp34
 70
     1
102
RTVSPropertyOp35
 70
     1
102
RTVSPropertyOp36
 70
     1
102
RTVSPropertyOp37
 70
     1
102
RTVSPropertyOp38
 70
     1
102
RTVSPropertyOp39
 70
     1
102
RTVSPropertyOp40
 70
     1
102
RTVSPropertyOp41
 70
     1
102
RTVSPropertyOp42
 70
     1
102
RTVSPropertyOp43
 70
     1
102
RTVSPropertyOp44
 70
     1
102
RTVSPropertyOp45
 70
     1
102
RTVSPropertyOp46
 70
     1
102
RTVSPropertyOp47
 70
     1
102
RTVSPropertyOp48
 70
     1
102
RTVSPropertyOp49
 70
     1
102
RTVSPropertyOp50
 70
     1
102
RTVSPropertyOp51
 70
     0
102
RTVSPropertyOp52
 70
     0
102
RTVSPropertyOp53
 70
     1
102
RTVSPropertyOp54
 70
     1
102
RTVSPropertyOp55
 70
     1
102
RTVSPropertyOp56
 70
     1
102
RTVSPropertyOp57
 70
     1
102
RTVSPropertyOp58
 70
     1
102
RTVSPropertyOp59
 70
     1
102
RTVSPropertyOp60
 70
     1
102
RTVSPropertyOp61
 70
     1
102
RTVSPropertyOp62
 70
     1
  0
XRECORD
  5
610
102
{ACAD_REACTORS
330
60F
102
}
330
60F
100
AcDbXrecord
280
     1
102
RTVSPost2010Prop28
280
     0
102
RTVSPost2010PropOp28
 70
     1
102
RTVSPost2010Prop29
280
     1
102
RTVSPost2010PropOp29
 70
     1
102
RTVSPost2010Prop30
280
     1
102
RTVSPost2010PropOp30
 70
     1
102
RTVSPost2010Prop31
280
     0
102
RTVSPost2010PropOp31
 70
     1
102
RTVSPost2010Prop32
280
     0
102
RTVSPost2010PropOp32
 70
     1
102
RTVSPost2010Prop33
280
     0
102
RTVSPost2010PropOp33
 70
     1
102
RTVSPost2010Prop34
280
     0
102
RTVSPost2010PropOp34
 70
     1
102
RTVSPost2010Prop35
280
     0
102
RTVSPost2010PropOp35
 70
     1
102
RTVSPost2010Prop36
280
     0
102
RTVSPost2010PropOp36
 70
     1
102
RTVSPost2010Prop37
 90
       50
102
RTVSPost2010PropOp37
 70
     1
102
RTVSPost2010Prop38
140
0.0
102
RTVSPost2010PropOp38
 70
     1
102
RTVSPost2010Prop39
140
1.0
102
RTVSPost2010PropOp39
 70
     1
102
RTVSPost2010Prop40
 90
        0
102
RTVSPost2010PropOp40
 70
     1
102
RTVSPost2010Prop41ColorIndex
 90
       18
102
RTVSPost2010Prop41ColorRGB
 90
        0
102
RTVSPost2010PropOp41
 70
     1
102
RTVSPost2010Prop42
 90
       50
102
RTVSPost2010PropOp42
 70
     1
102
RTVSPost2010Prop43
 90
        3
102
RTVSPost2010PropOp43
 70
     1
102
RTVSPost2010Prop44ColorIndex
 90
        5
102
RTVSPost2010Prop44ColorRGB
 90
      255
102
RTVSPost2010PropOp44
 70
     1
102
RTVSPost2010Prop45
280
     0
102
RTVSPost2010PropOp45
 70
     1
102
RTVSPost2010Prop46
 90
       50
102
RTVSPost2010PropOp46
 70
     1
102
RTVSPost2010Prop47
 90
       50
102
RTVSPost2010PropOp47
 70
     1
102
RTVSPost2010Prop48
 90
       50
102
RTVSPost2010PropOp48
 70
     1
102
RTVSPost2010Prop49
280
     0
102
RTVSPost2010PropOp49
 70
     1
102
RTVSPost2010Prop50
 90
       50
102
RTVSPost2010PropOp50
 70
     1
102
RTVSPost2010Prop51ColorIndex
 90
      256
102
RTVSPost2010Prop51ColorRGB
 90
-16777216
102
RTVSPost2010PropOp51
 70
     0
102
RTVSPost2010Prop52
140
1.0
102
RTVSPost2010PropOp52
 70
     0
102
RTVSPost2010Prop53
 90
        2
102
RTVSPost2010PropOp53
 70
     1
102
RTVSPost2010Prop54
  1
strokes_ogs.tif
102
RTVSPost2010PropOp54
 70
     1
102
RTVSPost2010Prop55
280
     0
102
RTVSPost2010PropOp55
 70
     1
102
RTVSPost2010Prop56
140
1.0
102
RTVSPost2010PropOp56
 70
     1
102
RTVSPost2010Prop57
140
1.0
102
RTVSPost2010PropOp57
 70
     1
102
RTVSPropertyOp0
 70
     1
102
RTVSPropertyOp1
 70
     1
102
RTVSPropertyOp2
 70
     1
102
RTVSPropertyOp3
 70
     1
102
RTVSPropertyOp4
 70
     1
102
RTVSPropertyOp5
 70
     1
102
RTVSPropertyOp6
 70
     1
102
RTVSPropertyOp7
 70
     1
102
RTVSPropertyOp8
 70
     1
102
RTVSPropertyOp9
 70
     1
102
RTVSPropertyOp10
 70
     1
102
RTVSPropertyOp11
 70
     1
102
RTVSPropertyOp12
 70
     1
102
RTVSPropertyOp13
 70
     1
102
RTVSPropertyOp14
 70
     1
102
RTVSPropertyOp15
 70
     1
102
RTVSPropertyOp16
 70
     1
102
RTVSPropertyOp17
 70
     1
102
RTVSPropertyOp18
 70
     1
102
RTVSPropertyOp19
 70
     1
102
RTVSPropertyOp20
 70
     1
102
RTVSPropertyOp21
 70
     1
102
RTVSPropertyOp22
 70
     1
102
RTVSPropertyOp23
 70
     1
102
RTVSPropertyOp24
 70
     1
102
RTVSPropertyOp25
 70
     1
102
RTVSPropertyOp26
 70
     1
102
RTVSPropertyOp27
 70
     1
102
RTVSPropertyOp28
 70
     1
102
RTVSPropertyOp29
 70
     1
102
RTVSPropertyOp30
 70
     1
102
RTVSPropertyOp31
 70
     1
102
RTVSPropertyOp32
 70
     1
102
RTVSPropertyOp33
 70
     1
102
RTVSPropertyOp34
 70
     1
102
RTVSPropertyOp35
 70
     1
102
RTVSPropertyOp36
 70
     1
102
RTVSPropertyOp37
 70
     1
102
RTVSPropertyOp38
 70
     1
102
RTVSPropertyOp39
 70
     1
102
RTVSPropertyOp40
 70
     1
102
RTVSPropertyOp41
 70
     1
102
RTVSPropertyOp42
 70
     1
102
RTVSPropertyOp43
 70
     1
102
RTVSPropertyOp44
 70
     1
102
RTVSPropertyOp45
 70
     1
102
RTVSPropertyOp46
 70
     1
102
RTVSPropertyOp47
 70
     1
102
RTVSPropertyOp48
 70
     1
102
RTVSPropertyOp49
 70
     1
102
RTVSPropertyOp50
 70
     1
102
RTVSPropertyOp51
 70
     0
102
RTVSPropertyOp52
 70
     0
102
RTVSPropertyOp53
 70
     1
102
RTVSPropertyOp54
 70
     1
102
RTVSPropertyOp55
 70
     1
102
RTVSPropertyOp56
 70
     1
102
RTVSPropertyOp57
 70
     1
102
RTVSPropertyOp58
 70
     1
102
RTVSPropertyOp59
 70
     1
102
RTVSPropertyOp60
 70
     1
102
RTVSPropertyOp61
 70
     1
102
RTVSPropertyOp62
 70
     1
  0
XRECORD
  5
600
102
{ACAD_REACTORS
330
5FF
102
}
330
5FF
100
AcDbXrecord
280
     1
102
RTVSPost2010Prop28
280
     0
102
RTVSPost2010PropOp28
 70
     1
102
RTVSPost2010Prop29
280
     1
102
RTVSPost2010PropOp29
 70
     1
102
RTVSPost2010Prop30
280
     1
102
RTVSPost2010PropOp30
 70
     1
102
RTVSPost2010Prop31
280
     0
102
RTVSPost2010PropOp31
 70
     1
102
RTVSPost2010Prop32
280
     0
102
RTVSPost2010PropOp32
 70
     1
102
RTVSPost2010Prop33
280
     0
102
RTVSPost2010PropOp33
 70
     1
102
RTVSPost2010Prop34
280
     0
102
RTVSPost2010PropOp34
 70
     1
102
RTVSPost2010Prop35
280
     0
102
RTVSPost2010PropOp35
 70
     1
102
RTVSPost2010Prop36
280
     0
102
RTVSPost2010PropOp36
 70
     1
102
RTVSPost2010Prop37
 90
       50
102
RTVSPost2010PropOp37
 70
     1
102
RTVSPost2010Prop38
140
0.0
102
RTVSPost2010PropOp38
 70
     1
102
RTVSPost2010Prop39
140
1.0
102
RTVSPost2010PropOp39
 70
     1
102
RTVSPost2010Prop40
 90
        0
102
RTVSPost2010PropOp40
 70
     1
102
RTVSPost2010Prop41ColorIndex
 90
       18
102
RTVSPost2010Prop41ColorRGB
 90
        0
102
RTVSPost2010PropOp41
 70
     1
102
RTVSPost2010Prop42
 90
       50
102
RTVSPost2010PropOp42
 70
     1
102
RTVSPost2010Prop43
 90
        3
102
RTVSPost2010PropOp43
 70
     1
102
RTVSPost2010Prop44ColorIndex
 90
        5
102
RTVSPost2010Prop44ColorRGB
 90
      255
102
RTVSPost2010PropOp44
 70
     1
102
RTVSPost2010Prop45
280
     0
102
RTVSPost2010PropOp45
 70
     1
102
RTVSPost2010Prop46
 90
       50
102
RTVSPost2010PropOp46
 70
     1
102
RTVSPost2010Prop47
 90
       50
102
RTVSPost2010PropOp47
 70
     1
102
RTVSPost2010Prop48
 90
       50
102
RTVSPost2010PropOp48
 70
     1
102
RTVSPost2010Prop49
280
     0
102
RTVSPost2010PropOp49
 70
     1
102
RTVSPost2010Prop50
 90
       50
102
RTVSPost2010PropOp50
 70
     1
102
RTVSPost2010Prop51ColorIndex
 90
      256
102
RTVSPost2010Prop51ColorRGB
 90
-16777216
102
RTVSPost2010PropOp51
 70
     0
102
RTVSPost2010Prop52
140
1.0
102
RTVSPost2010PropOp52
 70
     0
102
RTVSPost2010Prop53
 90
        2
102
RTVSPost2010PropOp53
 70
     1
102
RTVSPost2010Prop54
  1
strokes_ogs.tif
102
RTVSPost2010PropOp54
 70
     1
102
RTVSPost2010Prop55
280
     0
102
RTVSPost2010PropOp55
 70
     1
102
RTVSPost2010Prop56
140
1.0
102
RTVSPost2010PropOp56
 70
     1
102
RTVSPost2010Prop57
140
1.0
102
RTVSPost2010PropOp57
 70
     1
102
RTVSPropertyOp0
 70
     1
102
RTVSPropertyOp1
 70
     1
102
RTVSPropertyOp2
 70
     1
102
RTVSPropertyOp3
 70
     1
102
RTVSPropertyOp4
 70
     1
102
RTVSPropertyOp5
 70
     1
102
RTVSPropertyOp6
 70
     1
102
RTVSPropertyOp7
 70
     1
102
RTVSPropertyOp8
 70
     1
102
RTVSPropertyOp9
 70
     1
102
RTVSPropertyOp10
 70
     1
102
RTVSPropertyOp11
 70
     1
102
RTVSPropertyOp12
 70
     1
102
RTVSPropertyOp13
 70
     1
102
RTVSPropertyOp14
 70
     1
102
RTVSPropertyOp15
 70
     1
102
RTVSPropertyOp16
 70
     1
102
RTVSPropertyOp17
 70
     1
102
RTVSPropertyOp18
 70
     1
102
RTVSPropertyOp19
 70
     1
102
RTVSPropertyOp20
 70
     1
102
RTVSPropertyOp21
 70
     1
102
RTVSPropertyOp22
 70
     1
102
RTVSPropertyOp23
 70
     1
102
RTVSPropertyOp24
 70
     1
102
RTVSPropertyOp25
 70
     1
102
RTVSPropertyOp26
 70
     1
102
RTVSPropertyOp27
 70
     1
102
RTVSPropertyOp28
 70
     1
102
RTVSPropertyOp29
 70
     1
102
RTVSPropertyOp30
 70
     1
102
RTVSPropertyOp31
 70
     1
102
RTVSPropertyOp32
 70
     1
102
RTVSPropertyOp33
 70
     1
102
RTVSPropertyOp34
 70
     1
102
RTVSPropertyOp35
 70
     1
102
RTVSPropertyOp36
 70
     1
102
RTVSPropertyOp37
 70
     1
102
RTVSPropertyOp38
 70
     1
102
RTVSPropertyOp39
 70
     1
102
RTVSPropertyOp40
 70
     1
102
RTVSPropertyOp41
 70
     1
102
RTVSPropertyOp42
 70
     1
102
RTVSPropertyOp43
 70
     1
102
RTVSPropertyOp44
 70
     1
102
RTVSPropertyOp45
 70
     1
102
RTVSPropertyOp46
 70
     1
102
RTVSPropertyOp47
 70
     1
102
RTVSPropertyOp48
 70
     1
102
RTVSPropertyOp49
 70
     1
102
RTVSPropertyOp50
 70
     1
102
RTVSPropertyOp51
 70
     0
102
RTVSPropertyOp52
 70
     0
102
RTVSPropertyOp53
 70
     1
102
RTVSPropertyOp54
 70
     1
102
RTVSPropertyOp55
 70
     1
102
RTVSPropertyOp56
 70
     1
102
RTVSPropertyOp57
 70
     1
102
RTVSPropertyOp58
 70
     1
102
RTVSPropertyOp59
 70
     1
102
RTVSPropertyOp60
 70
     1
102
RTVSPropertyOp61
 70
     1
102
RTVSPropertyOp62
 70
     1
  0
XRECORD
  5
5F2
102
{ACAD_REACTORS
330
5F1
102
}
330
5F1
100
AcDbXrecord
280
     1
102
RTVSPost2010Prop28
280
     0
102
RTVSPost2010PropOp28
 70
     1
102
RTVSPost2010Prop29
280
     1
102
RTVSPost2010PropOp29
 70
     1
102
RTVSPost2010Prop30
280
     1
102
RTVSPost2010PropOp30
 70
     1
102
RTVSPost2010Prop31
280
     0
102
RTVSPost2010PropOp31
 70
     1
102
RTVSPost2010Prop32
280
     0
102
RTVSPost2010PropOp32
 70
     1
102
RTVSPost2010Prop33
280
     0
102
RTVSPost2010PropOp33
 70
     1
102
RTVSPost2010Prop34
280
     0
102
RTVSPost2010PropOp34
 70
     1
102
RTVSPost2010Prop35
280
     0
102
RTVSPost2010PropOp35
 70
     1
102
RTVSPost2010Prop36
280
     0
102
RTVSPost2010PropOp36
 70
     1
102
RTVSPost2010Prop37
 90
       50
102
RTVSPost2010PropOp37
 70
     1
102
RTVSPost2010Prop38
140
0.0
102
RTVSPost2010PropOp38
 70
     1
102
RTVSPost2010Prop39
140
1.0
102
RTVSPost2010PropOp39
 70
     1
102
RTVSPost2010Prop40
 90
        0
102
RTVSPost2010PropOp40
 70
     1
102
RTVSPost2010Prop41ColorIndex
 90
       18
102
RTVSPost2010Prop41ColorRGB
 90
        0
102
RTVSPost2010PropOp41
 70
     1
102
RTVSPost2010Prop42
 90
       50
102
RTVSPost2010PropOp42
 70
     1
102
RTVSPost2010Prop43
 90
        3
102
RTVSPost2010PropOp43
 70
     1
102
RTVSPost2010Prop44ColorIndex
 90
        5
102
RTVSPost2010Prop44ColorRGB
 90
      255
102
RTVSPost2010PropOp44
 70
     1
102
RTVSPost2010Prop45
280
     0
102
RTVSPost2010PropOp45
 70
     1
102
RTVSPost2010Prop46
 90
       50
102
RTVSPost2010PropOp46
 70
     1
102
RTVSPost2010Prop47
 90
       50
102
RTVSPost2010PropOp47
 70
     1
102
RTVSPost2010Prop48
 90
       50
102
RTVSPost2010PropOp48
 70
     1
102
RTVSPost2010Prop49
280
     0
102
RTVSPost2010PropOp49
 70
     1
102
RTVSPost2010Prop50
 90
       50
102
RTVSPost2010PropOp50
 70
     1
102
RTVSPost2010Prop51ColorIndex
 90
      256
102
RTVSPost2010Prop51ColorRGB
 90
-16777216
102
RTVSPost2010PropOp51
 70
     0
102
RTVSPost2010Prop52
140
1.0
102
RTVSPost2010PropOp52
 70
     0
102
RTVSPost2010Prop53
 90
        2
102
RTVSPost2010PropOp53
 70
     1
102
RTVSPost2010Prop54
  1
strokes_ogs.tif
102
RTVSPost2010PropOp54
 70
     1
102
RTVSPost2010Prop55
280
     0
102
RTVSPost2010PropOp55
 70
     1
102
RTVSPost2010Prop56
140
1.0
102
RTVSPost2010PropOp56
 70
     1
102
RTVSPost2010Prop57
140
1.0
102
RTVSPost2010PropOp57
 70
     1
102
RTVSPropertyOp0
 70
     1
102
RTVSPropertyOp1
 70
     1
102
RTVSPropertyOp2
 70
     1
102
RTVSPropertyOp3
 70
     1
102
RTVSPropertyOp4
 70
     1
102
RTVSPropertyOp5
 70
     1
102
RTVSPropertyOp6
 70
     1
102
RTVSPropertyOp7
 70
     1
102
RTVSPropertyOp8
 70
     1
102
RTVSPropertyOp9
 70
     1
102
RTVSPropertyOp10
 70
     1
102
RTVSPropertyOp11
 70
     1
102
RTVSPropertyOp12
 70
     1
102
RTVSPropertyOp13
 70
     1
102
RTVSPropertyOp14
 70
     1
102
RTVSPropertyOp15
 70
     1
102
RTVSPropertyOp16
 70
     1
102
RTVSPropertyOp17
 70
     1
102
RTVSPropertyOp18
 70
     1
102
RTVSPropertyOp19
 70
     1
102
RTVSPropertyOp20
 70
     1
102
RTVSPropertyOp21
 70
     1
102
RTVSPropertyOp22
 70
     1
102
RTVSPropertyOp23
 70
     1
102
RTVSPropertyOp24
 70
     1
102
RTVSPropertyOp25
 70
     1
102
RTVSPropertyOp26
 70
     1
102
RTVSPropertyOp27
 70
     1
102
RTVSPropertyOp28
 70
     1
102
RTVSPropertyOp29
 70
     1
102
RTVSPropertyOp30
 70
     1
102
RTVSPropertyOp31
 70
     1
102
RTVSPropertyOp32
 70
     1
102
RTVSPropertyOp33
 70
     1
102
RTVSPropertyOp34
 70
     1
102
RTVSPropertyOp35
 70
     1
102
RTVSPropertyOp36
 70
     1
102
RTVSPropertyOp37
 70
     1
102
RTVSPropertyOp38
 70
     1
102
RTVSPropertyOp39
 70
     1
102
RTVSPropertyOp40
 70
     1
102
RTVSPropertyOp41
 70
     1
102
RTVSPropertyOp42
 70
     1
102
RTVSPropertyOp43
 70
     1
102
RTVSPropertyOp44
 70
     1
102
RTVSPropertyOp45
 70
     1
102
RTVSPropertyOp46
 70
     1
102
RTVSPropertyOp47
 70
     1
102
RTVSPropertyOp48
 70
     1
102
RTVSPropertyOp49
 70
     1
102
RTVSPropertyOp50
 70
     1
102
RTVSPropertyOp51
 70
     0
102
RTVSPropertyOp52
 70
     0
102
RTVSPropertyOp53
 70
     1
102
RTVSPropertyOp54
 70
     1
102
RTVSPropertyOp55
 70
     1
102
RTVSPropertyOp56
 70
     1
102
RTVSPropertyOp57
 70
     1
102
RTVSPropertyOp58
 70
     1
102
RTVSPropertyOp59
 70
     1
102
RTVSPropertyOp60
 70
     1
102
RTVSPropertyOp61
 70
     1
102
RTVSPropertyOp62
 70
     1
  0
XRECORD
  5
612
102
{ACAD_REACTORS
330
611
102
}
330
611
100
AcDbXrecord
280
     1
102
RTVSPost2010Prop28
280
     0
102
RTVSPost2010PropOp28
 70
     1
102
RTVSPost2010Prop29
280
     1
102
RTVSPost2010PropOp29
 70
     1
102
RTVSPost2010Prop30
280
     1
102
RTVSPost2010PropOp30
 70
     1
102
RTVSPost2010Prop31
280
     0
102
RTVSPost2010PropOp31
 70
     1
102
RTVSPost2010Prop32
280
     0
102
RTVSPost2010PropOp32
 70
     1
102
RTVSPost2010Prop33
280
     0
102
RTVSPost2010PropOp33
 70
     1
102
RTVSPost2010Prop34
280
     0
102
RTVSPost2010PropOp34
 70
     1
102
RTVSPost2010Prop35
280
     0
102
RTVSPost2010PropOp35
 70
     1
102
RTVSPost2010Prop36
280
     0
102
RTVSPost2010PropOp36
 70
     1
102
RTVSPost2010Prop37
 90
       50
102
RTVSPost2010PropOp37
 70
     1
102
RTVSPost2010Prop38
140
0.0
102
RTVSPost2010PropOp38
 70
     1
102
RTVSPost2010Prop39
140
1.0
102
RTVSPost2010PropOp39
 70
     1
102
RTVSPost2010Prop40
 90
        0
102
RTVSPost2010PropOp40
 70
     1
102
RTVSPost2010Prop41ColorIndex
 90
       18
102
RTVSPost2010Prop41ColorRGB
 90
        0
102
RTVSPost2010PropOp41
 70
     1
102
RTVSPost2010Prop42
 90
       50
102
RTVSPost2010PropOp42
 70
     1
102
RTVSPost2010Prop43
 90
        3
102
RTVSPost2010PropOp43
 70
     1
102
RTVSPost2010Prop44ColorIndex
 90
        5
102
RTVSPost2010Prop44ColorRGB
 90
      255
102
RTVSPost2010PropOp44
 70
     1
102
RTVSPost2010Prop45
280
     0
102
RTVSPost2010PropOp45
 70
     1
102
RTVSPost2010Prop46
 90
       50
102
RTVSPost2010PropOp46
 70
     1
102
RTVSPost2010Prop47
 90
       50
102
RTVSPost2010PropOp47
 70
     1
102
RTVSPost2010Prop48
 90
       50
102
RTVSPost2010PropOp48
 70
     1
102
RTVSPost2010Prop49
280
     0
102
RTVSPost2010PropOp49
 70
     1
102
RTVSPost2010Prop50
 90
       50
102
RTVSPost2010PropOp50
 70
     1
102
RTVSPost2010Prop51ColorIndex
 90
      256
102
RTVSPost2010Prop51ColorRGB
 90
-16777216
102
RTVSPost2010PropOp51
 70
     0
102
RTVSPost2010Prop52
140
1.0
102
RTVSPost2010PropOp52
 70
     0
102
RTVSPost2010Prop53
 90
        2
102
RTVSPost2010PropOp53
 70
     1
102
RTVSPost2010Prop54
  1
strokes_ogs.tif
102
RTVSPost2010PropOp54
 70
     1
102
RTVSPost2010Prop55
280
     0
102
RTVSPost2010PropOp55
 70
     1
102
RTVSPost2010Prop56
140
1.0
102
RTVSPost2010PropOp56
 70
     1
102
RTVSPost2010Prop57
140
1.0
102
RTVSPost2010PropOp57
 70
     1
102
RTVSPropertyOp0
 70
     1
102
RTVSPropertyOp1
 70
     1
102
RTVSPropertyOp2
 70
     1
102
RTVSPropertyOp3
 70
     1
102
RTVSPropertyOp4
 70
     1
102
RTVSPropertyOp5
 70
     1
102
RTVSPropertyOp6
 70
     1
102
RTVSPropertyOp7
 70
     1
102
RTVSPropertyOp8
 70
     1
102
RTVSPropertyOp9
 70
     1
102
RTVSPropertyOp10
 70
     1
102
RTVSPropertyOp11
 70
     1
102
RTVSPropertyOp12
 70
     1
102
RTVSPropertyOp13
 70
     1
102
RTVSPropertyOp14
 70
     1
102
RTVSPropertyOp15
 70
     1
102
RTVSPropertyOp16
 70
     1
102
RTVSPropertyOp17
 70
     1
102
RTVSPropertyOp18
 70
     1
102
RTVSPropertyOp19
 70
     1
102
RTVSPropertyOp20
 70
     1
102
RTVSPropertyOp21
 70
     1
102
RTVSPropertyOp22
 70
     1
102
RTVSPropertyOp23
 70
     1
102
RTVSPropertyOp24
 70
     1
102
RTVSPropertyOp25
 70
     1
102
RTVSPropertyOp26
 70
     1
102
RTVSPropertyOp27
 70
     1
102
RTVSPropertyOp28
 70
     1
102
RTVSPropertyOp29
 70
     1
102
RTVSPropertyOp30
 70
     1
102
RTVSPropertyOp31
 70
     1
102
RTVSPropertyOp32
 70
     1
102
RTVSPropertyOp33
 70
     1
102
RTVSPropertyOp34
 70
     1
102
RTVSPropertyOp35
 70
     1
102
RTVSPropertyOp36
 70
     1
102
RTVSPropertyOp37
 70
     1
102
RTVSPropertyOp38
 70
     1
102
RTVSPropertyOp39
 70
     1
102
RTVSPropertyOp40
 70
     1
102
RTVSPropertyOp41
 70
     1
102
RTVSPropertyOp42
 70
     1
102
RTVSPropertyOp43
 70
     1
102
RTVSPropertyOp44
 70
     1
102
RTVSPropertyOp45
 70
     1
102
RTVSPropertyOp46
 70
     1
102
RTVSPropertyOp47
 70
     1
102
RTVSPropertyOp48
 70
     1
102
RTVSPropertyOp49
 70
     1
102
RTVSPropertyOp50
 70
     1
102
RTVSPropertyOp51
 70
     0
102
RTVSPropertyOp52
 70
     0
102
RTVSPropertyOp53
 70
     1
102
RTVSPropertyOp54
 70
     1
102
RTVSPropertyOp55
 70
     1
102
RTVSPropertyOp56
 70
     1
102
RTVSPropertyOp57
 70
     1
102
RTVSPropertyOp58
 70
     1
102
RTVSPropertyOp59
 70
     1
102
RTVSPropertyOp60
 70
     1
102
RTVSPropertyOp61
 70
     1
102
RTVSPropertyOp62
 70
     1
  0
ENDSEC
  0
EOF
