0
SECTION
2
HEADER
9
$ACADVER
1
AC1015
9
$DWGCODEPAGE
3
ANSI_1252
9
$HANDSEED
5
1c9
9
$ANGBASE
50
0
9
$ANGDIR
70
0
9
$ATTMODE
70
1
9
$AUNITS
70
0
9
$AUPREC
70
0
9
$CECOLOR
62
256
9
$CELTSCALE
40
1
9
$CELTYPE
6
ByLayer
9
$CELWEIGHT
370
18
9
$CLAYER
8
0
9
$CMLJUST
70
0
9
$CMLSCALE
40
1
9
$CMLSTYLE
2
Standard
9
$DIMSTYLE
2
Standard
9
$TEXTSIZE
40
0.2
9
$TEXTSTYLE
7
Standard
9
$LUNITS
70
2
9
$LUPREC
70
4
9
$EXTNAMES
290
1
9
$INSUNITS
70
4
9
$LTSCALE
40
1
9
$LWDISPLAY
290
1
9
$PDMODE
70
0
9
$PDSIZE
40
0
9
$PLINEGEN
70
0
0
ENDSEC
0
SECTION
2
CLASSES
0
CLASS
1
RASTERVARIABLES
2
AcDbRasterVariables
3
ISM
90
0
280
0
281
0
0
ENDSEC
0
SECTION
2
TABLES
0
TABLE
2
VPORT
5
1bf
100
AcDbSymbolTable
0
VPORT
5
1
100
AcDbSymbolTableRecord
100
AcDbViewportTableRecord
2
*Active
70
0
10
0
20
0
11
1
21
1
12
-1
22
1
13
0
23
0
14
0.5
24
0.5
15
10
25
10
16
0
26
0
36
1
17
0
27
0
37
0
0
ENDTAB
0
TABLE
2
LTYPE
5
1c0
100
AcDbSymbolTable
0
LTYPE
5
14
100
AcDbSymbolTableRecord
100
AcDbLinetypeTableRecord
70
0
2
ByBlock
3

72
65
73
0
40
0
0
LTYPE
5
15
100
AcDbSymbolTableRecord
100
AcDbLinetypeTableRecord
70
0
2
ByLayer
3

72
65
73
0
40
0
0
LTYPE
5
16
100
AcDbSymbolTableRecord
100
AcDbLinetypeTableRecord
70
0
2
Continuous
3
Solid line
72
65
73
0
40
0
0
LTYPE
5
6E
100
AcDbSymbolTableRecord
100
AcDbLinetypeTableRecord
70
0
2
CENTER
3
____ _ ____ _ ____ _ ____
72
65
73
4
40
47.5
49
22
74
0
49
-8.5
74
0
49
8.5
74
0
49
-8.5
74
0
0
LTYPE
5
6F
100
AcDbSymbolTableRecord
100
AcDbLinetypeTableRecord
70
0
2
DASHED
3
__ __ __ __ __ __ __ __ __
72
65
73
2
40
25.72
49
12.86
74
0
49
-12.86
74
0
0
ENDTAB
0
TABLE
2
LAYER
5
1c1
100
AcDbSymbolTable
0
LAYER
5
10
100
AcDbSymbolTableRecord
100
AcDbLayerTableRecord
2
0
70
0
62
7
6
Continuous
290
1
370
-3
390
0
0
LAYER
5
71
100
AcDbSymbolTableRecord
100
AcDbLayerTableRecord
2
81
70
0
62
-3
6
Continuous
290
1
370
-3
390
0
0
LAYER
5
73
100
AcDbSymbolTableRecord
100
AcDbLayerTableRecord
2
80
70
0
62
-6
6
Continuous
290
1
370
-3
390
0
0
LAYER
5
75
100
AcDbSymbolTableRecord
100
AcDbLayerTableRecord
2
1
70
0
62
4
6
Continuous
290
1
370
-3
390
0
0
LAYER
5
7F
100
AcDbSymbolTableRecord
100
AcDbLayerTableRecord
2
4
70
0
62
-2
6
CENTER
290
1
370
-3
390
0
0
LAYER
5
A4
100
AcDbSymbolTableRecord
100
AcDbLayerTableRecord
2
2
70
0
62
7
6
Continuous
290
1
370
-3
390
0
0
LAYER
5
EC
100
AcDbSymbolTableRecord
100
AcDbLayerTableRecord
2
Defpoints
70
0
62
7
6
Continuous
290
0
370
-3
390
0
0
LAYER
5
1a9
100
AcDbSymbolTableRecord
100
AcDbLayerTableRecord
2
SK4
70
0
62
2
6
CENTER
290
1
370
-3
390
0
0
LAYER
5
1aa
100
AcDbSymbolTableRecord
100
AcDbLayerTableRecord
2
SK1
70
0
62
4
6
Continuous
290
1
370
-3
390
0
0
LAYER
5
1ab
100
AcDbSymbolTableRecord
100
AcDbLayerTableRecord
2
SK2
70
0
62
7
6
Continuous
290
1
370
-3
390
0
0
LAYER
5
1ac
100
AcDbSymbolTableRecord
100
AcDbLayerTableRecord
2
CUT
70
0
62
-1
6
Continuous
290
1
370
-3
390
0
0
LAYER
5
1ad
100
AcDbSymbolTableRecord
100
AcDbLayerTableRecord
2
NOCUT
70
0
62
-7
6
Continuous
290
1
370
-3
390
0
0
LAYER
5
1ae
100
AcDbSymbolTableRecord
100
AcDbLayerTableRecord
2
SK6
70
0
62
5
6
Continuous
290
1
370
-3
390
0
0
ENDTAB
0
TABLE
2
STYLE
5
1c2
100
AcDbSymbolTable
0
STYLE
5
11
100
AcDbSymbolTableRecord
100
AcDbTextStyleTableRecord
2
Standard
3
txt
70
0
71
0
40
0
41
1
42
0
50
0
0
STYLE
5
C8
100
AcDbSymbolTableRecord
100
AcDbTextStyleTableRecord
2
iso_b_vert
3
simplex.shx
70
0
71
0
40
0
41
1
42
0
50
0
0
STYLE
5
C9
100
AcDbSymbolTableRecord
100
AcDbTextStyleTableRecord
2
DWGDirectTextStyle
3
simplex
70
0
71
0
40
0
41
1
42
0
50
0
0
ENDTAB
0
TABLE
2
DIMSTYLE
5
1c3
100
AcDbSymbolTable
100
AcDbDimStyleTable
0
DIMSTYLE
105
27
100
AcDbSymbolTableRecord
100
AcDbDimStyleTableRecord
2
Standard
70
0
3
<>
41
0.18
42
0.0625
44
0.18
140
0.18
147
0.09
73
0
74
0
77
1
271
2
275
0
278
52
280
0
340
11
0
ENDTAB
0
TABLE
2
VIEW
5
1c4
100
AcDbSymbolTable
0
ENDTAB
0
TABLE
2
UCS
5
1c5
100
AcDbSymbolTable
0
ENDTAB
0
TABLE
2
APPID
5
1c6
100
AcDbSymbolTable
0
APPID
5
12
100
AcDbSymbolTableRecord
100
AcDbRegAppTableRecord
2
ACAD
70
0
0
APPID
5
E8
100
AcDbSymbolTableRecord
100
AcDbRegAppTableRecord
2
ACAD_DSTYLE_DIMBREAK
70
0
0
APPID
5
168
100
AcDbSymbolTableRecord
100
AcDbRegAppTableRecord
2
ACAD_DSTYLE_DIM_LINETYPE
70
0
0
APPID
5
169
100
AcDbSymbolTableRecord
100
AcDbRegAppTableRecord
2
ACAD_DSTYLE_DIM_EXT1_LINETYPE
70
0
0
APPID
5
16A
100
AcDbSymbolTableRecord
100
AcDbRegAppTableRecord
2
ACAD_DSTYLE_DIM_EXT2_LINETYPE
70
0
0
APPID
5
1A5
100
AcDbSymbolTableRecord
100
AcDbRegAppTableRecord
2
ACAD_MLEADERVER
70
0
0
ENDTAB
0
TABLE
2
BLOCK_RECORD
5
1c7
100
AcDbSymbolTable
0
BLOCK_RECORD
5
1F
100
AcDbSymbolTableRecord
100
AcDbBlockTableRecord
2
*Model_Space
340
0
70
0
0
BLOCK_RECORD
5
1B
100
AcDbSymbolTableRecord
100
AcDbBlockTableRecord
2
*Paper_Space
340
0
70
0
0
BLOCK_RECORD
5
23
100
AcDbSymbolTableRecord
100
AcDbBlockTableRecord
2
*Paper_Space0
340
0
70
0
0
BLOCK_RECORD
5
ED
100
AcDbSymbolTableRecord
100
AcDbBlockTableRecord
2
*D1
340
0
70
0
0
BLOCK_RECORD
5
F9
100
AcDbSymbolTableRecord
100
AcDbBlockTableRecord
2
_U0
340
0
70
0
0
BLOCK_RECORD
5
105
100
AcDbSymbolTableRecord
100
AcDbBlockTableRecord
2
*D3
340
0
70
0
0
BLOCK_RECORD
5
111
100
AcDbSymbolTableRecord
100
AcDbBlockTableRecord
2
_U1
340
0
70
0
0
BLOCK_RECORD
5
11D
100
AcDbSymbolTableRecord
100
AcDbBlockTableRecord
2
*D5
340
0
70
0
0
BLOCK_RECORD
5
129
100
AcDbSymbolTableRecord
100
AcDbBlockTableRecord
2
_U2
340
0
70
0
0
BLOCK_RECORD
5
135
100
AcDbSymbolTableRecord
100
AcDbBlockTableRecord
2
*D7
340
0
70
0
0
BLOCK_RECORD
5
141
100
AcDbSymbolTableRecord
100
AcDbBlockTableRecord
2
_U3
340
0
70
0
0
ENDTAB
0
ENDSEC
0
SECTION
2
BLOCKS
0
BLOCK
5
20
100
AcDbEntity
8
0
100
AcDbBlockBegin
2
*Model_Space
70
0
10
0
20
0
30
0
3
*Model_Space
0
ENDBLK
5
21
100
AcDbEntity
8
0
100
AcDbBlockEnd
0
BLOCK
5
1C
100
AcDbEntity
8
0
100
AcDbBlockBegin
2
*Paper_Space
70
0
10
0
20
0
30
0
3
*Paper_Space
0
ENDBLK
5
1D
100
AcDbEntity
8
0
100
AcDbBlockEnd
0
BLOCK
5
24
100
AcDbEntity
8
0
100
AcDbBlockBegin
2
*Paper_Space0
70
0
10
0
20
0
30
0
3
*Paper_Space0
0
ENDBLK
5
25
100
AcDbEntity
8
0
100
AcDbBlockEnd
0
BLOCK
5
EE
100
AcDbEntity
8
0
100
AcDbBlockBegin
2
*D1
70
1
10
0
20
0
30
0
3
*D1
0
LINE
5
F0
100
AcDbEntity
8
0
62
256
6
ByLayer
370
-2
48
1
60
0
100
AcDbLine
10
-40
20
-5.7375
30
0
11
-40
21
-53.495595
31
0
39
0
210
0
220
0
230
1
0
LINE
5
F1
100
AcDbEntity
8
0
62
256
6
ByLayer
370
-2
48
1
60
0
100
AcDbLine
10
39
20
-1.5875
30
0
11
39
21
-53.495595
31
0
39
0
210
0
220
0
230
1
0
LINE
5
F2
100
AcDbEntity
8
0
62
256
6
ByLayer
370
-2
48
1
60
0
100
AcDbLine
10
-36.5
20
-51.495595
30
0
11
35.5
21
-51.495595
31
0
39
0
210
0
220
0
230
1
0
SOLID
5
F3
100
AcDbEntity
8
0
62
256
6
ByLayer
370
-1
48
1
60
0
100
AcDbTrace
10
-36.5
20
-50.912262
30
0
11
-36.5
21
-52.078928
31
0
12
-40
22
-51.495595
32
0
13
-40
23
-51.495595
33
0
39
0
210
0
220
0
230
1
0
SOLID
5
F4
100
AcDbEntity
8
0
62
256
6
ByLayer
370
-1
48
1
60
0
100
AcDbTrace
10
35.5
20
-52.078928
30
0
11
35.5
21
-50.912262
31
0
12
39
22
-51.495595
32
0
13
39
23
-51.495595
33
0
39
0
210
0
220
0
230
1
0
MTEXT
5
F5
100
AcDbEntity
8
0
62
256
6
ByLayer
370
18
48
1
60
0
100
AcDbMText
10
-0.5
20
-45.495595
30
0
210
0
220
0
230
1
1
\A1;79
40
3
41
0
44
1
50
0
71
5
72
5
7
iso_b_vert
0
POINT
5
F6
100
AcDbEntity
8
Defpoints
62
0
6
ByLayer
370
-1
48
1
60
0
100
AcDbPoint
10
-40
20
-4.15
30
0
39
0
210
0
220
0
230
1
50
360
0
POINT
5
F7
100
AcDbEntity
8
Defpoints
62
0
6
ByLayer
370
-1
48
1
60
0
100
AcDbPoint
10
39
20
0
30
0
39
0
210
0
220
0
230
1
50
360
0
POINT
5
F8
100
AcDbEntity
8
Defpoints
62
0
6
ByLayer
370
-1
48
1
60
0
100
AcDbPoint
10
39
20
-51.495595
30
0
39
0
210
0
220
0
230
1
50
360
0
ENDBLK
5
EF
100
AcDbEntity
8
0
100
AcDbBlockEnd
0
BLOCK
5
100
100
AcDbEntity
8
0
100
AcDbBlockBegin
2
_U0
70
0
10
0
20
0
30
0
3
_U0
0
MTEXT
5
FA
100
AcDbEntity
8
SK2
62
256
6
ByLayer
370
18
48
1
60
0
100
AcDbMText
10
-4.98237
20
-50.610481
30
0
210
0
220
0
230
1
1
\W0.7468;79.00
40
3
41
0
44
1.084337
50
0
71
7
72
5
7
iso_b_vert
0
LINE
5
FB
100
AcDbEntity
8
SK2
62
256
6
ByLayer
370
13
48
1
60
0
100
AcDbLine
10
-40
20
-5.7375
30
0
11
-40
21
-53.495595
31
0
39
0
210
0
220
0
230
1
0
LINE
5
FC
100
AcDbEntity
8
SK2
62
256
6
ByLayer
370
13
48
1
60
0
100
AcDbLine
10
39
20
-1.5875
30
0
11
39
21
-53.495595
31
0
39
0
210
0
220
0
230
1
0
LINE
5
FD
100
AcDbEntity
8
SK2
62
256
6
ByLayer
370
13
48
1
60
0
100
AcDbLine
10
-40
20
-51.495595
30
0
11
39
21
-51.495595
31
0
39
0
210
0
220
0
230
1
0
SOLID
5
FE
100
AcDbEntity
8
SK2
62
256
6
ByLayer
370
18
48
1
60
0
100
AcDbTrace
10
-40
20
-51.495595
30
0
11
-36.500002
21
-51.034811
31
0
12
-36.499998
22
-51.956379
32
0
13
-36.499998
23
-51.956379
33
0
39
0
210
0
220
0
230
1
0
SOLID
5
FF
100
AcDbEntity
8
SK2
62
256
6
ByLayer
370
18
48
1
60
0
100
AcDbTrace
10
39
20
-51.495595
30
0
11
35.500002
21
-51.956379
31
0
12
35.499998
22
-51.034811
32
0
13
35.499998
23
-51.034811
33
0
39
0
210
0
220
0
230
1
0
ENDBLK
5
101
100
AcDbEntity
8
0
100
AcDbBlockEnd
0
BLOCK
5
106
100
AcDbEntity
8
0
100
AcDbBlockBegin
2
*D3
70
1
10
0
20
0
30
0
3
*D3
0
LINE
5
108
100
AcDbEntity
8
0
62
256
6
ByLayer
370
-2
48
1
60
0
100
AcDbLine
10
39
20
-1.5875
30
0
11
39
21
-43.495595
31
0
39
0
210
0
220
0
230
1
0
LINE
5
109
100
AcDbEntity
8
0
62
256
6
ByLayer
370
-2
48
1
60
0
100
AcDbLine
10
2
20
-5.7375
30
0
11
2
21
-43.495595
31
0
39
0
210
0
220
0
230
1
0
LINE
5
10A
100
AcDbEntity
8
0
62
256
6
ByLayer
370
-2
48
1
60
0
100
AcDbLine
10
35.5
20
-41.495595
30
0
11
5.5
21
-41.495595
31
0
39
0
210
0
220
0
230
1
0
SOLID
5
10B
100
AcDbEntity
8
0
62
256
6
ByLayer
370
-1
48
1
60
0
100
AcDbTrace
10
35.5
20
-42.078928
30
0
11
35.5
21
-40.912262
31
0
12
39
22
-41.495595
32
0
13
39
23
-41.495595
33
0
39
0
210
0
220
0
230
1
0
SOLID
5
10C
100
AcDbEntity
8
0
62
256
6
ByLayer
370
-1
48
1
60
0
100
AcDbTrace
10
5.5
20
-40.912262
30
0
11
5.5
21
-42.078928
31
0
12
2
22
-41.495595
32
0
13
2
23
-41.495595
33
0
39
0
210
0
220
0
230
1
0
MTEXT
5
10D
100
AcDbEntity
8
0
62
256
6
ByLayer
370
18
48
1
60
0
100
AcDbMText
10
20.5
20
-35.495595
30
0
210
0
220
0
230
1
1
\A1;37
40
3
41
0
44
1
50
0
71
5
72
5
7
iso_b_vert
0
POINT
5
10E
100
AcDbEntity
8
Defpoints
62
0
6
ByLayer
370
-1
48
1
60
0
100
AcDbPoint
10
39
20
0
30
0
39
0
210
0
220
0
230
1
50
360
0
POINT
5
10F
100
AcDbEntity
8
Defpoints
62
0
6
ByLayer
370
-1
48
1
60
0
100
AcDbPoint
10
2
20
-4.15
30
0
39
0
210
0
220
0
230
1
50
360
0
POINT
5
110
100
AcDbEntity
8
Defpoints
62
0
6
ByLayer
370
-1
48
1
60
0
100
AcDbPoint
10
2
20
-41.495595
30
0
39
0
210
0
220
0
230
1
50
360
0
ENDBLK
5
107
100
AcDbEntity
8
0
100
AcDbBlockEnd
0
BLOCK
5
118
100
AcDbEntity
8
0
100
AcDbBlockBegin
2
_U1
70
0
10
0
20
0
30
0
3
_U1
0
MTEXT
5
112
100
AcDbEntity
8
2
62
256
6
ByLayer
370
18
48
1
60
0
100
AcDbMText
10
16.01763
20
-40.610481
30
0
210
0
220
0
230
1
1
\W0.7468;37.00
40
3
41
0
44
1.084337
50
0
71
7
72
5
7
iso_b_vert
0
LINE
5
113
100
AcDbEntity
8
2
62
256
6
ByLayer
370
13
48
1
60
0
100
AcDbLine
10
39
20
-1.5875
30
0
11
39
21
-43.495595
31
0
39
0
210
0
220
0
230
1
0
LINE
5
114
100
AcDbEntity
8
2
62
256
6
ByLayer
370
13
48
1
60
0
100
AcDbLine
10
2
20
-5.7375
30
0
11
2
21
-43.495595
31
0
39
0
210
0
220
0
230
1
0
LINE
5
115
100
AcDbEntity
8
2
62
256
6
ByLayer
370
13
48
1
60
0
100
AcDbLine
10
39
20
-41.495595
30
0
11
2
21
-41.495595
31
0
39
0
210
0
220
0
230
1
0
SOLID
5
116
100
AcDbEntity
8
2
62
256
6
ByLayer
370
18
48
1
60
0
100
AcDbTrace
10
39
20
-41.495595
30
0
11
35.500002
21
-41.956379
31
0
12
35.499998
22
-41.034811
32
0
13
35.499998
23
-41.034811
33
0
39
0
210
0
220
0
230
1
0
SOLID
5
117
100
AcDbEntity
8
2
62
256
6
ByLayer
370
18
48
1
60
0
100
AcDbTrace
10
2
20
-41.495595
30
0
11
5.499998
21
-41.034811
31
0
12
5.500002
22
-41.956379
32
0
13
5.500002
23
-41.956379
33
0
39
0
210
0
220
0
230
1
0
ENDBLK
5
119
100
AcDbEntity
8
0
100
AcDbBlockEnd
0
BLOCK
5
11E
100
AcDbEntity
8
0
100
AcDbBlockBegin
2
*D5
70
1
10
0
20
0
30
0
3
*D5
0
LINE
5
120
100
AcDbEntity
8
0
62
256
6
ByLayer
370
-2
48
1
60
0
100
AcDbLine
10
-40
20
-5.7375
30
0
11
-40
21
-38.495595
31
0
39
0
210
0
220
0
230
1
0
LINE
5
121
100
AcDbEntity
8
0
62
256
6
ByLayer
370
-2
48
1
60
0
100
AcDbLine
10
0
20
-5.7375
30
0
11
0
21
-38.495595
31
0
39
0
210
0
220
0
230
1
0
LINE
5
122
100
AcDbEntity
8
0
62
256
6
ByLayer
370
-2
48
1
60
0
100
AcDbLine
10
-36.5
20
-36.495595
30
0
11
-3.5
21
-36.495595
31
0
39
0
210
0
220
0
230
1
0
SOLID
5
123
100
AcDbEntity
8
0
62
256
6
ByLayer
370
-1
48
1
60
0
100
AcDbTrace
10
-36.5
20
-35.912262
30
0
11
-36.5
21
-37.078928
31
0
12
-40
22
-36.495595
32
0
13
-40
23
-36.495595
33
0
39
0
210
0
220
0
230
1
0
SOLID
5
124
100
AcDbEntity
8
0
62
256
6
ByLayer
370
-1
48
1
60
0
100
AcDbTrace
10
-3.5
20
-37.078928
30
0
11
-3.5
21
-35.912262
31
0
12
0
22
-36.495595
32
0
13
0
23
-36.495595
33
0
39
0
210
0
220
0
230
1
0
MTEXT
5
125
100
AcDbEntity
8
0
62
256
6
ByLayer
370
18
48
1
60
0
100
AcDbMText
10
-20
20
-30.495595
30
0
210
0
220
0
230
1
1
\A1;40
40
3
41
0
44
1
50
0
71
5
72
5
7
iso_b_vert
0
POINT
5
126
100
AcDbEntity
8
Defpoints
62
0
6
ByLayer
370
-1
48
1
60
0
100
AcDbPoint
10
-40
20
-4.15
30
0
39
0
210
0
220
0
230
1
50
360
0
POINT
5
127
100
AcDbEntity
8
Defpoints
62
0
6
ByLayer
370
-1
48
1
60
0
100
AcDbPoint
10
0
20
-4.15
30
0
39
0
210
0
220
0
230
1
50
360
0
POINT
5
128
100
AcDbEntity
8
Defpoints
62
0
6
ByLayer
370
-1
48
1
60
0
100
AcDbPoint
10
0
20
-36.495595
30
0
39
0
210
0
220
0
230
1
50
360
0
ENDBLK
5
11F
100
AcDbEntity
8
0
100
AcDbBlockEnd
0
BLOCK
5
130
100
AcDbEntity
8
0
100
AcDbBlockBegin
2
_U2
70
0
10
0
20
0
30
0
3
_U2
0
MTEXT
5
12A
100
AcDbEntity
8
SK2
62
256
6
ByLayer
370
18
48
1
60
0
100
AcDbMText
10
-24.640313
20
-35.610481
30
0
210
0
220
0
230
1
1
\W0.7694;40.00
40
3
41
0
44
1.084337
50
0
71
7
72
5
7
iso_b_vert
0
LINE
5
12B
100
AcDbEntity
8
SK2
62
256
6
ByLayer
370
13
48
1
60
0
100
AcDbLine
10
-40
20
-5.7375
30
0
11
-40
21
-38.495595
31
0
39
0
210
0
220
0
230
1
0
LINE
5
12C
100
AcDbEntity
8
SK2
62
256
6
ByLayer
370
13
48
1
60
0
100
AcDbLine
10
0
20
-5.7375
30
0
11
0
21
-38.495595
31
0
39
0
210
0
220
0
230
1
0
LINE
5
12D
100
AcDbEntity
8
SK2
62
256
6
ByLayer
370
13
48
1
60
0
100
AcDbLine
10
-40
20
-36.495595
30
0
11
0
21
-36.495595
31
0
39
0
210
0
220
0
230
1
0
SOLID
5
12E
100
AcDbEntity
8
SK2
62
256
6
ByLayer
370
18
48
1
60
0
100
AcDbTrace
10
-40
20
-36.495595
30
0
11
-36.500002
21
-36.034811
31
0
12
-36.499998
22
-36.956379
32
0
13
-36.499998
23
-36.956379
33
0
39
0
210
0
220
0
230
1
0
SOLID
5
12F
100
AcDbEntity
8
SK2
62
256
6
ByLayer
370
18
48
1
60
0
100
AcDbTrace
10
0
20
-36.495595
30
0
11
-3.499998
21
-36.956379
31
0
12
-3.500002
22
-36.034811
32
0
13
-3.500002
23
-36.034811
33
0
39
0
210
0
220
0
230
1
0
ENDBLK
5
131
100
AcDbEntity
8
0
100
AcDbBlockEnd
0
BLOCK
5
136
100
AcDbEntity
8
0
100
AcDbBlockBegin
2
*D7
70
1
10
0
20
0
30
0
3
*D7
0
LINE
5
138
100
AcDbEntity
8
0
62
256
6
ByLayer
370
-2
48
1
60
0
100
AcDbLine
10
39
20
-1.5875
30
0
11
39
21
-36.495595
31
0
39
0
210
0
220
0
230
1
0
LINE
5
139
100
AcDbEntity
8
0
62
256
6
ByLayer
370
-2
48
1
60
0
100
AcDbLine
10
11.25
20
-5.7375
30
0
11
11.25
21
-36.495595
31
0
39
0
210
0
220
0
230
1
0
LINE
5
13A
100
AcDbEntity
8
0
62
256
6
ByLayer
370
-2
48
1
60
0
100
AcDbLine
10
35.5
20
-34.495595
30
0
11
14.75
21
-34.495595
31
0
39
0
210
0
220
0
230
1
0
SOLID
5
13B
100
AcDbEntity
8
0
62
256
6
ByLayer
370
-1
48
1
60
0
100
AcDbTrace
10
35.5
20
-35.078928
30
0
11
35.5
21
-33.912262
31
0
12
39
22
-34.495595
32
0
13
39
23
-34.495595
33
0
39
0
210
0
220
0
230
1
0
SOLID
5
13C
100
AcDbEntity
8
0
62
256
6
ByLayer
370
-1
48
1
60
0
100
AcDbTrace
10
14.75
20
-33.912262
30
0
11
14.75
21
-35.078928
31
0
12
11.25
22
-34.495595
32
0
13
11.25
23
-34.495595
33
0
39
0
210
0
220
0
230
1
0
MTEXT
5
13D
100
AcDbEntity
8
0
62
256
6
ByLayer
370
18
48
1
60
0
100
AcDbMText
10
25.125
20
-28.495595
30
0
210
0
220
0
230
1
1
\A1;27.75
40
3
41
0
44
1
50
0
71
5
72
5
7
iso_b_vert
0
POINT
5
13E
100
AcDbEntity
8
Defpoints
62
0
6
ByLayer
370
-1
48
1
60
0
100
AcDbPoint
10
39
20
0
30
0
39
0
210
0
220
0
230
1
50
360
0
POINT
5
13F
100
AcDbEntity
8
Defpoints
62
0
6
ByLayer
370
-1
48
1
60
0
100
AcDbPoint
10
11.25
20
-4.15
30
0
39
0
210
0
220
0
230
1
50
360
0
POINT
5
140
100
AcDbEntity
8
Defpoints
62
0
6
ByLayer
370
-1
48
1
60
0
100
AcDbPoint
10
11.25
20
-34.495595
30
0
39
0
210
0
220
0
230
1
50
360
0
ENDBLK
5
137
100
AcDbEntity
8
0
100
AcDbBlockEnd
0
BLOCK
5
148
100
AcDbEntity
8
0
100
AcDbBlockBegin
2
_U3
70
0
10
0
20
0
30
0
3
_U3
0
MTEXT
5
142
100
AcDbEntity
8
2
62
256
6
ByLayer
370
18
48
1
60
0
100
AcDbMText
10
20.64263
20
-33.610481
30
0
210
0
220
0
230
1
1
\W0.7468;27.75
40
3
41
0
44
1.084337
50
0
71
7
72
5
7
iso_b_vert
0
LINE
5
143
100
AcDbEntity
8
2
62
256
6
ByLayer
370
13
48
1
60
0
100
AcDbLine
10
39
20
-1.5875
30
0
11
39
21
-36.495595
31
0
39
0
210
0
220
0
230
1
0
LINE
5
144
100
AcDbEntity
8
2
62
256
6
ByLayer
370
13
48
1
60
0
100
AcDbLine
10
11.25
20
-5.7375
30
0
11
11.25
21
-36.495595
31
0
39
0
210
0
220
0
230
1
0
LINE
5
145
100
AcDbEntity
8
2
62
256
6
ByLayer
370
13
48
1
60
0
100
AcDbLine
10
39
20
-34.495595
30
0
11
11.25
21
-34.495595
31
0
39
0
210
0
220
0
230
1
0
SOLID
5
146
100
AcDbEntity
8
2
62
256
6
ByLayer
370
18
48
1
60
0
100
AcDbTrace
10
39
20
-34.495595
30
0
11
35.500002
21
-34.956379
31
0
12
35.499998
22
-34.034811
32
0
13
35.499998
23
-34.034811
33
0
39
0
210
0
220
0
230
1
0
SOLID
5
147
100
AcDbEntity
8
2
62
256
6
ByLayer
370
18
48
1
60
0
100
AcDbTrace
10
11.25
20
-34.495595
30
0
11
14.749998
21
-34.034811
31
0
12
14.750002
22
-34.956379
32
0
13
14.750002
23
-34.956379
33
0
39
0
210
0
220
0
230
1
0
ENDBLK
5
149
100
AcDbEntity
8
0
100
AcDbBlockEnd
0
ENDSEC
0
SECTION
2
ENTITIES
0
ARC
5
B5
100
AcDbEntity
8
2
62
256
6
ByLayer
370
13
48
1
60
0
100
AcDbCircle
39
0
10
39
20
0
30
0
40
21.9999999999999
210
0
220
0
230
1
100
AcDbArc
50
7.83748
51
61.596605
0
ARC
5
B6
100
AcDbEntity
8
2
62
256
6
ByLayer
370
13
48
1
60
0
100
AcDbCircle
39
0
10
39
20
0
30
0
40
21.9999999999999
210
0
220
0
230
1
100
AcDbArc
50
298.403395
51
352.16252
0
POINT
5
70
100
AcDbEntity
8
81
62
256
6
ByLayer
370
18
48
1
60
0
100
AcDbPoint
10
39
20
0
30
0
39
0
210
0
220
0
230
1
50
360
0
POINT
5
72
100
AcDbEntity
8
80
62
256
6
ByLayer
370
18
48
1
60
0
100
AcDbPoint
10
0
20
0
30
0
39
0
210
0
220
0
230
1
50
360
0
POINT
5
74
100
AcDbEntity
8
1
62
256
6
ByLayer
370
18
48
1
60
1
100
AcDbPoint
10
-40
20
-4.15
30
0
39
0
210
0
220
0
230
1
50
360
0
POINT
5
76
100
AcDbEntity
8
1
62
256
6
ByLayer
370
18
48
1
60
1
100
AcDbPoint
10
39
20
0
30
0
39
0
210
0
220
0
230
1
50
360
0
POINT
5
77
100
AcDbEntity
8
1
62
256
6
ByLayer
370
18
48
1
60
1
100
AcDbPoint
10
39
20
0
30
0
39
0
210
0
220
0
230
1
50
360
0
POINT
5
78
100
AcDbEntity
8
1
62
256
6
ByLayer
370
18
48
1
60
1
100
AcDbPoint
10
2
20
-4.15
30
0
39
0
210
0
220
0
230
1
50
360
0
POINT
5
79
100
AcDbEntity
8
1
62
256
6
ByLayer
370
18
48
1
60
1
100
AcDbPoint
10
-40
20
-4.15
30
0
39
0
210
0
220
0
230
1
50
360
0
POINT
5
7A
100
AcDbEntity
8
1
62
256
6
ByLayer
370
18
48
1
60
1
100
AcDbPoint
10
0
20
-4.15
30
0
39
0
210
0
220
0
230
1
50
360
0
POINT
5
7B
100
AcDbEntity
8
1
62
256
6
ByLayer
370
18
48
1
60
1
100
AcDbPoint
10
39
20
0
30
0
39
0
210
0
220
0
230
1
50
360
0
POINT
5
7C
100
AcDbEntity
8
1
62
256
6
ByLayer
370
18
48
1
60
1
100
AcDbPoint
10
11.25
20
-4.15
30
0
39
0
210
0
220
0
230
1
50
360
0
SPLINE
5
B7
100
AcDbEntity
8
CUT
62
256
6
ByLayer
370
18
48
1
60
0
100
AcDbSpline
70
2053
71
3
72
17
73
13
40
0
40
0
40
0
40
0
40
0.446757983553915
40
0.446757983553915
40
0.446757983553915
40
0.513416453436855
40
0.513416453436855
40
0.513416453436855
40
0.924043989992562
40
0.924043989992562
40
0.924043989992562
40
1
40
1
40
1
40
1
41
1
10
39
20
0
30
0
41
1
10
29.75
20
0
30
0
41
1
10
20.5
20
0
30
0
41
1
10
11.25
20
0
30
0
41
1
10
11.25
20
1.38014511014384
30
0
41
1
10
11.25
20
2.76029022028772
30
0
41
1
10
11.2499999999995
20
4.14043533043156
30
0
41
1
10
19.7519285293052
20
4.14362355362985
30
0
41
1
10
28.2538570586115
20
4.14681177682815
30
0
41
1
10
36.7557855879178
20
4.15000000002644
30
0
41
1
10
37.5038570586119
20
2.7666666666843
30
0
41
1
10
38.2519285293059
20
1.38333333334216
30
0
41
1
10
39
20
0
30
0
0
SPLINE
5
B9
100
AcDbEntity
8
NOCUT
62
256
6
ByLayer
370
18
48
1
60
0
100
AcDbSpline
70
2053
71
3
72
26
73
22
40
0
40
0
40
0
40
0
40
0.464425763428156
40
0.464425763428156
40
0.464425763428156
40
0.501946248096443
40
0.501946248096443
40
0.501946248096443
40
0.600268587364136
40
0.600268587364136
40
0.600268587364136
40
0.603895478630563
40
0.603895478630563
40
0.603895478630563
40
0.959577648671357
40
0.959577648671357
40
0.959577648671357
40
0.969189315207563
40
0.969189315207563
40
0.969189315207563
40
1
40
1
40
1
40
1
41
1
10
-40
20
0
30
0
41
1
10
-22.916666666667
20
0
30
0
41
1
10
-5.83333333333405
20
0
30
0
41
1
10
11.2499999999995
20
0
30
0
41
1
10
11.25
20
1.38014511014384
30
0
41
1
10
11.25
20
2.76029022028772
30
0
41
1
10
11.25
20
4.14043533043156
30
0
41
1
10
7.63333333333301
20
4.13907908043163
30
0
41
1
10
4.01666666666597
20
4.13772283043173
30
0
41
1
10
0.399999999778572
20
4.13636658043933
30
0
41
1
10
0.266666666372117
20
4.14091105363124
30
0
41
1
10
0.133333333186073
20
4.14545552681562
30
0
41
1
10
0
20
4.15000000000001
30
0
41
1
10
-13.0833333333333
20
4.15000000000001
30
0
41
1
10
-26.1666666666667
20
4.15000000000001
30
0
41
1
10
-39.25
20
4.15000000000001
30
0
41
1
10
-39.5
20
3.90000000000001
30
0
41
1
10
-39.75
20
3.65000000000001
30
0
41
1
10
-40
20
3.40000000000001
30
0
41
1
10
-40
20
2.26666666666668
30
0
41
1
10
-40
20
1.13333333333333
30
0
41
1
10
-40
20
0
30
0
0
SPLINE
5
BB
100
AcDbEntity
8
1
62
256
6
ByLayer
370
18
48
1
60
0
100
AcDbSpline
70
4
71
3
72
134
73
130
40
0
40
0
40
0
40
0
40
0.0156249999999997
40
0.0156249999999997
40
0.0312499999999994
40
0.0312499999999994
40
0.0624999999999988
40
0.0624999999999988
40
0.0937499999999981
40
0.0937499999999981
40
0.124999999999998
40
0.124999999999998
40
0.156249999999997
40
0.156249999999997
40
0.171874999999997
40
0.171874999999997
40
0.187499999999996
40
0.187499999999996
40
0.218749999999998
40
0.218749999999998
40
0.249999999999999
40
0.249999999999999
40
0.265625
40
0.265625
40
0.281250000000001
40
0.281250000000001
40
0.296875000000002
40
0.296875000000002
40
0.304687500000002
40
0.304687500000002
40
0.312500000000003
40
0.312500000000003
40
0.328125000000001
40
0.328125000000001
40
0.335937499999999
40
0.343749999999998
40
0.343749999999998
40
0.359374999999992
40
0.359374999999992
40
0.36718749999999
40
0.36718749999999
40
0.374999999999988
40
0.374999999999988
40
0.390624999999987
40
0.390624999999987
40
0.406249999999986
40
0.406249999999986
40
0.421874999999985
40
0.421874999999985
40
0.437499999999984
40
0.437499999999984
40
0.453124999999982
40
0.453124999999982
40
0.460937499999981
40
0.460937499999981
40
0.468749999999979
40
0.476562499999978
40
0.476562499999978
40
0.484374999999977
40
0.484374999999977
40
0.492187499999975
40
0.492187499999975
40
0.496093749999974
40
0.496093749999974
40
0.499999999999974
40
0.499999999999974
40
0.515624999999971
40
0.515624999999971
40
0.523437499999969
40
0.523437499999969
40
0.527343749999968
40
0.527343749999968
40
0.531249999999968
40
0.531249999999968
40
0.54687499999997
40
0.54687499999997
40
0.562499999999972
40
0.562499999999972
40
0.570312499999972
40
0.570312499999972
40
0.578124999999972
40
0.578124999999972
40
0.593749999999974
40
0.593749999999974
40
0.609374999999977
40
0.609374999999977
40
0.624999999999979
40
0.624999999999979
40
0.640624999999981
40
0.640624999999981
40
0.656249999999983
40
0.656249999999983
40
0.671874999999986
40
0.671874999999986
40
0.679687499999986
40
0.679687499999986
40
0.687499999999985
40
0.687499999999985
40
0.703124999999985
40
0.703124999999985
40
0.718749999999986
40
0.718749999999986
40
0.734374999999986
40
0.734374999999986
40
0.749999999999986
40
0.749999999999986
40
0.781249999999986
40
0.781249999999986
40
0.796874999999987
40
0.796874999999987
40
0.812499999999988
40
0.812499999999988
40
0.84374999999999
40
0.84374999999999
40
0.859374999999991
40
0.859374999999991
40
0.874999999999992
40
0.874999999999992
40
0.906249999999994
40
0.906249999999994
40
0.937499999999996
40
0.937499999999996
40
0.953124999999997
40
0.953124999999997
40
0.968749999999998
40
0.968749999999998
40
0.984374999999999
40
0.984374999999999
40
1
40
1
40
1
40
1
41
1
10
36.7557855879177
20
4.01752040014887
30
0
41
1
10
36.7770523708901
20
3.97655571547199
30
0
41
1
10
36.7983404978919
20
3.93561448684005
30
0
41
1
10
36.8409756815725
20
3.85379022651924
30
0
41
1
10
36.8623228834635
20
3.81290721960539
30
0
41
1
10
36.9263902727069
20
3.69029350718515
30
0
41
1
10
36.9691225261028
20
3.60858696091856
30
0
41
1
10
37.054441542659
20
3.44510181337242
30
0
41
1
10
37.0970394823086
20
3.36333242104266
30
0
41
1
10
37.1821107255933
20
3.19974510177559
30
0
41
1
10
37.2245896984892
20
3.11793122980697
30
0
41
1
10
37.3093490735441
20
2.95420714016032
30
0
41
1
10
37.351622341654
20
2.87229171711266
30
0
41
1
10
37.4148280001754
20
2.74931507124498
30
0
41
1
10
37.4358639251089
20
2.7083066562677
30
0
41
1
10
37.4778624632291
20
2.62625338157517
30
0
41
1
10
37.4988177945785
20
2.58520337473695
30
0
41
1
10
37.5616064334634
20
2.46202461365573
30
0
41
1
10
37.603378399767
20
2.37987787189485
30
0
41
1
10
37.6866170581709
20
2.21545005774067
30
0
41
1
10
37.7280830545967
20
2.13316852053509
30
0
41
1
10
37.789957404233
20
2.00959438418573
30
0
41
1
10
37.8105302808142
20
1.9683725339672
30
0
41
1
10
37.8515307121755
20
1.88591318912023
30
0
41
1
10
37.8719509150239
20
1.84465035104563
30
0
41
1
10
37.9128228020859
20
1.76270410101949
30
0
41
1
10
37.933257280161
20
1.7219797334113
30
0
41
1
10
37.9644459627847
20
1.6627491549599
30
0
41
1
10
37.9749381812711
20
1.64332891008166
30
0
41
1
10
37.9961189728591
20
1.60510088987792
30
0
41
1
10
38.0068086433246
20
1.58629599033293
30
0
41
1
10
38.0390781066523
20
1.5304832212492
30
0
41
1
10
38.0608246360257
20
1.49397443167589
30
0
41
1
10
38.0933081852208
20
1.43884021553214
30
0
41
1
10
38.1149284203725
20
1.40199194945674
30
0
41
1
10
38.1364222767284
20
1.36481615575585
30
0
41
1
10
38.1685638131947
20
1.30880941126966
30
0
41
1
10
38.1898662866105
20
1.27116481856723
30
0
41
1
10
38.2215747061171
20
1.21416658999456
30
0
41
1
10
38.2321009701876
20
1.19507334417983
30
0
41
1
10
38.2530855315909
20
1.1567648965403
30
0
41
1
10
38.2635385147341
20
1.13756088698952
30
0
41
1
10
38.2947524991108
20
1.07978478472424
30
0
41
1
10
38.3153674502403
20
1.04103951416886
30
0
41
1
10
38.3560471520031
20
0.962967159511976
30
0
41
1
10
38.3761178038477
20
0.923648245530075
30
0
41
1
10
38.4155385725069
20
0.844355335388371
30
0
41
1
10
38.4348949538368
20
0.804387619418691
30
0
41
1
10
38.4725585809992
20
0.72360063101857
30
0
41
1
10
38.4908646653957
20
0.682778196528403
30
0
41
1
10
38.5259460946006
20
0.600039850444887
30
0
41
1
10
38.5427265492814
20
0.558125600685457
30
0
41
1
10
38.566119769187
20
0.494092552637113
30
0
41
1
10
38.5736233864075
20
0.472530806387766
30
0
41
1
10
38.5877599679095
20
0.429314551448016
30
0
41
1
10
38.6010567704841
20
0.385925171757378
30
0
41
1
10
38.6123360441911
20
0.342114666123678
30
0
41
1
10
38.6224110918086
20
0.298050566560136
30
0
41
1
10
38.6268401132737
20
0.27589071838861
30
0
41
1
10
38.634137052598
20
0.231246727995057
30
0
41
1
10
38.6370621126099
20
0.208771865911217
30
0
41
1
10
38.6402722017695
20
0.1748070475833
30
0
41
1
10
38.6411432049573
20
0.163434884633858
30
0
41
1
10
38.642452892794
20
0.14081087174597
30
0
41
1
10
38.6428939193798
20
0.129534223860588
30
0
41
1
10
38.6440065078113
20
0.0733369573301275
30
0
41
1
10
38.641347255177
20
0.0289816647682812
30
0
41
1
10
38.6322143749171
20
-0.03655210734766
30
0
41
1
10
38.6283260156165
20
-0.058232615783453
30
0
41
1
10
38.6213367397543
20
-0.0905114400223965
30
0
41
1
10
38.6188117692113
20
-0.101238147182471
30
0
41
1
10
38.6134505864883
20
-0.122422840233639
30
0
41
1
10
38.6106095844262
20
-0.132905670606249
30
0
41
1
10
38.5956810681917
20
-0.184808165634337
30
0
41
1
10
38.5814471220517
20
-0.224702179234441
30
0
41
1
10
38.549957945322
20
-0.301915256897132
30
0
41
1
10
38.5326951980846
20
-0.339231535583821
30
0
41
1
10
38.5051639084981
20
-0.39342167484503
30
0
41
1
10
38.49569197805
20
-0.41122139596439
30
0
41
1
10
38.4764692313704
20
-0.445907726618685
30
0
41
1
10
38.4666992900587
20
-0.46282916751116
30
0
41
1
10
38.4370085181529
20
-0.512379917385744
30
0
41
1
10
38.4167116452323
20
-0.543791007965353
30
0
41
1
10
38.3754636584893
20
-0.603736855388036
30
0
41
1
10
38.3545158843661
20
-0.632306238165199
30
0
41
1
10
38.3121786697307
20
-0.687052372445407
30
0
41
1
10
38.2907815802851
20
-0.713233503703805
30
0
41
1
10
38.2476420380652
20
-0.763295776297639
30
0
41
1
10
38.2261065574993
20
-0.786976549235078
30
0
41
1
10
38.1831279243516
20
-0.831513570043228
30
0
41
1
10
38.1616874325226
20
-0.852278103480558
30
0
41
1
10
38.1188885216829
20
-0.890991167377308
30
0
41
1
10
38.0975276025957
20
-0.909008982454395
30
0
41
1
10
38.0655230300608
20
-0.934061369916606
30
0
41
1
10
38.0548611154288
20
-0.942074456253124
30
0
41
1
10
38.0335457563735
20
-0.95740178314523
30
0
41
1
10
38.0228779474998
20
-0.964721492596169
30
0
41
1
10
37.9909838845507
20
-0.985574397102681
30
0
41
1
10
37.9699301762312
20
-0.99798542669248
30
0
41
1
10
37.928132964695
20
-1.02025143843616
30
0
41
1
10
37.9073874372624
20
-1.0301208025281
30
0
41
1
10
37.866134877148
20
-1.04752730768243
30
0
41
1
10
37.8456316607785
20
-1.05504191944985
30
0
41
1
10
37.8048652731124
20
-1.06742557700673
30
0
41
1
10
37.7846053673998
20
-1.07226786724425
30
0
41
1
10
37.7241213813435
20
-1.08273123302433
30
0
41
1
10
37.6841504851136
20
-1.08446940996859
30
0
41
1
10
37.623806852183
20
-1.08640041706809
30
0
41
1
10
37.6036245731831
20
-1.08696595887642
30
0
41
1
10
37.5630095444026
20
-1.08920611285205
30
0
41
1
10
37.5425835772991
20
-1.090835781773
30
0
41
1
10
37.4810023829709
20
-1.09728263509615
30
0
41
1
10
37.4395379021168
20
-1.10376352634177
30
0
41
1
10
37.3769666154566
20
-1.11584872205515
30
0
41
1
10
37.3560448015174
20
-1.12028007102967
30
0
41
1
10
37.3140630331352
20
-1.13025210138972
30
0
41
1
10
37.2930000411421
20
-1.13583013046383
30
0
41
1
10
37.2296220186107
20
-1.15432167853024
30
0
41
1
10
37.1871233447812
20
-1.16896214833355
30
0
41
1
10
37.1018630464467
20
-1.20099314788038
30
0
41
1
10
37.0591124823814
20
-1.21819463902614
30
0
41
1
10
36.9946784520398
20
-1.24790926346151
30
0
41
1
10
36.9731475681374
20
-1.25848820136366
30
0
41
1
10
36.9299569155862
20
-1.28137142855596
30
0
41
1
10
36.9082998822352
20
-1.29363950785293
30
0
41
1
10
36.864873191825
20
-1.31970967333186
30
0
41
1
10
36.8431027929301
20
-1.33352109585832
30
0
41
1
10
36.7994904991507
20
-1.3621130510077
30
0
41
1
10
36.7776532857906
20
-1.37682968241475
30
0
41
1
10
36.7557855879174
20
-1.3919527055543
30
0
0
SPLINE
5
BC
100
AcDbEntity
8
1
62
256
6
ByLayer
370
18
48
1
60
0
100
AcDbSpline
70
4
71
3
72
34
73
30
40
0
40
0
40
0
40
0
40
0.0179739843000987
40
0.0447717089839368
40
0.0715694336677749
40
0.125164883035451
40
0.178760332403127
40
0.232355781770804
40
0.28595123113848
40
0.339546680506156
40
0.366344405189994
40
0.393142129873833
40
0.419939854557671
40
0.43333871689959
40
0.446737579241509
40
0.460136441583428
40
0.473535303925347
40
0.500333028609185
40
0.527130753293023
40
0.553928477976861
40
0.607523927344537
40
0.661119376712214
40
0.71471482607989
40
0.768310275447566
40
0.821905724815242
40
0.875501174182919
40
0.929096623550595
40
0.982692072918271
40
1
40
1
40
1
40
1
41
1
10
15.6008203603349
20
3.48955455580801
30
0
41
1
10
15.5860801401521
20
3.46319999095402
30
0
41
1
10
15.5490626285222
20
3.39755287030081
30
0
41
1
10
15.4891270914172
20
3.29270001410498
30
0
41
1
10
15.3933521391925
20
3.13614466530592
30
0
41
1
10
15.2584301466624
20
2.94129061993866
30
0
41
1
10
15.0733808983443
20
2.70937132854877
30
0
41
1
10
14.8603533338537
20
2.47822361814846
30
0
41
1
10
14.624028084808
20
2.25209239293884
30
0
41
1
10
14.410539575319
20
2.07062311777253
30
0
41
1
10
14.2303875414992
20
1.92932954675865
30
0
41
1
10
14.090957333373
20
1.82529991305427
30
0
41
1
10
13.9749624543688
20
1.73773317436724
30
0
41
1
10
13.8924061826834
20
1.66352207126036
30
0
41
1
10
13.8350351108415
20
1.60609980630127
30
0
41
1
10
13.7781745949569
20
1.54845731746462
30
0
41
1
10
13.6990769709362
20
1.47297744631271
30
0
41
1
10
13.5929001661003
20
1.3823513442693
30
0
41
1
10
13.4562666238117
20
1.27874835070537
30
0
41
1
10
13.263086677449
20
1.1459045680655
30
0
41
1
10
13.0053970744808
20
0.992395909284284
30
0
41
1
10
12.6862528223145
20
0.829469652931806
30
0
41
1
10
12.354812016229
20
0.682120895509911
30
0
41
1
10
12.0174904055846
20
0.551271042179252
30
0
41
1
10
11.6808333475103
20
0.437290008385645
30
0
41
1
10
11.3439551822492
20
0.338573376510652
30
0
41
1
10
11.0063983234306
20
0.256197358502192
30
0
41
1
10
10.7448709333388
20
0.205374687659429
30
0
41
1
10
10.598154940404
20
0.182069886155006
30
0
41
1
10
10.5624865402928
20
0.176739262462974
30
0
0
SPLINE
5
BD
100
AcDbEntity
8
1
62
256
6
ByLayer
370
18
48
1
60
0
100
AcDbSpline
70
4
71
3
72
81
73
77
40
0
40
0
40
0
40
0
40
0.062418078242126
40
0.062418078242126
40
0.124836156484252
40
0.124836156484252
40
0.140440676044783
40
0.140440676044783
40
0.156045195605314
40
0.187254234726374
40
0.187254234726374
40
0.218463273847433
40
0.218463273847433
40
0.249672312968493
40
0.249672312968493
40
0.265276832529022
40
0.265276832529022
40
0.28088135208955
40
0.28088135208955
40
0.296485871650079
40
0.296485871650079
40
0.312090391210608
40
0.312090391210608
40
0.343299430331665
40
0.343299430331665
40
0.374508469452723
40
0.374508469452723
40
0.40571750857378
40
0.40571750857378
40
0.421322028134309
40
0.421322028134309
40
0.436926547694838
40
0.436926547694838
40
0.499344625936953
40
0.499344625936953
40
0.530553665058009
40
0.530553665058009
40
0.546158184618536
40
0.546158184618536
40
0.561762704179063
40
0.561762704179063
40
0.592971743300117
40
0.592971743300117
40
0.608576262860643
40
0.608576262860643
40
0.624180782421169
40
0.624180782421169
40
0.655389821542219
40
0.655389821542219
40
0.686598860663269
40
0.686598860663269
40
0.702203380223792
40
0.702203380223792
40
0.717807899784316
40
0.717807899784316
40
0.749016938905361
40
0.749016938905361
40
0.780225978026406
40
0.780225978026406
40
0.811435017147452
40
0.811435017147452
40
0.842644056268497
40
0.842644056268497
40
0.85824857582902
40
0.85824857582902
40
0.873853095389544
40
0.873853095389544
40
0.936271173631639
40
0.936271173631639
40
0.967480212752686
40
0.967480212752686
40
0.98308473231321
40
0.98308473231321
40
0.998689251873733
40
0.998689251873733
40
1
40
1
40
1
40
1
41
1
10
36.7557855879186
20
-1.39195270555535
30
0
41
1
10
36.4560798980119
20
-1.23441329192931
30
0
41
1
10
36.156950577576
20
-1.0753140664427
30
0
41
1
10
35.5598521064192
20
-0.754028797292847
30
0
41
1
10
35.2618604719538
20
-0.59188566013853
30
0
41
1
10
34.890915003581
20
-0.385779995344421
30
0
41
1
10
34.816787744927
20
-0.344415171137655
30
0
41
1
10
34.6684248178835
20
-0.261821521187244
30
0
41
1
10
34.4457718890749
20
-0.138036626516651
30
0
41
1
10
34.2227954676276
20
-0.0145677459429407
30
0
41
1
10
33.9252161332858
20
0.149792027055554
30
0
41
1
10
33.7762818769243
20
0.23182840630426
30
0
41
1
10
33.4781855865257
20
0.395726849441786
30
0
41
1
10
33.3290268157552
20
0.477594813562206
30
0
41
1
10
33.1052423338344
20
0.600498567806113
30
0
41
1
10
33.0306406422721
20
0.641485080149437
30
0
41
1
10
32.8814493536053
20
0.723544099746107
30
0
41
1
10
32.8068729438874
20
0.764641100616046
30
0
41
1
10
32.6575015592534
20
0.846495549386503
30
0
41
1
10
32.5827079104199
20
0.887255326955255
30
0
41
1
10
32.4329050768061
20
0.968440347397575
30
0
41
1
10
32.3578549742084
20
1.00888735624127
30
0
41
1
10
32.1329447659387
20
1.12942983010456
30
0
41
1
10
31.9831841474966
20
1.20880378804415
30
0
41
1
10
31.6840233025117
20
1.36563260281105
30
0
41
1
10
31.5346184387573
20
1.44308017051313
30
0
41
1
10
31.2362759601247
20
1.596260930418
30
0
41
1
10
31.0873376357008
20
1.67199363147569
30
0
41
1
10
30.864431065897
20
1.78453484722115
30
0
41
1
10
30.7902344135989
20
1.8219074307776
30
0
41
1
10
30.6418455762367
20
1.89602410601526
30
0
41
1
10
30.5676296886762
20
1.93273020613947
30
0
41
1
10
30.1964005478468
20
2.11444893086934
30
0
41
1
10
29.8989697339897
20
2.25409746704548
30
0
41
1
10
29.4522556109282
20
2.45529072295349
30
0
41
1
10
29.3032644298479
20
2.52098496311064
30
0
41
1
10
29.0797568014843
20
2.61760695967476
30
0
41
1
10
29.0052516155619
20
2.64949517205585
30
0
41
1
10
28.8562612941455
20
2.7126600769314
30
0
41
1
10
28.7817946147888
20
2.74396222678331
30
0
41
1
10
28.558299173768
20
2.83675817301671
30
0
41
1
10
28.4089702214526
20
2.89685853959153
30
0
41
1
10
28.1843426316227
20
2.98419603665033
30
0
41
1
10
28.1093684684499
20
3.01284976299672
30
0
41
1
10
27.9592244775687
20
3.06924188615966
30
0
41
1
10
27.8841963429102
20
3.09692690819949
30
0
41
1
10
27.6593549459755
20
3.17842751802129
30
0
41
1
10
27.5097281993612
20
3.23070052753951
30
0
41
1
10
27.2110949995327
20
3.33129251110014
30
0
41
1
10
27.0620891224666
20
3.37961358691817
30
0
41
1
10
26.8391825337807
20
3.44926048481878
30
0
41
1
10
26.7649918553784
20
3.47201392147005
30
0
41
1
10
26.6167896544009
20
3.51653894276026
30
0
41
1
10
26.5427420874623
20
3.53827329895981
30
0
41
1
10
26.3205374808643
20
3.60169038854204
30
0
41
1
10
26.1723884492521
20
3.64166080885732
30
0
41
1
10
25.8760690370472
20
3.71708891244924
30
0
41
1
10
25.7278980639163
20
3.7525461456826
30
0
41
1
10
25.431548520292
20
3.81900599826895
30
0
41
1
10
25.2833714818583
20
3.85001166813797
30
0
41
1
10
24.9871430417176
20
3.90764308642386
30
0
41
1
10
24.8390938598708
20
3.93427152577209
30
0
41
1
10
24.6172638991538
20
3.97092990644276
30
0
41
1
10
24.5433472697568
20
3.98259107034593
30
0
41
1
10
24.3953326753285
20
4.00467229745038
30
0
41
1
10
24.3212517564864
20
4.01510287633962
30
0
41
1
10
23.9504805300227
20
4.06422735000507
30
0
41
1
10
23.6526743082189
20
4.09386580789618
30
0
41
1
10
23.2043240475887
20
4.12389407366743
30
0
41
1
10
23.0546109248461
20
4.13149623698652
30
0
41
1
10
22.8297567144976
20
4.13922086651615
30
0
41
1
10
22.7547024228805
20
4.14118226331877
30
0
41
1
10
22.6049498859834
20
4.14384781548742
30
0
41
1
10
22.530236237944
20
4.14455214590615
30
0
41
1
10
22.449288320235
20
4.14463136455205
30
0
41
1
10
22.4430160071621
20
4.1446330834047
30
0
41
1
10
22.4367439586641
20
4.14463038705966
30
0
0
SPLINE
5
BE
100
AcDbEntity
8
1
62
256
6
ByLayer
370
18
48
1
60
0
100
AcDbSpline
70
4
71
3
72
94
73
90
40
0
40
0
40
0
40
0
40
0.010421089328549
40
0.010421089328549
40
0.0815549598200073
40
0.0815549598200073
40
0.117121895065738
40
0.117121895065738
40
0.152688830311468
40
0.152688830311468
40
0.170472297934333
40
0.170472297934333
40
0.188255765557198
40
0.188255765557198
40
0.206039233180063
40
0.206039233180063
40
0.223822700802928
40
0.223822700802928
40
0.241606168425793
40
0.241606168425793
40
0.259389636048658
40
0.259389636048658
40
0.277173103671523
40
0.277173103671523
40
0.294956571294388
40
0.294956571294388
40
0.330523506540118
40
0.330523506540118
40
0.366090441785848
40
0.366090441785848
40
0.401657377031578
40
0.401657377031578
40
0.437224312277308
40
0.437224312277308
40
0.508358182768767
40
0.508358182768767
40
0.579492053260225
40
0.579492053260225
40
0.615058988505954
40
0.615058988505954
40
0.650625923751683
40
0.650625923751683
40
0.668409391374548
40
0.668409391374548
40
0.686192858997413
40
0.686192858997413
40
0.721759794243142
40
0.721759794243142
40
0.757326729488871
40
0.757326729488871
40
0.7928936647346
40
0.7928936647346
40
0.828460599980329
40
0.828460599980329
40
0.864027535226058
40
0.864027535226058
40
0.87291926903749
40
0.87291926903749
40
0.881811002848921
40
0.881811002848921
40
0.899594470471783
40
0.899594470471783
40
0.917377938094646
40
0.917377938094646
40
0.926269671906078
40
0.926269671906078
40
0.930715538811793
40
0.930715538811793
40
0.935161405717509
40
0.935161405717509
40
0.95294487334037
40
0.95294487334037
40
0.957390740246085
40
0.957390740246085
40
0.9618366071518
40
0.9618366071518
40
0.970728340963231
40
0.970728340963231
40
0.975174207868946
40
0.975174207868946
40
0.979620074774661
40
0.979620074774661
40
0.988511808586091
40
0.988511808586091
40
0.992957675491805
40
0.992957675491805
40
0.99740354239752
40
0.99740354239752
40
1
40
1
40
1
40
1
41
1
10
11.2288845725063
20
-4.14042387444653
30
0
41
1
10
11.1968318397827
20
-4.14039524513134
30
0
41
1
10
11.1647476320481
20
-4.14028946346812
30
0
41
1
10
10.913400607664
20
-4.13887749353898
30
0
41
1
10
10.6926064233681
20
-4.13417481556547
30
0
41
1
10
10.3584944340764
20
-4.12336015295367
30
0
41
1
10
10.2466393246494
20
-4.11913005685298
30
0
41
1
10
10.0218800891674
20
-4.10967391906715
30
0
41
1
10
9.90896611732137
20
-4.10445277156452
30
0
41
1
10
9.73886637914032
20
-4.09602462719783
30
0
41
1
10
9.68204314484726
20
-4.09311674620628
30
0
41
1
10
9.56826627968701
20
-4.08708059366884
30
0
41
1
10
9.51130700541404
20
-4.08395593570594
30
0
41
1
10
9.39761399401738
20
-4.07734056422427
30
0
41
1
10
9.34088568973701
20
-4.07384983609995
30
0
41
1
10
9.22837027937607
20
-4.06612840038494
30
0
41
1
10
9.17261871212682
20
-4.06187991727856
30
0
41
1
10
9.06245796648901
20
-4.05230477104112
30
0
41
1
10
9.00805037875014
20
-4.04696800393492
30
0
41
1
10
8.89968773003019
20
-4.03553285266605
30
0
41
1
10
8.84567388442213
20
-4.0294648102431
30
0
41
1
10
8.73697818235135
20
-4.01721636147616
30
0
41
1
10
8.68230490132387
20
-4.01103736439549
30
0
41
1
10
8.57207699736492
20
-3.99881331609061
30
0
41
1
10
8.51654073301046
20
-3.99275879052692
30
0
41
1
10
8.34875587035552
20
-3.97485916543511
30
0
41
1
10
8.235345814402
20
-3.96327541936932
30
0
41
1
10
8.00589668647035
20
-3.94109380358731
30
0
41
1
10
7.88984801871175
20
-3.93049714399669
30
0
41
1
10
7.65512987166625
20
-3.91076187381691
30
0
41
1
10
7.53645194540226
20
-3.9016320677317
30
0
41
1
10
7.29671484772194
20
-3.88501686172612
30
0
41
1
10
7.17668254171778
20
-3.87759044134029
30
0
41
1
10
6.81634864538219
20
-3.85800367532809
30
0
41
1
10
6.57571354959694
20
-3.84856647640319
30
0
41
1
10
6.09374465380643
20
-3.83677269006523
30
0
41
1
10
5.85240717396547
20
-3.83443993909086
30
0
41
1
10
5.48990421179269
20
-3.83612486503998
30
0
41
1
10
5.36898856696769
20
-3.83752940371102
30
0
41
1
10
5.12699762749176
20
-3.84195873514267
30
0
41
1
10
5.0059220080694
20
-3.8449873798952
30
0
41
1
10
4.82417730771425
20
-3.85080545063212
30
0
41
1
10
4.76357376204865
20
-3.85295794776536
30
0
41
1
10
4.6423206156245
20
-3.85769535707976
30
0
41
1
10
4.58169994533847
20
-3.86027945382591
30
0
41
1
10
4.40029997708794
20
-3.86865152668815
30
0
41
1
10
4.27981812442988
20
-3.87506523905978
30
0
41
1
10
4.03981044779431
20
-3.88946672271501
30
0
41
1
10
3.92028301301713
20
-3.89745276106453
30
0
41
1
10
3.68229552257637
20
-3.91493710105394
30
0
41
1
10
3.56371307930988
20
-3.9244450213514
30
0
41
1
10
3.32943857847215
20
-3.94484149707151
30
0
41
1
10
3.21357098791211
20
-3.95574028573853
30
0
41
1
10
2.98529891557348
20
-3.97905472911768
30
0
41
1
10
2.87288317515763
20
-3.99148086028598
30
0
41
1
10
2.73560430229315
20
-4.0080511946102
30
0
41
1
10
2.70831292053632
20
-4.01141651506703
30
0
41
1
10
2.65409747507965
20
-4.01824822589768
30
0
41
1
10
2.62712456234118
20
-4.02172104764915
30
0
41
1
10
2.54720363883359
20
-4.03223709862039
30
0
41
1
10
2.49537400378057
20
-4.03936112244287
30
0
41
1
10
2.39527881333311
20
-4.05373493615252
30
0
41
1
10
2.34699908244551
20
-4.06098407932916
30
0
41
1
10
2.27799977951841
20
-4.07183294123635
30
0
41
1
10
2.25557300919951
20
-4.07544469036455
30
0
41
1
10
2.22298632280774
20
-4.08084419089829
30
0
41
1
10
2.21230089187219
20
-4.08264109931264
30
0
41
1
10
2.1913330307049
20
-4.08622787186937
30
0
41
1
10
2.18102901404976
20
-4.08802171969947
30
0
41
1
10
2.13113751789297
20
-4.0968854951407
30
0
41
1
10
2.09618301688161
20
-4.10370425359932
30
0
41
1
10
2.0611476167532
20
-4.11155780381549
30
0
41
1
10
2.05456748997628
20
-4.11309531082375
30
0
41
1
10
2.04251334872998
20
-4.11604254435767
30
0
41
1
10
2.03701135023763
20
-4.11745823465896
30
0
41
1
10
2.02211580327756
20
-4.12151925376634
30
0
41
1
10
2.01432075482214
20
-4.12397875754212
30
0
41
1
10
2.00618288600714
20
-4.12724594450859
30
0
41
1
10
2.00406578376675
20
-4.12826461347731
30
0
41
1
10
2.00109154368988
20
-4.13015142640822
30
0
41
1
10
2.00024414505555
20
-4.13101815033875
30
0
41
1
10
1.99962889019105
20
-4.13333466844898
30
0
41
1
10
2.00175561846027
20
-4.13452188620698
30
0
41
1
10
2.00815235825917
20
-4.13579276147178
30
0
41
1
10
2.01081695558221
20
-4.13613133120126
30
0
41
1
10
2.0171159250682
20
-4.13664184043677
30
0
41
1
10
2.02076314056569
20
-4.13681393118085
30
0
41
1
10
2.02719591946274
20
-4.13695611751223
30
0
41
1
10
2.02970461004895
20
-4.13698072055621
30
0
41
1
10
2.03234447434514
20
-4.13697853951592
30
0
0
SPLINE
5
BF
100
AcDbEntity
8
1
62
256
6
ByLayer
370
18
48
1
60
0
100
AcDbSpline
70
4
71
3
72
25
73
21
40
0
40
0
40
0
40
0
40
0.0807344678921304
40
0.0807344678921304
40
0.118960766759215
40
0.118960766759215
40
0.157187065626297
40
0.233639663360461
40
0.233639663360461
40
0.386544858828795
40
0.386544858828795
40
0.539450054297128
40
0.539450054297128
40
0.692355249765461
40
0.692355249765461
40
0.845260445233794
40
0.845260445233794
40
0.998165640702128
40
0.998165640702128
40
1
40
1
40
1
40
1
41
1
10
2.08887744672876
20
-4.13455261231542
30
0
41
1
10
2.10329491152876
20
-4.13356208418651
30
0
41
1
10
2.11915882360853
20
-4.13228914755848
30
0
41
1
10
2.14446688008439
20
-4.13005281920812
30
0
41
1
10
2.15288017280511
20
-4.12927933739002
30
0
41
1
10
2.17008738611565
20
-4.12764132292432
30
0
41
1
10
2.19651998039876
20
-4.12504300365836
30
0
41
1
10
2.22455025816487
20
-4.12204982526356
30
0
41
1
10
2.28212525707522
20
-4.11557845198652
30
0
41
1
10
2.32250266463524
20
-4.11062404765798
30
0
41
1
10
2.40471591272768
20
-4.09943853789224
30
0
41
1
10
2.44654760980615
20
-4.09320196779467
30
0
41
1
10
2.5300380820826
20
-4.07929606920427
30
0
41
1
10
2.57168937826705
20
-4.07162031077655
30
0
41
1
10
2.65433942523708
20
-4.05471386925785
30
0
41
1
10
2.69536224676085
20
-4.04548347075607
30
0
41
1
10
2.77712703440463
20
-4.02547991309754
30
0
41
1
10
2.81790322469473
20
-4.01470563941282
30
0
41
1
10
2.85911279131267
20
-4.00310601655229
30
0
41
1
10
2.8596013066215
20
-4.00296840901041
30
0
41
1
10
2.86008981872209
20
-4.00283070164511
30
0
0
SPLINE
5
C0
100
AcDbEntity
8
1
62
256
6
ByLayer
370
18
48
1
60
0
100
AcDbSpline
70
4
71
3
72
50
73
46
40
0
40
0
40
0
40
0
40
0.0232785768428679
40
0.0232785768428679
40
0.104672028772625
40
0.104672028772625
40
0.145368754737503
40
0.145368754737503
40
0.186065480702381
40
0.186065480702381
40
0.267458932632142
40
0.267458932632142
40
0.30815565859702
40
0.30815565859702
40
0.348852384561898
40
0.348852384561898
40
0.389549110526776
40
0.389549110526776
40
0.409897473509216
40
0.409897473509216
40
0.430245836491655
40
0.430245836491655
40
0.511639288421419
40
0.511639288421419
40
0.593032740351183
40
0.593032740351183
40
0.633729466316065
40
0.633729466316065
40
0.674426192280947
40
0.674426192280947
40
0.694774555263388
40
0.694774555263388
40
0.715122918245829
40
0.715122918245829
40
0.755819644210711
40
0.755819644210711
40
0.837213096140475
40
0.837213096140475
40
0.918606548070239
40
0.918606548070239
40
0.938954911052681
40
0.938954911052681
40
0.959303274035122
40
0.959303274035122
40
1
40
1
40
1
40
1
41
1
10
28.6378267434396
20
2.79551991171877
30
0
41
1
10
28.700655313441
20
2.82106958990352
30
0
41
1
10
28.7634941397525
20
2.84631245587903
30
0
41
1
10
29.0460487069193
20
2.95851101073825
30
0
41
1
10
29.2657683600176
20
3.04219021278465
30
0
41
1
10
29.5951633609981
20
3.16247957995338
30
0
41
1
10
29.7049331566447
20
3.20169904893407
30
0
41
1
10
29.9244416262625
20
3.27831346113925
30
0
41
1
10
30.0341136843261
20
3.3157785010479
30
0
41
1
10
30.364102340333
20
3.42425765707765
30
0
41
1
10
30.5852239036801
20
3.49159659473159
30
0
41
1
10
30.9178595462655
20
3.58600735198945
30
0
41
1
10
31.028905567116
20
3.61636400701516
30
0
41
1
10
31.251273273548
20
3.67488182148759
30
0
41
1
10
31.3626922545188
20
3.70305938070362
30
0
41
1
10
31.584764369111
20
3.75694127129839
30
0
41
1
10
31.6955228409772
20
3.7826781155679
30
0
41
1
10
31.8612575547936
20
3.81945021599108
30
0
41
1
10
31.9164350579457
20
3.83140213843848
30
0
41
1
10
32.0266606893241
20
3.85468749417271
30
0
41
1
10
32.0817104217508
20
3.86601882679503
30
0
41
1
10
32.3569825831243
20
3.92089479654356
30
0
41
1
10
32.5773985197849
20
3.95907112139744
30
0
41
1
10
33.0176130562876
20
4.02513037419578
30
0
41
1
10
33.2374227322457
20
4.05298742771564
30
0
41
1
10
33.5664101357365
20
4.0871004996601
30
0
41
1
10
33.6759532708898
20
4.09718766554715
30
0
41
1
10
33.8948047493911
20
4.11475493283325
30
0
41
1
10
34.0040866481631
20
4.12223908722197
30
0
41
1
10
34.1679609806148
20
4.13144940660038
30
0
41
1
10
34.222603814407
20
4.13417879703397
30
0
41
1
10
34.3320098216456
20
4.13895092101785
30
0
41
1
10
34.3867610035884
20
4.14099606306186
30
0
41
1
10
34.5511302193186
20
4.14612508881777
30
0
41
1
10
34.660859613151
20
4.14820461526423
30
0
41
1
10
34.9903127298219
20
4.15048126378301
30
0
41
1
10
35.2102980025881
20
4.14672990291214
30
0
41
1
10
35.6505266130401
20
4.12849375852576
30
0
41
1
10
35.8707654161615
20
4.11399394390051
30
0
41
1
10
36.1463131451868
20
4.08883355642522
30
0
41
1
10
36.20144038094
20
4.08344980137218
30
0
41
1
10
36.3118677154915
20
4.07202489388581
30
0
41
1
10
36.3671727507717
20
4.06598666641537
30
0
41
1
10
36.5333336153572
20
4.04689600779449
30
0
41
1
10
36.6444331072368
20
4.03286889735807
30
0
41
1
10
36.7557855879186
20
4.01752040014875
30
0
0
SPLINE
5
C1
100
AcDbEntity
8
1
62
256
6
ByLayer
370
18
48
1
60
0
100
AcDbSpline
70
4
71
3
72
108
73
104
40
0
40
0
40
0
40
0
40
0.0184316673970051
40
0.0184316673970051
40
0.0293379822037054
40
0.0293379822037054
40
0.0402442970104059
40
0.0402442970104059
40
0.0620569266238067
40
0.0620569266238067
40
0.0838695562372074
40
0.0838695562372074
40
0.0947758710439078
40
0.0947758710439078
40
0.105682185850608
40
0.105682185850608
40
0.127494815464009
40
0.127494815464009
40
0.14930744507741
40
0.14930744507741
40
0.171120074690811
40
0.171120074690811
40
0.192932704304211
40
0.192932704304211
40
0.203839019110913
40
0.203839019110913
40
0.214745333917614
40
0.214745333917614
40
0.25837059314442
40
0.25837059314442
40
0.280183222757822
40
0.280183222757822
40
0.291089537564523
40
0.291089537564523
40
0.301995852371223
40
0.301995852371223
40
0.345621111598026
40
0.345621111598026
40
0.389246370824828
40
0.389246370824828
40
0.400152685631528
40
0.400152685631528
40
0.411059000438229
40
0.411059000438229
40
0.432871630051629
40
0.432871630051629
40
0.45468425966503
40
0.45468425966503
40
0.47649688927843
40
0.47649688927843
40
0.48740320408513
40
0.48740320408513
40
0.49830951889183
40
0.49830951889183
40
0.509215833698529
40
0.509215833698529
40
0.520122148505229
40
0.54193477811863
40
0.54193477811863
40
0.55284109292533
40
0.55284109292533
40
0.56374740773203
40
0.56374740773203
40
0.58556003734543
40
0.58556003734543
40
0.596466352152129
40
0.596466352152129
40
0.607372666958829
40
0.607372666958829
40
0.650997926185627
40
0.650997926185627
40
0.672810555799027
40
0.672810555799027
40
0.694623185412427
40
0.694623185412427
40
0.705529500219126
40
0.705529500219126
40
0.716435815025826
40
0.738248444639225
40
0.738248444639225
40
0.760061074252624
40
0.760061074252624
40
0.781873703866023
40
0.781873703866023
40
0.792780018672722
40
0.792780018672722
40
0.803686333479422
40
0.803686333479422
40
0.82549896309282
40
0.82549896309282
40
0.847311592706218
40
0.847311592706218
40
0.869124222319616
40
0.869124222319616
40
0.890936851933014
40
0.890936851933014
40
0.901843166739712
40
0.901843166739712
40
0.912749481546411
40
0.912749481546411
40
0.956374740773206
40
0.956374740773206
40
1
40
1
40
1
40
1
41
1
10
28.6379881865021
20
-2.80353346368966
30
0
41
1
10
28.5119969780289
20
-2.85534425629592
30
0
41
1
10
28.3857586720765
20
-2.90588342663634
30
0
41
1
10
28.1843426316239
20
-2.98419603664988
30
0
41
1
10
28.1093684684511
20
-3.01284976299624
30
0
41
1
10
27.95922447757
20
-3.06924188615915
30
0
41
1
10
27.8841963429114
20
-3.09692690819904
30
0
41
1
10
27.6593549459765
20
-3.17842751802092
30
0
41
1
10
27.5097281993621
20
-3.23070052753917
30
0
41
1
10
27.2110949995335
20
-3.33129251109989
30
0
41
1
10
27.0620891224673
20
-3.37961358691794
30
0
41
1
10
26.8391825337813
20
-3.44926048481858
30
0
41
1
10
26.764991855379
20
-3.47201392146985
30
0
41
1
10
26.6167896544014
20
-3.51653894276009
30
0
41
1
10
26.5427420874628
20
-3.53827329895964
30
0
41
1
10
26.3205374808648
20
-3.60169038854192
30
0
41
1
10
26.1723884492525
20
-3.64166080885721
30
0
41
1
10
25.8760690370475
20
-3.71708891244913
30
0
41
1
10
25.7278980639166
20
-3.75254614568252
30
0
41
1
10
25.4315485202924
20
-3.81900599826886
30
0
41
1
10
25.2833714818587
20
-3.85001166813788
30
0
41
1
10
24.987143041718
20
-3.90764308642378
30
0
41
1
10
24.8390938598712
20
-3.934271525772
30
0
41
1
10
24.6172638991542
20
-3.97092990644268
30
0
41
1
10
24.5433472697572
20
-3.98259107034588
30
0
41
1
10
24.395332675329
20
-4.0046722974503
30
0
41
1
10
24.321251756487
20
-4.01510287633957
30
0
41
1
10
23.9504805300234
20
-4.06422735000501
30
0
41
1
10
23.6526743082197
20
-4.09386580789609
30
0
41
1
10
23.2043240475898
20
-4.12389407366737
30
0
41
1
10
23.0546109248473
20
-4.13149623698647
30
0
41
1
10
22.8297567144989
20
-4.13922086651613
30
0
41
1
10
22.7547024228819
20
-4.14118226331871
30
0
41
1
10
22.6049498859846
20
-4.14384781548742
30
0
41
1
10
22.5302362379451
20
-4.14455214590612
30
0
41
1
10
22.1568595380717
20
-4.14491754624524
30
0
41
1
10
21.8587583462939
20
-4.1351873313811
30
0
41
1
10
21.2637376135261
20
-4.0966597110185
30
0
41
1
10
20.9667636854915
20
-4.06791238868166
30
0
41
1
10
20.5969891637813
20
-4.01974526967808
30
0
41
1
10
20.5231311276228
20
-4.00948329659064
30
0
41
1
10
20.3754230355006
20
-3.98777721995361
30
0
41
1
10
20.3015446749935
20
-3.97634818957749
30
0
41
1
10
20.0797930989471
20
-3.9403743457342
30
0
41
1
10
19.931820940228
20
-3.9141360527972
30
0
41
1
10
19.635609640297
20
-3.8572126835312
30
0
41
1
10
19.4873678888868
20
-3.82652962469783
30
0
41
1
10
19.1906421351628
20
-3.76071686944403
30
0
41
1
10
19.0421620802838
20
-3.72558625830055
30
0
41
1
10
18.8193701650374
20
-3.66942476706498
30
0
41
1
10
18.7450949880269
20
-3.65012523485691
30
0
41
1
10
18.5965466748939
20
-3.61032884146513
30
0
41
1
10
18.5222881484972
20
-3.58981779214864
30
0
41
1
10
18.3737201135096
20
-3.5476250649231
30
0
41
1
10
18.2993723194477
20
-3.5259798477974
30
0
41
1
10
18.1504381310747
20
-3.48170508640695
30
0
41
1
10
17.9267225196637
20
-3.41377441837093
30
0
41
1
10
17.7020690790059
20
-3.34131087287884
30
0
41
1
10
17.4767958666085
20
-3.26581779032111
30
0
41
1
10
17.4016572050817
20
-3.24016674453387
30
0
41
1
10
17.2516410500154
20
-3.18801150187736
30
0
41
1
10
17.1767128572915
20
-3.16148954106424
30
0
41
1
10
16.9521887649325
20
-3.0805703482485
30
0
41
1
10
16.8028498248037
20
-3.02482668583764
30
0
41
1
10
16.5794900158681
20
-2.9383331525091
30
0
41
1
10
16.5051522189258
20
-2.90901176903657
30
0
41
1
10
16.3566925007789
20
-2.84940187826999
30
0
41
1
10
16.2825391392284
20
-2.8191551789744
30
0
41
1
10
15.9117042008923
20
-2.66634605054162
30
0
41
1
10
15.6151182500247
20
-2.53867484687834
30
0
41
1
10
15.1703978573742
20
-2.33926448649686
30
0
41
1
10
15.0221860469164
20
-2.27147158302407
30
0
41
1
10
14.7259467168056
20
-2.13303715456871
30
0
41
1
10
14.5779193418821
20
-2.06239620192415
30
0
41
1
10
14.356170143811
20
-1.95400728532943
30
0
41
1
10
14.2823013383799
20
-1.91747282151425
30
0
41
1
10
14.1344088234863
20
-1.84400160076115
30
0
41
1
10
13.9123754370057
20
-1.73313225552781
30
0
41
1
10
13.6897611121719
20
-1.62029797162918
30
0
41
1
10
13.392436206449
20
-1.46810927174303
30
0
41
1
10
13.2435158078927
20
-1.39115265223978
30
0
41
1
10
12.9452097850789
20
-1.2354153866244
30
0
41
1
10
12.7958278435565
20
-1.15662927790356
30
0
41
1
10
12.5715211831573
20
-1.03682811636975
30
0
41
1
10
12.4967141629
20
-0.996622021154792
30
0
41
1
10
12.3470477593373
20
-0.91560621831141
30
0
41
1
10
12.2721643222209
20
-0.874735450072308
30
0
41
1
10
12.0474549894094
20
-0.751916537710741
30
0
41
1
10
11.8977547901087
20
-0.670008936404003
30
0
41
1
10
11.5985508765865
20
-0.506156101200418
30
0
41
1
10
11.4490488921465
20
-0.424207657767397
30
0
41
1
10
11.1502496849159
20
-0.260251925940992
30
0
41
1
10
11.0009466082465
20
-0.178255314111709
30
0
41
1
10
10.7026470432633
20
-0.0140143348049264
30
0
41
1
10
10.5536499751325
20
0.0682290643307226
30
0
41
1
10
10.3305324426564
20
0.192047701299515
30
0
41
1
10
10.2562447539218
20
0.233435897723297
30
0
41
1
10
10.1076736731295
20
0.316139826792806
30
0
41
1
10
10.0333577923262
20
0.357396297850499
30
0
41
1
10
9.66152010024473
20
0.563008573450674
30
0
41
1
10
9.36331492178397
20
0.725523709280196
30
0
41
1
10
8.7655609843145
20
1.04685196727795
30
0
41
1
10
8.46602373561515
20
1.20568919086253
30
0
41
1
10
8.16647949128361
20
1.36384019952763
30
0
0
SPLINE
5
C2
100
AcDbEntity
8
1
62
256
6
ByLayer
370
18
48
1
60
0
100
AcDbSpline
70
4
71
3
72
74
73
70
40
0
40
0
40
0
40
0
40
0.0530264862211074
40
0.0530264862211074
40
0.106052972442215
40
0.106052972442215
40
0.159079458663322
40
0.159079458663322
40
0.212105944884429
40
0.212105944884429
40
0.238619187994984
40
0.238619187994984
40
0.265132431105538
40
0.265132431105538
40
0.318158917326647
40
0.318158917326647
40
0.371185403547756
40
0.371185403547756
40
0.424211889768864
40
0.424211889768864
40
0.45072513287942
40
0.45072513287942
40
0.477238375989975
40
0.477238375989975
40
0.490494997545252
40
0.490494997545252
40
0.50375161910053
40
0.50375161910053
40
0.517008240655807
40
0.517008240655807
40
0.530264862211085
40
0.530264862211085
40
0.543521483766362
40
0.543521483766362
40
0.55677810532164
40
0.55677810532164
40
0.570034726876917
40
0.570034726876917
40
0.583291348432195
40
0.583291348432195
40
0.609804591542751
40
0.609804591542751
40
0.636317834653308
40
0.636317834653308
40
0.662831077763864
40
0.662831077763864
40
0.689344320874421
40
0.689344320874421
40
0.742370807095532
40
0.742370807095532
40
0.795397293316644
40
0.795397293316644
40
0.8219105364272
40
0.8219105364272
40
0.848423779537756
40
0.848423779537756
40
0.861680401093033
40
0.861680401093033
40
0.874937022648311
40
0.874937022648311
40
0.901450265758867
40
0.901450265758867
40
0.927963508869423
40
0.927963508869423
40
0.954476751979978
40
0.954476751979978
40
0.980989995090534
40
0.980989995090534
40
1
40
1
40
1
40
1
41
1
10
15.6007862042393
20
3.48954736837746
30
0
41
1
10
15.3904432423616
20
3.55474518951374
30
0
41
1
10
15.1803357879986
20
3.6151157360469
30
0
41
1
10
14.7604631818851
20
3.72632016705432
30
0
41
1
10
14.5507134439569
20
3.77715203893683
30
0
41
1
10
14.1308685306529
20
3.86890244459733
30
0
41
1
10
13.9207354540831
20
3.90978712017343
30
0
41
1
10
13.4990174346123
20
3.9813069264782
30
0
41
1
10
13.2874432589601
20
4.01195404287986
30
0
41
1
10
12.9684479833537
20
4.05039342871692
30
0
41
1
10
12.861842943471
20
4.06195218819883
30
0
41
1
10
12.6479425540642
20
4.08259453602182
30
0
41
1
10
12.5405935147596
20
4.09167928528106
30
0
41
1
10
12.218304043831
20
4.11524277953478
30
0
41
1
10
12.0027937320609
20
4.12604832203709
30
0
41
1
10
11.5695572062624
20
4.13909439920204
30
0
41
1
10
11.3518604320666
20
4.14134059048118
30
0
41
1
10
10.9134006076632
20
4.13887749353896
30
0
41
1
10
10.6926064233672
20
4.13417481556544
30
0
41
1
10
10.3584944340754
20
4.12336015295364
30
0
41
1
10
10.2466393246484
20
4.11913005685292
30
0
41
1
10
10.0218800891664
20
4.10967391906709
30
0
41
1
10
9.90896611732035
20
4.1044527715645
30
0
41
1
10
9.73886637913927
20
4.09602462719778
30
0
41
1
10
9.6820431448462
20
4.09311674620622
30
0
41
1
10
9.56826627968593
20
4.08708059366879
30
0
41
1
10
9.51130700541293
20
4.08395593570589
30
0
41
1
10
9.39761399401627
20
4.07734056422422
30
0
41
1
10
9.3408856897359
20
4.0738498360999
30
0
41
1
10
9.22837027937493
20
4.06612840038488
30
0
41
1
10
9.17261871212565
20
4.06187991727847
30
0
41
1
10
9.06245796648784
20
4.05230477104101
30
0
41
1
10
9.00805037874898
20
4.04696800393481
30
0
41
1
10
8.89968773002903
20
4.03553285266594
30
0
41
1
10
8.84567388442099
20
4.02946481024296
30
0
41
1
10
8.73697818235016
20
4.01721636147605
30
0
41
1
10
8.68230490132265
20
4.01103736439535
30
0
41
1
10
8.57207699736364
20
3.99881331609049
30
0
41
1
10
8.51654073300921
20
3.99275879052678
30
0
41
1
10
8.34875587035421
20
3.97485916543496
30
0
41
1
10
8.23534581440066
20
3.96327541936918
30
0
41
1
10
8.00589668646893
20
3.94109380358719
30
0
41
1
10
7.88984801871032
20
3.93049714399658
30
0
41
1
10
7.65512987166477
20
3.9107618738168
30
0
41
1
10
7.53645194540073
20
3.90163206773158
30
0
41
1
10
7.29671484772035
20
3.885016861726
30
0
41
1
10
7.17668254171619
20
3.87759044134018
30
0
41
1
10
6.8163486453806
20
3.85800367532801
30
0
41
1
10
6.57571354959532
20
3.84856647640314
30
0
41
1
10
6.09374465380472
20
3.8367726900652
30
0
41
1
10
5.8524071739638
20
3.83443993909086
30
0
41
1
10
5.48990421179099
20
3.83612486504001
30
0
41
1
10
5.36898856696598
20
3.83752940371105
30
0
41
1
10
5.12699762749003
20
3.84195873514272
30
0
41
1
10
5.00592200806767
20
3.84498737989523
30
0
41
1
10
4.82417730771249
20
3.85080545063218
30
0
41
1
10
4.76357376204686
20
3.85295794776545
30
0
41
1
10
4.64232061562271
20
3.85769535707982
30
0
41
1
10
4.58169994533665
20
3.860279453826
30
0
41
1
10
4.40029997708612
20
3.86865152668824
30
0
41
1
10
4.27981812442803
20
3.87506523905989
30
0
41
1
10
4.03981044779246
20
3.88946672271516
30
0
41
1
10
3.92028301301525
20
3.89745276106467
30
0
41
1
10
3.68229552257452
20
3.91493710105408
30
0
41
1
10
3.563713079308
20
3.92444502135154
30
0
41
1
10
3.32943857847027
20
3.94484149707168
30
0
41
1
10
3.21357098791026
20
3.9557402857387
30
0
41
1
10
3.01759937248428
20
3.97575573960026
30
0
41
1
10
2.93664817924434
20
3.98450926007641
30
0
41
1
10
2.85690292096211
20
3.99368063720502
30
0
0
SPLINE
5
C3
100
AcDbEntity
8
1
62
256
6
ByLayer
370
18
48
1
60
0
100
AcDbSpline
70
4
71
3
72
57
73
53
40
0
40
0
40
0
40
0
40
0.0079811532232367
40
0.0079811532232367
40
0.0305270361045324
40
0.0305270361045324
40
0.0361635068248557
40
0.0361635068248557
40
0.0417999775451793
40
0.0530729189858249
40
0.0530729189858249
40
0.0756188018671149
40
0.0756188018671149
40
0.0981646847484045
40
0.0981646847484045
40
0.120710567629694
40
0.120710567629694
40
0.143256450510984
40
0.143256450510984
40
0.165802333392274
40
0.165802333392274
40
0.188348216273564
40
0.188348216273564
40
0.233439982036143
40
0.233439982036143
40
0.278531747798723
40
0.278531747798723
40
0.323623513561302
40
0.323623513561302
40
0.368715279323882
40
0.368715279323882
40
0.413807045086461
40
0.413807045086461
40
0.458898810849041
40
0.458898810849041
40
0.481444693730331
40
0.481444693730331
40
0.503990576611622
40
0.503990576611622
40
0.549082342374202
40
0.549082342374202
40
0.639265873899361
40
0.639265873899361
40
0.72944940542452
40
0.72944940542452
40
0.819632936949678
40
0.819632936949678
40
0.864724702712259
40
0.864724702712259
40
0.909816468474839
40
0.909816468474839
40
1
40
1
40
1
40
1
41
1
10
2.03234447166352
20
4.13697853951814
30
0
41
1
10
2.03874499083435
20
4.13697325149087
30
0
41
1
10
2.04591661592735
20
4.13681051296547
30
0
41
1
10
2.07598079404534
20
4.13564230386262
30
0
41
1
10
2.10380501496175
20
4.13364587590286
30
0
41
1
10
2.14446688008547
20
4.13005281920803
30
0
41
1
10
2.15288017280622
20
4.1292793373899
30
0
41
1
10
2.17008738611679
20
4.12764132292421
30
0
41
1
10
2.19651998039993
20
4.12504300365825
30
0
41
1
10
2.22455025816606
20
4.12204982526342
30
0
41
1
10
2.28212525707644
20
4.11557845198638
30
0
41
1
10
2.32250266463652
20
4.11062404765781
30
0
41
1
10
2.40471591272896
20
4.09943853789204
30
0
41
1
10
2.44654760980742
20
4.09320196779447
30
0
41
1
10
2.53003808208385
20
4.07929606920405
30
0
41
1
10
2.57168937826828
20
4.07162031077632
30
0
41
1
10
2.65433942523828
20
4.05471386925757
30
0
41
1
10
2.69536224676204
20
4.04548347075576
30
0
41
1
10
2.77712703440579
20
4.02547991309723
30
0
41
1
10
2.8179032246959
20
4.01470563941254
30
0
41
1
10
2.89934532071851
20
3.9917814090368
30
0
41
1
10
2.94004345468244
20
3.97962537711601
30
0
41
1
10
3.06222474264507
20
3.94115519934812
30
0
41
1
10
3.14373055372954
20
3.91282243015868
30
0
41
1
10
3.30708821526937
20
3.85103747768252
30
0
41
1
10
3.38899263936972
20
3.81758987906179
30
0
41
1
10
3.55490713770959
20
3.74649705106546
30
0
41
1
10
3.63897640234569
20
3.70888670177112
30
0
41
1
10
3.80988007228089
20
3.63019827046503
30
0
41
1
10
3.89665130053834
20
3.58909876365311
30
0
41
1
10
4.07247773812759
20
3.50357123032839
30
0
41
1
10
4.16151511999283
20
3.45913008510544
30
0
41
1
10
4.3418666918657
20
3.3671824746859
30
0
41
1
10
4.43319617457917
20
3.31968078010593
30
0
41
1
10
4.57225398186267
20
3.24654350605815
30
0
41
1
10
4.61888234660503
20
3.22188771873374
30
0
41
1
10
4.71241679357698
20
3.17226377744657
30
0
41
1
10
4.75936918052787
20
3.14727141644016
30
0
41
1
10
4.90081573958801
20
3.07184885006441
30
0
41
1
10
4.99590415503192
20
3.02097942447799
30
0
41
1
10
5.28358823129156
20
2.86711961849449
30
0
41
1
10
5.4785976451887
20
2.76289829763672
30
0
41
1
10
5.87439223205993
20
2.55239440143865
30
0
41
1
10
6.07516434609835
20
2.44608885512937
30
0
41
1
10
6.4818736233434
20
2.23207810202501
30
0
41
1
10
6.68781593510778
20
2.12437431328857
30
0
41
1
10
7.00023242086277
20
1.96205778887332
30
0
41
1
10
7.10495513291969
20
1.90782266367455
30
0
41
1
10
7.31550706875478
20
1.79911191516894
30
0
41
1
10
7.4212282754678
20
1.74469194525972
30
0
41
1
10
7.73913171429598
20
1.58150489173275
30
0
41
1
10
7.95226747947353
20
1.47270068027319
30
0
41
1
10
8.16645866859872
20
1.36383270631066
30
0
0
SPLINE
5
C4
100
AcDbEntity
8
1
62
256
6
ByLayer
370
18
48
1
60
0
100
AcDbSpline
70
4
71
3
72
105
73
101
40
0
40
0
40
0
40
0
40
0.0343182675896994
40
0.0343182675896994
40
0.0686365351793988
40
0.0686365351793988
40
0.102954802769098
40
0.102954802769098
40
0.111534369666523
40
0.111534369666523
40
0.120113936563948
40
0.137273070358797
40
0.137273070358797
40
0.171591337948494
40
0.171591337948494
40
0.205909605538192
40
0.205909605538192
40
0.223068739333041
40
0.223068739333041
40
0.24022787312789
40
0.24022787312789
40
0.257387006922739
40
0.257387006922739
40
0.265966573820164
40
0.265966573820164
40
0.274546140717588
40
0.274546140717588
40
0.308864408307286
40
0.308864408307286
40
0.31744397520471
40
0.31744397520471
40
0.326023542102135
40
0.326023542102135
40
0.343182675896982
40
0.343182675896982
40
0.377500943486676
40
0.377500943486676
40
0.411819211076371
40
0.411819211076371
40
0.420398777973794
40
0.420398777973794
40
0.428978344871217
40
0.428978344871217
40
0.446137478666063
40
0.446137478666063
40
0.480455746255756
40
0.480455746255756
40
0.514774013845449
40
0.514774013845449
40
0.531933147640295
40
0.531933147640295
40
0.540512714537717
40
0.540512714537717
40
0.549092281435139
40
0.549092281435139
40
0.583410549024828
40
0.583410549024828
40
0.617728816614518
40
0.617728816614518
40
0.634887950409363
40
0.634887950409363
40
0.643467517306785
40
0.643467517306785
40
0.652047084204208
40
0.652047084204208
40
0.686365351793897
40
0.686365351793897
40
0.720683619383586
40
0.720683619383586
40
0.737842753178432
40
0.737842753178432
40
0.755001886973278
40
0.755001886973278
40
0.789320154562969
40
0.789320154562969
40
0.806479288357814
40
0.806479288357814
40
0.823638422152658
40
0.823638422152658
40
0.840797555947503
40
0.840797555947503
40
0.849377122844926
40
0.849377122844926
40
0.857956689742348
40
0.857956689742348
40
0.892274957332041
40
0.892274957332041
40
0.926593224921734
40
0.926593224921734
40
0.94375235871658
40
0.94375235871658
40
0.960911492511427
40
0.960911492511427
40
0.969491059408851
40
0.969491059408851
40
0.978070626306275
40
0.978070626306275
40
0.995229760101123
40
0.995229760101123
40
1
40
1
40
1
40
1
41
1
10
15.6008203576665
20
3.48955455103712
30
0
41
1
10
15.8225810994839
20
3.42246560769152
30
0
41
1
10
16.0443537321871
20
3.35177133439348
30
0
41
1
10
16.4871800673404
20
3.20281833672556
30
0
41
1
10
16.7081923263758
20
3.12450480672823
30
0
41
1
10
17.1488709384438
20
2.95959224537282
30
0
41
1
10
17.3685448450606
20
2.87299094234928
30
0
41
1
10
17.6423871431711
20
2.75956687407506
30
0
41
1
10
17.6971243765184
20
2.73663125014443
30
0
41
1
10
17.8066734750721
20
2.69045054495669
30
0
41
1
10
17.9711189370445
20
2.62073046073544
30
0
41
1
10
18.1358401965391
20
2.54957104792666
30
0
41
1
10
18.465432694036
20
2.40506226088314
30
0
41
1
10
18.6853652866669
20
2.30581778930849
30
0
41
1
10
19.1251196116382
20
2.10069001840446
30
0
41
1
10
19.3449452061904
20
1.99480425653599
30
0
41
1
10
19.6746388834883
20
1.83084635273869
30
0
41
1
10
19.7844967469001
20
1.77527613656849
30
0
41
1
10
20.0049515822095
20
1.66369466928046
30
0
41
1
10
20.1154769438165
20
1.60756857246196
30
0
41
1
10
20.3369663124375
20
1.49439568493528
30
0
41
1
10
20.4479301090813
20
1.43734787113186
30
0
41
1
10
20.6146462887453
20
1.35097665549623
30
0
41
1
10
20.6702634439106
20
1.3220528168514
30
0
41
1
10
20.781578639193
20
1.26391850393085
30
0
41
1
10
20.8373059505745
20
1.23469190764848
30
0
41
1
10
21.1155567353005
20
1.08812435456008
30
0
41
1
10
21.3371821831766
20
0.969295929805128
30
0
41
1
10
21.6129679840378
20
0.818745673556833
30
0
41
1
10
21.668061018841
20
0.78853152911546
30
0
41
1
10
21.7781453163918
20
0.727944443744832
30
0
41
1
10
21.8331430024848
20
0.697583476036471
30
0
41
1
10
21.9982120211417
20
0.606686702225375
30
0
41
1
10
22.1083305306692
20
0.546283291131232
30
0
41
1
10
22.4386797460974
20
0.365235718674001
30
0
41
1
10
22.6588764064616
20
0.244702126083126
30
0
41
1
10
23.0985730856521
20
0.0028035595340157
30
0
41
1
10
23.3180798643161
20
-0.118548314683807
30
0
41
1
10
23.5919725605032
20
-0.270851648806541
30
0
41
1
10
23.64672842076
20
-0.30133953519524
30
0
41
1
10
23.7561978575698
20
-0.362363816215463
30
0
41
1
10
23.8109038574011
20
-0.392914100432137
30
0
41
1
10
23.9751033017909
20
-0.484371430661412
30
0
41
1
10
24.0847789599935
20
-0.544900154628095
30
0
41
1
10
24.4143732309178
20
-0.725273765766246
30
0
41
1
10
24.6347448685301
20
-0.844116523236096
30
0
41
1
10
25.0760627347608
20
-1.08028886618919
30
0
41
1
10
25.2970131452105
20
-1.19761020998109
30
0
41
1
10
25.6287824255563
20
-1.37260134899483
30
0
41
1
10
25.7394234590222
20
-1.43077728310539
30
0
41
1
10
25.9055486443509
20
-1.51764956687597
30
0
41
1
10
25.9609655881559
20
-1.54651519580301
30
0
41
1
10
26.0720117226859
20
-1.60383009551543
30
0
41
1
10
26.1275706301155
20
-1.63226864305148
30
0
41
1
10
26.4052001205645
20
-1.77331523063904
30
0
41
1
10
26.6270337850074
20
-1.88273711808756
30
0
41
1
10
27.0694236295656
20
-2.0962943619835
30
0
41
1
10
27.2899804699991
20
-2.20041643149889
30
0
41
1
10
27.6197066594208
20
-2.35280084683353
30
0
41
1
10
27.729435567554
20
-2.40295226225754
30
0
41
1
10
27.8937762782273
20
-2.47716881958968
30
0
41
1
10
27.9485110955194
20
-2.50174357352759
30
0
41
1
10
28.0580182341131
20
-2.55037548693824
30
0
41
1
10
28.1128047862421
20
-2.57441235380122
30
0
41
1
10
28.38690159612
20
-2.69322209162249
30
0
41
1
10
28.6066172398905
20
-2.78401878414047
30
0
41
1
10
29.0460487069193
20
-2.95851101073828
30
0
41
1
10
29.2657683600175
20
-3.04219021278465
30
0
41
1
10
29.5951633609981
20
-3.16247957995338
30
0
41
1
10
29.7049331566447
20
-3.20169904893407
30
0
41
1
10
29.9244416262625
20
-3.27831346113925
30
0
41
1
10
30.034113684326
20
-3.3157785010479
30
0
41
1
10
30.364102340333
20
-3.42425765707765
30
0
41
1
10
30.5852239036801
20
-3.49159659473156
30
0
41
1
10
30.9178595462655
20
-3.58600735198945
30
0
41
1
10
31.028905567116
20
-3.61636400701516
30
0
41
1
10
31.251273273548
20
-3.67488182148759
30
0
41
1
10
31.3626922545188
20
-3.70305938070362
30
0
41
1
10
31.584764369111
20
-3.75694127129839
30
0
41
1
10
31.6955228409772
20
-3.78267811556793
30
0
41
1
10
31.8612575547937
20
-3.81945021599108
30
0
41
1
10
31.9164350579457
20
-3.83140213843848
30
0
41
1
10
32.0266606893241
20
-3.85468749417271
30
0
41
1
10
32.0817104217508
20
-3.86601882679503
30
0
41
1
10
32.3569825831243
20
-3.92089479654356
30
0
41
1
10
32.577398519785
20
-3.95907112139744
30
0
41
1
10
33.0176130562876
20
-4.02513037419578
30
0
41
1
10
33.2374227322457
20
-4.05298742771564
30
0
41
1
10
33.5664101357365
20
-4.0871004996601
30
0
41
1
10
33.6759532708899
20
-4.09718766554715
30
0
41
1
10
33.8948047493911
20
-4.11475493283325
30
0
41
1
10
34.0040866481631
20
-4.12223908722197
30
0
41
1
10
34.1679609806149
20
-4.13144940660035
30
0
41
1
10
34.222603814407
20
-4.134178797034
30
0
41
1
10
34.3320098216456
20
-4.13895092101785
30
0
41
1
10
34.3867610035884
20
-4.14099606306186
30
0
41
1
10
34.5511302193186
20
-4.14612508881777
30
0
41
1
10
34.6608596131511
20
-4.14820461526423
30
0
41
1
10
34.8012066453579
20
-4.14917446756439
30
0
41
1
10
34.8317427316867
20
-4.14928363220082
30
0
41
1
10
34.8622849846311
20
-4.14929072993752
30
0
0
SPLINE
5
C5
100
AcDbEntity
8
1
62
256
6
ByLayer
370
18
48
1
60
0
100
AcDbSpline
70
4
71
3
72
16
73
12
40
0
40
0
40
0
40
0
40
0.0605413941311954
40
0.138503922254587
40
0.216912259639622
40
0.291176061123748
40
0.364376298483226
40
0.442009299410241
40
0.588558047315609
40
0.792946825042418
40
1
40
1
40
1
40
1
41
1
10
34.5589906192796
20
-0.121463903064466
30
0
41
1
10
34.5633748146283
20
-0.105872072066177
30
0
41
1
10
34.5582808856057
20
-0.0604602371898864
30
0
41
1
10
34.4659464448704
20
0.0123888784914072
30
0
41
1
10
34.3138100376332
20
0.0921386567626428
30
0
41
1
10
34.1153872182615
20
0.180229730466493
30
0
41
1
10
33.8857386378936
20
0.28124629741211
30
0
41
1
10
33.5582619673787
20
0.430842418239195
30
0
41
1
10
33.0942336028705
20
0.653212686427935
30
0
41
1
10
32.4865089272162
20
0.953030666656048
30
0
41
1
10
32.0382850615602
20
1.18273269085438
30
0
41
1
10
31.8124439458269
20
1.30053527831509
30
0
0
SPLINE
5
C6
100
AcDbEntity
8
1
62
256
6
ByLayer
370
18
48
1
60
0
100
AcDbSpline
70
4
71
3
72
15
73
11
40
0
40
0
40
0
40
0
40
0.0455777061709906
40
0.100434090584317
40
0.168513554717516
40
0.255957250438869
40
0.365908484789813
40
0.550497950123237
40
0.78018749291472
40
1
40
1
40
1
40
1
41
1
10
11.1202236038431
20
-0.152493305465299
30
0
41
1
10
11.1232801452558
20
-0.142634821326936
30
0
41
1
10
11.1143358609284
20
-0.113271148869274
30
0
41
1
10
11.0453369329526
20
-0.0526867203720371
30
0
41
1
10
10.9051455582302
20
0.0257511021829373
30
0
41
1
10
10.6781827151034
20
0.1341182221785
30
0
41
1
10
10.3227651448034
20
0.297907161844563
30
0
41
1
10
9.80765242729791
20
0.53507068815702
30
0
41
1
10
9.17382069656898
20
0.844001612683002
30
0
41
1
10
8.7218533143469
20
1.07116399438144
30
0
41
1
10
8.49986938928996
20
1.18472122214837
30
0
0
LINE
5
7D
100
AcDbEntity
8
80
62
256
6
ByLayer
370
18
48
1
60
0
100
AcDbLine
10
0
20
0
30
0
11
-5
21
0
31
0
39
0
210
0
220
0
230
1
0
LINE
5
7E
100
AcDbEntity
8
4
62
256
6
ByLayer
370
18
48
0.05
60
0
100
AcDbLine
10
-5
20
0
30
0
11
44
21
0
31
0
39
0
210
0
220
0
230
1
0
LINE
5
80
100
AcDbEntity
8
SK4
62
256
6
ByLayer
370
18
48
0.05
60
0
100
AcDbLine
10
-45
20
0
30
0
11
44
21
0
31
0
39
0
210
0
220
0
230
1
0
LINE
5
82
100
AcDbEntity
8
81
62
256
6
ByLayer
370
18
48
1
60
0
100
AcDbLine
10
39
20
0
30
0
11
44
21
0
31
0
39
0
210
0
220
0
230
1
0
LINE
5
83
100
AcDbEntity
8
1
62
256
6
ByLayer
370
18
48
1
60
0
100
AcDbLine
10
0
20
4.15
30
0
11
0
21
-4.15
31
0
39
0
210
0
220
0
230
1
0
LINE
5
84
100
AcDbEntity
8
1
62
256
6
ByLayer
370
18
48
1
60
0
100
AcDbLine
10
36.755786
20
-4.15
30
0
11
36.755786
21
-1.391953
31
0
39
0
210
0
220
0
230
1
0
LINE
5
85
100
AcDbEntity
8
1
62
256
6
ByLayer
370
18
48
1
60
0
100
AcDbLine
10
36.755786
20
4.15
30
0
11
36.755786
21
4.01752
31
0
39
0
210
0
220
0
230
1
0
LINE
5
86
100
AcDbEntity
8
1
62
256
6
ByLayer
370
18
48
1
60
0
100
AcDbLine
10
0.4
20
-4.136367
30
0
11
0.4
21
4.136367
31
0
39
0
210
0
220
0
230
1
0
LINE
5
87
100
AcDbEntity
8
SK1
62
256
6
ByLayer
370
18
48
1
60
0
100
AcDbLine
10
0
20
4.15
30
0
11
0
21
-4.15
31
0
39
0
210
0
220
0
230
1
0
LINE
5
89
100
AcDbEntity
8
SK1
62
256
6
ByLayer
370
18
48
1
60
0
100
AcDbLine
10
-40
20
-3.4
30
0
11
-40
21
3.4
31
0
39
0
210
0
220
0
230
1
0
LINE
5
8A
100
AcDbEntity
8
SK1
62
256
6
ByLayer
370
18
48
1
60
0
100
AcDbLine
10
-39.25
20
-4.15
30
0
11
-39.25
21
4.15
31
0
39
0
210
0
220
0
230
1
0
LINE
5
8B
100
AcDbEntity
8
1
62
256
6
ByLayer
370
18
48
1
60
0
100
AcDbLine
10
34.862865
20
-4.14929
30
0
11
36.755786
21
-4.15
31
0
39
0
210
0
220
0
230
1
0
LINE
5
8C
100
AcDbEntity
8
1
62
256
6
ByLayer
370
18
48
1
60
0
100
AcDbLine
10
36.755786
20
4.15
30
0
11
34.862865
21
4.14929
31
0
39
0
210
0
220
0
230
1
0
LINE
5
8D
100
AcDbEntity
8
1
62
256
6
ByLayer
370
18
48
1
60
0
100
AcDbLine
10
0.4
20
4.136367
30
0
11
0
21
4.15
31
0
39
0
210
0
220
0
230
1
0
LINE
5
8E
100
AcDbEntity
8
1
62
256
6
ByLayer
370
18
48
1
60
0
100
AcDbLine
10
0
20
-4.15
30
0
11
0.4
21
-4.136367
31
0
39
0
210
0
220
0
230
1
0
LINE
5
8F
100
AcDbEntity
8
1
62
256
6
ByLayer
370
18
48
1
60
0
100
AcDbLine
10
39
20
0
30
0
11
36.755786
21
4.15
31
0
39
0
210
0
220
0
230
1
0
LINE
5
90
100
AcDbEntity
8
1
62
256
6
ByLayer
370
18
48
1
60
0
100
AcDbLine
10
36.755786
20
-4.15
30
0
11
39
21
0
31
0
39
0
210
0
220
0
230
1
0
LINE
5
91
100
AcDbEntity
8
1
62
256
6
ByLayer
370
18
48
1
60
0
100
AcDbLine
10
0.4
20
-4.136367
30
0
11
2.037844
21
-4.136981
31
0
39
0
210
0
220
0
230
1
0
LINE
5
92
100
AcDbEntity
8
1
62
256
6
ByLayer
370
18
48
1
60
0
100
AcDbLine
10
11.226956
20
-4.140427
30
0
11
22.435976
21
-4.14463
31
0
39
0
210
0
220
0
230
1
0
LINE
5
93
100
AcDbEntity
8
1
62
256
6
ByLayer
370
18
48
1
60
0
100
AcDbLine
10
22.435976
20
4.14463
30
0
11
11.226956
21
4.140427
31
0
39
0
210
0
220
0
230
1
0
LINE
5
94
100
AcDbEntity
8
1
62
256
6
ByLayer
370
18
48
1
60
0
100
AcDbLine
10
2.037844
20
4.136981
30
0
11
0.4
21
4.136367
31
0
39
0
210
0
220
0
230
1
0
LINE
5
95
100
AcDbEntity
8
SK1
62
256
6
ByLayer
370
18
48
1
60
0
100
AcDbLine
10
-39.25
20
-4.15
30
0
11
0
21
-4.15
31
0
39
0
210
0
220
0
230
1
0
LINE
5
96
100
AcDbEntity
8
SK1
62
256
6
ByLayer
370
18
48
1
60
0
100
AcDbLine
10
0
20
4.15
30
0
11
-39.25
21
4.15
31
0
39
0
210
0
220
0
230
1
0
LINE
5
97
100
AcDbEntity
8
SK1
62
256
6
ByLayer
370
18
48
1
60
0
100
AcDbLine
10
-40
20
-3.4
30
0
11
-39.25
21
-4.15
31
0
39
0
210
0
220
0
230
1
0
LINE
5
98
100
AcDbEntity
8
SK1
62
256
6
ByLayer
370
18
48
1
60
0
100
AcDbLine
10
-39.25
20
4.15
30
0
11
-40
21
3.4
31
0
39
0
210
0
220
0
230
1
0
LINE
5
99
100
AcDbEntity
8
SK2
62
256
6
ByLayer
370
13
48
1
60
0
100
AcDbLine
10
-46.5
20
-4.15
30
0
11
-46.5
21
30.932741
31
0
39
0
210
0
220
0
230
1
0
LINE
5
9B
100
AcDbEntity
8
SK2
62
256
6
ByLayer
370
13
48
1
60
0
100
AcDbLine
10
-41.5875
20
4.15
30
0
11
-48.5
21
4.15
31
0
39
0
210
0
220
0
230
1
0
LINE
5
9C
100
AcDbEntity
8
SK2
62
256
6
ByLayer
370
13
48
1
60
0
100
AcDbLine
10
-41.5875
20
-4.15
30
0
11
-48.5
21
-4.15
31
0
39
0
210
0
220
0
230
1
0
LINE
5
9D
100
AcDbEntity
8
1
62
256
6
ByLayer
370
18
48
1
60
1
100
AcDbLine
10
-46.5
20
4.15
30
0
11
-46.039216
21
0.650002
31
0
39
0
210
0
220
0
230
1
0
LINE
5
9E
100
AcDbEntity
8
1
62
256
6
ByLayer
370
18
48
1
60
1
100
AcDbLine
10
-46.039216
20
0.650002
30
0
11
-46.960784
21
0.649998
31
0
39
0
210
0
220
0
230
1
0
LINE
5
9F
100
AcDbEntity
8
1
62
256
6
ByLayer
370
18
48
1
60
1
100
AcDbLine
10
-46.960784
20
0.649998
30
0
11
-46.5
21
4.15
31
0
39
0
210
0
220
0
230
1
0
LINE
5
A0
100
AcDbEntity
8
1
62
256
6
ByLayer
370
18
48
1
60
1
100
AcDbLine
10
-46.5
20
-4.15
30
0
11
-46.960784
21
-0.650002
31
0
39
0
210
0
220
0
230
1
0
LINE
5
A1
100
AcDbEntity
8
1
62
256
6
ByLayer
370
18
48
1
60
1
100
AcDbLine
10
-46.960784
20
-0.650002
30
0
11
-46.039216
21
-0.649998
31
0
39
0
210
0
220
0
230
1
0
LINE
5
A2
100
AcDbEntity
8
1
62
256
6
ByLayer
370
18
48
1
60
1
100
AcDbLine
10
-46.039216
20
-0.649998
30
0
11
-46.5
21
-4.15
31
0
39
0
210
0
220
0
230
1
0
LINE
5
A3
100
AcDbEntity
8
2
62
256
6
ByLayer
370
13
48
1
60
0
100
AcDbLine
10
46.255786
20
-4.15
30
0
11
46.255786
21
30.932741
31
0
39
0
210
0
220
0
230
1
0
LINE
5
A5
100
AcDbEntity
8
2
62
256
6
ByLayer
370
13
48
1
60
0
100
AcDbLine
10
38.343286
20
4.15
30
0
11
48.255786
21
4.15
31
0
39
0
210
0
220
0
230
1
0
LINE
5
A6
100
AcDbEntity
8
2
62
256
6
ByLayer
370
13
48
1
60
0
100
AcDbLine
10
38.343286
20
-4.15
30
0
11
48.255786
21
-4.15
31
0
39
0
210
0
220
0
230
1
0
LINE
5
A7
100
AcDbEntity
8
1
62
256
6
ByLayer
370
18
48
1
60
1
100
AcDbLine
10
46.255786
20
4.15
30
0
11
46.716569
21
0.650002
31
0
39
0
210
0
220
0
230
1
0
LINE
5
A8
100
AcDbEntity
8
1
62
256
6
ByLayer
370
18
48
1
60
1
100
AcDbLine
10
46.716569
20
0.650002
30
0
11
45.795002
21
0.649998
31
0
39
0
210
0
220
0
230
1
0
LINE
5
A9
100
AcDbEntity
8
1
62
256
6
ByLayer
370
18
48
1
60
1
100
AcDbLine
10
45.795002
20
0.649998
30
0
11
46.255786
21
4.15
31
0
39
0
210
0
220
0
230
1
0
LINE
5
AA
100
AcDbEntity
8
1
62
256
6
ByLayer
370
18
48
1
60
1
100
AcDbLine
10
46.255786
20
-4.15
30
0
11
45.795002
21
-0.650002
31
0
39
0
210
0
220
0
230
1
0
LINE
5
AB
100
AcDbEntity
8
1
62
256
6
ByLayer
370
18
48
1
60
1
100
AcDbLine
10
45.795002
20
-0.650002
30
0
11
46.716569
21
-0.649998
31
0
39
0
210
0
220
0
230
1
0
LINE
5
AC
100
AcDbEntity
8
1
62
256
6
ByLayer
370
18
48
1
60
1
100
AcDbLine
10
46.716569
20
-0.649998
30
0
11
46.255786
21
-4.15
31
0
39
0
210
0
220
0
230
1
0
LINE
5
AD
100
AcDbEntity
8
2
62
256
6
ByLayer
370
13
48
1
60
0
100
AcDbLine
10
39.755136
20
-1.396397
30
0
11
50.416232
21
-21.110889
31
0
39
0
210
0
220
0
230
1
0
LINE
5
AE
100
AcDbEntity
8
2
62
256
6
ByLayer
370
13
48
1
60
0
100
AcDbLine
10
39.755136
20
1.396397
30
0
11
50.416232
21
21.110889
31
0
39
0
210
0
220
0
230
1
0
LINE
5
AF
100
AcDbEntity
8
1
62
256
6
ByLayer
370
18
48
1
60
1
100
AcDbLine
10
49.464879
20
-19.351649
30
0
11
52.239971
21
-17.169637
31
0
39
0
210
0
220
0
230
1
0
LINE
5
B0
100
AcDbEntity
8
1
62
256
6
ByLayer
370
18
48
1
60
1
100
AcDbLine
10
52.239971
20
-17.169637
30
0
11
52.710161
21
-17.962233
31
0
39
0
210
0
220
0
230
1
0
LINE
5
B1
100
AcDbEntity
8
1
62
256
6
ByLayer
370
18
48
1
60
1
100
AcDbLine
10
52.710161
20
-17.962233
30
0
11
49.464879
21
-19.351649
31
0
39
0
210
0
220
0
230
1
0
LINE
5
B2
100
AcDbEntity
8
1
62
256
6
ByLayer
370
18
48
1
60
1
100
AcDbLine
10
49.464879
20
19.351649
30
0
11
52.710158
21
17.962234
31
0
39
0
210
0
220
0
230
1
0
LINE
5
B3
100
AcDbEntity
8
1
62
256
6
ByLayer
370
18
48
1
60
1
100
AcDbLine
10
52.710158
20
17.962234
30
0
11
52.239974
21
17.169635
31
0
39
0
210
0
220
0
230
1
0
LINE
5
B4
100
AcDbEntity
8
1
62
256
6
ByLayer
370
18
48
1
60
1
100
AcDbLine
10
52.239974
20
17.169635
30
0
11
49.464879
21
19.351649
31
0
39
0
210
0
220
0
230
1
0
LINE
5
CB
100
AcDbEntity
8
1
62
256
6
ByLayer
370
18
48
1
60
1
100
AcDbLine
10
-46.5
20
4.15
30
0
11
-46.039216
21
0.650002
31
0
39
0
210
0
220
0
230
1
0
LINE
5
CC
100
AcDbEntity
8
1
62
256
6
ByLayer
370
18
48
1
60
1
100
AcDbLine
10
-46.039216
20
0.650002
30
0
11
-46.960784
21
0.649998
31
0
39
0
210
0
220
0
230
1
0
LINE
5
CD
100
AcDbEntity
8
1
62
256
6
ByLayer
370
18
48
1
60
1
100
AcDbLine
10
-46.960784
20
0.649998
30
0
11
-46.5
21
4.15
31
0
39
0
210
0
220
0
230
1
0
LINE
5
CF
100
AcDbEntity
8
1
62
256
6
ByLayer
370
18
48
1
60
1
100
AcDbLine
10
-46.5
20
-4.15
30
0
11
-46.960784
21
-0.650002
31
0
39
0
210
0
220
0
230
1
0
LINE
5
D0
100
AcDbEntity
8
1
62
256
6
ByLayer
370
18
48
1
60
1
100
AcDbLine
10
-46.960784
20
-0.650002
30
0
11
-46.039216
21
-0.649998
31
0
39
0
210
0
220
0
230
1
0
LINE
5
D1
100
AcDbEntity
8
1
62
256
6
ByLayer
370
18
48
1
60
1
100
AcDbLine
10
-46.039216
20
-0.649998
30
0
11
-46.5
21
-4.15
31
0
39
0
210
0
220
0
230
1
0
LINE
5
D5
100
AcDbEntity
8
1
62
256
6
ByLayer
370
18
48
1
60
1
100
AcDbLine
10
46.255786
20
4.15
30
0
11
46.716569
21
0.650002
31
0
39
0
210
0
220
0
230
1
0
LINE
5
D6
100
AcDbEntity
8
1
62
256
6
ByLayer
370
18
48
1
60
1
100
AcDbLine
10
46.716569
20
0.650002
30
0
11
45.795002
21
0.649998
31
0
39
0
210
0
220
0
230
1
0
LINE
5
D7
100
AcDbEntity
8
1
62
256
6
ByLayer
370
18
48
1
60
1
100
AcDbLine
10
45.795002
20
0.649998
30
0
11
46.255786
21
4.15
31
0
39
0
210
0
220
0
230
1
0
LINE
5
D9
100
AcDbEntity
8
1
62
256
6
ByLayer
370
18
48
1
60
1
100
AcDbLine
10
46.255786
20
-4.15
30
0
11
45.795002
21
-0.650002
31
0
39
0
210
0
220
0
230
1
0
LINE
5
DA
100
AcDbEntity
8
1
62
256
6
ByLayer
370
18
48
1
60
1
100
AcDbLine
10
45.795002
20
-0.650002
30
0
11
46.716569
21
-0.649998
31
0
39
0
210
0
220
0
230
1
0
LINE
5
DB
100
AcDbEntity
8
1
62
256
6
ByLayer
370
18
48
1
60
1
100
AcDbLine
10
46.716569
20
-0.649998
30
0
11
46.255786
21
-4.15
31
0
39
0
210
0
220
0
230
1
0
LINE
5
DE
100
AcDbEntity
8
1
62
256
6
ByLayer
370
18
48
1
60
1
100
AcDbLine
10
49.464879
20
-19.351649
30
0
11
52.239971
21
-17.169637
31
0
39
0
210
0
220
0
230
1
0
LINE
5
DF
100
AcDbEntity
8
1
62
256
6
ByLayer
370
18
48
1
60
1
100
AcDbLine
10
52.239971
20
-17.169637
30
0
11
52.710161
21
-17.962233
31
0
39
0
210
0
220
0
230
1
0
LINE
5
E0
100
AcDbEntity
8
1
62
256
6
ByLayer
370
18
48
1
60
1
100
AcDbLine
10
52.710161
20
-17.962233
30
0
11
49.464879
21
-19.351649
31
0
39
0
210
0
220
0
230
1
0
LINE
5
E2
100
AcDbEntity
8
1
62
256
6
ByLayer
370
18
48
1
60
1
100
AcDbLine
10
49.464879
20
19.351649
30
0
11
52.710158
21
17.962234
31
0
39
0
210
0
220
0
230
1
0
LINE
5
E3
100
AcDbEntity
8
1
62
256
6
ByLayer
370
18
48
1
60
1
100
AcDbLine
10
52.710158
20
17.962234
30
0
11
52.239974
21
17.169635
31
0
39
0
210
0
220
0
230
1
0
LINE
5
E4
100
AcDbEntity
8
1
62
256
6
ByLayer
370
18
48
1
60
1
100
AcDbLine
10
52.239974
20
17.169635
30
0
11
49.464879
21
19.351649
31
0
39
0
210
0
220
0
230
1
0
MTEXT
5
C7
100
AcDbEntity
8
SK2
62
256
6
ByLayer
370
18
48
1
60
0
100
AcDbMText
10
-47.841114
20
15.808438
30
0
210
0
220
0
230
1
1
%%c
40
3
41
0
44
1.084337
50
90
71
7
72
5
7
iso_b_vert
0
MTEXT
5
CA
100
AcDbEntity
8
SK2
62
256
6
ByLayer
370
18
48
1
60
0
100
AcDbMText
10
-47.841114
20
21.785
30
0
210
0
220
0
230
1
1
\W0.7468;8.300
40
3
41
0
44
1.084337
50
90
71
7
72
5
7
iso_b_vert
0
MTEXT
5
D3
100
AcDbEntity
8
2
62
256
6
ByLayer
370
18
48
1
60
0
100
AcDbMText
10
44.914671
20
15.808438
30
0
210
0
220
0
230
1
1
%%c
40
3
41
0
44
1.084337
50
90
71
7
72
5
7
iso_b_vert
0
MTEXT
5
D4
100
AcDbEntity
8
2
62
256
6
ByLayer
370
18
48
1
60
0
100
AcDbMText
10
44.914671
20
21.785
30
0
210
0
220
0
230
1
1
\W0.7468;8.300
40
3
41
0
44
1.084337
50
90
71
7
72
5
7
iso_b_vert
0
MTEXT
5
DD
100
AcDbEntity
8
2
62
256
6
ByLayer
370
18
48
1
60
0
100
AcDbMText
10
58.092229
20
-2.114886
30
0
210
0
220
0
230
1
1
\W0.6008;118%%d
40
3
41
0
44
1.084337
50
0
71
7
72
5
7
iso_b_vert
0
MTEXT
5
E6
100
AcDbEntity
8
SK6
62
256
6
ByLayer
370
18
48
1
60
0
100
AcDbMText
10
-7.050197
20
-67.114886
30
0
210
0
220
0
230
1
1
\W0.7690;R0238.3
40
3
41
0
44
1.084337
50
0
71
7
72
5
7
iso_b_vert
0
HATCH
5
CE
100
AcDbEntity
8
SK2
62
256
6
ByLayer
370
13
48
1
60
0
100
AcDbHatch
10
0
20
0
30
0
210
0
220
0
230
1
2
ANSI31
70
0
71
0
91
1
92
5
93
3
72
1
10
-46.5
20
4.15000000000001
11
-46.0392162584472
21
0.65000169255319
72
1
10
-46.0392162584472
20
0.65000169255319
11
-46.9607837415528
21
0.649998307446822
72
1
10
-46.9607837415528
20
0.649998307446822
11
-46.5
21
4.15000000000001
97
0
75
0
76
1
52
0
41
0.0062
77
0
78
1
53
45
43
0
44
0
45
-0.0139193969876572
46
0.0139193969876572
79
0
47
0
98
1
10
0
20
0
0
HATCH
5
D2
100
AcDbEntity
8
SK2
62
256
6
ByLayer
370
13
48
1
60
0
100
AcDbHatch
10
0
20
0
30
0
210
0
220
0
230
1
2
ANSI31
70
0
71
0
91
1
92
5
93
3
72
1
10
-46.5
20
-4.15000000000001
11
-46.9607837415528
21
-0.65000169255319
72
1
10
-46.9607837415528
20
-0.65000169255319
11
-46.0392162584472
21
-0.649998307446822
72
1
10
-46.0392162584472
20
-0.649998307446822
11
-46.5
21
-4.15000000000001
97
0
75
0
76
1
52
0
41
0.0062
77
0
78
1
53
45
43
0
44
0
45
-0.0139193969876572
46
0.0139193969876572
79
0
47
0
98
1
10
0
20
0
0
HATCH
5
D8
100
AcDbEntity
8
2
62
256
6
ByLayer
370
13
48
1
60
0
100
AcDbHatch
10
0
20
0
30
0
210
0
220
0
230
1
2
ANSI31
70
0
71
0
91
1
92
5
93
3
72
1
10
46.2557855879321
20
4.15000000000001
11
46.7165693294848
21
0.65000169255319
72
1
10
46.7165693294848
20
0.65000169255319
11
45.7950018463793
21
0.649998307446822
72
1
10
45.7950018463793
20
0.649998307446822
11
46.2557855879321
21
4.15000000000001
97
0
75
0
76
1
52
0
41
0.0062
77
0
78
1
53
45
43
0
44
0
45
-0.0139193969876572
46
0.0139193969876572
79
0
47
0
98
1
10
0
20
0
0
HATCH
5
DC
100
AcDbEntity
8
2
62
256
6
ByLayer
370
13
48
1
60
0
100
AcDbHatch
10
0
20
0
30
0
210
0
220
0
230
1
2
ANSI31
70
0
71
0
91
1
92
5
93
3
72
1
10
46.2557855879321
20
-4.15000000000001
11
45.7950018463793
21
-0.65000169255319
72
1
10
45.7950018463793
20
-0.65000169255319
11
46.7165693294848
21
-0.649998307446822
72
1
10
46.7165693294848
20
-0.649998307446822
11
46.2557855879321
21
-4.15000000000001
97
0
75
0
76
1
52
0
41
0.0062
77
0
78
1
53
45
43
0
44
0
45
-0.0139193969876572
46
0.0139193969876572
79
0
47
0
98
1
10
0
20
0
0
HATCH
5
E1
100
AcDbEntity
8
2
62
256
6
ByLayer
370
13
48
1
60
0
100
AcDbHatch
10
0
20
0
30
0
210
0
220
0
230
1
2
ANSI31
70
0
71
0
91
1
92
5
93
3
72
1
10
49.464879198752
20
-19.3516485952884
11
52.2399711078382
21
-17.1696369764526
72
1
10
52.2399711078382
20
-17.1696369764526
11
52.710161392925
21
-17.9622325364572
72
1
10
52.710161392925
20
-17.9622325364572
11
49.464879198752
21
-19.3516485952884
97
0
75
0
76
1
52
0
41
0.0062
77
0
78
1
53
45
43
0
44
0
45
-0.0139193969876572
46
0.0139193969876572
79
0
47
0
98
1
10
0
20
0
0
HATCH
5
E5
100
AcDbEntity
8
2
62
256
6
ByLayer
370
13
48
1
60
0
100
AcDbHatch
10
0
20
0
30
0
210
0
220
0
230
1
2
ANSI31
70
0
71
0
91
1
92
5
93
3
72
1
10
49.464879198752
20
19.3516485952884
11
52.7101584815526
21
17.9622342635518
72
1
10
52.7101584815526
20
17.9622342635518
11
52.2399740192106
21
17.1696352493579
72
1
10
52.2399740192106
20
17.1696352493579
11
49.464879198752
21
19.3516485952884
97
0
75
0
76
1
52
0
41
0.0062
77
0
78
1
53
45
43
0
44
0
45
-0.0139193969876572
46
0.0139193969876572
79
0
47
0
98
1
10
0
20
0
0
DIMENSION
5
E9
100
AcDbEntity
8
SK2
62
256
6
ByLayer
370
18
48
1
60
0
100
AcDbDimension
2
_U0
10
39
20
-51.495595
30
0
11
-0.5
21
-51.495595
31
0
70
32
71
1
72
1
41
1
210
0
220
0
230
1
3
Standard
100
AcDbAlignedDimension
13
-40
23
-4.15
33
0
14
39
24
0
34
0
50
0
100
AcDbRotatedDimension
1001
ACAD
1000
DSTYLE
1002
{
1070
   371
1070
    13
1070
   372
1070
    13
1070
     3
1000

1070
   170
1070
     0
1070
   144
1040
1.0
1070
   277
1070
     2
1070
   284
1070
     8
1070
   278
1070
    46
1070
   146
1040
1.166667
1070
   345
1005
16
1070
   347
1005
16
1070
   346
1005
16
1070
   344
1005
0
1070
   343
1005
0
1070
   172
1070
     1
1070
    76
1070
     0
1070
    75
1070
     0
1070
   282
1070
     0
1070
   281
1070
     0
1070
    71
1070
     0
1070
    74
1070
     0
1070
   279
1070
     0
1070
   173
1070
     1
1070
   340
1005
C8
1070
   271
1070
     2
1070
   272
1070
     3
1070
    77
1070
     1
1070
    73
1070
     1
1070
   171
1070
     3
1070
   274
1070
     4
1070
   177
1070
     2
1070
   176
1070
     2
1070
   178
1070
     2
1070
    78
1070
     8
1070
    48
1040
-0.1
1070
    41
1040
3.5
1070
   147
1040
1.5
1070
    42
1040
1.5875
1070
    44
1040
2.0
1070
   140
1040
3.0
1002
}
1001
ACAD_DSTYLE_DIM_LINETYPE
1070
   380
1005
16
1001
ACAD_DSTYLE_DIM_EXT1_LINETYPE
1070
   381
1005
16
1001
ACAD_DSTYLE_DIM_EXT2_LINETYPE
1070
   382
1005
16
0
DIMENSION
5
102
100
AcDbEntity
8
2
62
256
6
ByLayer
370
18
48
1
60
0
100
AcDbDimension
2
_U1
10
2
20
-41.495595
30
0
11
20.5
21
-41.495595
31
0
70
32
71
1
72
1
41
1
210
0
220
0
230
1
3
Standard
100
AcDbAlignedDimension
13
39
23
0
33
0
14
2
24
-4.15
34
0
50
0
100
AcDbRotatedDimension
1001
ACAD
1000
DSTYLE
1002
{
1070
   371
1070
    13
1070
   372
1070
    13
1070
     3
1000

1070
   170
1070
     0
1070
   144
1040
1.0
1070
   277
1070
     2
1070
   284
1070
     8
1070
   278
1070
    46
1070
   146
1040
1.166667
1070
   345
1005
16
1070
   347
1005
16
1070
   346
1005
16
1070
   344
1005
0
1070
   343
1005
0
1070
   172
1070
     1
1070
    76
1070
     0
1070
    75
1070
     0
1070
   282
1070
     0
1070
   281
1070
     0
1070
    71
1070
     0
1070
    74
1070
     0
1070
   279
1070
     0
1070
   173
1070
     1
1070
   340
1005
C8
1070
   271
1070
     2
1070
   272
1070
     3
1070
    77
1070
     1
1070
    73
1070
     1
1070
   171
1070
     3
1070
   274
1070
     4
1070
   177
1070
     2
1070
   176
1070
     2
1070
   178
1070
     2
1070
    78
1070
     8
1070
    48
1040
-0.1
1070
    41
1040
3.5
1070
   147
1040
1.5
1070
    42
1040
1.5875
1070
    44
1040
2.0
1070
   140
1040
3.0
1002
}
1001
ACAD_DSTYLE_DIM_LINETYPE
1070
   380
1005
16
1001
ACAD_DSTYLE_DIM_EXT1_LINETYPE
1070
   381
1005
16
1001
ACAD_DSTYLE_DIM_EXT2_LINETYPE
1070
   382
1005
16
0
DIMENSION
5
11A
100
AcDbEntity
8
SK2
62
256
6
ByLayer
370
18
48
1
60
0
100
AcDbDimension
2
_U2
10
0
20
-36.495595
30
0
11
-20
21
-36.495595
31
0
70
32
71
1
72
1
41
1
210
0
220
0
230
1
3
Standard
100
AcDbAlignedDimension
13
-40
23
-4.15
33
0
14
0
24
-4.15
34
0
50
0
100
AcDbRotatedDimension
1001
ACAD
1000
DSTYLE
1002
{
1070
   371
1070
    13
1070
   372
1070
    13
1070
     3
1000

1070
   170
1070
     0
1070
   144
1040
1.0
1070
   277
1070
     2
1070
   284
1070
     8
1070
   278
1070
    46
1070
   146
1040
1.166667
1070
   345
1005
16
1070
   347
1005
16
1070
   346
1005
16
1070
   344
1005
0
1070
   343
1005
0
1070
   172
1070
     1
1070
    76
1070
     0
1070
    75
1070
     0
1070
   282
1070
     0
1070
   281
1070
     0
1070
    71
1070
     0
1070
    74
1070
     0
1070
   279
1070
     0
1070
   173
1070
     1
1070
   340
1005
C8
1070
   271
1070
     2
1070
   272
1070
     3
1070
    77
1070
     1
1070
    73
1070
     1
1070
   171
1070
     3
1070
   274
1070
     4
1070
   177
1070
     2
1070
   176
1070
     2
1070
   178
1070
     2
1070
    78
1070
     8
1070
    48
1040
-0.1
1070
    41
1040
3.5
1070
   147
1040
1.5
1070
    42
1040
1.5875
1070
    44
1040
2.0
1070
   140
1040
3.0
1002
}
1001
ACAD_DSTYLE_DIM_LINETYPE
1070
   380
1005
16
1001
ACAD_DSTYLE_DIM_EXT1_LINETYPE
1070
   381
1005
16
1001
ACAD_DSTYLE_DIM_EXT2_LINETYPE
1070
   382
1005
16
0
DIMENSION
5
132
100
AcDbEntity
8
2
62
256
6
ByLayer
370
18
48
1
60
0
100
AcDbDimension
2
_U3
10
11.25
20
-34.495595
30
0
11
25.125
21
-34.495595
31
0
70
32
71
1
72
1
41
1
210
0
220
0
230
1
3
Standard
100
AcDbAlignedDimension
13
39
23
0
33
0
14
11.25
24
-4.15
34
0
50
0
100
AcDbRotatedDimension
1001
ACAD
1000
DSTYLE
1002
{
1070
   371
1070
    13
1070
   372
1070
    13
1070
     3
1000

1070
   170
1070
     0
1070
   144
1040
1.0
1070
   277
1070
     2
1070
   284
1070
     8
1070
   278
1070
    46
1070
   146
1040
1.166667
1070
   345
1005
16
1070
   347
1005
16
1070
   346
1005
16
1070
   344
1005
0
1070
   343
1005
0
1070
   172
1070
     1
1070
    76
1070
     0
1070
    75
1070
     0
1070
   282
1070
     0
1070
   281
1070
     0
1070
    71
1070
     0
1070
    74
1070
     0
1070
   279
1070
     0
1070
   173
1070
     1
1070
   340
1005
C8
1070
   271
1070
     2
1070
   272
1070
     3
1070
    77
1070
     1
1070
    73
1070
     1
1070
   171
1070
     3
1070
   274
1070
     4
1070
   177
1070
     2
1070
   176
1070
     2
1070
   178
1070
     2
1070
    78
1070
     8
1070
    48
1040
-0.1
1070
    41
1040
3.5
1070
   147
1040
1.5
1070
    42
1040
1.5875
1070
    44
1040
2.0
1070
   140
1040
3.0
1002
}
1001
ACAD_DSTYLE_DIM_LINETYPE
1070
   380
1005
16
1001
ACAD_DSTYLE_DIM_EXT1_LINETYPE
1070
   381
1005
16
1001
ACAD_DSTYLE_DIM_EXT2_LINETYPE
1070
   382
1005
16
0
ENDSEC
0
SECTION
2
OBJECTS
0
DICTIONARY
5
1bc
330
0
100
AcDbDictionary
280
0
281
1
3
ACAD_GROUP
350
1bd
3
ACAD_MLINESTYLE
350
1be
0
DICTIONARY
5
1bd
330
0
100
AcDbDictionary
280
0
281
1
0
DICTIONARY
5
1be
330
0
100
AcDbDictionary
280
0
281
1
3
Standard
350
18
0
MLINESTYLE
5
18
330
1be
100
AcDbMlineStyle
2
Standard
70
0
3

62
256
51
90
52
90
71
2
49
-0.5
62
256
6
ByLayer
49
0.5
62
256
6
ByLayer
0
RASTERVARIABLES
5
1a8
330

100
AcDbRasterVariables
90
0
70
1
71
1
72
1
0
ENDSEC
0
EOF
