0
SECTION
2
HEADER
9
$ACADVER
1
AC1015
9
$DWGCODEPAGE
3
ANSI_1252
9
$HANDSEED
5
1d2
9
$ANGBASE
50
0
9
$ANGDIR
70
0
9
$ATTMODE
70
1
9
$AUNITS
70
0
9
$AUPREC
70
0
9
$CECOLOR
62
256
9
$CELTSCALE
40
1
9
$CELTYPE
6
ByLayer
9
$CELWEIGHT
370
18
9
$CLAYER
8
0
9
$CMLJUST
70
0
9
$CMLSCALE
40
1
9
$CMLSTYLE
2
Standard
9
$DIMSTYLE
2
Standard
9
$TEXTSIZE
40
0.2
9
$TEXTSTYLE
7
Standard
9
$LUNITS
70
2
9
$LUPREC
70
4
9
$EXTNAMES
290
1
9
$INSUNITS
70
4
9
$LTSCALE
40
1
9
$LWDISPLAY
290
1
9
$PDMODE
70
0
9
$PDSIZE
40
0
9
$PLINEGEN
70
0
0
ENDSEC
0
SECTION
2
CLASSES
0
CLASS
1
RASTERVARIABLES
2
AcDbRasterVariables
3
ISM
90
0
280
0
281
0
0
ENDSEC
0
SECTION
2
TABLES
0
TABLE
2
VPORT
5
1c8
100
AcDbSymbolTable
0
VPORT
5
1
100
AcDbSymbolTableRecord
100
AcDbViewportTableRecord
2
*Active
70
0
10
0
20
0
11
1
21
1
12
-1
22
1
13
0
23
0
14
0.5
24
0.5
15
10
25
10
16
0
26
0
36
1
17
0
27
0
37
0
0
ENDTAB
0
TABLE
2
LTYPE
5
1c9
100
AcDbSymbolTable
0
LTYPE
5
14
100
AcDbSymbolTableRecord
100
AcDbLinetypeTableRecord
70
0
2
ByBlock
3

72
65
73
0
40
0
0
LTYPE
5
15
100
AcDbSymbolTableRecord
100
AcDbLinetypeTableRecord
70
0
2
ByLayer
3

72
65
73
0
40
0
0
LTYPE
5
16
100
AcDbSymbolTableRecord
100
AcDbLinetypeTableRecord
70
0
2
Continuous
3
Solid line
72
65
73
0
40
0
0
LTYPE
5
6E
100
AcDbSymbolTableRecord
100
AcDbLinetypeTableRecord
70
0
2
CENTER
3
____ _ ____ _ ____ _ ____
72
65
73
4
40
47.5
49
22
74
0
49
-8.5
74
0
49
8.5
74
0
49
-8.5
74
0
0
LTYPE
5
6F
100
AcDbSymbolTableRecord
100
AcDbLinetypeTableRecord
70
0
2
DASHED
3
__ __ __ __ __ __ __ __ __
72
65
73
2
40
25.72
49
12.86
74
0
49
-12.86
74
0
0
ENDTAB
0
TABLE
2
LAYER
5
1ca
100
AcDbSymbolTable
0
LAYER
5
10
100
AcDbSymbolTableRecord
100
AcDbLayerTableRecord
2
0
70
0
62
7
6
Continuous
290
1
370
-3
390
0
0
LAYER
5
71
100
AcDbSymbolTableRecord
100
AcDbLayerTableRecord
2
81
70
0
62
-3
6
Continuous
290
1
370
-3
390
0
0
LAYER
5
73
100
AcDbSymbolTableRecord
100
AcDbLayerTableRecord
2
80
70
0
62
-6
6
Continuous
290
1
370
-3
390
0
0
LAYER
5
75
100
AcDbSymbolTableRecord
100
AcDbLayerTableRecord
2
1
70
0
62
4
6
Continuous
290
1
370
-3
390
0
0
LAYER
5
7F
100
AcDbSymbolTableRecord
100
AcDbLayerTableRecord
2
4
70
0
62
-2
6
CENTER
290
1
370
-3
390
0
0
LAYER
5
AA
100
AcDbSymbolTableRecord
100
AcDbLayerTableRecord
2
2
70
0
62
7
6
Continuous
290
1
370
-3
390
0
0
LAYER
5
F4
100
AcDbSymbolTableRecord
100
AcDbLayerTableRecord
2
Defpoints
70
0
62
7
6
Continuous
290
0
370
-3
390
0
0
LAYER
5
1b2
100
AcDbSymbolTableRecord
100
AcDbLayerTableRecord
2
SK4
70
0
62
2
6
CENTER
290
1
370
-3
390
0
0
LAYER
5
1b3
100
AcDbSymbolTableRecord
100
AcDbLayerTableRecord
2
SK1
70
0
62
4
6
Continuous
290
1
370
-3
390
0
0
LAYER
5
1b4
100
AcDbSymbolTableRecord
100
AcDbLayerTableRecord
2
SK2
70
0
62
7
6
Continuous
290
1
370
-3
390
0
0
LAYER
5
1b5
100
AcDbSymbolTableRecord
100
AcDbLayerTableRecord
2
CUT
70
0
62
-1
6
Continuous
290
1
370
-3
390
0
0
LAYER
5
1b6
100
AcDbSymbolTableRecord
100
AcDbLayerTableRecord
2
NOCUT
70
0
62
-7
6
Continuous
290
1
370
-3
390
0
0
LAYER
5
1b7
100
AcDbSymbolTableRecord
100
AcDbLayerTableRecord
2
SK6
70
0
62
5
6
Continuous
290
1
370
-3
390
0
0
ENDTAB
0
TABLE
2
STYLE
5
1cb
100
AcDbSymbolTable
0
STYLE
5
11
100
AcDbSymbolTableRecord
100
AcDbTextStyleTableRecord
2
Standard
3
txt
70
0
71
0
40
0
41
1
42
0
50
0
0
STYLE
5
D0
100
AcDbSymbolTableRecord
100
AcDbTextStyleTableRecord
2
iso_b_vert
3
simplex.shx
70
0
71
0
40
0
41
1
42
0
50
0
0
STYLE
5
D1
100
AcDbSymbolTableRecord
100
AcDbTextStyleTableRecord
2
DWGDirectTextStyle
3
simplex
70
0
71
0
40
0
41
1
42
0
50
0
0
ENDTAB
0
TABLE
2
DIMSTYLE
5
1cc
100
AcDbSymbolTable
100
AcDbDimStyleTable
0
DIMSTYLE
105
27
100
AcDbSymbolTableRecord
100
AcDbDimStyleTableRecord
2
Standard
70
0
3
<>
41
0.18
42
0.0625
44
0.18
140
0.18
147
0.09
73
0
74
0
77
1
271
2
275
0
278
52
280
0
340
11
0
ENDTAB
0
TABLE
2
VIEW
5
1cd
100
AcDbSymbolTable
0
ENDTAB
0
TABLE
2
UCS
5
1ce
100
AcDbSymbolTable
0
ENDTAB
0
TABLE
2
APPID
5
1cf
100
AcDbSymbolTable
0
APPID
5
12
100
AcDbSymbolTableRecord
100
AcDbRegAppTableRecord
2
ACAD
70
0
0
APPID
5
F0
100
AcDbSymbolTableRecord
100
AcDbRegAppTableRecord
2
ACAD_DSTYLE_DIMBREAK
70
0
0
APPID
5
171
100
AcDbSymbolTableRecord
100
AcDbRegAppTableRecord
2
ACAD_DSTYLE_DIM_LINETYPE
70
0
0
APPID
5
172
100
AcDbSymbolTableRecord
100
AcDbRegAppTableRecord
2
ACAD_DSTYLE_DIM_EXT1_LINETYPE
70
0
0
APPID
5
173
100
AcDbSymbolTableRecord
100
AcDbRegAppTableRecord
2
ACAD_DSTYLE_DIM_EXT2_LINETYPE
70
0
0
APPID
5
1AE
100
AcDbSymbolTableRecord
100
AcDbRegAppTableRecord
2
ACAD_MLEADERVER
70
0
0
ENDTAB
0
TABLE
2
BLOCK_RECORD
5
1d0
100
AcDbSymbolTable
0
BLOCK_RECORD
5
1F
100
AcDbSymbolTableRecord
100
AcDbBlockTableRecord
2
*Model_Space
340
0
70
0
0
BLOCK_RECORD
5
1B
100
AcDbSymbolTableRecord
100
AcDbBlockTableRecord
2
*Paper_Space
340
0
70
0
0
BLOCK_RECORD
5
23
100
AcDbSymbolTableRecord
100
AcDbBlockTableRecord
2
*Paper_Space0
340
0
70
0
0
BLOCK_RECORD
5
F5
100
AcDbSymbolTableRecord
100
AcDbBlockTableRecord
2
*D1
340
0
70
0
0
BLOCK_RECORD
5
101
100
AcDbSymbolTableRecord
100
AcDbBlockTableRecord
2
_U0
340
0
70
0
0
BLOCK_RECORD
5
10D
100
AcDbSymbolTableRecord
100
AcDbBlockTableRecord
2
*D3
340
0
70
0
0
BLOCK_RECORD
5
119
100
AcDbSymbolTableRecord
100
AcDbBlockTableRecord
2
_U1
340
0
70
0
0
BLOCK_RECORD
5
125
100
AcDbSymbolTableRecord
100
AcDbBlockTableRecord
2
*D5
340
0
70
0
0
BLOCK_RECORD
5
131
100
AcDbSymbolTableRecord
100
AcDbBlockTableRecord
2
_U2
340
0
70
0
0
BLOCK_RECORD
5
13D
100
AcDbSymbolTableRecord
100
AcDbBlockTableRecord
2
*D7
340
0
70
0
0
BLOCK_RECORD
5
14A
100
AcDbSymbolTableRecord
100
AcDbBlockTableRecord
2
_U3
340
0
70
0
0
ENDTAB
0
ENDSEC
0
SECTION
2
BLOCKS
0
BLOCK
5
20
100
AcDbEntity
8
0
100
AcDbBlockBegin
2
*Model_Space
70
0
10
0
20
0
30
0
3
*Model_Space
0
ENDBLK
5
21
100
AcDbEntity
8
0
100
AcDbBlockEnd
0
BLOCK
5
1C
100
AcDbEntity
8
0
100
AcDbBlockBegin
2
*Paper_Space
70
0
10
0
20
0
30
0
3
*Paper_Space
0
ENDBLK
5
1D
100
AcDbEntity
8
0
100
AcDbBlockEnd
0
BLOCK
5
24
100
AcDbEntity
8
0
100
AcDbBlockBegin
2
*Paper_Space0
70
0
10
0
20
0
30
0
3
*Paper_Space0
0
ENDBLK
5
25
100
AcDbEntity
8
0
100
AcDbBlockEnd
0
BLOCK
5
F6
100
AcDbEntity
8
0
100
AcDbBlockBegin
2
*D1
70
1
10
0
20
0
30
0
3
*D1
0
LINE
5
F8
100
AcDbEntity
8
0
62
256
6
ByLayer
370
-2
48
1
60
0
100
AcDbLine
10
-20
20
-2.1785
30
0
11
-20
21
-53.657159
31
0
39
0
210
0
220
0
230
1
0
LINE
5
F9
100
AcDbEntity
8
0
62
256
6
ByLayer
370
-2
48
1
60
0
100
AcDbLine
10
18
20
-1.5875
30
0
11
18
21
-53.657159
31
0
39
0
210
0
220
0
230
1
0
LINE
5
FA
100
AcDbEntity
8
0
62
256
6
ByLayer
370
-2
48
1
60
0
100
AcDbLine
10
-16.5
20
-51.657159
30
0
11
14.5
21
-51.657159
31
0
39
0
210
0
220
0
230
1
0
SOLID
5
FB
100
AcDbEntity
8
0
62
256
6
ByLayer
370
-1
48
1
60
0
100
AcDbTrace
10
-16.5
20
-51.073826
30
0
11
-16.5
21
-52.240492
31
0
12
-20
22
-51.657159
32
0
13
-20
23
-51.657159
33
0
39
0
210
0
220
0
230
1
0
SOLID
5
FC
100
AcDbEntity
8
0
62
256
6
ByLayer
370
-1
48
1
60
0
100
AcDbTrace
10
14.5
20
-52.240492
30
0
11
14.5
21
-51.073826
31
0
12
18
22
-51.657159
32
0
13
18
23
-51.657159
33
0
39
0
210
0
220
0
230
1
0
MTEXT
5
FD
100
AcDbEntity
8
0
62
256
6
ByLayer
370
18
48
1
60
0
100
AcDbMText
10
-1
20
-45.657159
30
0
210
0
220
0
230
1
1
\A1;38
40
3
41
0
44
1
50
0
71
5
72
5
7
iso_b_vert
0
POINT
5
FE
100
AcDbEntity
8
Defpoints
62
0
6
ByLayer
370
-1
48
1
60
0
100
AcDbPoint
10
-20
20
-0.591
30
0
39
0
210
0
220
0
230
1
50
360
0
POINT
5
FF
100
AcDbEntity
8
Defpoints
62
0
6
ByLayer
370
-1
48
1
60
0
100
AcDbPoint
10
18
20
0
30
0
39
0
210
0
220
0
230
1
50
360
0
POINT
5
100
100
AcDbEntity
8
Defpoints
62
0
6
ByLayer
370
-1
48
1
60
0
100
AcDbPoint
10
18
20
-51.657159
30
0
39
0
210
0
220
0
230
1
50
360
0
ENDBLK
5
F7
100
AcDbEntity
8
0
100
AcDbBlockEnd
0
BLOCK
5
108
100
AcDbEntity
8
0
100
AcDbBlockBegin
2
_U0
70
0
10
0
20
0
30
0
3
_U0
0
MTEXT
5
102
100
AcDbEntity
8
SK2
62
256
6
ByLayer
370
18
48
1
60
0
100
AcDbMText
10
-5.48237
20
-50.772044
30
0
210
0
220
0
230
1
1
\W0.7468;38.00
40
3
41
0
44
1.084337
50
0
71
7
72
5
7
iso_b_vert
0
LINE
5
103
100
AcDbEntity
8
SK2
62
256
6
ByLayer
370
13
48
1
60
0
100
AcDbLine
10
-20
20
-2.1785
30
0
11
-20
21
-53.657159
31
0
39
0
210
0
220
0
230
1
0
LINE
5
104
100
AcDbEntity
8
SK2
62
256
6
ByLayer
370
13
48
1
60
0
100
AcDbLine
10
18
20
-1.5875
30
0
11
18
21
-53.657159
31
0
39
0
210
0
220
0
230
1
0
LINE
5
105
100
AcDbEntity
8
SK2
62
256
6
ByLayer
370
13
48
1
60
0
100
AcDbLine
10
-20
20
-51.657159
30
0
11
18
21
-51.657159
31
0
39
0
210
0
220
0
230
1
0
SOLID
5
106
100
AcDbEntity
8
SK2
62
256
6
ByLayer
370
18
48
1
60
0
100
AcDbTrace
10
-20
20
-51.657159
30
0
11
-16.500002
21
-51.196375
31
0
12
-16.499998
22
-52.117943
32
0
13
-16.499998
23
-52.117943
33
0
39
0
210
0
220
0
230
1
0
SOLID
5
107
100
AcDbEntity
8
SK2
62
256
6
ByLayer
370
18
48
1
60
0
100
AcDbTrace
10
18
20
-51.657159
30
0
11
14.500002
21
-52.117943
31
0
12
14.499998
22
-51.196375
32
0
13
14.499998
23
-51.196375
33
0
39
0
210
0
220
0
230
1
0
ENDBLK
5
109
100
AcDbEntity
8
0
100
AcDbBlockEnd
0
BLOCK
5
10E
100
AcDbEntity
8
0
100
AcDbBlockBegin
2
*D3
70
1
10
0
20
0
30
0
3
*D3
0
LINE
5
110
100
AcDbEntity
8
0
62
256
6
ByLayer
370
-2
48
1
60
0
100
AcDbLine
10
18
20
-1.5875
30
0
11
18
21
-43.657159
31
0
39
0
210
0
220
0
230
1
0
LINE
5
111
100
AcDbEntity
8
0
62
256
6
ByLayer
370
-2
48
1
60
0
100
AcDbLine
10
2
20
-2.1785
30
0
11
2
21
-43.657159
31
0
39
0
210
0
220
0
230
1
0
LINE
5
112
100
AcDbEntity
8
0
62
256
6
ByLayer
370
-2
48
1
60
0
100
AcDbLine
10
14.5
20
-41.657159
30
0
11
5.5
21
-41.657159
31
0
39
0
210
0
220
0
230
1
0
SOLID
5
113
100
AcDbEntity
8
0
62
256
6
ByLayer
370
-1
48
1
60
0
100
AcDbTrace
10
14.5
20
-42.240492
30
0
11
14.5
21
-41.073826
31
0
12
18
22
-41.657159
32
0
13
18
23
-41.657159
33
0
39
0
210
0
220
0
230
1
0
SOLID
5
114
100
AcDbEntity
8
0
62
256
6
ByLayer
370
-1
48
1
60
0
100
AcDbTrace
10
5.5
20
-41.073826
30
0
11
5.5
21
-42.240492
31
0
12
2
22
-41.657159
32
0
13
2
23
-41.657159
33
0
39
0
210
0
220
0
230
1
0
MTEXT
5
115
100
AcDbEntity
8
0
62
256
6
ByLayer
370
18
48
1
60
0
100
AcDbMText
10
10
20
-35.657159
30
0
210
0
220
0
230
1
1
\A1;16
40
3
41
0
44
1
50
0
71
5
72
5
7
iso_b_vert
0
POINT
5
116
100
AcDbEntity
8
Defpoints
62
0
6
ByLayer
370
-1
48
1
60
0
100
AcDbPoint
10
18
20
0
30
0
39
0
210
0
220
0
230
1
50
360
0
POINT
5
117
100
AcDbEntity
8
Defpoints
62
0
6
ByLayer
370
-1
48
1
60
0
100
AcDbPoint
10
2
20
-0.591
30
0
39
0
210
0
220
0
230
1
50
360
0
POINT
5
118
100
AcDbEntity
8
Defpoints
62
0
6
ByLayer
370
-1
48
1
60
0
100
AcDbPoint
10
2
20
-41.657159
30
0
39
0
210
0
220
0
230
1
50
360
0
ENDBLK
5
10F
100
AcDbEntity
8
0
100
AcDbBlockEnd
0
BLOCK
5
120
100
AcDbEntity
8
0
100
AcDbBlockBegin
2
_U1
70
0
10
0
20
0
30
0
3
_U1
0
MTEXT
5
11A
100
AcDbEntity
8
2
62
256
6
ByLayer
370
18
48
1
60
0
100
AcDbMText
10
5.892572
20
-40.772044
30
0
210
0
220
0
230
1
1
\W0.6864;16.00
40
3
41
0
44
1.084337
50
0
71
7
72
5
7
iso_b_vert
0
LINE
5
11B
100
AcDbEntity
8
2
62
256
6
ByLayer
370
13
48
1
60
0
100
AcDbLine
10
18
20
-1.5875
30
0
11
18
21
-43.657159
31
0
39
0
210
0
220
0
230
1
0
LINE
5
11C
100
AcDbEntity
8
2
62
256
6
ByLayer
370
13
48
1
60
0
100
AcDbLine
10
2
20
-2.1785
30
0
11
2
21
-43.657159
31
0
39
0
210
0
220
0
230
1
0
LINE
5
11D
100
AcDbEntity
8
2
62
256
6
ByLayer
370
13
48
1
60
0
100
AcDbLine
10
18
20
-41.657159
30
0
11
2
21
-41.657159
31
0
39
0
210
0
220
0
230
1
0
SOLID
5
11E
100
AcDbEntity
8
2
62
256
6
ByLayer
370
18
48
1
60
0
100
AcDbTrace
10
18
20
-41.657159
30
0
11
14.500002
21
-42.117943
31
0
12
14.499998
22
-41.196375
32
0
13
14.499998
23
-41.196375
33
0
39
0
210
0
220
0
230
1
0
SOLID
5
11F
100
AcDbEntity
8
2
62
256
6
ByLayer
370
18
48
1
60
0
100
AcDbTrace
10
2
20
-41.657159
30
0
11
5.499998
21
-41.196375
31
0
12
5.500002
22
-42.117943
32
0
13
5.500002
23
-42.117943
33
0
39
0
210
0
220
0
230
1
0
ENDBLK
5
121
100
AcDbEntity
8
0
100
AcDbBlockEnd
0
BLOCK
5
126
100
AcDbEntity
8
0
100
AcDbBlockBegin
2
*D5
70
1
10
0
20
0
30
0
3
*D5
0
LINE
5
128
100
AcDbEntity
8
0
62
256
6
ByLayer
370
-2
48
1
60
0
100
AcDbLine
10
-20
20
-2.1785
30
0
11
-20
21
-38.657159
31
0
39
0
210
0
220
0
230
1
0
LINE
5
129
100
AcDbEntity
8
0
62
256
6
ByLayer
370
-2
48
1
60
0
100
AcDbLine
10
0
20
-2.1785
30
0
11
0
21
-38.657159
31
0
39
0
210
0
220
0
230
1
0
LINE
5
12A
100
AcDbEntity
8
0
62
256
6
ByLayer
370
-2
48
1
60
0
100
AcDbLine
10
-16.5
20
-36.657159
30
0
11
-3.5
21
-36.657159
31
0
39
0
210
0
220
0
230
1
0
SOLID
5
12B
100
AcDbEntity
8
0
62
256
6
ByLayer
370
-1
48
1
60
0
100
AcDbTrace
10
-16.5
20
-36.073826
30
0
11
-16.5
21
-37.240492
31
0
12
-20
22
-36.657159
32
0
13
-20
23
-36.657159
33
0
39
0
210
0
220
0
230
1
0
SOLID
5
12C
100
AcDbEntity
8
0
62
256
6
ByLayer
370
-1
48
1
60
0
100
AcDbTrace
10
-3.5
20
-37.240492
30
0
11
-3.5
21
-36.073826
31
0
12
0
22
-36.657159
32
0
13
0
23
-36.657159
33
0
39
0
210
0
220
0
230
1
0
MTEXT
5
12D
100
AcDbEntity
8
0
62
256
6
ByLayer
370
18
48
1
60
0
100
AcDbMText
10
-10
20
-30.657159
30
0
210
0
220
0
230
1
1
\A1;20
40
3
41
0
44
1
50
0
71
5
72
5
7
iso_b_vert
0
POINT
5
12E
100
AcDbEntity
8
Defpoints
62
0
6
ByLayer
370
-1
48
1
60
0
100
AcDbPoint
10
-20
20
-0.591
30
0
39
0
210
0
220
0
230
1
50
360
0
POINT
5
12F
100
AcDbEntity
8
Defpoints
62
0
6
ByLayer
370
-1
48
1
60
0
100
AcDbPoint
10
0
20
-0.591
30
0
39
0
210
0
220
0
230
1
50
360
0
POINT
5
130
100
AcDbEntity
8
Defpoints
62
0
6
ByLayer
370
-1
48
1
60
0
100
AcDbPoint
10
0
20
-36.657159
30
0
39
0
210
0
220
0
230
1
50
360
0
ENDBLK
5
127
100
AcDbEntity
8
0
100
AcDbBlockEnd
0
BLOCK
5
138
100
AcDbEntity
8
0
100
AcDbBlockBegin
2
_U2
70
0
10
0
20
0
30
0
3
_U2
0
MTEXT
5
132
100
AcDbEntity
8
SK2
62
256
6
ByLayer
370
18
48
1
60
0
100
AcDbMText
10
-14.48237
20
-35.772044
30
0
210
0
220
0
230
1
1
\W0.7468;20.00
40
3
41
0
44
1.084337
50
0
71
7
72
5
7
iso_b_vert
0
LINE
5
133
100
AcDbEntity
8
SK2
62
256
6
ByLayer
370
13
48
1
60
0
100
AcDbLine
10
-20
20
-2.1785
30
0
11
-20
21
-38.657159
31
0
39
0
210
0
220
0
230
1
0
LINE
5
134
100
AcDbEntity
8
SK2
62
256
6
ByLayer
370
13
48
1
60
0
100
AcDbLine
10
0
20
-2.1785
30
0
11
0
21
-38.657159
31
0
39
0
210
0
220
0
230
1
0
LINE
5
135
100
AcDbEntity
8
SK2
62
256
6
ByLayer
370
13
48
1
60
0
100
AcDbLine
10
-20
20
-36.657159
30
0
11
0
21
-36.657159
31
0
39
0
210
0
220
0
230
1
0
SOLID
5
136
100
AcDbEntity
8
SK2
62
256
6
ByLayer
370
18
48
1
60
0
100
AcDbTrace
10
-20
20
-36.657159
30
0
11
-16.500002
21
-36.196375
31
0
12
-16.499998
22
-37.117943
32
0
13
-16.499998
23
-37.117943
33
0
39
0
210
0
220
0
230
1
0
SOLID
5
137
100
AcDbEntity
8
SK2
62
256
6
ByLayer
370
18
48
1
60
0
100
AcDbTrace
10
0
20
-36.657159
30
0
11
-3.499998
21
-37.117943
31
0
12
-3.500002
22
-36.196375
32
0
13
-3.500002
23
-36.196375
33
0
39
0
210
0
220
0
230
1
0
ENDBLK
5
139
100
AcDbEntity
8
0
100
AcDbBlockEnd
0
BLOCK
5
13E
100
AcDbEntity
8
0
100
AcDbBlockBegin
2
*D7
70
1
10
0
20
0
30
0
3
*D7
0
LINE
5
140
100
AcDbEntity
8
0
62
256
6
ByLayer
370
-2
48
1
60
0
100
AcDbLine
10
18
20
-1.5875
30
0
11
18
21
-36.657159
31
0
39
0
210
0
220
0
230
1
0
LINE
5
141
100
AcDbEntity
8
0
62
256
6
ByLayer
370
-2
48
1
60
0
100
AcDbLine
10
6
20
-2.1785
30
0
11
6
21
-36.657159
31
0
39
0
210
0
220
0
230
1
0
LINE
5
142
100
AcDbEntity
8
0
62
256
6
ByLayer
370
-2
48
1
60
0
100
AcDbLine
10
21.5
20
-34.657159
30
0
11
25
21
-34.657159
31
0
39
0
210
0
220
0
230
1
0
LINE
5
143
100
AcDbEntity
8
0
62
256
6
ByLayer
370
-2
48
1
60
0
100
AcDbLine
10
2.5
20
-34.657159
30
0
11
-1
21
-34.657159
31
0
39
0
210
0
220
0
230
1
0
SOLID
5
144
100
AcDbEntity
8
0
62
256
6
ByLayer
370
-1
48
1
60
0
100
AcDbTrace
10
21.5
20
-34.073826
30
0
11
21.5
21
-35.240492
31
0
12
18
22
-34.657159
32
0
13
18
23
-34.657159
33
0
39
0
210
0
220
0
230
1
0
SOLID
5
145
100
AcDbEntity
8
0
62
256
6
ByLayer
370
-1
48
1
60
0
100
AcDbTrace
10
2.5
20
-35.240492
30
0
11
2.5
21
-34.073826
31
0
12
6
22
-34.657159
32
0
13
6
23
-34.657159
33
0
39
0
210
0
220
0
230
1
0
MTEXT
5
146
100
AcDbEntity
8
0
62
256
6
ByLayer
370
18
48
1
60
0
100
AcDbMText
10
12
20
-28.657159
30
0
210
0
220
0
230
1
1
\A1;12
40
3
41
0
44
1
50
0
71
5
72
5
7
iso_b_vert
0
POINT
5
147
100
AcDbEntity
8
Defpoints
62
0
6
ByLayer
370
-1
48
1
60
0
100
AcDbPoint
10
18
20
0
30
0
39
0
210
0
220
0
230
1
50
360
0
POINT
5
148
100
AcDbEntity
8
Defpoints
62
0
6
ByLayer
370
-1
48
1
60
0
100
AcDbPoint
10
6
20
-0.591
30
0
39
0
210
0
220
0
230
1
50
360
0
POINT
5
149
100
AcDbEntity
8
Defpoints
62
0
6
ByLayer
370
-1
48
1
60
0
100
AcDbPoint
10
6
20
-34.657159
30
0
39
0
210
0
220
0
230
1
50
360
0
ENDBLK
5
13F
100
AcDbEntity
8
0
100
AcDbBlockEnd
0
BLOCK
5
151
100
AcDbEntity
8
0
100
AcDbBlockBegin
2
_U3
70
0
10
0
20
0
30
0
3
_U3
0
MTEXT
5
14B
100
AcDbEntity
8
2
62
256
6
ByLayer
370
18
48
1
60
0
100
AcDbMText
10
7.892572
20
-33.772044
30
0
210
0
220
0
230
1
1
\W0.6864;12.00
40
3
41
0
44
1.084337
50
0
71
7
72
5
7
iso_b_vert
0
LINE
5
14C
100
AcDbEntity
8
2
62
256
6
ByLayer
370
13
48
1
60
0
100
AcDbLine
10
18
20
-1.5875
30
0
11
18
21
-36.657159
31
0
39
0
210
0
220
0
230
1
0
LINE
5
14D
100
AcDbEntity
8
2
62
256
6
ByLayer
370
13
48
1
60
0
100
AcDbLine
10
6
20
-2.1785
30
0
11
6
21
-36.657159
31
0
39
0
210
0
220
0
230
1
0
LINE
5
14E
100
AcDbEntity
8
2
62
256
6
ByLayer
370
13
48
1
60
0
100
AcDbLine
10
18
20
-34.657159
30
0
11
6
21
-34.657159
31
0
39
0
210
0
220
0
230
1
0
SOLID
5
14F
100
AcDbEntity
8
2
62
256
6
ByLayer
370
18
48
1
60
0
100
AcDbTrace
10
18
20
-34.657159
30
0
11
14.500002
21
-35.117943
31
0
12
14.499998
22
-34.196375
32
0
13
14.499998
23
-34.196375
33
0
39
0
210
0
220
0
230
1
0
SOLID
5
150
100
AcDbEntity
8
2
62
256
6
ByLayer
370
18
48
1
60
0
100
AcDbTrace
10
6
20
-34.657159
30
0
11
9.499998
21
-34.196375
31
0
12
9.500002
22
-35.117943
32
0
13
9.500002
23
-35.117943
33
0
39
0
210
0
220
0
230
1
0
ENDBLK
5
152
100
AcDbEntity
8
0
100
AcDbBlockEnd
0
ENDSEC
0
SECTION
2
ENTITIES
0
ARC
5
BB
100
AcDbEntity
8
2
62
256
6
ByLayer
370
13
48
1
60
0
100
AcDbCircle
39
0
10
18
20
0
30
0
40
22
210
0
220
0
230
1
100
AcDbArc
50
7.83748
51
61.596605
0
ARC
5
BC
100
AcDbEntity
8
2
62
256
6
ByLayer
370
13
48
1
60
0
100
AcDbCircle
39
0
10
18
20
0
30
0
40
22
210
0
220
0
230
1
100
AcDbArc
50
298.403395
51
352.16252
0
POINT
5
70
100
AcDbEntity
8
81
62
256
6
ByLayer
370
18
48
1
60
0
100
AcDbPoint
10
18
20
0
30
0
39
0
210
0
220
0
230
1
50
360
0
POINT
5
72
100
AcDbEntity
8
80
62
256
6
ByLayer
370
18
48
1
60
0
100
AcDbPoint
10
0
20
0
30
0
39
0
210
0
220
0
230
1
50
360
0
POINT
5
74
100
AcDbEntity
8
1
62
256
6
ByLayer
370
18
48
1
60
1
100
AcDbPoint
10
-20
20
-0.591
30
0
39
0
210
0
220
0
230
1
50
360
0
POINT
5
76
100
AcDbEntity
8
1
62
256
6
ByLayer
370
18
48
1
60
1
100
AcDbPoint
10
18
20
0
30
0
39
0
210
0
220
0
230
1
50
360
0
POINT
5
77
100
AcDbEntity
8
1
62
256
6
ByLayer
370
18
48
1
60
1
100
AcDbPoint
10
18
20
0
30
0
39
0
210
0
220
0
230
1
50
360
0
POINT
5
78
100
AcDbEntity
8
1
62
256
6
ByLayer
370
18
48
1
60
1
100
AcDbPoint
10
2
20
-0.591
30
0
39
0
210
0
220
0
230
1
50
360
0
POINT
5
79
100
AcDbEntity
8
1
62
256
6
ByLayer
370
18
48
1
60
1
100
AcDbPoint
10
-20
20
-0.591
30
0
39
0
210
0
220
0
230
1
50
360
0
POINT
5
7A
100
AcDbEntity
8
1
62
256
6
ByLayer
370
18
48
1
60
1
100
AcDbPoint
10
0
20
-0.591
30
0
39
0
210
0
220
0
230
1
50
360
0
POINT
5
7B
100
AcDbEntity
8
1
62
256
6
ByLayer
370
18
48
1
60
1
100
AcDbPoint
10
18
20
0
30
0
39
0
210
0
220
0
230
1
50
360
0
POINT
5
7C
100
AcDbEntity
8
1
62
256
6
ByLayer
370
18
48
1
60
1
100
AcDbPoint
10
6
20
-0.591
30
0
39
0
210
0
220
0
230
1
50
360
0
SPLINE
5
BD
100
AcDbEntity
8
CUT
62
256
6
ByLayer
370
18
48
1
60
0
100
AcDbSpline
70
2053
71
3
72
17
73
13
40
0
40
0
40
0
40
0
40
0.481175923740431
40
0.481175923740431
40
0.481175923740431
40
0.50469820272189
40
0.50469820272189
40
0.50469820272189
40
0.973058930316935
40
0.973058930316935
40
0.973058930316935
40
1
40
1
40
1
40
1
41
1
10
18
20
0
30
0
41
1
10
14
20
0
30
0
41
1
10
10
20
0
30
0
41
1
10
6
20
0
30
0
41
1
10
6
20
0.195539949710337
30
0
41
1
10
6
20
0.391079899420674
30
0
41
1
10
6.00000000000003
20
0.586619849130983
30
0
41
1
10
9.89346741225194
20
0.588079899410502
30
0
41
1
10
13.7869348245038
20
0.589539949689993
30
0
41
1
10
17.6804022367557
20
0.590999999969512
30
0
41
1
10
17.7869348245038
20
0.393999999979684
30
0
41
1
10
17.8934674122519
20
0.196999999989828
30
0
41
1
10
18
20
0
30
0
0
SPLINE
5
BF
100
AcDbEntity
8
NOCUT
62
256
6
ByLayer
370
18
48
1
60
0
100
AcDbSpline
70
2053
71
3
72
26
73
22
40
0
40
0
40
0
40
0
40
0.489470059664026
40
0.489470059664026
40
0.489470059664026
40
0.500513630915529
40
0.500513630915529
40
0.500513630915529
40
0.611585690725142
40
0.611585690725142
40
0.611585690725142
40
0.613472354566766
40
0.613472354566766
40
0.613472354566766
40
0.988086382151593
40
0.988086382151593
40
0.988086382151593
40
0.990775371952486
40
0.990775371952486
40
0.990775371952486
40
1
40
1
40
1
40
1
41
1
10
-20
20
0
30
0
41
1
10
-11.3333333333333
20
0
30
0
41
1
10
-2.66666666666666
20
0
30
0
41
1
10
6
20
0
30
0
41
1
10
6
20
0.195539949710337
30
0
41
1
10
6
20
0.391079899420674
30
0
41
1
10
6
20
0.586619849130983
30
0
41
1
10
4.03333333333327
20
0.585882349131055
30
0
41
1
10
2.06666666666652
20
0.585144849131098
30
0
41
1
10
0.0999999999859824
20
0.58440734913205
30
0
41
1
10
0.0666666666481035
20
0.586604899421985
30
0
41
1
10
0.0333333333240375
20
0.588802449710983
30
0
41
1
10
0
20
0.591000000000008
30
0
41
1
10
-6.63300000000001
20
0.591000000000008
30
0
41
1
10
-13.266
20
0.591000000000008
30
0
41
1
10
-19.899
20
0.591000000000008
30
0
41
1
10
-19.9326666666667
20
0.557333333333332
30
0
41
1
10
-19.9663333333333
20
0.523666666666657
30
0
41
1
10
-20
20
0.490000000000009
30
0
41
1
10
-20
20
0.326666666666654
30
0
41
1
10
-20
20
0.163333333333327
30
0
41
1
10
-20
20
0
30
0
0
SPLINE
5
C1
100
AcDbEntity
8
1
62
256
6
ByLayer
370
18
48
1
60
0
100
AcDbSpline
70
4
71
3
72
48
73
44
40
0
40
0
40
0
40
0
40
0.125000000000004
40
0.125000000000004
40
0.250000000000008
40
0.250000000000008
40
0.31250000000001
40
0.31250000000001
40
0.375000000000011
40
0.375000000000011
40
0.437500000000013
40
0.437500000000013
40
0.468750000000014
40
0.468750000000014
40
0.484375000000015
40
0.484375000000015
40
0.492187500000015
40
0.492187500000015
40
0.500000000000015
40
0.500000000000015
40
0.507812500000016
40
0.507812500000016
40
0.515625000000016
40
0.515625000000016
40
0.531250000000016
40
0.531250000000016
40
0.562500000000017
40
0.562500000000017
40
0.593750000000018
40
0.593750000000018
40
0.625000000000019
40
0.625000000000019
40
0.65625000000002
40
0.65625000000002
40
0.687500000000021
40
0.687500000000021
40
0.750000000000015
40
0.750000000000015
40
0.875000000000004
40
0.875000000000004
40
0.937500000000002
40
0.937500000000002
40
1
40
1
40
1
40
1
41
1
10
17.6804022367557
20
0.572351383224401
30
0
41
1
10
17.7046678461905
20
0.528205302437215
30
0
41
1
10
17.7287874003236
20
0.483674942192124
30
0
41
1
10
17.7766320007227
20
0.394037197184986
30
0
41
1
10
17.8003930040273
20
0.348922929547626
30
0
41
1
10
17.8352143754318
20
0.28080482928101
30
0
41
1
10
17.8466593388283
20
0.258001049714409
30
0
41
1
10
17.869240137024
20
0.2122678237846
30
0
41
1
10
17.8804151878368
20
0.189370885299098
30
0
41
1
10
17.9023553135713
20
0.143569122111529
30
0
41
1
10
17.9131532429678
20
0.120623213503706
30
0
41
1
10
17.9283551452554
20
0.0860447436679976
30
0
41
1
10
17.9332672000003
20
0.07450196505863
30
0
41
1
10
17.9401159708218
20
0.0570409216636847
30
0
41
1
10
17.9423297420349
20
0.0512085540391922
30
0
41
1
10
17.9451706854606
20
0.0421771703920797
30
0
41
1
10
17.9460311183327
20
0.0391146962481912
30
0
41
1
10
17.9474286034288
20
0.0327853892597147
30
0
41
1
10
17.9479559194719
20
0.0294941777808049
30
0
41
1
10
17.9484820789275
20
0.0230874432552923
30
0
41
1
10
17.9484930150412
20
0.0199245993734678
30
0
41
1
10
17.9480507927105
20
0.0136661854984084
30
0
41
1
10
17.947608470861
20
0.0106487576358916
30
0
41
1
10
17.9459096145686
20
0.0018746098834583
30
0
41
1
10
17.9443213933827
20
-0.0037297764199309
30
0
41
1
10
17.9389838449132
20
-0.0204371662435676
30
0
41
1
10
17.9345664241883
20
-0.0312740674250733
30
0
41
1
10
17.9249806777573
20
-0.0522179976493362
30
0
41
1
10
17.9197830967819
20
-0.0623735658339228
30
0
41
1
10
17.9089760401636
20
-0.0821956094986831
30
0
41
1
10
17.9033610406084
20
-0.0918608240144749
30
0
41
1
10
17.89189386446
20
-0.110775063173662
30
0
41
1
10
17.8860392527551
20
-0.120023412877003
30
0
41
1
10
17.8741779201368
20
-0.138140641053099
30
0
41
1
10
17.8681571492144
20
-0.147027338965387
30
0
41
1
10
17.8500407023571
20
-0.172983605331126
30
0
41
1
10
17.8379042061411
20
-0.189344554186277
30
0
41
1
10
17.8015039166176
20
-0.235817914705393
30
0
41
1
10
17.7772524979206
20
-0.263336732572128
30
0
41
1
10
17.7408347850126
20
-0.299657263457988
30
0
41
1
10
17.7286480160152
20
-0.310963022088288
30
0
41
1
10
17.7044277507899
20
-0.331705528942678
30
0
41
1
10
17.6923911586962
20
-0.341149522795746
30
0
41
1
10
17.6804022367557
20
-0.349674406650536
30
0
0
SPLINE
5
C2
100
AcDbEntity
8
1
62
256
6
ByLayer
370
18
48
1
60
0
100
AcDbSpline
70
4
71
3
72
48
73
44
40
0
40
0
40
0
40
0
40
0.0142503302112793
40
0.0142503302112793
40
0.0315441840672228
40
0.0315441840672228
40
0.0661318917791052
40
0.0661318917791052
40
0.100719599490988
40
0.100719599490988
40
0.169895014914753
40
0.169895014914753
40
0.239070430338518
40
0.239070430338518
40
0.308245845762283
40
0.308245845762283
40
0.377421261186048
40
0.377421261186048
40
0.446596676609813
40
0.446596676609813
40
0.463890530465757
40
0.463890530465757
40
0.4811843843217
40
0.4811843843217
40
0.48983131124967
40
0.48983131124967
40
0.498478238177639
40
0.498478238177639
40
0.515772092033583
40
0.515772092033583
40
0.533065945889527
40
0.533065945889527
40
0.550359799745471
40
0.550359799745471
40
0.584947507457358
40
0.584947507457358
40
0.654122922881134
40
0.654122922881134
40
0.723298338304909
40
0.723298338304909
40
0.861649169152455
40
0.861649169152455
40
1
40
1
40
1
40
1
41
1
10
2.09152668221736
20
-0.585147157561011
30
0
41
1
10
2.09912152178924
20
-0.585118245783775
30
0
41
1
10
2.10694720322334
20
-0.584982815218638
30
0
41
1
10
2.12469873340717
20
-0.584496248371465
30
0
41
1
10
2.13473998583788
20
-0.584103262363158
30
0
41
1
10
2.165197002779
20
-0.582654267670023
30
0
41
1
10
2.18605472893285
20
-0.581332610310284
30
0
41
1
10
2.22852969278728
20
-0.578282381666327
30
0
41
1
10
2.25015138750223
20
-0.576549855927169
30
0
41
1
10
2.31588149040391
20
-0.570976257394676
30
0
41
1
10
2.36084106754873
20
-0.566770611099258
30
0
41
1
10
2.45225195150465
20
-0.558040415604864
30
0
41
1
10
2.49849543966232
20
-0.553526321998675
30
0
41
1
10
2.59144801276844
20
-0.544546443099875
30
0
41
1
10
2.63822085695435
20
-0.540071073858456
30
0
41
1
10
2.73223550766161
20
-0.531322819350322
30
0
41
1
10
2.77947775931443
20
-0.527047452633951
30
0
41
1
10
2.8743596758589
20
-0.518814307706833
30
0
41
1
10
2.9219814519571
20
-0.514881107914704
30
0
41
1
10
2.98160412594439
20
-0.510165703910616
30
0
41
1
10
2.99353396747668
20
-0.509230268808864
30
0
41
1
10
3.01739796537376
20
-0.507356659134302
30
0
41
1
10
3.0293253871497
20
-0.506397206579635
30
0
41
1
10
3.04725232559073
20
-0.505058765315852
30
0
41
1
10
3.05323535710429
20
-0.50463377862593
30
0
41
1
10
3.06527418810268
20
-0.504011160655637
30
0
41
1
10
3.07137052935531
20
-0.503822683153999
30
0
41
1
10
3.08932490701429
20
-0.503850812199346
30
0
41
1
10
3.10092172211765
20
-0.50469102495731
30
0
41
1
10
3.12370798270885
20
-0.507229230830518
30
0
41
1
10
3.1349431611211
20
-0.508823698798352
30
0
41
1
10
3.15745553021392
20
-0.511873710647421
30
0
41
1
10
3.16871351294657
20
-0.513373044092617
30
0
41
1
10
3.20251259686415
20
-0.517755714298119
30
0
41
1
10
3.22506522787802
20
-0.52055284371167
30
0
41
1
10
3.29273251391805
20
-0.528682597775656
30
0
41
1
10
3.33786728213391
20
-0.533731597142321
30
0
41
1
10
3.42809108295901
20
-0.543139155200493
30
0
41
1
10
3.47317702545703
20
-0.547538288352769
30
0
41
1
10
3.60692017879558
20
-0.560900579545034
30
0
41
1
10
3.69418253330616
20
-0.569784629123745
30
0
41
1
10
3.86593455825903
20
-0.582616361890217
30
0
41
1
10
3.95042273507715
20
-0.586519736097188
30
0
41
1
10
4.03430512587485
20
-0.58578561255419
30
0
0
SPLINE
5
C3
100
AcDbEntity
8
1
62
256
6
ByLayer
370
18
48
1
60
0
100
AcDbSpline
70
4
71
3
72
52
73
48
40
0
40
0
40
0
40
0
40
0.0453514764469432
40
0.0453514764469432
40
0.0907029528938863
40
0.0907029528938863
40
0.136054429340829
40
0.136054429340829
40
0.181405905787772
40
0.181405905787772
40
0.226757382234716
40
0.226757382234716
40
0.272108858681659
40
0.272108858681659
40
0.317460335128602
40
0.317460335128602
40
0.362811811575545
40
0.362811811575545
40
0.408163288022488
40
0.408163288022488
40
0.453514764469431
40
0.453514764469431
40
0.498866240916374
40
0.498866240916374
40
0.544217717363318
40
0.544217717363318
40
0.589569193810261
40
0.589569193810261
40
0.634920670257204
40
0.634920670257204
40
0.680272146704147
40
0.680272146704147
40
0.72562362315109
40
0.72562362315109
40
0.770975099598033
40
0.770975099598033
40
0.816326576044976
40
0.816326576044976
40
0.86167805249192
40
0.86167805249192
40
0.907029528938863
40
0.907029528938863
40
0.952381005385806
40
0.952381005385806
40
0.997732481832749
40
0.997732481832749
40
1
40
1
40
1
40
1
41
1
10
17.6804022367558
20
-0.349674406650564
30
0
41
1
10
17.6445381260183
20
-0.333693488675436
30
0
41
1
10
17.6088236887785
20
-0.317180629481186
30
0
41
1
10
17.5376520360578
20
-0.283165602894343
30
0
41
1
10
17.5021619902742
20
-0.26571665842394
30
0
41
1
10
17.4312673155407
20
-0.230124372121253
30
0
41
1
10
17.3958869056915
20
-0.211940941867709
30
0
41
1
10
17.3252604603949
20
-0.174794255851367
30
0
41
1
10
17.2899897349477
20
-0.155871827852962
30
0
41
1
10
17.2192729314568
20
-0.117796405778279
30
0
41
1
10
17.1838540214573
20
-0.0985976446412735
30
0
41
1
10
17.1129853700332
20
-0.0597094729026253
30
0
41
1
10
17.0775160842421
20
-0.0400536987930877
30
0
41
1
10
17.0063152619537
20
-0.0006718749883419
30
0
41
1
10
16.9705899612202
20
0.019063801710729
30
0
41
1
10
16.8989354797418
20
0.0587284270194459
30
0
41
1
10
16.863294180604
20
0.0785239391508696
30
0
41
1
10
16.7921527385289
20
0.117502938292688
30
0
41
1
10
16.756619652797
20
0.136647430389814
30
0
41
1
10
16.6857109705387
20
0.174420489509259
30
0
41
1
10
16.6503567272076
20
0.193084020594
30
0
41
1
10
16.5796668609906
20
0.229645185257198
30
0
41
1
10
16.5443139622826
20
0.247515424513296
30
0
41
1
10
16.4736006599182
20
0.282452913960071
30
0
41
1
10
16.4382696015652
20
0.299566530299813
30
0
41
1
10
16.3675029974844
20
0.332815696492645
30
0
41
1
10
16.3320245585856
20
0.348884694863187
30
0
41
1
10
16.2607989849658
20
0.379796386597633
30
0
41
1
10
16.2250955686376
20
0.394704877459134
30
0
41
1
10
16.153451668054
20
0.423320247640504
30
0
41
1
10
16.117701458487
20
0.436888616036896
30
0
41
1
10
16.0464459569165
20
0.462383422822768
30
0
41
1
10
16.0109334451325
20
0.474356911542969
30
0
41
1
10
15.940126536586
20
0.496739559052031
30
0
41
1
10
15.9048047802779
20
0.507113014915404
30
0
41
1
10
15.8340734159365
20
0.526017026893612
30
0
41
1
10
15.7986944951732
20
0.534584111183278
30
0
41
1
10
15.7279907453858
20
0.550011138401942
30
0
41
1
10
15.6926434289957
20
0.556847387842538
30
0
41
1
10
15.6217733136351
20
0.568639500142467
30
0
41
1
10
15.5862590434718
20
0.573606847239233
30
0
41
1
10
15.5151218340196
20
0.581672553754231
30
0
41
1
10
15.4795065061959
20
0.584764238107738
30
0
41
1
10
15.4079034054759
20
0.588939131176545
30
0
41
1
10
15.3720786935387
20
0.590015981019548
30
0
41
1
10
15.3346493367523
20
0.590116698562014
30
0
41
1
10
15.3328673950047
20
0.590119027509303
30
0
41
1
10
15.3310858082129
20
0.590118891318667
30
0
0
SPLINE
5
C4
100
AcDbEntity
8
1
62
256
6
ByLayer
370
18
48
1
60
0
100
AcDbSpline
70
4
71
3
72
90
73
86
40
0
40
0
40
0
40
0
40
0.0060743454497003
40
0.0060743454497003
40
0.030372137893316
40
0.030372137893316
40
0.0546699303369315
40
0.0546699303369315
40
0.0789677227805472
40
0.0789677227805472
40
0.103265515224163
40
0.103265515224163
40
0.127563307667778
40
0.127563307667778
40
0.139712203889584
40
0.139712203889584
40
0.151861100111391
40
0.151861100111391
40
0.176158892555003
40
0.176158892555003
40
0.200456684998614
40
0.200456684998614
40
0.249052269885839
40
0.249052269885839
40
0.273350062329451
40
0.273350062329451
40
0.297647854773062
40
0.297647854773062
40
0.30979675099487
40
0.30979675099487
40
0.321945647216678
40
0.321945647216678
40
0.34624343966029
40
0.34624343966029
40
0.370541232103902
40
0.370541232103902
40
0.394839024547514
40
0.394839024547514
40
0.419136816991126
40
0.419136816991126
40
0.443434609434738
40
0.443434609434738
40
0.46773240187835
40
0.46773240187835
40
0.492030194321962
40
0.492030194321962
40
0.516327986765574
40
0.516327986765574
40
0.540625779209186
40
0.540625779209186
40
0.589221364096412
40
0.589221364096412
40
0.613519156540025
40
0.613519156540025
40
0.637816948983639
40
0.637816948983639
40
0.662114741427253
40
0.662114741427253
40
0.686412533870867
40
0.686412533870867
40
0.710710326314481
40
0.710710326314481
40
0.735008118758095
40
0.735008118758095
40
0.759305911201709
40
0.759305911201709
40
0.783603703645323
40
0.783603703645323
40
0.807901496088936
40
0.807901496088936
40
0.83219928853255
40
0.83219928853255
40
0.856497080976164
40
0.856497080976164
40
0.880794873419778
40
0.880794873419778
40
0.905092665863392
40
0.905092665863392
40
0.929390458307006
40
0.929390458307006
40
0.95368825075062
40
0.95368825075062
40
0.977986043194233
40
0.977986043194233
40
1
40
1
40
1
40
1
41
1
10
13.0188962375394
20
-0.331455914463078
30
0
41
1
10
13.0100119771661
20
-0.335504763238959
30
0
41
1
10
13.0011344026168
20
-0.339519318067232
30
0
41
1
10
12.9567815051608
20
-0.359424925635693
30
0
41
1
10
12.9213851251921
20
-0.374766137533896
30
0
41
1
10
12.8505939068563
20
-0.404051712140301
30
0
41
1
10
12.8152122600537
20
-0.418019297345666
30
0
41
1
10
12.7445286722356
20
-0.444662446661596
30
0
41
1
10
12.7092247619914
20
-0.457328222018361
30
0
41
1
10
12.6384119642874
20
-0.481008220590894
30
0
41
1
10
12.6028919275996
20
-0.492018476988676
30
0
41
1
10
12.5317290734381
20
-0.512487428948504
30
0
41
1
10
12.4960970723324
20
-0.521949832373281
30
0
41
1
10
12.4424197977681
20
-0.534817006853046
30
0
41
1
10
12.424465494175
20
-0.538889226496309
30
0
41
1
10
12.3886429569843
20
-0.546551348736045
30
0
41
1
10
12.3707645303736
20
-0.550145680365347
30
0
41
1
10
12.3172369472332
20
-0.560230450473796
30
0
41
1
10
12.2817190428688
20
-0.566032926285203
30
0
41
1
10
12.2108126825732
20
-0.575689149340036
30
0
41
1
10
12.1753821851055
20
-0.579529662984555
30
0
41
1
10
12.0691367693362
20
-0.588164001704712
30
0
41
1
10
11.9985345096035
20
-0.590085299391149
30
0
41
1
10
11.8922243569914
20
-0.587116616960714
30
0
41
1
10
11.8567605074411
20
-0.585154835868167
30
0
41
1
10
11.7857254310216
20
-0.579241779847194
30
0
41
1
10
11.7501191475074
20
-0.575295269175484
30
0
41
1
10
11.6964233883914
20
-0.5679467977115
30
0
41
1
10
11.6784606212038
20
-0.565252755468549
30
0
41
1
10
11.6426118514478
20
-0.559396542332081
30
0
41
1
10
11.6247285432693
20
-0.556233552991586
30
0
41
1
10
11.5711883414555
20
-0.546049937453319
30
0
41
1
10
11.5356241820834
20
-0.538343713157673
30
0
41
1
10
11.4645895508535
20
-0.521253639809458
30
0
41
1
10
11.4291345482413
20
-0.511862399170042
30
0
41
1
10
11.3583963865245
20
-0.491342809427607
30
0
41
1
10
11.3231065058613
20
-0.480212752319517
30
0
41
1
10
11.2524001976851
20
-0.456520168887835
30
0
41
1
10
11.2169807967702
20
-0.443970570183865
30
0
41
1
10
11.1461142518648
20
-0.417345801960238
30
0
41
1
10
11.1106731380742
20
-0.403255350392811
30
0
41
1
10
11.0395714553388
20
-0.373767740404446
30
0
41
1
10
11.0039030284059
20
-0.358387943472792
30
0
41
1
10
10.9323651582905
20
-0.326277038170446
30
0
41
1
10
10.8964864295816
20
-0.309481145669764
30
0
41
1
10
10.8251287543034
20
-0.275143130441137
30
0
41
1
10
10.7895152242215
20
-0.257630876475986
30
0
41
1
10
10.7184242887695
20
-0.221926661840655
30
0
41
1
10
10.6829842389681
20
-0.203669431714246
30
0
41
1
10
10.5768003249534
20
-0.147995719345801
30
0
41
1
10
10.5060630817639
20
-0.10991407334717
30
0
41
1
10
10.3999470698515
20
-0.0514878115624526
30
0
41
1
10
10.364525912526
20
-0.0318801988670998
30
0
41
1
10
10.2934004485621
20
0.0072508700870628
30
0
41
1
10
10.2577375351078
20
0.0268509621387238
30
0
41
1
10
10.1862376905368
20
0.0661817102557052
30
0
41
1
10
10.1503102493147
20
0.0858828123016053
30
0
41
1
10
10.0788121592491
20
0.124598690755278
30
0
41
1
10
10.0431750516522
20
0.143695920018388
30
0
41
1
10
9.97216368747408
20
0.181446222053666
30
0
41
1
10
9.9367784314542
20
0.200074580588193
30
0
41
1
10
9.86596269942325
20
0.236346488498015
30
0
41
1
10
9.83053861724051
20
0.254006640022624
30
0
41
1
10
9.75976286368876
20
0.288559644169027
30
0
41
1
10
9.72441157834567
20
0.305448752658919
30
0
41
1
10
9.65357694877321
20
0.338117628184705
30
0
41
1
10
9.61808855612199
20
0.35389309497711
30
0
41
1
10
9.54701251975342
20
0.384381168959664
30
0
41
1
10
9.51144770297836
20
0.399123286595795
30
0
41
1
10
9.44002909457836
20
0.427242417813176
30
0
41
1
10
9.40406281019028
20
0.440594189484841
30
0
41
1
10
9.33251104661278
20
0.465622844470346
30
0
41
1
10
9.29688885558392
20
0.47736862095428
30
0
41
1
10
9.22581374814683
20
0.499180091263071
30
0
41
1
10
9.19033504492103
20
0.509221825945133
30
0
41
1
10
9.1194632591363
20
0.527577258799056
30
0
41
1
10
9.0841000057674
20
0.535915376505898
30
0
41
1
10
9.01342748578543
20
0.550817671686218
30
0
41
1
10
8.97807882768706
20
0.557352135920638
30
0
41
1
10
8.90720003018632
20
0.568518490277256
30
0
41
1
10
8.87171277894072
20
0.573178287621005
30
0
41
1
10
8.80065517902639
20
0.580623686928845
30
0
41
1
10
8.7650516869594
20
0.583392682036418
30
0
41
1
10
8.69691218791198
20
0.586796316860557
30
0
41
1
10
8.66434609327857
20
0.587611701887738
30
0
41
1
10
8.6319324833687
20
0.5876066902307
30
0
0
SPLINE
5
C5
100
AcDbEntity
8
1
62
256
6
ByLayer
370
18
48
1
60
0
100
AcDbSpline
70
4
71
3
72
50
73
46
40
0
40
0
40
0
40
0
40
0.0209790843659373
40
0.0209790843659373
40
0.067599127967561
40
0.067599127967561
40
0.114219171569184
40
0.114219171569184
40
0.160839215170808
40
0.160839215170808
40
0.207459258772431
40
0.207459258772431
40
0.254079302374054
40
0.254079302374054
40
0.277389324174865
40
0.277389324174865
40
0.300699345975674
40
0.300699345975674
40
0.347319389577294
40
0.347319389577294
40
0.393939433178915
40
0.393939433178915
40
0.440559476780534
40
0.440559476780534
40
0.487179520382155
40
0.487179520382155
40
0.533799563983775
40
0.533799563983775
40
0.580419607585396
40
0.580419607585396
40
0.627039651187015
40
0.627039651187015
40
0.720279738390259
40
0.720279738390259
40
0.766899781991882
40
0.766899781991882
40
0.813519825593506
40
0.813519825593506
40
0.86013986919513
40
0.86013986919513
40
0.906759912796753
40
0.906759912796753
40
0.953379956398376
40
0.953379956398376
40
1
40
1
40
1
40
1
41
1
10
6.32328279756456
20
-0.328530064234286
30
0
41
1
10
6.30723069706016
20
-0.335866020434707
30
0
41
1
10
6.2912063268418
20
-0.34308728868487
30
0
41
1
10
6.23964143208073
20
-0.36595455308273
30
0
41
1
10
6.20414254962344
20
-0.381045917883995
30
0
41
1
10
6.13317161533297
20
-0.409774477081441
30
0
41
1
10
6.09774344262229
20
-0.42347374667861
30
0
41
1
10
6.02696812096323
20
-0.449491615141056
30
0
41
1
10
5.99158747190438
20
-0.46176686609175
30
0
41
1
10
5.92073024946632
20
-0.484729564421457
30
0
41
1
10
5.88527774179835
20
-0.495446261213402
30
0
41
1
10
5.81432969145632
20
-0.515320562336825
30
0
41
1
10
5.77881012070389
20
-0.524448547579681
30
0
41
1
10
5.72526459441224
20
-0.536749280923686
30
0
41
1
10
5.70737763696073
20
-0.540623881808074
30
0
41
1
10
5.67153998949706
20
-0.547930263339538
30
0
41
1
10
5.65356573104049
20
-0.551366541515904
30
0
41
1
10
5.59978106114318
20
-0.560968008566647
30
0
41
1
10
5.56408641552861
20
-0.566415913870799
30
0
41
1
10
5.49282820572236
20
-0.57534650295824
30
0
41
1
10
5.4572710212897
20
-0.578839863636745
30
0
41
1
10
5.38635283971877
20
-0.583914651007746
30
0
41
1
10
5.35100247644118
20
-0.585488522097023
30
0
41
1
10
5.2802488192763
20
-0.58667292924298
30
0
41
1
10
5.24482047934617
20
-0.586293095699688
30
0
41
1
10
5.17394915852094
20
-0.583611150374821
30
0
41
1
10
5.13852794680881
20
-0.581297929796534
30
0
41
1
10
5.06753066093015
20
-0.574736480557561
30
0
41
1
10
5.0319369828851
20
-0.57049979808059
30
0
41
1
10
4.96056577602809
20
-0.560091186983897
30
0
41
1
10
4.92476945733858
20
-0.553889173078829
30
0
41
1
10
4.81725829274831
20
-0.532419747924592
30
0
41
1
10
4.74595223113539
20
-0.514652990989759
30
0
41
1
10
4.63951960444848
20
-0.483047723087481
30
0
41
1
10
4.60408938571175
20
-0.471719818336453
30
0
41
1
10
4.53323297408434
20
-0.447596864468892
30
0
41
1
10
4.49783095204128
20
-0.434775767808702
30
0
41
1
10
4.42706897470589
20
-0.407604273278679
30
0
41
1
10
4.39168586550565
20
-0.393278743757435
30
0
41
1
10
4.32068861387441
20
-0.363460473566221
30
0
41
1
10
4.28509358092657
20
-0.347944845266625
30
0
41
1
10
4.21367594348712
20
-0.315751155540767
30
0
41
1
10
4.17783698534765
20
-0.299080327875544
30
0
41
1
10
4.10596297135015
20
-0.264572435027048
30
0
41
1
10
4.07007671097213
20
-0.246807310389983
30
0
41
1
10
4.03430512587485
20
-0.228406539085455
30
0
0
SPLINE
5
C6
100
AcDbEntity
8
1
62
256
6
ByLayer
370
18
48
1
60
0
100
AcDbSpline
70
4
71
3
72
70
73
66
40
0
40
0
40
0
40
0
40
0.0320533323466599
40
0.0320533323466599
40
0.0641066646933198
40
0.0641066646933198
40
0.0961599970399797
40
0.0961599970399797
40
0.12821332938664
40
0.12821332938664
40
0.1602666617333
40
0.1602666617333
40
0.192319994079959
40
0.192319994079959
40
0.224373326426619
40
0.224373326426619
40
0.256426658773279
40
0.256426658773279
40
0.288479991119939
40
0.288479991119939
40
0.320533323466599
40
0.320533323466599
40
0.352586655813259
40
0.352586655813259
40
0.384639988159919
40
0.384639988159919
40
0.416693320506579
40
0.416693320506579
40
0.448746652853239
40
0.448746652853239
40
0.480799985199899
40
0.480799985199899
40
0.512853317546558
40
0.512853317546558
40
0.544906649893218
40
0.544906649893218
40
0.576959982239878
40
0.576959982239878
40
0.609013314586538
40
0.609013314586538
40
0.641066646933198
40
0.641066646933198
40
0.673119979279858
40
0.673119979279858
40
0.705173311626518
40
0.705173311626518
40
0.737226643973178
40
0.737226643973178
40
0.769279976319837
40
0.769279976319837
40
0.801333308666497
40
0.801333308666497
40
0.833386641013157
40
0.833386641013157
40
0.865439973359817
40
0.865439973359817
40
0.897493305706477
40
0.897493305706477
40
0.929546638053137
40
0.929546638053137
40
0.961599970399797
40
0.961599970399797
40
0.993653302746457
40
0.993653302746457
40
1
40
1
40
1
40
1
41
1
10
4.03430512587485
20
0.585785612554332
30
0
41
1
10
4.06982436392849
20
0.585428475149826
30
0
41
1
10
4.10545765428401
20
0.584032948744607
30
0
41
1
10
4.17677368962961
20
0.579403552199466
30
0
41
1
10
4.21245398401206
20
0.576169182030469
30
0
41
1
10
4.28361561338528
20
0.567847663746107
30
0
41
1
10
4.31908286795186
20
0.56274803473795
30
0
41
1
10
4.38976593587819
20
0.550584821049654
30
0
41
1
10
4.42495460970153
20
0.543494475804152
30
0
41
1
10
4.49538635742385
20
0.527467946074637
30
0
41
1
10
4.5306561686958
20
0.518554668858286
30
0
41
1
10
4.60156625749406
20
0.499216908063744
30
0
41
1
10
4.63723483469732
20
0.488830867025428
30
0
41
1
10
4.70884901455128
20
0.466546899367529
30
0
41
1
10
4.74479820053998
20
0.454576936931147
30
0
41
1
10
4.81651288829349
20
0.428823363141902
30
0
41
1
10
4.85210537681854
20
0.41509042149255
30
0
41
1
10
4.92293518184391
20
0.386105661030569
30
0
41
1
10
4.95821105045712
20
0.370904367173068
30
0
41
1
10
5.0288712488414
20
0.339673337471339
30
0
41
1
10
5.06425571575232
20
0.323648224971407
30
0
41
1
10
5.13524129107446
20
0.291013416693005
30
0
41
1
10
5.17079601633222
20
0.274336505087206
30
0
41
1
10
5.24172888209151
20
0.239766808391096
30
0
41
1
10
5.27712720466462
20
0.221903071694982
30
0
41
1
10
5.3478074501144
20
0.184985558573913
30
0
41
1
10
5.38310751012594
20
0.165956954376952
30
0
41
1
10
5.45406593627581
20
0.12752614570735
30
0
41
1
10
5.48976100524004
20
0.108106223824137
30
0
41
1
10
5.56155026795284
20
0.0694155677829258
30
0
41
1
10
5.59752850297337
20
0.0502339841028174
30
0
41
1
10
5.66930687672391
20
0.0115653208327728
30
0
41
1
10
5.70509163345181
20
-0.0079497986093031
30
0
41
1
10
5.77644544613435
20
-0.0473529591732813
30
0
41
1
10
5.81198752466591
20
-0.0672901821595246
30
0
41
1
10
5.8832148176036
20
-0.106880701552086
30
0
41
1
10
5.91893423521438
20
-0.12649086655864
30
0
41
1
10
5.99024626121113
20
-0.164543653501937
30
0
41
1
10
6.0259464960736
20
-0.182972026291452
30
0
41
1
10
6.09725284290889
20
-0.219035219508157
30
0
41
1
10
6.13281366085482
20
-0.23674908724081
30
0
41
1
10
6.20362829344296
20
-0.271721444504749
30
0
41
1
10
6.23887229844146
20
-0.288991351199769
30
0
41
1
10
6.30924171821454
20
-0.322705472107629
30
0
41
1
10
6.34440479166457
20
-0.339087459198652
30
0
41
1
10
6.4150482579947
20
-0.370364886654755
30
0
41
1
10
6.45053277186571
20
-0.385258761522238
30
0
41
1
10
6.52189209532827
20
-0.413516926086231
30
0
41
1
10
6.55771723748674
20
-0.426956257087426
30
0
41
1
10
6.62938887560583
20
-0.452783928715888
30
0
41
1
10
6.66524458117252
20
-0.465134923518917
30
0
41
1
10
6.73647439170455
20
-0.488376839756455
30
0
41
1
10
6.77194690053329
20
-0.499255018181458
30
0
41
1
10
6.84306386766221
20
-0.519077540192598
30
0
41
1
10
6.87870190022932
20
-0.528034081161962
30
0
41
1
10
6.95035544232834
20
-0.543961180442039
30
0
41
1
10
6.98642597020134
20
-0.550962985342636
30
0
41
1
10
7.05825601562449
20
-0.563219413310605
30
0
41
1
10
7.09396162197336
20
-0.568462776099096
30
0
41
1
10
7.16494998185811
20
-0.577102686011557
30
0
41
1
10
7.2002109870499
20
-0.580495119856579
30
0
41
1
10
7.27067733716237
20
-0.585253129686578
30
0
41
1
10
7.30590196964712
20
-0.586620070611872
30
0
41
1
10
7.34823868784221
20
-0.587089202627652
30
0
41
1
10
7.35524188239813
20
-0.587129009634623
30
0
41
1
10
7.3622500484723
20
-0.587131381657741
30
0
0
SPLINE
5
C7
100
AcDbEntity
8
1
62
256
6
ByLayer
370
18
48
1
60
0
100
AcDbSpline
70
4
71
3
72
98
73
94
40
0
40
0
40
0
40
0
40
0.0039797149991314
40
0.0039797149991314
40
0.0282468471846885
40
0.0282468471846885
40
0.0525139793702457
40
0.0525139793702457
40
0.0767811115558028
40
0.0767811115558028
40
0.10104824374136
40
0.10104824374136
40
0.125315375926917
40
0.125315375926917
40
0.149582508112474
40
0.149582508112474
40
0.173849640298031
40
0.173849640298031
40
0.198116772483588
40
0.198116772483588
40
0.222383904669146
40
0.222383904669146
40
0.246651036854703
40
0.246651036854703
40
0.27091816904026
40
0.27091816904026
40
0.295185301225817
40
0.295185301225817
40
0.319452433411374
40
0.319452433411374
40
0.343719565596931
40
0.343719565596931
40
0.367986697782488
40
0.367986697782488
40
0.392253829968049
40
0.392253829968049
40
0.416520962153609
40
0.416520962153609
40
0.44078809433917
40
0.44078809433917
40
0.465055226524731
40
0.465055226524731
40
0.489322358710291
40
0.489322358710291
40
0.50145592480307
40
0.50145592480307
40
0.513589490895848
40
0.513589490895848
40
0.537856623081406
40
0.537856623081406
40
0.562123755266963
40
0.562123755266963
40
0.58639088745252
40
0.58639088745252
40
0.610658019638077
40
0.610658019638077
40
0.634925151823634
40
0.634925151823634
40
0.659192284009191
40
0.659192284009191
40
0.671325850101968
40
0.671325850101968
40
0.683459416194745
40
0.683459416194745
40
0.707726548380302
40
0.707726548380302
40
0.731993680565859
40
0.731993680565859
40
0.756260812751416
40
0.756260812751416
40
0.780527944936973
40
0.780527944936973
40
0.804795077122531
40
0.804795077122531
40
0.829062209308088
40
0.829062209308088
40
0.841195775400866
40
0.841195775400866
40
0.853329341493645
40
0.853329341493645
40
0.877596473679202
40
0.877596473679202
40
0.901863605864759
40
0.901863605864759
40
0.926130738050316
40
0.926130738050316
40
0.950397870235874
40
0.950397870235874
40
0.974665002421431
40
0.974665002421431
40
0.998932134606988
40
0.998932134606988
40
1
40
1
40
1
40
1
41
1
10
9.6690448005443
20
0.328808943058505
30
0
41
1
10
9.67492313378139
20
0.331476574264599
30
0
41
1
10
9.68080311608031
20
0.334122868106249
30
0
41
1
10
9.72254387430752
20
0.352746290721228
30
0
41
1
10
9.75848294334111
20
0.367997264835339
30
0
41
1
10
9.83017045739899
20
0.39752169380219
30
0
41
1
10
9.86592639970854
20
0.411777926121232
30
0
41
1
10
9.93726644065626
20
0.439193054227957
30
0
41
1
10
9.9729104601297
20
0.452376811524488
30
0
41
1
10
10.0441086956162
20
0.476938674302318
30
0
41
1
10
10.0796283863013
20
0.488294348986983
30
0
41
1
10
10.1507450386124
20
0.509037371651033
30
0
41
1
10
10.1863734203291
20
0.518408281114603
30
0
41
1
10
10.2574898155966
20
0.535499642199682
30
0
41
1
10
10.2929458615379
20
0.543239582219201
30
0
41
1
10
10.3635993396135
20
0.557067281179485
30
0
41
1
10
10.3987730242244
20
0.563160301624407
30
0
41
1
10
10.4691225271664
20
0.573435046521013
30
0
41
1
10
10.504332110667
20
0.577600070728295
30
0
41
1
10
10.5751373248906
20
0.583911351726215
30
0
41
1
10
10.6107520543798
20
0.586062628808605
30
0
41
1
10
10.6823548710894
20
0.588456971877662
30
0
41
1
10
10.7183608671216
20
0.588709480997181
30
0
41
1
10
10.7900481209064
20
0.587249122748517
30
0
41
1
10
10.8257151750188
20
0.58553199001372
30
0
41
1
10
10.896802949544
20
0.580034795331642
30
0
41
1
10
10.9322614343205
20
0.576254699359311
30
0
41
1
10
11.0034337199691
20
0.566796629209762
30
0
41
1
10
11.0391402366762
20
0.561123148237073
30
0
41
1
10
11.1109614148797
20
0.548087797216226
30
0
41
1
10
11.1469500033021
20
0.540731095113188
30
0
41
1
10
11.2184031593775
20
0.524200900400558
30
0
41
1
10
11.2539364432814
20
0.515021064134771
30
0
41
1
10
11.3246149537425
20
0.494759776344892
30
0
41
1
10
11.3597628198774
20
0.483670464239538
30
0
41
1
10
11.4301151224443
20
0.460013630709369
30
0
41
1
10
11.4653286122888
20
0.447461520138091
30
0
41
1
10
11.5360506000918
20
0.421254929901579
30
0
41
1
10
11.5715867760285
20
0.407647083440452
30
0
41
1
10
11.642702801065
20
0.379064556952898
30
0
41
1
10
11.6782548790881
20
0.364045428129657
30
0
41
1
10
11.7493127571399
20
0.332407624528145
30
0
41
1
10
11.784793616284
20
0.315741677481611
30
0
41
1
10
11.8381964602096
20
0.289800468312251
30
0
41
1
10
11.8560296487282
20
0.281005254755684
30
0
41
1
10
11.8916203538415
20
0.263305728701823
30
0
41
1
10
11.9094009369653
20
0.254386802363626
30
0
41
1
10
11.9627415749949
20
0.22750224443115
30
0
41
1
10
11.9983361984449
20
0.209472203623648
30
0
41
1
10
12.0695131938991
20
0.173079956018341
30
0
41
1
10
12.1050442796447
20
0.15462706163575
30
0
41
1
10
12.1758055186015
20
0.116866552972766
30
0
41
1
10
12.2110404104886
20
0.0975659585440951
30
0
41
1
10
12.2813467666871
20
0.0583384988347007
30
0
41
1
10
12.3164556065089
20
0.038478842253312
30
0
41
1
10
12.3869898516152
20
-0.000979513080182
30
0
41
1
10
12.4224084952811
20
-0.0205895834067462
30
0
41
1
10
12.4936999022535
20
-0.0592694585780578
30
0
41
1
10
12.5295348436811
20
-0.0784085226090099
30
0
41
1
10
12.5833337751417
20
-0.107274940010797
30
0
41
1
10
12.6012921880447
20
-0.11692305701709
30
0
41
1
10
12.6370480014123
20
-0.136153663969679
30
0
41
1
10
12.6548664056901
20
-0.145747795557668
30
0
41
1
10
12.7081428140406
20
-0.174458003112818
30
0
41
1
10
12.7434274716345
20
-0.193485488178567
30
0
41
1
10
12.81396660075
20
-0.230532444362495
30
0
41
1
10
12.8492283704049
20
-0.248543031575025
30
0
41
1
10
12.9199569455473
20
-0.283230045329134
30
0
41
1
10
12.9554488042986
20
-0.299873376612737
30
0
41
1
10
13.0263755137226
20
-0.332293773797801
30
0
41
1
10
13.0617848533872
20
-0.34810621102622
30
0
41
1
10
13.1324652995374
20
-0.378924757760018
30
0
41
1
10
13.1677099611517
20
-0.393963522059607
30
0
41
1
10
13.2383555878726
20
-0.42274964829258
30
0
41
1
10
13.2737875646075
20
-0.436455229864691
30
0
41
1
10
13.3273210953091
20
-0.455708099494729
30
0
41
1
10
13.3452426540528
20
-0.46191704475072
30
0
41
1
10
13.3811072696385
20
-0.473846253227578
30
0
41
1
10
13.3990583470328
20
-0.479574059497509
30
0
41
1
10
13.4529018343387
20
-0.496136104600566
30
0
41
1
10
13.4887633625046
20
-0.50637497233862
30
0
41
1
10
13.560232411771
20
-0.525375467781913
30
0
41
1
10
13.5958421038086
20
-0.534126476308813
30
0
41
1
10
13.6669644576106
20
-0.5498982070539
30
0
41
1
10
13.7025885663027
20
-0.556893897095279
30
0
41
1
10
13.7738430259353
20
-0.568773784566218
30
0
41
1
10
13.8094387597367
20
-0.573667872076783
30
0
41
1
10
13.8807075512421
20
-0.581469148295355
30
0
41
1
10
13.9163386923211
20
-0.584405419480134
30
0
41
1
10
13.9872878426729
20
-0.588443781154666
30
0
41
1
10
14.0226244962616
20
-0.589532583826667
30
0
41
1
10
14.0593756897391
20
-0.589639965502357
30
0
41
1
10
14.0609245094562
20
-0.589642556385996
30
0
41
1
10
14.06247311179
20
-0.589643212304679
30
0
0
SPLINE
5
C8
100
AcDbEntity
8
1
62
256
6
ByLayer
370
18
48
1
60
0
100
AcDbSpline
70
4
71
3
72
32
73
28
40
0
40
0
40
0
40
0
40
0.0243900149212881
40
0.0243900149212881
40
0.10569084701118
40
0.10569084701118
40
0.186991679101074
40
0.186991679101074
40
0.268292511190966
40
0.268292511190966
40
0.349593343280858
40
0.349593343280858
40
0.430894175370752
40
0.430894175370752
40
0.512195007460644
40
0.512195007460644
40
0.593495839550536
40
0.593495839550536
40
0.67479667164043
40
0.67479667164043
40
0.756097503730322
40
0.756097503730322
40
0.837398335820214
40
0.837398335820214
40
0.918699167910108
40
0.918699167910108
40
1
40
1
40
1
40
1
41
1
10
16.3684498985955
20
0.32967909076774
30
0
41
1
10
16.3791293638872
20
0.334652719634164
30
0
41
1
10
16.3897958605996
20
0.339586233121793
30
0
41
1
10
16.435958425985
20
0.36076416851202
30
0
41
1
10
16.4713939813072
20
0.376494483924091
30
0
41
1
10
16.5425085694212
20
0.406309920563331
30
0
41
1
10
16.5781890140624
20
0.420398968532112
30
0
41
1
10
16.6498887378365
20
0.446896789958942
30
0
41
1
10
16.6859196804816
20
0.45939432122924
30
0
41
1
10
16.7574261300628
20
0.483007501108034
30
0
41
1
10
16.7929614835607
20
0.494109513462263
30
0
41
1
10
16.8636165310656
20
0.514796390252201
30
0
41
1
10
16.8987579461418
20
0.52434774277873
30
0
41
1
10
16.9691113778093
20
0.541482708900872
30
0
41
1
10
17.0043204155685
20
0.549075671605038
30
0
41
1
10
17.0750181241337
20
0.562278692716035
30
0
41
1
10
17.1105131432273
20
0.567900217424153
30
0
41
1
10
17.1814570750265
20
0.5774044064093
30
0
41
1
10
17.2168921346687
20
0.581284304729962
30
0
41
1
10
17.287685172438
20
0.587182566626609
30
0
41
1
10
17.3230170390894
20
0.589196311391532
30
0
41
1
10
17.39394727008
20
0.591169857429577
30
0
41
1
10
17.4296223718666
20
0.591126764044219
30
0
41
1
10
17.5010761972587
20
0.589055083796268
30
0
41
1
10
17.5369333605832
20
0.587048271124957
30
0
41
1
10
17.6087181755306
20
0.581161604585105
30
0
41
1
10
17.6445978353752
20
0.577266522200318
30
0
41
1
10
17.6804022367558
20
0.572351383224373
30
0
0
SPLINE
5
C9
100
AcDbEntity
8
1
62
256
6
ByLayer
370
18
48
1
60
0
100
AcDbSpline
70
4
71
3
72
92
73
88
40
0
40
0
40
0
40
0
40
0.0165160873079974
40
0.0165160873079974
40
0.0408044359876708
40
0.0408044359876708
40
0.0650927846673442
40
0.0650927846673442
40
0.0893811333470175
40
0.0893811333470175
40
0.113669482026691
40
0.113669482026691
40
0.137957830706364
40
0.137957830706364
40
0.162246179386038
40
0.162246179386038
40
0.186534528065711
40
0.186534528065711
40
0.210822876745384
40
0.210822876745384
40
0.235111225425058
40
0.235111225425058
40
0.259399574104731
40
0.259399574104731
40
0.283687922784405
40
0.283687922784405
40
0.307976271464078
40
0.307976271464078
40
0.332264620143751
40
0.332264620143751
40
0.380841317503102
40
0.380841317503102
40
0.392985491842937
40
0.392985491842937
40
0.405129666182773
40
0.405129666182773
40
0.429418014862445
40
0.429418014862445
40
0.453706363542116
40
0.453706363542116
40
0.477994712221788
40
0.477994712221788
40
0.502283060901459
40
0.502283060901459
40
0.526571409581131
40
0.526571409581131
40
0.550859758260803
40
0.550859758260803
40
0.56300393260064
40
0.56300393260064
40
0.575148106940478
40
0.575148106940478
40
0.599436455620153
40
0.599436455620153
40
0.623724804299828
40
0.623724804299828
40
0.648013152979503
40
0.648013152979503
40
0.672301501659178
40
0.672301501659178
40
0.720878199018525
40
0.720878199018525
40
0.733022373358362
40
0.733022373358362
40
0.7451665476982
40
0.7451665476982
40
0.769454896377871
40
0.769454896377871
40
0.793743245057543
40
0.793743245057543
40
0.818031593737214
40
0.818031593737214
40
0.842319942416886
40
0.842319942416886
40
0.866608291096557
40
0.866608291096557
40
0.890896639776229
40
0.890896639776229
40
0.903040814116063
40
0.903040814116063
40
0.915184988455897
40
0.915184988455897
40
0.939473337135561
40
0.939473337135561
40
0.963761685815225
40
0.963761685815225
40
1
40
1
40
1
40
1
41
1
10
16.3688878633407
20
-0.33197813065911
30
0
41
1
10
16.3447830692148
20
-0.343037055294161
30
0
41
1
10
16.3206284817707
20
-0.35383055904623
30
0
41
1
10
16.2607989849658
20
-0.379796386597633
30
0
41
1
10
16.2250955686376
20
-0.394704877459134
30
0
41
1
10
16.153451668054
20
-0.423320247640532
30
0
41
1
10
16.117701458487
20
-0.436888616036896
30
0
41
1
10
16.0464459569165
20
-0.462383422822768
30
0
41
1
10
16.0109334451325
20
-0.474356911542969
30
0
41
1
10
15.940126536586
20
-0.496739559052031
30
0
41
1
10
15.9048047802779
20
-0.507113014915376
30
0
41
1
10
15.8340734159365
20
-0.526017026893612
30
0
41
1
10
15.7986944951732
20
-0.534584111183278
30
0
41
1
10
15.7279907453857
20
-0.550011138401942
30
0
41
1
10
15.6926434289957
20
-0.556847387842538
30
0
41
1
10
15.6217733136351
20
-0.568639500142467
30
0
41
1
10
15.5862590434718
20
-0.573606847239233
30
0
41
1
10
15.5151218340196
20
-0.581672553754231
30
0
41
1
10
15.4795065061959
20
-0.584764238107738
30
0
41
1
10
15.4079034054759
20
-0.588939131176545
30
0
41
1
10
15.3720786935387
20
-0.590015981019548
30
0
41
1
10
15.3007845972867
20
-0.590207824181817
30
0
41
1
10
15.2652843214867
20
-0.589316891701458
30
0
41
1
10
15.1943859885601
20
-0.585591338735242
30
0
41
1
10
15.1589725497417
20
-0.582765763706334
30
0
41
1
10
15.0882330632602
20
-0.575205297575195
30
0
41
1
10
15.0529359407655
20
-0.570454519007114
30
0
41
1
10
14.9823155706024
20
-0.559063041808628
30
0
41
1
10
14.9469493341283
20
-0.552448597194228
30
0
41
1
10
14.8405939032842
20
-0.529943906805869
30
0
41
1
10
14.7695609835395
20
-0.51121640938652
30
0
41
1
10
14.6799791056148
20
-0.48354622747749
30
0
41
1
10
14.6620372849691
20
-0.477797151094819
30
0
41
1
10
14.6262833779239
20
-0.465917176750565
30
0
41
1
10
14.6084505761962
20
-0.459775582931826
30
0
41
1
10
14.5550531968726
20
-0.440783385351125
30
0
41
1
10
14.5195760088136
20
-0.427379644409171
30
0
41
1
10
14.4486262788506
20
-0.399426547757315
30
0
41
1
10
14.4131876186734
20
-0.384837440462689
30
0
41
1
10
14.3424539833619
20
-0.354339550500839
30
0
41
1
10
14.307133347232
20
-0.338463327942577
30
0
41
1
10
14.2364048411421
20
-0.305729257477168
30
0
41
1
10
14.2010079451262
20
-0.288858517728386
30
0
41
1
10
14.1302005589637
20
-0.254011654064442
30
0
41
1
10
14.0947935320194
20
-0.236023856561871
30
0
41
1
10
14.0236919564523
20
-0.1993834527253
30
0
41
1
10
13.9879804686313
20
-0.180767678341112
30
0
41
1
10
13.934243725039
20
-0.152263905819183
30
0
41
1
10
13.9162993742941
20
-0.142656113893395
30
0
41
1
10
13.8805319521614
20
-0.123375150217868
30
0
41
1
10
13.8626836434696
20
-0.113692321872406
30
0
41
1
10
13.8092085930773
20
-0.0845846703729762
30
0
41
1
10
13.7736387242524
20
-0.0651248052740812
30
0
41
1
10
13.7026815128036
20
-0.0260504810600253
30
0
41
1
10
13.6673222350888
20
-0.0063842192320749
30
0
41
1
10
13.5966547753613
20
0.0328568267459559
30
0
41
1
10
13.5613039535935
20
0.052353142464483
30
0
41
1
10
13.4905337665647
20
0.0910379210796748
30
0
41
1
10
13.4551557649071
20
0.110302088820703
30
0
41
1
10
13.3489203404346
20
0.16763170742351
30
0
41
1
10
13.2777909971299
20
0.204927764152444
30
0
41
1
10
13.1884082057408
20
0.250213836817977
30
0
41
1
10
13.1704842451304
20
0.259201313396147
30
0
41
1
10
13.1347249376914
20
0.276864551612903
30
0
41
1
10
13.11686664836
20
0.285543789345979
30
0
41
1
10
13.0633426625823
20
0.311115493623134
30
0
41
1
10
13.0277463809588
20
0.327575845873099
30
0
41
1
10
12.9567815051608
20
0.359424925635693
30
0
41
1
10
12.9213851251921
20
0.374766137533896
30
0
41
1
10
12.8505939068563
20
0.404051712140301
30
0
41
1
10
12.8152122600537
20
0.418019297345666
30
0
41
1
10
12.7445286722356
20
0.444662446661596
30
0
41
1
10
12.7092247619914
20
0.457328222018361
30
0
41
1
10
12.6384119642874
20
0.481008220590894
30
0
41
1
10
12.6028919275996
20
0.492018476988647
30
0
41
1
10
12.5317290734381
20
0.512487428948504
30
0
41
1
10
12.4960970723324
20
0.521949832373281
30
0
41
1
10
12.4424197977681
20
0.534817006853046
30
0
41
1
10
12.424465494175
20
0.538889226496309
30
0
41
1
10
12.3886429569843
20
0.546551348736045
30
0
41
1
10
12.3707645303736
20
0.550145680365347
30
0
41
1
10
12.3172369472333
20
0.560230450473796
30
0
41
1
10
12.2817190428688
20
0.566032926285203
30
0
41
1
10
12.2108126825733
20
0.575689149340036
30
0
41
1
10
12.1753821851055
20
0.579529662984555
30
0
41
1
10
12.0871275169109
20
0.586701931955503
30
0
41
1
10
12.0344148833494
20
0.58886187762036
30
0
41
1
10
11.9816218988053
20
0.588860423285922
30
0
0
SPLINE
5
CA
100
AcDbEntity
8
1
62
256
6
ByLayer
370
18
48
1
60
0
100
AcDbSpline
70
4
71
3
72
98
73
94
40
0
40
0
40
0
40
0
40
0.01984137811918
40
0.01984137811918
40
0.0441568947951223
40
0.0441568947951223
40
0.0684724114710642
40
0.0684724114710642
40
0.0927879281470062
40
0.0927879281470062
40
0.117103444822948
40
0.117103444822948
40
0.14141896149889
40
0.14141896149889
40
0.165734478174832
40
0.165734478174832
40
0.190049994850774
40
0.190049994850774
40
0.214365511526717
40
0.214365511526717
40
0.238681028202658
40
0.238681028202658
40
0.2629965448786
40
0.2629965448786
40
0.287312061554542
40
0.287312061554542
40
0.311627578230484
40
0.311627578230484
40
0.335943094906426
40
0.335943094906426
40
0.360258611582368
40
0.360258611582368
40
0.384574128258311
40
0.384574128258311
40
0.396731886596281
40
0.396731886596281
40
0.408889644934253
40
0.408889644934253
40
0.433205161610196
40
0.433205161610196
40
0.45752067828614
40
0.45752067828614
40
0.481836194962084
40
0.481836194962084
40
0.506151711638028
40
0.506151711638028
40
0.530467228313971
40
0.530467228313971
40
0.554782744989915
40
0.554782744989915
40
0.566940503327886
40
0.566940503327886
40
0.579098261665857
40
0.579098261665857
40
0.603413778341797
40
0.603413778341797
40
0.627729295017738
40
0.627729295017738
40
0.652044811693678
40
0.652044811693678
40
0.676360328369618
40
0.676360328369618
40
0.700675845045558
40
0.700675845045558
40
0.724991361721499
40
0.724991361721499
40
0.73714912005947
40
0.73714912005947
40
0.749306878397441
40
0.749306878397441
40
0.773622395073383
40
0.773622395073383
40
0.797937911749325
40
0.797937911749325
40
0.822253428425267
40
0.822253428425267
40
0.846568945101209
40
0.846568945101209
40
0.870884461777151
40
0.870884461777151
40
0.895199978453093
40
0.895199978453093
40
0.907357736791063
40
0.907357736791063
40
0.919515495129033
40
0.919515495129033
40
0.943831011804973
40
0.943831011804973
40
0.968146528480914
40
0.968146528480914
40
0.992462045156854
40
0.992462045156854
40
1
40
1
40
1
40
1
41
1
10
9.66943645511563
20
-0.330743364217
30
0
41
1
10
9.64051529639093
20
-0.343905115536984
30
0
41
1
10
9.61154943875474
20
-0.35669805012455
30
0
41
1
10
9.54701251975342
20
-0.384381168959664
30
0
41
1
10
9.51144770297836
20
-0.399123286595795
30
0
41
1
10
9.44002909457836
20
-0.427242417813176
30
0
41
1
10
9.40406281019028
20
-0.440594189484841
30
0
41
1
10
9.33251104661278
20
-0.465622844470346
30
0
41
1
10
9.29688885558392
20
-0.47736862095428
30
0
41
1
10
9.22581374814683
20
-0.499180091263071
30
0
41
1
10
9.19033504492103
20
-0.509221825945133
30
0
41
1
10
9.1194632591363
20
-0.527577258799056
30
0
41
1
10
9.0841000057674
20
-0.535915376505898
30
0
41
1
10
9.01342748578543
20
-0.550817671686218
30
0
41
1
10
8.97807882768706
20
-0.557352135920638
30
0
41
1
10
8.90720003018635
20
-0.568518490277256
30
0
41
1
10
8.87171277894069
20
-0.573178287621005
30
0
41
1
10
8.80065517902636
20
-0.580623686928845
30
0
41
1
10
8.76505168695942
20
-0.583392682036418
30
0
41
1
10
8.69355193012012
20
-0.586964165033777
30
0
41
1
10
8.65758706175021
20
-0.587772248556377
30
0
41
1
10
8.58611200743925
20
-0.587384992760491
30
0
41
1
10
8.55053755031386
20
-0.58618754446357
30
0
41
1
10
8.47942863491937
20
-0.581869372404441
30
0
41
1
10
8.44390810361628
20
-0.578757448561248
30
0
41
1
10
8.37303386558148
20
-0.570625177485994
30
0
41
1
10
8.3376730171004
20
-0.56559870695088
30
0
41
1
10
8.26690419464543
20
-0.553725258445127
30
0
41
1
10
8.2314944369673
20
-0.546886568519142
30
0
41
1
10
8.16067414896193
20
-0.531364497372238
30
0
41
1
10
8.12528343851656
20
-0.522657812914218
30
0
41
1
10
8.05429429081806
20
-0.503523634255515
30
0
41
1
10
8.01866077655023
20
-0.493137173187108
30
0
41
1
10
7.96503827755254
20
-0.476292846045567
30
0
41
1
10
7.94713927826211
20
-0.470462169750334
30
0
41
1
10
7.91128888628825
20
-0.458362894028738
30
0
41
1
10
7.89334331512057
20
-0.452100414130456
30
0
41
1
10
7.83966725914414
20
-0.432815792107362
30
0
41
1
10
7.80398801008127
20
-0.419286063122144
30
0
41
1
10
7.73281705990917
20
-0.39093440118441
30
0
41
1
10
7.69735580308975
20
-0.37606896531301
30
0
41
1
10
7.62656669989045
20
-0.345117964679446
30
0
41
1
10
7.59119745777929
20
-0.329093184680033
30
0
41
1
10
7.52037948412496
20
-0.296167286179752
30
0
41
1
10
7.48497434808172
20
-0.27919966079827
30
0
41
1
10
7.41416232089452
20
-0.244259629183119
30
0
41
1
10
7.37872216429181
20
-0.226340711545248
30
0
41
1
10
7.30764736412644
20
-0.189819080809201
30
0
41
1
10
7.27203471442695
20
-0.171180105580106
30
0
41
1
10
7.21851567829887
20
-0.14260783550165
30
0
41
1
10
7.20065459058577
20
-0.132989606117036
30
0
41
1
10
7.16485467326225
20
-0.113627462899558
30
0
41
1
10
7.14690556986511
20
-0.103881260353489
30
0
41
1
10
7.09318093508082
20
-0.0747057941235028
30
0
41
1
10
7.05745108565535
20
-0.0552563266296602
30
0
41
1
10
6.98625830266832
20
-0.0161731229874533
30
0
41
1
10
6.95078134678653
20
0.0034324346234484
30
0
41
1
10
6.87986910333035
20
0.0424037287797034
30
0
41
1
10
6.84443583056114
20
0.0617744865366774
30
0
41
1
10
6.77366777019964
20
0.100384409282384
30
0
41
1
10
6.73834891980135
20
0.119651314613066
30
0
41
1
10
6.66758124826723
20
0.157631774205527
30
0
41
1
10
6.63210144787962
20
0.17629094544057
30
0
41
1
10
6.56101792584496
20
0.213071448153301
30
0
41
1
10
6.5254407651617
20
0.231238816652507
30
0
41
1
10
6.47189483723452
20
0.257925759309899
30
0
41
1
10
6.45401394793231
20
0.266723623248907
30
0
41
1
10
6.41817384932975
20
0.284099364258651
30
0
41
1
10
6.40019730165619
20
0.292689466024314
30
0
41
1
10
6.34643318400427
20
0.318028127254706
30
0
41
1
10
6.31076535673336
20
0.334413528950279
30
0
41
1
10
6.23964143208073
20
0.36595455308273
30
0
41
1
10
6.20414254962344
20
0.381045917883967
30
0
41
1
10
6.13317161533297
20
0.409774477081441
30
0
41
1
10
6.09774344262229
20
0.42347374667861
30
0
41
1
10
6.02696812096323
20
0.449491615141056
30
0
41
1
10
5.99158747190438
20
0.461766866091722
30
0
41
1
10
5.92073024946632
20
0.484729564421457
30
0
41
1
10
5.88527774179835
20
0.495446261213402
30
0
41
1
10
5.81432969145632
20
0.515320562336825
30
0
41
1
10
5.77881012070389
20
0.524448547579681
30
0
41
1
10
5.72526459441221
20
0.536749280923686
30
0
41
1
10
5.70737763696073
20
0.540623881808074
30
0
41
1
10
5.67153998949706
20
0.547930263339538
30
0
41
1
10
5.65356573104052
20
0.551366541515904
30
0
41
1
10
5.59978106114318
20
0.560968008566647
30
0
41
1
10
5.56408641552861
20
0.566415913870799
30
0
41
1
10
5.49282820572236
20
0.57534650295824
30
0
41
1
10
5.45727102128967
20
0.578839863636745
30
0
41
1
10
5.3863528397188
20
0.583914651007746
30
0
41
1
10
5.35100247644118
20
0.585488522097023
30
0
41
1
10
5.30465862051145
20
0.586264312301154
30
0
41
1
10
5.29368664273363
20
0.586354482579651
30
0
41
1
10
5.28271103109114
20
0.586351561186376
30
0
0
SPLINE
5
CB
100
AcDbEntity
8
1
62
256
6
ByLayer
370
18
48
1
60
0
100
AcDbSpline
70
4
71
3
72
92
73
88
40
0
40
0
40
0
40
0
40
0.0131189116928619
40
0.0131189116928619
40
0.0374131628305271
40
0.0374131628305271
40
0.0617074139681923
40
0.0617074139681923
40
0.0860016651058574
40
0.0860016651058574
40
0.110295916243523
40
0.110295916243523
40
0.134590167381188
40
0.134590167381188
40
0.158884418518853
40
0.158884418518853
40
0.183178669656518
40
0.183178669656518
40
0.207472920794183
40
0.207472920794183
40
0.231767171931849
40
0.231767171931849
40
0.256061423069514
40
0.256061423069514
40
0.280355674207179
40
0.280355674207179
40
0.304649925344844
40
0.304649925344844
40
0.316797050913677
40
0.316797050913677
40
0.328944176482511
40
0.328944176482511
40
0.353238427620176
40
0.353238427620176
40
0.377532678757841
40
0.377532678757841
40
0.401826929895506
40
0.401826929895506
40
0.426121181033172
40
0.426121181033172
40
0.450415432170837
40
0.450415432170837
40
0.474709683308502
40
0.474709683308502
40
0.499003934446167
40
0.499003934446167
40
0.523298185583832
40
0.523298185583832
40
0.547592436721497
40
0.547592436721497
40
0.571886687859163
40
0.571886687859163
40
0.596180938996828
40
0.596180938996828
40
0.620475190134493
40
0.620475190134493
40
0.644769441272158
40
0.644769441272158
40
0.669063692409823
40
0.669063692409823
40
0.693357943547488
40
0.693357943547488
40
0.717652194685154
40
0.717652194685154
40
0.741946445822819
40
0.741946445822819
40
0.766240696960484
40
0.766240696960484
40
0.790534948098149
40
0.790534948098149
40
0.814829199235815
40
0.814829199235815
40
0.83912345037348
40
0.83912345037348
40
0.863417701511145
40
0.863417701511145
40
0.88771195264881
40
0.88771195264881
40
0.912006203786475
40
0.912006203786475
40
0.93630045492414
40
0.93630045492414
40
0.960594706061806
40
0.960594706061806
40
0.984888957199471
40
0.984888957199471
40
1
40
1
40
1
40
1
41
1
10
6.32261565257323
20
0.32878344050539
30
0
41
1
10
6.34162527154416
20
0.337619602356341
30
0
41
1
10
6.36065276554376
20
0.346281257163469
30
0
41
1
10
6.41504825799473
20
0.370364886654755
30
0
41
1
10
6.45053277186574
20
0.385258761522238
30
0
41
1
10
6.5218920953283
20
0.41351692608626
30
0
41
1
10
6.55771723748677
20
0.426956257087454
30
0
41
1
10
6.62938887560588
20
0.452783928715917
30
0
41
1
10
6.66524458117257
20
0.465134923518917
30
0
41
1
10
6.73647439170458
20
0.488376839756455
30
0
41
1
10
6.77194690053335
20
0.499255018181486
30
0
41
1
10
6.84306386766227
20
0.519077540192626
30
0
41
1
10
6.87870190022934
20
0.528034081161962
30
0
41
1
10
6.95035544232837
20
0.543961180442068
30
0
41
1
10
6.98642597020137
20
0.550962985342636
30
0
41
1
10
7.05825601562452
20
0.563219413310605
30
0
41
1
10
7.09396162197342
20
0.568462776099096
30
0
41
1
10
7.16494998185811
20
0.577102686011557
30
0
41
1
10
7.20021098704993
20
0.580495119856579
30
0
41
1
10
7.27067733716237
20
0.585253129686578
30
0
41
1
10
7.30590196964715
20
0.5866200706119
30
0
41
1
10
7.37658071197643
20
0.587403259821514
30
0
41
1
10
7.41206923302846
20
0.586832484010415
30
0
41
1
10
7.48311888409378
20
0.583842302365326
30
0
41
1
10
7.51863855410062
20
0.581413130602982
30
0
41
1
10
7.58957311309308
20
0.574563107653262
30
0
41
1
10
7.6249737720799
20
0.570127017347318
30
0
41
1
10
7.67816338500987
20
0.561929935302118
30
0
41
1
10
7.69591426255008
20
0.558944181067631
30
0
41
1
10
7.73151396852035
20
0.552495012672807
30
0
41
1
10
7.7493852378667
20
0.549027980862633
30
0
41
1
10
7.80292918907438
20
0.538008424499424
30
0
41
1
10
7.83861424290126
20
0.529850124448387
30
0
41
1
10
7.91000254930125
20
0.512073516217157
30
0
41
1
10
7.94565425882149
20
0.502416026195675
30
0
41
1
10
8.01661836977144
20
0.481307316406543
30
0
41
1
10
8.05194763333773
20
0.469866190341207
30
0
41
1
10
8.12235124354595
20
0.445182908346766
30
0
41
1
10
8.15745492541856
20
0.431966184938887
30
0
41
1
10
8.22789174821912
20
0.404308176877237
30
0
41
1
10
8.26321688106719
20
0.389861615543794
30
0
41
1
10
8.33428078542542
20
0.36009088529616
30
0
41
1
10
8.37000568265935
20
0.344759405578287
30
0
41
1
10
8.44150880660357
20
0.312696113209512
30
0
41
1
10
8.47733805088475
20
0.295926126409455
30
0
41
1
10
8.54881924713769
20
0.260990323761405
30
0
41
1
10
8.58434803746809
20
0.24283964157442
30
0
41
1
10
8.65542414221238
20
0.205888382305801
30
0
41
1
10
8.69098993581684
20
0.187120958388505
30
0
41
1
10
8.76242742221598
20
0.14946602744962
30
0
41
1
10
8.79833452352969
20
0.130645410295642
30
0
41
1
10
8.87025933249001
20
0.0925714197916534
30
0
41
1
10
8.9062257723123
20
0.0732490068736524
30
0
41
1
10
8.97755456261319
20
0.0341689497622326
30
0
41
1
10
9.01296619358232
20
0.0143386066765174
30
0
41
1
10
9.08355595809047
20
-0.0253739343137624
30
0
41
1
10
9.11876937943509
20
-0.0451897112188249
30
0
41
1
10
9.18936494568646
20
-0.0841393432916959
30
0
41
1
10
9.22476242266364
20
-0.103246961094186
30
0
41
1
10
9.29574668974163
20
-0.140769317362839
30
0
41
1
10
9.3312809106292
20
-0.159280226025004
30
0
41
1
10
9.40219957249161
20
-0.196209416912637
30
0
41
1
10
9.43759848634423
20
-0.21460034204199
30
0
41
1
10
9.50835796192825
20
-0.251062692197024
30
0
41
1
10
9.54375205228607
20
-0.269073679129463
30
0
41
1
10
9.61499762211906
20
-0.303913669154497
30
0
41
1
10
9.65082411805992
20
-0.3207471755357
30
0
41
1
10
9.72254387430752
20
-0.352746290721257
30
0
41
1
10
9.75848294334114
20
-0.367997264835367
30
0
41
1
10
9.83017045739902
20
-0.39752169380219
30
0
41
1
10
9.86592639970857
20
-0.411777926121232
30
0
41
1
10
9.93726644065629
20
-0.439193054227957
30
0
41
1
10
9.97291046012973
20
-0.452376811524488
30
0
41
1
10
10.0441086956162
20
-0.476938674302346
30
0
41
1
10
10.0796283863013
20
-0.488294348986983
30
0
41
1
10
10.1507450386124
20
-0.509037371651033
30
0
41
1
10
10.1863734203291
20
-0.518408281114603
30
0
41
1
10
10.2574898155966
20
-0.535499642199682
30
0
41
1
10
10.2929458615379
20
-0.543239582219201
30
0
41
1
10
10.3635993396135
20
-0.557067281179485
30
0
41
1
10
10.3987730242244
20
-0.563160301624407
30
0
41
1
10
10.4691225271664
20
-0.573435046521013
30
0
41
1
10
10.504332110667
20
-0.577600070728295
30
0
41
1
10
10.5751373248906
20
-0.583911351726215
30
0
41
1
10
10.6107520543798
20
-0.586062628808605
30
0
41
1
10
10.6688219661309
20
-0.588004441953842
30
0
41
1
10
10.6911696214209
20
-0.588383607891387
30
0
41
1
10
10.713508123112
20
-0.58838814751627
30
0
0
SPLINE
5
CC
100
AcDbEntity
8
1
62
256
6
ByLayer
370
18
48
1
60
0
100
AcDbSpline
70
4
71
3
72
94
73
90
40
0
40
0
40
0
40
0
40
0.0178588640327635
40
0.0178588640327635
40
0.0421236430918277
40
0.0421236430918277
40
0.0663884221508919
40
0.0663884221508919
40
0.078520811680426
40
0.078520811680426
40
0.0906532012099598
40
0.0906532012099598
40
0.114917980269028
40
0.114917980269028
40
0.139182759328096
40
0.139182759328096
40
0.163447538387164
40
0.163447538387164
40
0.187712317446233
40
0.187712317446233
40
0.211977096505301
40
0.211977096505301
40
0.236241875564369
40
0.236241875564369
40
0.260506654623437
40
0.260506654623437
40
0.284771433682505
40
0.284771433682505
40
0.309036212741573
40
0.309036212741573
40
0.321168602271109
40
0.321168602271109
40
0.333300991800645
40
0.333300991800645
40
0.357565770859717
40
0.357565770859717
40
0.381830549918788
40
0.381830549918788
40
0.40609532897786
40
0.40609532897786
40
0.430360108036931
40
0.430360108036931
40
0.454624887096003
40
0.454624887096003
40
0.478889666155075
40
0.478889666155075
40
0.503154445214146
40
0.503154445214146
40
0.527419224273218
40
0.527419224273218
40
0.551684003332289
40
0.551684003332289
40
0.575948782391361
40
0.575948782391361
40
0.600213561450432
40
0.600213561450432
40
0.624478340509504
40
0.624478340509504
40
0.648743119568576
40
0.648743119568576
40
0.673007898627647
40
0.673007898627647
40
0.697272677686719
40
0.697272677686719
40
0.721537456745791
40
0.721537456745791
40
0.745802235804862
40
0.745802235804862
40
0.770067014863934
40
0.770067014863934
40
0.794331793923005
40
0.794331793923005
40
0.818596572982077
40
0.818596572982077
40
0.842861352041148
40
0.842861352041148
40
0.86712613110022
40
0.86712613110022
40
0.891390910159292
40
0.891390910159292
40
0.915655689218363
40
0.915655689218363
40
0.939920468277435
40
0.939920468277435
40
0.964185247336506
40
0.964185247336506
40
0.988450026395578
40
0.988450026395578
40
1
40
1
40
1
40
1
41
1
10
13.0189876226853
20
0.328838812375466
30
0
41
1
10
13.0450668668724
20
0.34061465903423
30
0
41
1
10
13.0711146917294
20
0.352174267675935
30
0
41
1
10
13.1324652995374
20
0.378924757760018
30
0
41
1
10
13.1677099611517
20
0.393963522059607
30
0
41
1
10
13.2383555878726
20
0.42274964829258
30
0
41
1
10
13.2737875646075
20
0.43645522986472
30
0
41
1
10
13.3273210953091
20
0.455708099494729
30
0
41
1
10
13.3452426540528
20
0.46191704475072
30
0
41
1
10
13.3811072696385
20
0.473846253227578
30
0
41
1
10
13.3990583470329
20
0.479574059497537
30
0
41
1
10
13.4529018343387
20
0.496136104600566
30
0
41
1
10
13.4887633625046
20
0.50637497233862
30
0
41
1
10
13.560232411771
20
0.525375467781913
30
0
41
1
10
13.5958421038086
20
0.534126476308813
30
0
41
1
10
13.6669644576106
20
0.5498982070539
30
0
41
1
10
13.7025885663027
20
0.556893897095279
30
0
41
1
10
13.7738430259353
20
0.568773784566218
30
0
41
1
10
13.8094387597367
20
0.573667872076783
30
0
41
1
10
13.8807075512421
20
0.581469148295355
30
0
41
1
10
13.9163386923211
20
0.584405419480134
30
0
41
1
10
13.9872878426729
20
0.588443781154666
30
0
41
1
10
14.0226244962616
20
0.589532583826667
30
0
41
1
10
14.0930287714016
20
0.589738294943118
30
0
41
1
10
14.1281089352788
20
0.588841755128357
30
0
41
1
10
14.1984667409757
20
0.585056195260961
30
0
41
1
10
14.2337485262893
20
0.582174855978366
30
0
41
1
10
14.3047293359602
20
0.5745904386022
30
0
41
1
10
14.340448057187
20
0.56991151910853
30
0
41
1
10
14.3941253821745
20
0.561475810003628
30
0
41
1
10
14.4120310070793
20
0.558422960827983
30
0
41
1
10
14.4478593661423
20
0.551812641562691
30
0
41
1
10
14.4657822947515
20
0.548255466118349
30
0
41
1
10
14.5192965665451
20
0.536865965099906
30
0
41
1
10
14.5546969214733
20
0.528267917934642
30
0
41
1
10
14.625304805253
20
0.509318985318487
30
0
41
1
10
14.660540300089
20
0.498995597928968
30
0
41
1
10
14.7311593597397
20
0.47700728714446
30
0
41
1
10
14.7665721763908
20
0.465382342902899
30
0
41
1
10
14.8374745477036
20
0.440814471901462
30
0
41
1
10
14.8729146573426
20
0.427813887210078
30
0
41
1
10
14.9436119141631
20
0.400124296460831
30
0
41
1
10
14.9788687969254
20
0.38542779364758
30
0
41
1
10
15.0493621477477
20
0.35445518999191
30
0
41
1
10
15.0846374476722
20
0.338229587649636
30
0
41
1
10
15.1556390217517
20
0.304903728628403
30
0
41
1
10
15.19143016384
20
0.287771657288516
30
0
41
1
10
15.2632013264782
20
0.253083125595367
30
0
41
1
10
15.2991145402359
20
0.23546934904266
30
0
41
1
10
15.3706767034902
20
0.199171085999097
30
0
41
1
10
15.4063455130726
20
0.180517002982526
30
0
41
1
10
15.4774706665293
20
0.142180107184629
30
0
41
1
10
15.5129438929548
20
0.122522390995073
30
0
41
1
10
15.5841679551579
20
0.0830289205347015
30
0
41
1
10
15.6198291503159
20
0.0632473975131234
30
0
41
1
10
15.6910949407439
20
0.0242318662189973
30
0
41
1
10
15.726769279483
20
0.0049873393585074
30
0
41
1
10
15.7978759410991
20
-0.0336038580424258
30
0
41
1
10
15.8332913947257
20
-0.052980228086966
30
0
41
1
10
15.9038327255988
20
-0.0919031745520158
30
0
41
1
10
15.9389310371047
20
-0.111498194886821
30
0
41
1
10
16.0091639560833
20
-0.150247227090716
30
0
41
1
10
16.0443247286017
20
-0.169354652034315
30
0
41
1
10
16.1150075151128
20
-0.206562145395395
30
0
41
1
10
16.1505598535579
20
-0.224611015451956
30
0
41
1
10
16.2219314954169
20
-0.259886315134878
30
0
41
1
10
16.2577023114174
20
-0.277196877611857
30
0
41
1
10
16.3292772354095
20
-0.311377071427842
30
0
41
1
10
16.3649389369116
20
-0.328182657097159
30
0
41
1
10
16.435958425985
20
-0.360764168512048
30
0
41
1
10
16.4713939813072
20
-0.376494483924091
30
0
41
1
10
16.5425085694212
20
-0.406309920563331
30
0
41
1
10
16.5781890140624
20
-0.420398968532112
30
0
41
1
10
16.6498887378365
20
-0.446896789958942
30
0
41
1
10
16.6859196804817
20
-0.45939432122924
30
0
41
1
10
16.7574261300628
20
-0.483007501108034
30
0
41
1
10
16.7929614835607
20
-0.494109513462263
30
0
41
1
10
16.8636165310656
20
-0.514796390252201
30
0
41
1
10
16.8987579461418
20
-0.52434774277873
30
0
41
1
10
16.9691113778093
20
-0.541482708900872
30
0
41
1
10
17.0043204155685
20
-0.549075671605038
30
0
41
1
10
17.0750181241337
20
-0.562278692716035
30
0
41
1
10
17.1105131432273
20
-0.567900217424153
30
0
41
1
10
17.1814570750265
20
-0.5774044064093
30
0
41
1
10
17.2168921346687
20
-0.581284304729962
30
0
41
1
10
17.287685172438
20
-0.587182566626609
30
0
41
1
10
17.3230170390894
20
-0.589196311391532
30
0
41
1
10
17.3753634600707
20
-0.590652785877694
30
0
41
1
10
17.3922923429063
20
-0.59088914680828
30
0
41
1
10
17.40925174412
20
-0.590896170501196
30
0
0
SPLINE
5
CD
100
AcDbEntity
8
1
62
256
6
ByLayer
370
18
48
1
60
0
100
AcDbSpline
70
4
71
5
72
147
73
141
40
0
40
0
40
0
40
0
40
0
40
0
40
0.024858029291797
40
0.0822675669551113
40
0.134487734364298
40
0.181617580556322
40
0.236299538334617
40
0.294613731414602
40
0.351687896736737
40
0.407516936578305
40
0.434069315278591
40
0.446258505093154
40
0.458447694907717
40
0.45981757339948
40
0.463185191358398
40
0.467922687809078
40
0.472660184259758
40
0.475028932485098
40
0.477397680710438
40
0.478933859329916
40
0.480470037949394
40
0.482006216568871
40
0.483542395188349
40
0.484310484498088
40
0.485078573807827
40
0.485846663117566
40
0.486614752427305
40
0.487382841737043
40
0.488150931046782
40
0.488919020356521
40
0.48968710966626
40
0.490141179010572
40
0.490595248354885
40
0.490649955504802
40
0.491049317699197
40
0.491503387043509
40
0.491957456387822
40
0.492411525732135
40
0.492865595076447
40
0.49331966442076
40
0.494227803109384
40
0.495135941798009
40
0.496044080486634
40
0.496952219175259
40
0.499380174929833
40
0.500594152807121
40
0.501808130684408
40
0.502575104926928
40
0.502802800405176
40
0.503797470125943
40
0.504294804986327
40
0.504792139846711
40
0.505289474707095
40
0.505786809567478
40
0.506231936357201
40
0.506677063146922
40
0.507122189936644
40
0.507567316726366
40
0.508012443516088
40
0.50845757030581
40
0.508902697095532
40
0.509347823885253
40
0.509774110365915
40
0.510200396846576
40
0.510210668809966
40
0.510626683327238
40
0.511052969807899
40
0.511479256288561
40
0.511905542769223
40
0.512331829249884
40
0.512758115730546
40
0.513214342281345
40
0.513670568832145
40
0.514126795382944
40
0.514583021933744
40
0.515039248484544
40
0.515495475035343
40
0.515951701586143
40
0.516407928136942
40
0.516955749167313
40
0.517503570197684
40
0.517780780839558
40
0.518051391228055
40
0.518599212258425
40
0.519147033288796
40
0.519694854319166
40
0.520242675349537
40
0.520790496379908
40
0.52161778633084
40
0.522445076281772
40
0.523272366232704
40
0.524099656183637
40
0.524926946134569
40
0.525754236085501
40
0.527408815987366
40
0.532146071451962
40
0.533750625722228
40
0.534543351939086
40
0.535336078155943
40
0.536128804372801
40
0.536921530589659
40
0.537714256806517
40
0.538506983023374
40
0.539299709240232
40
0.539696072348661
40
0.54009243545709
40
0.540793386478882
40
0.541494337500674
40
0.542896239544259
40
0.544298141587844
40
0.545700043631429
40
0.547101945675014
40
0.548503847718599
40
0.549905749762184
40
0.551307651805768
40
0.552709553849353
40
0.554111455892938
40
0.556915259980107
40
0.559719064067278
40
0.562522868154447
40
0.5698352885275
40
0.575209476994443
40
0.577147708900553
40
0.59177254964666
40
0.629700398827681
40
0.665443139128169
40
0.695724819452513
40
0.725437162451487
40
0.754925011688295
40
0.784241048296848
40
0.813376476377728
40
0.842314339861059
40
0.871035826047056
40
0.899478317106104
40
0.927397870787591
40
0.954727117008165
40
0.981794263172693
40
1
40
1
40
1
40
1
40
1
40
1
41
1
10
4.03430512587485
20
-0.228406539095403
30
0
41
1
10
4.03430512587485
20
-0.226086013338261
30
0
41
1
10
4.03430512587482
20
-0.218362696261522
30
0
41
1
10
4.03430512587482
20
-0.205501734112488
30
0
41
1
10
4.03430512587479
20
-0.187617500285569
30
0
41
1
10
4.03430512587482
20
-0.16344058337134
30
0
41
1
10
4.03430512587485
20
-0.134645076619279
30
0
41
1
10
4.03430512587479
20
-0.104768800301571
30
0
41
1
10
4.03430512587482
20
-0.0733420207890561
30
0
41
1
10
4.03430512587482
20
-0.0431822050154267
30
0
41
1
10
4.03430512587482
20
-0.017297889186608
30
0
41
1
10
4.03430512587482
20
0.0033798202595392
30
0
41
1
10
4.03430512587479
20
0.0172210891523719
30
0
41
1
10
4.03430512587479
20
0.0243868373411829
30
0
41
1
10
4.03430512587479
20
0.0287550487120711
30
0
41
1
10
4.03430512587479
20
0.0321668430817112
30
0
41
1
10
4.03430512587479
20
0.0343114422618385
30
0
41
1
10
4.03430512587479
20
0.0365872590130039
30
0
41
1
10
4.03430512587479
20
0.0386280235786955
30
0
41
1
10
4.03430512587482
20
0.040255690984992
30
0
41
1
10
4.03430512587482
20
0.0414693415146132
30
0
41
1
10
4.03430512587482
20
0.0425762506478691
30
0
41
1
10
4.03430512587485
20
0.0434763347684282
30
0
41
1
10
4.03430512587485
20
0.0442777143635738
30
0
41
1
10
4.03430512587488
20
0.0449801394576923
30
0
41
1
10
4.03430512587488
20
0.0455832431718761
30
0
41
1
10
4.03430512587488
20
0.046086600995352
30
0
41
1
10
4.03430512587488
20
0.0465908350075495
30
0
41
1
10
4.03430512587491
20
0.0470960639741804
30
0
41
1
10
4.03430512587491
20
0.0476024224489322
30
0
41
1
10
4.03430512587494
20
0.0480685520041959
30
0
41
1
10
4.03430512587494
20
0.0484942580474694
30
0
41
1
10
4.03430512587494
20
0.0488262546676026
30
0
41
1
10
4.03430512587494
20
0.0491098090263336
30
0
41
1
10
4.03430512587497
20
0.0493519485412719
30
0
41
1
10
4.03430512587497
20
0.0495944888406257
30
0
41
1
10
4.03430512587497
20
0.0498374484297983
30
0
41
1
10
4.03430512587497
20
0.0501345355731928
30
0
41
1
10
4.03430512587499
20
0.0504397554063587
30
0
41
1
10
4.03430512587499
20
0.0508070406435479
30
0
41
1
10
4.03430512587499
20
0.0512371291299019
30
0
41
1
10
4.03430512587502
20
0.0517310250425567
30
0
41
1
10
4.03430512587502
20
0.0522900780816826
30
0
41
1
10
4.03430512587505
20
0.0531256156108952
30
0
41
1
10
4.03430512587505
20
0.0540139364105414
30
0
41
1
10
4.03430512587508
20
0.0549584454635408
30
0
41
1
10
4.03430512587508
20
0.0558988691203979
30
0
41
1
10
4.03430512587508
20
0.0567569613405396
30
0
41
1
10
4.03430512587508
20
0.0574125428592822
30
0
41
1
10
4.03430512587508
20
0.057968079441423
30
0
41
1
10
4.03430512587508
20
0.0584201306694467
30
0
41
1
10
4.03430512587508
20
0.0588347533066553
30
0
41
1
10
4.03430512587505
20
0.0592949081841425
30
0
41
1
10
4.03430512587505
20
0.0596732160208262
30
0
41
1
10
4.03430512587505
20
0.0600462240878699
30
0
41
1
10
4.03430512587505
20
0.0604137781818963
30
0
41
1
10
4.03430512587502
20
0.0607757178048018
30
0
41
1
10
4.03430512587502
20
0.0611318772470781
30
0
41
1
10
4.03430512587499
20
0.0614905753289179
30
0
41
1
10
4.03430512587499
20
0.0618518308553462
30
0
41
1
10
4.03430512587499
20
0.0622156584430797
30
0
41
1
10
4.03430512587497
20
0.0625789668486334
30
0
41
1
10
4.03430512587497
20
0.0629416917506944
30
0
41
1
10
4.03430512587497
20
0.0632343233128552
30
0
41
1
10
4.03430512587494
20
0.063523569362502
30
0
41
1
10
4.03430512587494
20
0.0638110781289924
30
0
41
1
10
4.03430512587494
20
0.0641000082739822
30
0
41
1
10
4.03430512587491
20
0.0643903568704616
30
0
41
1
10
4.03430512587491
20
0.0647538720807574
30
0
41
1
10
4.03430512587491
20
0.0651214888052323
30
0
41
1
10
4.03430512587488
20
0.0654966278474092
30
0
41
1
10
4.03430512587488
20
0.0658793780254143
30
0
41
1
10
4.03430512587488
20
0.0662698256529097
30
0
41
1
10
4.03430512587485
20
0.0666680543432392
30
0
41
1
10
4.03430512587485
20
0.0670741448281831
30
0
41
1
10
4.03430512587482
20
0.0674827700300398
30
0
41
1
10
4.03430512587482
20
0.0678938974178038
30
0
41
1
10
4.03430512587479
20
0.0683074928747089
30
0
41
1
10
4.03430512587479
20
0.068740225642216
30
0
41
1
10
4.03430512587479
20
0.0691923811794766
30
0
41
1
10
4.03430512587477
20
0.069614287002679
30
0
41
1
10
4.03430512587477
20
0.0700040568155487
30
0
41
1
10
4.03430512587477
20
0.0704127938853958
30
0
41
1
10
4.03430512587474
20
0.0708234672010803
30
0
41
1
10
4.03430512587474
20
0.0712360483672683
30
0
41
1
10
4.03430512587474
20
0.0717020302438982
30
0
41
1
10
4.03430512587471
20
0.0722235287331046
30
0
41
1
10
4.03430512587471
20
0.0728015112262312
30
0
41
1
10
4.03430512587468
20
0.0734369388026721
30
0
41
1
10
4.03430512587468
20
0.0741308147666473
30
0
41
1
10
4.03430512587468
20
0.0748841620588792
30
0
41
1
10
4.03430512587465
20
0.07569799758204
30
0
41
1
10
4.03430512587465
20
0.0765174655915928
30
0
41
1
10
4.03430512587465
20
0.0775072597953397
30
0
41
1
10
4.03430512587465
20
0.079290361827816
30
0
41
1
10
4.03430512587465
20
0.0812564382513585
30
0
41
1
10
4.03430512587465
20
0.0832397970285399
30
0
41
1
10
4.03430512587468
20
0.0852347626650669
30
0
41
1
10
4.03430512587471
20
0.0870616789908354
30
0
41
1
10
4.03430512587471
20
0.088064838300312
30
0
41
1
10
4.03430512587471
20
0.0888990027198417
30
0
41
1
10
4.03430512587471
20
0.0897345059157715
30
0
41
1
10
4.03430512587474
20
0.0905711618240446
30
0
41
1
10
4.03430512587474
20
0.0913250344514722
30
0
41
1
10
4.03430512587474
20
0.0919957204077093
30
0
41
1
10
4.03430512587477
20
0.0926474058368569
30
0
41
1
10
4.03430512587477
20
0.0932800041572079
30
0
41
1
10
4.03430512587477
20
0.094041946164424
30
0
41
1
10
4.03430512587477
20
0.095017476138878
30
0
41
1
10
4.03430512587477
20
0.0962068613458769
30
0
41
1
10
4.03430512587479
20
0.0975455655329256
30
0
41
1
10
4.03430512587479
20
0.0990334821736667
30
0
41
1
10
4.03430512587482
20
0.100521578768706
30
0
41
1
10
4.03430512587482
20
0.102009628359582
30
0
41
1
10
4.03430512587482
20
0.103497457146801
30
0
41
1
10
4.03430512587482
20
0.104984940668203
30
0
41
1
10
4.03430512587482
20
0.106769405123629
30
0
41
1
10
4.03430512587485
20
0.108850452094885
30
0
41
1
10
4.03430512587485
20
0.11122758854728
30
0
41
1
10
4.03430512587485
20
0.114855326721567
30
0
41
1
10
4.03430512587485
20
0.119320492760153
30
0
41
1
10
4.03430512587485
20
0.12359869804547
30
0
41
1
10
4.03430512587485
20
0.130372483556613
30
0
41
1
10
4.03430512587485
20
0.144558354158818
30
0
41
1
10
4.03430512587482
20
0.164734130145547
30
0
41
1
10
4.03430512587482
20
0.190163781392499
30
0
41
1
10
4.03430512587485
20
0.221463832037045
30
0
41
1
10
4.03430512587485
20
0.255890276900516
30
0
41
1
10
4.03430512587485
20
0.288531077445299
30
0
41
1
10
4.03430512587482
20
0.319932622524021
30
0
41
1
10
4.03430512587482
20
0.351236861804182
30
0
41
1
10
4.03430512587482
20
0.382514651547837
30
0
41
1
10
4.03430512587485
20
0.413748066945317
30
0
41
1
10
4.03430512587477
20
0.444877597643568
30
0
41
1
10
4.03430512587474
20
0.47582621582643
30
0
41
1
10
4.03430512587482
20
0.506558484933862
30
0
41
1
10
4.03430512587482
20
0.534863402431881
30
0
41
1
10
4.03430512587482
20
0.556654143227462
30
0
41
1
10
4.03430512587482
20
0.572244172859598
30
0
41
1
10
4.03430512587482
20
0.581908478297038
30
0
41
1
10
4.03430512587482
20
0.58578561254086
30
0
0
SPLINE
5
CE
100
AcDbEntity
8
1
62
256
6
ByLayer
370
18
48
1
60
0
100
AcDbSpline
70
4
71
3
72
96
73
92
40
0
40
0
40
0
40
0
40
0.124999999999991
40
0.124999999999991
40
0.187499999999986
40
0.187499999999986
40
0.218749999999985
40
0.218749999999985
40
0.249999999999983
40
0.249999999999983
40
0.312499999999981
40
0.312499999999981
40
0.34374999999998
40
0.34374999999998
40
0.374999999999978
40
0.374999999999978
40
0.390624999999979
40
0.390624999999979
40
0.406249999999979
40
0.406249999999979
40
0.421874999999979
40
0.421874999999979
40
0.43749999999998
40
0.43749999999998
40
0.45312499999998
40
0.45312499999998
40
0.46874999999998
40
0.46874999999998
40
0.47656249999998
40
0.47656249999998
40
0.48437499999998
40
0.48437499999998
40
0.492187499999981
40
0.492187499999981
40
0.499999999999981
40
0.499999999999981
40
0.503906249999981
40
0.503906249999981
40
0.507812499999981
40
0.507812499999981
40
0.515624999999981
40
0.515624999999981
40
0.523437499999981
40
0.523437499999981
40
0.531249999999981
40
0.531249999999981
40
0.539062499999982
40
0.539062499999982
40
0.546874999999982
40
0.546874999999982
40
0.554687499999982
40
0.554687499999982
40
0.562499999999982
40
0.562499999999982
40
0.578124999999984
40
0.578124999999984
40
0.593749999999986
40
0.593749999999986
40
0.624999999999989
40
0.624999999999989
40
0.656249999999991
40
0.656249999999991
40
0.687499999999993
40
0.687499999999993
40
0.718749999999996
40
0.718749999999996
40
0.749999999999998
40
0.749999999999998
40
0.7578125
40
0.7578125
40
0.765625000000001
40
0.765625000000001
40
0.769531250000002
40
0.769531250000002
40
0.773437500000003
40
0.773437500000003
40
0.781250000000002
40
0.781250000000002
40
0.789062500000002
40
0.789062500000002
40
0.796875000000001
40
0.796875000000001
40
0.8125
40
0.8125
40
0.84375
40
0.84375
40
0.875
40
0.875
40
0.9375
40
0.9375
40
1
40
1
40
1
40
1
41
1
10
4.03430512587485
20
-0.228406539085313
30
0
41
1
10
3.84771046120585
20
-0.187422258407167
30
0
41
1
10
3.66327715703218
20
-0.138526968576798
30
0
41
1
10
3.38920122932993
20
-0.0542192585647001
30
0
41
1
10
3.29826573582102
20
-0.024308108798067
30
0
41
1
10
3.16237149920178
20
0.0230412607813832
30
0
41
1
10
3.11719244312755
20
0.0392267083119577
30
0
41
1
10
3.02741143252004
20
0.0722181887506395
30
0
41
1
10
2.98276150432736
20
0.0890405959430893
30
0
41
1
10
2.8495402819797
20
0.140391442506001
30
0
41
1
10
2.76168818333844
20
0.175795946855288
30
0
41
1
10
2.63148763632154
20
0.230355414126507
30
0
41
1
10
2.58835196703302
20
0.248785285477822
30
0
41
1
10
2.50267543171447
20
0.28611635552582
30
0
41
1
10
2.46013276234856
20
0.305016077323984
30
0
41
1
10
2.39686388870433
20
0.333747940737737
30
0
41
1
10
2.37586577050652
20
0.343389469633877
30
0
41
1
10
2.3340828171354
20
0.362817100214016
30
0
41
1
10
2.31338052190807
20
0.372564849564043
30
0
41
1
10
2.27253388116563
20
0.39208603945383
30
0
41
1
10
2.25237273284213
20
0.401866694366475
30
0
41
1
10
2.21269844673873
20
0.421482289846949
30
0
41
1
10
2.1931333073789
20
0.431343702168249
30
0
41
1
10
2.15527513055378
20
0.450931556860923
30
0
41
1
10
2.13694485886089
20
0.460673139851537
30
0
41
1
10
2.10189963793553
20
0.480052152209424
30
0
41
1
10
2.08517191068589
20
0.489688839632805
30
0
41
1
10
2.06189413874725
20
0.504080648918176
30
0
41
1
10
2.05444085299132
20
0.508867563401452
30
0
41
1
10
2.04034306034495
20
0.518428664570024
30
0
41
1
10
2.03375164997794
20
0.523170411198663
30
0
41
1
10
2.02199142847704
20
0.532389939233866
30
0
41
1
10
2.01678268992404
20
0.536892792098087
30
0
41
1
10
2.00813860158689
20
0.545640691761776
30
0
41
1
10
2.00482459309998
20
0.54976730207656
30
0
41
1
10
2.00162021542201
20
0.555552424276499
30
0
41
1
10
2.00084740359614
20
0.55741321753024
30
0
41
1
10
1.99994810155479
20
0.560992300320294
30
0
41
1
10
1.99982486175571
20
0.562722678492491
30
0
41
1
10
2.00050116598169
20
0.567580610585878
30
0
41
1
10
2.00231790051362
20
0.570377058063684
30
0
41
1
10
2.00852401010684
20
0.575183270707981
30
0
41
1
10
2.01298275860083
20
0.577200418121635
30
0
41
1
10
2.02378151967372
20
0.580406702220586
30
0
41
1
10
2.03013368879817
20
0.581627814502951
30
0
41
1
10
2.04436499383644
20
0.583491624529984
30
0
41
1
10
2.05226342118078
20
0.584129899731721
30
0
41
1
10
2.06885238779861
20
0.584945144585106
30
0
41
1
10
2.07759722160631
20
0.58512953384195
30
0
41
1
10
2.09578760767863
20
0.585172246180832
30
0
41
1
10
2.10523445637258
20
0.585029761359436
30
0
41
1
10
2.12469873340459
20
0.584496248371551
30
0
41
1
10
2.13473998583527
20
0.584103262363271
30
0
41
1
10
2.16519700277627
20
0.582654267670193
30
0
41
1
10
2.18605472893006
20
0.581332610310454
30
0
41
1
10
2.22852969278435
20
0.578282381666554
30
0
41
1
10
2.25015138749924
20
0.576549855927425
30
0
41
1
10
2.31588149040078
20
0.57097625739496
30
0
41
1
10
2.36084106754549
20
0.566770611099571
30
0
41
1
10
2.45225195150124
20
0.558040415605205
30
0
41
1
10
2.49849543965883
20
0.553526321999016
30
0
41
1
10
2.59144801276483
20
0.544546443100216
30
0
41
1
10
2.63822085695068
20
0.540071073858797
30
0
41
1
10
2.7322355076578
20
0.531322819350663
30
0
41
1
10
2.77947775931057
20
0.527047452634321
30
0
41
1
10
2.87435967585492
20
0.518814307707174
30
0
41
1
10
2.92198145195303
20
0.514881107915045
30
0
41
1
10
2.98160412594024
20
0.510165703910928
30
0
41
1
10
2.99353396747256
20
0.509230268809205
30
0
41
1
10
3.01739796536961
20
0.507356659134615
30
0
41
1
10
3.02932538714552
20
0.506397206579948
30
0
41
1
10
3.0472523255865
20
0.505058765316164
30
0
41
1
10
3.05323535710005
20
0.504633778626214
30
0
41
1
10
3.06527418809841
20
0.504011160655779
30
0
41
1
10
3.07137052935104
20
0.503822683154084
30
0
41
1
10
3.08932490701022
20
0.503850812199147
30
0
41
1
10
3.10092172211372
20
0.504691024956941
30
0
41
1
10
3.12370798270507
20
0.507229230830006
30
0
41
1
10
3.13494316111741
20
0.508823698797869
30
0
41
1
10
3.15745553021031
20
0.511873710646938
30
0
41
1
10
3.16871351294302
20
0.513373044092162
30
0
41
1
10
3.20251259686074
20
0.517755714297692
30
0
41
1
10
3.22506522787467
20
0.520552843711243
30
0
41
1
10
3.29273251391498
20
0.528682597775315
30
0
41
1
10
3.33786728213104
20
0.533731597142008
30
0
41
1
10
3.42809108295649
20
0.543139155200265
30
0
41
1
10
3.4731770254547
20
0.547538288352541
30
0
41
1
10
3.60692017879381
20
0.560900579544864
30
0
41
1
10
3.69418253330477
20
0.569784629123632
30
0
41
1
10
3.86593455825835
20
0.582616361890189
30
0
41
1
10
3.95042273507684
20
0.586519736097188
30
0
41
1
10
4.03430512587482
20
0.58578561255419
30
0
0
LINE
5
7D
100
AcDbEntity
8
80
62
256
6
ByLayer
370
18
48
1
60
0
100
AcDbLine
10
0
20
0
30
0
11
-5
21
0
31
0
39
0
210
0
220
0
230
1
0
LINE
5
7E
100
AcDbEntity
8
4
62
256
6
ByLayer
370
18
48
0.05
60
0
100
AcDbLine
10
-5
20
0
30
0
11
23
21
0
31
0
39
0
210
0
220
0
230
1
0
LINE
5
80
100
AcDbEntity
8
81
62
256
6
ByLayer
370
18
48
1
60
0
100
AcDbLine
10
18
20
0
30
0
11
23
21
0
31
0
39
0
210
0
220
0
230
1
0
LINE
5
81
100
AcDbEntity
8
SK4
62
256
6
ByLayer
370
18
48
0.05
60
0
100
AcDbLine
10
-25
20
0
30
0
11
23
21
0
31
0
39
0
210
0
220
0
230
1
0
LINE
5
83
100
AcDbEntity
8
1
62
256
6
ByLayer
370
18
48
1
60
0
100
AcDbLine
10
0
20
0.591
30
0
11
0
21
-0.591
31
0
39
0
210
0
220
0
230
1
0
LINE
5
84
100
AcDbEntity
8
1
62
256
6
ByLayer
370
18
48
1
60
0
100
AcDbLine
10
17.680402
20
-0.591
30
0
11
17.680402
21
-0.349674
31
0
39
0
210
0
220
0
230
1
0
LINE
5
85
100
AcDbEntity
8
1
62
256
6
ByLayer
370
18
48
1
60
0
100
AcDbLine
10
17.680402
20
0.591
30
0
11
17.680402
21
0.572351
31
0
39
0
210
0
220
0
230
1
0
LINE
5
86
100
AcDbEntity
8
1
62
256
6
ByLayer
370
18
48
1
60
0
100
AcDbLine
10
0.1
20
-0.584407
30
0
11
0.1
21
0.584407
31
0
39
0
210
0
220
0
230
1
0
LINE
5
87
100
AcDbEntity
8
SK1
62
256
6
ByLayer
370
18
48
1
60
0
100
AcDbLine
10
0
20
0.591
30
0
11
0
21
-0.591
31
0
39
0
210
0
220
0
230
1
0
LINE
5
89
100
AcDbEntity
8
SK1
62
256
6
ByLayer
370
18
48
1
60
0
100
AcDbLine
10
-20
20
-0.49
30
0
11
-20
21
0.49
31
0
39
0
210
0
220
0
230
1
0
LINE
5
8A
100
AcDbEntity
8
SK1
62
256
6
ByLayer
370
18
48
1
60
0
100
AcDbLine
10
-19.899
20
-0.591
30
0
11
-19.899
21
0.591
31
0
39
0
210
0
220
0
230
1
0
LINE
5
8B
100
AcDbEntity
8
1
62
256
6
ByLayer
370
18
48
1
60
0
100
AcDbLine
10
18
20
0
30
0
11
17.680402
21
0.591
31
0
39
0
210
0
220
0
230
1
0
LINE
5
8C
100
AcDbEntity
8
1
62
256
6
ByLayer
370
18
48
1
60
0
100
AcDbLine
10
17.680402
20
-0.591
30
0
11
18
21
0
31
0
39
0
210
0
220
0
230
1
0
LINE
5
8D
100
AcDbEntity
8
1
62
256
6
ByLayer
370
18
48
1
60
0
100
AcDbLine
10
0.1
20
0.584407
30
0
11
0
21
0.591
31
0
39
0
210
0
220
0
230
1
0
LINE
5
8E
100
AcDbEntity
8
1
62
256
6
ByLayer
370
18
48
1
60
0
100
AcDbLine
10
0
20
-0.591
30
0
11
0.1
21
-0.584407
31
0
39
0
210
0
220
0
230
1
0
LINE
5
8F
100
AcDbEntity
8
1
62
256
6
ByLayer
370
18
48
1
60
0
100
AcDbLine
10
0.1
20
-0.584407
30
0
11
2.093989
21
-0.585155
31
0
39
0
210
0
220
0
230
1
0
LINE
5
90
100
AcDbEntity
8
1
62
256
6
ByLayer
370
18
48
1
60
0
100
AcDbLine
10
4.041906
20
-0.585886
30
0
11
5.282547
21
-0.586351
31
0
39
0
210
0
220
0
230
1
0
LINE
5
91
100
AcDbEntity
8
1
62
256
6
ByLayer
370
18
48
1
60
0
100
AcDbLine
10
7.362129
20
-0.587131
30
0
11
8.631786
21
-0.587607
31
0
39
0
210
0
220
0
230
1
0
LINE
5
92
100
AcDbEntity
8
1
62
256
6
ByLayer
370
18
48
1
60
0
100
AcDbLine
10
10.71349
20
-0.588387
30
0
11
11.981486
21
-0.588863
31
0
39
0
210
0
220
0
230
1
0
LINE
5
93
100
AcDbEntity
8
1
62
256
6
ByLayer
370
18
48
1
60
0
100
AcDbLine
10
14.062485
20
-0.589643
30
0
11
15.330971
21
-0.590119
31
0
39
0
210
0
220
0
230
1
0
LINE
5
94
100
AcDbEntity
8
1
62
256
6
ByLayer
370
18
48
1
60
0
100
AcDbLine
10
17.409304
20
-0.590898
30
0
11
17.680402
21
-0.591
31
0
39
0
210
0
220
0
230
1
0
LINE
5
95
100
AcDbEntity
8
1
62
256
6
ByLayer
370
18
48
1
60
0
100
AcDbLine
10
17.680402
20
0.591
30
0
11
17.409304
21
0.590898
31
0
39
0
210
0
220
0
230
1
0
LINE
5
96
100
AcDbEntity
8
1
62
256
6
ByLayer
370
18
48
1
60
0
100
AcDbLine
10
15.330971
20
0.590119
30
0
11
14.062485
21
0.589643
31
0
39
0
210
0
220
0
230
1
0
LINE
5
97
100
AcDbEntity
8
1
62
256
6
ByLayer
370
18
48
1
60
0
100
AcDbLine
10
11.981486
20
0.588863
30
0
11
10.71349
21
0.588387
31
0
39
0
210
0
220
0
230
1
0
LINE
5
98
100
AcDbEntity
8
1
62
256
6
ByLayer
370
18
48
1
60
0
100
AcDbLine
10
8.631786
20
0.587607
30
0
11
7.362129
21
0.587131
31
0
39
0
210
0
220
0
230
1
0
LINE
5
99
100
AcDbEntity
8
1
62
256
6
ByLayer
370
18
48
1
60
0
100
AcDbLine
10
5.282547
20
0.586351
30
0
11
4.009205
21
0.585873
31
0
39
0
210
0
220
0
230
1
0
LINE
5
9A
100
AcDbEntity
8
1
62
256
6
ByLayer
370
18
48
1
60
0
100
AcDbLine
10
2.093989
20
0.585155
30
0
11
0.1
21
0.584407
31
0
39
0
210
0
220
0
230
1
0
LINE
5
9B
100
AcDbEntity
8
SK1
62
256
6
ByLayer
370
18
48
1
60
0
100
AcDbLine
10
-19.899
20
-0.591
30
0
11
0
21
-0.591
31
0
39
0
210
0
220
0
230
1
0
LINE
5
9C
100
AcDbEntity
8
SK1
62
256
6
ByLayer
370
18
48
1
60
0
100
AcDbLine
10
0
20
0.591
30
0
11
-19.899
21
0.591
31
0
39
0
210
0
220
0
230
1
0
LINE
5
9D
100
AcDbEntity
8
SK1
62
256
6
ByLayer
370
18
48
1
60
0
100
AcDbLine
10
-20
20
-0.49
30
0
11
-19.899
21
-0.591
31
0
39
0
210
0
220
0
230
1
0
LINE
5
9E
100
AcDbEntity
8
SK1
62
256
6
ByLayer
370
18
48
1
60
0
100
AcDbLine
10
-19.899
20
0.591
30
0
11
-20
21
0.49
31
0
39
0
210
0
220
0
230
1
0
LINE
5
9F
100
AcDbEntity
8
SK2
62
256
6
ByLayer
370
13
48
1
60
0
100
AcDbLine
10
-26.5
20
25.87397
30
0
11
-26.5
21
-8.091
31
0
39
0
210
0
220
0
230
1
0
LINE
5
A1
100
AcDbEntity
8
SK2
62
256
6
ByLayer
370
13
48
1
60
0
100
AcDbLine
10
-21.5875
20
0.591
30
0
11
-28.5
21
0.591
31
0
39
0
210
0
220
0
230
1
0
LINE
5
A2
100
AcDbEntity
8
SK2
62
256
6
ByLayer
370
13
48
1
60
0
100
AcDbLine
10
-21.5875
20
-0.591
30
0
11
-28.5
21
-0.591
31
0
39
0
210
0
220
0
230
1
0
LINE
5
A3
100
AcDbEntity
8
1
62
256
6
ByLayer
370
18
48
1
60
1
100
AcDbLine
10
-26.5
20
0.591
30
0
11
-26.960784
21
4.090998
31
0
39
0
210
0
220
0
230
1
0
LINE
5
A4
100
AcDbEntity
8
1
62
256
6
ByLayer
370
18
48
1
60
1
100
AcDbLine
10
-26.960784
20
4.090998
30
0
11
-26.039216
21
4.091002
31
0
39
0
210
0
220
0
230
1
0
LINE
5
A5
100
AcDbEntity
8
1
62
256
6
ByLayer
370
18
48
1
60
1
100
AcDbLine
10
-26.039216
20
4.091002
30
0
11
-26.5
21
0.591
31
0
39
0
210
0
220
0
230
1
0
LINE
5
A6
100
AcDbEntity
8
1
62
256
6
ByLayer
370
18
48
1
60
1
100
AcDbLine
10
-26.5
20
-0.591
30
0
11
-26.039216
21
-4.090998
31
0
39
0
210
0
220
0
230
1
0
LINE
5
A7
100
AcDbEntity
8
1
62
256
6
ByLayer
370
18
48
1
60
1
100
AcDbLine
10
-26.039216
20
-4.090998
30
0
11
-26.960784
21
-4.091002
31
0
39
0
210
0
220
0
230
1
0
LINE
5
A8
100
AcDbEntity
8
1
62
256
6
ByLayer
370
18
48
1
60
1
100
AcDbLine
10
-26.960784
20
-4.091002
30
0
11
-26.5
21
-0.591
31
0
39
0
210
0
220
0
230
1
0
LINE
5
A9
100
AcDbEntity
8
2
62
256
6
ByLayer
370
13
48
1
60
0
100
AcDbLine
10
27.180402
20
25.87397
30
0
11
27.180402
21
-8.091
31
0
39
0
210
0
220
0
230
1
0
LINE
5
AB
100
AcDbEntity
8
2
62
256
6
ByLayer
370
13
48
1
60
0
100
AcDbLine
10
19.267902
20
0.591
30
0
11
29.180402
21
0.591
31
0
39
0
210
0
220
0
230
1
0
LINE
5
AC
100
AcDbEntity
8
2
62
256
6
ByLayer
370
13
48
1
60
0
100
AcDbLine
10
19.267902
20
-0.591
30
0
11
29.180402
21
-0.591
31
0
39
0
210
0
220
0
230
1
0
LINE
5
AD
100
AcDbEntity
8
1
62
256
6
ByLayer
370
18
48
1
60
1
100
AcDbLine
10
27.180402
20
0.591
30
0
11
26.719618
21
4.090998
31
0
39
0
210
0
220
0
230
1
0
LINE
5
AE
100
AcDbEntity
8
1
62
256
6
ByLayer
370
18
48
1
60
1
100
AcDbLine
10
26.719618
20
4.090998
30
0
11
27.641186
21
4.091002
31
0
39
0
210
0
220
0
230
1
0
LINE
5
AF
100
AcDbEntity
8
1
62
256
6
ByLayer
370
18
48
1
60
1
100
AcDbLine
10
27.641186
20
4.091002
30
0
11
27.180402
21
0.591
31
0
39
0
210
0
220
0
230
1
0
LINE
5
B0
100
AcDbEntity
8
1
62
256
6
ByLayer
370
18
48
1
60
1
100
AcDbLine
10
27.180402
20
-0.591
30
0
11
27.641186
21
-4.090998
31
0
39
0
210
0
220
0
230
1
0
LINE
5
B1
100
AcDbEntity
8
1
62
256
6
ByLayer
370
18
48
1
60
1
100
AcDbLine
10
27.641186
20
-4.090998
30
0
11
26.719618
21
-4.091002
31
0
39
0
210
0
220
0
230
1
0
LINE
5
B2
100
AcDbEntity
8
1
62
256
6
ByLayer
370
18
48
1
60
1
100
AcDbLine
10
26.719618
20
-4.091002
30
0
11
27.180402
21
-0.591
31
0
39
0
210
0
220
0
230
1
0
LINE
5
B3
100
AcDbEntity
8
2
62
256
6
ByLayer
370
13
48
1
60
0
100
AcDbLine
10
18.755136
20
-1.396397
30
0
11
29.416232
21
-21.110889
31
0
39
0
210
0
220
0
230
1
0
LINE
5
B4
100
AcDbEntity
8
2
62
256
6
ByLayer
370
13
48
1
60
0
100
AcDbLine
10
18.755136
20
1.396397
30
0
11
29.416232
21
21.110889
31
0
39
0
210
0
220
0
230
1
0
LINE
5
B5
100
AcDbEntity
8
1
62
256
6
ByLayer
370
18
48
1
60
1
100
AcDbLine
10
28.464879
20
-19.351649
30
0
11
31.239971
21
-17.169637
31
0
39
0
210
0
220
0
230
1
0
LINE
5
B6
100
AcDbEntity
8
1
62
256
6
ByLayer
370
18
48
1
60
1
100
AcDbLine
10
31.239971
20
-17.169637
30
0
11
31.710161
21
-17.962233
31
0
39
0
210
0
220
0
230
1
0
LINE
5
B7
100
AcDbEntity
8
1
62
256
6
ByLayer
370
18
48
1
60
1
100
AcDbLine
10
31.710161
20
-17.962233
30
0
11
28.464879
21
-19.351649
31
0
39
0
210
0
220
0
230
1
0
LINE
5
B8
100
AcDbEntity
8
1
62
256
6
ByLayer
370
18
48
1
60
1
100
AcDbLine
10
28.464879
20
19.351649
30
0
11
31.710158
21
17.962234
31
0
39
0
210
0
220
0
230
1
0
LINE
5
B9
100
AcDbEntity
8
1
62
256
6
ByLayer
370
18
48
1
60
1
100
AcDbLine
10
31.710158
20
17.962234
30
0
11
31.239974
21
17.169635
31
0
39
0
210
0
220
0
230
1
0
LINE
5
BA
100
AcDbEntity
8
1
62
256
6
ByLayer
370
18
48
1
60
1
100
AcDbLine
10
31.239974
20
17.169635
30
0
11
28.464879
21
19.351649
31
0
39
0
210
0
220
0
230
1
0
LINE
5
D3
100
AcDbEntity
8
1
62
256
6
ByLayer
370
18
48
1
60
1
100
AcDbLine
10
-26.5
20
0.591
30
0
11
-26.960784
21
4.090998
31
0
39
0
210
0
220
0
230
1
0
LINE
5
D4
100
AcDbEntity
8
1
62
256
6
ByLayer
370
18
48
1
60
1
100
AcDbLine
10
-26.960784
20
4.090998
30
0
11
-26.039216
21
4.091002
31
0
39
0
210
0
220
0
230
1
0
LINE
5
D5
100
AcDbEntity
8
1
62
256
6
ByLayer
370
18
48
1
60
1
100
AcDbLine
10
-26.039216
20
4.091002
30
0
11
-26.5
21
0.591
31
0
39
0
210
0
220
0
230
1
0
LINE
5
D7
100
AcDbEntity
8
1
62
256
6
ByLayer
370
18
48
1
60
1
100
AcDbLine
10
-26.5
20
-0.591
30
0
11
-26.039216
21
-4.090998
31
0
39
0
210
0
220
0
230
1
0
LINE
5
D8
100
AcDbEntity
8
1
62
256
6
ByLayer
370
18
48
1
60
1
100
AcDbLine
10
-26.039216
20
-4.090998
30
0
11
-26.960784
21
-4.091002
31
0
39
0
210
0
220
0
230
1
0
LINE
5
D9
100
AcDbEntity
8
1
62
256
6
ByLayer
370
18
48
1
60
1
100
AcDbLine
10
-26.960784
20
-4.091002
30
0
11
-26.5
21
-0.591
31
0
39
0
210
0
220
0
230
1
0
LINE
5
DD
100
AcDbEntity
8
1
62
256
6
ByLayer
370
18
48
1
60
1
100
AcDbLine
10
27.180402
20
0.591
30
0
11
26.719618
21
4.090998
31
0
39
0
210
0
220
0
230
1
0
LINE
5
DE
100
AcDbEntity
8
1
62
256
6
ByLayer
370
18
48
1
60
1
100
AcDbLine
10
26.719618
20
4.090998
30
0
11
27.641186
21
4.091002
31
0
39
0
210
0
220
0
230
1
0
LINE
5
DF
100
AcDbEntity
8
1
62
256
6
ByLayer
370
18
48
1
60
1
100
AcDbLine
10
27.641186
20
4.091002
30
0
11
27.180402
21
0.591
31
0
39
0
210
0
220
0
230
1
0
LINE
5
E1
100
AcDbEntity
8
1
62
256
6
ByLayer
370
18
48
1
60
1
100
AcDbLine
10
27.180402
20
-0.591
30
0
11
27.641186
21
-4.090998
31
0
39
0
210
0
220
0
230
1
0
LINE
5
E2
100
AcDbEntity
8
1
62
256
6
ByLayer
370
18
48
1
60
1
100
AcDbLine
10
27.641186
20
-4.090998
30
0
11
26.719618
21
-4.091002
31
0
39
0
210
0
220
0
230
1
0
LINE
5
E3
100
AcDbEntity
8
1
62
256
6
ByLayer
370
18
48
1
60
1
100
AcDbLine
10
26.719618
20
-4.091002
30
0
11
27.180402
21
-0.591
31
0
39
0
210
0
220
0
230
1
0
LINE
5
E6
100
AcDbEntity
8
1
62
256
6
ByLayer
370
18
48
1
60
1
100
AcDbLine
10
28.464879
20
-19.351649
30
0
11
31.239971
21
-17.169637
31
0
39
0
210
0
220
0
230
1
0
LINE
5
E7
100
AcDbEntity
8
1
62
256
6
ByLayer
370
18
48
1
60
1
100
AcDbLine
10
31.239971
20
-17.169637
30
0
11
31.710161
21
-17.962233
31
0
39
0
210
0
220
0
230
1
0
LINE
5
E8
100
AcDbEntity
8
1
62
256
6
ByLayer
370
18
48
1
60
1
100
AcDbLine
10
31.710161
20
-17.962233
30
0
11
28.464879
21
-19.351649
31
0
39
0
210
0
220
0
230
1
0
LINE
5
EA
100
AcDbEntity
8
1
62
256
6
ByLayer
370
18
48
1
60
1
100
AcDbLine
10
28.464879
20
19.351649
30
0
11
31.710158
21
17.962234
31
0
39
0
210
0
220
0
230
1
0
LINE
5
EB
100
AcDbEntity
8
1
62
256
6
ByLayer
370
18
48
1
60
1
100
AcDbLine
10
31.710158
20
17.962234
30
0
11
31.239974
21
17.169635
31
0
39
0
210
0
220
0
230
1
0
LINE
5
EC
100
AcDbEntity
8
1
62
256
6
ByLayer
370
18
48
1
60
1
100
AcDbLine
10
31.239974
20
17.169635
30
0
11
28.464879
21
19.351649
31
0
39
0
210
0
220
0
230
1
0
MTEXT
5
CF
100
AcDbEntity
8
SK2
62
256
6
ByLayer
370
18
48
1
60
0
100
AcDbMText
10
-27.841114
20
12.249437
30
0
210
0
220
0
230
1
1
%%c
40
3
41
0
44
1.084337
50
90
71
7
72
5
7
iso_b_vert
0
MTEXT
5
D2
100
AcDbEntity
8
SK2
62
256
6
ByLayer
370
18
48
1
60
0
100
AcDbMText
10
-27.841114
20
18.226
30
0
210
0
220
0
230
1
1
\W0.6261;1.182
40
3
41
0
44
1.084337
50
90
71
7
72
5
7
iso_b_vert
0
MTEXT
5
DB
100
AcDbEntity
8
2
62
256
6
ByLayer
370
18
48
1
60
0
100
AcDbMText
10
25.839288
20
12.249437
30
0
210
0
220
0
230
1
1
%%c
40
3
41
0
44
1.084337
50
90
71
7
72
5
7
iso_b_vert
0
MTEXT
5
DC
100
AcDbEntity
8
2
62
256
6
ByLayer
370
18
48
1
60
0
100
AcDbMText
10
25.839288
20
18.226
30
0
210
0
220
0
230
1
1
\W0.6261;1.182
40
3
41
0
44
1.084337
50
90
71
7
72
5
7
iso_b_vert
0
MTEXT
5
E5
100
AcDbEntity
8
2
62
256
6
ByLayer
370
18
48
1
60
0
100
AcDbMText
10
37.092229
20
-2.114886
30
0
210
0
220
0
230
1
1
\W0.6008;118%%d
40
3
41
0
44
1.084337
50
0
71
7
72
5
7
iso_b_vert
0
MTEXT
5
EE
100
AcDbEntity
8
SK6
62
256
6
ByLayer
370
18
48
1
60
0
100
AcDbMText
10
-8.553284
20
-67.114886
30
0
210
0
220
0
230
1
1
\W0.7711;R003N56
40
3
41
0
44
1.084337
50
0
71
7
72
5
7
iso_b_vert
0
HATCH
5
D6
100
AcDbEntity
8
SK2
62
256
6
ByLayer
370
13
48
1
60
0
100
AcDbHatch
10
0
20
0
30
0
210
0
220
0
230
1
2
ANSI31
70
0
71
0
91
1
92
5
93
3
72
1
10
-26.5
20
0.59099999999998
11
-26.9607837415528
21
4.0909983074468
72
1
10
-26.9607837415528
20
4.0909983074468
11
-26.0392162584472
21
4.09100169255316
72
1
10
-26.0392162584472
20
4.09100169255316
11
-26.5
21
0.59099999999998
97
0
75
0
76
1
52
0
41
0.0062
77
0
78
1
53
45
43
0
44
0
45
-0.0139193969876572
46
0.0139193969876572
79
0
47
0
98
1
10
0
20
0
0
HATCH
5
DA
100
AcDbEntity
8
SK2
62
256
6
ByLayer
370
13
48
1
60
0
100
AcDbHatch
10
0
20
0
30
0
210
0
220
0
230
1
2
ANSI31
70
0
71
0
91
1
92
5
93
3
72
1
10
-26.5
20
-0.591000000000008
11
-26.0392162584472
21
-4.09099830744682
72
1
10
-26.0392162584472
20
-4.09099830744682
11
-26.9607837415528
21
-4.09100169255319
72
1
10
-26.9607837415528
20
-4.09100169255319
11
-26.5
21
-0.591000000000008
97
0
75
0
76
1
52
0
41
0.0062
77
0
78
1
53
45
43
0
44
0
45
-0.0139193969876572
46
0.0139193969876572
79
0
47
0
98
1
10
0
20
0
0
HATCH
5
E0
100
AcDbEntity
8
2
62
256
6
ByLayer
370
13
48
1
60
0
100
AcDbHatch
10
0
20
0
30
0
210
0
220
0
230
1
2
ANSI31
70
0
71
0
91
1
92
5
93
3
72
1
10
27.1804022367392
20
0.59099999999998
11
26.7196184951865
21
4.0909983074468
72
1
10
26.7196184951865
20
4.0909983074468
11
27.641185978292
21
4.09100169255316
72
1
10
27.641185978292
20
4.09100169255316
11
27.1804022367392
21
0.59099999999998
97
0
75
0
76
1
52
0
41
0.0062
77
0
78
1
53
45
43
0
44
0
45
-0.0139193969876572
46
0.0139193969876572
79
0
47
0
98
1
10
0
20
0
0
HATCH
5
E4
100
AcDbEntity
8
2
62
256
6
ByLayer
370
13
48
1
60
0
100
AcDbHatch
10
0
20
0
30
0
210
0
220
0
230
1
2
ANSI31
70
0
71
0
91
1
92
5
93
3
72
1
10
27.1804022367392
20
-0.591000000000008
11
27.641185978292
21
-4.09099830744682
72
1
10
27.641185978292
20
-4.09099830744682
11
26.7196184951865
21
-4.09100169255319
72
1
10
26.7196184951865
20
-4.09100169255319
11
27.1804022367392
21
-0.591000000000008
97
0
75
0
76
1
52
0
41
0.0062
77
0
78
1
53
45
43
0
44
0
45
-0.0139193969876572
46
0.0139193969876572
79
0
47
0
98
1
10
0
20
0
0
HATCH
5
E9
100
AcDbEntity
8
2
62
256
6
ByLayer
370
13
48
1
60
0
100
AcDbHatch
10
0
20
0
30
0
210
0
220
0
230
1
2
ANSI31
70
0
71
0
91
1
92
5
93
3
72
1
10
28.4648791987522
20
-19.3516485952883
11
31.2399711078384
21
-17.1696369764525
72
1
10
31.2399711078384
20
-17.1696369764525
11
31.7101613929252
21
-17.962232536457
72
1
10
31.7101613929252
20
-17.962232536457
11
28.4648791987522
21
-19.3516485952883
97
0
75
0
76
1
52
0
41
0.0062
77
0
78
1
53
45
43
0
44
0
45
-0.0139193969876572
46
0.0139193969876572
79
0
47
0
98
1
10
0
20
0
0
HATCH
5
ED
100
AcDbEntity
8
2
62
256
6
ByLayer
370
13
48
1
60
0
100
AcDbHatch
10
0
20
0
30
0
210
0
220
0
230
1
2
ANSI31
70
0
71
0
91
1
92
5
93
3
72
1
10
28.4648791987518
20
19.3516485952885
11
31.7101584815524
21
17.9622342635519
72
1
10
31.7101584815524
20
17.9622342635519
11
31.2399740192104
21
17.1696352493581
72
1
10
31.2399740192104
20
17.1696352493581
11
28.4648791987518
21
19.3516485952885
97
0
75
0
76
1
52
0
41
0.0062
77
0
78
1
53
45
43
0
44
0
45
-0.0139193969876572
46
0.0139193969876572
79
0
47
0
98
1
10
0
20
0
0
DIMENSION
5
F1
100
AcDbEntity
8
SK2
62
256
6
ByLayer
370
18
48
1
60
0
100
AcDbDimension
2
_U0
10
18
20
-51.657159
30
0
11
-1
21
-51.657159
31
0
70
32
71
1
72
1
41
1
210
0
220
0
230
1
3
Standard
100
AcDbAlignedDimension
13
-20
23
-0.591
33
0
14
18
24
0
34
0
50
0
100
AcDbRotatedDimension
1001
ACAD
1000
DSTYLE
1002
{
1070
   371
1070
    13
1070
   372
1070
    13
1070
     3
1000

1070
   170
1070
     0
1070
   144
1040
1.0
1070
   277
1070
     2
1070
   284
1070
     8
1070
   278
1070
    46
1070
   146
1040
1.166667
1070
   345
1005
16
1070
   347
1005
16
1070
   346
1005
16
1070
   344
1005
0
1070
   343
1005
0
1070
   172
1070
     1
1070
    76
1070
     0
1070
    75
1070
     0
1070
   282
1070
     0
1070
   281
1070
     0
1070
    71
1070
     0
1070
    74
1070
     0
1070
   279
1070
     0
1070
   173
1070
     1
1070
   340
1005
D0
1070
   271
1070
     2
1070
   272
1070
     3
1070
    77
1070
     1
1070
    73
1070
     1
1070
   171
1070
     3
1070
   274
1070
     4
1070
   177
1070
     2
1070
   176
1070
     2
1070
   178
1070
     2
1070
    78
1070
     8
1070
    48
1040
-0.1
1070
    41
1040
3.5
1070
   147
1040
1.5
1070
    42
1040
1.5875
1070
    44
1040
2.0
1070
   140
1040
3.0
1002
}
1001
ACAD_DSTYLE_DIM_LINETYPE
1070
   380
1005
16
1001
ACAD_DSTYLE_DIM_EXT1_LINETYPE
1070
   381
1005
16
1001
ACAD_DSTYLE_DIM_EXT2_LINETYPE
1070
   382
1005
16
0
DIMENSION
5
10A
100
AcDbEntity
8
2
62
256
6
ByLayer
370
18
48
1
60
0
100
AcDbDimension
2
_U1
10
2
20
-41.657159
30
0
11
10
21
-41.657159
31
0
70
32
71
1
72
1
41
1
210
0
220
0
230
1
3
Standard
100
AcDbAlignedDimension
13
18
23
0
33
0
14
2
24
-0.591
34
0
50
0
100
AcDbRotatedDimension
1001
ACAD
1000
DSTYLE
1002
{
1070
   371
1070
    13
1070
   372
1070
    13
1070
     3
1000

1070
   170
1070
     0
1070
   144
1040
1.0
1070
   277
1070
     2
1070
   284
1070
     8
1070
   278
1070
    46
1070
   146
1040
1.166667
1070
   345
1005
16
1070
   347
1005
16
1070
   346
1005
16
1070
   344
1005
0
1070
   343
1005
0
1070
   172
1070
     1
1070
    76
1070
     0
1070
    75
1070
     0
1070
   282
1070
     0
1070
   281
1070
     0
1070
    71
1070
     0
1070
    74
1070
     0
1070
   279
1070
     0
1070
   173
1070
     1
1070
   340
1005
D0
1070
   271
1070
     2
1070
   272
1070
     3
1070
    77
1070
     1
1070
    73
1070
     1
1070
   171
1070
     3
1070
   274
1070
     4
1070
   177
1070
     2
1070
   176
1070
     2
1070
   178
1070
     2
1070
    78
1070
     8
1070
    48
1040
-0.1
1070
    41
1040
3.5
1070
   147
1040
1.5
1070
    42
1040
1.5875
1070
    44
1040
2.0
1070
   140
1040
3.0
1002
}
1001
ACAD_DSTYLE_DIM_LINETYPE
1070
   380
1005
16
1001
ACAD_DSTYLE_DIM_EXT1_LINETYPE
1070
   381
1005
16
1001
ACAD_DSTYLE_DIM_EXT2_LINETYPE
1070
   382
1005
16
0
DIMENSION
5
122
100
AcDbEntity
8
SK2
62
256
6
ByLayer
370
18
48
1
60
0
100
AcDbDimension
2
_U2
10
0
20
-36.657159
30
0
11
-10
21
-36.657159
31
0
70
32
71
1
72
1
41
1
210
0
220
0
230
1
3
Standard
100
AcDbAlignedDimension
13
-20
23
-0.591
33
0
14
0
24
-0.591
34
0
50
0
100
AcDbRotatedDimension
1001
ACAD
1000
DSTYLE
1002
{
1070
   371
1070
    13
1070
   372
1070
    13
1070
     3
1000

1070
   170
1070
     0
1070
   144
1040
1.0
1070
   277
1070
     2
1070
   284
1070
     8
1070
   278
1070
    46
1070
   146
1040
1.166667
1070
   345
1005
16
1070
   347
1005
16
1070
   346
1005
16
1070
   344
1005
0
1070
   343
1005
0
1070
   172
1070
     1
1070
    76
1070
     0
1070
    75
1070
     0
1070
   282
1070
     0
1070
   281
1070
     0
1070
    71
1070
     0
1070
    74
1070
     0
1070
   279
1070
     0
1070
   173
1070
     1
1070
   340
1005
D0
1070
   271
1070
     2
1070
   272
1070
     3
1070
    77
1070
     1
1070
    73
1070
     1
1070
   171
1070
     3
1070
   274
1070
     4
1070
   177
1070
     2
1070
   176
1070
     2
1070
   178
1070
     2
1070
    78
1070
     8
1070
    48
1040
-0.1
1070
    41
1040
3.5
1070
   147
1040
1.5
1070
    42
1040
1.5875
1070
    44
1040
2.0
1070
   140
1040
3.0
1002
}
1001
ACAD_DSTYLE_DIM_LINETYPE
1070
   380
1005
16
1001
ACAD_DSTYLE_DIM_EXT1_LINETYPE
1070
   381
1005
16
1001
ACAD_DSTYLE_DIM_EXT2_LINETYPE
1070
   382
1005
16
0
DIMENSION
5
13A
100
AcDbEntity
8
2
62
256
6
ByLayer
370
18
48
1
60
0
100
AcDbDimension
2
_U3
10
6
20
-34.657159
30
0
11
12
21
-34.657159
31
0
70
32
71
1
72
1
41
1
210
0
220
0
230
1
3
Standard
100
AcDbAlignedDimension
13
18
23
0
33
0
14
6
24
-0.591
34
0
50
0
100
AcDbRotatedDimension
1001
ACAD
1000
DSTYLE
1002
{
1070
   371
1070
    13
1070
   372
1070
    13
1070
     3
1000

1070
   170
1070
     0
1070
   144
1040
1.0
1070
   277
1070
     2
1070
   284
1070
     8
1070
   278
1070
    46
1070
   146
1040
1.166667
1070
   345
1005
16
1070
   347
1005
16
1070
   346
1005
16
1070
   344
1005
0
1070
   343
1005
0
1070
   172
1070
     1
1070
    76
1070
     0
1070
    75
1070
     0
1070
   282
1070
     0
1070
   281
1070
     0
1070
    71
1070
     0
1070
    74
1070
     0
1070
   279
1070
     0
1070
   173
1070
     1
1070
   340
1005
D0
1070
   271
1070
     2
1070
   272
1070
     3
1070
    77
1070
     1
1070
    73
1070
     1
1070
   171
1070
     3
1070
   274
1070
     4
1070
   177
1070
     2
1070
   176
1070
     2
1070
   178
1070
     2
1070
    78
1070
     8
1070
    48
1040
-0.1
1070
    41
1040
3.5
1070
   147
1040
1.5
1070
    42
1040
1.5875
1070
    44
1040
2.0
1070
   140
1040
3.0
1002
}
1001
ACAD_DSTYLE_DIM_LINETYPE
1070
   380
1005
16
1001
ACAD_DSTYLE_DIM_EXT1_LINETYPE
1070
   381
1005
16
1001
ACAD_DSTYLE_DIM_EXT2_LINETYPE
1070
   382
1005
16
0
ENDSEC
0
SECTION
2
OBJECTS
0
DICTIONARY
5
1c5
330
0
100
AcDbDictionary
280
0
281
1
3
ACAD_GROUP
350
1c6
3
ACAD_MLINESTYLE
350
1c7
0
DICTIONARY
5
1c6
330
0
100
AcDbDictionary
280
0
281
1
0
DICTIONARY
5
1c7
330
0
100
AcDbDictionary
280
0
281
1
3
Standard
350
18
0
MLINESTYLE
5
18
330
1c7
100
AcDbMlineStyle
2
Standard
70
0
3

62
256
51
90
52
90
71
2
49
-0.5
62
256
6
ByLayer
49
0.5
62
256
6
ByLayer
0
RASTERVARIABLES
5
1b1
330

100
AcDbRasterVariables
90
0
70
1
71
1
72
1
0
ENDSEC
0
EOF
