0
SECTION
2
HEADER
9
$ACADVER
1
AC1015
9
$DWGCODEPAGE
3
ANSI_1252
9
$HANDSEED
5
1ce
9
$ANGBASE
50
0
9
$ANGDIR
70
0
9
$ATTMODE
70
1
9
$AUNITS
70
0
9
$AUPREC
70
0
9
$CECOLOR
62
256
9
$CELTSCALE
40
1
9
$CELTYPE
6
ByLayer
9
$CELWEIGHT
370
18
9
$CLAYER
8
0
9
$CMLJUST
70
0
9
$CMLSCALE
40
1
9
$CMLSTYLE
2
Standard
9
$DIMSTYLE
2
Standard
9
$TEXTSIZE
40
0.2
9
$TEXTSTYLE
7
Standard
9
$LUNITS
70
2
9
$LUPREC
70
4
9
$EXTNAMES
290
1
9
$INSUNITS
70
4
9
$LTSCALE
40
1
9
$LWDISPLAY
290
1
9
$PDMODE
70
0
9
$PDSIZE
40
0
9
$PLINEGEN
70
0
0
ENDSEC
0
SECTION
2
CLASSES
0
CLASS
1
RASTERVARIABLES
2
AcDbRasterVariables
3
ISM
90
0
280
0
281
0
0
ENDSEC
0
SECTION
2
TABLES
0
TABLE
2
VPORT
5
1c4
100
AcDbSymbolTable
0
VPORT
5
1
100
AcDbSymbolTableRecord
100
AcDbViewportTableRecord
2
*Active
70
0
10
0
20
0
11
1
21
1
12
-1
22
1
13
0
23
0
14
0.5
24
0.5
15
10
25
10
16
0
26
0
36
1
17
0
27
0
37
0
0
ENDTAB
0
TABLE
2
LTYPE
5
1c5
100
AcDbSymbolTable
0
LTYPE
5
14
100
AcDbSymbolTableRecord
100
AcDbLinetypeTableRecord
70
0
2
ByBlock
3

72
65
73
0
40
0
0
LTYPE
5
15
100
AcDbSymbolTableRecord
100
AcDbLinetypeTableRecord
70
0
2
ByLayer
3

72
65
73
0
40
0
0
LTYPE
5
16
100
AcDbSymbolTableRecord
100
AcDbLinetypeTableRecord
70
0
2
Continuous
3
Solid line
72
65
73
0
40
0
0
LTYPE
5
6E
100
AcDbSymbolTableRecord
100
AcDbLinetypeTableRecord
70
0
2
CENTER
3
____ _ ____ _ ____ _ ____
72
65
73
4
40
47.5
49
22
74
0
49
-8.5
74
0
49
8.5
74
0
49
-8.5
74
0
0
LTYPE
5
6F
100
AcDbSymbolTableRecord
100
AcDbLinetypeTableRecord
70
0
2
DASHED
3
__ __ __ __ __ __ __ __ __
72
65
73
2
40
25.72
49
12.86
74
0
49
-12.86
74
0
0
ENDTAB
0
TABLE
2
LAYER
5
1c6
100
AcDbSymbolTable
0
LAYER
5
10
100
AcDbSymbolTableRecord
100
AcDbLayerTableRecord
2
0
70
0
62
7
6
Continuous
290
1
370
-3
390
0
0
LAYER
5
71
100
AcDbSymbolTableRecord
100
AcDbLayerTableRecord
2
81
70
0
62
-3
6
Continuous
290
1
370
-3
390
0
0
LAYER
5
73
100
AcDbSymbolTableRecord
100
AcDbLayerTableRecord
2
80
70
0
62
-6
6
Continuous
290
1
370
-3
390
0
0
LAYER
5
75
100
AcDbSymbolTableRecord
100
AcDbLayerTableRecord
2
1
70
0
62
4
6
Continuous
290
1
370
-3
390
0
0
LAYER
5
7F
100
AcDbSymbolTableRecord
100
AcDbLayerTableRecord
2
4
70
0
62
-2
6
CENTER
290
1
370
-3
390
0
0
LAYER
5
A8
100
AcDbSymbolTableRecord
100
AcDbLayerTableRecord
2
2
70
0
62
7
6
Continuous
290
1
370
-3
390
0
0
LAYER
5
F1
100
AcDbSymbolTableRecord
100
AcDbLayerTableRecord
2
Defpoints
70
0
62
7
6
Continuous
290
0
370
-3
390
0
0
LAYER
5
1ae
100
AcDbSymbolTableRecord
100
AcDbLayerTableRecord
2
SK4
70
0
62
2
6
CENTER
290
1
370
-3
390
0
0
LAYER
5
1af
100
AcDbSymbolTableRecord
100
AcDbLayerTableRecord
2
SK1
70
0
62
4
6
Continuous
290
1
370
-3
390
0
0
LAYER
5
1b0
100
AcDbSymbolTableRecord
100
AcDbLayerTableRecord
2
SK2
70
0
62
7
6
Continuous
290
1
370
-3
390
0
0
LAYER
5
1b1
100
AcDbSymbolTableRecord
100
AcDbLayerTableRecord
2
CUT
70
0
62
-1
6
Continuous
290
1
370
-3
390
0
0
LAYER
5
1b2
100
AcDbSymbolTableRecord
100
AcDbLayerTableRecord
2
NOCUT
70
0
62
-7
6
Continuous
290
1
370
-3
390
0
0
LAYER
5
1b3
100
AcDbSymbolTableRecord
100
AcDbLayerTableRecord
2
SK6
70
0
62
5
6
Continuous
290
1
370
-3
390
0
0
ENDTAB
0
TABLE
2
STYLE
5
1c7
100
AcDbSymbolTable
0
STYLE
5
11
100
AcDbSymbolTableRecord
100
AcDbTextStyleTableRecord
2
Standard
3
txt
70
0
71
0
40
0
41
1
42
0
50
0
0
STYLE
5
CD
100
AcDbSymbolTableRecord
100
AcDbTextStyleTableRecord
2
iso_b_vert
3
simplex.shx
70
0
71
0
40
0
41
1
42
0
50
0
0
STYLE
5
CE
100
AcDbSymbolTableRecord
100
AcDbTextStyleTableRecord
2
DWGDirectTextStyle
3
simplex
70
0
71
0
40
0
41
1
42
0
50
0
0
ENDTAB
0
TABLE
2
DIMSTYLE
5
1c8
100
AcDbSymbolTable
100
AcDbDimStyleTable
0
DIMSTYLE
105
27
100
AcDbSymbolTableRecord
100
AcDbDimStyleTableRecord
2
Standard
70
0
3
<>
41
0.18
42
0.0625
44
0.18
140
0.18
147
0.09
73
0
74
0
77
1
271
2
275
0
278
52
280
0
340
11
0
ENDTAB
0
TABLE
2
VIEW
5
1c9
100
AcDbSymbolTable
0
ENDTAB
0
TABLE
2
UCS
5
1ca
100
AcDbSymbolTable
0
ENDTAB
0
TABLE
2
APPID
5
1cb
100
AcDbSymbolTable
0
APPID
5
12
100
AcDbSymbolTableRecord
100
AcDbRegAppTableRecord
2
ACAD
70
0
0
APPID
5
ED
100
AcDbSymbolTableRecord
100
AcDbRegAppTableRecord
2
ACAD_DSTYLE_DIMBREAK
70
0
0
APPID
5
16D
100
AcDbSymbolTableRecord
100
AcDbRegAppTableRecord
2
ACAD_DSTYLE_DIM_LINETYPE
70
0
0
APPID
5
16E
100
AcDbSymbolTableRecord
100
AcDbRegAppTableRecord
2
ACAD_DSTYLE_DIM_EXT1_LINETYPE
70
0
0
APPID
5
16F
100
AcDbSymbolTableRecord
100
AcDbRegAppTableRecord
2
ACAD_DSTYLE_DIM_EXT2_LINETYPE
70
0
0
APPID
5
1AA
100
AcDbSymbolTableRecord
100
AcDbRegAppTableRecord
2
ACAD_MLEADERVER
70
0
0
ENDTAB
0
TABLE
2
BLOCK_RECORD
5
1cc
100
AcDbSymbolTable
0
BLOCK_RECORD
5
1F
100
AcDbSymbolTableRecord
100
AcDbBlockTableRecord
2
*Model_Space
340
0
70
0
0
BLOCK_RECORD
5
1B
100
AcDbSymbolTableRecord
100
AcDbBlockTableRecord
2
*Paper_Space
340
0
70
0
0
BLOCK_RECORD
5
23
100
AcDbSymbolTableRecord
100
AcDbBlockTableRecord
2
*Paper_Space0
340
0
70
0
0
BLOCK_RECORD
5
F2
100
AcDbSymbolTableRecord
100
AcDbBlockTableRecord
2
*D1
340
0
70
0
0
BLOCK_RECORD
5
FE
100
AcDbSymbolTableRecord
100
AcDbBlockTableRecord
2
_U0
340
0
70
0
0
BLOCK_RECORD
5
10A
100
AcDbSymbolTableRecord
100
AcDbBlockTableRecord
2
*D3
340
0
70
0
0
BLOCK_RECORD
5
116
100
AcDbSymbolTableRecord
100
AcDbBlockTableRecord
2
_U1
340
0
70
0
0
BLOCK_RECORD
5
122
100
AcDbSymbolTableRecord
100
AcDbBlockTableRecord
2
*D5
340
0
70
0
0
BLOCK_RECORD
5
12E
100
AcDbSymbolTableRecord
100
AcDbBlockTableRecord
2
_U2
340
0
70
0
0
BLOCK_RECORD
5
13A
100
AcDbSymbolTableRecord
100
AcDbBlockTableRecord
2
*D7
340
0
70
0
0
BLOCK_RECORD
5
146
100
AcDbSymbolTableRecord
100
AcDbBlockTableRecord
2
_U3
340
0
70
0
0
ENDTAB
0
ENDSEC
0
SECTION
2
BLOCKS
0
BLOCK
5
20
100
AcDbEntity
8
0
100
AcDbBlockBegin
2
*Model_Space
70
0
10
0
20
0
30
0
3
*Model_Space
0
ENDBLK
5
21
100
AcDbEntity
8
0
100
AcDbBlockEnd
0
BLOCK
5
1C
100
AcDbEntity
8
0
100
AcDbBlockBegin
2
*Paper_Space
70
0
10
0
20
0
30
0
3
*Paper_Space
0
ENDBLK
5
1D
100
AcDbEntity
8
0
100
AcDbBlockEnd
0
BLOCK
5
24
100
AcDbEntity
8
0
100
AcDbBlockBegin
2
*Paper_Space0
70
0
10
0
20
0
30
0
3
*Paper_Space0
0
ENDBLK
5
25
100
AcDbEntity
8
0
100
AcDbBlockEnd
0
BLOCK
5
F3
100
AcDbEntity
8
0
100
AcDbBlockBegin
2
*D1
70
1
10
0
20
0
30
0
3
*D1
0
LINE
5
F5
100
AcDbEntity
8
0
62
256
6
ByLayer
370
-2
48
1
60
0
100
AcDbLine
10
-25
20
-2.7875
30
0
11
-25
21
-49.239737
31
0
39
0
210
0
220
0
230
1
0
LINE
5
F6
100
AcDbEntity
8
0
62
256
6
ByLayer
370
-2
48
1
60
0
100
AcDbLine
10
32
20
-1.5875
30
0
11
32
21
-49.239737
31
0
39
0
210
0
220
0
230
1
0
LINE
5
F7
100
AcDbEntity
8
0
62
256
6
ByLayer
370
-2
48
1
60
0
100
AcDbLine
10
-21.5
20
-47.239737
30
0
11
28.5
21
-47.239737
31
0
39
0
210
0
220
0
230
1
0
SOLID
5
F8
100
AcDbEntity
8
0
62
256
6
ByLayer
370
-1
48
1
60
0
100
AcDbTrace
10
-21.5
20
-46.656404
30
0
11
-21.5
21
-47.823071
31
0
12
-25
22
-47.239737
32
0
13
-25
23
-47.239737
33
0
39
0
210
0
220
0
230
1
0
SOLID
5
F9
100
AcDbEntity
8
0
62
256
6
ByLayer
370
-1
48
1
60
0
100
AcDbTrace
10
28.5
20
-47.823071
30
0
11
28.5
21
-46.656404
31
0
12
32
22
-47.239737
32
0
13
32
23
-47.239737
33
0
39
0
210
0
220
0
230
1
0
MTEXT
5
FA
100
AcDbEntity
8
0
62
256
6
ByLayer
370
18
48
1
60
0
100
AcDbMText
10
3.5
20
-41.239737
30
0
210
0
220
0
230
1
1
\A1;57
40
3
41
0
44
1
50
0
71
5
72
5
7
iso_b_vert
0
POINT
5
FB
100
AcDbEntity
8
Defpoints
62
0
6
ByLayer
370
-1
48
1
60
0
100
AcDbPoint
10
-25
20
-1.2
30
0
39
0
210
0
220
0
230
1
50
360
0
POINT
5
FC
100
AcDbEntity
8
Defpoints
62
0
6
ByLayer
370
-1
48
1
60
0
100
AcDbPoint
10
32
20
0
30
0
39
0
210
0
220
0
230
1
50
360
0
POINT
5
FD
100
AcDbEntity
8
Defpoints
62
0
6
ByLayer
370
-1
48
1
60
0
100
AcDbPoint
10
32
20
-47.239737
30
0
39
0
210
0
220
0
230
1
50
360
0
ENDBLK
5
F4
100
AcDbEntity
8
0
100
AcDbBlockEnd
0
BLOCK
5
105
100
AcDbEntity
8
0
100
AcDbBlockBegin
2
_U0
70
0
10
0
20
0
30
0
3
_U0
0
MTEXT
5
FF
100
AcDbEntity
8
SK2
62
256
6
ByLayer
370
18
48
1
60
0
100
AcDbMText
10
-0.98237
20
-46.354623
30
0
210
0
220
0
230
1
1
\W0.7468;57.00
40
3
41
0
44
1.084337
50
0
71
7
72
5
7
iso_b_vert
0
LINE
5
100
100
AcDbEntity
8
SK2
62
256
6
ByLayer
370
13
48
1
60
0
100
AcDbLine
10
-25
20
-2.7875
30
0
11
-25
21
-49.239737
31
0
39
0
210
0
220
0
230
1
0
LINE
5
101
100
AcDbEntity
8
SK2
62
256
6
ByLayer
370
13
48
1
60
0
100
AcDbLine
10
32
20
-1.5875
30
0
11
32
21
-49.239737
31
0
39
0
210
0
220
0
230
1
0
LINE
5
102
100
AcDbEntity
8
SK2
62
256
6
ByLayer
370
13
48
1
60
0
100
AcDbLine
10
-25
20
-47.239737
30
0
11
32
21
-47.239737
31
0
39
0
210
0
220
0
230
1
0
SOLID
5
103
100
AcDbEntity
8
SK2
62
256
6
ByLayer
370
18
48
1
60
0
100
AcDbTrace
10
-25
20
-47.239737
30
0
11
-21.500002
21
-46.778954
31
0
12
-21.499998
22
-47.700521
32
0
13
-21.499998
23
-47.700521
33
0
39
0
210
0
220
0
230
1
0
SOLID
5
104
100
AcDbEntity
8
SK2
62
256
6
ByLayer
370
18
48
1
60
0
100
AcDbTrace
10
32
20
-47.239737
30
0
11
28.500002
21
-47.700521
31
0
12
28.499998
22
-46.778954
32
0
13
28.499998
23
-46.778954
33
0
39
0
210
0
220
0
230
1
0
ENDBLK
5
106
100
AcDbEntity
8
0
100
AcDbBlockEnd
0
BLOCK
5
10B
100
AcDbEntity
8
0
100
AcDbBlockBegin
2
*D3
70
1
10
0
20
0
30
0
3
*D3
0
LINE
5
10D
100
AcDbEntity
8
0
62
256
6
ByLayer
370
-2
48
1
60
0
100
AcDbLine
10
32
20
-1.5875
30
0
11
32
21
-39.239737
31
0
39
0
210
0
220
0
230
1
0
LINE
5
10E
100
AcDbEntity
8
0
62
256
6
ByLayer
370
-2
48
1
60
0
100
AcDbLine
10
2
20
-2.7875
30
0
11
2
21
-39.239737
31
0
39
0
210
0
220
0
230
1
0
LINE
5
10F
100
AcDbEntity
8
0
62
256
6
ByLayer
370
-2
48
1
60
0
100
AcDbLine
10
28.5
20
-37.239737
30
0
11
5.5
21
-37.239737
31
0
39
0
210
0
220
0
230
1
0
SOLID
5
110
100
AcDbEntity
8
0
62
256
6
ByLayer
370
-1
48
1
60
0
100
AcDbTrace
10
28.5
20
-37.823071
30
0
11
28.5
21
-36.656404
31
0
12
32
22
-37.239737
32
0
13
32
23
-37.239737
33
0
39
0
210
0
220
0
230
1
0
SOLID
5
111
100
AcDbEntity
8
0
62
256
6
ByLayer
370
-1
48
1
60
0
100
AcDbTrace
10
5.5
20
-36.656404
30
0
11
5.5
21
-37.823071
31
0
12
2
22
-37.239737
32
0
13
2
23
-37.239737
33
0
39
0
210
0
220
0
230
1
0
MTEXT
5
112
100
AcDbEntity
8
0
62
256
6
ByLayer
370
18
48
1
60
0
100
AcDbMText
10
17
20
-31.239737
30
0
210
0
220
0
230
1
1
\A1;30
40
3
41
0
44
1
50
0
71
5
72
5
7
iso_b_vert
0
POINT
5
113
100
AcDbEntity
8
Defpoints
62
0
6
ByLayer
370
-1
48
1
60
0
100
AcDbPoint
10
32
20
0
30
0
39
0
210
0
220
0
230
1
50
360
0
POINT
5
114
100
AcDbEntity
8
Defpoints
62
0
6
ByLayer
370
-1
48
1
60
0
100
AcDbPoint
10
2
20
-1.2
30
0
39
0
210
0
220
0
230
1
50
360
0
POINT
5
115
100
AcDbEntity
8
Defpoints
62
0
6
ByLayer
370
-1
48
1
60
0
100
AcDbPoint
10
2
20
-37.239737
30
0
39
0
210
0
220
0
230
1
50
360
0
ENDBLK
5
10C
100
AcDbEntity
8
0
100
AcDbBlockEnd
0
BLOCK
5
11D
100
AcDbEntity
8
0
100
AcDbBlockBegin
2
_U1
70
0
10
0
20
0
30
0
3
_U1
0
MTEXT
5
117
100
AcDbEntity
8
2
62
256
6
ByLayer
370
18
48
1
60
0
100
AcDbMText
10
12.51763
20
-36.354623
30
0
210
0
220
0
230
1
1
\W0.7468;30.00
40
3
41
0
44
1.084337
50
0
71
7
72
5
7
iso_b_vert
0
LINE
5
118
100
AcDbEntity
8
2
62
256
6
ByLayer
370
13
48
1
60
0
100
AcDbLine
10
32
20
-1.5875
30
0
11
32
21
-39.239737
31
0
39
0
210
0
220
0
230
1
0
LINE
5
119
100
AcDbEntity
8
2
62
256
6
ByLayer
370
13
48
1
60
0
100
AcDbLine
10
2
20
-2.7875
30
0
11
2
21
-39.239737
31
0
39
0
210
0
220
0
230
1
0
LINE
5
11A
100
AcDbEntity
8
2
62
256
6
ByLayer
370
13
48
1
60
0
100
AcDbLine
10
32
20
-37.239737
30
0
11
2
21
-37.239737
31
0
39
0
210
0
220
0
230
1
0
SOLID
5
11B
100
AcDbEntity
8
2
62
256
6
ByLayer
370
18
48
1
60
0
100
AcDbTrace
10
32
20
-37.239737
30
0
11
28.500002
21
-37.700521
31
0
12
28.499998
22
-36.778954
32
0
13
28.499998
23
-36.778954
33
0
39
0
210
0
220
0
230
1
0
SOLID
5
11C
100
AcDbEntity
8
2
62
256
6
ByLayer
370
18
48
1
60
0
100
AcDbTrace
10
2
20
-37.239737
30
0
11
5.499998
21
-36.778954
31
0
12
5.500002
22
-37.700521
32
0
13
5.500002
23
-37.700521
33
0
39
0
210
0
220
0
230
1
0
ENDBLK
5
11E
100
AcDbEntity
8
0
100
AcDbBlockEnd
0
BLOCK
5
123
100
AcDbEntity
8
0
100
AcDbBlockBegin
2
*D5
70
1
10
0
20
0
30
0
3
*D5
0
LINE
5
125
100
AcDbEntity
8
0
62
256
6
ByLayer
370
-2
48
1
60
0
100
AcDbLine
10
-25
20
-2.7875
30
0
11
-25
21
-34.239737
31
0
39
0
210
0
220
0
230
1
0
LINE
5
126
100
AcDbEntity
8
0
62
256
6
ByLayer
370
-2
48
1
60
0
100
AcDbLine
10
0
20
-2.7875
30
0
11
0
21
-34.239737
31
0
39
0
210
0
220
0
230
1
0
LINE
5
127
100
AcDbEntity
8
0
62
256
6
ByLayer
370
-2
48
1
60
0
100
AcDbLine
10
-21.5
20
-32.239737
30
0
11
-3.5
21
-32.239737
31
0
39
0
210
0
220
0
230
1
0
SOLID
5
128
100
AcDbEntity
8
0
62
256
6
ByLayer
370
-1
48
1
60
0
100
AcDbTrace
10
-21.5
20
-31.656404
30
0
11
-21.5
21
-32.823071
31
0
12
-25
22
-32.239737
32
0
13
-25
23
-32.239737
33
0
39
0
210
0
220
0
230
1
0
SOLID
5
129
100
AcDbEntity
8
0
62
256
6
ByLayer
370
-1
48
1
60
0
100
AcDbTrace
10
-3.5
20
-32.823071
30
0
11
-3.5
21
-31.656404
31
0
12
0
22
-32.239737
32
0
13
0
23
-32.239737
33
0
39
0
210
0
220
0
230
1
0
MTEXT
5
12A
100
AcDbEntity
8
0
62
256
6
ByLayer
370
18
48
1
60
0
100
AcDbMText
10
-12.5
20
-26.239737
30
0
210
0
220
0
230
1
1
\A1;25
40
3
41
0
44
1
50
0
71
5
72
5
7
iso_b_vert
0
POINT
5
12B
100
AcDbEntity
8
Defpoints
62
0
6
ByLayer
370
-1
48
1
60
0
100
AcDbPoint
10
-25
20
-1.2
30
0
39
0
210
0
220
0
230
1
50
360
0
POINT
5
12C
100
AcDbEntity
8
Defpoints
62
0
6
ByLayer
370
-1
48
1
60
0
100
AcDbPoint
10
0
20
-1.2
30
0
39
0
210
0
220
0
230
1
50
360
0
POINT
5
12D
100
AcDbEntity
8
Defpoints
62
0
6
ByLayer
370
-1
48
1
60
0
100
AcDbPoint
10
0
20
-32.239737
30
0
39
0
210
0
220
0
230
1
50
360
0
ENDBLK
5
124
100
AcDbEntity
8
0
100
AcDbBlockEnd
0
BLOCK
5
135
100
AcDbEntity
8
0
100
AcDbBlockBegin
2
_U2
70
0
10
0
20
0
30
0
3
_U2
0
MTEXT
5
12F
100
AcDbEntity
8
SK2
62
256
6
ByLayer
370
18
48
1
60
0
100
AcDbMText
10
-16.98237
20
-31.354623
30
0
210
0
220
0
230
1
1
\W0.7468;25.00
40
3
41
0
44
1.084337
50
0
71
7
72
5
7
iso_b_vert
0
LINE
5
130
100
AcDbEntity
8
SK2
62
256
6
ByLayer
370
13
48
1
60
0
100
AcDbLine
10
-25
20
-2.7875
30
0
11
-25
21
-34.239737
31
0
39
0
210
0
220
0
230
1
0
LINE
5
131
100
AcDbEntity
8
SK2
62
256
6
ByLayer
370
13
48
1
60
0
100
AcDbLine
10
0
20
-2.7875
30
0
11
0
21
-34.239737
31
0
39
0
210
0
220
0
230
1
0
LINE
5
132
100
AcDbEntity
8
SK2
62
256
6
ByLayer
370
13
48
1
60
0
100
AcDbLine
10
-25
20
-32.239737
30
0
11
0
21
-32.239737
31
0
39
0
210
0
220
0
230
1
0
SOLID
5
133
100
AcDbEntity
8
SK2
62
256
6
ByLayer
370
18
48
1
60
0
100
AcDbTrace
10
-25
20
-32.239737
30
0
11
-21.500002
21
-31.778954
31
0
12
-21.499998
22
-32.700521
32
0
13
-21.499998
23
-32.700521
33
0
39
0
210
0
220
0
230
1
0
SOLID
5
134
100
AcDbEntity
8
SK2
62
256
6
ByLayer
370
18
48
1
60
0
100
AcDbTrace
10
0
20
-32.239737
30
0
11
-3.499998
21
-32.700521
31
0
12
-3.500002
22
-31.778954
32
0
13
-3.500002
23
-31.778954
33
0
39
0
210
0
220
0
230
1
0
ENDBLK
5
136
100
AcDbEntity
8
0
100
AcDbBlockEnd
0
BLOCK
5
13B
100
AcDbEntity
8
0
100
AcDbBlockBegin
2
*D7
70
1
10
0
20
0
30
0
3
*D7
0
LINE
5
13D
100
AcDbEntity
8
0
62
256
6
ByLayer
370
-2
48
1
60
0
100
AcDbLine
10
32
20
-1.5875
30
0
11
32
21
-32.239737
31
0
39
0
210
0
220
0
230
1
0
LINE
5
13E
100
AcDbEntity
8
0
62
256
6
ByLayer
370
-2
48
1
60
0
100
AcDbLine
10
9.5
20
-2.7875
30
0
11
9.5
21
-32.239737
31
0
39
0
210
0
220
0
230
1
0
LINE
5
13F
100
AcDbEntity
8
0
62
256
6
ByLayer
370
-2
48
1
60
0
100
AcDbLine
10
28.5
20
-30.239737
30
0
11
13
21
-30.239737
31
0
39
0
210
0
220
0
230
1
0
SOLID
5
140
100
AcDbEntity
8
0
62
256
6
ByLayer
370
-1
48
1
60
0
100
AcDbTrace
10
28.5
20
-30.823071
30
0
11
28.5
21
-29.656404
31
0
12
32
22
-30.239737
32
0
13
32
23
-30.239737
33
0
39
0
210
0
220
0
230
1
0
SOLID
5
141
100
AcDbEntity
8
0
62
256
6
ByLayer
370
-1
48
1
60
0
100
AcDbTrace
10
13
20
-29.656404
30
0
11
13
21
-30.823071
31
0
12
9.5
22
-30.239737
32
0
13
9.5
23
-30.239737
33
0
39
0
210
0
220
0
230
1
0
MTEXT
5
142
100
AcDbEntity
8
0
62
256
6
ByLayer
370
18
48
1
60
0
100
AcDbMText
10
20.75
20
-24.239737
30
0
210
0
220
0
230
1
1
\A1;22.5
40
3
41
0
44
1
50
0
71
5
72
5
7
iso_b_vert
0
POINT
5
143
100
AcDbEntity
8
Defpoints
62
0
6
ByLayer
370
-1
48
1
60
0
100
AcDbPoint
10
32
20
0
30
0
39
0
210
0
220
0
230
1
50
360
0
POINT
5
144
100
AcDbEntity
8
Defpoints
62
0
6
ByLayer
370
-1
48
1
60
0
100
AcDbPoint
10
9.5
20
-1.2
30
0
39
0
210
0
220
0
230
1
50
360
0
POINT
5
145
100
AcDbEntity
8
Defpoints
62
0
6
ByLayer
370
-1
48
1
60
0
100
AcDbPoint
10
9.5
20
-30.239737
30
0
39
0
210
0
220
0
230
1
50
360
0
ENDBLK
5
13C
100
AcDbEntity
8
0
100
AcDbBlockEnd
0
BLOCK
5
14D
100
AcDbEntity
8
0
100
AcDbBlockBegin
2
_U3
70
0
10
0
20
0
30
0
3
_U3
0
MTEXT
5
147
100
AcDbEntity
8
2
62
256
6
ByLayer
370
18
48
1
60
0
100
AcDbMText
10
16.26763
20
-29.354623
30
0
210
0
220
0
230
1
1
\W0.7468;22.50
40
3
41
0
44
1.084337
50
0
71
7
72
5
7
iso_b_vert
0
LINE
5
148
100
AcDbEntity
8
2
62
256
6
ByLayer
370
13
48
1
60
0
100
AcDbLine
10
32
20
-1.5875
30
0
11
32
21
-32.239737
31
0
39
0
210
0
220
0
230
1
0
LINE
5
149
100
AcDbEntity
8
2
62
256
6
ByLayer
370
13
48
1
60
0
100
AcDbLine
10
9.5
20
-2.7875
30
0
11
9.5
21
-32.239737
31
0
39
0
210
0
220
0
230
1
0
LINE
5
14A
100
AcDbEntity
8
2
62
256
6
ByLayer
370
13
48
1
60
0
100
AcDbLine
10
32
20
-30.239737
30
0
11
9.5
21
-30.239737
31
0
39
0
210
0
220
0
230
1
0
SOLID
5
14B
100
AcDbEntity
8
2
62
256
6
ByLayer
370
18
48
1
60
0
100
AcDbTrace
10
32
20
-30.239737
30
0
11
28.500002
21
-30.700521
31
0
12
28.499998
22
-29.778954
32
0
13
28.499998
23
-29.778954
33
0
39
0
210
0
220
0
230
1
0
SOLID
5
14C
100
AcDbEntity
8
2
62
256
6
ByLayer
370
18
48
1
60
0
100
AcDbTrace
10
9.5
20
-30.239737
30
0
11
12.999998
21
-29.778954
31
0
12
13.000002
22
-30.700521
32
0
13
13.000002
23
-30.700521
33
0
39
0
210
0
220
0
230
1
0
ENDBLK
5
14E
100
AcDbEntity
8
0
100
AcDbBlockEnd
0
ENDSEC
0
SECTION
2
ENTITIES
0
ARC
5
B9
100
AcDbEntity
8
2
62
256
6
ByLayer
370
13
48
1
60
0
100
AcDbCircle
39
0
10
32
20
0
30
0
40
22
210
0
220
0
230
1
100
AcDbArc
50
7.83748
51
61.596605
0
ARC
5
BA
100
AcDbEntity
8
2
62
256
6
ByLayer
370
13
48
1
60
0
100
AcDbCircle
39
0
10
32
20
0
30
0
40
22
210
0
220
0
230
1
100
AcDbArc
50
298.403395
51
352.16252
0
POINT
5
70
100
AcDbEntity
8
81
62
256
6
ByLayer
370
18
48
1
60
0
100
AcDbPoint
10
32
20
0
30
0
39
0
210
0
220
0
230
1
50
360
0
POINT
5
72
100
AcDbEntity
8
80
62
256
6
ByLayer
370
18
48
1
60
0
100
AcDbPoint
10
0
20
0
30
0
39
0
210
0
220
0
230
1
50
360
0
POINT
5
74
100
AcDbEntity
8
1
62
256
6
ByLayer
370
18
48
1
60
1
100
AcDbPoint
10
-25
20
-1.2
30
0
39
0
210
0
220
0
230
1
50
360
0
POINT
5
76
100
AcDbEntity
8
1
62
256
6
ByLayer
370
18
48
1
60
1
100
AcDbPoint
10
32
20
0
30
0
39
0
210
0
220
0
230
1
50
360
0
POINT
5
77
100
AcDbEntity
8
1
62
256
6
ByLayer
370
18
48
1
60
1
100
AcDbPoint
10
32
20
0
30
0
39
0
210
0
220
0
230
1
50
360
0
POINT
5
78
100
AcDbEntity
8
1
62
256
6
ByLayer
370
18
48
1
60
1
100
AcDbPoint
10
2
20
-1.2
30
0
39
0
210
0
220
0
230
1
50
360
0
POINT
5
79
100
AcDbEntity
8
1
62
256
6
ByLayer
370
18
48
1
60
1
100
AcDbPoint
10
-25
20
-1.2
30
0
39
0
210
0
220
0
230
1
50
360
0
POINT
5
7A
100
AcDbEntity
8
1
62
256
6
ByLayer
370
18
48
1
60
1
100
AcDbPoint
10
0
20
-1.2
30
0
39
0
210
0
220
0
230
1
50
360
0
POINT
5
7B
100
AcDbEntity
8
1
62
256
6
ByLayer
370
18
48
1
60
1
100
AcDbPoint
10
32
20
0
30
0
39
0
210
0
220
0
230
1
50
360
0
POINT
5
7C
100
AcDbEntity
8
1
62
256
6
ByLayer
370
18
48
1
60
1
100
AcDbPoint
10
9.5
20
-1.2
30
0
39
0
210
0
220
0
230
1
50
360
0
SPLINE
5
BB
100
AcDbEntity
8
CUT
62
256
6
ByLayer
370
18
48
1
60
0
100
AcDbSpline
70
2053
71
3
72
17
73
13
40
0
40
0
40
0
40
0
40
0.479671492602153
40
0.479671492602153
40
0.479671492602153
40
0.505079283279573
40
0.505079283279573
40
0.505079283279573
40
0.970916454555966
40
0.970916454555966
40
0.970916454555966
40
1
40
1
40
1
40
1
41
1
10
32
20
0
30
0
41
1
10
24.5
20
0
30
0
41
1
10
17
20
0
30
0
41
1
10
9.5
20
0
30
0
41
1
10
9.5
20
0.39726861619971
30
0
41
1
10
9.5
20
0.794537232399421
30
0
41
1
10
9.50000000000003
20
1.19180584859913
30
0
41
1
10
16.7836901771412
20
1.19453723241594
30
0
41
1
10
24.0673803542823
20
1.19726861623278
30
0
41
1
10
31.3510705314234
20
1.20000000004961
30
0
41
1
10
31.5673803542823
20
0.800000000033066
30
0
41
1
10
31.7836901771412
20
0.400000000016547
30
0
41
1
10
32
20
0
30
0
0
SPLINE
5
BD
100
AcDbEntity
8
NOCUT
62
256
6
ByLayer
370
18
48
1
60
0
100
AcDbSpline
70
2053
71
3
72
26
73
22
40
0
40
0
40
0
40
0
40
0.346828495973018
40
0.346828495973018
40
0.346828495973018
40
0.352785859084055
40
0.352785859084055
40
0.352785859084055
40
0.36542333464442
40
0.36542333464442
40
0.36542333464442
40
0.849859897844194
40
0.849859897844194
40
0.849859897844194
40
0.866594805938409
40
0.866594805938409
40
0.866594805938409
40
0.998586226641458
40
0.998586226641458
40
0.998586226641458
40
1
40
1
40
1
40
1
41
1
10
0
20
1.19999999999999
30
0
41
1
10
-8.23333333333332
20
1.19999999999999
30
0
41
1
10
-16.4666666666667
20
1.19999999999999
30
0
41
1
10
-24.7
20
1.19999999999999
30
0
41
1
10
-24.8
20
1.09999999999999
30
0
41
1
10
-24.9
20
1
30
0
41
1
10
-25
20
0.900000000000006
30
0
41
1
10
-25
20
0.599999999999994
30
0
41
1
10
-25
20
0.300000000000011
30
0
41
1
10
-25
20
0
30
0
41
1
10
-13.5000000000001
20
0
30
0
41
1
10
-2.00000000000017
20
0
30
0
41
1
10
9.49999999999989
20
0
30
0
41
1
10
9.5
20
0.39726861619971
30
0
41
1
10
9.5
20
0.794537232399421
30
0
41
1
10
9.5
20
1.19180584859913
30
0
41
1
10
6.3666666666667
20
1.19063084859894
30
0
41
1
10
3.2333333333334
20
1.18945584859878
30
0
41
1
10
0.100000000007555
20
1.18828084859774
30
0
41
1
10
0.0666666666766673
20
1.19218723239789
30
0
41
1
10
0.0333333333383337
20
1.19609361619894
30
0
41
1
10
0
20
1.19999999999999
30
0
0
SPLINE
5
BF
100
AcDbEntity
8
1
62
256
6
ByLayer
370
18
48
1
60
0
100
AcDbSpline
70
4
71
3
72
58
73
54
40
0
40
0
40
0
40
0
40
0.124999999999976
40
0.124999999999976
40
0.249999999999952
40
0.249999999999952
40
0.281249999999947
40
0.281249999999947
40
0.312499999999942
40
0.312499999999942
40
0.374999999999932
40
0.374999999999932
40
0.437499999999922
40
0.437499999999922
40
0.468749999999918
40
0.468749999999918
40
0.476562499999919
40
0.476562499999919
40
0.48437499999992
40
0.48437499999992
40
0.49218749999992
40
0.49218749999992
40
0.499999999999921
40
0.499999999999921
40
0.507812499999921
40
0.507812499999921
40
0.515624999999922
40
0.515624999999922
40
0.523437499999923
40
0.523437499999923
40
0.531249999999923
40
0.531249999999923
40
0.539062499999924
40
0.539062499999924
40
0.546874999999925
40
0.546874999999925
40
0.562499999999926
40
0.562499999999926
40
0.593749999999932
40
0.593749999999932
40
0.624999999999938
40
0.624999999999938
40
0.687499999999946
40
0.687499999999946
40
0.749999999999955
40
0.749999999999955
40
0.812499999999963
40
0.812499999999963
40
0.843749999999969
40
0.843749999999969
40
0.874999999999975
40
0.874999999999975
40
1
40
1
40
1
40
1
41
1
10
31.3510705314234
20
1.16171183651855
30
0
41
1
10
31.4001282288194
20
1.07212544140037
30
0
41
1
10
31.448914929282
20
0.981872442587814
30
0
41
1
10
31.5456761595942
20
0.800259777398253
30
0
41
1
10
31.593706882384
20
0.708900587403377
30
0
41
1
10
31.652371557147
20
0.593974203497481
30
0
41
1
10
31.6640275872679
20
0.570943103108618
30
0
41
1
10
31.6871542775991
20
0.524779921952614
30
0
41
1
10
31.6986266210415
20
0.501646134128777
30
0
41
1
10
31.7328962525177
20
0.43224229487771
30
0
41
1
10
31.7555709641634
20
0.386014707932304
30
0
41
1
10
31.8001009636444
20
0.293412786383811
30
0
41
1
10
31.8220059577039
20
0.247083130559872
30
0
41
1
10
31.8529004107629
20
0.177120798175821
30
0
41
1
10
31.8628572657935
20
0.153710418333986
30
0
41
1
10
31.8744796303486
20
0.124290907509163
30
0
41
1
10
31.8767631808023
20
0.118398983702093
30
0
41
1
10
31.8812128374307
20
0.106576367786857
30
0
41
1
10
31.8833837132561
20
0.100649482502206
30
0
41
1
10
31.8874714685355
20
0.0886508519208746
30
0
41
1
10
31.8893892307021
20
0.0825630490063531
30
0
41
1
10
31.8926256708699
20
0.0700463242963565
30
0
41
1
10
31.8939039530201
20
0.0637357890803685
30
0
41
1
10
31.8955764494834
20
0.0509785626016139
30
0
41
1
10
31.8959625796997
20
0.0444651678555488
30
0
41
1
10
31.8957064442876
20
0.0319768520097057
30
0
41
1
10
31.895082231811
20
0.0259306573266542
30
0
41
1
10
31.8928638460796
20
0.0142489862075479
30
0
41
1
10
31.8913063786937
20
0.0088416526648416
30
0
41
1
10
31.8876134370194
20
-0.0012768765489284
30
0
41
1
10
31.8854793452891
20
-0.0060301670498859
30
0
41
1
10
31.8809903756872
20
-0.0152803995597992
30
0
41
1
10
31.8786412665445
20
-0.019778691494821
30
0
41
1
10
31.8738347696172
20
-0.0287085037795691
30
0
41
1
10
31.8713725116154
20
-0.0331290527265935
30
0
41
1
10
31.8638485917893
20
-0.0462931217699349
30
0
41
1
10
31.8586475635531
20
-0.0549304621002307
30
0
41
1
10
31.842643089875
20
-0.0804209431984759
30
0
41
1
10
31.8314355823536
20
-0.0968608754722027
30
0
41
1
10
31.8085054684802
20
-0.128634022784326
30
0
41
1
10
31.796823392661
20
-0.143918488951726
30
0
41
1
10
31.7614658485446
20
-0.188196480545429
30
0
41
1
10
31.7374921054858
20
-0.215609420086338
30
0
41
1
10
31.6893264048025
20
-0.266621348362236
30
0
41
1
10
31.6651138240251
20
-0.290210474994524
30
0
41
1
10
31.6165400762998
20
-0.33364590894584
30
0
41
1
10
31.5921741547087
20
-0.353490142258778
30
0
41
1
10
31.5554835939758
20
-0.380419497298163
30
0
41
1
10
31.5432521467918
20
-0.388903624679642
30
0
41
1
10
31.5189187014197
20
-0.404804236026848
30
0
41
1
10
31.5067958261418
20
-0.412236198409374
30
0
41
1
10
31.446369405135
20
-0.446849012322133
30
0
41
1
10
31.3986306598942
20
-0.466440472170604
30
0
41
1
10
31.3510705314234
20
-0.478098965909112
30
0
0
SPLINE
5
C0
100
AcDbEntity
8
1
62
256
6
ByLayer
370
18
48
1
60
0
100
AcDbSpline
70
4
71
5
72
97
73
91
40
0
40
0
40
0
40
0
40
0
40
0
40
0.0150685795545432
40
0.0536218586161339
40
0.0913106928060301
40
0.128180422891674
40
0.166560139797283
40
0.205706019148283
40
0.244082107526914
40
0.279734495892358
40
0.31682952410415
40
0.355963031366214
40
0.39294137756031
40
0.426900730285112
40
0.452800373108442
40
0.458821566589667
40
0.461505932902225
40
0.464190299214782
40
0.465439415145798
40
0.466215381102945
40
0.468240462991108
40
0.469982849926869
40
0.47172523686263
40
0.472877348752403
40
0.473305698044755
40
0.474886159226879
40
0.478907543566532
40
0.479120299321036
40
0.480459409069974
40
0.481754484451261
40
0.483049559832547
40
0.484320293817225
40
0.484382584698826
40
0.485715609565106
40
0.487114766053506
40
0.488513922541907
40
0.490039968841618
40
0.491378605946628
40
0.494211952010341
40
0.495826735378512
40
0.501399445227399
40
0.502367935592727
40
0.505175254035692
40
0.507168930193835
40
0.508019565354642
40
0.509440705836892
40
0.510861846319141
40
0.512383858986725
40
0.513144865320516
40
0.513166201946698
40
0.513905871654308
40
0.515019965765243
40
0.515577012820711
40
0.516134059876179
40
0.51836224809805
40
0.522854224073764
40
0.525100212061621
40
0.525666956694071
40
0.52622320605555
40
0.527346200049478
40
0.529421574704487
40
0.531496949359495
40
0.533572324014503
40
0.535647698669512
40
0.539798447979529
40
0.543949197289546
40
0.555063678481263
40
0.563269697305055
40
0.602871652845726
40
0.629134765647848
40
0.652735921245586
40
0.675601141975312
40
0.697882530782796
40
0.719775242499431
40
0.741487664634819
40
0.763111062040856
40
0.784653309769392
40
0.806087463909149
40
0.827157445645378
40
0.847575622356583
40
0.867907954986103
40
0.888300095283324
40
0.908641267369157
40
0.928914046853495
40
0.94911262260792
40
0.969231293062669
40
0.989263204677468
40
1
40
1
40
1
40
1
40
1
40
1
41
1
10
4.98168757111782
20
-0.84984810468444
30
0
41
1
10
4.98168757111779
20
-0.845138222094505
30
0
41
1
10
4.98168757111779
20
-0.828348350036663
30
0
41
1
10
4.98168757111779
20
-0.799578002167436
30
0
41
1
10
4.98168757111782
20
-0.758763709935948
30
0
41
1
10
4.98168757111782
20
-0.704959991464733
30
0
41
1
10
4.98168757111779
20
-0.642309428197649
30
0
41
1
10
4.98168757111782
20
-0.578797218366503
30
0
41
1
10
4.98168757111776
20
-0.515041283860512
30
0
41
1
10
4.98168757111785
20
-0.450311178184819
30
0
41
1
10
4.98168757111779
20
-0.384406281900055
30
0
41
1
10
4.98168757111785
20
-0.318418731102298
30
0
41
1
10
4.98168757111779
20
-0.253238624383045
30
0
41
1
10
4.98168757111779
20
-0.190801707703514
30
0
41
1
10
4.98168757111785
20
-0.139046121554912
30
0
41
1
10
4.98168757111782
20
-0.100260231592813
30
0
41
1
10
4.98168757111782
20
-0.0740118086347934
30
0
41
1
10
4.98168757111782
20
-0.0597971660294547
30
0
41
1
10
4.98168757111782
20
-0.0548433560784929
30
0
41
1
10
4.98168757111782
20
-0.0513618229146005
30
0
41
1
10
4.98168757111782
20
-0.0482245921318452
30
0
41
1
10
4.98168757111782
20
-0.0454319961453109
30
0
41
1
10
4.98168757111782
20
-0.0426694464962623
30
0
41
1
10
4.98168757111782
20
-0.0400272504167845
30
0
41
1
10
4.98168757111782
20
-0.037542348414803
30
0
41
1
10
4.98168757111782
20
-0.0341921493820792
30
0
41
1
10
4.98168757111782
20
-0.0313973273571548
30
0
41
1
10
4.98168757111782
20
-0.0285103101567472
30
0
41
1
10
4.98168757111782
20
-0.0252594024005077
30
0
41
1
10
4.98168757111782
20
-0.0220824900164303
30
0
41
1
10
4.98168757111782
20
-0.0199608872213446
30
0
41
1
10
4.98168757111782
20
-0.0178788211786127
30
0
41
1
10
4.98168757111782
20
-0.0157842910202532
30
0
41
1
10
4.98168757111782
20
-0.0136330455947871
30
0
41
1
10
4.98168757111782
20
-0.0114242735851633
30
0
41
1
10
4.98168757111782
20
-0.0090956706987697
30
0
41
1
10
4.98168757111782
20
-0.0062212900490124
30
0
41
1
10
4.98168757111782
20
-0.0027005709017089
30
0
41
1
10
4.98168757111782
20
0.0009451504901961
30
0
41
1
10
4.98168757111782
20
0.006385488912656
30
0
41
1
10
4.98168757111782
20
0.0116507075509844
30
0
41
1
10
4.98168757111779
20
0.0175851366784912
30
0
41
1
10
4.98168757111776
20
0.0231783442041831
30
0
41
1
10
4.98168757111773
20
0.0284399172474252
30
0
41
1
10
4.9816875711177
20
0.0319045812677814
30
0
41
1
10
4.98168757111767
20
0.0355535553313473
30
0
41
1
10
4.98168757111765
20
0.0386408080444482
30
0
41
1
10
4.98168757111762
20
0.0411914925804524
30
0
41
1
10
4.98168757111762
20
0.0433795866439084
30
0
41
1
10
4.98168757111759
20
0.0452718926847808
30
0
41
1
10
4.98168757111759
20
0.0470292245109931
30
0
41
1
10
4.98168757111756
20
0.04837540843792
30
0
41
1
10
4.98168757111756
20
0.0496326376631373
30
0
41
1
10
4.98168757111756
20
0.0518115300527313
30
0
41
1
10
4.98168757111753
20
0.0555468624679349
30
0
41
1
10
4.98168757111756
20
0.0597212647343497
30
0
41
1
10
4.98168757111762
20
0.0638637334340046
30
0
41
1
10
4.98168757111765
20
0.0679779609210698
30
0
41
1
10
4.98168757111767
20
0.0716256039028167
30
0
41
1
10
4.9816875711177
20
0.0742864698948154
30
0
41
1
10
4.98168757111773
20
0.0768735204628683
30
0
41
1
10
4.98168757111776
20
0.0800644295190125
30
0
41
1
10
4.98168757111779
20
0.0838617981321192
30
0
41
1
10
4.98168757111782
20
0.0888730199150984
30
0
41
1
10
4.98168757111782
20
0.0947141908370384
30
0
41
1
10
4.98168757111785
20
0.104185991823272
30
0
41
1
10
4.98168757111785
20
0.116123236726793
30
0
41
1
10
4.98168757111782
20
0.143156970188699
30
0
41
1
10
4.98168757111779
20
0.179116951065993
30
0
41
1
10
4.98168757111782
20
0.222905517148462
30
0
41
1
10
4.98168757111782
20
0.271416359725663
30
0
41
1
10
4.98168757111785
20
0.325583002912993
30
0
41
1
10
4.98168757111779
20
0.372626983534815
30
0
41
1
10
4.98168757111782
20
0.417845071506974
30
0
41
1
10
4.98168757111779
20
0.462322741384639
30
0
41
1
10
4.98168757111785
20
0.505741223309116
30
0
41
1
10
4.98168757111779
20
0.54813677464378
30
0
41
1
10
4.98168757111782
20
0.589586311049203
30
0
41
1
10
4.98168757111779
20
0.629908407846585
30
0
41
1
10
4.98168757111782
20
0.669125626907771
30
0
41
1
10
4.98168757111779
20
0.707315125151808
30
0
41
1
10
4.98168757111782
20
0.744188812534986
30
0
41
1
10
4.98168757111782
20
0.779750351971217
30
0
41
1
10
4.98168757111782
20
0.814251638310736
30
0
41
1
10
4.98168757111782
20
0.847685627918821
30
0
41
1
10
4.98168757111782
20
0.88000820737463
30
0
41
1
10
4.98168757111779
20
0.908342862832626
30
0
41
1
10
4.98168757111782
20
0.929754296979809
30
0
41
1
10
4.98168757111782
20
0.944749711564526
30
0
41
1
10
4.98168757111782
20
0.953694762229901
30
0
41
1
10
4.98168757111779
20
0.956801269487556
30
0
0
SPLINE
5
C1
100
AcDbEntity
8
1
62
256
6
ByLayer
370
18
48
1
60
0
100
AcDbSpline
70
4
71
3
72
60
73
56
40
0
40
0
40
0
40
0
40
0.047966228918153
40
0.047966228918153
40
0.0719493433772276
40
0.0719493433772276
40
0.0959324578363022
40
0.0959324578363022
40
0.191864915672597
40
0.191864915672597
40
0.239831144590744
40
0.239831144590744
40
0.287797373508892
40
0.287797373508892
40
0.311780487967965
40
0.311780487967965
40
0.335763602427039
40
0.335763602427039
40
0.359746716886113
40
0.359746716886113
40
0.383729831345186
40
0.383729831345186
40
0.431696060263334
40
0.431696060263334
40
0.479662289181481
40
0.479662289181481
40
0.503645403640555
40
0.503645403640555
40
0.527628518099628
40
0.527628518099628
40
0.575594747017779
40
0.575594747017779
40
0.623560975935931
40
0.623560975935931
40
0.671527204854082
40
0.671527204854082
40
0.695510319313157
40
0.695510319313157
40
0.719493433772233
40
0.719493433772233
40
0.743476548231308
40
0.743476548231308
40
0.767459662690384
40
0.767459662690384
40
0.815425891608539
40
0.815425891608539
40
0.863392120526693
40
0.863392120526693
40
0.911358349444848
40
0.911358349444848
40
0.935341463903927
40
0.935341463903927
40
0.959324578363007
40
0.959324578363007
40
1
40
1
40
1
40
1
41
1
10
31.3510705314241
20
-0.478098965909453
30
0
41
1
10
31.2817000100164
20
-0.443096461343657
30
0
41
1
10
31.2125559801478
20
-0.407575555595031
30
0
41
1
10
31.10928576021
20
-0.353326786828404
30
0
41
1
10
31.0749375427389
20
-0.33508093102111
30
0
41
1
10
31.0064112987696
20
-0.298226696354959
30
0
41
1
10
30.9722404446737
20
-0.279605198194474
30
0
41
1
10
30.8016119052316
20
-0.185952299741672
30
0
41
1
10
30.6650492082287
20
-0.110712812848732
30
0
41
1
10
30.4599140493773
20
0.0022185443337435
30
0
41
1
10
30.3914537524299
20
0.0398132740945414
30
0
41
1
10
30.2544358216298
20
0.115027788861482
30
0
41
1
10
30.1858960601493
20
0.15268051368966
30
0
41
1
10
30.0831330290119
20
0.209407772782271
30
0
41
1
10
30.0488935719556
20
0.228371729690707
30
0
41
1
10
29.9802707160565
20
0.266086641896294
30
0
41
1
10
29.9458650913355
20
0.2847959506785
30
0
41
1
10
29.8768743724422
20
0.32193428484959
30
0
41
1
10
29.842253040519
20
0.340389218880972
30
0
41
1
10
29.7730416421676
20
0.376948943810248
30
0
41
1
10
29.7384871549152
20
0.395031320280111
30
0
41
1
10
29.6349561642177
20
0.448662664603489
30
0
41
1
10
29.5660979657427
20
0.483571710473114
30
0
41
1
10
29.4286491087977
20
0.551658730619579
30
0
41
1
10
29.3600710977775
20
0.584861954331132
30
0
41
1
10
29.2575501304065
20
0.633593788660363
30
0
41
1
10
29.2234385361179
20
0.649664504646182
30
0
41
1
10
29.1553187480199
20
0.681415189671782
30
0
41
1
10
29.1213117533034
20
0.697095286098147
30
0
41
1
10
29.0191268542791
20
0.743066485520529
30
0
41
1
10
28.9508525357166
20
0.77239999074655
30
0
41
1
10
28.8141055755183
20
0.828643224048335
30
0
41
1
10
28.7456186403334
20
0.855529204886267
30
0
41
1
10
28.6082948485255
20
0.906676974491489
30
0
41
1
10
28.5394562855395
20
0.930941374122426
30
0
41
1
10
28.4360302108352
20
0.965454302268228
30
0
41
1
10
28.4015279453755
20
0.976645063604991
30
0
41
1
10
28.3324860979795
20
0.998400725208938
30
0
41
1
10
28.2979090536159
20
1.00898425715761
30
0
41
1
10
28.2289710393009
20
1.02935860186375
30
0
41
1
10
28.1945655819229
20
1.0391250755959
30
0
41
1
10
28.1257584207297
20
1.05772099139071
30
0
41
1
10
28.0913734320186
20
1.06656821613342
30
0
41
1
10
27.9883016361985
20
1.0918155826437
30
0
41
1
10
27.919704541347
20
1.10692564916314
30
0
41
1
10
27.7826339136713
20
1.1337180237858
30
0
41
1
10
27.7141392252284
20
1.14539064581885
30
0
41
1
10
27.5772803604439
20
1.16535544998229
30
0
41
1
10
27.5089320408549
20
1.17365832549353
30
0
41
1
10
27.4066444909204
20
1.18354811347669
30
0
41
1
10
27.3725948936067
20
1.18641580005402
30
0
41
1
10
27.3044516133664
20
1.19123989990811
30
0
41
1
10
27.2703261660141
20
1.1931905173268
30
0
41
1
10
27.1781531171883
20
1.19722099269208
30
0
41
1
10
27.1200155075085
20
1.19845322098936
30
0
41
1
10
27.0617264713195
20
1.19839078004839
30
0
0
SPLINE
5
C2
100
AcDbEntity
8
1
62
256
6
ByLayer
370
18
48
1
60
0
100
AcDbSpline
70
4
71
3
72
116
73
112
40
0
40
0
40
0
40
0
40
0.0063582436688458
40
0.0063582436688458
40
0.0300830358755981
40
0.0300830358755981
40
0.0538078280823503
40
0.0538078280823503
40
0.0775326202891026
40
0.0775326202891026
40
0.101257412495855
40
0.101257412495855
40
0.113119808599231
40
0.113119808599231
40
0.124982204702607
40
0.124982204702607
40
0.148706996909361
40
0.148706996909361
40
0.160569393012738
40
0.160569393012738
40
0.172431789116115
40
0.172431789116115
40
0.196156581322869
40
0.196156581322869
40
0.219881373529623
40
0.219881373529623
40
0.231743769633
40
0.231743769633
40
0.243606165736377
40
0.243606165736377
40
0.267330957943133
40
0.267330957943133
40
0.291055750149889
40
0.291055750149889
40
0.314780542356645
40
0.314780542356645
40
0.326642938460023
40
0.326642938460023
40
0.338505334563401
40
0.338505334563401
40
0.350367730666779
40
0.350367730666779
40
0.362230126770157
40
0.362230126770157
40
0.385954918976913
40
0.385954918976913
40
0.409679711183669
40
0.409679711183669
40
0.421542107287047
40
0.421542107287047
40
0.433404503390425
40
0.433404503390425
40
0.457129295597181
40
0.457129295597181
40
0.480854087803937
40
0.480854087803937
40
0.504578880010694
40
0.504578880010694
40
0.516441276114071
40
0.516441276114071
40
0.528303672217449
40
0.528303672217449
40
0.540166068320828
40
0.540166068320828
40
0.552028464424206
40
0.552028464424206
40
0.599478048837712
40
0.599478048837712
40
0.623202841044465
40
0.623202841044465
40
0.635065237147841
40
0.635065237147841
40
0.646927633251217
40
0.646927633251217
40
0.670652425457968
40
0.670652425457968
40
0.694377217664719
40
0.694377217664719
40
0.718102009871471
40
0.718102009871471
40
0.729964405974845
40
0.729964405974845
40
0.74182680207822
40
0.74182680207822
40
0.76555159428497
40
0.76555159428497
40
0.789276386491719
40
0.789276386491719
40
0.813001178698469
40
0.813001178698469
40
0.836725970905219
40
0.836725970905219
40
0.848588367008594
40
0.848588367008594
40
0.860450763111968
40
0.860450763111968
40
0.872313159215343
40
0.872313159215343
40
0.884175555318718
40
0.884175555318718
40
0.907900347525467
40
0.907900347525467
40
0.931625139732217
40
0.931625139732217
40
0.943487535835592
40
0.943487535835592
40
0.955349931938966
40
0.955349931938966
40
0.979074724145716
40
0.979074724145716
40
1
40
1
40
1
40
1
41
1
10
22.1417578448187
20
-0.772642192647822
30
0
41
1
10
22.1232311757967
20
-0.780453213672274
30
0
41
1
10
22.104731646945
20
-0.788186389800273
30
0
41
1
10
22.0173395957837
20
-0.824413846072588
30
0
41
1
10
21.9488863990893
20
-0.851994739987816
30
0
41
1
10
21.8118423957763
20
-0.903759691314974
30
0
41
1
10
21.7433465672929
20
-0.928094660832954
30
0
41
1
10
21.6064450098442
20
-0.97381644655681
30
0
41
1
10
21.5380188804156
20
-0.995176618755295
30
0
41
1
10
21.4011182927389
20
-1.03484045556661
30
0
41
1
10
21.3326505602937
20
-1.05315703174921
30
0
41
1
10
21.2300423674526
20
-1.07842703906479
30
0
41
1
10
21.1958563645878
20
-1.08648239883513
30
0
41
1
10
21.1275295152694
20
-1.10184537794879
30
0
41
1
10
21.0933972677826
20
-1.10915731864816
30
0
41
1
10
20.990860032431
20
-1.12979580807726
30
0
41
1
10
20.9221900595612
20
-1.14175405771434
30
0
41
1
10
20.8187904937514
20
-1.15707882728068
30
0
41
1
10
20.7842576097958
20
-1.16174989109734
30
0
41
1
10
20.7150470286974
20
-1.17021010506593
30
0
41
1
10
20.6803277989492
20
-1.17400240159441
30
0
41
1
10
20.5763825030038
20
-1.18399840352552
30
0
41
1
10
20.5072786987114
20
-1.18884053056513
30
0
41
1
10
20.369549511952
20
-1.19496970908409
30
0
41
1
10
20.3009483209246
20
-1.19625919096165
30
0
41
1
10
20.1984935437887
20
-1.19545637141795
30
0
41
1
10
20.164415579542
20
-1.19472815937868
30
0
41
1
10
20.0961884075667
20
-1.19237107452011
30
0
41
1
10
20.0620509507777
20
-1.19074435856464
30
0
41
1
10
19.9595938230258
20
-1.18454434537182
30
0
41
1
10
19.89124744997
20
-1.1786477077452
30
0
41
1
10
19.7544118176739
20
-1.16340349172773
30
0
41
1
10
19.6858990791646
20
-1.15406601736072
30
0
41
1
10
19.5486723818289
20
-1.13197323397628
30
0
41
1
10
19.4799729265866
20
-1.11921553020306
30
0
41
1
10
19.3769122992433
20
-1.09732779479907
30
0
41
1
10
19.3425620343688
20
-1.08956677465511
30
0
41
1
10
19.2738166309736
20
-1.07312354926293
30
0
41
1
10
19.2393973249583
20
-1.06445958460347
30
0
41
1
10
19.1703213182537
20
-1.0463758543205
30
0
41
1
10
19.1356630454783
20
-1.03693508375073
30
0
41
1
10
19.0665184028253
20
-1.01735815328445
30
0
41
1
10
19.0319911065629
20
-1.00720993181028
30
0
41
1
10
18.9285296871955
20
-0.975718225620255
30
0
41
1
10
18.8597112550751
20
-0.95333302080391
30
0
41
1
10
18.7222696261422
20
-0.905979444455738
30
0
41
1
10
18.6536512260583
20
-0.881010407787102
30
0
41
1
10
18.5509935493745
20
-0.84146740507444
30
0
41
1
10
18.5168200635735
20
-0.827936123528445
30
0
41
1
10
18.4485819428038
20
-0.800137949669278
30
0
41
1
10
18.4145249372266
20
-0.785859333217104
30
0
41
1
10
18.3123511557542
20
-0.742132926495913
30
0
41
1
10
18.2440682138769
20
-0.712033404087236
30
0
41
1
10
18.1072104637359
20
-0.649945644382825
30
0
41
1
10
18.0386506621048
20
-0.617931360195399
30
0
41
1
10
17.9011527104112
20
-0.552157838164874
30
0
41
1
10
17.8321996952514
20
-0.518427092690786
30
0
41
1
10
17.7285220780282
20
-0.466438695672792
30
0
41
1
10
17.6939245229125
20
-0.448871156074119
30
0
41
1
10
17.6246696290105
20
-0.413213325560463
30
0
41
1
10
17.5900417766359
20
-0.395129800821763
30
0
41
1
10
17.5210798795485
20
-0.358613003705244
30
0
41
1
10
17.4867134729242
20
-0.340141344125698
30
0
41
1
10
17.4179972428605
20
-0.30316393322002
30
0
41
1
10
17.3836472689937
20
-0.284658473044658
30
0
41
1
10
17.211977330803
20
-0.191975193652581
30
0
41
1
10
17.0749849608675
20
-0.11716734134157
30
0
41
1
10
16.8695483984625
20
-0.0048216362899041
30
0
41
1
10
16.8011013483934
20
0.0326920178623595
30
0
41
1
10
16.698603237814
20
0.0892910218924783
30
0
41
1
10
16.6644705607141
20
0.10822065369814
30
0
41
1
10
16.5962378828438
20
0.146143647374345
30
0
41
1
10
16.5621251498524
20
0.165113471020845
30
0
41
1
10
16.4595225126356
20
0.221538805704455
30
0
41
1
10
16.3908561335964
20
0.258672824776966
30
0
41
1
10
16.2530786176418
20
0.332131247945938
30
0
41
1
10
16.1839500978045
20
0.368423509761953
30
0
41
1
10
16.0450942089128
20
0.439913388766797
30
0
41
1
10
15.975821776685
20
0.474883370041141
30
0
41
1
10
15.872424093584
20
0.526295365331748
30
0
41
1
10
15.838034892651
20
0.543264078578943
30
0
41
1
10
15.7694298113834
20
0.576889499982855
30
0
41
1
10
15.7352211964635
20
0.593557158959356
30
0
41
1
10
15.6327255220524
20
0.642864216288984
30
0
41
1
10
15.5643794386837
20
0.674508164381734
30
0
41
1
10
15.4276190216085
20
0.735381145870775
30
0
41
1
10
15.3592343291225
20
0.764652821965456
30
0
41
1
10
15.222340884112
20
0.820738466539041
30
0
41
1
10
15.1538142139892
20
0.847531095432458
30
0
41
1
10
15.0166715077706
20
0.898705774513076
30
0
41
1
10
14.9480739807823
20
0.923112665234584
30
0
41
1
10
14.8452259348591
20
0.957972632921042
30
0
41
1
10
14.8109583452323
20
0.969306046875658
30
0
41
1
10
14.742271808029
20
0.99118542844613
30
0
41
1
10
14.7078348850462
20
1.00171370707983
30
0
41
1
10
14.6387873664655
20
1.02196946972359
30
0
41
1
10
14.6041585019709
20
1.03170475718341
30
0
41
1
10
14.5348302106394
20
1.05036602083274
30
0
41
1
10
14.5002188334217
20
1.05926658175318
30
0
41
1
10
14.3965221102914
20
1.0846844390154
30
0
41
1
10
14.3275598193499
20
1.09990811779164
30
0
41
1
10
14.1899219338903
20
1.12696917265885
30
0
41
1
10
14.1212590286833
20
1.13882124075371
30
0
41
1
10
14.0186252324624
20
1.15411989886019
30
0
41
1
10
13.9844787017096
20
1.15880622270365
30
0
41
1
10
13.9162900843102
20
1.167321282747
30
0
41
1
10
13.8822450697603
20
1.17114612294645
30
0
41
1
10
13.7799451109976
20
1.1812157994664
30
0
41
1
10
13.711603836695
20
1.18609963459068
30
0
41
1
10
13.5828101683691
20
1.19195557956056
30
0
41
1
10
13.5223663476482
20
1.19331436199028
30
0
41
1
10
13.4617954626312
20
1.19329153122882
30
0
0
SPLINE
5
C3
100
AcDbEntity
8
1
62
256
6
ByLayer
370
18
48
1
60
0
100
AcDbSpline
70
4
71
3
72
52
73
48
40
0
40
0
40
0
40
0
40
0.0130052215780132
40
0.0130052215780132
40
0.0420344797668926
40
0.0420344797668926
40
0.071063737955772
40
0.071063737955772
40
0.129122254333534
40
0.129122254333534
40
0.187180770711297
40
0.187180770711297
40
0.245239287089059
40
0.245239287089059
40
0.274268545277941
40
0.274268545277941
40
0.303297803466822
40
0.303297803466822
40
0.36135631984459
40
0.36135631984459
40
0.419414836222357
40
0.419414836222357
40
0.44844409441124
40
0.44844409441124
40
0.477473352600123
40
0.477473352600123
40
0.506502610789007
40
0.506502610789007
40
0.53553186897789
40
0.53553186897789
40
0.593590385355652
40
0.593590385355652
40
0.651648901733415
40
0.651648901733415
40
0.709707418111177
40
0.709707418111177
40
0.738736676300059
40
0.738736676300059
40
0.76776593448894
40
0.76776593448894
40
0.825824450866706
40
0.825824450866706
40
0.88388296724447
40
0.88388296724447
40
0.941941483622235
40
0.941941483622235
40
1
40
1
40
1
40
1
41
1
10
8.5366644388078
20
-0.771185944100154
30
0
41
1
10
8.52121827247356
20
-0.777757557964435
30
0
41
1
10
8.50575977953707
20
-0.784273823545902
30
0
41
1
10
8.45572519717911
20
-0.805109376298788
30
0
41
1
10
8.42108057530089
20
-0.819145125445544
30
0
41
1
10
8.35194945901253
20
-0.846421906647265
30
0
41
1
10
8.31742123854605
20
-0.85968425626703
30
0
41
1
10
8.21395308632165
20
-0.898374811282906
30
0
41
1
10
8.14512637223709
20
-0.922701234949216
30
0
41
1
10
8.00764084993034
20
-0.968345630570781
30
0
41
1
10
7.93897706712815
20
-0.989664491907519
30
0
41
1
10
7.80193157277049
20
-1.02943897032486
30
0
41
1
10
7.73357991720826
20
-1.047920878127
30
0
41
1
10
7.63130225576509
20
-1.07343269293889
30
0
41
1
10
7.597226238849
20
-1.08154433857842
30
0
41
1
10
7.528936033869
20
-1.09685519265611
30
0
41
1
10
7.49474117067001
20
-1.10407147764164
30
0
41
1
10
7.39203686246083
20
-1.12444111314545
30
0
41
1
10
7.32342066584994
20
-1.1363233158481
30
0
41
1
10
7.18580802040876
20
-1.15665788183748
30
0
41
1
10
7.11678937336268
20
-1.16510195581716
30
0
41
1
10
7.01295918544596
20
-1.17516512187018
30
0
41
1
10
6.97830189772503
20
-1.17808622753125
30
0
41
1
10
6.9089126703459
20
-1.18304940616153
30
0
41
1
10
6.87425936331306
20
-1.18508501799673
30
0
41
1
10
6.80521243922527
20
-1.1882457609031
30
0
41
1
10
6.77080172301527
20
-1.18937188585377
30
0
41
1
10
6.70209704773771
20
-1.19069457687439
30
0
41
1
10
6.66776851003706
20
-1.19088980640845
30
0
41
1
10
6.56477918293436
20
-1.19011467267231
30
0
41
1
10
6.49616836382305
20
-1.18778879294743
30
0
41
1
10
6.35905698566654
20
-1.17963327442737
30
0
41
1
10
6.29053418929701
20
-1.17380495135166
30
0
41
1
10
6.15346931796796
20
-1.15873061421951
30
0
41
1
10
6.08493654412555
20
-1.14948814876703
30
0
41
1
10
5.98225969977918
20
-1.13296308648555
30
0
41
1
10
5.948056628383
20
-1.12700817033266
30
0
41
1
10
5.87969836806383
20
-1.11417980868865
30
0
41
1
10
5.84555321445916
20
-1.10729719535712
30
0
41
1
10
5.74293329676894
20
-1.08542059023415
30
0
41
1
10
5.67422675466025
20
-1.06925039997222
30
0
41
1
10
5.53637549354769
20
-1.03367258619585
30
0
41
1
10
5.46719777778443
20
-1.01426911317273
30
0
41
1
10
5.32824307412099
20
-0.972415165348195
30
0
41
1
10
5.25877914935262
20
-0.950062845780764
30
0
41
1
10
5.1200248034566
20
-0.902346995313252
30
0
41
1
10
5.05073641102047
20
-0.87698502730882
30
0
41
1
10
4.98168757111779
20
-0.849848104684355
30
0
0
SPLINE
5
C4
100
AcDbEntity
8
1
62
256
6
ByLayer
370
18
48
1
60
0
100
AcDbSpline
70
4
71
3
72
109
73
105
40
0
40
0
40
0
40
0
40
0.124999999999998
40
0.124999999999998
40
0.187499999999997
40
0.187499999999997
40
0.249999999999996
40
0.249999999999996
40
0.265624999999997
40
0.265624999999997
40
0.281249999999998
40
0.281249999999998
40
0.312499999999998
40
0.312499999999998
40
0.343749999999998
40
0.343749999999998
40
0.374999999999998
40
0.374999999999998
40
0.390624999999997
40
0.390624999999997
40
0.406249999999997
40
0.406249999999997
40
0.421874999999996
40
0.421874999999996
40
0.437499999999996
40
0.437499999999996
40
0.445312499999995
40
0.445312499999995
40
0.453124999999994
40
0.453124999999994
40
0.468749999999994
40
0.468749999999994
40
0.476562499999993
40
0.476562499999993
40
0.484374999999993
40
0.484374999999993
40
0.499999999999993
40
0.499999999999993
40
0.503906249999992
40
0.503906249999992
40
0.507812499999992
40
0.515624999999992
40
0.515624999999992
40
0.519531249999992
40
0.519531249999992
40
0.523437499999992
40
0.523437499999992
40
0.531249999999992
40
0.531249999999992
40
0.539062499999991
40
0.539062499999991
40
0.546874999999991
40
0.546874999999991
40
0.56249999999999
40
0.56249999999999
40
0.57031249999999
40
0.57031249999999
40
0.57812499999999
40
0.57812499999999
40
0.593749999999989
40
0.593749999999989
40
0.609374999999988
40
0.609374999999988
40
0.624999999999988
40
0.624999999999988
40
0.656249999999986
40
0.656249999999986
40
0.671874999999986
40
0.671874999999986
40
0.687499999999986
40
0.687499999999986
40
0.691406249999986
40
0.691406249999986
40
0.695312499999986
40
0.695312499999986
40
0.699218749999985
40
0.699218749999985
40
0.703124999999985
40
0.703124999999985
40
0.707031249999985
40
0.707031249999985
40
0.710937499999985
40
0.710937499999985
40
0.718749999999984
40
0.718749999999984
40
0.722656249999984
40
0.722656249999984
40
0.726562499999983
40
0.726562499999983
40
0.734374999999983
40
0.734374999999983
40
0.749999999999983
40
0.749999999999983
40
0.812499999999987
40
0.812499999999987
40
0.828124999999989
40
0.828124999999989
40
0.843749999999991
40
0.843749999999991
40
0.874999999999993
40
0.874999999999993
40
0.937499999999997
40
0.937499999999997
40
1
40
1
40
1
40
1
41
1
10
4.98168757111785
20
-0.849848104684384
30
0
41
1
10
4.70501455119407
20
-0.777404554796817
30
0
41
1
10
4.43223601205719
20
-0.691569542048484
30
0
41
1
10
4.02752425858688
20
-0.541928735268442
30
0
41
1
10
3.89336238671549
20
-0.488568485241899
30
0
41
1
10
3.62633453928964
20
-0.374499959171629
30
0
41
1
10
3.49346600199968
20
-0.313808958519843
30
0
41
1
10
3.32812864660556
20
-0.232767451619196
30
0
41
1
10
3.29508331209729
20
-0.216289520581881
30
0
41
1
10
3.22930995770867
20
-0.182909531322196
30
0
41
1
10
3.19655447290452
20
-0.165994340737882
30
0
41
1
10
3.09869714328465
20
-0.114546492283267
30
0
41
1
10
3.03400216134617
20
-0.0793154403403662
30
0
41
1
10
2.90582571946169
20
-0.0067702806096293
30
0
41
1
10
2.84234242071764
20
0.0305406708319822
30
0
41
1
10
2.7168074111577
20
0.107619950011781
30
0
41
1
10
2.65475141286504
20
0.147380918185547
30
0
41
1
10
2.56303729671498
20
0.209373824399194
30
0
41
1
10
2.53263849082225
20
0.230475301049978
30
0
41
1
10
2.47278452428435
20
0.273318781334467
30
0
41
1
10
2.44330929650309
20
0.29507114567113
30
0
41
1
10
2.38541580672128
20
0.339356027550451
30
0
41
1
10
2.35699636802505
20
0.361887594668787
30
0
41
1
10
2.3014362006495
20
0.4079048455649
30
0
41
1
10
2.27429308787276
20
0.431388597943169
30
0
41
1
10
2.23479349741737
20
0.46753274050505
30
0
41
1
10
2.22183060804073
20
0.479734784542813
30
0
41
1
10
2.19637479776824
20
0.50449687633585
30
0
41
1
10
2.18387867093284
20
0.517062547410802
30
0
41
1
10
2.14754121894973
20
0.555042876493218
30
0
41
1
10
2.12472540940206
20
0.580835725797613
30
0
41
1
10
2.0933488316397
20
0.620519736359142
30
0
41
1
10
2.08333944342269
20
0.633957168229301
30
0
41
1
10
2.06460242871361
20
0.661046858202099
30
0
41
1
10
2.05592457647478
20
0.674622120376881
30
0
41
1
10
2.03224374342318
20
0.715469198537903
30
0
41
1
10
2.0195483441367
20
0.742857205419199
30
0
41
1
10
2.00898239460844
20
0.777444493263971
30
0
41
1
10
2.00713235245806
20
0.784406791579215
30
0
41
1
10
2.00405143356198
20
0.798240240973968
30
0
41
1
10
2.00036907704936
20
0.818777852783285
30
0
41
1
10
1.99955666789083
20
0.838677827974379
30
0
41
1
10
2.00074674756794
20
0.858150039475476
30
0
41
1
10
2.00147740107721
20
0.864569452209906
30
0
41
1
10
2.00362429558089
20
0.877264806131166
30
0
41
1
10
2.00504519983224
20
0.883543577626739
30
0
41
1
10
2.01025490402071
20
0.901854850005975
30
0
41
1
10
2.0150031647475
20
0.91347384685335
30
0
41
1
10
2.02683546966188
20
0.935657356056851
30
0
41
1
10
2.0339307172959
20
0.946234872054362
30
0
41
1
10
2.05024052282082
20
0.966380553365042
30
0
41
1
10
2.05930489116335
20
0.975774430715916
30
0
41
1
10
2.08877716444613
20
1.00228470889482
30
0
41
1
10
2.1114421667794
20
1.01774786517029
30
0
41
1
10
2.14881109403228
20
1.03856243677438
30
0
41
1
10
2.16179429200687
20
1.04507125778775
30
0
41
1
10
2.18837548782943
20
1.05724226595251
30
0
41
1
10
2.20201660157136
20
1.06292819305059
30
0
41
1
10
2.24383340302606
20
1.07898543827085
30
0
41
1
10
2.27289482596044
20
1.08836589031048
30
0
41
1
10
2.33281904115367
20
1.10518489279116
30
0
41
1
10
2.36368608123146
20
1.11261794958597
30
0
41
1
10
2.42686861351692
20
1.12597943148842
30
0
41
1
10
2.45898615645965
20
1.13186394744156
30
0
41
1
10
2.55652630288699
20
1.14766187321703
30
0
41
1
10
2.62316093998624
20
1.15575665423887
30
0
41
1
10
2.72482245200163
20
1.16553477290645
30
0
41
1
10
2.7589895701731
20
1.16839015251878
30
0
41
1
10
2.82768501118744
20
1.17341705214764
30
0
41
1
10
2.8622437522416
20
1.17558877470975
30
0
41
1
10
2.90557087607971
20
1.17797913205237
30
0
41
1
10
2.91424087912549
20
1.17844140531548
30
0
41
1
10
2.93159712814313
20
1.17933273463822
30
0
41
1
10
2.94027722822636
20
1.17976348782969
30
0
41
1
10
2.9577418204515
20
1.18056661033467
30
0
41
1
10
2.96654742797642
20
1.18093585039134
30
0
41
1
10
2.98428538797927
20
1.18154074850713
30
0
41
1
10
2.99323417600169
20
1.18177641198878
30
0
41
1
10
3.01130066969375
20
1.18212346012695
30
0
41
1
10
3.02041549854317
20
1.18223693290508
30
0
41
1
10
3.03879266929476
20
1.18236225360423
30
0
41
1
10
3.04808900207277
20
1.18237405117478
30
0
41
1
10
3.07596480350082
20
1.1822632864054
30
0
41
1
10
3.09411887780041
20
1.18198857808528
30
0
41
1
10
3.12092530043435
20
1.18134017907789
30
0
41
1
10
3.12980021269797
20
1.18108911616795
30
0
41
1
10
3.14751729108886
20
1.1805567598046
30
0
41
1
10
3.15636005541421
20
1.18027595291471
30
0
41
1
10
3.18289196974345
20
1.17941511869625
30
0
41
1
10
3.20058264607744
20
1.1788160046377
30
0
41
1
10
3.25367967595935
20
1.17695503884474
30
0
41
1
10
3.28909657670337
20
1.17562201483204
30
0
41
1
10
3.46617569281989
20
1.16844359869236
30
0
41
1
10
3.60779727457154
20
1.16106693075136
30
0
41
1
10
3.78479842150395
20
1.14988325374387
30
0
41
1
10
3.82019706136771
20
1.14754990878936
30
0
41
1
10
3.89079696811115
20
1.14250386889955
30
0
41
1
10
3.92599206065691
20
1.13978402678066
30
0
41
1
10
4.03119794114525
20
1.13089603243893
30
0
41
1
10
4.10086169739782
20
1.12402790423749
30
0
41
1
10
4.30858143855235
20
1.10006798880806
30
0
41
1
10
4.44536837813678
20
1.07957592241792
30
0
41
1
10
4.7163081334927
20
1.0269547472632
30
0
41
1
10
4.84964564069943
20
0.994964896232347
30
0
41
1
10
4.98168757111785
20
0.956801269487528
30
0
0
SPLINE
5
C5
100
AcDbEntity
8
1
62
256
6
ByLayer
370
18
48
1
60
0
100
AcDbSpline
70
4
71
3
72
76
73
72
40
0
40
0
40
0
40
0
40
0.0380285955702244
40
0.0380285955702244
40
0.0760571911404487
40
0.0760571911404487
40
0.152114382280897
40
0.152114382280897
40
0.171128680066009
40
0.171128680066009
40
0.19014297785112
40
0.19014297785112
40
0.228171573421343
40
0.228171573421343
40
0.266200168991566
40
0.266200168991566
40
0.285214466776679
40
0.285214466776679
40
0.304228764561792
40
0.304228764561792
40
0.323243062346905
40
0.323243062346905
40
0.342257360132018
40
0.342257360132018
40
0.380285955702247
40
0.380285955702247
40
0.418314551272476
40
0.418314551272476
40
0.456343146842705
40
0.456343146842705
40
0.475357444627821
40
0.475357444627821
40
0.494371742412937
40
0.494371742412937
40
0.513386040198052
40
0.513386040198052
40
0.532400337983168
40
0.551414635768284
40
0.551414635768284
40
0.5704289335534
40
0.5704289335534
40
0.608457529123632
40
0.608457529123632
40
0.646486124693864
40
0.646486124693864
40
0.66550042247898
40
0.66550042247898
40
0.684514720264096
40
0.684514720264096
40
0.722543315834324
40
0.722543315834324
40
0.760571911404553
40
0.760571911404553
40
0.798600506974782
40
0.798600506974782
40
0.817614804759896
40
0.817614804759896
40
0.836629102545011
40
0.836629102545011
40
0.855643400330125
40
0.855643400330125
40
0.87465769811524
40
0.87465769811524
40
0.912686293685469
40
0.912686293685469
40
0.950714889255697
40
0.96972918704081
40
0.96972918704081
40
0.988743484825923
40
0.988743484825923
40
1
40
1
40
1
40
1
41
1
10
4.98168757111782
20
0.956801269487556
30
0
41
1
10
5.05051363761373
20
0.933489241466191
30
0
41
1
10
5.11950427072901
20
0.909235215980317
30
0
41
1
10
5.25752617173777
20
0.858741612673697
30
0
41
1
10
5.32655383693137
20
0.832497509226471
30
0
41
1
10
5.53309805279491
20
0.750087411825632
30
0
41
1
10
5.66996332078872
20
0.690074317714505
30
0
41
1
10
5.84024508164907
20
0.60869732912272
30
0
41
1
10
5.87425746635361
20
0.592094321317404
30
0
41
1
10
5.94242840384615
20
0.558609254491358
30
0
41
1
10
5.97660439294128
20
0.541757281303177
30
0
41
1
10
6.07946112421666
20
0.491001016715984
30
0
41
1
10
6.14842290770389
20
0.456825994241086
30
0
41
1
10
6.28670100701052
20
0.38713120092396
30
0
41
1
10
6.35598297063939
20
0.351546560453784
30
0
41
1
10
6.45999489760334
20
0.296759494627366
30
0
41
1
10
6.49472656571919
20
0.278257352308884
30
0
41
1
10
6.56393359116862
20
0.241002670128012
30
0
41
1
10
6.59843775299177
20
0.222237901435477
30
0
41
1
10
6.66724603990772
20
0.184432553221058
30
0
41
1
10
6.70154167529049
20
0.165375960287378
30
0
41
1
10
6.76996965535704
20
0.127058531100232
30
0
41
1
10
6.80412216468139
20
0.107836041199533
30
0
41
1
10
6.90674654423711
20
0.0506339441990917
30
0
41
1
10
6.97541322843912
20
0.0131689343350274
30
0
41
1
10
7.11285361211739
20
-0.0611896755197847
30
0
41
1
10
7.18162043829147
20
-0.0980959671754817
30
0
41
1
10
7.31883407206593
20
-0.172124463220968
30
0
41
1
10
7.38730807930233
20
-0.209195065586954
30
0
41
1
10
7.48989936826354
20
-0.264726744879653
30
0
41
1
10
7.52407591873421
20
-0.28322601470299
30
0
41
1
10
7.59238657632881
20
-0.32020145213022
30
0
41
1
10
7.62650309283018
20
-0.338709209582191
30
0
41
1
10
7.69481460821748
20
-0.375480400719539
30
0
41
1
10
7.72902839925811
20
-0.393709936900933
30
0
41
1
10
7.79775770853141
20
-0.429526548781581
30
0
41
1
10
7.86675231966737
20
-0.464766717029732
30
0
41
1
10
7.93617155032535
20
-0.499049937902441
30
0
41
1
10
8.00574983646925
20
-0.532950340222726
30
0
41
1
10
8.04058868881106
20
-0.549694403627711
30
0
41
1
10
8.1447539129376
20
-0.599252315146174
30
0
41
1
10
8.21385213821941
20
-0.631528575252872
30
0
41
1
10
8.35139897007963
20
-0.694425558522937
30
0
41
1
10
8.41986595187021
20
-0.72501820031934
30
0
41
1
10
8.52210938328398
20
-0.769539439614022
30
0
41
1
10
8.55610522294805
20
-0.784161957267486
30
0
41
1
10
8.62416647937451
20
-0.812632205616069
30
0
41
1
10
8.65824951356666
20
-0.826457545251657
30
0
41
1
10
8.7607589523291
20
-0.866613714577227
30
0
41
1
10
8.82938598848261
20
-0.891717152244922
30
0
41
1
10
8.96679128426334
20
-0.939246256620635
30
0
41
1
10
9.0355385707465
20
-0.961704518617296
30
0
41
1
10
9.17290583854478
20
-1.00416580763385
30
0
41
1
10
9.24156818849741
20
-1.02411795823284
30
0
41
1
10
9.34459268760915
20
-1.05194681894088
30
0
41
1
10
9.37893312471067
20
-1.06087846503127
30
0
41
1
10
9.44763899698069
20
-1.07800171817013
30
0
41
1
10
9.48202200140747
20
-1.08617571751455
30
0
41
1
10
9.55108045290811
20
-1.10156106611584
30
0
41
1
10
9.58569091935107
20
-1.10874739010046
30
0
41
1
10
9.65487689143902
20
-1.12214617895273
30
0
41
1
10
9.6894762857639
20
-1.12836683355567
30
0
41
1
10
9.79322052222477
20
-1.14569289945211
30
0
41
1
10
9.86231021137002
20
-1.15547559028502
30
0
41
1
10
9.99992694574672
20
-1.17174027343847
30
0
41
1
10
10.1027483474814
20
-1.18142687876531
30
0
41
1
10
10.2050984623527
20
-1.18716503983563
30
0
41
1
10
10.2732245601555
20
-1.1900920145109
30
0
41
1
10
10.3072180335167
20
-1.19110651767835
30
0
41
1
10
10.3613271343557
20
-1.19198115767008
30
0
41
1
10
10.3814529827239
20
-1.19214262439061
30
0
41
1
10
10.40160535674
20
-1.19214321515415
30
0
0
SPLINE
5
C6
100
AcDbEntity
8
1
62
256
6
ByLayer
370
18
48
1
60
0
100
AcDbSpline
70
4
71
3
72
119
73
115
40
0
40
0
40
0
40
0
40
0.0168039467438702
40
0.0168039467438702
40
0.0287047414453167
40
0.0287047414453167
40
0.0406055361467632
40
0.0406055361467632
40
0.0525063308482098
40
0.0525063308482098
40
0.0644071255496565
40
0.0644071255496565
40
0.0882087149525495
40
0.0882087149525495
40
0.112010304355443
40
0.112010304355443
40
0.135811893758336
40
0.135811893758336
40
0.159613483161229
40
0.159613483161229
40
0.183415072564122
40
0.183415072564122
40
0.207216661967015
40
0.207216661967015
40
0.219117456668462
40
0.219117456668462
40
0.231018251369908
40
0.231018251369908
40
0.242919046071355
40
0.242919046071355
40
0.254819840772801
40
0.254819840772801
40
0.266720635474248
40
0.266720635474248
40
0.278621430175694
40
0.278621430175694
40
0.302423019578586
40
0.302423019578586
40
0.326224608981477
40
0.326224608981477
40
0.350026198384368
40
0.350026198384368
40
0.361926993085814
40
0.361926993085814
40
0.373827787787259
40
0.373827787787259
40
0.397629377190151
40
0.397629377190151
40
0.421430966593042
40
0.421430966593042
40
0.445232555995932
40
0.445232555995932
40
0.469034145398823
40
0.469034145398823
40
0.492835734801715
40
0.492835734801715
40
0.516637324204606
40
0.516637324204606
40
0.540438913607497
40
0.540438913607497
40
0.552339708308943
40
0.552339708308943
40
0.564240503010388
40
0.564240503010388
40
0.576141297711834
40
0.576141297711834
40
0.58804209241328
40
0.58804209241328
40
0.611843681816171
40
0.611843681816171
40
0.659446860621953
40
0.659446860621953
40
0.671347655323397
40
0.671347655323397
40
0.683248450024842
40
0.683248450024842
40
0.707050039427729
40
0.707050039427729
40
0.730851628830615
40
0.730851628830615
40
0.74275242353206
40
0.74275242353206
40
0.754653218233504
40
0.754653218233504
40
0.766554012934948
40
0.766554012934948
40
0.778454807636393
40
0.778454807636393
40
0.802256397039283
40
0.802256397039283
40
0.826057986442173
40
0.826057986442173
40
0.849859575845063
40
0.849859575845063
40
0.861760370546508
40
0.861760370546508
40
0.873661165247952
40
0.873661165247952
40
0.885561959949396
40
0.885561959949396
40
0.897462754650841
40
0.909363549352285
40
0.909363549352285
40
0.921264344053729
40
0.921264344053729
40
0.945065933456616
40
0.945065933456616
40
0.968867522859503
40
0.968867522859503
40
0.980768317560946
40
0.980768317560946
40
0.99266911226239
40
0.99266911226239
40
1
40
1
40
1
40
1
41
1
10
15.3464715675375
20
0.780372362626139
30
0
41
1
10
15.395086786258
20
0.80047890262199
30
0
41
1
10
15.4437110088254
20
0.820139721798711
30
0
41
1
10
15.526823439191
20
0.852880549107198
30
0
41
1
10
15.5612976052136
20
0.866205339186706
30
0
41
1
10
15.6302812210763
20
0.892336331927595
30
0
41
1
10
15.6648150176676
20
0.905165487239657
30
0
41
1
10
15.7336159619986
20
0.930101740647018
30
0
41
1
10
15.7679385255991
20
0.942194973003495
30
0
41
1
10
15.8366610726617
20
0.96538198300334
30
0
41
1
10
15.8710643526514
20
0.976476202387659
30
0
41
1
10
15.9743328862988
20
1.00840987362153
30
0
41
1
10
16.0432572338309
20
1.0279119695528
30
0
41
1
10
16.1808443571475
20
1.06390398140886
30
0
41
1
10
16.2494650796191
20
1.08042100588324
30
0
41
1
10
16.3863098238213
20
1.11044016246547
30
0
41
1
10
16.454563478552
20
1.12391847609561
30
0
41
1
10
16.5907651249636
20
1.14762838664467
30
0
41
1
10
16.6586092805621
20
1.15787572912228
30
0
41
1
10
16.7953830780868
20
1.17441576375387
30
0
41
1
10
16.8642266066547
20
1.18079978310396
30
0
41
1
10
17.0024034522051
20
1.19009837913447
30
0
41
1
10
17.0717184786326
20
1.19301521719623
30
0
41
1
10
17.1758010163668
20
1.19472561671961
30
0
41
1
10
17.2105159828702
20
1.19484599908364
30
0
41
1
10
17.2796632508287
20
1.19416975849461
30
0
41
1
10
17.3141402313773
20
1.19337430141803
30
0
41
1
10
17.3829074289299
20
1.19085685407671
30
0
41
1
10
17.4171965470991
20
1.18913486418964
30
0
41
1
10
17.485582970519
20
1.18474580876588
30
0
41
1
10
17.5196737939089
20
1.18207376975161
30
0
41
1
10
17.5878933064987
20
1.17584231198245
30
0
41
1
10
17.6220398808704
20
1.17229106888365
30
0
41
1
10
17.6904678074819
20
1.16438453798918
30
0
41
1
10
17.7247348781064
20
1.16002520720519
30
0
41
1
10
17.8276184000509
20
1.14574433274441
30
0
41
1
10
17.8963182126364
20
1.1346320224481
30
0
41
1
10
18.0335023337637
20
1.1090131603905
30
0
41
1
10
18.1019729744812
20
1.0944836063382
30
0
41
1
10
18.2387722436066
20
1.06190358946941
30
0
41
1
10
18.3070982313969
20
1.04385269241519
30
0
41
1
10
18.4095228015895
20
1.01401176258022
30
0
41
1
10
18.4436759693548
20
1.00362179932969
30
0
41
1
10
18.5122389654468
20
0.982199723212801
30
0
41
1
10
18.5466621045544
20
0.97118566984264
30
0
41
1
10
18.6503049538528
20
0.937230404914658
30
0
41
1
10
18.7200367893316
20
0.913317489578304
30
0
41
1
10
18.8587884359198
20
0.863054283874533
30
0
41
1
10
18.927875705472
20
0.836613371034503
30
0
41
1
10
19.0653861722726
20
0.780961800973301
30
0
41
1
10
19.1338427269943
20
0.751795737930593
30
0
41
1
10
19.2701960490401
20
0.690768448476945
30
0
41
1
10
19.337963508355
20
0.658691863312868
30
0
41
1
10
19.4742745440339
20
0.593886848081695
30
0
41
1
10
19.542776445647
20
0.561122658807022
30
0
41
1
10
19.6800551227017
20
0.494309973423725
30
0
41
1
10
19.7488184980248
20
0.460238310189737
30
0
41
1
10
19.8862361814613
20
0.390114284149689
30
0
41
1
10
19.954928993593
20
0.354122831840186
30
0
41
1
10
20.0580263504297
20
0.298808860077713
30
0
41
1
10
20.0924002186843
20
0.280146730781354
30
0
41
1
10
20.1611650741258
20
0.242357874993587
30
0
41
1
10
20.1955543288631
20
0.223193676010396
30
0
41
1
10
20.2644885119846
20
0.184789209744338
30
0
41
1
10
20.298940099643
20
0.165646092623177
30
0
41
1
10
20.3679213574791
20
0.12767918620608
30
0
41
1
10
20.4024331357255
20
0.108820541987058
30
0
41
1
10
20.5059602189826
20
0.0524703192839979
30
0
41
1
10
20.5749687561954
20
0.0152050271300936
30
0
41
1
10
20.7813285722177
20
-0.0969137155810813
30
0
41
1
10
20.9179494565685
20
-0.172205223549184
30
0
41
1
10
21.0878418657773
20
-0.266300344495477
30
0
41
1
10
21.1217869085714
20
-0.285097941737632
30
0
41
1
10
21.1898491511158
20
-0.32221998112098
30
0
41
1
10
21.2239838976306
20
-0.340513526235498
30
0
41
1
10
21.3266917462931
20
-0.394615630415785
30
0
41
1
10
21.3955411784158
20
-0.429696933891677
30
0
41
1
10
21.5335654775955
20
-0.498664485961569
30
0
41
1
10
21.602702849903
20
-0.532614941278496
30
0
41
1
10
21.7065056423386
20
-0.582874742999081
30
0
41
1
10
21.7411733530603
20
-0.599523445087641
30
0
41
1
10
21.8103460966474
20
-0.632429858299218
30
0
41
1
10
21.8448306391684
20
-0.648677201570763
30
0
41
1
10
21.913593111352
20
-0.680753765174615
30
0
41
1
10
21.9478581111558
20
-0.696602474052241
30
0
41
1
10
22.016248589948
20
-0.727764028038848
30
0
41
1
10
22.0503937966266
20
-0.743045283557677
30
0
41
1
10
22.1530180588589
20
-0.787525808734785
30
0
41
1
10
22.2216582584191
20
-0.815424693505236
30
0
41
1
10
22.3589866491972
20
-0.868484692162525
30
0
41
1
10
22.4276651403722
20
-0.893657266808162
30
0
41
1
10
22.5646661687136
20
-0.941741961409377
30
0
41
1
10
22.6330227093744
20
-0.96460325527417
30
0
41
1
10
22.7354206424335
20
-0.996939788822033
30
0
41
1
10
22.7695292724839
20
-1.00739400064143
30
0
41
1
10
22.8376976722971
20
-1.02763244282573
30
0
41
1
10
22.8717390994522
20
-1.03743234971353
30
0
41
1
10
22.9399311469491
20
-1.05619504294668
30
0
41
1
10
22.9740997394837
20
-1.06514192374624
30
0
41
1
10
23.0427348110184
20
-1.08205849537907
30
0
41
1
10
23.1116276750685
20
-1.09803633786507
30
0
41
1
10
23.1809284362699
20
-1.11226905511697
30
0
41
1
10
23.2503795676591
20
-1.12567528751435
30
0
41
1
10
23.2852105738355
20
-1.13196959456192
30
0
41
1
10
23.389350906909
20
-1.1495709070025
30
0
41
1
10
23.4584172810008
20
-1.15964187000802
30
0
41
1
10
23.5958893672317
20
-1.17634160133412
30
0
41
1
10
23.6643092462416
20
-1.18296664861609
30
0
41
1
10
23.7664602033655
20
-1.19020848107817
30
0
41
1
10
23.800432739261
20
-1.19216828073831
30
0
41
1
10
23.8684633942956
20
-1.19514068151241
30
0
41
1
10
23.9025397680062
20
-1.19615389822332
30
0
41
1
10
23.9577305017773
20
-1.19706093407535
30
0
41
1
10
23.9787933900997
20
-1.19723700946218
30
0
41
1
10
23.9998749431867
20
-1.19724550468121
30
0
0
SPLINE
5
C7
100
AcDbEntity
8
1
62
256
6
ByLayer
370
18
48
1
60
0
100
AcDbSpline
70
4
71
3
72
38
73
34
40
0
40
0
40
0
40
0
40
0.0598291034759018
40
0.0598291034759018
40
0.145299184978088
40
0.145299184978088
40
0.188034225729183
40
0.188034225729183
40
0.230769266480276
40
0.230769266480276
40
0.316239347982463
40
0.316239347982463
40
0.40170942948465
40
0.40170942948465
40
0.444444470235744
40
0.444444470235744
40
0.487179510986838
40
0.487179510986838
40
0.572649592489032
40
0.572649592489032
40
0.658119673991226
40
0.658119673991226
40
0.74358975549342
40
0.74358975549342
40
0.786324796244517
40
0.786324796244517
40
0.829059836995614
40
0.829059836995614
40
0.871794877746709
40
0.871794877746709
40
0.914529918497806
40
0.914529918497806
40
1
40
1
40
1
40
1
41
1
10
28.9384153754697
20
0.780126280318342
30
0
41
1
10
28.9863069058733
20
0.800343034393762
30
0
41
1
10
29.0341788907869
20
0.820115848616439
30
0
41
1
10
29.1504055019066
20
0.866989034184712
30
0
41
1
10
29.2186943766275
20
0.893641085537979
30
0
41
1
10
29.322181475978
20
0.930737296177966
30
0
41
1
10
29.356861514273
20
0.942685516189442
30
0
41
1
10
29.4262196419065
20
0.96572306635494
30
0
41
1
10
29.4608810475053
20
0.976808486454246
30
0
41
1
10
29.5647373192955
20
1.00888720095557
30
0
41
1
10
29.6337809663125
20
1.02873579070993
30
0
41
1
10
29.7712135207466
20
1.0655971546949
30
0
41
1
10
29.8396445638475
20
1.08256124342395
30
0
41
1
10
29.9419216570362
20
1.10566677292346
30
0
41
1
10
29.9759497885094
20
1.11298036074189
30
0
41
1
10
30.0438781927444
20
1.12680792654945
30
0
41
1
10
30.0777860978631
20
1.13331345415031
30
0
41
1
10
30.1797031425613
20
1.15138975199829
30
0
41
1
10
30.2480217145676
20
1.16147732441016
30
0
41
1
10
30.3851399413013
20
1.17812521927016
30
0
41
1
10
30.4539156168002
20
1.1846998721054
30
0
41
1
10
30.5914660058943
20
1.19447257932376
30
0
41
1
10
30.6602418130995
20
1.19765575126152
30
0
41
1
10
30.7634935987895
20
1.19971094563439
30
0
41
1
10
30.7979265296993
20
1.19994262976041
30
0
41
1
10
30.8668257274319
20
1.19946689087845
30
0
41
1
10
30.9013096040597
20
1.19875668996516
30
0
41
1
10
30.9701417883367
20
1.19637256958416
30
0
41
1
10
31.0045283865111
20
1.19469923743321
30
0
41
1
10
31.0734848844027
20
1.19045242723121
30
0
41
1
10
31.1080551706222
20
1.18788329910959
30
0
41
1
10
31.2119634039343
20
1.17888307042457
30
0
41
1
10
31.2814985547891
20
1.17117172950279
30
0
41
1
10
31.3510705314241
20
1.16171183651846
30
0
0
SPLINE
5
C8
100
AcDbEntity
8
1
62
256
6
ByLayer
370
18
48
1
60
0
100
AcDbSpline
70
4
71
3
72
116
73
112
40
0
40
0
40
0
40
0
40
0.0064092941197486
40
0.0064092941197486
40
0.0301476039604832
40
0.0301476039604832
40
0.0538859138012179
40
0.0538859138012179
40
0.0657550687215851
40
0.0657550687215851
40
0.0776242236419525
40
0.0776242236419525
40
0.0894933785623198
40
0.0894933785623198
40
0.101362533482687
40
0.101362533482687
40
0.125100843323424
40
0.125100843323424
40
0.14883915316416
40
0.14883915316416
40
0.172577463004896
40
0.172577463004896
40
0.184446617925265
40
0.184446617925265
40
0.196315772845633
40
0.196315772845633
40
0.220054082686369
40
0.220054082686369
40
0.243792392527106
40
0.243792392527106
40
0.255661547447473
40
0.255661547447473
40
0.26753070236784
40
0.26753070236784
40
0.279399857288208
40
0.279399857288208
40
0.291269012208575
40
0.291269012208575
40
0.31500732204931
40
0.31500732204931
40
0.338745631890044
40
0.338745631890044
40
0.362483941730779
40
0.362483941730779
40
0.386222251571514
40
0.386222251571514
40
0.398091406491881
40
0.398091406491881
40
0.409960561412248
40
0.409960561412248
40
0.421829716332616
40
0.421829716332616
40
0.433698871252983
40
0.433698871252983
40
0.45743718109372
40
0.45743718109372
40
0.481175490934456
40
0.481175490934456
40
0.504913800775193
40
0.504913800775193
40
0.528652110615929
40
0.528652110615929
40
0.552390420456666
40
0.552390420456666
40
0.576128730297402
40
0.576128730297402
40
0.58799788521777
40
0.58799788521777
40
0.599867040138139
40
0.599867040138139
40
0.623605349978877
40
0.623605349978877
40
0.647343659819615
40
0.647343659819615
40
0.671081969660353
40
0.671081969660353
40
0.694820279501092
40
0.694820279501092
40
0.706689434421461
40
0.706689434421461
40
0.71855858934183
40
0.71855858934183
40
0.742296899182568
40
0.742296899182568
40
0.766035209023307
40
0.766035209023307
40
0.777904363943676
40
0.777904363943676
40
0.789773518864045
40
0.789773518864045
40
0.813511828704783
40
0.813511828704783
40
0.837250138545522
40
0.837250138545522
40
0.86098844838626
40
0.86098844838626
40
0.884726758226999
40
0.884726758226999
40
0.896595913147369
40
0.896595913147369
40
0.908465068067739
40
0.908465068067739
40
0.932203377908481
40
0.932203377908481
40
0.944072532828852
40
0.944072532828852
40
0.955941687749223
40
0.955941687749223
40
0.979679997589967
40
0.979679997589967
40
1
40
1
40
1
40
1
41
1
10
28.9378384388113
20
-0.777476228982778
30
0
41
1
10
28.9193932207423
20
-0.785247706463196
30
0
41
1
10
28.900939752562
20
-0.79292882958606
30
0
41
1
10
28.8141055755183
20
-0.828643224048307
30
0
41
1
10
28.7456186403334
20
-0.855529204886267
30
0
41
1
10
28.6082948485255
20
-0.906676974491489
30
0
41
1
10
28.5394562855395
20
-0.930941374122426
30
0
41
1
10
28.4360302108352
20
-0.965454302268228
30
0
41
1
10
28.4015279453756
20
-0.976645063604991
30
0
41
1
10
28.3324860979795
20
-0.998400725208938
30
0
41
1
10
28.2979090536158
20
-1.00898425715761
30
0
41
1
10
28.2289710393009
20
-1.02935860186375
30
0
41
1
10
28.1945655819229
20
-1.0391250755959
30
0
41
1
10
28.1257584207297
20
-1.05772099139071
30
0
41
1
10
28.0913734320185
20
-1.06656821613345
30
0
41
1
10
27.9883016361985
20
-1.0918155826437
30
0
41
1
10
27.919704541347
20
-1.10692564916314
30
0
41
1
10
27.7826339136713
20
-1.1337180237858
30
0
41
1
10
27.7141392252284
20
-1.14539064581885
30
0
41
1
10
27.5772803604439
20
-1.16535544998229
30
0
41
1
10
27.5089320408548
20
-1.17365832549353
30
0
41
1
10
27.4066444909204
20
-1.18354811347672
30
0
41
1
10
27.3725948936067
20
-1.18641580005402
30
0
41
1
10
27.3044516133664
20
-1.19123989990811
30
0
41
1
10
27.2703261660141
20
-1.1931905173268
30
0
41
1
10
27.1677598114303
20
-1.19767546353094
30
0
41
1
10
27.0991689967997
20
-1.19885308732933
30
0
41
1
10
26.9615671722346
20
-1.19761184618662
30
0
41
1
10
26.8925333114428
20
-1.19519143530204
30
0
41
1
10
26.7885779564649
20
-1.18884718165145
30
0
41
1
10
26.7538495908933
20
-1.18627725789406
30
0
41
1
10
26.6846336302912
20
-1.18024801292197
30
0
41
1
10
26.6501036636818
20
-1.17678625476444
30
0
41
1
10
26.581219302369
20
-1.16895629824884
30
0
41
1
10
26.5468686674217
20
-1.1645862251606
30
0
41
1
10
26.4783421793491
20
-1.15492555623243
30
0
41
1
10
26.4441743394954
20
-1.14962830970683
30
0
41
1
10
26.3416292116686
20
-1.1325119788244
30
0
41
1
10
26.2732342905105
20
-1.11947281522808
30
0
41
1
10
26.1364911183842
20
-1.09019381406409
30
0
41
1
10
26.0681310118163
20
-1.07395588197633
30
0
41
1
10
25.931303585834
20
-1.03843828737132
30
0
41
1
10
25.8628316520218
20
-1.01916915506797
30
0
41
1
10
25.7258965281748
20
-0.97746520947959
30
0
41
1
10
25.6574631792976
20
-0.954996745154858
30
0
41
1
10
25.5548514495989
20
-0.918755488034009
30
0
41
1
10
25.5206294537815
20
-0.906277815141181
30
0
41
1
10
25.4519756666931
20
-0.880743407346756
30
0
41
1
10
25.4175633701341
20
-0.867664669245556
30
0
41
1
10
25.348587749731
20
-0.840865168685781
30
0
41
1
10
25.314026293212
20
-0.827141535694096
30
0
41
1
10
25.2447499000717
20
-0.799053635512536
30
0
41
1
10
25.2100912756263
20
-0.784711889050669
30
0
41
1
10
25.1063587263059
20
-0.740976110589799
30
0
41
1
10
25.0373773462143
20
-0.710846737019494
30
0
41
1
10
24.8997837099717
20
-0.648642629759081
30
0
41
1
10
24.8311863943612
20
-0.616546016566048
30
0
41
1
10
24.6945547656966
20
-0.550071894855478
30
0
41
1
10
24.6265562499127
20
-0.515622663196098
30
0
41
1
10
24.4901347595924
20
-0.446064978284198
30
0
41
1
10
24.421829491299
20
-0.41076931968405
30
0
41
1
10
24.2850538703347
20
-0.339130350136628
30
0
41
1
10
24.2165614116272
20
-0.302824655886724
30
0
41
1
10
24.0792804699985
20
-0.229402679353001
30
0
41
1
10
24.0105012728948
20
-0.192272354516547
30
0
41
1
10
23.907240800455
20
-0.135700270380312
30
0
41
1
10
23.8728073388741
20
-0.116692328030297
30
0
41
1
10
23.8039150019587
20
-0.0783609957513534
30
0
41
1
10
23.7694650489683
20
-0.0590180805095315
30
0
41
1
10
23.665823453981
20
-0.0010034140431401
30
0
41
1
10
23.5968262934405
20
0.0372409678679162
30
0
41
1
10
23.459130382686
20
0.113130777879803
30
0
41
1
10
23.3904240011258
20
0.150759057359124
30
0
41
1
10
23.2531618838782
20
0.225165158675566
30
0
41
1
10
23.1845979716336
20
0.261930035591462
30
0
41
1
10
23.0477174352607
20
0.334793606185315
30
0
41
1
10
22.9794275956305
20
0.370939635572853
30
0
41
1
10
22.877242797965
20
0.424738253623161
30
0
41
1
10
22.8432123774528
20
0.442581547660325
30
0
41
1
10
22.7750060650823
20
0.477731726623631
30
0
41
1
10
22.7408480951254
20
0.495070330982827
30
0
41
1
10
22.638238624481
20
0.546432098705765
30
0
41
1
10
22.5696681355122
20
0.579828987936054
30
0
41
1
10
22.4321218390589
20
0.644812711156334
30
0
41
1
10
22.3631224982192
20
0.676362085040893
30
0
41
1
10
22.25928632172
20
0.722267637267322
30
0
41
1
10
22.2245821563535
20
0.737354367420835
30
0
41
1
10
22.1552816916225
20
0.767007272722253
30
0
41
1
10
22.1207213619839
20
0.781558021491207
30
0
41
1
10
22.0173395957838
20
0.824413846072588
30
0
41
1
10
21.9488863990893
20
0.851994739987816
30
0
41
1
10
21.8118423957763
20
0.903759691314974
30
0
41
1
10
21.7433465672928
20
0.928094660832954
30
0
41
1
10
21.6064450098442
20
0.97381644655681
30
0
41
1
10
21.5380188804156
20
0.995176618755295
30
0
41
1
10
21.4011182927389
20
1.03484045556661
30
0
41
1
10
21.3326505602937
20
1.05315703174921
30
0
41
1
10
21.2300423674526
20
1.07842703906479
30
0
41
1
10
21.1958563645877
20
1.08648239883513
30
0
41
1
10
21.1275295152694
20
1.10184537794879
30
0
41
1
10
21.0933972677826
20
1.10915731864816
30
0
41
1
10
20.990860032431
20
1.12979580807726
30
0
41
1
10
20.9221900595612
20
1.14175405771434
30
0
41
1
10
20.8187904937514
20
1.15707882728068
30
0
41
1
10
20.7842576097958
20
1.16174989109734
30
0
41
1
10
20.7150470286975
20
1.17021010506593
30
0
41
1
10
20.6803277989492
20
1.17400240159441
30
0
41
1
10
20.5763825030038
20
1.18399840352555
30
0
41
1
10
20.5072786987114
20
1.18884053056513
30
0
41
1
10
20.3794659867492
20
1.19452840941668
30
0
41
1
10
20.3207108727272
20
1.1958510127501
30
0
41
1
10
20.2621704676341
20
1.19584182739544
30
0
0
SPLINE
5
C9
100
AcDbEntity
8
1
62
256
6
ByLayer
370
18
48
1
60
0
100
AcDbSpline
70
4
71
3
72
122
73
118
40
0
40
0
40
0
40
0
40
0.0063604060275961
40
0.0063604060275961
40
0.0300930805589774
40
0.0300930805589774
40
0.0538257550903583
40
0.0538257550903583
40
0.0656920923560483
40
0.0656920923560483
40
0.077558429621738
40
0.077558429621738
40
0.0894247668874279
40
0.0894247668874279
40
0.101291104153118
40
0.101291104153118
40
0.125023778684495
40
0.125023778684495
40
0.148756453215872
40
0.148756453215872
40
0.160622790481562
40
0.160622790481562
40
0.172489127747252
40
0.172489127747252
40
0.196221802278632
40
0.196221802278632
40
0.219954476810011
40
0.219954476810011
40
0.243687151341391
40
0.243687151341391
40
0.25555348860708
40
0.25555348860708
40
0.26741982587277
40
0.26741982587277
40
0.27928616313846
40
0.27928616313846
40
0.29115250040415
40
0.29115250040415
40
0.314885174935527
40
0.314885174935527
40
0.338617849466905
40
0.338617849466905
40
0.362350523998282
40
0.362350523998282
40
0.374216861263971
40
0.374216861263971
40
0.38608319852966
40
0.38608319852966
40
0.433548547592411
40
0.433548547592411
40
0.445414884858099
40
0.445414884858099
40
0.457281222123787
40
0.457281222123787
40
0.469147559389474
40
0.469147559389474
40
0.481013896655162
40
0.481013896655162
40
0.504746571186538
40
0.504746571186538
40
0.528479245717914
40
0.528479245717914
40
0.55221192024929
40
0.55221192024929
40
0.575944594780665
40
0.575944594780665
40
0.587810932046354
40
0.587810932046354
40
0.599677269312043
40
0.599677269312043
40
0.611543606577731
40
0.611543606577731
40
0.62340994384342
40
0.62340994384342
40
0.647142618374797
40
0.647142618374797
40
0.670875292906175
40
0.670875292906175
40
0.682741630171863
40
0.682741630171863
40
0.694607967437551
40
0.694607967437551
40
0.718340641968927
40
0.718340641968927
40
0.742073316500302
40
0.742073316500302
40
0.765805991031678
40
0.765805991031678
40
0.777672328297367
40
0.777672328297367
40
0.789538665563056
40
0.789538665563056
40
0.801405002828744
40
0.801405002828744
40
0.813271340094433
40
0.813271340094433
40
0.837004014625809
40
0.837004014625809
40
0.860736689157185
40
0.860736689157185
40
0.884469363688561
40
0.884469363688561
40
0.896335700954248
40
0.896335700954248
40
0.908202038219936
40
0.908202038219936
40
0.931934712751312
40
0.931934712751312
40
0.955667387282688
40
0.955667387282688
40
0.967533724548375
40
0.967533724548375
40
0.979400061814063
40
0.979400061814063
40
0.991266399079751
40
0.991266399079751
40
1
40
1
40
1
40
1
41
1
10
15.3458069394416
20
-0.769885485558206
30
0
41
1
10
15.3274708786664
20
-0.777576312547325
30
0
41
1
10
15.3091314702984
20
-0.785180109681221
30
0
41
1
10
15.222340884112
20
-0.820738466539041
30
0
41
1
10
15.1538142139892
20
-0.847531095432458
30
0
41
1
10
15.0166715077706
20
-0.898705774513047
30
0
41
1
10
14.9480739807823
20
-0.923112665234555
30
0
41
1
10
14.8452259348591
20
-0.957972632921042
30
0
41
1
10
14.8109583452323
20
-0.969306046875658
30
0
41
1
10
14.742271808029
20
-0.991185428446101
30
0
41
1
10
14.7078348850463
20
-1.00171370707983
30
0
41
1
10
14.6387873664655
20
-1.02196946972359
30
0
41
1
10
14.6041585019709
20
-1.03170475718341
30
0
41
1
10
14.5348302106394
20
-1.05036602083274
30
0
41
1
10
14.5002188334217
20
-1.05926658175318
30
0
41
1
10
14.3965221102914
20
-1.0846844390154
30
0
41
1
10
14.3275598193499
20
-1.09990811779164
30
0
41
1
10
14.1899219338903
20
-1.12696917265885
30
0
41
1
10
14.1212590286833
20
-1.13882124075371
30
0
41
1
10
14.0186252324624
20
-1.15411989886019
30
0
41
1
10
13.9844787017096
20
-1.15880622270365
30
0
41
1
10
13.9162900843102
20
-1.167321282747
30
0
41
1
10
13.8822450697603
20
-1.17114612294645
30
0
41
1
10
13.7799451109976
20
-1.1812157994664
30
0
41
1
10
13.7116038366949
20
-1.18609963459068
30
0
41
1
10
13.5747349291538
20
-1.19232274168181
30
0
41
1
10
13.5061917165689
20
-1.19365313436106
30
0
41
1
10
13.368764012563
20
-1.19276324535454
30
0
41
1
10
13.2998793774306
20
-1.19055096094402
30
0
41
1
10
13.1963959699549
20
-1.18451026112658
30
0
41
1
10
13.1618763685824
20
-1.18204125857477
30
0
41
1
10
13.0928033232613
20
-1.17615985293469
30
0
41
1
10
13.0582155174398
20
-1.17273916061529
30
0
41
1
10
12.9891514556197
20
-1.16496517436485
30
0
41
1
10
12.9546767653355
20
-1.16062891615241
30
0
41
1
10
12.885740542369
20
-1.15112581178892
30
0
41
1
10
12.85129379411
20
-1.14595352411683
30
0
41
1
10
12.7480448751089
20
-1.12918933187578
30
0
41
1
10
12.6793379100133
20
-1.11634679680134
30
0
41
1
10
12.5420640139207
20
-1.08748674096211
30
0
41
1
10
12.4734771408414
20
-1.07148755448557
30
0
41
1
10
12.3364604250942
20
-1.03633641868476
30
0
41
1
10
12.2680473106617
20
-1.01717208744392
30
0
41
1
10
12.165677686432
20
-0.985858211499391
30
0
41
1
10
12.1316035431252
20
-0.974981300694452
30
0
41
1
10
12.0633972142464
20
-0.952503103990296
30
0
41
1
10
12.0292373122509
20
-0.940934125314669
30
0
41
1
10
11.8581481439481
20
-0.881481465010893
30
0
41
1
10
11.7205275653489
20
-0.828589518288283
30
0
41
1
10
11.5472063449606
20
-0.75630018633791
30
0
41
1
10
11.5124384141165
20
-0.74151014483229
30
0
41
1
10
11.4431004336011
20
-0.711394418801831
30
0
41
1
10
11.4085118025905
20
-0.69606046633325
30
0
41
1
10
11.3395145952416
20
-0.664808066383841
30
0
41
1
10
11.3051103604927
20
-0.648882559424038
30
0
41
1
10
11.2364755808484
20
-0.616452175242557
30
0
41
1
10
11.2022492539385
20
-0.599939500706085
30
0
41
1
10
11.0995168585886
20
-0.550045549094364
30
0
41
1
10
11.0310121633705
20
-0.516224549120494
30
0
41
1
10
10.8940703203355
20
-0.447341720463271
30
0
41
1
10
10.8256198980957
20
-0.412300253846553
30
0
41
1
10
10.6886352180679
20
-0.341251501538721
30
0
41
1
10
10.6200980067394
20
-0.305251749427413
30
0
41
1
10
10.4830656721394
20
-0.232055202628402
30
0
41
1
10
10.4146052912097
20
-0.194793850765251
30
0
41
1
10
10.3119514663851
20
-0.137947912714168
30
0
41
1
10
10.2777048968894
20
-0.118904381408413
30
0
41
1
10
10.2090114431395
20
-0.0808990792617976
30
0
41
1
10
10.1745830179668
20
-0.0619030707855472
30
0
41
1
10
10.1055829531809
20
-0.0238880408234365
30
0
41
1
10
10.0710125153128
20
-0.0048665638141756
30
0
41
1
10
10.0017225236158
20
0.0331886353876882
30
0
41
1
10
9.96698673121978
20
0.0522310377677115
30
0
41
1
10
9.86305585205923
20
0.10903850591157
30
0
41
1
10
9.79394892116909
20
0.146545523501715
30
0
41
1
10
9.65613081433426
20
0.220930505634897
30
0
41
1
10
9.58743533434185
20
0.257839169699167
30
0
41
1
10
9.4848291551094
20
0.312968443957288
30
0
41
1
10
9.45070726202511
20
0.331317750812673
30
0
41
1
10
9.38249167277687
20
0.367720534716341
30
0
41
1
10
9.34836576023881
20
0.385717264464432
30
0
41
1
10
9.24589992003496
20
0.43904575037854
30
0
41
1
10
9.1775128612681
20
0.473789102178444
30
0
41
1
10
9.04059417630486
20
0.541698901556089
30
0
41
1
10
8.97204023266372
20
0.574826908699606
30
0
41
1
10
8.83467058725734
20
0.639315668137215
30
0
41
1
10
8.76586526752595
20
0.670695952605854
30
0
41
1
10
8.66259450871544
20
0.716623538385846
30
0
41
1
10
8.62816340769439
20
0.731746015366326
30
0
41
1
10
8.55927854387252
20
0.761593804438405
30
0
41
1
10
8.52483354907008
20
0.776331066505207
30
0
41
1
10
8.45572519717911
20
0.805109376298788
30
0
41
1
10
8.42108057530095
20
0.819145125445544
30
0
41
1
10
8.35194945901253
20
0.846421906647265
30
0
41
1
10
8.31742123854605
20
0.859684256267002
30
0
41
1
10
8.21395308632165
20
0.898374811282906
30
0
41
1
10
8.14512637223709
20
0.922701234949216
30
0
41
1
10
8.00764084993034
20
0.968345630570781
30
0
41
1
10
7.93897706712815
20
0.989664491907519
30
0
41
1
10
7.80193157277046
20
1.02943897032486
30
0
41
1
10
7.73357991720826
20
1.047920878127
30
0
41
1
10
7.63130225576509
20
1.07343269293889
30
0
41
1
10
7.59722623884903
20
1.08154433857842
30
0
41
1
10
7.528936033869
20
1.09685519265611
30
0
41
1
10
7.49474117067001
20
1.10407147764164
30
0
41
1
10
7.39203686246083
20
1.12444111314542
30
0
41
1
10
7.32342066584994
20
1.1363233158481
30
0
41
1
10
7.18580802040876
20
1.15665788183748
30
0
41
1
10
7.11678937336268
20
1.16510195581716
30
0
41
1
10
7.01295918544594
20
1.17516512187018
30
0
41
1
10
6.978301897725
20
1.17808622753125
30
0
41
1
10
6.90891267034587
20
1.18304940616153
30
0
41
1
10
6.87425936331306
20
1.18508501799673
30
0
41
1
10
6.80521243922527
20
1.18824576090313
30
0
41
1
10
6.77080172301524
20
1.18937188585377
30
0
41
1
10
6.71116613234759
20
1.19051998036068
30
0
41
1
10
6.68589577158116
20
1.19075423754507
30
0
41
1
10
6.66062832082514
20
1.19074098988139
30
0
0
SPLINE
5
CA
100
AcDbEntity
8
1
62
256
6
ByLayer
370
18
48
1
60
0
100
AcDbSpline
70
4
71
3
72
119
73
115
40
0
40
0
40
0
40
0
40
0.0060862197397647
40
0.0060862197397647
40
0.0179734341169947
40
0.0179734341169947
40
0.0417478628714532
40
0.0417478628714532
40
0.0655222916259115
40
0.0655222916259115
40
0.0892967203803699
40
0.0892967203803699
40
0.101183934757598
40
0.101183934757598
40
0.113071149134826
40
0.113071149134826
40
0.124958363512055
40
0.124958363512055
40
0.136845577889283
40
0.136845577889283
40
0.160620006643739
40
0.160620006643739
40
0.184394435398196
40
0.196281649775424
40
0.196281649775424
40
0.208168864152652
40
0.208168864152652
40
0.22005607852988
40
0.22005607852988
40
0.231943292907109
40
0.231943292907109
40
0.255717721661563
40
0.255717721661563
40
0.279492150416018
40
0.279492150416018
40
0.303266579170473
40
0.303266579170473
40
0.315153793547699
40
0.315153793547699
40
0.327041007924926
40
0.327041007924926
40
0.350815436679378
40
0.350815436679378
40
0.374589865433831
40
0.374589865433831
40
0.398364294188284
40
0.398364294188284
40
0.410251508565511
40
0.410251508565511
40
0.422138722942737
40
0.422138722942737
40
0.44591315169719
40
0.44591315169719
40
0.457800366074415
40
0.457800366074415
40
0.469687580451641
40
0.469687580451641
40
0.493462009206092
40
0.493462009206092
40
0.505349223583318
40
0.505349223583318
40
0.517236437960545
40
0.517236437960545
40
0.529123652337771
40
0.529123652337771
40
0.541010866714998
40
0.541010866714998
40
0.564785295469451
40
0.564785295469451
40
0.588559724223904
40
0.588559724223904
40
0.612334152978356
40
0.612334152978356
40
0.636108581732809
40
0.636108581732809
40
0.647995796110036
40
0.647995796110036
40
0.659883010487262
40
0.659883010487262
40
0.683657439241715
40
0.683657439241715
40
0.707431867996168
40
0.707431867996168
40
0.719319082373394
40
0.719319082373394
40
0.731206296750621
40
0.731206296750621
40
0.754980725505072
40
0.754980725505072
40
0.778755154259523
40
0.778755154259523
40
0.802529583013974
40
0.802529583013974
40
0.8144167973912
40
0.8144167973912
40
0.826304011768425
40
0.826304011768425
40
0.83819122614565
40
0.83819122614565
40
0.850078440522876
40
0.850078440522876
40
0.873852869277327
40
0.873852869277327
40
0.897627298031778
40
0.897627298031778
40
0.921401726786229
40
0.921401726786229
40
0.94517615554068
40
0.94517615554068
40
0.968950584295131
40
0.968950584295131
40
0.992725013049582
40
0.992725013049582
40
1
40
1
40
1
40
1
41
1
10
8.53787633863902
20
0.776250146970426
30
0
41
1
10
8.55529780217074
20
0.783718844028726
30
0
41
1
10
8.57271226691228
20
0.791108738605715
30
0
41
1
10
8.62416647937457
20
0.812632205616097
30
0
41
1
10
8.65824951356672
20
0.826457545251685
30
0
41
1
10
8.76075895232913
20
0.866613714577227
30
0
41
1
10
8.82938598848267
20
0.891717152244922
30
0
41
1
10
8.96679128426339
20
0.939246256620663
30
0
41
1
10
9.03553857074655
20
0.961704518617324
30
0
41
1
10
9.17290583854486
20
1.00416580763388
30
0
41
1
10
9.2415681884975
20
1.02411795823284
30
0
41
1
10
9.34459268760924
20
1.0519468189409
30
0
41
1
10
9.37893312471078
20
1.06087846503129
30
0
41
1
10
9.4476389969808
20
1.07800171817016
30
0
41
1
10
9.48202200140761
20
1.08617571751461
30
0
41
1
10
9.55108045290825
20
1.10156106611586
30
0
41
1
10
9.58569091935121
20
1.10874739010049
30
0
41
1
10
9.65487689143913
20
1.12214617895276
30
0
41
1
10
9.68947628576402
20
1.12836683355567
30
0
41
1
10
9.79322052222486
20
1.14569289945214
30
0
41
1
10
9.86231021137007
20
1.15547559028502
30
0
41
1
10
9.99992694574675
20
1.17174027343847
30
0
41
1
10
10.1027483474815
20
1.18142687876531
30
0
41
1
10
10.2050984623527
20
1.18716503983563
30
0
41
1
10
10.2732245601555
20
1.1900920145109
30
0
41
1
10
10.3072180335168
20
1.19110651767835
30
0
41
1
10
10.3751941765839
20
1.19220530979075
30
0
41
1
10
10.4091959985147
20
1.19228739469861
30
0
41
1
10
10.4774363859569
20
1.19154490918254
30
0
41
1
10
10.5116605352444
20
1.19072365703192
30
0
41
1
10
10.6145678046884
20
1.18695838975
30
0
41
1
10
10.6834856182093
20
1.18272544673431
30
0
41
1
10
10.8215153092021
20
1.17077493084909
30
0
41
1
10
10.8905876852205
20
1.16303260017426
30
0
41
1
10
11.0288750194718
20
1.14382033915098
30
0
41
1
10
11.0982390763102
20
1.13232918935247
30
0
41
1
10
11.2014198348204
20
1.11233948126969
30
0
41
1
10
11.2356891513162
20
1.10520005851734
30
0
41
1
10
11.3042041024007
20
1.09012902510844
30
0
41
1
10
11.3384673515742
20
1.08221225269782
30
0
41
1
10
11.4414298047363
20
1.05749950235329
30
0
41
1
10
11.5102324606864
20
1.03970165174152
30
0
41
1
10
11.6477520645114
20
1.00127490972821
30
0
41
1
10
11.7164410149881
20
0.980614543973275
30
0
41
1
10
11.8534287722804
20
0.936082982028381
30
0
41
1
10
11.9217703714053
20
0.912251625441769
30
0
41
1
10
12.024115659787
20
0.874126995992953
30
0
41
1
10
12.0581992639267
20
0.861017770660339
30
0
41
1
10
12.1263112808733
20
0.833983807256743
30
0
41
1
10
12.160351908913
20
0.82007229003159
30
0
41
1
10
12.2627860955558
20
0.777642440024806
30
0
41
1
10
12.3315922987564
20
0.748589396432578
30
0
41
1
10
12.4353353763514
20
0.703654788221826
30
0
41
1
10
12.4700011929891
20
0.688442540945033
30
0
41
1
10
12.5394484895701
20
0.657466279721888
30
0
41
1
10
12.5742698045851
20
0.641682887428601
30
0
41
1
10
12.6785219679122
20
0.593496556408184
30
0
41
1
10
12.7476358672537
20
0.560329424450032
30
0
41
1
10
12.8507984516269
20
0.509123632533942
30
0
41
1
10
12.8851017593347
20
0.491813378842608
30
0
41
1
10
12.9535368303896
20
0.456700725643941
30
0
41
1
10
12.9876552478829
20
0.438874925111463
30
0
41
1
10
13.0557912751109
20
0.402850257633815
30
0
41
1
10
13.0898284591019
20
0.384685236253034
30
0
41
1
10
13.1580647362173
20
0.348449292957639
30
0
41
1
10
13.1922556109615
20
0.330364694172459
30
0
41
1
10
13.2949730152275
20
0.276093752338852
30
0
41
1
10
13.3636447222017
20
0.239893520610877
30
0
41
1
10
13.5009468440053
20
0.166702000667072
30
0
41
1
10
13.5695356917351
20
0.12963254138532
30
0
41
1
10
13.7065779531037
20
0.0544941532614871
30
0
41
1
10
13.7750577855288
20
0.0164741439566853
30
0
41
1
10
13.9119748688703
20
-0.0604396988694589
30
0
41
1
10
13.9803440550669
20
-0.0994730740059708
30
0
41
1
10
14.0839551359084
20
-0.156598923624756
30
0
41
1
10
14.1186801622143
20
-0.175484883826044
30
0
41
1
10
14.1880767072685
20
-0.212842359930391
30
0
41
1
10
14.2227606998171
20
-0.231321761522906
30
0
41
1
10
14.3266945375802
20
-0.28632563478476
30
0
41
1
10
14.3958044917479
20
-0.322460883831354
30
0
41
1
10
14.5333828999067
20
-0.394173865104591
30
0
41
1
10
14.60189356759
20
-0.429670169899964
30
0
41
1
10
14.7042998173187
20
-0.482226259530364
30
0
41
1
10
14.7383729466187
20
-0.499634178305911
30
0
41
1
10
14.8063926807078
20
-0.534220377401624
30
0
41
1
10
14.8403435541952
20
-0.551389789504242
30
0
41
1
10
14.942378316
20
-0.601935948466291
30
0
41
1
10
15.0107660517469
20
-0.634163630551569
30
0
41
1
10
15.1480336501058
20
-0.696188769894377
30
0
41
1
10
15.2168858165965
20
-0.726031769439345
30
0
41
1
10
15.354595022898
20
-0.784018564145811
30
0
41
1
10
15.4234498582651
20
-0.812158162016999
30
0
41
1
10
15.5268234391911
20
-0.852880549107255
30
0
41
1
10
15.5612976052137
20
-0.866205339186763
30
0
41
1
10
15.6302812210765
20
-0.892336331927652
30
0
41
1
10
15.6648150176677
20
-0.905165487239742
30
0
41
1
10
15.7336159619987
20
-0.930101740647075
30
0
41
1
10
15.7679385255992
20
-0.942194973003524
30
0
41
1
10
15.8366610726618
20
-0.965381983003397
30
0
41
1
10
15.8710643526515
20
-0.976476202387687
30
0
41
1
10
15.9743328862988
20
-1.00840987362156
30
0
41
1
10
16.0432572338309
20
-1.02791196955283
30
0
41
1
10
16.1808443571476
20
-1.06390398140886
30
0
41
1
10
16.2494650796191
20
-1.08042100588324
30
0
41
1
10
16.3863098238213
20
-1.11044016246547
30
0
41
1
10
16.454563478552
20
-1.12391847609561
30
0
41
1
10
16.5907651249636
20
-1.1476283866447
30
0
41
1
10
16.6586092805621
20
-1.15787572912228
30
0
41
1
10
16.7953830780869
20
-1.17441576375387
30
0
41
1
10
16.8642266066547
20
-1.18079978310396
30
0
41
1
10
17.0024034522051
20
-1.1900983791345
30
0
41
1
10
17.0717184786327
20
-1.19301521719623
30
0
41
1
10
17.1623397091182
20
-1.19450440561155
30
0
41
1
10
17.1835803668824
20
-1.19468487566618
30
0
41
1
10
17.2047916489875
20
-1.19469488759259
30
0
0
SPLINE
5
CB
100
AcDbEntity
8
1
62
256
6
ByLayer
370
18
48
1
60
0
100
AcDbSpline
70
4
71
3
72
121
73
117
40
0
40
0
40
0
40
0
40
0.0173421641971723
40
0.0173421641971723
40
0.0410985196539069
40
0.0410985196539069
40
0.0648548751106419
40
0.0648548751106419
40
0.076733052839009
40
0.076733052839009
40
0.0886112305673765
40
0.0886112305673765
40
0.100489408295744
40
0.100489408295744
40
0.112367586024111
40
0.124245763752479
40
0.124245763752479
40
0.136123941480846
40
0.136123941480846
40
0.159880296937581
40
0.159880296937581
40
0.183636652394315
40
0.183636652394315
40
0.195514830122682
40
0.195514830122682
40
0.207393007851048
40
0.207393007851048
40
0.231149363307783
40
0.231149363307783
40
0.254905718764517
40
0.254905718764517
40
0.278662074221252
40
0.278662074221252
40
0.290540251949621
40
0.290540251949621
40
0.302418429677989
40
0.302418429677989
40
0.314296607406357
40
0.314296607406357
40
0.326174785134726
40
0.326174785134726
40
0.34993114059146
40
0.34993114059146
40
0.373687496048195
40
0.373687496048195
40
0.385565673776562
40
0.385565673776562
40
0.39744385150493
40
0.39744385150493
40
0.409322029233297
40
0.409322029233297
40
0.421200206961664
40
0.421200206961664
40
0.444956562418397
40
0.444956562418397
40
0.468712917875131
40
0.468712917875131
40
0.480591095603498
40
0.480591095603498
40
0.492469273331865
40
0.492469273331865
40
0.504347451060233
40
0.504347451060233
40
0.5162256287886
40
0.5162256287886
40
0.539981984245337
40
0.539981984245337
40
0.563738339702073
40
0.563738339702073
40
0.58749469515881
40
0.58749469515881
40
0.599372872887178
40
0.599372872887178
40
0.611251050615545
40
0.611251050615545
40
0.63500740607228
40
0.63500740607228
40
0.658763761529014
40
0.658763761529014
40
0.682520116985749
40
0.682520116985749
40
0.694398294714116
40
0.694398294714116
40
0.706276472442484
40
0.706276472442484
40
0.718154650170851
40
0.718154650170851
40
0.730032827899218
40
0.730032827899218
40
0.753789183355951
40
0.753789183355951
40
0.777545538812684
40
0.777545538812684
40
0.801301894269417
40
0.801301894269417
40
0.82505824972615
40
0.82505824972615
40
0.836936427454518
40
0.836936427454518
40
0.848814605182885
40
0.848814605182885
40
0.87257096063962
40
0.87257096063962
40
0.896327316096355
40
0.896327316096355
40
0.908205493824722
40
0.908205493824722
40
0.920083671553089
40
0.920083671553089
40
0.943840027009824
40
0.943840027009824
40
0.967596382466559
40
0.967596382466559
40
0.991352737923293
40
0.991352737923293
40
1
40
1
40
1
40
1
41
1
10
22.1400638288319
20
0.781515340661059
30
0
41
1
10
22.1900853730909
20
0.802491357484655
30
0
41
1
10
22.2401975197427
20
0.822587765724819
30
0
41
1
10
22.3589866491972
20
0.868484692162525
30
0
41
1
10
22.4276651403722
20
0.893657266808162
30
0
41
1
10
22.5646661687136
20
0.941741961409377
30
0
41
1
10
22.6330227093744
20
0.96460325527417
30
0
41
1
10
22.7354206424335
20
0.996939788822033
30
0
41
1
10
22.769529272484
20
1.00739400064143
30
0
41
1
10
22.8376976722971
20
1.02763244282573
30
0
41
1
10
22.8717390994522
20
1.03743234971353
30
0
41
1
10
22.9399311469492
20
1.05619504294668
30
0
41
1
10
22.9740997394837
20
1.06514192374624
30
0
41
1
10
23.0427348110184
20
1.08205849537907
30
0
41
1
10
23.1116276750686
20
1.0980363378651
30
0
41
1
10
23.18092843627
20
1.11226905511697
30
0
41
1
10
23.2503795676591
20
1.12567528751438
30
0
41
1
10
23.2852105738356
20
1.13196959456195
30
0
41
1
10
23.389350906909
20
1.1495709070025
30
0
41
1
10
23.4584172810009
20
1.15964187000802
30
0
41
1
10
23.5958893672317
20
1.17634160133412
30
0
41
1
10
23.6643092462415
20
1.18296664861609
30
0
41
1
10
23.7664602033654
20
1.19020848107817
30
0
41
1
10
23.8004327392609
20
1.19216828073831
30
0
41
1
10
23.8684633942956
20
1.19514068151241
30
0
41
1
10
23.9025397680062
20
1.19615389822332
30
0
41
1
10
24.0049978229548
20
1.19783775206648
30
0
41
1
10
24.07356503668
20
1.19717169827663
30
0
41
1
10
24.2108004840753
20
1.19240579571263
30
0
41
1
10
24.2794344100435
20
1.18829495389889
30
0
41
1
10
24.4165583513957
20
1.17645403948907
30
0
41
1
10
24.4850889033093
20
1.16872908995995
30
0
41
1
10
24.5878966566487
20
1.15429319761972
30
0
41
1
10
24.6221584441942
20
1.14900085159368
30
0
41
1
10
24.690718421591
20
1.13744715273563
30
0
41
1
10
24.725036831122
20
1.13119428716558
30
0
41
1
10
24.7939820221931
20
1.11789075960556
30
0
41
1
10
24.8286128290197
20
1.11084868943644
30
0
41
1
10
24.8977905581725
20
1.09606772769951
30
0
41
1
10
24.9323823300929
20
1.08831970475387
30
0
41
1
10
25.0360924440533
20
1.06398403674001
30
0
41
1
10
25.1051421821241
20
1.04631106907161
30
0
41
1
10
25.2426561967631
20
1.0077198974497
30
0
41
1
10
25.3111472708501
20
0.98681607415665
30
0
41
1
10
25.4135577888133
20
0.953053143594929
30
0
41
1
10
25.4476396254428
20
0.941396950012034
30
0
41
1
10
25.5156907022219
20
0.917261378529247
30
0
41
1
10
25.5496422082926
20
0.904759502798839
30
0
41
1
10
25.6175535944754
20
0.879062741199192
30
0
41
1
10
25.6515319362098
20
0.865890322607157
30
0
41
1
10
25.7197219295993
20
0.839160458084933
30
0
41
1
10
25.7539155641843
20
0.825582190001313
30
0
41
1
10
25.8567150650823
20
0.784143192066779
30
0
41
1
10
25.9255393536846
20
0.755587407041133
30
0
41
1
10
26.0633416243084
20
0.696030495782793
30
0
41
1
10
26.1322824066989
20
0.664963474888538
30
0
41
1
10
26.2357913473564
20
0.616372810458273
30
0
41
1
10
26.2703140819421
20
0.599849373731359
30
0
41
1
10
26.3394107450029
20
0.566144147658719
30
0
41
1
10
26.3739172081889
20
0.548992202580536
30
0
41
1
10
26.4426442062564
20
0.514179121393994
30
0
41
1
10
26.4768847827563
20
0.49648453448404
30
0
41
1
10
26.5453587936374
20
0.460935758758978
30
0
41
1
10
26.5796100537319
20
0.443113152755984
30
0
41
1
10
26.6825235863334
20
0.389717833139741
30
0
41
1
10
26.7512840065824
20
0.354112092495967
30
0
41
1
10
26.8886959088403
20
0.282184827331861
30
0
41
1
10
26.9573170428702
20
0.245808032808014
30
0
41
1
10
27.0941631811107
20
0.171808467663595
30
0
41
1
10
27.1624300950055
20
0.134260542639083
30
0
41
1
10
27.2646503160637
20
0.0771965309545521
30
0
41
1
10
27.2986884757454
20
0.0580418117015711
30
0
41
1
10
27.3667123421258
20
0.0194946197210299
30
0
41
1
10
27.4007140959818
20
0.0001314194027486
30
0
41
1
10
27.5030418246522
20
-0.0575681190773309
30
0
41
1
10
27.5717725200651
20
-0.0953565133354743
30
0
41
1
10
27.7098986397681
20
-0.170219010561624
30
0
41
1
10
27.7793194007453
20
-0.207336955223042
30
0
41
1
10
27.918230032451
20
-0.281625752870781
30
0
41
1
10
27.9872878904498
20
-0.318523675257524
30
0
41
1
10
28.0903535062556
20
-0.373324986895341
30
0
41
1
10
28.1246220038361
20
-0.391500940044693
30
0
41
1
10
28.1929828510036
20
-0.427666516095428
30
0
41
1
10
28.227059983106
20
-0.445682021649418
30
0
41
1
10
28.29512514897
20
-0.481365899873566
30
0
41
1
10
28.3291326924384
20
-0.4990000404417
30
0
41
1
10
28.3973159720244
20
-0.533501306462227
30
0
41
1
10
28.4314792987501
20
-0.550391232479001
30
0
41
1
10
28.5341096933409
20
-0.600135012670222
30
0
41
1
10
28.6027174025866
20
-0.63206892241007
30
0
41
1
10
28.7398767696198
20
-0.694210227319928
30
0
41
1
10
28.8083876781589
20
-0.724473705965693
30
0
41
1
10
28.9452713204493
20
-0.783308243273552
30
0
41
1
10
29.0136683560426
20
-0.811844127606008
30
0
41
1
10
29.1504055019066
20
-0.866989034184712
30
0
41
1
10
29.2186943766275
20
-0.893641085537979
30
0
41
1
10
29.322181475978
20
-0.930737296177966
30
0
41
1
10
29.356861514273
20
-0.942685516189442
30
0
41
1
10
29.4262196419065
20
-0.96572306635494
30
0
41
1
10
29.4608810475054
20
-0.976808486454246
30
0
41
1
10
29.5647373192955
20
-1.00888720095557
30
0
41
1
10
29.6337809663125
20
-1.02873579070993
30
0
41
1
10
29.7712135207466
20
-1.0655971546949
30
0
41
1
10
29.8396445638474
20
-1.08256124342395
30
0
41
1
10
29.9419216570361
20
-1.10566677292346
30
0
41
1
10
29.9759497885093
20
-1.11298036074186
30
0
41
1
10
30.0438781927444
20
-1.12680792654942
30
0
41
1
10
30.0777860978631
20
-1.13331345415028
30
0
41
1
10
30.1797031425612
20
-1.15138975199829
30
0
41
1
10
30.2480217145676
20
-1.16147732441016
30
0
41
1
10
30.3851399413013
20
-1.17812521927013
30
0
41
1
10
30.4539156168001
20
-1.1846998721054
30
0
41
1
10
30.5914660058942
20
-1.19447257932376
30
0
41
1
10
30.6602418130994
20
-1.19765575126152
30
0
41
1
10
30.7541319548832
20
-1.19952460505203
30
0
41
1
10
30.7791958771012
20
-1.19978304761375
30
0
41
1
10
30.8042684889608
20
-1.19979496867558
30
0
0
LINE
5
7D
100
AcDbEntity
8
80
62
256
6
ByLayer
370
18
48
1
60
0
100
AcDbLine
10
0
20
0
30
0
11
-5
21
0
31
0
39
0
210
0
220
0
230
1
0
LINE
5
7E
100
AcDbEntity
8
4
62
256
6
ByLayer
370
18
48
0.05
60
0
100
AcDbLine
10
-5
20
0
30
0
11
37
21
0
31
0
39
0
210
0
220
0
230
1
0
LINE
5
80
100
AcDbEntity
8
81
62
256
6
ByLayer
370
18
48
1
60
0
100
AcDbLine
10
32
20
0
30
0
11
37
21
0
31
0
39
0
210
0
220
0
230
1
0
LINE
5
81
100
AcDbEntity
8
SK4
62
256
6
ByLayer
370
18
48
0.05
60
0
100
AcDbLine
10
-30
20
0
30
0
11
37
21
0
31
0
39
0
210
0
220
0
230
1
0
LINE
5
83
100
AcDbEntity
8
1
62
256
6
ByLayer
370
18
48
1
60
0
100
AcDbLine
10
0
20
1.2
30
0
11
0
21
-1.2
31
0
39
0
210
0
220
0
230
1
0
LINE
5
84
100
AcDbEntity
8
1
62
256
6
ByLayer
370
18
48
1
60
0
100
AcDbLine
10
31.351071
20
-1.2
30
0
11
31.351071
21
-0.478099
31
0
39
0
210
0
220
0
230
1
0
LINE
5
85
100
AcDbEntity
8
1
62
256
6
ByLayer
370
18
48
1
60
0
100
AcDbLine
10
31.351071
20
1.2
30
0
11
31.351071
21
1.161712
31
0
39
0
210
0
220
0
230
1
0
LINE
5
86
100
AcDbEntity
8
1
62
256
6
ByLayer
370
18
48
1
60
0
100
AcDbLine
10
0.1
20
-1.188281
30
0
11
0.1
21
1.188281
31
0
39
0
210
0
220
0
230
1
0
LINE
5
87
100
AcDbEntity
8
SK1
62
256
6
ByLayer
370
18
48
1
60
0
100
AcDbLine
10
-25
20
-0.9
30
0
11
-25
21
0.9
31
0
39
0
210
0
220
0
230
1
0
LINE
5
89
100
AcDbEntity
8
SK1
62
256
6
ByLayer
370
18
48
1
60
0
100
AcDbLine
10
0
20
1.2
30
0
11
0
21
-1.2
31
0
39
0
210
0
220
0
230
1
0
LINE
5
8A
100
AcDbEntity
8
SK1
62
256
6
ByLayer
370
18
48
1
60
0
100
AcDbLine
10
-24.7
20
-1.2
30
0
11
-24.7
21
1.2
31
0
39
0
210
0
220
0
230
1
0
LINE
5
8B
100
AcDbEntity
8
1
62
256
6
ByLayer
370
18
48
1
60
0
100
AcDbLine
10
32
20
0
30
0
11
31.351071
21
1.2
31
0
39
0
210
0
220
0
230
1
0
LINE
5
8C
100
AcDbEntity
8
1
62
256
6
ByLayer
370
18
48
1
60
0
100
AcDbLine
10
31.351071
20
-1.2
30
0
11
32
21
0
31
0
39
0
210
0
220
0
230
1
0
LINE
5
8D
100
AcDbEntity
8
1
62
256
6
ByLayer
370
18
48
1
60
0
100
AcDbLine
10
0.1
20
1.188281
30
0
11
0
21
1.2
31
0
39
0
210
0
220
0
230
1
0
LINE
5
8E
100
AcDbEntity
8
1
62
256
6
ByLayer
370
18
48
1
60
0
100
AcDbLine
10
0
20
-1.2
30
0
11
0.1
21
-1.188281
31
0
39
0
210
0
220
0
230
1
0
LINE
5
8F
100
AcDbEntity
8
1
62
256
6
ByLayer
370
18
48
1
60
0
100
AcDbLine
10
0.1
20
-1.188281
30
0
11
6.659697
21
-1.190741
31
0
39
0
210
0
220
0
230
1
0
LINE
5
90
100
AcDbEntity
8
1
62
256
6
ByLayer
370
18
48
1
60
0
100
AcDbLine
10
10.402625
20
-1.192144
30
0
11
13.461642
21
-1.193291
31
0
39
0
210
0
220
0
230
1
0
LINE
5
91
100
AcDbEntity
8
1
62
256
6
ByLayer
370
18
48
1
60
0
100
AcDbLine
10
17.204597
20
-1.194695
30
0
11
20.263067
21
-1.195842
31
0
39
0
210
0
220
0
230
1
0
LINE
5
92
100
AcDbEntity
8
1
62
256
6
ByLayer
370
18
48
1
60
0
100
AcDbLine
10
24.000253
20
-1.197243
30
0
11
27.061809
21
-1.198392
31
0
39
0
210
0
220
0
230
1
0
LINE
5
93
100
AcDbEntity
8
1
62
256
6
ByLayer
370
18
48
1
60
0
100
AcDbLine
10
30.803621
20
-1.199795
30
0
11
31.351071
21
-1.2
31
0
39
0
210
0
220
0
230
1
0
LINE
5
94
100
AcDbEntity
8
1
62
256
6
ByLayer
370
18
48
1
60
0
100
AcDbLine
10
31.351071
20
1.2
30
0
11
30.803621
21
1.199795
31
0
39
0
210
0
220
0
230
1
0
LINE
5
95
100
AcDbEntity
8
1
62
256
6
ByLayer
370
18
48
1
60
0
100
AcDbLine
10
27.061809
20
1.198392
30
0
11
24.000253
21
1.197243
31
0
39
0
210
0
220
0
230
1
0
LINE
5
96
100
AcDbEntity
8
1
62
256
6
ByLayer
370
18
48
1
60
0
100
AcDbLine
10
20.263067
20
1.195842
30
0
11
17.204597
21
1.194695
31
0
39
0
210
0
220
0
230
1
0
LINE
5
97
100
AcDbEntity
8
1
62
256
6
ByLayer
370
18
48
1
60
0
100
AcDbLine
10
13.461642
20
1.193291
30
0
11
10.402625
21
1.192144
31
0
39
0
210
0
220
0
230
1
0
LINE
5
98
100
AcDbEntity
8
1
62
256
6
ByLayer
370
18
48
1
60
0
100
AcDbLine
10
6.659697
20
1.190741
30
0
11
0.1
21
1.188281
31
0
39
0
210
0
220
0
230
1
0
LINE
5
99
100
AcDbEntity
8
SK1
62
256
6
ByLayer
370
18
48
1
60
0
100
AcDbLine
10
-25
20
-0.9
30
0
11
-24.7
21
-1.2
31
0
39
0
210
0
220
0
230
1
0
LINE
5
9A
100
AcDbEntity
8
SK1
62
256
6
ByLayer
370
18
48
1
60
0
100
AcDbLine
10
-24.7
20
1.2
30
0
11
-25
21
0.9
31
0
39
0
210
0
220
0
230
1
0
LINE
5
9B
100
AcDbEntity
8
SK1
62
256
6
ByLayer
370
18
48
1
60
0
100
AcDbLine
10
-24.7
20
-1.2
30
0
11
0
21
-1.2
31
0
39
0
210
0
220
0
230
1
0
LINE
5
9C
100
AcDbEntity
8
SK1
62
256
6
ByLayer
370
18
48
1
60
0
100
AcDbLine
10
0
20
1.2
30
0
11
-24.7
21
1.2
31
0
39
0
210
0
220
0
230
1
0
LINE
5
9D
100
AcDbEntity
8
SK2
62
256
6
ByLayer
370
13
48
1
60
0
100
AcDbLine
10
-31.5
20
28.298627
30
0
11
-31.5
21
-8.7
31
0
39
0
210
0
220
0
230
1
0
LINE
5
9F
100
AcDbEntity
8
SK2
62
256
6
ByLayer
370
13
48
1
60
0
100
AcDbLine
10
-26.5875
20
1.2
30
0
11
-33.5
21
1.2
31
0
39
0
210
0
220
0
230
1
0
LINE
5
A0
100
AcDbEntity
8
SK2
62
256
6
ByLayer
370
13
48
1
60
0
100
AcDbLine
10
-26.5875
20
-1.2
30
0
11
-33.5
21
-1.2
31
0
39
0
210
0
220
0
230
1
0
LINE
5
A1
100
AcDbEntity
8
1
62
256
6
ByLayer
370
18
48
1
60
1
100
AcDbLine
10
-31.5
20
1.2
30
0
11
-31.960784
21
4.699998
31
0
39
0
210
0
220
0
230
1
0
LINE
5
A2
100
AcDbEntity
8
1
62
256
6
ByLayer
370
18
48
1
60
1
100
AcDbLine
10
-31.960784
20
4.699998
30
0
11
-31.039216
21
4.700002
31
0
39
0
210
0
220
0
230
1
0
LINE
5
A3
100
AcDbEntity
8
1
62
256
6
ByLayer
370
18
48
1
60
1
100
AcDbLine
10
-31.039216
20
4.700002
30
0
11
-31.5
21
1.2
31
0
39
0
210
0
220
0
230
1
0
LINE
5
A4
100
AcDbEntity
8
1
62
256
6
ByLayer
370
18
48
1
60
1
100
AcDbLine
10
-31.5
20
-1.2
30
0
11
-31.039216
21
-4.699998
31
0
39
0
210
0
220
0
230
1
0
LINE
5
A5
100
AcDbEntity
8
1
62
256
6
ByLayer
370
18
48
1
60
1
100
AcDbLine
10
-31.039216
20
-4.699998
30
0
11
-31.960784
21
-4.700002
31
0
39
0
210
0
220
0
230
1
0
LINE
5
A6
100
AcDbEntity
8
1
62
256
6
ByLayer
370
18
48
1
60
1
100
AcDbLine
10
-31.960784
20
-4.700002
30
0
11
-31.5
21
-1.2
31
0
39
0
210
0
220
0
230
1
0
LINE
5
A7
100
AcDbEntity
8
2
62
256
6
ByLayer
370
13
48
1
60
0
100
AcDbLine
10
40.851071
20
28.298627
30
0
11
40.851071
21
-8.7
31
0
39
0
210
0
220
0
230
1
0
LINE
5
A9
100
AcDbEntity
8
2
62
256
6
ByLayer
370
13
48
1
60
0
100
AcDbLine
10
32.938571
20
1.2
30
0
11
42.851071
21
1.2
31
0
39
0
210
0
220
0
230
1
0
LINE
5
AA
100
AcDbEntity
8
2
62
256
6
ByLayer
370
13
48
1
60
0
100
AcDbLine
10
32.938571
20
-1.2
30
0
11
42.851071
21
-1.2
31
0
39
0
210
0
220
0
230
1
0
LINE
5
AB
100
AcDbEntity
8
1
62
256
6
ByLayer
370
18
48
1
60
1
100
AcDbLine
10
40.851071
20
1.2
30
0
11
40.390287
21
4.699998
31
0
39
0
210
0
220
0
230
1
0
LINE
5
AC
100
AcDbEntity
8
1
62
256
6
ByLayer
370
18
48
1
60
1
100
AcDbLine
10
40.390287
20
4.699998
30
0
11
41.311854
21
4.700002
31
0
39
0
210
0
220
0
230
1
0
LINE
5
AD
100
AcDbEntity
8
1
62
256
6
ByLayer
370
18
48
1
60
1
100
AcDbLine
10
41.311854
20
4.700002
30
0
11
40.851071
21
1.2
31
0
39
0
210
0
220
0
230
1
0
LINE
5
AE
100
AcDbEntity
8
1
62
256
6
ByLayer
370
18
48
1
60
1
100
AcDbLine
10
40.851071
20
-1.2
30
0
11
41.311854
21
-4.699998
31
0
39
0
210
0
220
0
230
1
0
LINE
5
AF
100
AcDbEntity
8
1
62
256
6
ByLayer
370
18
48
1
60
1
100
AcDbLine
10
41.311854
20
-4.699998
30
0
11
40.390287
21
-4.700002
31
0
39
0
210
0
220
0
230
1
0
LINE
5
B0
100
AcDbEntity
8
1
62
256
6
ByLayer
370
18
48
1
60
1
100
AcDbLine
10
40.390287
20
-4.700002
30
0
11
40.851071
21
-1.2
31
0
39
0
210
0
220
0
230
1
0
LINE
5
B1
100
AcDbEntity
8
2
62
256
6
ByLayer
370
13
48
1
60
0
100
AcDbLine
10
32.755136
20
-1.396397
30
0
11
43.416232
21
-21.110889
31
0
39
0
210
0
220
0
230
1
0
LINE
5
B2
100
AcDbEntity
8
2
62
256
6
ByLayer
370
13
48
1
60
0
100
AcDbLine
10
32.755136
20
1.396397
30
0
11
43.416232
21
21.110889
31
0
39
0
210
0
220
0
230
1
0
LINE
5
B3
100
AcDbEntity
8
1
62
256
6
ByLayer
370
18
48
1
60
1
100
AcDbLine
10
42.464879
20
-19.351649
30
0
11
45.239971
21
-17.169637
31
0
39
0
210
0
220
0
230
1
0
LINE
5
B4
100
AcDbEntity
8
1
62
256
6
ByLayer
370
18
48
1
60
1
100
AcDbLine
10
45.239971
20
-17.169637
30
0
11
45.710161
21
-17.962233
31
0
39
0
210
0
220
0
230
1
0
LINE
5
B5
100
AcDbEntity
8
1
62
256
6
ByLayer
370
18
48
1
60
1
100
AcDbLine
10
45.710161
20
-17.962233
30
0
11
42.464879
21
-19.351649
31
0
39
0
210
0
220
0
230
1
0
LINE
5
B6
100
AcDbEntity
8
1
62
256
6
ByLayer
370
18
48
1
60
1
100
AcDbLine
10
42.464879
20
19.351649
30
0
11
45.710158
21
17.962234
31
0
39
0
210
0
220
0
230
1
0
LINE
5
B7
100
AcDbEntity
8
1
62
256
6
ByLayer
370
18
48
1
60
1
100
AcDbLine
10
45.710158
20
17.962234
30
0
11
45.239974
21
17.169635
31
0
39
0
210
0
220
0
230
1
0
LINE
5
B8
100
AcDbEntity
8
1
62
256
6
ByLayer
370
18
48
1
60
1
100
AcDbLine
10
45.239974
20
17.169635
30
0
11
42.464879
21
19.351649
31
0
39
0
210
0
220
0
230
1
0
LINE
5
D0
100
AcDbEntity
8
1
62
256
6
ByLayer
370
18
48
1
60
1
100
AcDbLine
10
-31.5
20
1.2
30
0
11
-31.960784
21
4.699998
31
0
39
0
210
0
220
0
230
1
0
LINE
5
D1
100
AcDbEntity
8
1
62
256
6
ByLayer
370
18
48
1
60
1
100
AcDbLine
10
-31.960784
20
4.699998
30
0
11
-31.039216
21
4.700002
31
0
39
0
210
0
220
0
230
1
0
LINE
5
D2
100
AcDbEntity
8
1
62
256
6
ByLayer
370
18
48
1
60
1
100
AcDbLine
10
-31.039216
20
4.700002
30
0
11
-31.5
21
1.2
31
0
39
0
210
0
220
0
230
1
0
LINE
5
D4
100
AcDbEntity
8
1
62
256
6
ByLayer
370
18
48
1
60
1
100
AcDbLine
10
-31.5
20
-1.2
30
0
11
-31.039216
21
-4.699998
31
0
39
0
210
0
220
0
230
1
0
LINE
5
D5
100
AcDbEntity
8
1
62
256
6
ByLayer
370
18
48
1
60
1
100
AcDbLine
10
-31.039216
20
-4.699998
30
0
11
-31.960784
21
-4.700002
31
0
39
0
210
0
220
0
230
1
0
LINE
5
D6
100
AcDbEntity
8
1
62
256
6
ByLayer
370
18
48
1
60
1
100
AcDbLine
10
-31.960784
20
-4.700002
30
0
11
-31.5
21
-1.2
31
0
39
0
210
0
220
0
230
1
0
LINE
5
DA
100
AcDbEntity
8
1
62
256
6
ByLayer
370
18
48
1
60
1
100
AcDbLine
10
40.851071
20
1.2
30
0
11
40.390287
21
4.699998
31
0
39
0
210
0
220
0
230
1
0
LINE
5
DB
100
AcDbEntity
8
1
62
256
6
ByLayer
370
18
48
1
60
1
100
AcDbLine
10
40.390287
20
4.699998
30
0
11
41.311854
21
4.700002
31
0
39
0
210
0
220
0
230
1
0
LINE
5
DC
100
AcDbEntity
8
1
62
256
6
ByLayer
370
18
48
1
60
1
100
AcDbLine
10
41.311854
20
4.700002
30
0
11
40.851071
21
1.2
31
0
39
0
210
0
220
0
230
1
0
LINE
5
DE
100
AcDbEntity
8
1
62
256
6
ByLayer
370
18
48
1
60
1
100
AcDbLine
10
40.851071
20
-1.2
30
0
11
41.311854
21
-4.699998
31
0
39
0
210
0
220
0
230
1
0
LINE
5
DF
100
AcDbEntity
8
1
62
256
6
ByLayer
370
18
48
1
60
1
100
AcDbLine
10
41.311854
20
-4.699998
30
0
11
40.390287
21
-4.700002
31
0
39
0
210
0
220
0
230
1
0
LINE
5
E0
100
AcDbEntity
8
1
62
256
6
ByLayer
370
18
48
1
60
1
100
AcDbLine
10
40.390287
20
-4.700002
30
0
11
40.851071
21
-1.2
31
0
39
0
210
0
220
0
230
1
0
LINE
5
E3
100
AcDbEntity
8
1
62
256
6
ByLayer
370
18
48
1
60
1
100
AcDbLine
10
42.464879
20
-19.351649
30
0
11
45.239971
21
-17.169637
31
0
39
0
210
0
220
0
230
1
0
LINE
5
E4
100
AcDbEntity
8
1
62
256
6
ByLayer
370
18
48
1
60
1
100
AcDbLine
10
45.239971
20
-17.169637
30
0
11
45.710161
21
-17.962233
31
0
39
0
210
0
220
0
230
1
0
LINE
5
E5
100
AcDbEntity
8
1
62
256
6
ByLayer
370
18
48
1
60
1
100
AcDbLine
10
45.710161
20
-17.962233
30
0
11
42.464879
21
-19.351649
31
0
39
0
210
0
220
0
230
1
0
LINE
5
E7
100
AcDbEntity
8
1
62
256
6
ByLayer
370
18
48
1
60
1
100
AcDbLine
10
42.464879
20
19.351649
30
0
11
45.710158
21
17.962234
31
0
39
0
210
0
220
0
230
1
0
LINE
5
E8
100
AcDbEntity
8
1
62
256
6
ByLayer
370
18
48
1
60
1
100
AcDbLine
10
45.710158
20
17.962234
30
0
11
45.239974
21
17.169635
31
0
39
0
210
0
220
0
230
1
0
LINE
5
E9
100
AcDbEntity
8
1
62
256
6
ByLayer
370
18
48
1
60
1
100
AcDbLine
10
45.239974
20
17.169635
30
0
11
42.464879
21
19.351649
31
0
39
0
210
0
220
0
230
1
0
MTEXT
5
CC
100
AcDbEntity
8
SK2
62
256
6
ByLayer
370
18
48
1
60
0
100
AcDbMText
10
-32.841114
20
12.858437
30
0
210
0
220
0
230
1
1
%%c
40
3
41
0
44
1.084337
50
90
71
7
72
5
7
iso_b_vert
0
MTEXT
5
CF
100
AcDbEntity
8
SK2
62
256
6
ByLayer
370
18
48
1
60
0
100
AcDbMText
10
-32.841114
20
18.835
30
0
210
0
220
0
230
1
1
\W0.7694;2.400
40
3
41
0
44
1.084337
50
90
71
7
72
5
7
iso_b_vert
0
MTEXT
5
D8
100
AcDbEntity
8
2
62
256
6
ByLayer
370
18
48
1
60
0
100
AcDbMText
10
39.509956
20
12.858437
30
0
210
0
220
0
230
1
1
%%c
40
3
41
0
44
1.084337
50
90
71
7
72
5
7
iso_b_vert
0
MTEXT
5
D9
100
AcDbEntity
8
2
62
256
6
ByLayer
370
18
48
1
60
0
100
AcDbMText
10
39.509956
20
18.835
30
0
210
0
220
0
230
1
1
\W0.7694;2.400
40
3
41
0
44
1.084337
50
90
71
7
72
5
7
iso_b_vert
0
MTEXT
5
E2
100
AcDbEntity
8
2
62
256
6
ByLayer
370
18
48
1
60
0
100
AcDbMText
10
51.092229
20
-2.114886
30
0
210
0
220
0
230
1
1
\W0.6008;118%%d
40
3
41
0
44
1.084337
50
0
71
7
72
5
7
iso_b_vert
0
MTEXT
5
EB
100
AcDbEntity
8
SK6
62
256
6
ByLayer
370
18
48
1
60
0
100
AcDbMText
10
-3.540084
20
-67.114886
30
0
210
0
220
0
230
1
1
\W0.7809;R0032.4
40
3
41
0
44
1.084337
50
0
71
7
72
5
7
iso_b_vert
0
HATCH
5
D3
100
AcDbEntity
8
SK2
62
256
6
ByLayer
370
13
48
1
60
0
100
AcDbHatch
10
0
20
0
30
0
210
0
220
0
230
1
2
ANSI31
70
0
71
0
91
1
92
5
93
3
72
1
10
-31.5
20
1.19999999999999
11
-31.9607837415528
21
4.6999983074468
72
1
10
-31.9607837415528
20
4.6999983074468
11
-31.0392162584472
21
4.70000169255317
72
1
10
-31.0392162584472
20
4.70000169255317
11
-31.5
21
1.19999999999999
97
0
75
0
76
1
52
0
41
0.0062
77
0
78
1
53
45
43
0
44
0
45
-0.0139193969876572
46
0.0139193969876572
79
0
47
0
98
1
10
0
20
0
0
HATCH
5
D7
100
AcDbEntity
8
SK2
62
256
6
ByLayer
370
13
48
1
60
0
100
AcDbHatch
10
0
20
0
30
0
210
0
220
0
230
1
2
ANSI31
70
0
71
0
91
1
92
5
93
3
72
1
10
-31.5
20
-1.20000000000002
11
-31.0392162584472
21
-4.69999830744683
72
1
10
-31.0392162584472
20
-4.69999830744683
11
-31.9607837415528
21
-4.7000016925532
72
1
10
-31.9607837415528
20
-4.7000016925532
11
-31.5
21
-1.20000000000002
97
0
75
0
76
1
52
0
41
0.0062
77
0
78
1
53
45
43
0
44
0
45
-0.0139193969876572
46
0.0139193969876572
79
0
47
0
98
1
10
0
20
0
0
HATCH
5
DD
100
AcDbEntity
8
2
62
256
6
ByLayer
370
13
48
1
60
0
100
AcDbHatch
10
0
20
0
30
0
210
0
220
0
230
1
2
ANSI31
70
0
71
0
91
1
92
5
93
3
72
1
10
40.8510705314502
20
1.19999999999999
11
40.3902867898975
21
4.6999983074468
72
1
10
40.3902867898975
20
4.6999983074468
11
41.311854273003
21
4.70000169255317
72
1
10
41.311854273003
20
4.70000169255317
11
40.8510705314502
21
1.19999999999999
97
0
75
0
76
1
52
0
41
0.0062
77
0
78
1
53
45
43
0
44
0
45
-0.0139193969876572
46
0.0139193969876572
79
0
47
0
98
1
10
0
20
0
0
HATCH
5
E1
100
AcDbEntity
8
2
62
256
6
ByLayer
370
13
48
1
60
0
100
AcDbHatch
10
0
20
0
30
0
210
0
220
0
230
1
2
ANSI31
70
0
71
0
91
1
92
5
93
3
72
1
10
40.8510705314502
20
-1.20000000000002
11
41.311854273003
21
-4.69999830744683
72
1
10
41.311854273003
20
-4.69999830744683
11
40.3902867898975
21
-4.7000016925532
72
1
10
40.3902867898975
20
-4.7000016925532
11
40.8510705314502
21
-1.20000000000002
97
0
75
0
76
1
52
0
41
0.0062
77
0
78
1
53
45
43
0
44
0
45
-0.0139193969876572
46
0.0139193969876572
79
0
47
0
98
1
10
0
20
0
0
HATCH
5
E6
100
AcDbEntity
8
2
62
256
6
ByLayer
370
13
48
1
60
0
100
AcDbHatch
10
0
20
0
30
0
210
0
220
0
230
1
2
ANSI31
70
0
71
0
91
1
92
5
93
3
72
1
10
42.464879198752
20
-19.3516485952884
11
45.2399711078382
21
-17.1696369764526
72
1
10
45.2399711078382
20
-17.1696369764526
11
45.7101613929251
21
-17.9622325364572
72
1
10
45.7101613929251
20
-17.9622325364572
11
42.464879198752
21
-19.3516485952884
97
0
75
0
76
1
52
0
41
0.0062
77
0
78
1
53
45
43
0
44
0
45
-0.0139193969876572
46
0.0139193969876572
79
0
47
0
98
1
10
0
20
0
0
HATCH
5
EA
100
AcDbEntity
8
2
62
256
6
ByLayer
370
13
48
1
60
0
100
AcDbHatch
10
0
20
0
30
0
210
0
220
0
230
1
2
ANSI31
70
0
71
0
91
1
92
5
93
3
72
1
10
42.4648791987519
20
19.3516485952884
11
45.7101584815525
21
17.9622342635519
72
1
10
45.7101584815525
20
17.9622342635519
11
45.2399740192105
21
17.169635249358
72
1
10
45.2399740192105
20
17.169635249358
11
42.4648791987519
21
19.3516485952884
97
0
75
0
76
1
52
0
41
0.0062
77
0
78
1
53
45
43
0
44
0
45
-0.0139193969876572
46
0.0139193969876572
79
0
47
0
98
1
10
0
20
0
0
DIMENSION
5
EE
100
AcDbEntity
8
SK2
62
256
6
ByLayer
370
18
48
1
60
0
100
AcDbDimension
2
_U0
10
32
20
-47.239737
30
0
11
3.5
21
-47.239737
31
0
70
32
71
1
72
1
41
1
210
0
220
0
230
1
3
Standard
100
AcDbAlignedDimension
13
-25
23
-1.2
33
0
14
32
24
0
34
0
50
0
100
AcDbRotatedDimension
1001
ACAD
1000
DSTYLE
1002
{
1070
   371
1070
    13
1070
   372
1070
    13
1070
     3
1000

1070
   170
1070
     0
1070
   144
1040
1.0
1070
   277
1070
     2
1070
   284
1070
     8
1070
   278
1070
    46
1070
   146
1040
1.166667
1070
   345
1005
16
1070
   347
1005
16
1070
   346
1005
16
1070
   344
1005
0
1070
   343
1005
0
1070
   172
1070
     1
1070
    76
1070
     0
1070
    75
1070
     0
1070
   282
1070
     0
1070
   281
1070
     0
1070
    71
1070
     0
1070
    74
1070
     0
1070
   279
1070
     0
1070
   173
1070
     1
1070
   340
1005
CD
1070
   271
1070
     2
1070
   272
1070
     3
1070
    77
1070
     1
1070
    73
1070
     1
1070
   171
1070
     3
1070
   274
1070
     4
1070
   177
1070
     2
1070
   176
1070
     2
1070
   178
1070
     2
1070
    78
1070
     8
1070
    48
1040
-0.1
1070
    41
1040
3.5
1070
   147
1040
1.5
1070
    42
1040
1.5875
1070
    44
1040
2.0
1070
   140
1040
3.0
1002
}
1001
ACAD_DSTYLE_DIM_LINETYPE
1070
   380
1005
16
1001
ACAD_DSTYLE_DIM_EXT1_LINETYPE
1070
   381
1005
16
1001
ACAD_DSTYLE_DIM_EXT2_LINETYPE
1070
   382
1005
16
0
DIMENSION
5
107
100
AcDbEntity
8
2
62
256
6
ByLayer
370
18
48
1
60
0
100
AcDbDimension
2
_U1
10
2
20
-37.239737
30
0
11
17
21
-37.239737
31
0
70
32
71
1
72
1
41
1
210
0
220
0
230
1
3
Standard
100
AcDbAlignedDimension
13
32
23
0
33
0
14
2
24
-1.2
34
0
50
0
100
AcDbRotatedDimension
1001
ACAD
1000
DSTYLE
1002
{
1070
   371
1070
    13
1070
   372
1070
    13
1070
     3
1000

1070
   170
1070
     0
1070
   144
1040
1.0
1070
   277
1070
     2
1070
   284
1070
     8
1070
   278
1070
    46
1070
   146
1040
1.166667
1070
   345
1005
16
1070
   347
1005
16
1070
   346
1005
16
1070
   344
1005
0
1070
   343
1005
0
1070
   172
1070
     1
1070
    76
1070
     0
1070
    75
1070
     0
1070
   282
1070
     0
1070
   281
1070
     0
1070
    71
1070
     0
1070
    74
1070
     0
1070
   279
1070
     0
1070
   173
1070
     1
1070
   340
1005
CD
1070
   271
1070
     2
1070
   272
1070
     3
1070
    77
1070
     1
1070
    73
1070
     1
1070
   171
1070
     3
1070
   274
1070
     4
1070
   177
1070
     2
1070
   176
1070
     2
1070
   178
1070
     2
1070
    78
1070
     8
1070
    48
1040
-0.1
1070
    41
1040
3.5
1070
   147
1040
1.5
1070
    42
1040
1.5875
1070
    44
1040
2.0
1070
   140
1040
3.0
1002
}
1001
ACAD_DSTYLE_DIM_LINETYPE
1070
   380
1005
16
1001
ACAD_DSTYLE_DIM_EXT1_LINETYPE
1070
   381
1005
16
1001
ACAD_DSTYLE_DIM_EXT2_LINETYPE
1070
   382
1005
16
0
DIMENSION
5
11F
100
AcDbEntity
8
SK2
62
256
6
ByLayer
370
18
48
1
60
0
100
AcDbDimension
2
_U2
10
0
20
-32.239737
30
0
11
-12.5
21
-32.239737
31
0
70
32
71
1
72
1
41
1
210
0
220
0
230
1
3
Standard
100
AcDbAlignedDimension
13
-25
23
-1.2
33
0
14
0
24
-1.2
34
0
50
0
100
AcDbRotatedDimension
1001
ACAD
1000
DSTYLE
1002
{
1070
   371
1070
    13
1070
   372
1070
    13
1070
     3
1000

1070
   170
1070
     0
1070
   144
1040
1.0
1070
   277
1070
     2
1070
   284
1070
     8
1070
   278
1070
    46
1070
   146
1040
1.166667
1070
   345
1005
16
1070
   347
1005
16
1070
   346
1005
16
1070
   344
1005
0
1070
   343
1005
0
1070
   172
1070
     1
1070
    76
1070
     0
1070
    75
1070
     0
1070
   282
1070
     0
1070
   281
1070
     0
1070
    71
1070
     0
1070
    74
1070
     0
1070
   279
1070
     0
1070
   173
1070
     1
1070
   340
1005
CD
1070
   271
1070
     2
1070
   272
1070
     3
1070
    77
1070
     1
1070
    73
1070
     1
1070
   171
1070
     3
1070
   274
1070
     4
1070
   177
1070
     2
1070
   176
1070
     2
1070
   178
1070
     2
1070
    78
1070
     8
1070
    48
1040
-0.1
1070
    41
1040
3.5
1070
   147
1040
1.5
1070
    42
1040
1.5875
1070
    44
1040
2.0
1070
   140
1040
3.0
1002
}
1001
ACAD_DSTYLE_DIM_LINETYPE
1070
   380
1005
16
1001
ACAD_DSTYLE_DIM_EXT1_LINETYPE
1070
   381
1005
16
1001
ACAD_DSTYLE_DIM_EXT2_LINETYPE
1070
   382
1005
16
0
DIMENSION
5
137
100
AcDbEntity
8
2
62
256
6
ByLayer
370
18
48
1
60
0
100
AcDbDimension
2
_U3
10
9.5
20
-30.239737
30
0
11
20.75
21
-30.239737
31
0
70
32
71
1
72
1
41
1
210
0
220
0
230
1
3
Standard
100
AcDbAlignedDimension
13
32
23
0
33
0
14
9.5
24
-1.2
34
0
50
0
100
AcDbRotatedDimension
1001
ACAD
1000
DSTYLE
1002
{
1070
   371
1070
    13
1070
   372
1070
    13
1070
     3
1000

1070
   170
1070
     0
1070
   144
1040
1.0
1070
   277
1070
     2
1070
   284
1070
     8
1070
   278
1070
    46
1070
   146
1040
1.166667
1070
   345
1005
16
1070
   347
1005
16
1070
   346
1005
16
1070
   344
1005
0
1070
   343
1005
0
1070
   172
1070
     1
1070
    76
1070
     0
1070
    75
1070
     0
1070
   282
1070
     0
1070
   281
1070
     0
1070
    71
1070
     0
1070
    74
1070
     0
1070
   279
1070
     0
1070
   173
1070
     1
1070
   340
1005
CD
1070
   271
1070
     2
1070
   272
1070
     3
1070
    77
1070
     1
1070
    73
1070
     1
1070
   171
1070
     3
1070
   274
1070
     4
1070
   177
1070
     2
1070
   176
1070
     2
1070
   178
1070
     2
1070
    78
1070
     8
1070
    48
1040
-0.1
1070
    41
1040
3.5
1070
   147
1040
1.5
1070
    42
1040
1.5875
1070
    44
1040
2.0
1070
   140
1040
3.0
1002
}
1001
ACAD_DSTYLE_DIM_LINETYPE
1070
   380
1005
16
1001
ACAD_DSTYLE_DIM_EXT1_LINETYPE
1070
   381
1005
16
1001
ACAD_DSTYLE_DIM_EXT2_LINETYPE
1070
   382
1005
16
0
ENDSEC
0
SECTION
2
OBJECTS
0
DICTIONARY
5
1c1
330
0
100
AcDbDictionary
280
0
281
1
3
ACAD_GROUP
350
1c2
3
ACAD_MLINESTYLE
350
1c3
0
DICTIONARY
5
1c2
330
0
100
AcDbDictionary
280
0
281
1
0
DICTIONARY
5
1c3
330
0
100
AcDbDictionary
280
0
281
1
3
Standard
350
18
0
MLINESTYLE
5
18
330
1c3
100
AcDbMlineStyle
2
Standard
70
0
3

62
256
51
90
52
90
71
2
49
-0.5
62
256
6
ByLayer
49
0.5
62
256
6
ByLayer
0
RASTERVARIABLES
5
1ad
330

100
AcDbRasterVariables
90
0
70
1
71
1
72
1
0
ENDSEC
0
EOF
